  0
SECTION
  2
HEADER
  9
$ACADVER
  1
AC1027
  9
$ACADMAINTVER
 70
   105
  9
$DWGCODEPAGE
  3
ANSI_1252
  9
$TITLE
  1
Konsole
  9
$AUTHOR
  1
GUZB562
  9
$LASTSAVEDBY
  1
guzb562
  9
$REQUIREDVERSIONS
160
                 0
  9
$INSBASE
 10
0.0
 20
0.0
 30
0.0
  9
$EXTMIN
 10
1434.532680846714
 20
1626.451122783038
 30
0.0
  9
$EXTMAX
 10
1527.784597200785
 20
2003.965563159363
 30
0.0
  9
$LIMMIN
 10
-126.5921000801846
 20
113.9489373397075
  9
$LIMMAX
 10
1973.407899919816
 20
1598.948937339707
  9
$ORTHOMODE
 70
     0
  9
$REGENMODE
 70
     1
  9
$FILLMODE
 70
     1
  9
$QTEXTMODE
 70
     0
  9
$MIRRTEXT
 70
     0
  9
$LTSCALE
 40
5.0
  9
$ATTMODE
 70
     1
  9
$TEXTSIZE
 40
32.45650825585813
  9
$TRACEWID
 40
1.0
  9
$TEXTSTYLE
  7
STANDARD
  9
$CLAYER
  8
AM_3 ( Verdeckt )
  9
$CELTYPE
  6
AM_ISO02W050x2
  9
$CECOLOR
 62
   256
  9
$CELTSCALE
 40
1.0
  9
$DISPSILH
 70
     0
  9
$DIMSCALE
 40
5.0
  9
$DIMASZ
 40
2.5
  9
$DIMEXO
 40
0.0
  9
$DIMDLI
 40
10.0
  9
$DIMRND
 40
0.0
  9
$DIMDLE
 40
0.0
  9
$DIMEXE
 40
1.0
  9
$DIMTP
 40
0.1
  9
$DIMTM
 40
0.1
  9
$DIMTXT
 40
3.5
  9
$DIMCEN
 40
0.0
  9
$DIMTSZ
 40
0.0
  9
$DIMTOL
 70
     0
  9
$DIMLIM
 70
     0
  9
$DIMTIH
 70
     0
  9
$DIMTOH
 70
     0
  9
$DIMSE1
 70
     0
  9
$DIMSE2
 70
     0
  9
$DIMTAD
 70
     1
  9
$DIMZIN
 70
     8
  9
$DIMBLK
  1

  9
$DIMASO
 70
     1
  9
$DIMSHO
 70
     1
  9
$DIMPOST
  1

  9
$DIMAPOST
  1
"
  9
$DIMALT
 70
     0
  9
$DIMALTD
 70
     2
  9
$DIMALTF
 40
0.0393701
  9
$DIMLFAC
 40
1.0
  9
$DIMTOFL
 70
     1
  9
$DIMTVP
 40
0.0
  9
$DIMTIX
 70
     0
  9
$DIMSOXD
 70
     0
  9
$DIMSAH
 70
     0
  9
$DIMBLK1
  1

  9
$DIMBLK2
  1

  9
$DIMSTYLE
  2
BENUTZERDEFINIERTE NORM
  9
$DIMCLRD
 70
   256
  9
$DIMCLRE
 70
   256
  9
$DIMCLRT
 70
     6
  9
$DIMTFAC
 40
0.71
  9
$DIMGAP
 40
1.5
  9
$DIMJUST
 70
     0
  9
$DIMSD1
 70
     0
  9
$DIMSD2
 70
     0
  9
$DIMTOLJ
 70
     0
  9
$DIMTZIN
 70
     8
  9
$DIMALTZ
 70
     0
  9
$DIMALTTZ
 70
     0
  9
$DIMUPT
 70
     0
  9
$DIMDEC
 70
     2
  9
$DIMTDEC
 70
     2
  9
$DIMALTU
 70
     2
  9
$DIMALTTD
 70
     2
  9
$DIMTXSTY
  7
STANDARD
  9
$DIMAUNIT
 70
     0
  9
$DIMADEC
 70
     0
  9
$DIMALTRND
 40
0.0
  9
$DIMAZIN
 70
     2
  9
$DIMDSEP
 70
    46
  9
$DIMATFIT
 70
     3
  9
$DIMFRAC
 70
     0
  9
$DIMLDRBLK
  1

  9
$DIMLUNIT
 70
     2
  9
$DIMLWD
 70
    -1
  9
$DIMLWE
 70
    -1
  9
$DIMTMOVE
 70
     0
  9
$DIMFXL
 40
1.0
  9
$DIMFXLON
 70
     0
  9
$DIMJOGANG
 40
1.570796326794896
  9
$DIMTFILL
 70
     0
  9
$DIMTFILLCLR
 70
     0
  9
$DIMARCSYM
 70
     0
  9
$DIMLTYPE
  6

  9
$DIMLTEX1
  6

  9
$DIMLTEX2
  6

  9
$DIMTXTDIRECTION
 70
     0
  9
$LUNITS
 70
     2
  9
$LUPREC
 70
     2
  9
$SKETCHINC
 40
1.0
  9
$FILLETRAD
 40
0.0
  9
$AUNITS
 70
     0
  9
$AUPREC
 70
     0
  9
$MENU
  1
ACAD
  9
$ELEVATION
 40
0.0
  9
$PELEVATION
 40
0.0
  9
$THICKNESS
 40
0.0
  9
$LIMCHECK
 70
     0
  9
$CHAMFERA
 40
12.5
  9
$CHAMFERB
 40
12.5
  9
$CHAMFERC
 40
0.0
  9
$CHAMFERD
 40
0.0
  9
$SKPOLY
 70
     0
  9
$TDCREATE
 40
2457794.538821123
  9
$TDUCREATE
 40
2457794.455487789
  9
$TDUPDATE
 40
2457897.344837836
  9
$TDUUPDATE
 40
2457897.261504502
  9
$TDINDWG
 40
0.0006300579
  9
$TDUSRTIMER
 40
0.0006299653
  9
$USRTIMER
 70
     1
  9
$ANGBASE
 50
0.0
  9
$ANGDIR
 70
     0
  9
$PDMODE
 70
     0
  9
$PDSIZE
 40
0.0
  9
$PLINEWID
 40
0.0
  9
$SPLFRAME
 70
     0
  9
$SPLINETYPE
 70
     6
  9
$SPLINESEGS
 70
     8
  9
$HANDSEED
  5
20A1
  9
$SURFTAB1
 70
     6
  9
$SURFTAB2
 70
     6
  9
$SURFTYPE
 70
     6
  9
$SURFU
 70
     6
  9
$SURFV
 70
     6
  9
$UCSBASE
  2

  9
$UCSNAME
  2

  9
$UCSORG
 10
0.0
 20
0.0
 30
0.0
  9
$UCSXDIR
 10
1.0
 20
0.0
 30
0.0
  9
$UCSYDIR
 10
0.0
 20
1.0
 30
0.0
  9
$UCSORTHOREF
  2

  9
$UCSORTHOVIEW
 70
     0
  9
$UCSORGTOP
 10
0.0
 20
0.0
 30
0.0
  9
$UCSORGBOTTOM
 10
0.0
 20
0.0
 30
0.0
  9
$UCSORGLEFT
 10
0.0
 20
0.0
 30
0.0
  9
$UCSORGRIGHT
 10
0.0
 20
0.0
 30
0.0
  9
$UCSORGFRONT
 10
0.0
 20
0.0
 30
0.0
  9
$UCSORGBACK
 10
0.0
 20
0.0
 30
0.0
  9
$PUCSBASE
  2

  9
$PUCSNAME
  2

  9
$PUCSORG
 10
0.0
 20
0.0
 30
0.0
  9
$PUCSXDIR
 10
1.0
 20
0.0
 30
0.0
  9
$PUCSYDIR
 10
0.0
 20
1.0
 30
0.0
  9
$PUCSORTHOREF
  2

  9
$PUCSORTHOVIEW
 70
     0
  9
$PUCSORGTOP
 10
0.0
 20
0.0
 30
0.0
  9
$PUCSORGBOTTOM
 10
0.0
 20
0.0
 30
0.0
  9
$PUCSORGLEFT
 10
0.0
 20
0.0
 30
0.0
  9
$PUCSORGRIGHT
 10
0.0
 20
0.0
 30
0.0
  9
$PUCSORGFRONT
 10
0.0
 20
0.0
 30
0.0
  9
$PUCSORGBACK
 10
0.0
 20
0.0
 30
0.0
  9
$USERI1
 70
     0
  9
$USERI2
 70
     0
  9
$USERI3
 70
     0
  9
$USERI4
 70
     0
  9
$USERI5
 70
     0
  9
$USERR1
 40
0.0
  9
$USERR2
 40
0.0
  9
$USERR3
 40
0.0
  9
$USERR4
 40
0.0
  9
$USERR5
 40
0.0
  9
$WORLDVIEW
 70
     1
  9
$SHADEDGE
 70
     3
  9
$SHADEDIF
 70
    70
  9
$TILEMODE
 70
     1
  9
$MAXACTVP
 70
    64
  9
$PINSBASE
 10
0.0
 20
0.0
 30
0.0
  9
$PLIMCHECK
 70
     0
  9
$PEXTMIN
 10
1.000000000000000E+20
 20
1.000000000000000E+20
 30
1.000000000000000E+20
  9
$PEXTMAX
 10
-1.000000000000000E+20
 20
-1.000000000000000E+20
 30
-1.000000000000000E+20
  9
$PLIMMIN
 10
0.0
 20
0.0
  9
$PLIMMAX
 10
12.0
 20
9.0
  9
$UNITMODE
 70
     0
  9
$VISRETAIN
 70
     1
  9
$PLINEGEN
 70
     0
  9
$PSLTSCALE
 70
     1
  9
$TREEDEPTH
 70
  3020
  9
$CMLSTYLE
  2
Standard
  9
$CMLJUST
 70
     0
  9
$CMLSCALE
 40
1.0
  9
$PROXYGRAPHICS
 70
     1
  9
$MEASUREMENT
 70
     1
  9
$CELWEIGHT
370
    -1
  9
$ENDCAPS
280
     0
  9
$JOINSTYLE
280
     0
  9
$LWDISPLAY
290
     0
  9
$INSUNITS
 70
     4
  9
$HYPERLINKBASE
  1

  9
$STYLESHEET
  1
OASE.ctb
  9
$XEDIT
290
     1
  9
$CEPSNTYPE
380
     0
  9
$PSTYLEMODE
290
     1
  9
$FINGERPRINTGUID
  2
{9D258248-F2B4-4707-A299-C8511EA3F551}
  9
$VERSIONGUID
  2
{659CD453-F951-4D80-A004-400A8EF52200}
  9
$EXTNAMES
290
     1
  9
$PSVPSCALE
 40
0.0
  9
$OLESTARTUP
290
     0
  9
$SORTENTS
280
   127
  9
$INDEXCTL
280
     0
  9
$HIDETEXT
280
     0
  9
$XCLIPFRAME
280
     2
  9
$HALOGAP
280
     0
  9
$OBSCOLOR
 70
   257
  9
$OBSLTYPE
280
     0
  9
$INTERSECTIONDISPLAY
280
     0
  9
$INTERSECTIONCOLOR
 70
   257
  9
$DIMASSOC
280
     2
  9
$PROJECTNAME
  1

  9
$CAMERADISPLAY
290
     0
  9
$LENSLENGTH
 40
50.0
  9
$CAMERAHEIGHT
 40
0.0
  9
$STEPSPERSEC
 40
2.0
  9
$STEPSIZE
 40
6.0
  9
$3DDWFPREC
 40
2.0
  9
$PSOLWIDTH
 40
0.25
  9
$PSOLHEIGHT
 40
4.0
  9
$LOFTANG1
 40
1.570796326794896
  9
$LOFTANG2
 40
1.570796326794896
  9
$LOFTMAG1
 40
0.0
  9
$LOFTMAG2
 40
0.0
  9
$LOFTPARAM
 70
     7
  9
$LOFTNORMALS
280
     1
  9
$LATITUDE
 40
37.795
  9
$LONGITUDE
 40
-122.394
  9
$NORTHDIRECTION
 40
0.0
  9
$TIMEZONE
 70
 -8000
  9
$LIGHTGLYPHDISPLAY
280
     1
  9
$TILEMODELIGHTSYNCH
280
     1
  9
$CMATERIAL
347
11
  9
$SOLIDHIST
280
     0
  9
$SHOWHIST
280
     1
  9
$DWFFRAME
280
     2
  9
$DGNFRAME
280
     0
  9
$REALWORLDSCALE
290
     1
  9
$INTERFERECOLOR
 62
     1
  9
$INTERFEREOBJVS
345
33
  9
$INTERFEREVPVS
346
30
  9
$CSHADOW
280
     0
  9
$SHADOWPLANELOCATION
 40
0.0
  0
ENDSEC
  0
SECTION
  2
CLASSES
  0
CLASS
  1
ACDBDICTIONARYWDFLT
  2
AcDbDictionaryWithDefault
  3
ObjectDBX Classes
 90
        0
 91
        1
280
     0
281
     0
  0
CLASS
  1
MATERIAL
  2
AcDbMaterial
  3
ObjectDBX Classes
 90
     1153
 91
        3
280
     0
281
     0
  0
CLASS
  1
VISUALSTYLE
  2
AcDbVisualStyle
  3
ObjectDBX Classes
 90
     4095
 91
       26
280
     0
281
     0
  0
CLASS
  1
SCALE
  2
AcDbScale
  3
ObjectDBX Classes
 90
     1153
 91
       20
280
     0
281
     0
  0
CLASS
  1
TABLESTYLE
  2
AcDbTableStyle
  3
ObjectDBX Classes
 90
     4095
 91
        1
280
     0
281
     0
  0
CLASS
  1
MLEADERSTYLE
  2
AcDbMLeaderStyle
  3
ACDB_MLEADERSTYLE_CLASS
 90
     4095
 91
        1
280
     0
281
     0
  0
CLASS
  1
AMGSETTINGSOBJ
  2
AmgSettingsObj
  3
"AcadM|Product Description: AutoCAD Mechanical|Company: Autodesk, Inc."
 90
     1024
 91
        4
280
     0
281
     0
  0
CLASS
  1
ACME_DOCUMENT
  2
AcMeDbDoc
  3
AcMeServices
 90
     1024
 91
        2
280
     0
281
     0
  0
CLASS
  1
ACMESCOPE
  2
AcMeScope
  3
AcMeServices
 90
     1024
 91
        1
280
     0
281
     0
  0
CLASS
  1
ACMECOMMANDHISTORY
  2
AcMeCommandHistory
  3
AcMeServices
 90
     1024
 91
        1
280
     0
281
     0
  0
CLASS
  1
ACIMSYSVARMAN
  2
AcImSysVarManager
  3
AcMeServices
 90
     1024
 91
        3
280
     0
281
     0
  0
CLASS
  1
ACIMINTSYSVAR
  2
AcImIntSysVar
  3
AcMeServices
 90
     1024
 91
        3
280
     0
281
     0
  0
CLASS
  1
ACMESTATEMGR
  2
AcMeStateMgr
  3
AcMeServices
 90
     1024
 91
        1
280
     0
281
     0
  0
CLASS
  1
ACDBENTITYCACHE
  2
AcMeEntityCache
  3
AcMeServices
 90
     1024
 91
        1
280
     0
281
     0
  0
CLASS
  1
ACGREFMASTER
  2
AcGrefMaster
  3
AcAttribServices
 90
     1024
 91
        1
280
     0
281
     0
  0
CLASS
  1
ACME_DATABASE
  2
AcMeDbDatabase
  3
AcMeServices
 90
     1024
 91
        1
280
     0
281
     0
  0
CLASS
  1
ACRFINSADJUSTERMGR
  2
AcRfInsAdjusterMgr
  3
AcMeServices
 90
     1024
 91
        1
280
     0
281
     0
  0
CLASS
  1
ACGREFACADMASTER
  2
AcGrefacadMaster
  3
AcGrefServices
 90
     1024
 91
        1
280
     0
281
     0
  0
CLASS
  1
AMDTMENUSTATEMGR
  2
AmdtMenuStateMgr
  3
McadcomServices
 90
     1024
 91
        1
280
     0
281
     0
  0
CLASS
  1
AMDTMCOMMENUSTATE
  2
AmdtMcomMenuState
  3
McadcomServices
 90
     1024
 91
        1
280
     0
281
     0
  0
CLASS
  1
AMIMASTER
  2
AmiMaster
  3
AmiServices
 90
     1024
 91
        1
280
     0
281
     0
  0
CLASS
  1
MAPIAMMOUDLE
  2
MApiAmModule
  3
MApiAmServices
 90
     1024
 91
        1
280
     0
281
     0
  0
CLASS
  1
ACIMSTRSYSVAR
  2
AcImStrSysVar
  3
AcMeServices
 90
     1024
 91
        5
280
     0
281
     0
  0
CLASS
  1
AMDTAMMENUSTATE
  2
AmdtAmMenuState
  3
DesignerAssemblies
 90
     1024
 91
        1
280
     0
281
     0
  0
CLASS
  1
ACAMPROJECT
  2
AcAmProject
  3
DesignerAssemblies
 90
     1024
 91
        1
280
     0
281
     0
  0
CLASS
  1
ACAMGRCOMPDEF
  2
AcAmGrCompDef
  3
DesignerAssemblies
 90
     1024
 91
        1
280
     0
281
     0
  0
CLASS
  1
ACAMCOMPDEF
  2
AcAmCompDef
  3
DesignerAssemblies
 90
     1024
 91
        1
280
     0
281
     0
  0
CLASS
  1
ACAMCOMPDEFMGR
  2
AcAmCompDefMgr
  3
DesignerAssemblies
 90
     1024
 91
        1
280
     0
281
     0
  0
CLASS
  1
AMCONTEXTMGR
  2
AcAmContextMgr
  3
DesignerAssemblies
 90
     1024
 91
        1
280
     0
281
     0
  0
CLASS
  1
ACAMCONTEXTMODELER
  2
AcAmContextModeler
  3
DesignerAssemblies
 90
     1024
 91
        1
280
     0
281
     0
  0
CLASS
  1
ACMDATADICTIONARY
  2
AcmDataDictionary
  3
"AcmSymBB|Product Description: AutoCAD Mechanical|Company: Autodesk, Inc."
 90
     1024
 91
        1
280
     0
281
     0
  0
CLASS
  1
ACAMGRCOMPDEFSET
  2
AcAmGrCompDefSet
  3
DesignerAssemblies
 90
     1024
 91
        1
280
     0
281
     0
  0
CLASS
  1
AMDTBROWSERDBTAB
  2
AmdtBrowserDbTab
  3
McadcomServices
 90
     1024
 91
        1
280
     0
281
     0
  0
CLASS
  1
CBROWSERAPPOBJECT
  2
CBrowserAppObject
  3
McadcomServices
 90
     1024
 91
        2
280
     0
281
     0
  0
CLASS
  1
DM_PLACEHOLDER
  2
AcDmSelsetPlaceholder
  3
McadcomServices
 90
     1024
 91
        1
280
     0
281
     0
  0
CLASS
  1
ACMDATAENTRYBLOCK
  2
AcmDataEntryBlock
  3
AcmSymBB|Product Description: AutoCAD Mechanical|Company: Autodesk, Inc.
 90
     1024
 91
        4
280
     0
281
     0
  0
CLASS
  1
ACRFATTGENMGR
  2
AcRfAttGeneralMgr
  3
AcAttribServices
 90
     1024
 91
        1
280
     0
281
     0
  0
CLASS
  1
ACRFOBJATTMGR
  2
AcRfObjAttGroupMgr
  3
AcAttribServices
 90
     1024
 91
        1
280
     0
281
     0
  0
CLASS
  1
ACRFMCADAPIATTHOLDER
  2
AcRfMCADAPIAttHolder
  3
AcAttribServices
 90
     1024
 91
        1
280
     0
281
     0
  0
CLASS
  1
AMDTSYSATTR
  2
AmdtSystemAttribute
  3
AcAttribServices
 90
     1024
 91
        7
280
     0
281
     0
  0
CLASS
  1
ACMBOM
  2
AcmBom
  3
"AcmSymBB|Product Description: AutoCAD Mechanical|Company: Autodesk, Inc."
 90
     1024
 91
        1
280
     0
281
     0
  0
CLASS
  1
AMDTFORMULAUPDATEDISPATCHER
  2
AmdtFormulaUpdateDispatcher
  3
AcMeServices
 90
     1024
 91
        1
280
     0
281
     0
  0
CLASS
  1
ACMSTANDARDANSI
  2
AcmStandardANSI
  3
"Amdt_StdImp|Product Description: AutoCAD Mechanical|Company: Autodesk, Inc."
 90
     1024
 91
        1
280
     0
281
     0
  0
CLASS
  1
ACMSURFSTANDARDANSI
  2
AcmSurfTextStdANSI
  3
"Amdt_StdImp|Product Description: AutoCAD Mechanical|Company: Autodesk, Inc."
 90
     1024
 91
        1
280
     0
281
     0
  0
CLASS
  1
ACMFCFSTANDARDANSI
  2
AcmFCFStdANSI
  3
"Amdt_StdImp|Product Description: AutoCAD Mechanical|Company: Autodesk, Inc."
 90
     1024
 91
        1
280
     0
281
     0
  0
CLASS
  1
ACMWELDSTANDARDANSI
  2
AcmWeldingStdANSI
  3
"Amdt_StdImp|Product Description: AutoCAD Mechanical|Company: Autodesk, Inc."
 90
     1024
 91
        1
280
     0
281
     0
  0
CLASS
  1
ACMIDSTANDARDANSI
  2
AcmIdStdANSI
  3
"Amdt_StdImp|Product Description: AutoCAD Mechanical|Company: Autodesk, Inc."
 90
     1024
 91
        1
280
     0
281
     0
  0
CLASS
  1
ACMDATUMSTANDARDANSI
  2
AcmDatumStdANSI
  3
"Amdt_StdImp|Product Description: AutoCAD Mechanical|Company: Autodesk, Inc."
 90
     1024
 91
        1
280
     0
281
     0
  0
CLASS
  1
ACMBOMSTANDARDANSI
  2
AcmBOMStdANSI
  3
"Amdt_StdImp|Product Description: AutoCAD Mechanical|Company: Autodesk, Inc."
 90
     1024
 91
        1
280
     0
281
     0
  0
CLASS
  1
ACMDETAILSTANDARDANSI
  2
AmdtDetailSymStdANSI
  3
"Amdt_StdImp|Product Description: AutoCAD Mechanical|Company: Autodesk, Inc."
 90
     1024
 91
        0
280
     0
281
     0
  0
CLASS
  1
ACMSECTIONSTANDARDANSI
  2
AmdtSectionSymStdANSI
  3
"Amdt_StdImp|Product Description: AutoCAD Mechanical|Company: Autodesk, Inc."
 90
     1024
 91
        0
280
     0
281
     0
  0
CLASS
  1
ACMCENTERLINESTANDARDANSI
  2
AmdtCenterLineStdANSI
  3
"Amdt_StdImp|Product Description: AutoCAD Mechanical|Company: Autodesk, Inc."
 90
     1024
 91
        1
280
     0
281
     0
  0
CLASS
  1
ACMTHREADLINESTANDARDANSI
  2
AmdtThreadLineStdANSI
  3
"Amdt_StdImp|Product Description: AutoCAD Mechanical|Company: Autodesk, Inc."
 90
     1024
 91
        1
280
     0
281
     0
  0
CLASS
  1
ACMNOTESTANDARDANSI
  2
AmdtNoteStdANSI
  3
"Amdt_StdImp|Product Description: AutoCAD Mechanical|Company: Autodesk, Inc."
 90
     1024
 91
        1
280
     0
281
     0
  0
CLASS
  1
ACMTAPERSTANDARDANSI
  2
AcmTaperStdANSI
  3
"Amdt_StdImp|Product Description: AutoCAD Mechanical|Company: Autodesk, Inc."
 90
     1024
 91
        1
280
     0
281
     0
  0
CLASS
  1
ACMANOOTATIONVIEWSTANDARDANSI
  2
AmdtAnViewStdANSI
  3
"Amdt_StdImp|Product Description: AutoCAD Mechanical|Company: Autodesk, Inc."
 90
     1024
 91
        1
280
     0
281
     0
  0
CLASS
  1
ACAMGLAYSTD
  2
AcAmgLayStd
  3
"AmgLay|Product Description: AutoCAD Mechanical|Company: Autodesk, Inc."
 90
     1024
 91
        4
280
     0
281
     0
  0
CLASS
  1
ACAMGDIMSTD
  2
AcAmgDimStd
  3
"AmgDim|Product Description: AutoCAD Mechanical|Company: Autodesk, Inc."
 90
     1024
 91
        4
280
     0
281
     0
  0
CLASS
  1
AMGOBJPROPCFG
  2
AmgObjPropCfg
  3
"AmgLay|Product Description: AutoCAD Mechanical|Company: Autodesk, Inc."
 90
     1024
 91
        1
280
     0
281
     0
  0
CLASS
  1
ACAMGHOLECHARTSTDANSI
  2
AcAmgHoleChartStdANSI
  3
AmgDim|Product Description: AutoCAD Mechanical|Company: Autodesk, Inc.
 90
     1024
 91
        1
280
     0
281
     0
  0
CLASS
  1
ACAMGTITLESTD
  2
AcAmgTitleStd
  3
"AmgTitle|Product Description: AutoCAD Mechanical|Company: Autodesk, Inc."
 90
     1024
 91
        4
280
     0
281
     0
  0
CLASS
  1
AMDTNOTETEMPLATEDB
  2
AmdtNoteTemplateDB
  3
AcmSymBB|Product Description: AutoCAD Mechanical|Company: Autodesk, Inc.
 90
     1024
 91
       25
280
     0
281
     0
  0
CLASS
  1
ACAMGFILTERDAT
  2
AcAmgFilterDat
  3
"AcadM|Product Description: AutoCAD Mechanical|Company: Autodesk, Inc."
 90
     1024
 91
        0
280
     0
281
     0
  0
CLASS
  1
ACMSTANDARDDIN
  2
AcmStandardDIN
  3
"Amdt_StdImp|Product Description: AutoCAD Mechanical|Company: Autodesk, Inc."
 90
     1024
 91
        2
280
     0
281
     0
  0
CLASS
  1
AMDTEDGESTANDARDDIN13715
  2
AmdtEdgeStdDIN13715
  3
"Amdt_StdImp|Product Description: AutoCAD Mechanical|Company: Autodesk, Inc."
 90
     1024
 91
        2
280
     0
281
     0
  0
CLASS
  1
ACMFCFSTANDARDDIN
  2
AcmFCFStdDIN
  3
"Amdt_StdImp|Product Description: AutoCAD Mechanical|Company: Autodesk, Inc."
 90
     1024
 91
        2
280
     0
281
     0
  0
CLASS
  1
ACMWELDSTANDARDDIN
  2
AcmWeldingStdDIN
  3
"Amdt_StdImp|Product Description: AutoCAD Mechanical|Company: Autodesk, Inc."
 90
     1024
 91
        2
280
     0
281
     0
  0
CLASS
  1
ACMIDSTANDARDDIN
  2
AcmIdStdDIN
  3
"Amdt_StdImp|Product Description: AutoCAD Mechanical|Company: Autodesk, Inc."
 90
     1024
 91
        2
280
     0
281
     0
  0
CLASS
  1
ACMDATUMSTANDARDDIN
  2
AcmDatumStdDIN
  3
"Amdt_StdImp|Product Description: AutoCAD Mechanical|Company: Autodesk, Inc."
 90
     1024
 91
        2
280
     0
281
     0
  0
CLASS
  1
ACMBOMSTANDARDDIN
  2
AcmBOMStdDIN
  3
"Amdt_StdImp|Product Description: AutoCAD Mechanical|Company: Autodesk, Inc."
 90
     1024
 91
        2
280
     0
281
     0
  0
CLASS
  1
ACMDETAILSTANDARDDIN
  2
AmdtDetailSymStdDIN
  3
"Amdt_StdImp|Product Description: AutoCAD Mechanical|Company: Autodesk, Inc."
 90
     1024
 91
        1
280
     0
281
     0
  0
CLASS
  1
ACMSECTIONSTANDARDDIN
  2
AmdtSectionSymStdDIN
  3
"Amdt_StdImp|Product Description: AutoCAD Mechanical|Company: Autodesk, Inc."
 90
     1024
 91
        1
280
     0
281
     0
  0
CLASS
  1
ACMCENTERLINESTANDARDDIN
  2
AmdtCenterLineStdDIN
  3
"Amdt_StdImp|Product Description: AutoCAD Mechanical|Company: Autodesk, Inc."
 90
     1024
 91
        2
280
     0
281
     0
  0
CLASS
  1
ACMTHREADLINESTANDARDDIN
  2
AmdtThreadLineStdDIN
  3
"Amdt_StdImp|Product Description: AutoCAD Mechanical|Company: Autodesk, Inc."
 90
     1024
 91
        2
280
     0
281
     0
  0
CLASS
  1
ACMNOTESTANDARDDIN
  2
AmdtNoteStdDIN
  3
"Amdt_StdImp|Product Description: AutoCAD Mechanical|Company: Autodesk, Inc."
 90
     1024
 91
        2
280
     0
281
     0
  0
CLASS
  1
ACMTAPERSTANDARDDIN
  2
AcmTaperStdDIN
  3
"Amdt_StdImp|Product Description: AutoCAD Mechanical|Company: Autodesk, Inc."
 90
     1024
 91
        2
280
     0
281
     0
  0
CLASS
  1
ACAMGHOLECHARTSTDDIN
  2
AcAmgHoleChartStdDIN
  3
AmgDim|Product Description: AutoCAD Mechanical|Company: Autodesk, Inc.
 90
     1024
 91
        2
280
     0
281
     0
  0
CLASS
  1
ACMSURFSTANDARDDIN2002
  2
AcmSurfTextStdDIN2002
  3
"Amdt_StdImp|Product Description: AutoCAD Mechanical|Company: Autodesk, Inc."
 90
     1024
 91
        2
280
     0
281
     0
  0
CLASS
  1
ACMANOOTATIONVIEWSTANDARDDIN
  2
AmdtAnViewStdDIN
  3
"Amdt_StdImp|Product Description: AutoCAD Mechanical|Company: Autodesk, Inc."
 90
     1024
 91
        2
280
     0
281
     0
  0
CLASS
  1
ACMSTANDARDISO
  2
AcmStandardISO
  3
"Amdt_StdImp|Product Description: AutoCAD Mechanical|Company: Autodesk, Inc."
 90
     1024
 91
        1
280
     0
281
     0
  0
CLASS
  1
AMDTEDGESTANDARDISO
  2
AmdtEdgeStdISO
  3
"Amdt_StdImp|Product Description: AutoCAD Mechanical|Company: Autodesk, Inc."
 90
     1024
 91
        1
280
     0
281
     0
  0
CLASS
  1
ACMFCFSTANDARDISO
  2
AcmFCFStdISO
  3
"Amdt_StdImp|Product Description: AutoCAD Mechanical|Company: Autodesk, Inc."
 90
     1024
 91
        1
280
     0
281
     0
  0
CLASS
  1
ACMWELDSTANDARDISO
  2
AcmWeldingStdISO
  3
"Amdt_StdImp|Product Description: AutoCAD Mechanical|Company: Autodesk, Inc."
 90
     1024
 91
        1
280
     0
281
     0
  0
CLASS
  1
ACMIDSTANDARDISO
  2
AcmIdStdISO
  3
"Amdt_StdImp|Product Description: AutoCAD Mechanical|Company: Autodesk, Inc."
 90
     1024
 91
        1
280
     0
281
     0
  0
CLASS
  1
ACMDATUMSTANDARDISO
  2
AcmDatumStdISO
  3
"Amdt_StdImp|Product Description: AutoCAD Mechanical|Company: Autodesk, Inc."
 90
     1024
 91
        1
280
     0
281
     0
  0
CLASS
  1
ACMBOMSTANDARDISO
  2
AcmBOMStdISO
  3
"Amdt_StdImp|Product Description: AutoCAD Mechanical|Company: Autodesk, Inc."
 90
     1024
 91
        1
280
     0
281
     0
  0
CLASS
  1
ACMDETAILSTANDARDISO
  2
AmdtDetailSymStdISO
  3
"Amdt_StdImp|Product Description: AutoCAD Mechanical|Company: Autodesk, Inc."
 90
     1024
 91
        0
280
     0
281
     0
  0
CLASS
  1
ACMCENTERLINESTANDARDISO
  2
AmdtCenterLineStdISO
  3
"Amdt_StdImp|Product Description: AutoCAD Mechanical|Company: Autodesk, Inc."
 90
     1024
 91
        1
280
     0
281
     0
  0
CLASS
  1
ACMNOTESTANDARDISO
  2
AmdtNoteStdISO
  3
"Amdt_StdImp|Product Description: AutoCAD Mechanical|Company: Autodesk, Inc."
 90
     1024
 91
        1
280
     0
281
     0
  0
CLASS
  1
ACAMGHOLECHARTSTDISO
  2
AcAmgHoleChartStdISO
  3
AmgDim|Product Description: AutoCAD Mechanical|Company: Autodesk, Inc.
 90
     1024
 91
        1
280
     0
281
     0
  0
CLASS
  1
ACMTHREADLINESTANDARDISO
  2
AmdtThreadLineStdISO
  3
"Amdt_StdImp|Product Description: AutoCAD Mechanical|Company: Autodesk, Inc."
 90
     1024
 91
        1
280
     0
281
     0
  0
CLASS
  1
ACMTAPERSTANDARDISO
  2
AcmTaperStdISO
  3
"Amdt_StdImp|Product Description: AutoCAD Mechanical|Company: Autodesk, Inc."
 90
     1024
 91
        1
280
     0
281
     0
  0
CLASS
  1
ACMSURFSTANDARDISO2002
  2
AcmSurfTextStdISO2002
  3
"Amdt_StdImp|Product Description: AutoCAD Mechanical|Company: Autodesk, Inc."
 90
     1024
 91
        1
280
     0
281
     0
  0
CLASS
  1
ACMSECTIONSTANDARDISO2001
  2
AmdtSectionSymStdISO2001
  3
"Amdt_StdImp|Product Description: AutoCAD Mechanical|Company: Autodesk, Inc."
 90
     1024
 91
        0
280
     0
281
     0
  0
CLASS
  1
ACMANOOTATIONVIEWSTANDARDISO
  2
AmdtAnViewStdISO
  3
"Amdt_StdImp|Product Description: AutoCAD Mechanical|Company: Autodesk, Inc."
 90
     1024
 91
        1
280
     0
281
     0
  0
CLASS
  1
CAMSSTRUCTBTNSTATE
  2
StructBtnState
  3
DesignerAssemblies
 90
     1024
 91
        1
280
     0
281
     0
  0
CLASS
  1
DICTIONARYVAR
  2
AcDbDictionaryVar
  3
ObjectDBX Classes
 90
        0
 91
        9
280
     0
281
     0
  0
CLASS
  1
DIMASSOC
  2
AcDbDimAssoc
  3
"AcDbDimAssoc|Product Desc:     AcDim ARX App For Dimension|Company:          Autodesk, Inc.|WEB Address:      www.autodesk.com"
 90
        0
 91
        8
280
     0
281
     0
  0
CLASS
  1
ACARRAYJIGENTITY
  2
AcArrayJigEntity
  3
ACAD_ARRAY
 90
      129
 91
        0
280
     0
281
     1
  0
CLASS
  1
ACDBASSOCNETWORK
  2
AcDbAssocNetwork
  3
ObjectDBX Classes
 90
     1025
 91
        0
280
     0
281
     0
  0
CLASS
  1
ACDBASSOCACTION
  2
AcDbAssocAction
  3
ObjectDBX Classes
 90
     1025
 91
        0
280
     0
281
     0
  0
CLASS
  1
ACDBASSOCARRAYACTIONBODY
  2
AcDbAssocArrayActionBody
  3
ObjectDBX Classes
 90
     1025
 91
        0
280
     0
281
     0
  0
CLASS
  1
ACDBASSOCVERTEXACTIONPARAM
  2
AcDbAssocVertexActionParam
  3
ObjectDBX Classes
 90
     1025
 91
        0
280
     0
281
     0
  0
CLASS
  1
ACDBASSOCDEPENDENCY
  2
AcDbAssocDependency
  3
ObjectDBX Classes
 90
     1025
 91
        0
280
     0
281
     0
  0
CLASS
  1
ACDBASSOCARRAYRECTANGULARPARAMETERS
  2
AcDbAssocArrayRectangularParameters
  3
ObjectDBX Classes
 90
     1025
 91
        0
280
     0
281
     0
  0
CLASS
  1
SORTENTSTABLE
  2
AcDbSortentsTable
  3
ObjectDBX Classes
 90
        0
 91
        2
280
     0
281
     0
  0
CLASS
  1
CELLSTYLEMAP
  2
AcDbCellStyleMap
  3
ObjectDBX Classes
 90
     1152
 91
        1
280
     0
281
     0
  0
CLASS
  1
ACDBSECTIONVIEWSTYLE
  2
AcDbSectionViewStyle
  3
ObjectDBX Classes
 90
     1025
 91
        5
280
     0
281
     0
  0
CLASS
  1
ACDBDETAILVIEWSTYLE
  2
AcDbDetailViewStyle
  3
ObjectDBX Classes
 90
     1025
 91
        5
280
     0
281
     0
  0
CLASS
  1
ACMSECTIONSTANDARDCUSTOM
  2
AmdtSectionSymStdCustom
  3
"Amdt_StdImp|Product Description: AutoCAD Mechanical|Company: Autodesk, Inc."
 90
     1024
 91
       16
280
     0
281
     0
  0
CLASS
  1
ACMDETAILTANDARDCUSTOM
  2
AmdtDetailSymStdCustom
  3
"Amdt_StdImp|Product Description: AutoCAD Mechanical|Company: Autodesk, Inc."
 90
     1024
 91
       16
280
     0
281
     0
  0
CLASS
  1
FIELD
  2
AcDbField
  3
ObjectDBX Classes
 90
     1152
 91
       19
280
     0
281
     0
  0
CLASS
  1
FIELDLIST
  2
AcDbFieldList
  3
ObjectDBX Classes
 90
     1152
 91
        1
280
     0
281
     0
  0
CLASS
  1
EXACXREFPANELOBJECT
  2
ExAcXREFPanelObject
  3
EXAC_ESW
 90
     1025
 91
        1
280
     0
281
     0
  0
CLASS
  1
NPOCOLLECTION
  2
AcDbImpNonPersistentObjectsCollection
  3
ObjectDBX Classes
 90
     1153
 91
        1
280
     0
281
     0
  0
CLASS
  1
ACMPARTLIST
  2
AcmPartList
  3
"AcmSymBB|Product Description: AutoCAD Mechanical|Company: Autodesk, Inc."
 90
     1024
 91
        0
280
     0
281
     1
  0
CLASS
  1
ACMDATAENTRYPART
  2
AcmDataEntryPart
  3
AcmSymBB|Product Description: AutoCAD Mechanical|Company: Autodesk, Inc.
 90
     1024
 91
        0
280
     0
281
     0
  0
CLASS
  1
ACMPARTREF
  2
AcmPartRef
  3
"AcmSymBB|Product Description: AutoCAD Mechanical|Company: Autodesk, Inc."
 90
     1024
 91
        0
280
     0
281
     1
  0
CLASS
  1
ACMBOMROW
  2
AcmBomRow
  3
"AcmSymBB|Product Description: AutoCAD Mechanical|Company: Autodesk, Inc."
 90
     1024
 91
        0
280
     0
281
     0
  0
CLASS
  1
ACMPICKOBJ
  2
AcmPickEnt
  3
"AcmSymBB|Product Description: AutoCAD Mechanical|Company: Autodesk, Inc."
 90
     1024
 91
        0
280
     0
281
     1
  0
ENDSEC
  0
SECTION
  2
TABLES
  0
TABLE
  2
VPORT
  5
8
330
0
100
AcDbSymbolTable
 70
     1
  0
VPORT
  5
76
330
8
100
AcDbSymbolTableRecord
100
AcDbViewportTableRecord
  2
*Active
 70
     0
 10
0.0
 20
0.0
 11
1.0
 21
1.0
 12
1481.150250432214
 22
1829.027302058259
 13
0.0
 23
0.0
 14
12.5
 24
12.5
 15
50.0
 25
50.0
 16
0.0
 26
0.0
 36
1.0
 17
0.0
 27
0.0
 37
0.0
 40
408.6634400186753
 41
1.988826815642458
 42
50.0
 43
0.0
 44
0.0
 50
0.0
 51
0.0
 71
     0
 72
   100
 73
     1
 74
     1
 75
     0
 76
     0
 77
     0
 78
     0
281
     0
 65
     0
110
0.0
120
0.0
130
0.0
111
1.0
121
0.0
131
0.0
112
0.0
122
1.0
132
0.0
 79
     0
146
0.0
348
2F
 60
     3
 61
     5
292
     1
282
     1
141
0.0
142
0.0
 63
   250
421
  3355443
1001
ACAD_NAV_VCDISPLAY
1070
     3
  0
ENDTAB
  0
TABLE
  2
LTYPE
  5
5
330
0
100
AcDbSymbolTable
 70
    23
  0
LTYPE
  5
5A
330
5
100
AcDbSymbolTableRecord
100
AcDbLinetypeTableRecord
  2
ByBlock
 70
     0
  3

 72
    65
 73
     0
 40
0.0
  0
LTYPE
  5
5B
330
5
100
AcDbSymbolTableRecord
100
AcDbLinetypeTableRecord
  2
ByLayer
 70
     0
  3

 72
    65
 73
     0
 40
0.0
  0
LTYPE
  5
5C
330
5
100
AcDbSymbolTableRecord
100
AcDbLinetypeTableRecord
  2
CONTINUOUS
 70
     0
  3
Solid line
 72
    65
 73
     0
 40
0.0
  0
LTYPE
  5
F6
330
5
100
AcDbSymbolTableRecord
100
AcDbLinetypeTableRecord
  2
HIDDEN
 70
     0
  3
Verdeckt
 72
    65
 73
     2
 40
0.375
 49
0.25
 74
     0
 49
-0.125
 74
     0
  0
LTYPE
  5
F7
330
5
100
AcDbSymbolTableRecord
100
AcDbLinetypeTableRecord
  2
PHANTOM2
 70
     0
  3
Phantom (.5x) ___ _ _ ___ _ _ ___ _ _ ___ _ _
 72
    65
 73
     6
 40
1.25
 49
0.625
 74
     0
 49
-0.125
 74
     0
 49
0.125
 74
     0
 49
-0.125
 74
     0
 49
0.125
 74
     0
 49
-0.125
 74
     0
  0
LTYPE
  5
F8
330
5
100
AcDbSymbolTableRecord
100
AcDbLinetypeTableRecord
  2
CENTER
 70
     0
  3
Center line
 72
    65
 73
     4
 40
2.0
 49
1.25
 74
     0
 49
-0.25
 74
     0
 49
0.25
 74
     0
 49
-0.25
 74
     0
  0
LTYPE
  5
13A
330
5
100
AcDbSymbolTableRecord
100
AcDbLinetypeTableRecord
  2
AM_ISO02W050
 70
     0
  3
__ __ __ __ __ __ __ __ __ __ __ __ __ __ __
 72
    65
 73
     2
 40
7.5
 49
6.0
 74
     0
 49
-1.5
 74
     0
  0
LTYPE
  5
13B
330
5
100
AcDbSymbolTableRecord
100
AcDbLinetypeTableRecord
  2
AM_ISO08W050
 70
     0
  3
____ . ____ . ____ . ____ . ____ . ____ . ____
 72
    65
 73
     4
 40
18.0
 49
12.0
 74
     0
 49
-1.5
 74
     0
 49
3.0
 74
     0
 49
-1.5
 74
     0
  0
LTYPE
  5
13C
330
5
100
AcDbSymbolTableRecord
100
AcDbLinetypeTableRecord
  2
AM_ISO09W050
 70
     0
  3
_____ . . _____ . . _____ . . ____ .. ____
 72
    65
 73
     6
 40
22.5
 49
12.0
 74
     0
 49
-1.5
 74
     0
 49
3.0
 74
     0
 49
-1.5
 74
     0
 49
3.0
 74
     0
 49
-1.5
 74
     0
  0
LTYPE
  5
13D
330
5
100
AcDbSymbolTableRecord
100
AcDbLinetypeTableRecord
  2
Amconstr
 70
     0
  3
_______________________
 72
    65
 73
     2
 40
9999.0
 49
9999.0
 74
     0
 49
0.0
 74
     0
  0
LTYPE
  5
13E
330
5
100
AcDbSymbolTableRecord
100
AcDbLinetypeTableRecord
  2
AM_ISO08W050x2
 70
     0
  3
__ . __ . __ . __ . __ . __
 72
    65
 73
     4
 40
9.0
 49
6.0
 74
     0
 49
-0.75
 74
     0
 49
1.5
 74
     0
 49
-0.75
 74
     0
  0
LTYPE
  5
13F
330
5
100
AcDbSymbolTableRecord
100
AcDbLinetypeTableRecord
  2
AM_ISO02W050x2
 70
     0
  3
 _ _ _ _ _ _ _ _ _ _ _ _
 72
    65
 73
     2
 40
3.75
 49
3.0
 74
     0
 49
-0.75
 74
     0
  0
LTYPE
  5
142
330
5
100
AcDbSymbolTableRecord
100
AcDbLinetypeTableRecord
  2
Amzigzag
 70
     0
  3
/\/-/\/-/\/-/\/-/\/-/\/
 72
    65
 73
     2
 40
11.0001
 49
0.0001
 74
     4
 75
   136
340
141
 46
0.04
 50
0.0
 44
0.0
 45
0.0
 49
-11.0
 74
     0
  0
LTYPE
  5
143
330
5
100
AcDbSymbolTableRecord
100
AcDbLinetypeTableRecord
  2
CENTER2
 70
     0
  3
Center (.5x) ___ _ ___ _ ___ _ ___ _ ___ _ ___
 72
    65
 73
     4
 40
1.125
 49
0.75
 74
     0
 49
-0.125
 74
     0
 49
0.125
 74
     0
 49
-0.125
 74
     0
  0
LTYPE
  5
144
330
5
100
AcDbSymbolTableRecord
100
AcDbLinetypeTableRecord
  2
HIDDEN2
 70
     0
  3
Hidden (.5x) _ _ _ _ _ _ _ _ _ _ _ _ _ _ _ _ _
 72
    65
 73
     2
 40
0.1875
 49
0.125
 74
     0
 49
-0.0625
 74
     0
  0
LTYPE
  5
153
330
5
100
AcDbSymbolTableRecord
100
AcDbLinetypeTableRecord
  2
ACANSTGB
 70
     0
  3
__ . . __ . .
 72
    65
 73
     6
 40
0.35433070866
 49
0.15748031496
 74
     0
 49
-0.03937007874
 74
     0
 49
0.03937007874
 74
     0
 49
-0.03937007874
 74
     0
 49
0.03937007874
 74
     0
 49
-0.03937007874
 74
     0
  0
LTYPE
  5
154
330
5
100
AcDbSymbolTableRecord
100
AcDbLinetypeTableRecord
  2
ACANSTGL
 70
     0
  3
_ _ _ _ _
 72
    65
 73
     2
 40
0.11811023622
 49
0.07874015748
 74
     0
 49
-0.03937007874
 74
     0
  0
LTYPE
  5
1E0
330
5
100
AcDbSymbolTableRecord
100
AcDbLinetypeTableRecord
  2
ACDINWELD
 70
     0
  3
_ _ _ _ _
 72
    65
 73
     2
 40
2.0
 49
2.0
 74
     0
 49
-1.0
 74
     0
  0
LTYPE
  5
1E3
330
5
100
AcDbSymbolTableRecord
100
AcDbLinetypeTableRecord
  2
ACDINTGB
 70
     0
  3
__ . . __ . .
 72
    65
 73
     6
 40
9.0
 49
4.0
 74
     0
 49
-1.0
 74
     0
 49
1.0
 74
     0
 49
-1.0
 74
     0
 49
1.0
 74
     0
 49
-1.0
 74
     0
  0
LTYPE
  5
1E4
330
5
100
AcDbSymbolTableRecord
100
AcDbLinetypeTableRecord
  2
ACDINTGL
 70
     0
  3
_ _ _ _ _
 72
    65
 73
     2
 40
3.0
 49
2.0
 74
     0
 49
-1.0
 74
     0
  0
LTYPE
  5
1F5
330
5
100
AcDbSymbolTableRecord
100
AcDbLinetypeTableRecord
  2
DASHED
 70
     0
  3
Dashed line
 72
    65
 73
     2
 40
0.75
 49
0.5
 74
     0
 49
-0.25
 74
     0
  0
LTYPE
  5
20C
330
5
100
AcDbSymbolTableRecord
100
AcDbLinetypeTableRecord
  2
ACISOWELD
 70
     0
  3
_ _ _ _ _
 72
    65
 73
     2
 40
2.0
 49
2.0
 74
     0
 49
-1.0
 74
     0
  0
LTYPE
  5
20F
330
5
100
AcDbSymbolTableRecord
100
AcDbLinetypeTableRecord
  2
ACISOTGB
 70
     0
  3
__ . . __ . .
 72
    65
 73
     6
 40
9.0
 49
4.0
 74
     0
 49
-1.0
 74
     0
 49
1.0
 74
     0
 49
-1.0
 74
     0
 49
1.0
 74
     0
 49
-1.0
 74
     0
  0
LTYPE
  5
210
330
5
100
AcDbSymbolTableRecord
100
AcDbLinetypeTableRecord
  2
ACISOTGL
 70
     0
  3
_ _ _ _ _
 72
    65
 73
     2
 40
3.0
 49
2.0
 74
     0
 49
-1.0
 74
     0
  0
ENDTAB
  0
TABLE
  2
LAYER
  5
2
102
{ACAD_XDICTIONARY
360
265
102
}
330
0
100
AcDbSymbolTable
 70
    21
  0
LAYER
  5
54
102
{ACAD_XDICTIONARY
360
363
102
}
330
2
100
AcDbSymbolTableRecord
100
AcDbLayerTableRecord
  2
0
 70
     0
 62
     7
  6
CONTINUOUS
370
    -3
390
F
347
21
348
0
  0
LAYER
  5
252
102
{ACAD_XDICTIONARY
360
36F
102
}
330
2
100
AcDbSymbolTableRecord
100
AcDbLayerTableRecord
  2
AM_0 ( Kontur 0.5 )
 70
     0
 62
     7
  6
CONTINUOUS
370
    50
390
F
347
21
348
0
1001
AcAecLayerStandard
1000

1000

  0
LAYER
  5
54D
102
{ACAD_XDICTIONARY
360
54E
102
}
330
2
100
AcDbSymbolTableRecord
100
AcDbLayerTableRecord
  2
AM_3 ( Verdeckt )
 70
     0
 62
     6
  6
AM_ISO02W050
370
    25
390
F
347
21
348
0
1001
AcAecLayerStandard
1000

1000

  0
LAYER
  5
54F
102
{ACAD_XDICTIONARY
360
17C8
102
}
330
2
100
AcDbSymbolTableRecord
100
AcDbLayerTableRecord
  2
AM_7 (Mittellinie)
 70
     0
 62
     4
  6
AM_ISO08W050
370
    25
390
F
347
21
348
0
1001
AcAecLayerStandard
1000

1000

  0
LAYER
  5
1857
102
{ACAD_XDICTIONARY
360
185A
102
}
330
2
100
AcDbSymbolTableRecord
100
AcDbLayerTableRecord
  2
AM_5 ( Bemassung)
 70
     0
 62
     3
  6
CONTINUOUS
370
    25
390
F
347
21
348
0
1001
AcAecLayerStandard
1000

1000

  0
LAYER
  5
189A
102
{ACAD_XDICTIONARY
360
18AE
102
}
330
2
100
AcDbSymbolTableRecord
100
AcDbLayerTableRecord
  2
AM_12 ( Teile Referenz)
 70
     0
 62
     7
  6
CONTINUOUS
290
     0
370
    50
390
F
347
21
348
0
1001
AcAecLayerStandard
1000

1000

  0
LAYER
  5
1AF9
102
{ACAD_XDICTIONARY
360
1E68
102
}
330
2
100
AcDbSymbolTableRecord
100
AcDbLayerTableRecord
  2
Defpoints
 70
     0
 62
     7
  6
CONTINUOUS
290
     0
370
    -3
390
F
347
21
348
0
  0
LAYER
  5
1F06
102
{ACAD_XDICTIONARY
360
1F07
102
}
330
2
100
AcDbSymbolTableRecord
100
AcDbLayerTableRecord
  2
AM_2 ( Kontur 0.25)
 70
     0
 62
     5
  6
CONTINUOUS
370
    25
390
F
347
21
348
0
1001
AcAecLayerStandard
1000

1000

  0
ENDTAB
  0
TABLE
  2
STYLE
  5
3
330
0
100
AcDbSymbolTable
 70
    10
  0
STYLE
  5
55
330
3
100
AcDbSymbolTableRecord
100
AcDbTextStyleTableRecord
  2
STANDARD
 70
     0
 40
0.0
 41
1.0
 50
0.0
 71
     0
 42
32.45650825585813
  3
times.ttf
  4

1001
ACAD
1000
Times New Roman
1071
       18
  0
STYLE
  5
141
330
3
100
AcDbSymbolTableRecord
100
AcDbTextStyleTableRecord
  2

 70
     1
 40
0.0
 41
1.0
 50
0.0
 71
     0
 42
3.5
  3
genltshp.shx
  4

  0
STYLE
  5
151
330
3
100
AcDbSymbolTableRecord
100
AcDbTextStyleTableRecord
  2
ACANSTS
 70
     0
 40
1.0
 41
1.0
 50
0.0
 71
     0
 42
3.5
  3
romans.shx
  4

  0
STYLE
  5
152
330
3
100
AcDbSymbolTableRecord
100
AcDbTextStyleTableRecord
  2
ACANSGDT
 70
     0
 40
0.0
 41
1.0
 50
0.0
 71
     0
 42
3.5
  3
amgdt.shx
  4

  0
STYLE
  5
1DE
330
3
100
AcDbSymbolTableRecord
100
AcDbTextStyleTableRecord
  2
ACDINGDT
 70
     0
 40
0.0
 41
1.0
 50
0.0
 71
     0
 42
3.5
  3
amgdt.shx
  4

  0
STYLE
  5
1E7
330
3
100
AcDbSymbolTableRecord
100
AcDbTextStyleTableRecord
  2
ACDINTS
 70
     0
 40
1.0
 41
1.0
 50
0.0
 71
     0
 42
3.5
  3
isocp.shx
  4

  0
STYLE
  5
207
330
3
100
AcDbSymbolTableRecord
100
AcDbTextStyleTableRecord
  2
ACISOTS
 70
     0
 40
1.0
 41
1.0
 50
0.0
 71
     0
 42
2.5
  3
ARIALN.TTF
  4

1001
ACAD
1000
Arial Narrow
1071
       34
  0
STYLE
  5
20A
330
3
100
AcDbSymbolTableRecord
100
AcDbTextStyleTableRecord
  2
ACISOGDT
 70
     0
 40
0.0
 41
1.0
 50
0.0
 71
     0
 42
2.5
  3
amgdt.shx
  4

  0
ENDTAB
  0
TABLE
  2
VIEW
  5
6
330
0
100
AcDbSymbolTable
 70
     7
  0
VIEW
  5
1A7E
330
6
100
AcDbSymbolTableRecord
100
AcDbViewTableRecord
  2
AM_VIEW1
 70
     0
 40
742.4999999999999
 10
587.1562015502502
 20
1227.698937339707
 41
1427.496603260869
 11
0.0
 21
0.0
 31
1.0
 12
0.0
 22
0.0
 32
0.0
 42
50.0
 43
0.0
 44
0.0
 50
0.0
 71
     0
281
     0
 72
     0
 73
     0
  0
VIEW
  5
1A7F
330
6
100
AcDbSymbolTableRecord
100
AcDbViewTableRecord
  2
AM_VIEW2
 70
     0
 40
742.4999999999999
 10
1259.659598289381
 20
1227.698937339707
 41
1427.496603260869
 11
0.0
 21
0.0
 31
1.0
 12
0.0
 22
0.0
 32
0.0
 42
50.0
 43
0.0
 44
0.0
 50
0.0
 71
     0
281
     0
 72
     0
 73
     0
  0
VIEW
  5
1A80
330
6
100
AcDbSymbolTableRecord
100
AcDbViewTableRecord
  2
AM_VIEW3
 70
     0
 40
742.4999999999999
 10
587.1562015502502
 20
485.1989373397075
 41
1427.496603260869
 11
0.0
 21
0.0
 31
1.0
 12
0.0
 22
0.0
 32
0.0
 42
50.0
 43
0.0
 44
0.0
 50
0.0
 71
     0
281
     0
 72
     0
 73
     0
  0
VIEW
  5
1A81
330
6
100
AcDbSymbolTableRecord
100
AcDbViewTableRecord
  2
AM_VIEW4
 70
     0
 40
742.4999999999999
 10
1259.659598289381
 20
485.1989373397075
 41
1427.496603260869
 11
0.0
 21
0.0
 31
1.0
 12
0.0
 22
0.0
 32
0.0
 42
50.0
 43
0.0
 44
0.0
 50
0.0
 71
     0
281
     0
 72
     0
 73
     0
  0
VIEW
  5
1A82
330
6
100
AcDbSymbolTableRecord
100
AcDbViewTableRecord
  2
AM_VIEW5
 70
     0
 40
742.4999999999999
 10
923.4078999198157
 20
856.4489373397075
 41
1427.496603260869
 11
0.0
 21
0.0
 31
1.0
 12
0.0
 22
0.0
 32
0.0
 42
50.0
 43
0.0
 44
0.0
 50
0.0
 71
     0
281
     0
 72
     0
 73
     0
  0
VIEW
  5
1A83
330
6
100
AcDbSymbolTableRecord
100
AcDbViewTableRecord
  2
AM_VIEW6
 70
     0
 40
1484.98515
 10
923.4078999198159
 20
856.4489373397075
 41
2854.964656589674
 11
0.0
 21
0.0
 31
1.0
 12
0.0
 22
0.0
 32
0.0
 42
50.0
 43
0.0
 44
0.0
 50
0.0
 71
     0
281
     0
 72
     0
 73
     0
  0
ENDTAB
  0
TABLE
  2
UCS
  5
7
330
0
100
AcDbSymbolTable
 70
     0
  0
ENDTAB
  0
TABLE
  2
APPID
  5
9
330
0
100
AcDbSymbolTable
 70
    77
  0
APPID
  5
56
330
9
100
AcDbSymbolTableRecord
100
AcDbRegAppTableRecord
  2
ACAD
 70
     0
  0
APPID
  5
5D
330
9
100
AcDbSymbolTableRecord
100
AcDbRegAppTableRecord
  2
AcadAnnotative
 70
     0
  0
APPID
  5
FD
330
9
100
AcDbSymbolTableRecord
100
AcDbRegAppTableRecord
  2
ACATTRIBSERVICES
 70
     0
  0
APPID
  5
137
330
9
100
AcDbSymbolTableRecord
100
AcDbRegAppTableRecord
  2
ACAD_DSTYLE_DIMJAG
 70
     0
  0
APPID
  5
138
330
9
100
AcDbSymbolTableRecord
100
AcDbRegAppTableRecord
  2
ACAD_DSTYLE_DIMBREAK
 70
     0
  0
APPID
  5
15C
330
9
100
AcDbSymbolTableRecord
100
AcDbRegAppTableRecord
  2
ACAD_NAV_VCDISPLAY
 70
     0
  0
APPID
  5
167
330
9
100
AcDbSymbolTableRecord
100
AcDbRegAppTableRecord
  2
ACAD_PSEXT
 70
     0
  0
APPID
  5
169
330
9
100
AcDbSymbolTableRecord
100
AcDbRegAppTableRecord
  2
ACAD_DSTYLE_DIMTALN
 70
     0
  0
APPID
  5
16F
330
9
100
AcDbSymbolTableRecord
100
AcDbRegAppTableRecord
  2
AcAecLayerStandard
 70
     0
  0
APPID
  5
170
330
9
100
AcDbSymbolTableRecord
100
AcDbRegAppTableRecord
  2
ACAD_DSTYLE_DIMJOGGED_JOGANGLE_SYMBOL
 70
     0
  0
APPID
  5
191
330
9
100
AcDbSymbolTableRecord
100
AcDbRegAppTableRecord
  2
DCO15
 70
     0
  0
APPID
  5
198
330
9
100
AcDbSymbolTableRecord
100
AcDbRegAppTableRecord
  2
ACAD_DSTYLE_DIMINSPECT
 70
     0
  0
ENDTAB
  0
TABLE
  2
DIMSTYLE
  5
A
330
0
100
AcDbSymbolTable
 70
    35
100
AcDbDimStyleTable
 71
     1
340
240
  0
DIMSTYLE
105
136
102
{ACAD_REACTORS
330
126
102
}
330
A
100
AcDbSymbolTableRecord
100
AcDbDimStyleTableRecord
  2
AM_ANSI
 70
     0
  4
mm
 41
0.1
 42
0.05
 43
0.5
 44
0.1
 47
0.1
 48
0.1
 78
     7
 79
     2
 90
     1
140
0.12
141
0.0
146
0.71
147
0.06
176
   256
177
   256
178
     2
274
     4
284
     7
340
55
371
    -1
372
    -1
1001
ACAD_DSTYLE_DIMJAG
1070
   388
1040
1.5
1001
ACAD_DSTYLE_DIMBREAK
1070
   391
1040
0.125
  0
DIMSTYLE
105
146
330
A
100
AcDbSymbolTableRecord
100
AcDbDimStyleTableRecord
  2
AM_ANSI$3
 70
     0
  4
mm
 41
0.1
 42
0.05
 43
0.5
 44
0.1
 47
0.1
 48
0.1
 78
     7
 79
     2
 90
     1
140
0.12
141
0.0
146
0.71
147
0.06
176
   256
177
   256
178
     2
274
     4
284
     7
288
     1
289
     0
340
55
371
    -1
372
    -1
1001
ACAD_DSTYLE_DIMBREAK
1070
   391
1040
0.125
1001
ACAD_DSTYLE_DIMJAG
1070
   388
1040
1.5
  0
DIMSTYLE
105
147
330
A
100
AcDbSymbolTableRecord
100
AcDbDimStyleTableRecord
  2
AM_ANSI$4
 70
     0
  4
mm
 41
0.1
 42
0.05
 43
0.5
 44
0.1
 47
0.1
 48
0.1
 78
     7
 79
     2
 90
     1
140
0.12
141
0.0
146
0.71
147
0.06
176
   256
177
   256
178
     2
274
     4
284
     7
288
     1
289
     0
340
55
371
    -1
372
    -1
1001
ACAD_DSTYLE_DIMBREAK
1070
   391
1040
0.125
1001
ACAD_DSTYLE_DIMJAG
1070
   388
1040
1.5
  0
DIMSTYLE
105
148
330
A
100
AcDbSymbolTableRecord
100
AcDbDimStyleTableRecord
  2
AM_ANSI$7
 70
     0
  4
mm
 41
0.1
 42
0.05
 43
0.5
 44
0.1
 47
0.1
 48
0.1
 78
     7
 79
     2
 90
     1
140
0.24
141
0.0
146
0.71
147
0.06
176
   256
177
   256
178
     2
274
     4
284
     7
340
55
371
    -1
372
    -1
1001
ACAD_DSTYLE_DIMBREAK
1070
   391
1040
0.125
1001
ACAD_DSTYLE_DIMJAG
1070
   388
1040
1.5
  0
DIMSTYLE
105
149
330
A
100
AcDbSymbolTableRecord
100
AcDbDimStyleTableRecord
  2
AM_ANSI$SF
 70
     0
  4
mm
 41
0.1
 42
0.05
 43
0.5
 44
0.1
 47
0.1
 48
0.1
 75
     1
 76
     1
 78
     7
 79
     2
 90
     1
140
0.12
141
0.0
146
0.71
147
0.06
176
   256
177
   256
178
     2
274
     4
284
     7
340
55
371
    -1
372
    -1
1001
ACAD_DSTYLE_DIMBREAK
1070
   391
1040
0.125
1001
ACAD_DSTYLE_DIMJAG
1070
   388
1040
1.5
  0
DIMSTYLE
105
14E
330
A
100
AcDbSymbolTableRecord
100
AcDbDimStyleTableRecord
  2
AM_ANSI$SH
 70
     0
  4
mm
 41
0.1
 42
0.05
 43
0.5
 44
0.1
 47
0.1
 48
0.1
 75
     1
 76
     1
 78
     7
 79
     2
 90
     1
140
0.12
141
0.0
146
0.71
147
0.06
173
     1
176
   256
177
   256
178
     2
274
     4
284
     7
340
55
343
14A
371
    -1
372
    -1
1001
ACAD_DSTYLE_DIMBREAK
1070
   391
1040
0.125
1001
ACAD_DSTYLE_DIMJAG
1070
   388
1040
1.5
  0
DIMSTYLE
105
1F9
102
{ACAD_REACTORS
330
1DB
102
}
330
A
100
AcDbSymbolTableRecord
100
AcDbDimStyleTableRecord
  2
AM_DIN
 70
     0
  4
"
 41
5.0
 42
0.0
 43
10.0
 44
0.5
 47
0.1
 48
0.1
 50
90.0
 73
     0
 74
     0
 77
     1
 78
     8
 79
     2
140
5.0
141
0.0
143
0.0393701
146
0.71
147
1.5
172
     1
176
   256
177
   256
178
     6
271
     2
272
     2
283
     0
284
     8
340
55
371
    -1
372
    -1
1001
ACAD_DSTYLE_DIMJAG
1070
   388
1040
1.5
1001
ACAD_DSTYLE_DIMTALN
1070
   392
1070
     0
  0
DIMSTYLE
105
1FA
102
{ACAD_REACTORS
330
1FBE
330
1FCC
330
1FCF
330
1FD2
330
1FD5
330
1FD8
330
1FDB
102
}
330
A
100
AcDbSymbolTableRecord
100
AcDbDimStyleTableRecord
  2
AM_DIN$0
 70
     0
  4
"
 41
4.0
 42
0.0
 43
10.0
 44
0.5
 47
0.1
 48
0.1
 50
90.0
 73
     0
 74
     0
 77
     1
 78
     8
 79
     2
140
3.5
141
0.0
143
0.0393701
146
0.71
147
1.5
172
     1
176
   256
177
   256
178
     6
271
     2
272
     2
283
     0
284
     8
340
55
371
    -1
372
    -1
1001
ACAD_DSTYLE_DIMBREAK
1070
   391
1040
3.75
1001
ACAD_DSTYLE_DIMJAG
1070
   388
1040
1.5
1001
ACAD_DSTYLE_DIMTALN
1070
   392
1070
     0
  0
DIMSTYLE
105
1FB
102
{ACAD_REACTORS
330
1FC9
102
}
330
A
100
AcDbSymbolTableRecord
100
AcDbDimStyleTableRecord
  2
AM_DIN$2
 70
     0
  4
"
 41
4.0
 42
0.0
 43
10.0
 44
0.5
 47
0.1
 48
0.1
 50
90.0
 73
     0
 74
     0
 77
     1
 78
     8
 79
     2
140
3.5
141
0.0
143
0.0393701
146
0.71
147
1.5
172
     1
176
   256
177
   256
178
     6
271
     2
272
     2
283
     0
284
     8
340
55
371
    -1
372
    -1
1001
ACAD_DSTYLE_DIMBREAK
1070
   391
1040
3.75
1001
ACAD_DSTYLE_DIMJAG
1070
   388
1040
1.5
1001
ACAD_DSTYLE_DIMTALN
1070
   392
1070
     0
  0
DIMSTYLE
105
1FC
330
A
100
AcDbSymbolTableRecord
100
AcDbDimStyleTableRecord
  2
AM_DIN$3
 70
     0
  4
"
 41
3.5
 42
0.0
 43
10.0
 44
0.5
 47
0.1
 48
0.1
 50
90.0
 73
     0
 77
     1
 78
     8
 79
     2
140
3.5
141
0.0
143
0.0393701
146
0.71
147
1.5
176
   256
177
   256
178
     6
271
     2
272
     2
283
     0
284
     8
288
     1
289
     0
340
55
371
    -1
372
    -1
1001
ACAD_DSTYLE_DIMBREAK
1070
   391
1040
3.75
1001
ACAD_DSTYLE_DIMJAG
1070
   388
1040
1.5
1001
ACAD_DSTYLE_DIMTALN
1070
   392
1070
     0
  0
DIMSTYLE
105
1FD
330
A
100
AcDbSymbolTableRecord
100
AcDbDimStyleTableRecord
  2
AM_DIN$4
 70
     0
  4
"
 41
4.0
 42
0.0
 43
10.0
 44
0.5
 47
0.1
 48
0.1
 50
90.0
 73
     0
 77
     1
 78
     8
 79
     2
140
3.5
141
0.0
143
0.0393701
146
0.71
147
1.5
176
   256
177
   256
178
     6
271
     2
272
     2
283
     0
284
     8
288
     1
289
     0
340
55
371
    -1
372
    -1
1001
ACAD_DSTYLE_DIMBREAK
1070
   391
1040
3.75
1001
ACAD_DSTYLE_DIMJAG
1070
   388
1040
1.5
1001
ACAD_DSTYLE_DIMTALN
1070
   392
1070
     0
  0
DIMSTYLE
105
1FE
330
A
100
AcDbSymbolTableRecord
100
AcDbDimStyleTableRecord
  2
AM_DIN$6
 70
     0
  4
"
 41
4.0
 42
0.0
 43
10.0
 44
0.5
 47
0.1
 48
0.1
 50
90.0
 73
     0
 74
     0
 78
     8
 79
     2
140
3.5
141
0.0
143
0.0393701
146
0.71
147
1.5
172
     1
176
   256
177
   256
178
     6
271
     2
272
     2
283
     0
284
     8
340
55
371
    -1
372
    -1
1001
ACAD_DSTYLE_DIMBREAK
1070
   391
1040
3.75
1001
ACAD_DSTYLE_DIMJAG
1070
   388
1040
1.5
1001
ACAD_DSTYLE_DIMTALN
1070
   392
1070
     0
  0
DIMSTYLE
105
1FF
330
A
100
AcDbSymbolTableRecord
100
AcDbDimStyleTableRecord
  2
AM_DIN$7
 70
     0
  4
"
 41
5.0
 42
0.0
 43
10.0
 44
0.5
 47
0.1
 48
0.1
 50
90.0
 73
     0
 74
     0
 77
     1
 78
     8
 79
     2
140
5.0
141
0.0
143
0.0393701
146
0.71
147
1.5
172
     1
176
   256
177
   256
178
     6
271
     2
272
     2
283
     0
284
     8
340
55
371
    -1
372
    -1
1001
ACAD_DSTYLE_DIMBREAK
1070
   391
1040
3.75
1001
ACAD_DSTYLE_DIMJAG
1070
   388
1040
1.5
1001
ACAD_DSTYLE_DIMTALN
1070
   392
1070
     0
  0
DIMSTYLE
105
200
330
A
100
AcDbSymbolTableRecord
100
AcDbDimStyleTableRecord
  2
AM_DIN$SF
 70
     0
  4
"
 41
4.0
 42
0.0
 43
10.0
 44
0.5
 47
0.1
 48
0.1
 50
90.0
 73
     0
 74
     0
 75
     1
 76
     1
 77
     1
 78
     8
 79
     2
140
3.5
141
0.0
143
0.0393701
146
0.71
147
1.5
172
     1
176
   256
177
   256
178
     6
271
     2
272
     2
283
     0
284
     8
340
55
371
    -1
372
    -1
1001
ACAD_DSTYLE_DIMBREAK
1070
   391
1040
3.75
1001
ACAD_DSTYLE_DIMJAG
1070
   388
1040
1.5
1001
ACAD_DSTYLE_DIMTALN
1070
   392
1070
     0
  0
DIMSTYLE
105
201
330
A
100
AcDbSymbolTableRecord
100
AcDbDimStyleTableRecord
  2
AM_DIN$SH
 70
     0
  4
"
 41
4.0
 42
0.0
 43
10.0
 44
0.5
 47
0.1
 48
0.1
 50
90.0
 73
     0
 74
     0
 75
     1
 76
     1
 77
     1
 78
     8
 79
     2
140
3.5
141
0.0
143
0.0393701
144
2.0
146
0.71
147
1.5
172
     1
173
     1
176
   256
177
   256
178
     6
271
     2
272
     2
283
     0
284
     8
340
55
343
14A
371
    -1
372
    -1
1001
ACAD_DSTYLE_DIMBREAK
1070
   391
1040
3.75
1001
ACAD_DSTYLE_DIMJAG
1070
   388
1040
1.5
1001
ACAD_DSTYLE_DIMTALN
1070
   392
1070
     0
  0
DIMSTYLE
105
21D
330
A
100
AcDbSymbolTableRecord
100
AcDbDimStyleTableRecord
  2
AM_ISO
 70
     0
  4
"
 41
2.5
 42
1.0
 43
10.0
 44
1.0
 47
0.1
 48
0.1
 73
     0
 74
     0
 77
     1
 78
     8
 79
     2
 90
     1
140
3.5
141
0.0
143
0.0393701
146
0.71
147
1.5
172
     1
176
   256
177
   256
178
     2
271
     2
272
     3
274
     4
283
     0
284
     8
340
55
371
    -1
372
    -1
1001
ACAD_DSTYLE_DIMJOGGED_JOGANGLE_SYMBOL
1070
   384
1040
0.7853981633974483
  0
DIMSTYLE
105
21E
330
A
100
AcDbSymbolTableRecord
100
AcDbDimStyleTableRecord
  2
AM_ISO$3
 70
     0
  4
"
 41
2.5
 42
1.0
 43
10.0
 44
1.0
 47
0.1
 48
0.1
 73
     0
 77
     1
 78
     8
 79
     2
 90
     1
140
3.5
141
0.0
143
0.0393701
146
0.71
147
1.5
176
   256
177
   256
178
     2
271
     2
272
     3
274
     4
283
     0
284
     8
288
     1
289
     0
340
55
371
    -1
372
    -1
1001
ACAD_DSTYLE_DIMJOGGED_JOGANGLE_SYMBOL
1070
   384
1040
0.7853981633974483
  0
DIMSTYLE
105
21F
330
A
100
AcDbSymbolTableRecord
100
AcDbDimStyleTableRecord
  2
AM_ISO$4
 70
     0
  4
"
 41
2.5
 42
1.0
 43
10.0
 44
1.0
 47
0.1
 48
0.1
 73
     0
 77
     1
 78
     8
 79
     2
 90
     1
140
3.5
141
0.0
143
0.0393701
146
0.71
147
1.5
176
   256
177
   256
178
     2
271
     2
272
     3
274
     4
283
     0
284
     8
288
     1
289
     0
340
55
371
    -1
372
    -1
1001
ACAD_DSTYLE_DIMJOGGED_JOGANGLE_SYMBOL
1070
   384
1040
0.7853981633974483
  0
DIMSTYLE
105
220
330
A
100
AcDbSymbolTableRecord
100
AcDbDimStyleTableRecord
  2
AM_ISO$6
 70
     0
  4
"
 41
2.5
 42
1.0
 43
10.0
 44
1.0
 47
0.1
 48
0.1
 73
     0
 74
     0
 78
     8
 79
     2
 90
     1
140
3.5
141
0.0
143
0.0393701
146
0.71
147
1.5
172
     1
176
   256
177
   256
178
     2
271
     2
272
     3
274
     4
283
     0
284
     8
340
55
371
    -1
372
    -1
1001
ACAD_DSTYLE_DIMJOGGED_JOGANGLE_SYMBOL
1070
   384
1040
0.7853981633974483
  0
DIMSTYLE
105
221
330
A
100
AcDbSymbolTableRecord
100
AcDbDimStyleTableRecord
  2
AM_ISO$7
 70
     0
  4
"
 41
2.5
 42
1.0
 43
10.0
 44
1.0
 47
0.1
 48
0.1
 73
     0
 74
     0
 77
     1
 78
     8
 79
     2
 90
     1
140
5.0
141
0.0
143
0.0393701
146
0.71
147
1.5
172
     1
176
   256
177
   256
178
     2
271
     2
272
     3
274
     4
283
     0
284
     8
340
55
371
    -1
372
    -1
1001
ACAD_DSTYLE_DIMJOGGED_JOGANGLE_SYMBOL
1070
   384
1040
0.7853981633974483
  0
DIMSTYLE
105
222
330
A
100
AcDbSymbolTableRecord
100
AcDbDimStyleTableRecord
  2
AM_ISO$SF
 70
     0
  4
"
 41
2.5
 42
1.0
 43
10.0
 44
1.0
 47
0.1
 48
0.1
 73
     0
 74
     0
 75
     1
 76
     1
 77
     1
 78
     8
 79
     2
 90
     1
140
3.5
141
0.0
143
0.0393701
146
0.71
147
1.5
172
     1
176
   256
177
   256
178
     2
271
     2
272
     3
274
     4
283
     0
284
     8
340
55
371
    -1
372
    -1
1001
ACAD_DSTYLE_DIMJOGGED_JOGANGLE_SYMBOL
1070
   384
1040
0.7853981633974483
  0
DIMSTYLE
105
223
330
A
100
AcDbSymbolTableRecord
100
AcDbDimStyleTableRecord
  2
AM_ISO$SH
 70
     0
  4
"
 41
2.5
 42
1.0
 43
10.0
 44
1.0
 47
0.1
 48
0.1
 73
     0
 74
     0
 75
     1
 76
     1
 77
     1
 78
     8
 79
     2
 90
     1
140
3.5
141
0.0
143
0.0393701
144
2.0
146
0.71
147
1.5
172
     1
173
     1
176
   256
177
   256
178
     2
271
     2
272
     3
274
     4
283
     0
284
     8
340
55
343
14A
371
    -1
372
    -1
1001
ACAD_DSTYLE_DIMJOGGED_JOGANGLE_SYMBOL
1070
   384
1040
0.7853981633974483
  0
DIMSTYLE
105
240
330
A
100
AcDbSymbolTableRecord
100
AcDbDimStyleTableRecord
  2
BENUTZERDEFINIERTE NORM
 70
     0
  4
"
 41
2.5
 42
0.0
 43
10.0
 44
1.0
 47
0.1
 48
0.1
 50
90.0
 73
     0
 74
     0
 77
     1
 78
     8
 79
     2
140
3.5
141
0.0
143
0.0393701
146
0.71
147
1.5
172
     1
176
   256
177
   256
178
     6
271
     2
272
     2
283
     0
284
     8
340
55
371
    -1
372
    -1
1001
ACAD_DSTYLE_DIMJAG
1070
   388
1040
1.5
1001
ACAD_DSTYLE_DIMTALN
1070
   392
1070
     0
  0
DIMSTYLE
105
241
330
A
100
AcDbSymbolTableRecord
100
AcDbDimStyleTableRecord
  2
BENUTZERDEFINIERTE NORM$0
 70
     0
  4
"
 41
2.5
 42
0.0
 43
10.0
 44
1.0
 47
0.1
 48
0.1
 50
90.0
 73
     0
 74
     0
 77
     1
 78
     8
 79
     2
140
3.5
141
0.0
143
0.0393701
146
0.71
147
1.5
172
     1
176
   256
177
   256
178
     6
271
     2
272
     2
283
     0
284
     8
340
55
371
    -1
372
    -1
1001
ACAD_DSTYLE_DIMBREAK
1070
   391
1040
3.75
1001
ACAD_DSTYLE_DIMJAG
1070
   388
1040
1.5
1001
ACAD_DSTYLE_DIMTALN
1070
   392
1070
     0
  0
DIMSTYLE
105
242
330
A
100
AcDbSymbolTableRecord
100
AcDbDimStyleTableRecord
  2
BENUTZERDEFINIERTE NORM$3
 70
     0
  4
"
 41
2.5
 42
0.0
 43
10.0
 44
1.0
 47
0.1
 48
0.1
 50
90.0
 73
     0
 77
     1
 78
     8
 79
     2
140
3.5
141
0.0
143
0.0393701
146
0.71
147
1.5
176
   256
177
   256
178
     6
271
     2
272
     2
283
     0
284
     8
288
     1
289
     0
340
55
371
    -1
372
    -1
1001
ACAD_DSTYLE_DIMBREAK
1070
   391
1040
3.75
1001
ACAD_DSTYLE_DIMJAG
1070
   388
1040
1.5
1001
ACAD_DSTYLE_DIMTALN
1070
   392
1070
     0
  0
DIMSTYLE
105
243
330
A
100
AcDbSymbolTableRecord
100
AcDbDimStyleTableRecord
  2
BENUTZERDEFINIERTE NORM$4
 70
     0
  4
"
 41
2.5
 42
0.0
 43
10.0
 44
1.0
 47
0.1
 48
0.1
 50
90.0
 73
     0
 77
     1
 78
     8
 79
     2
140
3.5
141
0.0
143
0.0393701
146
0.71
147
1.5
176
   256
177
   256
178
     6
271
     2
272
     2
283
     0
284
     8
288
     1
289
     0
340
55
371
    -1
372
    -1
1001
ACAD_DSTYLE_DIMBREAK
1070
   391
1040
3.75
1001
ACAD_DSTYLE_DIMJAG
1070
   388
1040
1.5
1001
ACAD_DSTYLE_DIMTALN
1070
   392
1070
     0
  0
DIMSTYLE
105
244
330
A
100
AcDbSymbolTableRecord
100
AcDbDimStyleTableRecord
  2
BENUTZERDEFINIERTE NORM$6
 70
     0
  4
"
 41
2.5
 42
0.0
 43
10.0
 44
1.0
 47
0.1
 48
0.1
 50
90.0
 73
     0
 74
     0
 78
     8
 79
     2
140
3.5
141
0.0
143
0.0393701
146
0.71
147
1.5
172
     1
176
   256
177
   256
178
     6
271
     2
272
     2
283
     0
284
     8
340
55
371
    -1
372
    -1
1001
ACAD_DSTYLE_DIMBREAK
1070
   391
1040
3.75
1001
ACAD_DSTYLE_DIMJAG
1070
   388
1040
1.5
1001
ACAD_DSTYLE_DIMTALN
1070
   392
1070
     0
  0
DIMSTYLE
105
245
330
A
100
AcDbSymbolTableRecord
100
AcDbDimStyleTableRecord
  2
BENUTZERDEFINIERTE NORM$7
 70
     0
  4
"
 41
2.5
 42
0.0
 43
10.0
 44
1.0
 47
0.1
 48
0.1
 50
90.0
 73
     0
 74
     0
 77
     1
 78
     8
 79
     2
140
5.0
141
0.0
143
0.0393701
146
0.71
147
1.5
172
     1
176
   256
177
   256
178
     6
271
     2
272
     2
283
     0
284
     8
340
55
371
    -1
372
    -1
1001
ACAD_DSTYLE_DIMBREAK
1070
   391
1040
3.75
1001
ACAD_DSTYLE_DIMJAG
1070
   388
1040
1.5
1001
ACAD_DSTYLE_DIMTALN
1070
   392
1070
     0
  0
DIMSTYLE
105
246
330
A
100
AcDbSymbolTableRecord
100
AcDbDimStyleTableRecord
  2
BENUTZERDEFINIERTE NORM$SF
 70
     0
  4
"
 41
2.5
 42
1.0
 43
10.0
 44
1.0
 47
0.1
 48
0.1
 50
90.0
 73
     0
 74
     0
 75
     1
 76
     1
 77
     1
 78
     8
 79
     2
140
3.5
141
0.0
143
0.0393701
146
0.71
147
1.5
172
     1
176
   256
177
   256
178
     6
271
     2
272
     3
274
     4
283
     0
284
     8
340
55
371
    -1
372
    -1
1001
ACAD_DSTYLE_DIMBREAK
1070
   391
1040
3.75
1001
ACAD_DSTYLE_DIMJAG
1070
   388
1040
1.5
1001
ACAD_DSTYLE_DIMTALN
1070
   392
1070
     0
  0
DIMSTYLE
105
247
330
A
100
AcDbSymbolTableRecord
100
AcDbDimStyleTableRecord
  2
BENUTZERDEFINIERTE NORM$SH
 70
     0
  4
"
 41
2.5
 42
1.0
 43
10.0
 44
1.0
 47
0.1
 48
0.1
 50
90.0
 73
     0
 74
     0
 75
     1
 76
     1
 77
     1
 78
     8
 79
     2
140
3.5
141
0.0
143
0.0393701
144
2.0
146
0.71
147
1.5
172
     1
173
     1
176
   256
177
   256
178
     6
271
     2
272
     3
274
     4
283
     0
284
     8
340
55
343
14A
371
    -1
372
    -1
1001
ACAD_DSTYLE_DIMBREAK
1070
   391
1040
3.75
1001
ACAD_DSTYLE_DIMJAG
1070
   388
1040
1.5
1001
ACAD_DSTYLE_DIMTALN
1070
   392
1070
     0
  0
ENDTAB
  0
TABLE
  2
BLOCK_RECORD
  5
1
330
0
100
AcDbSymbolTable
 70
    27
  0
BLOCK_RECORD
  5
6B
330
1
100
AcDbSymbolTableRecord
100
AcDbBlockTableRecord
  2
*Model_Space
340
6E
 70
     0
280
     1
281
     0
  0
BLOCK_RECORD
  5
67
330
1
100
AcDbSymbolTableRecord
100
AcDbBlockTableRecord
  2
*Paper_Space
340
6A
 70
     0
280
     1
281
     0
  0
BLOCK_RECORD
  5
14A
330
1
100
AcDbSymbolTableRecord
100
AcDbBlockTableRecord
  2
GENAXEH
340
0
310
28000000200000002000000001002000000000000010000001000000010000000000000000000000171717FF171717FF171717FF171717FF171717FF171717FF171717FF171717FF171717FF171717FF171717FF171717FF171717FF171717FF171717FF171717FF171717FF171717FF171717FF171717FF171717FF171717
310
FF171717FF171717FF171717FF171717FF171717FF171717FF171717FF171717FF171717FF171717FF171717FF171717FF171717FF171717FF171717FF171717FF171717FF171717FF171717FF171717FF171717FF171717FF171717FF171717FF171717FF171717FF171717FF171717FF171717FF171717FF171717FF1717
310
17FF171717FF171717FF171717FF171717FF171717FF171717FF171717FF171717FF171717FF171717FF171717FF171717FF171717FF171717FF171717FF171717FF171717FF171717FF171717FF171717FF171717FF171717FF171717FF171717FF171717FF171717FF171717FF171717FF171717FF171717FF171717FF17
310
1717FF171717FF171717FF171717FF171717FF171717FF171717FF171717FF171717FF171717FF171717FF171717FF171717FF171717FF171717FF171717FF171717FF171717FF171717FF171717FF171717FF171717FF171717FF171717FF171717FF171717FF171717FF171717FF171717FF171717FF171717FF171717FF
310
171717FF171717FF171717FF171717FF171717FF171717FF171717FF171717FF171717FF171717FF171717FF171717FF171717FF171717FF171717FF171717FF171717FF171717FF171717FF171717FF171717FF171717FF171717FF171717FF171717FF171717FF171717FF171717FF171717FF171717FF171717FF171717
310
FF171717FF171717FF171717FF171717FF171717FF171717FF171717FF171717FF171717FF171717FF171717FF171717FF171717FF171717FF171717FF171717FF171717FF171717FF171717FF171717FF171717FF171717FF171717FF171717FF171717FF171717FF171717FF171717FF171717FF171717FF171717FF1717
310
17FF171717FF171717FF171717FF171717FF171717FF171717FF171717FF171717FF171717FF171717FF171717FF171717FF171717FF171717FF171717FF171717FF171717FF171717FF171717FF171717FF171717FF171717FF171717FF171717FF171717FF171717FF171717FF171717FF171717FF171717FF171717FF17
310
1717FF171717FF171717FF171717FF171717FF171717FF171717FF171717FF171717FF171717FF171717FF171717FF171717FF171717FF171717FF171717FF171717FF171717FF171717FF171717FF171717FF171717FF171717FF171717FF171717FF171717FF171717FF171717FF171717FF171717FF171717FF171717FF
310
171717FF171717FF171717FF171717FF171717FF171717FF171717FF171717FF171717FF171717FF171717FF171717FF171717FF171717FF171717FF171717FF171717FF171717FF171717FF171717FF171717FF171717FF171717FF171717FF171717FF171717FF171717FF171717FF171717FF171717FF171717FF171717
310
FF171717FF171717FF171717FF171717FF171717FF171717FF171717FF171717FF171717FF171717FF171717FF171717FF171717FF171717FF171717FF171717FF171717FF171717FF171717FF171717FF171717FF171717FF171717FF171717FF171717FF171717FF171717FF171717FF171717FF171717FF171717FF1717
310
17FF171717FF171717FF171717FF171717FF171717FF171717FF171717FF171717FF171717FF171717FF171717FF171717FF171717FF171717FF171717FF171717FF171717FF171717FF171717FF171717FF171717FF171717FF171717FF171717FF171717FF171717FF171717FF171717FF171717FF171717FF171717FF17
310
1717FF171717FF171717FF171717FF171717FF171717FF171717FF171717FF171717FF171717FF171717FF171717FF171717FF171717FF171717FF171717FF171717FF171717FF171717FF171717FF171717FF171717FF171717FF171717FF171717FF171717FF171717FF171717FF171717FF171717FF171717FF171717FF
310
171717FF171717FF171717FF171717FF171717FF171717FF171717FF171717FF171717FF171717FF171717FF171717FF171717FF171717FF171717FF171717FF171717FF171717FF171717FF171717FF171717FF171717FF171717FF171717FF171717FF171717FF171717FF171717FF171717FF171717FF171717FF171717
310
FF171717FF171717FF171717FF171717FF171717FF171717FF171717FF171717FF171717FF171717FF171717FF171717FF171717FF171717FF171717FF171717FF171717FF171717FF171717FF171717FF171717FF171717FF171717FF171717FF171717FF171717FF171717FF171717FF171717FF171717FF171717FF1717
310
17FF171717FF171717FF171717FF171717FF171717FF171717FF171717FF171717FF171717FF171717FF171717FF171717FF171717FF171717FF171717FF171717FF171717FF171717FF171717FF171717FF171717FF171717FF171717FF171717FF171717FF171717FF171717FF171717FF171717FF171717FF171717FF17
310
1717FF171717FF171717FF171717FF171717FF171717FF171717FF171717FF171717FF171717FF171717FF171717FF171717FF171717FF171717FFFFFFFFFFFFFFFFFFFFFFFFFFFFFFFFFFFFFFFFFFFFFFFFFFFFFFFFFFFFFFFFFFFFFFFFFFFFFFFFFFFFFFFFFFFFFFFFFFFFFFFFFFFFFFFFFFFFFFFFFFFFFFFFFFFFFFFFFF
310
FFFFFFFFFFFFFFFFFFFFFFFFFFFFFFFFFFFFFFFFFFFFFFFFFFFFFFFFFFFFFFFFFFFFFFFFFFFFFFFFFFFFFFFFFFFFFFFFFFFFFFFF171717FF171717FF171717FF171717FF171717FF171717FF171717FF171717FF171717FF171717FF171717FF171717FF171717FF171717FF171717FF171717FF171717FF171717FF171717
310
FF171717FF171717FF171717FF171717FF171717FF171717FF171717FF171717FF171717FF171717FF171717FF171717FF171717FF171717FF171717FF171717FF171717FF171717FF171717FF171717FF171717FF171717FF171717FF171717FF171717FF171717FF171717FF171717FF171717FF171717FF171717FF1717
310
17FF171717FF171717FF171717FF171717FF171717FF171717FF171717FF171717FF171717FF171717FF171717FF171717FF171717FF171717FF171717FF171717FF171717FF171717FF171717FF171717FF171717FF171717FF171717FF171717FF171717FF171717FF171717FF171717FF171717FF171717FF171717FF17
310
1717FF171717FF171717FF171717FF171717FF171717FF171717FF171717FF171717FF171717FF171717FF171717FF171717FF171717FF171717FF171717FF171717FF171717FF171717FF171717FF171717FF171717FF171717FF171717FF171717FF171717FF171717FF171717FF171717FF171717FF171717FF171717FF
310
171717FF171717FF171717FF171717FF171717FF171717FF171717FF171717FF171717FF171717FF171717FF171717FF171717FF171717FF171717FF171717FF171717FF171717FF171717FF171717FF171717FF171717FF171717FF171717FF171717FF171717FF171717FF171717FF171717FF171717FF171717FF171717
310
FF171717FF171717FF171717FF171717FF171717FF171717FF171717FF171717FF171717FF171717FF171717FF171717FF171717FF171717FF171717FF171717FF171717FF171717FF171717FF171717FF171717FF171717FF171717FF171717FF171717FF171717FF171717FF171717FF171717FF171717FF171717FF1717
310
17FF171717FF171717FF171717FF171717FF171717FF171717FF171717FF171717FF171717FF171717FF171717FF171717FF171717FF171717FF171717FF171717FF171717FF171717FF171717FF171717FF171717FF171717FF171717FF171717FF171717FF171717FF171717FF171717FF171717FF171717FF171717FF17
310
1717FF171717FF171717FF171717FF171717FF171717FF171717FF171717FF171717FF171717FF171717FF171717FF171717FF171717FF171717FF171717FF171717FF171717FF171717FF171717FF171717FF171717FF171717FF171717FF171717FF171717FF171717FF171717FF171717FF171717FF171717FF171717FF
310
171717FF171717FF171717FF171717FF171717FF171717FF171717FF171717FF171717FF171717FF171717FF171717FF171717FF171717FF171717FF171717FF171717FF171717FF171717FF171717FF171717FF171717FF171717FF171717FF171717FF171717FF171717FF171717FF171717FF171717FF171717FF171717
310
FF171717FF171717FF171717FF171717FF171717FF171717FF171717FF171717FF171717FF171717FF171717FF171717FF171717FF171717FF171717FF171717FF171717FF171717FF171717FF171717FF171717FF171717FF171717FF171717FF171717FF171717FF171717FF171717FF171717FF171717FF171717FF1717
310
17FF171717FF171717FF171717FF171717FF171717FF171717FF171717FF171717FF171717FF171717FF171717FF171717FF171717FF171717FF171717FF171717FF171717FF171717FF171717FF171717FF171717FF171717FF171717FF171717FF171717FF171717FF171717FF171717FF171717FF171717FF171717FF17
310
1717FF171717FF171717FF171717FF171717FF171717FF171717FF171717FF171717FF171717FF171717FF171717FF171717FF171717FF171717FF171717FF171717FF171717FF171717FF171717FF171717FF171717FF171717FF171717FF171717FF171717FF171717FF171717FF171717FF171717FF171717FF171717FF
310
171717FF171717FF171717FF171717FF171717FF171717FF171717FF171717FF171717FF171717FF171717FF171717FF171717FF171717FF171717FF171717FF171717FF171717FF171717FF171717FF171717FF171717FF171717FF171717FF171717FF171717FF171717FF171717FF171717FF171717FF171717FF171717
310
FF171717FF171717FF171717FF171717FF171717FF171717FF171717FF171717FF171717FF171717FF171717FF171717FF171717FF171717FF171717FF171717FF171717FF171717FF171717FF171717FF171717FF171717FF171717FF171717FF171717FF171717FF171717FF171717FF171717FF171717FF171717FF1717
310
17FF171717FF171717FF171717FF171717FF171717FF171717FF171717FF171717FF171717FF171717FF171717FF171717FF171717FF171717FF171717FF171717FF171717FF171717FF171717FF171717FF171717FF171717FF171717FF171717FF171717FF171717FF171717FF171717FF171717FF171717FF171717FF17
310
1717FF171717FF171717FF171717FF171717FF171717FF171717FF171717FF171717FF171717FF171717FF171717FF171717FF171717FF171717FF171717FF171717FF171717FF171717FF171717FF171717FF171717FF171717FF171717FF171717FF171717FF171717FF171717FF171717FF171717FF171717FF171717FF
310
171717FF171717FF171717FF171717FF171717FF171717FF171717FF171717FF171717FF171717FF171717FF171717FF171717FF171717FF171717FF171717FF171717FF171717FF
 70
     0
280
     1
281
     0
  0
BLOCK_RECORD
  5
4DD
330
1
100
AcDbSymbolTableRecord
100
AcDbBlockTableRecord
  2
_ACMFILLED15
340
0
310
28000000200000002000000001002000000000000010000001000000010000000000000000000000171717FF171717FF171717FF171717FF171717FF171717FF171717FF171717FF171717FF171717FF171717FF171717FF171717FF171717FF171717FF171717FF171717FF171717FF171717FF171717FF171717FF171717
310
FF171717FF171717FF171717FF171717FF171717FF171717FF171717FF171717FF171717FF171717FF171717FF171717FF171717FF171717FF171717FF171717FF171717FF171717FF171717FF171717FF171717FF171717FF171717FF171717FF171717FF171717FF171717FF171717FF171717FF171717FF171717FF1717
310
17FF171717FF171717FF171717FF171717FF171717FF171717FF171717FF171717FF171717FF171717FF171717FF171717FF171717FF171717FF171717FF171717FF171717FF171717FF171717FF171717FF171717FF171717FF171717FF171717FF171717FF171717FF171717FF171717FF171717FF171717FF171717FF17
310
1717FF171717FF171717FF171717FF171717FF171717FF171717FF171717FF171717FF171717FF171717FF171717FF171717FF171717FF171717FF171717FF171717FF171717FF171717FF171717FF171717FF171717FF171717FF171717FF171717FF171717FF171717FF171717FF171717FF171717FF171717FF171717FF
310
171717FF171717FF171717FF171717FF171717FF171717FF171717FF171717FF171717FF171717FF171717FF171717FF171717FF171717FF171717FF171717FF171717FF171717FF171717FF171717FF171717FF171717FF171717FF171717FF171717FF171717FF171717FF171717FF171717FF171717FF171717FF171717
310
FF171717FF171717FF171717FF171717FF171717FF171717FF171717FF171717FF171717FF171717FF171717FF171717FF171717FF171717FF171717FF171717FF171717FF171717FF171717FF171717FF171717FF171717FF171717FF171717FF171717FF171717FF171717FF171717FF171717FF171717FF171717FF1717
310
17FF171717FF171717FF171717FF171717FF171717FF171717FF171717FF171717FF171717FF171717FF171717FF171717FF171717FF171717FF171717FF171717FF171717FF171717FF171717FF171717FF171717FF171717FF171717FF171717FF171717FF171717FF171717FF171717FF171717FF171717FF171717FF17
310
1717FF171717FF171717FF171717FF171717FF171717FF171717FF171717FF171717FF171717FF171717FF171717FF171717FF171717FF171717FF171717FF171717FF171717FF171717FF171717FF171717FF171717FF171717FF171717FF171717FF171717FF171717FF171717FF171717FF171717FF171717FF171717FF
310
171717FF171717FF171717FF171717FF171717FF171717FF171717FF171717FF171717FF171717FF171717FF171717FF171717FF171717FF171717FF171717FF171717FF171717FF171717FF171717FF171717FF171717FF171717FF171717FF171717FF171717FF171717FF171717FF171717FF171717FF171717FF171717
310
FF171717FF171717FF171717FF171717FF171717FF171717FF171717FF171717FF171717FF171717FF171717FF171717FF171717FF171717FF171717FF171717FF171717FF171717FF171717FF171717FF171717FF171717FF171717FF171717FF171717FF171717FF171717FF171717FF171717FF171717FF171717FF1717
310
17FF171717FF171717FF171717FF171717FF171717FF171717FF171717FF171717FF171717FF171717FF171717FF171717FF171717FF171717FF171717FF171717FF171717FF171717FF171717FF171717FF171717FF171717FF171717FF171717FF171717FF171717FF171717FF171717FF171717FF171717FF171717FF17
310
1717FF171717FF171717FF171717FF171717FF171717FF171717FF171717FF171717FF171717FF171717FF171717FF171717FF171717FF171717FF171717FF171717FF171717FF171717FF171717FF171717FF171717FF171717FF171717FF171717FF171717FF171717FF171717FF171717FF171717FF171717FF171717FF
310
171717FF171717FF171717FF171717FF171717FF171717FF171717FF171717FF171717FF171717FF171717FF171717FF171717FF171717FFFFFFFFFFFFFFFFFFFFFFFFFFFFFFFFFFFFFFFFFF171717FF171717FF171717FF171717FF171717FF171717FF171717FF171717FF171717FF171717FF171717FF171717FF171717
310
FF171717FF171717FF171717FF171717FF171717FF171717FF171717FF171717FF171717FF171717FF171717FF171717FF171717FF171717FFFFFFFFFFFFFFFFFFFFFFFFFFFFFFFFFFFFFFFFFFFFFFFFFFFFFFFFFFFFFFFFFFFFFFFFFFFFFFFFFFFFFFFFFFFFFFFFFFFFFFFFFFFFFFFFFFFFFFFFFF171717FF171717FF1717
310
17FF171717FF171717FF171717FF171717FF171717FF171717FF171717FF171717FF171717FF171717FF171717FF171717FF171717FF171717FFFFFFFFFFFFFFFFFFFFFFFFFFFFFFFFFFFFFFFFFFFFFFFFFFFFFFFFFFFFFFFFFFFFFFFFFFFFFFFFFFFFFFFFFFFFFFFFFFFFFFFFFFFFFFFFFFFFFFFFFFFFFFFFFFFFFFFFFFFF
310
FFFFFFFFFFFFFFFFFFFFFFFFFFFFFFFFFFFFFFFFFFFFFFFFFFFFFFFFFFFFFF171717FF171717FF171717FF171717FF171717FF171717FF171717FFFFFFFFFFFFFFFFFFFFFFFFFFFFFFFFFFFFFFFFFFFFFFFFFFFFFFFFFFFFFFFFFFFFFFFFFFFFFFFFFFFFFFFFFFFFFFFFFFFFFFFFFFFFFFFFFFFFFFFFFFFFFFFFFFFFFFFFFF
310
FFFFFFFFFFFFFFFFFFFFFFFFFFFFFFFFFFFFFFFFFFFFFFFFFFFFFFFFFFFFFFFFFFFFFFFFFFFFFFFFFFFFFFFFFFFFFFFFFFFFFFFF171717FF171717FFFFFFFFFFFFFFFFFFFFFFFFFFFFFFFFFFFFFFFFFFFFFFFFFFFFFFFFFFFFFFFFFFFFFFFFFFFFFFFFFFFFFFFFFFFFFFFFFFFFFFFFFFFFFFFFFFFFFFFFFFFFFFFFFFFFFFFF
310
FFFFFFFFFFFFFFFFFFFFFFFFFFFFFFFFFFFFFFFFFFFFFFFFFFFFFFFFFFFFFFFFFFFFFFFFFF171717FF171717FF171717FF171717FF171717FF171717FFFFFFFFFFFFFFFFFFFFFFFFFFFFFFFFFFFFFFFFFFFFFFFFFFFFFFFFFFFFFFFFFFFFFFFFFFFFFFFFFFFFFFFFFFFFFFFFFFFFFFFFFFFFFFFFFFFFFFFFFFFFFFFFFFFFFF
310
FFFFFFFFFFFFFFFFFFFF171717FF171717FF171717FF171717FF171717FF171717FF171717FF171717FF171717FF171717FF171717FF171717FF171717FFFFFFFFFFFFFFFFFFFFFFFFFFFFFFFFFFFFFFFFFFFFFFFFFFFFFFFFFFFFFFFFFFFFFFFFFFFFFFFFFFFFFFFFFF171717FF171717FF171717FF171717FF171717FF17
310
1717FF171717FF171717FF171717FF171717FF171717FF171717FF171717FF171717FF171717FF171717FF171717FF171717FF171717FF171717FF171717FFFFFFFFFFFFFFFFFFFFFFFFFFFFFFFFFF171717FF171717FF171717FF171717FF171717FF171717FF171717FF171717FF171717FF171717FF171717FF171717FF
310
171717FF171717FF171717FF171717FF171717FF171717FF171717FF171717FF171717FF171717FF171717FF171717FF171717FF171717FF171717FF171717FF171717FF171717FF171717FF171717FF171717FF171717FF171717FF171717FF171717FF171717FF171717FF171717FF171717FF171717FF171717FF171717
310
FF171717FF171717FF171717FF171717FF171717FF171717FF171717FF171717FF171717FF171717FF171717FF171717FF171717FF171717FF171717FF171717FF171717FF171717FF171717FF171717FF171717FF171717FF171717FF171717FF171717FF171717FF171717FF171717FF171717FF171717FF171717FF1717
310
17FF171717FF171717FF171717FF171717FF171717FF171717FF171717FF171717FF171717FF171717FF171717FF171717FF171717FF171717FF171717FF171717FF171717FF171717FF171717FF171717FF171717FF171717FF171717FF171717FF171717FF171717FF171717FF171717FF171717FF171717FF171717FF17
310
1717FF171717FF171717FF171717FF171717FF171717FF171717FF171717FF171717FF171717FF171717FF171717FF171717FF171717FF171717FF171717FF171717FF171717FF171717FF171717FF171717FF171717FF171717FF171717FF171717FF171717FF171717FF171717FF171717FF171717FF171717FF171717FF
310
171717FF171717FF171717FF171717FF171717FF171717FF171717FF171717FF171717FF171717FF171717FF171717FF171717FF171717FF171717FF171717FF171717FF171717FF171717FF171717FF171717FF171717FF171717FF171717FF171717FF171717FF171717FF171717FF171717FF171717FF171717FF171717
310
FF171717FF171717FF171717FF171717FF171717FF171717FF171717FF171717FF171717FF171717FF171717FF171717FF171717FF171717FF171717FF171717FF171717FF171717FF171717FF171717FF171717FF171717FF171717FF171717FF171717FF171717FF171717FF171717FF171717FF171717FF171717FF1717
310
17FF171717FF171717FF171717FF171717FF171717FF171717FF171717FF171717FF171717FF171717FF171717FF171717FF171717FF171717FF171717FF171717FF171717FF171717FF171717FF171717FF171717FF171717FF171717FF171717FF171717FF171717FF171717FF171717FF171717FF171717FF171717FF17
310
1717FF171717FF171717FF171717FF171717FF171717FF171717FF171717FF171717FF171717FF171717FF171717FF171717FF171717FF171717FF171717FF171717FF171717FF171717FF171717FF171717FF171717FF171717FF171717FF171717FF171717FF171717FF171717FF171717FF171717FF171717FF171717FF
310
171717FF171717FF171717FF171717FF171717FF171717FF171717FF171717FF171717FF171717FF171717FF171717FF171717FF171717FF171717FF171717FF171717FF171717FF171717FF171717FF171717FF171717FF171717FF171717FF171717FF171717FF171717FF171717FF171717FF171717FF171717FF171717
310
FF171717FF171717FF171717FF171717FF171717FF171717FF171717FF171717FF171717FF171717FF171717FF171717FF171717FF171717FF171717FF171717FF171717FF171717FF171717FF171717FF171717FF171717FF171717FF171717FF171717FF171717FF171717FF171717FF171717FF171717FF171717FF1717
310
17FF171717FF171717FF171717FF171717FF171717FF171717FF171717FF171717FF171717FF171717FF171717FF171717FF171717FF171717FF171717FF171717FF171717FF171717FF171717FF171717FF171717FF171717FF171717FF171717FF171717FF171717FF171717FF171717FF171717FF171717FF171717FF17
310
1717FF171717FF171717FF171717FF171717FF171717FF171717FF171717FF171717FF171717FF171717FF171717FF171717FF171717FF171717FF171717FF171717FF171717FF171717FF171717FF171717FF171717FF171717FF171717FF171717FF171717FF171717FF171717FF171717FF171717FF171717FF171717FF
310
171717FF171717FF171717FF171717FF171717FF171717FF171717FF171717FF171717FF171717FF171717FF171717FF171717FF171717FF171717FF171717FF171717FF171717FF
 70
     0
280
     1
281
     0
  0
BLOCK_RECORD
  5
51D
330
1
100
AcDbSymbolTableRecord
100
AcDbBlockTableRecord
  2
_ACMFILLED30
340
0
310
28000000200000002000000001002000000000000010000001000000010000000000000000000000171717FF171717FF171717FF171717FF171717FF171717FF171717FF171717FF171717FF171717FF171717FF171717FF171717FF171717FF171717FF171717FF171717FF171717FF171717FF171717FF171717FF171717
310
FF171717FF171717FF171717FF171717FF171717FF171717FF171717FF171717FF171717FF171717FF171717FF171717FF171717FF171717FF171717FF171717FF171717FF171717FF171717FF171717FF171717FF171717FF171717FF171717FF171717FF171717FF171717FF171717FF171717FF171717FF171717FF1717
310
17FF171717FF171717FF171717FF171717FF171717FF171717FF171717FF171717FF171717FF171717FF171717FF171717FF171717FF171717FF171717FF171717FF171717FF171717FF171717FF171717FF171717FF171717FF171717FF171717FF171717FF171717FF171717FF171717FF171717FF171717FF171717FF17
310
1717FF171717FF171717FF171717FF171717FF171717FF171717FF171717FF171717FF171717FF171717FF171717FF171717FF171717FF171717FF171717FF171717FF171717FF171717FF171717FF171717FF171717FF171717FF171717FF171717FF171717FF171717FF171717FF171717FF171717FF171717FF171717FF
310
171717FF171717FF171717FF171717FF171717FF171717FF171717FF171717FF171717FF171717FF171717FF171717FF171717FF171717FF171717FF171717FF171717FF171717FF171717FF171717FF171717FF171717FF171717FF171717FF171717FF171717FF171717FF171717FF171717FF171717FF171717FF171717
310
FF171717FF171717FF171717FF171717FF171717FF171717FF171717FF171717FF171717FF171717FF171717FF171717FF171717FF171717FF171717FF171717FF171717FF171717FF171717FF171717FF171717FF171717FF171717FF171717FF171717FF171717FF171717FF171717FF171717FF171717FF171717FF1717
310
17FF171717FF171717FF171717FF171717FF171717FF171717FF171717FF171717FF171717FF171717FF171717FF171717FF171717FF171717FF171717FF171717FF171717FF171717FF171717FF171717FF171717FF171717FF171717FF171717FF171717FF171717FF171717FF171717FF171717FF171717FF171717FF17
310
1717FF171717FF171717FF171717FF171717FF171717FF171717FF171717FF171717FF171717FF171717FF171717FF171717FF171717FF171717FF171717FF171717FF171717FF171717FF171717FF171717FF171717FF171717FF171717FF171717FF171717FF171717FF171717FF171717FF171717FF171717FF171717FF
310
171717FF171717FF171717FF171717FF171717FF171717FF171717FF171717FF171717FF171717FF171717FF171717FF171717FFFFFFFFFFFFFFFFFFFFFFFFFF171717FF171717FF171717FF171717FF171717FF171717FF171717FF171717FF171717FF171717FF171717FF171717FF171717FF171717FF171717FF171717
310
FF171717FF171717FF171717FF171717FF171717FF171717FF171717FF171717FF171717FF171717FF171717FF171717FF171717FFFFFFFFFFFFFFFFFFFFFFFFFFFFFFFFFFFFFFFFFFFFFFFFFFFFFFFFFF171717FF171717FF171717FF171717FF171717FF171717FF171717FF171717FF171717FF171717FF171717FF1717
310
17FF171717FF171717FF171717FF171717FF171717FF171717FF171717FF171717FF171717FF171717FF171717FF171717FF171717FFFFFFFFFFFFFFFFFFFFFFFFFFFFFFFFFFFFFFFFFFFFFFFFFFFFFFFFFFFFFFFFFFFFFFFFFFFFFFFFFFFFFFFFFF171717FF171717FF171717FF171717FF171717FF171717FF171717FF17
310
1717FF171717FF171717FF171717FF171717FF171717FF171717FF171717FF171717FF171717FF171717FF171717FF171717FF171717FFFFFFFFFFFFFFFFFFFFFFFFFFFFFFFFFFFFFFFFFFFFFFFFFFFFFFFFFFFFFFFFFFFFFFFFFFFFFFFFFFFFFFFFFFFFFFFFFFFFFFFFFFFFFFFFFFFFFFFFFF171717FF171717FF171717FF
310
171717FF171717FF171717FF171717FF171717FF171717FF171717FF171717FF171717FF171717FF171717FF171717FF171717FF171717FFFFFFFFFFFFFFFFFFFFFFFFFFFFFFFFFFFFFFFFFFFFFFFFFFFFFFFFFFFFFFFFFFFFFFFFFFFFFFFFFFFFFFFFFFFFFFFFFFFFFFFFFFFFFFFFFFFFFFFFFFFFFFFFFFFFFFFFFFFFFFFF
310
FFFFFFFFFF171717FF171717FF171717FF171717FF171717FF171717FF171717FF171717FF171717FF171717FF171717FF171717FF171717FFFFFFFFFFFFFFFFFFFFFFFFFFFFFFFFFFFFFFFFFFFFFFFFFFFFFFFFFFFFFFFFFFFFFFFFFFFFFFFFFFFFFFFFFFFFFFFFFFFFFFFFFFFFFFFFFFFFFFFFFFFFFFFFFFFFFFFFFFFFFF
310
FFFFFFFFFFFFFFFFFFFFFFFFFFFFFFFFFFFFFFFFFFFF171717FF171717FF171717FF171717FF171717FF171717FF171717FF171717FF171717FFFFFFFFFFFFFFFFFFFFFFFFFFFFFFFFFFFFFFFFFFFFFFFFFFFFFFFFFFFFFFFFFFFFFFFFFFFFFFFFFFFFFFFFFFFFFFFFFFFFFFFFFFFFFFFFFFFFFFFFFFFFFFFFFFFFFFFFFFFF
310
FFFFFFFFFFFFFFFFFFFFFFFFFFFFFFFFFFFFFFFFFFFFFFFFFFFFFFFFFFFFFFFFFFFFFFFFFFFFFF171717FF171717FF171717FF171717FF171717FFFFFFFFFFFFFFFFFFFFFFFFFFFFFFFFFFFFFFFFFFFFFFFFFFFFFFFFFFFFFFFFFFFFFFFFFFFFFFFFFFFFFFFFFFFFFFFFFFFFFFFFFFFFFFFFFFFFFFFFFFFFFFFFFFFFFFFFFF
310
FFFFFFFFFFFFFFFFFFFFFFFFFFFFFFFFFFFFFFFFFFFFFFFFFFFFFFFFFFFFFFFFFFFFFFFFFFFFFFFFFFFFFFFFFFFFFFFFFFFFFFFF171717FF171717FFFFFFFFFFFFFFFFFFFFFFFFFFFFFFFFFFFFFFFFFFFFFFFFFFFFFFFFFFFFFFFFFFFFFFFFFFFFFFFFFFFFFFFFFFFFFFFFFFFFFFFFFFFFFFFFFFFFFFFFFFFFFFFFFFFFFFFF
310
FFFFFFFFFFFFFFFFFFFFFFFFFFFFFFFFFFFFFFFFFFFFFFFFFFFFFFFFFFFFFFFFFFFFFFFFFFFFFFFFFFFFFFFFFF171717FF171717FF171717FF171717FFFFFFFFFFFFFFFFFFFFFFFFFFFFFFFFFFFFFFFFFFFFFFFFFFFFFFFFFFFFFFFFFFFFFFFFFFFFFFFFFFFFFFFFFFFFFFFFFFFFFFFFFFFFFFFFFFFFFFFFFFFFFFFFFFFFFF
310
FFFFFFFFFFFFFFFFFFFFFFFFFFFFFFFFFFFFFFFFFFFFFFFFFFFFFFFFFFFF171717FF171717FF171717FF171717FF171717FF171717FF171717FF171717FFFFFFFFFFFFFFFFFFFFFFFFFFFFFFFFFFFFFFFFFFFFFFFFFFFFFFFFFFFFFFFFFFFFFFFFFFFFFFFFFFFFFFFFFFFFFFFFFFFFFFFFFFFFFFFFFFFFFFFFFFFFFFFFFFFF
310
FFFFFFFFFFFFFFFFFFFFFFFFFFFFFF171717FF171717FF171717FF171717FF171717FF171717FF171717FF171717FF171717FF171717FF171717FF171717FFFFFFFFFFFFFFFFFFFFFFFFFFFFFFFFFFFFFFFFFFFFFFFFFFFFFFFFFFFFFFFFFFFFFFFFFFFFFFFFFFFFFFFFFFFFFFFFFFFFFFFFFFFFFFFFFFFFFFFFFFFFFFFFFF
310
FFFFFFFF171717FF171717FF171717FF171717FF171717FF171717FF171717FF171717FF171717FF171717FF171717FF171717FF171717FF171717FF171717FFFFFFFFFFFFFFFFFFFFFFFFFFFFFFFFFFFFFFFFFFFFFFFFFFFFFFFFFFFFFFFFFFFFFFFFFFFFFFFFFFFFFFFFFFFFFFFFFFFFFFFFFF171717FF171717FF171717
310
FF171717FF171717FF171717FF171717FF171717FF171717FF171717FF171717FF171717FF171717FF171717FF171717FF171717FF171717FF171717FF171717FFFFFFFFFFFFFFFFFFFFFFFFFFFFFFFFFFFFFFFFFFFFFFFFFFFFFFFFFFFFFFFFFFFFFFFFFFFFFFFFFF171717FF171717FF171717FF171717FF171717FF1717
310
17FF171717FF171717FF171717FF171717FF171717FF171717FF171717FF171717FF171717FF171717FF171717FF171717FF171717FF171717FF171717FF171717FFFFFFFFFFFFFFFFFFFFFFFFFFFFFFFFFFFFFFFFFFFFFFFFFF171717FF171717FF171717FF171717FF171717FF171717FF171717FF171717FF171717FF17
310
1717FF171717FF171717FF171717FF171717FF171717FF171717FF171717FF171717FF171717FF171717FF171717FF171717FF171717FF171717FF171717FF171717FFFFFFFFFFFFFFFFFF171717FF171717FF171717FF171717FF171717FF171717FF171717FF171717FF171717FF171717FF171717FF171717FF171717FF
310
171717FF171717FF171717FF171717FF171717FF171717FF171717FF171717FF171717FF171717FF171717FF171717FF171717FF171717FF171717FF171717FF171717FF171717FF171717FF171717FF171717FF171717FF171717FF171717FF171717FF171717FF171717FF171717FF171717FF171717FF171717FF171717
310
FF171717FF171717FF171717FF171717FF171717FF171717FF171717FF171717FF171717FF171717FF171717FF171717FF171717FF171717FF171717FF171717FF171717FF171717FF171717FF171717FF171717FF171717FF171717FF171717FF171717FF171717FF171717FF171717FF171717FF171717FF171717FF1717
310
17FF171717FF171717FF171717FF171717FF171717FF171717FF171717FF171717FF171717FF171717FF171717FF171717FF171717FF171717FF171717FF171717FF171717FF171717FF171717FF171717FF171717FF171717FF171717FF171717FF171717FF171717FF171717FF171717FF171717FF171717FF171717FF17
310
1717FF171717FF171717FF171717FF171717FF171717FF171717FF171717FF171717FF171717FF171717FF171717FF171717FF171717FF171717FF171717FF171717FF171717FF171717FF171717FF171717FF171717FF171717FF171717FF171717FF171717FF171717FF171717FF171717FF171717FF171717FF171717FF
310
171717FF171717FF171717FF171717FF171717FF171717FF171717FF171717FF171717FF171717FF171717FF171717FF171717FF171717FF171717FF171717FF171717FF171717FF171717FF171717FF171717FF171717FF171717FF171717FF171717FF171717FF171717FF171717FF171717FF171717FF171717FF171717
310
FF171717FF171717FF171717FF171717FF171717FF171717FF171717FF171717FF171717FF171717FF171717FF171717FF171717FF171717FF171717FF171717FF171717FF171717FF171717FF171717FF171717FF171717FF171717FF171717FF171717FF171717FF171717FF171717FF171717FF171717FF171717FF1717
310
17FF171717FF171717FF171717FF171717FF171717FF171717FF171717FF171717FF171717FF171717FF171717FF171717FF171717FF171717FF171717FF171717FF171717FF171717FF171717FF171717FF171717FF171717FF171717FF171717FF171717FF171717FF171717FF171717FF171717FF171717FF171717FF17
310
1717FF171717FF171717FF171717FF171717FF171717FF171717FF171717FF171717FF171717FF171717FF171717FF171717FF171717FF171717FF171717FF171717FF171717FF171717FF171717FF171717FF171717FF171717FF171717FF171717FF171717FF171717FF171717FF171717FF171717FF171717FF171717FF
310
171717FF171717FF171717FF171717FF171717FF171717FF171717FF171717FF171717FF171717FF171717FF171717FF171717FF171717FF171717FF171717FF171717FF171717FF
 70
     0
280
     1
281
     0
  0
BLOCK_RECORD
  5
1979
330
1
100
AcDbSymbolTableRecord
100
AcDbBlockTableRecord
  2
_ACMFILLED
340
0
310
28000000200000002000000001002000000000000010000001000000010000000000000000000000171717FF171717FF171717FF171717FF171717FF171717FF171717FF171717FF171717FF171717FF171717FF171717FF171717FF171717FF171717FF171717FF171717FF171717FF171717FF171717FF171717FF171717
310
FF171717FF171717FF171717FF171717FF171717FF171717FF171717FF171717FF171717FF171717FF171717FF171717FF171717FF171717FF171717FF171717FF171717FF171717FF171717FF171717FF171717FF171717FF171717FF171717FF171717FF171717FF171717FF171717FF171717FF171717FF171717FF1717
310
17FF171717FF171717FF171717FF171717FF171717FF171717FF171717FF171717FF171717FF171717FF171717FF171717FF171717FF171717FF171717FF171717FF171717FF171717FF171717FF171717FF171717FF171717FF171717FF171717FF171717FF171717FF171717FF171717FF171717FF171717FF171717FF17
310
1717FF171717FF171717FF171717FF171717FF171717FF171717FF171717FF171717FF171717FF171717FF171717FF171717FF171717FF171717FF171717FF171717FF171717FF171717FF171717FF171717FF171717FF171717FF171717FF171717FF171717FF171717FF171717FF171717FF171717FF171717FF171717FF
310
171717FF171717FF171717FF171717FF171717FF171717FF171717FF171717FF171717FF171717FF171717FF171717FF171717FF171717FF171717FF171717FF171717FF171717FF171717FF171717FF171717FF171717FF171717FF171717FF171717FF171717FF171717FF171717FF171717FF171717FF171717FF171717
310
FF171717FF171717FF171717FF171717FF171717FF171717FF171717FF171717FF171717FF171717FF171717FF171717FF171717FF171717FF171717FF171717FF171717FF171717FF171717FF171717FF171717FF171717FF171717FF171717FF171717FF171717FF171717FF171717FF171717FF171717FF171717FF1717
310
17FF171717FF171717FF171717FF171717FF171717FF171717FF171717FF171717FF171717FF171717FF171717FF171717FF171717FF171717FF171717FF171717FF171717FF171717FF171717FF171717FF171717FF171717FF171717FF171717FF171717FF171717FF171717FF171717FF171717FF171717FF171717FF17
310
1717FF171717FF171717FF171717FF171717FF171717FF171717FF171717FF171717FF171717FF171717FF171717FF171717FF171717FF171717FF171717FF171717FF171717FF171717FF171717FF171717FF171717FF171717FF171717FF171717FF171717FF171717FF171717FF171717FF171717FF171717FF171717FF
310
171717FF171717FF171717FF171717FF171717FF171717FF171717FF171717FF171717FF171717FF171717FF171717FF171717FF171717FF171717FF171717FF171717FF171717FF171717FF171717FF171717FF171717FF171717FF171717FF171717FF171717FF171717FF171717FF171717FF171717FF171717FF171717
310
FF171717FF171717FF171717FF171717FF171717FF171717FF171717FF171717FF171717FF171717FF171717FF171717FF171717FF171717FF171717FF171717FF171717FF171717FF171717FF171717FF171717FF171717FF171717FF171717FF171717FF171717FF171717FF171717FF171717FF171717FF171717FF1717
310
17FF171717FF171717FF171717FF171717FF171717FF171717FF171717FF171717FF171717FF171717FF171717FF171717FF171717FF171717FF171717FF171717FF171717FF171717FF171717FF171717FF171717FF171717FF171717FF171717FF171717FF171717FF171717FF171717FF171717FF171717FF171717FF17
310
1717FF171717FF171717FF171717FF171717FF171717FF171717FF171717FF171717FF171717FF171717FF171717FF171717FF171717FFFFFFFFFFFFFFFFFFFFFFFFFFFFFFFFFF171717FF171717FF171717FF171717FF171717FF171717FF171717FF171717FF171717FF171717FF171717FF171717FF171717FF171717FF
310
171717FF171717FF171717FF171717FF171717FF171717FF171717FF171717FF171717FF171717FF171717FF171717FF171717FF171717FFFFFFFFFFFFFFFFFFFFFFFFFFFFFFFFFFFFFFFFFFFFFFFFFFFFFFFFFFFFFFFFFFFFFFFFFFFFFFFFFFFFFFFFFF171717FF171717FF171717FF171717FF171717FF171717FF171717
310
FF171717FF171717FF171717FF171717FF171717FF171717FF171717FF171717FF171717FF171717FF171717FF171717FF171717FF171717FFFFFFFFFFFFFFFFFFFFFFFFFFFFFFFFFFFFFFFFFFFFFFFFFFFFFFFFFFFFFFFFFFFFFFFFFFFFFFFFFFFFFFFFFFFFFFFFFFFFFFFFFFFFFFFFFFFFFFFFFFFFFFFFFFFFFFFFFFFFFF
310
FFFFFFFFFFFF171717FF171717FF171717FF171717FF171717FF171717FF171717FF171717FF171717FF171717FF171717FF171717FF171717FFFFFFFFFFFFFFFFFFFFFFFFFFFFFFFFFFFFFFFFFFFFFFFFFFFFFFFFFFFFFFFFFFFFFFFFFFFFFFFFFFFFFFFFFFFFFFFFFFFFFFFFFFFFFFFFFFFFFFFFFFFFFFFFFFFFFFFFFFFF
310
FFFFFFFFFFFFFFFFFFFFFFFFFFFFFFFFFFFFFFFFFFFFFFFFFFFFFFFFFFFFFFFFFFFFFF171717FF171717FF171717FF171717FF171717FF171717FFFFFFFFFFFFFFFFFFFFFFFFFFFFFFFFFFFFFFFFFFFFFFFFFFFFFFFFFFFFFFFFFFFFFFFFFFFFFFFFFFFFFFFFFFFFFFFFFFFFFFFFFFFFFFFFFFFFFFFFFFFFFFFFFFFFFFFFFF
310
FFFFFFFFFFFFFFFFFFFFFFFFFFFFFFFFFFFFFFFFFFFFFFFFFFFFFFFFFFFFFFFFFFFFFFFFFFFFFFFFFFFFFFFFFFFFFFFFFFFFFFFF171717FF171717FFFFFFFFFFFFFFFFFFFFFFFFFFFFFFFFFFFFFFFFFFFFFFFFFFFFFFFFFFFFFFFFFFFFFFFFFFFFFFFFFFFFFFFFFFFFFFFFFFFFFFFFFFFFFFFFFFFFFFFFFFFFFFFFFFFFFFFF
310
FFFFFFFFFFFFFFFFFFFFFFFFFFFFFFFFFFFFFFFFFFFFFFFFFFFFFFFFFFFFFFFFFFFFFFFFFFFFFFFFFF171717FF171717FF171717FF171717FF171717FFFFFFFFFFFFFFFFFFFFFFFFFFFFFFFFFFFFFFFFFFFFFFFFFFFFFFFFFFFFFFFFFFFFFFFFFFFFFFFFFFFFFFFFFFFFFFFFFFFFFFFFFFFFFFFFFFFFFFFFFFFFFFFFFFFFFF
310
FFFFFFFFFFFFFFFFFFFFFFFFFFFFFFFFFFFF171717FF171717FF171717FF171717FF171717FF171717FF171717FF171717FF171717FF171717FF171717FFFFFFFFFFFFFFFFFFFFFFFFFFFFFFFFFFFFFFFFFFFFFFFFFFFFFFFFFFFFFFFFFFFFFFFFFFFFFFFFFFFFFFFFFFFFFFFFFFFFFFFFFFFFFFFFFFFFFFFFFF171717FF17
310
1717FF171717FF171717FF171717FF171717FF171717FF171717FF171717FF171717FF171717FF171717FF171717FF171717FF171717FF171717FF171717FFFFFFFFFFFFFFFFFFFFFFFFFFFFFFFFFFFFFFFFFFFFFFFFFFFFFFFFFFFFFFFFFFFFFFFFFF171717FF171717FF171717FF171717FF171717FF171717FF171717FF
310
171717FF171717FF171717FF171717FF171717FF171717FF171717FF171717FF171717FF171717FF171717FF171717FF171717FF171717FF171717FF171717FFFFFFFFFFFFFFFFFFFFFFFFFF171717FF171717FF171717FF171717FF171717FF171717FF171717FF171717FF171717FF171717FF171717FF171717FF171717
310
FF171717FF171717FF171717FF171717FF171717FF171717FF171717FF171717FF171717FF171717FF171717FF171717FF171717FF171717FF171717FF171717FF171717FF171717FF171717FF171717FF171717FF171717FF171717FF171717FF171717FF171717FF171717FF171717FF171717FF171717FF171717FF1717
310
17FF171717FF171717FF171717FF171717FF171717FF171717FF171717FF171717FF171717FF171717FF171717FF171717FF171717FF171717FF171717FF171717FF171717FF171717FF171717FF171717FF171717FF171717FF171717FF171717FF171717FF171717FF171717FF171717FF171717FF171717FF171717FF17
310
1717FF171717FF171717FF171717FF171717FF171717FF171717FF171717FF171717FF171717FF171717FF171717FF171717FF171717FF171717FF171717FF171717FF171717FF171717FF171717FF171717FF171717FF171717FF171717FF171717FF171717FF171717FF171717FF171717FF171717FF171717FF171717FF
310
171717FF171717FF171717FF171717FF171717FF171717FF171717FF171717FF171717FF171717FF171717FF171717FF171717FF171717FF171717FF171717FF171717FF171717FF171717FF171717FF171717FF171717FF171717FF171717FF171717FF171717FF171717FF171717FF171717FF171717FF171717FF171717
310
FF171717FF171717FF171717FF171717FF171717FF171717FF171717FF171717FF171717FF171717FF171717FF171717FF171717FF171717FF171717FF171717FF171717FF171717FF171717FF171717FF171717FF171717FF171717FF171717FF171717FF171717FF171717FF171717FF171717FF171717FF171717FF1717
310
17FF171717FF171717FF171717FF171717FF171717FF171717FF171717FF171717FF171717FF171717FF171717FF171717FF171717FF171717FF171717FF171717FF171717FF171717FF171717FF171717FF171717FF171717FF171717FF171717FF171717FF171717FF171717FF171717FF171717FF171717FF171717FF17
310
1717FF171717FF171717FF171717FF171717FF171717FF171717FF171717FF171717FF171717FF171717FF171717FF171717FF171717FF171717FF171717FF171717FF171717FF171717FF171717FF171717FF171717FF171717FF171717FF171717FF171717FF171717FF171717FF171717FF171717FF171717FF171717FF
310
171717FF171717FF171717FF171717FF171717FF171717FF171717FF171717FF171717FF171717FF171717FF171717FF171717FF171717FF171717FF171717FF171717FF171717FF171717FF171717FF171717FF171717FF171717FF171717FF171717FF171717FF171717FF171717FF171717FF171717FF171717FF171717
310
FF171717FF171717FF171717FF171717FF171717FF171717FF171717FF171717FF171717FF171717FF171717FF171717FF171717FF171717FF171717FF171717FF171717FF171717FF171717FF171717FF171717FF171717FF171717FF171717FF171717FF171717FF171717FF171717FF171717FF171717FF171717FF1717
310
17FF171717FF171717FF171717FF171717FF171717FF171717FF171717FF171717FF171717FF171717FF171717FF171717FF171717FF171717FF171717FF171717FF171717FF171717FF171717FF171717FF171717FF171717FF171717FF171717FF171717FF171717FF171717FF171717FF171717FF171717FF171717FF17
310
1717FF171717FF171717FF171717FF171717FF171717FF171717FF171717FF171717FF171717FF171717FF171717FF171717FF171717FF171717FF171717FF171717FF171717FF171717FF171717FF171717FF171717FF171717FF171717FF171717FF171717FF171717FF171717FF171717FF171717FF171717FF171717FF
310
171717FF171717FF171717FF171717FF171717FF171717FF171717FF171717FF171717FF171717FF171717FF171717FF171717FF171717FF171717FF171717FF171717FF171717FF
 70
     0
280
     1
281
     0
  0
BLOCK_RECORD
  5
197D
330
1
100
AcDbSymbolTableRecord
100
AcDbBlockTableRecord
  2
_ACMFILLEDHALF
340
0
310
28000000200000002000000001002000000000000010000001000000010000000000000000000000171717FF171717FF171717FF171717FF171717FF171717FF171717FF171717FF171717FF171717FF171717FF171717FF171717FF171717FF171717FF171717FF171717FF171717FF171717FF171717FF171717FF171717
310
FF171717FF171717FF171717FF171717FF171717FF171717FF171717FF171717FF171717FF171717FF171717FF171717FF171717FF171717FF171717FF171717FF171717FF171717FF171717FF171717FF171717FF171717FF171717FF171717FF171717FF171717FF171717FF171717FF171717FF171717FF171717FF1717
310
17FF171717FF171717FF171717FF171717FF171717FF171717FF171717FF171717FF171717FF171717FF171717FF171717FF171717FF171717FF171717FF171717FF171717FF171717FF171717FF171717FF171717FF171717FF171717FF171717FF171717FF171717FF171717FF171717FF171717FF171717FF171717FF17
310
1717FF171717FF171717FF171717FF171717FF171717FF171717FF171717FF171717FF171717FF171717FF171717FF171717FF171717FF171717FF171717FF171717FF171717FF171717FF171717FF171717FF171717FF171717FF171717FF171717FF171717FF171717FF171717FF171717FF171717FF171717FF171717FF
310
171717FF171717FF171717FF171717FF171717FF171717FF171717FF171717FF171717FF171717FF171717FF171717FF171717FF171717FF171717FF171717FF171717FF171717FF171717FF171717FF171717FF171717FF171717FF171717FF171717FF171717FF171717FF171717FF171717FF171717FF171717FF171717
310
FF171717FF171717FF171717FF171717FF171717FF171717FF171717FF171717FF171717FF171717FF171717FF171717FF171717FF171717FF171717FF171717FF171717FF171717FF171717FF171717FF171717FF171717FF171717FF171717FF171717FF171717FF171717FF171717FF171717FF171717FF171717FF1717
310
17FF171717FF171717FF171717FF171717FF171717FF171717FF171717FF171717FF171717FF171717FF171717FF171717FF171717FF171717FF171717FF171717FF171717FF171717FF171717FF171717FF171717FF171717FF171717FF171717FF171717FF171717FF171717FF171717FF171717FF171717FF171717FF17
310
1717FF171717FF171717FF171717FF171717FF171717FF171717FF171717FF171717FF171717FF171717FF171717FF171717FF171717FF171717FF171717FF171717FF171717FF171717FF171717FF171717FF171717FF171717FF171717FF171717FF171717FF171717FF171717FF171717FF171717FF171717FF171717FF
310
171717FF171717FF171717FF171717FF171717FF171717FF171717FF171717FF171717FF171717FF171717FF171717FF171717FF171717FF171717FF171717FF171717FF171717FF171717FF171717FF171717FF171717FF171717FF171717FF171717FF171717FF171717FF171717FF171717FF171717FF171717FF171717
310
FF171717FF171717FF171717FF171717FF171717FF171717FF171717FF171717FF171717FF171717FF171717FF171717FF171717FF171717FF171717FF171717FF171717FF171717FF171717FF171717FF171717FF171717FF171717FF171717FF171717FF171717FF171717FF171717FF171717FF171717FF171717FF1717
310
17FF171717FF171717FF171717FF171717FF171717FF171717FF171717FF171717FF171717FF171717FF171717FF171717FF171717FF171717FF171717FF171717FF171717FF171717FF171717FF171717FF171717FF171717FF171717FF171717FF171717FF171717FF171717FF171717FF171717FF171717FF171717FF17
310
1717FF171717FF171717FF171717FF171717FF171717FF171717FF171717FF171717FF171717FF171717FF171717FF171717FF171717FF171717FF171717FF171717FF171717FF171717FF171717FF171717FF171717FF171717FF171717FF171717FF171717FF171717FF171717FF171717FF171717FF171717FF171717FF
310
171717FF171717FF171717FF171717FF171717FF171717FF171717FF171717FF171717FF171717FF171717FF171717FF171717FF171717FF171717FF171717FF171717FF171717FF171717FF171717FF171717FF171717FF171717FF171717FF171717FF171717FF171717FF171717FF171717FF171717FF171717FF171717
310
FF171717FF171717FF171717FF171717FF171717FF171717FF171717FF171717FF171717FF171717FF171717FF171717FF171717FF171717FFFFFFFFFFFFFFFFFFFFFFFFFFFFFFFFFFFFFFFFFFFFFFFFFFFFFFFFFFFFFFFFFFFFFFFFFFFFFFFFFFFFFFFFFFFFFFFFFFFFFFFFFFFFFFFFFFFFFFFFFFFFFFFFFFFFFFFFFFFFFF
310
FFFFFFFFFFFFFFFFFFFFFFFFFFFFFFFFFFFFFFFFFFFFFFFFFFFFFFFFFFFFFFFFFFFFFFFFFFFFFFFFFFFFFFFFFFFFFFFFFFFF171717FF171717FF171717FF171717FF171717FF171717FF171717FFFFFFFFFFFFFFFFFFFFFFFFFFFFFFFFFFFFFFFFFFFFFFFFFFFFFFFFFFFFFFFFFFFFFFFFFFFFFFFFFFFFFFFFFFFFFFFFFFFF
310
FFFFFFFFFFFFFFFFFFFFFFFFFFFFFFFFFFFFFFFFFFFFFFFFFFFFFFFFFFFFFFFFFFFFFFFFFFFFFF171717FF171717FF171717FF171717FF171717FF171717FF171717FF171717FF171717FFFFFFFFFFFFFFFFFFFFFFFFFFFFFFFFFFFFFFFFFFFFFFFFFFFFFFFFFFFFFFFFFFFFFFFFFFFFFFFFFFFFFFFFFFFFFFFFFFFFFFFFFF
310
FFFFFFFFFFFFFFFFFFFFFFFFFFFFFFFF171717FF171717FF171717FF171717FF171717FF171717FF171717FF171717FF171717FF171717FF171717FF171717FF171717FFFFFFFFFFFFFFFFFFFFFFFFFFFFFFFFFFFFFFFFFFFFFFFFFFFFFFFFFFFFFFFFFFFFFFFFFFFFFFFFFFFFFFFFFFFFFFFFFFFFFFFFFF171717FF171717
310
FF171717FF171717FF171717FF171717FF171717FF171717FF171717FF171717FF171717FF171717FF171717FF171717FF171717FF171717FF171717FF171717FFFFFFFFFFFFFFFFFFFFFFFFFFFFFFFFFFFFFFFFFFFFFFFFFFFFFFFFFFFFFFFFFF171717FF171717FF171717FF171717FF171717FF171717FF171717FF1717
310
17FF171717FF171717FF171717FF171717FF171717FF171717FF171717FF171717FF171717FF171717FF171717FF171717FF171717FF171717FF171717FFFFFFFFFFFFFFFFFFFFFFFFFF171717FF171717FF171717FF171717FF171717FF171717FF171717FF171717FF171717FF171717FF171717FF171717FF171717FF17
310
1717FF171717FF171717FF171717FF171717FF171717FF171717FF171717FF171717FF171717FF171717FF171717FF171717FF171717FF171717FF171717FF171717FF171717FF171717FF171717FF171717FF171717FF171717FF171717FF171717FF171717FF171717FF171717FF171717FF171717FF171717FF171717FF
310
171717FF171717FF171717FF171717FF171717FF171717FF171717FF171717FF171717FF171717FF171717FF171717FF171717FF171717FF171717FF171717FF171717FF171717FF171717FF171717FF171717FF171717FF171717FF171717FF171717FF171717FF171717FF171717FF171717FF171717FF171717FF171717
310
FF171717FF171717FF171717FF171717FF171717FF171717FF171717FF171717FF171717FF171717FF171717FF171717FF171717FF171717FF171717FF171717FF171717FF171717FF171717FF171717FF171717FF171717FF171717FF171717FF171717FF171717FF171717FF171717FF171717FF171717FF171717FF1717
310
17FF171717FF171717FF171717FF171717FF171717FF171717FF171717FF171717FF171717FF171717FF171717FF171717FF171717FF171717FF171717FF171717FF171717FF171717FF171717FF171717FF171717FF171717FF171717FF171717FF171717FF171717FF171717FF171717FF171717FF171717FF171717FF17
310
1717FF171717FF171717FF171717FF171717FF171717FF171717FF171717FF171717FF171717FF171717FF171717FF171717FF171717FF171717FF171717FF171717FF171717FF171717FF171717FF171717FF171717FF171717FF171717FF171717FF171717FF171717FF171717FF171717FF171717FF171717FF171717FF
310
171717FF171717FF171717FF171717FF171717FF171717FF171717FF171717FF171717FF171717FF171717FF171717FF171717FF171717FF171717FF171717FF171717FF171717FF171717FF171717FF171717FF171717FF171717FF171717FF171717FF171717FF171717FF171717FF171717FF171717FF171717FF171717
310
FF171717FF171717FF171717FF171717FF171717FF171717FF171717FF171717FF171717FF171717FF171717FF171717FF171717FF171717FF171717FF171717FF171717FF171717FF171717FF171717FF171717FF171717FF171717FF171717FF171717FF171717FF171717FF171717FF171717FF171717FF171717FF1717
310
17FF171717FF171717FF171717FF171717FF171717FF171717FF171717FF171717FF171717FF171717FF171717FF171717FF171717FF171717FF171717FF171717FF171717FF171717FF171717FF171717FF171717FF171717FF171717FF171717FF171717FF171717FF171717FF171717FF171717FF171717FF171717FF17
310
1717FF171717FF171717FF171717FF171717FF171717FF171717FF171717FF171717FF171717FF171717FF171717FF171717FF171717FF171717FF171717FF171717FF171717FF171717FF171717FF171717FF171717FF171717FF171717FF171717FF171717FF171717FF171717FF171717FF171717FF171717FF171717FF
310
171717FF171717FF171717FF171717FF171717FF171717FF171717FF171717FF171717FF171717FF171717FF171717FF171717FF171717FF171717FF171717FF171717FF171717FF171717FF171717FF171717FF171717FF171717FF171717FF171717FF171717FF171717FF171717FF171717FF171717FF171717FF171717
310
FF171717FF171717FF171717FF171717FF171717FF171717FF171717FF171717FF171717FF171717FF171717FF171717FF171717FF171717FF171717FF171717FF171717FF171717FF171717FF171717FF171717FF171717FF171717FF171717FF171717FF171717FF171717FF171717FF171717FF171717FF171717FF1717
310
17FF171717FF171717FF171717FF171717FF171717FF171717FF171717FF171717FF171717FF171717FF171717FF171717FF171717FF171717FF171717FF171717FF171717FF171717FF171717FF171717FF171717FF171717FF171717FF171717FF171717FF171717FF171717FF171717FF171717FF171717FF171717FF17
310
1717FF171717FF171717FF171717FF171717FF171717FF171717FF171717FF171717FF171717FF171717FF171717FF171717FF171717FF171717FF171717FF171717FF171717FF171717FF171717FF171717FF171717FF171717FF171717FF171717FF171717FF171717FF171717FF171717FF171717FF171717FF171717FF
310
171717FF171717FF171717FF171717FF171717FF171717FF171717FF171717FF171717FF171717FF171717FF171717FF171717FF171717FF171717FF171717FF171717FF171717FF
 70
     0
280
     1
281
     0
  0
BLOCK_RECORD
  5
1EFA
330
1
100
AcDbSymbolTableRecord
100
AcDbBlockTableRecord
  2
*S2417
340
0
102
{BLKREFS
331
1FDE
102
}
 70
     0
280
     1
281
     0
  0
BLOCK_RECORD
  5
1F00
330
1
100
AcDbSymbolTableRecord
100
AcDbBlockTableRecord
  2
*S2518
340
0
102
{BLKREFS
331
1FDF
102
}
 70
     0
280
     1
281
     0
  0
BLOCK_RECORD
  5
1FE1
330
1
100
AcDbSymbolTableRecord
100
AcDbBlockTableRecord
  2
*D19
340
0
 70
     0
280
     1
281
     0
  0
BLOCK_RECORD
  5
1FED
330
1
100
AcDbSymbolTableRecord
100
AcDbBlockTableRecord
  2
*D20
340
0
 70
     0
280
     1
281
     0
  0
BLOCK_RECORD
  5
1FFD
330
1
100
AcDbSymbolTableRecord
100
AcDbBlockTableRecord
  2
*D21
340
0
 70
     0
280
     1
281
     0
  0
BLOCK_RECORD
  5
200B
330
1
100
AcDbSymbolTableRecord
100
AcDbBlockTableRecord
  2
*D22
340
0
 70
     0
280
     1
281
     0
  0
BLOCK_RECORD
  5
2019
330
1
100
AcDbSymbolTableRecord
100
AcDbBlockTableRecord
  2
*D23
340
0
 70
     0
280
     1
281
     0
  0
BLOCK_RECORD
  5
2025
330
1
100
AcDbSymbolTableRecord
100
AcDbBlockTableRecord
  2
*D24
340
0
 70
     0
280
     1
281
     0
  0
BLOCK_RECORD
  5
2031
330
1
100
AcDbSymbolTableRecord
100
AcDbBlockTableRecord
  2
*D25
340
0
 70
     0
280
     1
281
     0
  0
BLOCK_RECORD
  5
203F
330
1
100
AcDbSymbolTableRecord
100
AcDbBlockTableRecord
  2
*D26
340
0
 70
     0
280
     1
281
     0
  0
ENDTAB
  0
ENDSEC
  0
SECTION
  2
BLOCKS
  0
BLOCK
  5
6C
330
6B
100
AcDbEntity
  8
0
100
AcDbBlockBegin
  2
*Model_Space
 70
     0
 10
0.0
 20
0.0
 30
0.0
  3
*Model_Space
  1

  0
ENDBLK
  5
6D
330
6B
100
AcDbEntity
  8
0
100
AcDbBlockEnd
  0
BLOCK
  5
68
330
67
100
AcDbEntity
 67
     1
  8
0
100
AcDbBlockBegin
  2
*Paper_Space
 70
     0
 10
0.0
 20
0.0
 30
0.0
  3
*Paper_Space
  1

  0
ENDBLK
  5
69
330
67
100
AcDbEntity
 67
     1
  8
0
100
AcDbBlockEnd
  0
BLOCK
  5
1D5
330
14A
100
AcDbEntity
  8
0
100
AcDbBlockBegin
  2
GENAXEH
 70
     0
 10
0.0
 20
0.0
 30
0.0
  3
GENAXEH
  1

  0
LINE
  5
1D6
330
14A
100
AcDbEntity
  8
0
100
AcDbLine
 10
-1.0
 20
0.0
 30
0.0
 11
1.0
 21
0.0
 31
0.0
  0
ENDBLK
  5
1D7
330
14A
100
AcDbEntity
  8
0
100
AcDbBlockEnd
  0
BLOCK
  5
4DE
330
4DD
100
AcDbEntity
  8
0
 62
   151
420
  9810903
370
    70
100
AcDbBlockBegin
  2
_ACMFILLED15
 70
     0
 10
0.0
 20
0.0
 30
0.0
  3
_ACMFILLED15
  1

  0
TRACE
  5
4E0
330
4DD
100
AcDbEntity
  8
AM_0 ( Kontur 0.5 )
 62
     0
100
AcDbTrace
 10
-1.0
 20
-0.131652497
 30
0.0
 11
-1.0
 21
0.131652497
 31
0.0
 12
0.0
 22
0.0
 32
0.0
 13
0.0
 23
0.0
 33
0.0
  0
ENDBLK
  5
4DF
330
4DD
100
AcDbEntity
  8
0
 62
   151
420
  9810903
370
    70
100
AcDbBlockEnd
  0
BLOCK
  5
51E
330
51D
100
AcDbEntity
  8
0
 62
   151
420
  9810903
370
    70
100
AcDbBlockBegin
  2
_ACMFILLED30
 70
     0
 10
0.0
 20
0.0
 30
0.0
  3
_ACMFILLED30
  1

  0
TRACE
  5
520
330
51D
100
AcDbEntity
  8
AM_0 ( Kontur 0.5 )
 62
     0
100
AcDbTrace
 10
-1.0
 20
-0.26794919
 30
0.0
 11
-1.0
 21
0.26794919
 31
0.0
 12
0.0
 22
0.0
 32
0.0
 13
0.0
 23
0.0
 33
0.0
  0
ENDBLK
  5
51F
330
51D
100
AcDbEntity
  8
0
 62
   151
420
  9810903
370
    70
100
AcDbBlockEnd
  0
BLOCK
  5
197A
330
1979
100
AcDbEntity
  8
0
100
AcDbBlockBegin
  2
_ACMFILLED
 70
     0
 10
0.0
 20
0.0
 30
0.0
  3
_ACMFILLED
  1

  0
TRACE
  5
197B
330
1979
100
AcDbEntity
  8
0
 62
     0
100
AcDbTrace
 10
-1.0
 20
-0.166666666
 30
0.0
 11
-1.0
 21
0.166666666
 31
0.0
 12
0.0
 22
0.0
 32
0.0
 13
0.0
 23
0.0
 33
0.0
  0
ENDBLK
  5
197C
330
1979
100
AcDbEntity
  8
0
100
AcDbBlockEnd
  0
BLOCK
  5
197E
330
197D
100
AcDbEntity
  8
0
100
AcDbBlockBegin
  2
_ACMFILLEDHALF
 70
     0
 10
0.0
 20
0.0
 30
0.0
  3
_ACMFILLEDHALF
  1

  0
TRACE
  5
197F
330
197D
100
AcDbEntity
  8
0
 62
     0
100
AcDbTrace
 10
-0.8
 20
0.0
 30
0.0
 11
-1.0
 21
0.166666666
 31
0.0
 12
0.0
 22
0.0
 32
0.0
 13
0.0
 23
0.0
 33
0.0
  0
LINE
  5
1980
330
197D
100
AcDbEntity
  8
0
 62
     0
100
AcDbLine
 10
-1.0
 20
0.0
 30
0.0
 11
-0.8
 21
0.0
 31
0.0
  0
ENDBLK
  5
1981
330
197D
100
AcDbEntity
  8
0
100
AcDbBlockEnd
  0
BLOCK
  5
1EFB
330
1EFA
100
AcDbEntity
  8
0
100
AcDbBlockBegin
  2
*S2417
 70
     1
 10
0.0
 20
0.0
 30
0.0
  3
*S2417
  1

  0
CIRCLE
  5
1EFC
330
1EFA
100
AcDbEntity
  8
AM_12 ( Teile Referenz)
 62
     4
100
AcDbCircle
 10
730.6272933876097
 20
240.0357062823605
 30
0.0
 40
2.5
  0
LINE
  5
1EFD
330
1EFA
100
AcDbEntity
  8
AM_12 ( Teile Referenz)
 62
     4
100
AcDbLine
 10
728.1272933876095
 20
237.5357062823606
 30
0.0
 11
733.1272933876097
 21
242.5357062823605
 31
0.0
  0
LINE
  5
1EFE
330
1EFA
100
AcDbEntity
  8
AM_12 ( Teile Referenz)
 62
     4
100
AcDbLine
 10
728.1272933876095
 20
242.5357062823605
 30
0.0
 11
733.1272933876097
 21
237.5357062823606
 31
0.0
  0
ENDBLK
  5
1EFF
330
1EFA
100
AcDbEntity
  8
0
100
AcDbBlockEnd
  0
BLOCK
  5
1F01
330
1F00
100
AcDbEntity
  8
0
100
AcDbBlockBegin
  2
*S2518
 70
     1
 10
0.0
 20
0.0
 30
0.0
  3
*S2518
  1

  0
CIRCLE
  5
1F02
330
1F00
100
AcDbEntity
  8
AM_12 ( Teile Referenz)
 62
     4
100
AcDbCircle
 10
725.9894194641669
 20
108.1387026511531
 30
0.0
 40
2.5
  0
LINE
  5
1F03
330
1F00
100
AcDbEntity
  8
AM_12 ( Teile Referenz)
 62
     4
100
AcDbLine
 10
723.4894194641668
 20
105.6387026511531
 30
0.0
 11
728.489419464167
 21
110.638702651153
 31
0.0
  0
LINE
  5
1F04
330
1F00
100
AcDbEntity
  8
AM_12 ( Teile Referenz)
 62
     4
100
AcDbLine
 10
723.4894194641668
 20
110.638702651153
 30
0.0
 11
728.489419464167
 21
105.6387026511531
 31
0.0
  0
ENDBLK
  5
1F05
330
1F00
100
AcDbEntity
  8
0
100
AcDbBlockEnd
  0
BLOCK
  5
1FE2
330
1FE1
100
AcDbEntity
  8
0
100
AcDbBlockBegin
  2
*D19
 70
     1
 10
0.0
 20
0.0
 30
0.0
  3
*D19
  1

  0
LINE
  5
1FE4
330
1FE1
100
AcDbEntity
  8
AM_5 ( Bemassung)
440
 16777216
100
AcDbLine
 10
1471.506382829001
 20
1671.730787849506
 30
0.0
 11
1516.018320095946
 21
1671.730787849506
 31
0.0
  0
LINE
  5
1FE5
330
1FE1
100
AcDbEntity
  8
AM_5 ( Bemassung)
440
 16777216
100
AcDbLine
 10
1471.506382829001
 20
1630.730787849506
 30
0.0
 11
1516.018320095946
 21
1630.730787849506
 31
0.0
  0
LINE
  5
1FE6
330
1FE1
100
AcDbEntity
  8
AM_5 ( Bemassung)
440
 16777216
100
AcDbLine
 10
1515.018320095946
 20
1663.730787849506
 30
0.0
 11
1515.018320095946
 21
1638.730787849506
 31
0.0
  0
SOLID
  5
1FE7
330
1FE1
100
AcDbEntity
  8
AM_5 ( Bemassung)
440
 16777216
100
AcDbTrace
 10
1513.684986762612
 20
1663.730787849506
 30
0.0
 11
1516.351653429279
 21
1663.730787849506
 31
0.0
 12
1515.018320095946
 22
1671.730787849506
 32
0.0
 13
1515.018320095946
 23
1671.730787849506
 33
0.0
  0
SOLID
  5
1FE8
330
1FE1
100
AcDbEntity
  8
AM_5 ( Bemassung)
440
 16777216
100
AcDbTrace
 10
1513.684986762612
 20
1638.730787849506
 30
0.0
 11
1516.351653429279
 21
1638.730787849506
 31
0.0
 12
1515.018320095946
 22
1630.730787849506
 32
0.0
 13
1515.018320095946
 23
1630.730787849506
 33
0.0
  0
MTEXT
  5
1FE9
330
1FE1
100
AcDbEntity
  8
AM_5 ( Bemassung)
 62
     6
440
 16777216
100
AcDbMText
 10
1508.440093708058
 20
1651.230787849507
 30
0.0
 40
7.0
 41
0.0
 46
0.0
 71
     5
 72
     1
  1
SW41
 11
0.0000000000000001
 21
1.0
 31
0.0
 73
     1
 44
1.0
  0
POINT
  5
1FEA
330
1FE1
100
AcDbEntity
  8
Defpoints
 62
     0
440
 16777216
100
AcDbPoint
 10
1471.506382829001
 20
1671.730787849506
 30
0.0
  0
POINT
  5
1FEB
330
1FE1
100
AcDbEntity
  8
Defpoints
 62
     0
440
 16777216
100
AcDbPoint
 10
1471.506382829001
 20
1630.730787849506
 30
0.0
  0
POINT
  5
1FEC
330
1FE1
100
AcDbEntity
  8
Defpoints
 62
     0
440
 16777216
100
AcDbPoint
 10
1515.018320095946
 20
1630.730787849506
 30
0.0
  0
ENDBLK
  5
1FE3
330
1FE1
100
AcDbEntity
  8
0
100
AcDbBlockEnd
  0
BLOCK
  5
1FEE
330
1FED
100
AcDbEntity
  8
0
100
AcDbBlockBegin
  2
*D20
 70
     1
 10
0.0
 20
0.0
 30
0.0
  3
*D20
  1

  0
LINE
  5
1FF0
330
1FED
100
AcDbEntity
  8
AM_5 ( Bemassung)
440
 16777216
100
AcDbLine
 10
1477.702721297586
 20
1801.126135032072
 30
0.0
 11
1491.977542623735
 21
1868.283889250503
 31
0.0
  0
LINE
  5
1FF1
330
1FED
100
AcDbEntity
  8
AM_5 ( Bemassung)
440
 16777216
100
AcDbLine
 10
1471.465370573053
 20
1848.559878707044
 30
0.0
 11
1471.465370573053
 21
1870.439805407527
 31
0.0
  0
ARC
  5
1FF2
330
1FED
100
AcDbEntity
  8
AM_5 ( Bemassung)
440
 16777216
100
AcDbCircle
 10
1471.465370573053
 20
1771.781707010058
 30
0.0
 40
97.65809839746943
100
AcDbArc
 50
68.61021043581231
 51
73.3051052179063
  0
ARC
  5
1FF3
330
1FED
100
AcDbEntity
  8
AM_5 ( Bemassung)
440
 16777216
100
AcDbCircle
 10
1471.465370573053
 20
1771.781707010058
 30
0.0
 40
97.65809839746943
100
AcDbArc
 50
94.69489478209402
 51
99.38978956418804
  0
ARC
  5
1FF4
330
1FED
100
AcDbEntity
  8
AM_5 ( Bemassung)
440
 16777216
100
AcDbCircle
 10
1471.465370573053
 20
1771.781707010058
 30
0.0
 40
97.65809839746943
100
AcDbArc
 50
78.0000000000003
 51
90.00000000000003
  0
SOLID
  5
1FF5
330
1FED
100
AcDbEntity
  8
AM_5 ( Bemassung)
440
 16777216
100
AcDbTrace
 10
1499.189715937597
 20
1864.031582780515
 30
0.0
 11
1499.85051962467
 21
1866.615078396587
 31
0.0
 12
1491.769630932918
 22
1867.305741649769
 32
0.0
 13
1491.769630932918
 23
1867.305741649769
 33
0.0
  0
SOLID
  5
1FF6
330
1FED
100
AcDbEntity
  8
AM_5 ( Bemassung)
440
 16777216
100
AcDbTrace
 10
1463.417471722665
 20
1870.444346034725
 30
0.0
 11
1463.526696321973
 21
1867.779917184481
 31
0.0
 12
1471.465370573053
 22
1869.439805407527
 32
0.0
 13
1471.465370573053
 23
1869.439805407527
 33
0.0
  0
MTEXT
  5
1FF7
330
1FED
100
AcDbEntity
  8
AM_5 ( Bemassung)
 62
     6
440
 16777216
100
AcDbMText
 10
1503.768795881677
 20
1870.86761904812
 30
0.0
 40
7.0
 41
0.0
 46
0.0
 71
     5
 72
     1
  1
15%%d
 11
0.9507501949585501
 21
-0.3099581694136792
 31
0.0
 73
     1
 44
1.0
  0
POINT
  5
1FF8
330
1FED
100
AcDbEntity
  8
Defpoints
 62
     0
440
 16777216
100
AcDbPoint
 10
1478.277655149817
 20
1869.20191518811
 30
0.0
  0
POINT
  5
1FF9
330
1FED
100
AcDbEntity
  8
Defpoints
 62
     0
440
 16777216
100
AcDbPoint
 10
1471.465370573053
 20
1717.383163839621
 30
0.0
  0
POINT
  5
1FFA
330
1FED
100
AcDbEntity
  8
Defpoints
 62
     0
440
 16777216
100
AcDbPoint
 10
1471.465370573053
 20
1771.781707010058
 30
0.0
  0
POINT
  5
1FFB
330
1FED
100
AcDbEntity
  8
Defpoints
 62
     0
440
 16777216
100
AcDbPoint
 10
1477.702721297586
 20
1801.126135032072
 30
0.0
  0
POINT
  5
1FFC
330
1FED
100
AcDbEntity
  8
Defpoints
 62
     0
440
 16777216
100
AcDbPoint
 10
1471.465370573053
 20
1848.559878707044
 30
0.0
  0
ENDBLK
  5
1FEF
330
1FED
100
AcDbEntity
  8
0
100
AcDbBlockEnd
  0
BLOCK
  5
1FFE
330
1FFD
100
AcDbEntity
  8
0
100
AcDbBlockBegin
  2
*D21
 70
     1
 10
0.0
 20
0.0
 30
0.0
  3
*D21
  1

  0
LINE
  5
2000
330
1FFD
100
AcDbEntity
  8
AM_5 ( Bemassung)
440
 16777216
100
AcDbLine
 10
1477.465370573053
 20
1842.281707010058
 30
0.0
 11
1477.465370573053
 21
1878.91656918195
 31
0.0
  0
LINE
  5
2001
330
1FFD
100
AcDbEntity
  8
AM_5 ( Bemassung)
440
 16777216
100
AcDbLine
 10
1465.465370573053
 20
1842.281707010058
 30
0.0
 11
1465.465370573053
 21
1878.91656918195
 31
0.0
  0
LINE
  5
2002
330
1FFD
100
AcDbEntity
  8
AM_5 ( Bemassung)
440
 16777216
100
AcDbLine
 10
1485.465370573053
 20
1877.91656918195
 30
0.0
 11
1493.465370573053
 21
1877.91656918195
 31
0.0
  0
LINE
  5
2003
330
1FFD
100
AcDbEntity
  8
AM_5 ( Bemassung)
440
 16777216
100
AcDbLine
 10
1457.465370573053
 20
1877.91656918195
 30
0.0
 11
1449.465370573053
 21
1877.91656918195
 31
0.0
  0
LINE
  5
2004
330
1FFD
100
AcDbEntity
  8
AM_5 ( Bemassung)
440
 16777216
100
AcDbLine
 10
1477.465370573053
 20
1877.91656918195
 30
0.0
 11
1465.465370573053
 21
1877.91656918195
 31
0.0
  0
SOLID
  5
2005
330
1FFD
100
AcDbEntity
  8
AM_5 ( Bemassung)
440
 16777216
100
AcDbTrace
 10
1485.465370573053
 20
1879.249902515283
 30
0.0
 11
1485.465370573053
 21
1876.583235848617
 31
0.0
 12
1477.465370573053
 22
1877.91656918195
 32
0.0
 13
1477.465370573053
 23
1877.91656918195
 33
0.0
  0
SOLID
  5
2006
330
1FFD
100
AcDbEntity
  8
AM_5 ( Bemassung)
440
 16777216
100
AcDbTrace
 10
1457.465370573053
 20
1879.249902515283
 30
0.0
 11
1457.465370573053
 21
1876.583235848617
 31
0.0
 12
1465.465370573053
 22
1877.91656918195
 32
0.0
 13
1465.465370573053
 23
1877.91656918195
 33
0.0
  0
MTEXT
  5
2007
330
1FFD
100
AcDbEntity
  8
AM_5 ( Bemassung)
 62
     6
440
 16777216
100
AcDbMText
 10
1471.465370573053
 20
1884.567975093991
 30
0.0
 40
7.0
 41
0.0
 46
0.0
 71
     5
 72
     1
  1
%%c12
 73
     1
 44
1.0
  0
POINT
  5
2008
330
1FFD
100
AcDbEntity
  8
Defpoints
 62
     0
440
 16777216
100
AcDbPoint
 10
1477.465370573053
 20
1842.281707010058
 30
0.0
  0
POINT
  5
2009
330
1FFD
100
AcDbEntity
  8
Defpoints
 62
     0
440
 16777216
100
AcDbPoint
 10
1465.465370573053
 20
1842.281707010058
 30
0.0
  0
POINT
  5
200A
330
1FFD
100
AcDbEntity
  8
Defpoints
 62
     0
440
 16777216
100
AcDbPoint
 10
1465.465370573053
 20
1877.91656918195
 30
0.0
  0
ENDBLK
  5
1FFF
330
1FFD
100
AcDbEntity
  8
0
100
AcDbBlockEnd
  0
BLOCK
  5
200C
330
200B
100
AcDbEntity
  8
0
100
AcDbBlockBegin
  2
*D22
 70
     1
 10
0.0
 20
0.0
 30
0.0
  3
*D22
  1

  0
LINE
  5
200E
330
200B
100
AcDbEntity
  8
AM_5 ( Bemassung)
440
 16777216
100
AcDbLine
 10
1481.965370573053
 20
1841.281707010058
 30
0.0
 11
1481.965370573053
 21
1900.320118079139
 31
0.0
  0
LINE
  5
200F
330
200B
100
AcDbEntity
  8
AM_5 ( Bemassung)
440
 16777216
100
AcDbLine
 10
1460.965370573053
 20
1841.281707010058
 30
0.0
 11
1460.965370573053
 21
1900.320118079139
 31
0.0
  0
LINE
  5
2010
330
200B
100
AcDbEntity
  8
AM_5 ( Bemassung)
440
 16777216
100
AcDbLine
 10
1489.965370573053
 20
1899.320118079138
 30
0.0
 11
1497.965370573053
 21
1899.320118079138
 31
0.0
  0
LINE
  5
2011
330
200B
100
AcDbEntity
  8
AM_5 ( Bemassung)
440
 16777216
100
AcDbLine
 10
1452.965370573053
 20
1899.320118079138
 30
0.0
 11
1444.965370573053
 21
1899.320118079138
 31
0.0
  0
LINE
  5
2012
330
200B
100
AcDbEntity
  8
AM_5 ( Bemassung)
440
 16777216
100
AcDbLine
 10
1481.965370573053
 20
1899.320118079138
 30
0.0
 11
1460.965370573053
 21
1899.320118079138
 31
0.0
  0
SOLID
  5
2013
330
200B
100
AcDbEntity
  8
AM_5 ( Bemassung)
440
 16777216
100
AcDbTrace
 10
1489.965370573053
 20
1900.653451412472
 30
0.0
 11
1489.965370573053
 21
1897.986784745805
 31
0.0
 12
1481.965370573053
 22
1899.320118079138
 32
0.0
 13
1481.965370573053
 23
1899.320118079138
 33
0.0
  0
SOLID
  5
2014
330
200B
100
AcDbEntity
  8
AM_5 ( Bemassung)
440
 16777216
100
AcDbTrace
 10
1452.965370573053
 20
1900.653451412472
 30
0.0
 11
1452.965370573053
 21
1897.986784745805
 31
0.0
 12
1460.965370573053
 22
1899.320118079138
 32
0.0
 13
1460.965370573053
 23
1899.320118079138
 33
0.0
  0
MTEXT
  5
2015
330
200B
100
AcDbEntity
  8
AM_5 ( Bemassung)
 62
     6
440
 16777216
100
AcDbMText
 10
1471.465370573053
 20
1905.971523991179
 30
0.0
 40
7.0
 41
0.0
 46
0.0
 71
     5
 72
     1
  1
%%c 21
 73
     1
 44
1.0
  0
POINT
  5
2016
330
200B
100
AcDbEntity
  8
Defpoints
 62
     0
440
 16777216
100
AcDbPoint
 10
1481.965370573053
 20
1841.281707010058
 30
0.0
  0
POINT
  5
2017
330
200B
100
AcDbEntity
  8
Defpoints
 62
     0
440
 16777216
100
AcDbPoint
 10
1460.965370573053
 20
1841.281707010058
 30
0.0
  0
POINT
  5
2018
330
200B
100
AcDbEntity
  8
Defpoints
 62
     0
440
 16777216
100
AcDbPoint
 10
1460.965370573053
 20
1899.320118079138
 30
0.0
  0
ENDBLK
  5
200D
330
200B
100
AcDbEntity
  8
0
100
AcDbBlockEnd
  0
BLOCK
  5
201A
330
2019
100
AcDbEntity
  8
0
100
AcDbBlockBegin
  2
*D23
 70
     1
 10
0.0
 20
0.0
 30
0.0
  3
*D23
  1

  0
LINE
  5
201C
330
2019
100
AcDbEntity
  8
AM_5 ( Bemassung)
440
 16777216
100
AcDbLine
 10
1471.465370573053
 20
1842.281707010058
 30
0.0
 11
1527.451263867452
 21
1842.281707010058
 31
0.0
  0
LINE
  5
201D
330
2019
100
AcDbEntity
  8
AM_5 ( Bemassung)
440
 16777216
100
AcDbLine
 10
1471.465370573053
 20
1723.671462972558
 30
0.0
 11
1527.451263867452
 21
1723.671462972558
 31
0.0
  0
LINE
  5
201E
330
2019
100
AcDbEntity
  8
AM_5 ( Bemassung)
440
 16777216
100
AcDbLine
 10
1526.451263867452
 20
1834.281707010058
 30
0.0
 11
1526.451263867452
 21
1731.671462972558
 31
0.0
  0
SOLID
  5
201F
330
2019
100
AcDbEntity
  8
AM_5 ( Bemassung)
440
 16777216
100
AcDbTrace
 10
1525.117930534118
 20
1834.281707010058
 30
0.0
 11
1527.784597200785
 21
1834.281707010058
 31
0.0
 12
1526.451263867452
 22
1842.281707010058
 32
0.0
 13
1526.451263867452
 23
1842.281707010058
 33
0.0
  0
SOLID
  5
2020
330
2019
100
AcDbEntity
  8
AM_5 ( Bemassung)
440
 16777216
100
AcDbTrace
 10
1525.117930534118
 20
1731.671462972558
 30
0.0
 11
1527.784597200785
 21
1731.671462972558
 31
0.0
 12
1526.451263867452
 22
1723.671462972558
 32
0.0
 13
1526.451263867452
 23
1723.671462972558
 33
0.0
  0
MTEXT
  5
2021
330
2019
100
AcDbEntity
  8
AM_5 ( Bemassung)
 62
     6
440
 16777216
100
AcDbMText
 10
1519.890701502635
 20
1782.976584991308
 30
0.0
 40
7.0
 41
0.0
 46
0.0
 71
     5
 72
     1
  1
118
 11
0.0000000000000001
 21
1.0
 31
0.0
 73
     1
 44
1.0
  0
POINT
  5
2022
330
2019
100
AcDbEntity
  8
Defpoints
 62
     0
440
 16777216
100
AcDbPoint
 10
1471.465370573053
 20
1842.281707010058
 30
0.0
  0
POINT
  5
2023
330
2019
100
AcDbEntity
  8
Defpoints
 62
     0
440
 16777216
100
AcDbPoint
 10
1471.465370573053
 20
1723.671462972558
 30
0.0
  0
POINT
  5
2024
330
2019
100
AcDbEntity
  8
Defpoints
 62
     0
440
 16777216
100
AcDbPoint
 10
1526.451263867452
 20
1723.671462972558
 30
0.0
  0
ENDBLK
  5
201B
330
2019
100
AcDbEntity
  8
0
100
AcDbBlockEnd
  0
BLOCK
  5
2026
330
2025
100
AcDbEntity
  8
0
100
AcDbBlockBegin
  2
*D24
 70
     1
 10
0.0
 20
0.0
 30
0.0
  3
*D24
  1

  0
LINE
  5
2028
330
2025
100
AcDbEntity
  8
AM_5 ( Bemassung)
440
 16777216
100
AcDbLine
 10
1485.963066733813
 20
1785.820055425358
 30
0.0
 11
1509.690149896499
 21
1785.820055425358
 31
0.0
  0
LINE
  5
2029
330
2025
100
AcDbEntity
  8
AM_5 ( Bemassung)
440
 16777216
100
AcDbLine
 10
1485.272715921577
 20
1723.671462972558
 30
0.0
 11
1509.690149896499
 21
1723.671462972558
 31
0.0
  0
LINE
  5
202A
330
2025
100
AcDbEntity
  8
AM_5 ( Bemassung)
440
 16777216
100
AcDbLine
 10
1508.690149896499
 20
1777.820055425358
 30
0.0
 11
1508.690149896499
 21
1731.671462972558
 31
0.0
  0
SOLID
  5
202B
330
2025
100
AcDbEntity
  8
AM_5 ( Bemassung)
440
 16777216
100
AcDbTrace
 10
1507.356816563166
 20
1777.820055425358
 30
0.0
 11
1510.023483229832
 21
1777.820055425358
 31
0.0
 12
1508.690149896499
 22
1785.820055425358
 32
0.0
 13
1508.690149896499
 23
1785.820055425358
 33
0.0
  0
SOLID
  5
202C
330
2025
100
AcDbEntity
  8
AM_5 ( Bemassung)
440
 16777216
100
AcDbTrace
 10
1507.356816563166
 20
1731.671462972558
 30
0.0
 11
1510.023483229832
 21
1731.671462972558
 31
0.0
 12
1508.690149896499
 22
1723.671462972558
 32
0.0
 13
1508.690149896499
 23
1723.671462972558
 33
0.0
  0
MTEXT
  5
202D
330
2025
100
AcDbEntity
  8
AM_5 ( Bemassung)
 62
     6
440
 16777216
100
AcDbMText
 10
1502.129587531683
 20
1757.051874405398
 30
0.0
 40
7.0
 41
0.0
 46
0.0
 71
     5
 72
     1
  1
62
 11
0.0000000000000001
 21
1.0
 31
0.0
 73
     1
 44
1.0
  0
POINT
  5
202E
330
2025
100
AcDbEntity
  8
Defpoints
 62
     0
440
 16777216
100
AcDbPoint
 10
1485.963066733813
 20
1785.820055425358
 30
0.0
  0
POINT
  5
202F
330
2025
100
AcDbEntity
  8
Defpoints
 62
     0
440
 16777216
100
AcDbPoint
 10
1485.272715921577
 20
1723.671462972558
 30
0.0
  0
POINT
  5
2030
330
2025
100
AcDbEntity
  8
Defpoints
 62
     0
440
 16777216
100
AcDbPoint
 10
1508.690149896499
 20
1723.671462972558
 30
0.0
  0
ENDBLK
  5
2027
330
2025
100
AcDbEntity
  8
0
100
AcDbBlockEnd
  0
BLOCK
  5
2032
330
2031
100
AcDbEntity
  8
0
100
AcDbBlockBegin
  2
*D25
 70
     1
 10
0.0
 20
0.0
 30
0.0
  3
*D25
  1

  0
LINE
  5
2054
330
2031
100
AcDbEntity
  8
AM_5 ( Bemassung)
440
 16777216
100
AcDbLine
 10
1471.465370573054
 20
1740.471462972558
 30
0.0
 11
1445.884519347075
 21
1740.471462972558
 31
0.0
  0
LINE
  5
2055
330
2031
100
AcDbEntity
  8
AM_5 ( Bemassung)
440
 16777216
100
AcDbLine
 10
1471.465370573053
 20
1723.671462972558
 30
0.0
 11
1445.884519347075
 21
1723.671462972558
 31
0.0
  0
LINE
  5
2056
330
2031
100
AcDbEntity
  8
AM_5 ( Bemassung)
440
 16777216
100
AcDbLine
 10
1446.884519347075
 20
1748.471462972558
 30
0.0
 11
1446.884519347075
 21
1756.471462972558
 31
0.0
  0
LINE
  5
2057
330
2031
100
AcDbEntity
  8
AM_5 ( Bemassung)
440
 16777216
100
AcDbLine
 10
1446.884519347075
 20
1715.671462972558
 30
0.0
 11
1446.884519347075
 21
1707.671462972558
 31
0.0
  0
LINE
  5
2058
330
2031
100
AcDbEntity
  8
AM_5 ( Bemassung)
440
 16777216
100
AcDbLine
 10
1446.884519347075
 20
1740.471462972558
 30
0.0
 11
1446.884519347075
 21
1723.671462972558
 31
0.0
  0
SOLID
  5
2059
330
2031
100
AcDbEntity
  8
AM_5 ( Bemassung)
440
 16777216
100
AcDbTrace
 10
1445.551186013742
 20
1748.471462972558
 30
0.0
 11
1448.217852680408
 21
1748.471462972558
 31
0.0
 12
1446.884519347075
 22
1740.471462972558
 32
0.0
 13
1446.884519347075
 23
1740.471462972558
 33
0.0
  0
SOLID
  5
205A
330
2031
100
AcDbEntity
  8
AM_5 ( Bemassung)
440
 16777216
100
AcDbTrace
 10
1445.551186013742
 20
1715.671462972558
 30
0.0
 11
1448.217852680408
 21
1715.671462972558
 31
0.0
 12
1446.884519347075
 22
1723.671462972558
 32
0.0
 13
1446.884519347075
 23
1723.671462972558
 33
0.0
  0
MTEXT
  5
205B
330
2031
100
AcDbEntity
  8
AM_5 ( Bemassung)
 62
     6
440
 16777216
100
AcDbMText
 10
1440.313863254789
 20
1732.071462972558
 30
0.0
 40
7.0
 41
0.0
 46
0.0
 71
     5
 72
     1
  1
17
 11
0.0000000000000001
 21
1.0
 31
0.0
 73
     1
 44
1.0
  0
POINT
  5
205C
330
2031
100
AcDbEntity
  8
Defpoints
 62
     0
440
 16777216
100
AcDbPoint
 10
1471.465370573054
 20
1740.471462972558
 30
0.0
  0
POINT
  5
205D
330
2031
100
AcDbEntity
  8
Defpoints
 62
     0
440
 16777216
100
AcDbPoint
 10
1471.465370573053
 20
1723.671462972558
 30
0.0
  0
POINT
  5
205E
330
2031
100
AcDbEntity
  8
Defpoints
 62
     0
440
 16777216
100
AcDbPoint
 10
1446.884519347075
 20
1723.671462972558
 30
0.0
  0
ENDBLK
  5
2033
330
2031
100
AcDbEntity
  8
0
100
AcDbBlockEnd
  0
BLOCK
  5
2040
330
203F
100
AcDbEntity
  8
0
100
AcDbBlockBegin
  2
*D26
 70
     1
 10
0.0
 20
0.0
 30
0.0
  3
*D26
  1

  0
LINE
  5
204B
330
203F
100
AcDbEntity
  8
AM_5 ( Bemassung)
440
 16777216
100
AcDbLine
 10
1487.965370573053
 20
1734.221462972558
 30
0.0
 11
1487.965370573053
 21
1704.327415396932
 31
0.0
  0
LINE
  5
204C
330
203F
100
AcDbEntity
  8
AM_5 ( Bemassung)
440
 16777216
100
AcDbLine
 10
1454.965370573053
 20
1731.664273695385
 30
0.0
 11
1454.965370573053
 21
1704.327415396932
 31
0.0
  0
LINE
  5
204D
330
203F
100
AcDbEntity
  8
AM_5 ( Bemassung)
440
 16777216
100
AcDbLine
 10
1479.965370573053
 20
1705.327415396932
 30
0.0
 11
1462.965370573053
 21
1705.327415396932
 31
0.0
  0
SOLID
  5
204E
330
203F
100
AcDbEntity
  8
AM_5 ( Bemassung)
440
 16777216
100
AcDbTrace
 10
1479.965370573053
 20
1706.660748730265
 30
0.0
 11
1479.965370573053
 21
1703.994082063599
 31
0.0
 12
1487.965370573053
 22
1705.327415396932
 32
0.0
 13
1487.965370573053
 23
1705.327415396932
 33
0.0
  0
SOLID
  5
204F
330
203F
100
AcDbEntity
  8
AM_5 ( Bemassung)
440
 16777216
100
AcDbTrace
 10
1462.965370573053
 20
1706.660748730265
 30
0.0
 11
1462.965370573053
 21
1703.994082063599
 31
0.0
 12
1454.965370573053
 22
1705.327415396932
 32
0.0
 13
1454.965370573053
 23
1705.327415396932
 33
0.0
  0
MTEXT
  5
2050
330
203F
100
AcDbEntity
  8
AM_5 ( Bemassung)
 62
     6
440
 16777216
100
AcDbMText
 10
1470.259388835546
 20
1711.90564178482
 30
0.0
 40
7.0
 41
0.0
 46
0.0
 71
     5
 72
     1
  1
G1
 73
     1
 44
1.0
  0
POINT
  5
2051
330
203F
100
AcDbEntity
  8
Defpoints
 62
     0
440
 16777216
100
AcDbPoint
 10
1487.965370573053
 20
1734.221462972558
 30
0.0
  0
POINT
  5
2052
330
203F
100
AcDbEntity
  8
Defpoints
 62
     0
440
 16777216
100
AcDbPoint
 10
1454.965370573053
 20
1731.664273695385
 30
0.0
  0
POINT
  5
2053
330
203F
100
AcDbEntity
  8
Defpoints
 62
     0
440
 16777216
100
AcDbPoint
 10
1454.965370573053
 20
1705.327415396932
 30
0.0
  0
ENDBLK
  5
2041
330
203F
100
AcDbEntity
  8
0
100
AcDbBlockEnd
  0
ENDSEC
  0
SECTION
  2
ENTITIES
  0
CIRCLE
  5
1F79
330
6B
100
AcDbEntity
  8
AM_0 ( Kontur 0.5 )
100
AcDbCircle
 10
1471.506382829001
 20
1651.230787849506
 30
0.0
 40
20.5
  0
LINE
  5
1F7A
330
6B
100
AcDbEntity
  8
AM_0 ( Kontur 0.5 )
100
AcDbLine
 10
1459.693713348329
 20
1630.730787849506
 30
0.0
 11
1447.858032829941
 21
1651.230787849506
 31
0.0
  0
LINE
  5
1F7B
330
6B
100
AcDbEntity
  8
AM_0 ( Kontur 0.5 )
100
AcDbLine
 10
1495.20075490349
 20
1651.230787849506
 30
0.0
 11
1483.365074385103
 21
1630.730787849506
 31
0.0
  0
LINE
  5
1F7C
102
{ACAD_REACTORS
330
1FC0
102
}
330
6B
100
AcDbEntity
  8
AM_7 (Mittellinie)
  6
AM_ISO08W050
100
AcDbLine
 10
1471.506382829001
 20
1675.493962504941
 30
0.0
 11
1471.506382829001
 21
1626.451122783038
 31
0.0
  0
LINE
  5
1F7D
102
{ACAD_REACTORS
330
1FC0
102
}
330
6B
100
AcDbEntity
  8
AM_0 ( Kontur 0.5 )
100
AcDbLine
 10
1483.365074385103
 20
1630.730787849506
 30
0.0
 11
1459.693713348329
 21
1630.730787849506
 31
0.0
  0
CIRCLE
  5
1F7E
330
6B
100
AcDbEntity
  8
AM_0 ( Kontur 0.5 )
100
AcDbCircle
 10
1471.465370573054
 20
1651.230787849506
 30
0.0
 40
7.000000000000006
  0
CIRCLE
  5
1F7F
330
6B
100
AcDbEntity
  8
AM_0 ( Kontur 0.5 )
100
AcDbCircle
 10
1471.506382829001
 20
1651.230787849506
 30
0.0
 40
10.5
  0
CIRCLE
  5
1F80
330
6B
100
AcDbEntity
  8
AM_0 ( Kontur 0.5 )
100
AcDbCircle
 10
1471.506382829001
 20
1651.230787849506
 30
0.0
 40
13.50000000000001
  0
LINE
  5
1F81
102
{ACAD_REACTORS
330
1FC0
102
}
330
6B
100
AcDbEntity
  8
AM_0 ( Kontur 0.5 )
100
AcDbLine
 10
1459.693713348329
 20
1671.730787849506
 30
0.0
 11
1483.365074385103
 21
1671.730787849506
 31
0.0
  0
LINE
  5
1F82
330
6B
100
AcDbEntity
  8
AM_7 (Mittellinie)
  6
AM_ISO08W050
100
AcDbLine
 10
1441.04765509423
 20
1651.230787849506
 30
0.0
 11
1501.883086051877
 21
1651.230787849506
 31
0.0
  0
LINE
  5
1F83
330
6B
100
AcDbEntity
  8
AM_0 ( Kontur 0.5 )
100
AcDbLine
 10
1447.858032829941
 20
1651.230787849506
 30
0.0
 11
1459.693713348329
 21
1671.730787849506
 31
0.0
  0
LINE
  5
1F84
330
6B
100
AcDbEntity
  8
AM_0 ( Kontur 0.5 )
100
AcDbLine
 10
1483.365074385103
 20
1671.730787849506
 30
0.0
 11
1495.20075490349
 21
1651.230787849506
 31
0.0
  0
LINE
  5
1F85
330
6B
100
AcDbEntity
  8
AM_0 ( Kontur 0.5 )
100
AcDbLine
 10
1481.965370573053
 20
1787.281707010058
 30
0.0
 11
1481.965370573053
 21
1841.281707010058
 31
0.0
  0
LINE
  5
1F86
330
6B
100
AcDbEntity
  8
AM_0 ( Kontur 0.5 )
100
AcDbLine
 10
1460.965370573053
 20
1787.281707010058
 30
0.0
 11
1460.965370573053
 21
1841.281707010058
 31
0.0
  0
LINE
  5
1F87
102
{ACAD_REACTORS
330
1FCB
102
}
330
6B
100
AcDbEntity
  8
AM_7 (Mittellinie)
  6
AM_ISO08W050
100
AcDbLine
 10
1471.465370573053
 20
1717.383163839621
 30
0.0
 11
1471.465370573053
 21
1848.559878707045
 31
0.0
  0
LINE
  5
1F88
330
6B
100
AcDbEntity
  8
AM_0 ( Kontur 0.5 )
100
AcDbLine
 10
1471.465370573053
 20
1787.281707010058
 30
0.0
 11
1481.965370573053
 21
1787.281707010058
 31
0.0
  0
LINE
  5
1F89
102
{ACAD_REACTORS
330
1FD7
102
}
330
6B
100
AcDbEntity
  8
AM_0 ( Kontur 0.5 )
100
AcDbLine
 10
1471.465370573053
 20
1785.820055425358
 30
0.0
 11
1488.965370573053
 21
1785.820055425358
 31
0.0
  0
LINE
  5
1F8A
330
6B
100
AcDbEntity
  8
AM_0 ( Kontur 0.5 )
100
AcDbLine
 10
1471.465370573053
 20
1749.471540646358
 30
0.0
 11
1488.965370573053
 21
1749.471540646358
 31
0.0
  0
LINE
  5
1F8B
330
6B
100
AcDbEntity
  8
AM_0 ( Kontur 0.5 )
100
AcDbLine
 10
1471.465370573053
 20
1759.820055425358
 30
0.0
 11
1488.965370573053
 21
1759.820055425358
 31
0.0
  0
LINE
  5
1F8C
330
6B
100
AcDbEntity
  8
AM_0 ( Kontur 0.5 )
100
AcDbLine
 10
1471.465370573053
 20
1741.471462972558
 30
0.0
 11
1488.965370573053
 21
1741.471462972558
 31
0.0
  0
LINE
  5
1F8D
330
6B
100
AcDbEntity
  8
AM_0 ( Kontur 0.5 )
100
AcDbLine
 10
1487.965370573053
 20
1726.971462972558
 30
0.0
 11
1471.465370573053
 21
1726.971462972558
 31
0.0
  0
LINE
  5
1F8E
330
6B
100
AcDbEntity
  8
AM_0 ( Kontur 0.5 )
100
AcDbLine
 10
1471.465370573053
 20
1725.471462972558
 30
0.0
 11
1486.465370573053
 21
1725.471462972558
 31
0.0
  0
ARC
  5
1F8F
330
6B
100
AcDbEntity
  8
AM_0 ( Kontur 0.5 )
100
AcDbCircle
 10
1471.465370573053
 20
1706.019523584549
 30
0.0
 40
43.4520170618089
100
AcDbArc
 50
73.96844629014232
 51
106.0315537098577
  0
ARC
  5
1F90
330
6B
100
AcDbEntity
  8
AM_0 ( Kontur 0.5 )
100
AcDbCircle
 10
1471.465370573053
 20
1796.820055425358
 30
0.0
 40
37.00000000000004
100
AcDbArc
 50
251.0753555839435
 51
288.9246444160566
  0
ARC
  5
1F91
330
6B
100
AcDbEntity
  8
AM_0 ( Kontur 0.5 )
100
AcDbCircle
 10
1471.465370573053
 20
1748.820055425359
 30
0.0
 40
36.99999999999903
100
AcDbArc
 50
71.07535558394349
 51
108.9246444160565
  0
ARC
  5
1F92
330
6B
100
AcDbEntity
  8
AM_0 ( Kontur 0.5 )
100
AcDbCircle
 10
1471.465370573053
 20
1797.079260704449
 30
0.0
 40
55.60779773189111
100
AcDbArc
 50
257.5377059693323
 51
282.4622940306678
  0
LINE
  5
1F93
330
6B
100
AcDbEntity
  8
AM_0 ( Kontur 0.5 )
100
AcDbLine
 10
1459.465370573053
 20
1761.820055425358
 30
0.0
 11
1459.465370573053
 21
1783.820055425358
 31
0.0
  0
LINE
  5
1F94
330
6B
100
AcDbEntity
  8
AM_0 ( Kontur 0.5 )
100
AcDbLine
 10
1448.465370573053
 20
1761.820055425358
 30
0.0
 11
1448.465370573053
 21
1783.820055425357
 31
0.0
  0
LINE
  5
1F95
102
{ACAD_REACTORS
330
1FDD
102
}
330
6B
100
AcDbEntity
  8
AM_0 ( Kontur 0.5 )
100
AcDbLine
 10
1454.965370573053
 20
1726.971462972558
 30
0.0
 11
1454.965370573053
 21
1741.471462972558
 31
0.0
  0
LINE
  5
1F96
330
6B
100
AcDbEntity
  8
AM_2 ( Kontur 0.25)
100
AcDbLine
 10
1456.465370573053
 20
1725.471462972558
 30
0.0
 11
1456.465370573053
 21
1740.471462972558
 31
0.0
  0
LINE
  5
1F97
330
6B
100
AcDbEntity
  8
AM_0 ( Kontur 0.5 )
100
AcDbLine
 10
1454.965370573053
 20
1726.971462972558
 30
0.0
 11
1471.465370573053
 21
1726.971462972558
 31
0.0
  0
LINE
  5
1F98
330
6B
100
AcDbEntity
  8
AM_0 ( Kontur 0.5 )
100
AcDbLine
 10
1471.465370573053
 20
1725.471462972558
 30
0.0
 11
1456.465370573053
 21
1725.471462972558
 31
0.0
  0
LINE
  5
1F99
330
6B
100
AcDbEntity
  8
AM_0 ( Kontur 0.5 )
100
AcDbLine
 10
1456.465370573053
 20
1725.471462972558
 30
0.0
 11
1454.965370573053
 21
1726.971462972558
 31
0.0
  0
ARC
  5
1F9A
330
6B
100
AcDbEntity
  8
AM_0 ( Kontur 0.5 )
100
AcDbCircle
 10
1453.965370573053
 20
1739.676163652722
 30
0.0
 40
9.795376993635775
100
AcDbArc
 50
55.84114010024491
 51
124.1588598997551
  0
ARC
  5
1F9B
330
6B
100
AcDbEntity
  8
AM_0 ( Kontur 0.5 )
100
AcDbCircle
 10
1453.965370573053
 20
1768.382555425358
 30
0.0
 40
8.562500000000023
100
AcDbArc
 50
230.0337869561974
 51
309.9662130438026
  0
ARC
  5
1F9C
330
6B
100
AcDbEntity
  8
AM_0 ( Kontur 0.5 )
100
AcDbCircle
 10
1453.965370573053
 20
1753.670452751195
 30
0.0
 40
12.19898977863677
100
AcDbArc
 50
243.201318171212
 51
296.7986818287879
  0
LINE
  5
1F9D
330
6B
100
AcDbEntity
  8
AM_0 ( Kontur 0.5 )
100
AcDbLine
 10
1448.465370573053
 20
1742.781680937106
 30
0.0
 11
1448.465370573053
 21
1747.781680937106
 31
0.0
  0
LINE
  5
1F9E
330
6B
100
AcDbEntity
  8
AM_0 ( Kontur 0.5 )
100
AcDbLine
 10
1471.465370573053
 20
1741.471462972558
 30
0.0
 11
1453.965370573053
 21
1741.471462972558
 31
0.0
  0
LINE
  5
1F9F
330
6B
100
AcDbEntity
  8
AM_0 ( Kontur 0.5 )
100
AcDbLine
 10
1459.465370573053
 20
1742.781680937106
 30
0.0
 11
1459.465370573053
 21
1747.781680937106
 31
0.0
  0
LINE
  5
1FA0
330
6B
100
AcDbEntity
  8
AM_0 ( Kontur 0.5 )
100
AcDbLine
 10
1471.465370573053
 20
1749.471540646358
 30
0.0
 11
1453.965370573053
 21
1749.471540646358
 31
0.0
  0
LINE
  5
1FA1
330
6B
100
AcDbEntity
  8
AM_0 ( Kontur 0.5 )
100
AcDbLine
 10
1471.465370573053
 20
1759.820055425358
 30
0.0
 11
1453.965370573053
 21
1759.820055425358
 31
0.0
  0
LINE
  5
1FA2
330
6B
100
AcDbEntity
  8
AM_0 ( Kontur 0.5 )
100
AcDbLine
 10
1454.965370573053
 20
1749.471540646358
 30
0.0
 11
1454.965370573053
 21
1759.820055425358
 31
0.0
  0
LINE
  5
1FA3
330
6B
100
AcDbEntity
  8
AM_2 ( Kontur 0.25)
100
AcDbLine
 10
1456.465370573053
 20
1750.471540646358
 30
0.0
 11
1456.465370573053
 21
1759.820055425358
 31
0.0
  0
ARC
  5
1FA4
330
6B
100
AcDbEntity
  8
AM_0 ( Kontur 0.5 )
100
AcDbCircle
 10
1471.465370573053
 20
1771.781707010058
 30
0.0
 40
18.72164522684911
100
AcDbArc
 50
124.1144729453419
 51
131.4229712724117
  0
ARC
  5
1FA5
330
6B
100
AcDbEntity
  8
AM_0 ( Kontur 0.5 )
100
AcDbCircle
 10
1471.465370573053
 20
1771.781707010058
 30
0.0
 40
18.72164522684911
100
AcDbArc
 50
135.9325247775382
 51
136.0218960764791
  0
ARC
  5
1FA6
330
6B
100
AcDbEntity
  8
AM_0 ( Kontur 0.5 )
100
AcDbCircle
 10
1453.965370573053
 20
1777.257555425358
 30
0.0
 40
8.562499999999761
100
AcDbArc
 50
50.03378695619737
 51
129.9662130438026
  0
LINE
  5
1FA7
330
6B
100
AcDbEntity
  8
AM_0 ( Kontur 0.5 )
100
AcDbLine
 10
1471.465370573053
 20
1785.820055425358
 30
0.0
 11
1453.965370573053
 21
1785.820055425358
 31
0.0
  0
LINE
  5
1FA8
330
6B
100
AcDbEntity
  8
AM_0 ( Kontur 0.5 )
100
AcDbLine
 10
1471.465370573053
 20
1787.281707010058
 30
0.0
 11
1460.965370573053
 21
1787.281707010058
 31
0.0
  0
LINE
  5
1FA9
330
6B
100
AcDbEntity
  8
AM_0 ( Kontur 0.5 )
100
AcDbLine
 10
1483.465370573054
 20
1761.820055425358
 30
0.0
 11
1483.465370573054
 21
1783.820055425358
 31
0.0
  0
LINE
  5
1FAA
330
6B
100
AcDbEntity
  8
AM_0 ( Kontur 0.5 )
100
AcDbLine
 10
1494.465370573053
 20
1761.820055425358
 30
0.0
 11
1494.465370573053
 21
1783.820055425358
 31
0.0
  0
LINE
  5
1FAB
102
{ACAD_REACTORS
330
1FDD
102
}
330
6B
100
AcDbEntity
  8
AM_0 ( Kontur 0.5 )
100
AcDbLine
 10
1487.965370573053
 20
1726.971462972558
 30
0.0
 11
1487.965370573053
 21
1741.471462972558
 31
0.0
  0
LINE
  5
1FAC
330
6B
100
AcDbEntity
  8
AM_2 ( Kontur 0.25)
100
AcDbLine
 10
1486.465370573053
 20
1725.471462972558
 30
0.0
 11
1486.465370573053
 21
1740.471462972558
 31
0.0
  0
LINE
  5
1FAD
330
6B
100
AcDbEntity
  8
AM_0 ( Kontur 0.5 )
100
AcDbLine
 10
1486.465370573053
 20
1725.471462972558
 30
0.0
 11
1487.965370573054
 21
1726.971462972558
 31
0.0
  0
ARC
  5
1FAE
330
6B
100
AcDbEntity
  8
AM_0 ( Kontur 0.5 )
100
AcDbCircle
 10
1488.965370573053
 20
1739.676163652722
 30
0.0
 40
9.795376993635612
100
AcDbArc
 50
55.84114010024491
 51
124.1588598997551
  0
ARC
  5
1FAF
330
6B
100
AcDbEntity
  8
AM_0 ( Kontur 0.5 )
100
AcDbCircle
 10
1488.965370573053
 20
1753.670452751195
 30
0.0
 40
12.19898977863677
100
AcDbArc
 50
243.201318171212
 51
296.7986818287879
  0
LINE
  5
1FB0
330
6B
100
AcDbEntity
  8
AM_0 ( Kontur 0.5 )
100
AcDbLine
 10
1483.465370573054
 20
1742.781680937106
 30
0.0
 11
1483.465370573054
 21
1747.781680937106
 31
0.0
  0
LINE
  5
1FB1
330
6B
100
AcDbEntity
  8
AM_0 ( Kontur 0.5 )
100
AcDbLine
 10
1494.465370573053
 20
1742.781680937106
 30
0.0
 11
1494.465370573053
 21
1747.781680937106
 31
0.0
  0
ARC
  5
1FB2
330
6B
100
AcDbEntity
  8
AM_0 ( Kontur 0.5 )
100
AcDbCircle
 10
1488.965370573053
 20
1768.382555425358
 30
0.0
 40
8.562500000000023
100
AcDbArc
 50
230.0337869561974
 51
309.9662130438026
  0
LINE
  5
1FB3
330
6B
100
AcDbEntity
  8
AM_0 ( Kontur 0.5 )
100
AcDbLine
 10
1487.965370573054
 20
1749.471540646358
 30
0.0
 11
1487.965370573054
 21
1759.820055425358
 31
0.0
  0
LINE
  5
1FB4
330
6B
100
AcDbEntity
  8
AM_2 ( Kontur 0.25)
100
AcDbLine
 10
1486.465370573053
 20
1750.471540646358
 30
0.0
 11
1486.465370573053
 21
1759.820055425358
 31
0.0
  0
ARC
  5
1FB5
330
6B
100
AcDbEntity
  8
AM_0 ( Kontur 0.5 )
100
AcDbCircle
 10
1471.465370573053
 20
1771.781707010058
 30
0.0
 40
18.72164522684911
100
AcDbArc
 50
43.97810392352088
 51
44.06747522246174
  0
ARC
  5
1FB6
330
6B
100
AcDbEntity
  8
AM_0 ( Kontur 0.5 )
100
AcDbCircle
 10
1471.465370573053
 20
1771.781707010058
 30
0.0
 40
18.72164522684911
100
AcDbArc
 50
48.57702872758824
 51
55.88552705465804
  0
ARC
  5
1FB7
330
6B
100
AcDbEntity
  8
AM_0 ( Kontur 0.5 )
100
AcDbCircle
 10
1488.965370573053
 20
1777.257555425358
 30
0.0
 40
8.562499999999761
100
AcDbArc
 50
50.03378695619737
 51
129.9662130438026
  0
LINE
  5
1FB8
330
6B
100
AcDbEntity
  8
AM_0 ( Kontur 0.5 )
100
AcDbLine
 10
1481.965370573053
 20
1841.281707010058
 30
0.0
 11
1471.465370573053
 21
1841.281707010058
 31
0.0
  0
LINE
  5
1FB9
330
6B
100
AcDbEntity
  8
AM_0 ( Kontur 0.5 )
100
AcDbLine
 10
1471.465370573053
 20
1842.281707010058
 30
0.0
 11
1480.965370573053
 21
1842.281707010058
 31
0.0
  0
LINE
  5
1FBA
102
{ACAD_REACTORS
330
1FD4
102
}
330
6B
100
AcDbEntity
  8
AM_0 ( Kontur 0.5 )
100
AcDbLine
 10
1471.465370573053
 20
1842.281707010058
 30
0.0
 11
1461.965370573053
 21
1842.281707010058
 31
0.0
  0
LINE
  5
1FBB
330
6B
100
AcDbEntity
  8
AM_0 ( Kontur 0.5 )
100
AcDbLine
 10
1460.965370573053
 20
1841.281707010058
 30
0.0
 11
1471.465370573053
 21
1841.281707010058
 31
0.0
  0
LINE
  5
1FBC
102
{ACAD_REACTORS
330
1FD1
102
}
330
6B
100
AcDbEntity
  8
AM_0 ( Kontur 0.5 )
100
AcDbLine
 10
1461.965370573053
 20
1842.281707010058
 30
0.0
 11
1460.965370573053
 21
1841.281707010058
 31
0.0
  0
LINE
  5
1FBD
102
{ACAD_REACTORS
330
1FD1
102
}
330
6B
100
AcDbEntity
  8
AM_0 ( Kontur 0.5 )
100
AcDbLine
 10
1480.965370573053
 20
1842.281707010058
 30
0.0
 11
1481.965370573053
 21
1841.281707010058
 31
0.0
  0
DIMENSION
  5
1FBE
102
{ACAD_XDICTIONARY
360
1FBF
102
}
102
{ACAD_REACTORS
330
1FC0
102
}
330
6B
100
AcDbEntity
  8
AM_5 ( Bemassung)
100
AcDbDimension
280
     0
  2
*D19
 10
1515.018320095946
 20
1630.730787849506
 30
0.0
 11
1508.440093708058
 21
1651.230787849507
 31
0.0
 70
    32
  1
SW<>
 71
     5
 42
41.0
 73
     0
 74
     0
 75
     0
  3
AM_DIN$0
100
AcDbAlignedDimension
 13
1471.506382829001
 23
1671.730787849506
 33
0.0
 14
1471.506382829001
 24
1630.730787849506
 34
0.0
 50
90.0
100
AcDbRotatedDimension
1001
ACAD_DSTYLE_DIMTALN
1070
   392
1070
     0
1001
ACAD
1000
DSTYLE
1002
{
1070
    40
1040
2.0
1002
}
1001
ACAD_DSTYLE_DIMINSPECT
1070
   396
1000
100%
1070
   395
1000

1070
   394
1070
    33
1070
   393
1070
     0
  0
LINE
  5
1FC1
330
6B
100
AcDbEntity
  8
AM_0 ( Kontur 0.5 )
100
AcDbLine
 10
1456.565370573053
 20
1725.471462972558
 30
0.0
 11
1456.565370573053
 21
1723.671462972558
 31
0.0
  0
LINE
  5
1FC2
102
{ACAD_REACTORS
330
1FD4
102
}
330
6B
100
AcDbEntity
  8
AM_0 ( Kontur 0.5 )
100
AcDbLine
 10
1456.565370573053
 20
1723.671462972558
 30
0.0
 11
1486.365370573053
 21
1723.671462972558
 31
0.0
  0
LINE
  5
1FC3
330
6B
100
AcDbEntity
  8
AM_0 ( Kontur 0.5 )
100
AcDbLine
 10
1486.365370573053
 20
1723.671462972558
 30
0.0
 11
1486.365370573053
 21
1725.471462972558
 31
0.0
  0
LINE
  5
1FC4
102
{ACAD_REACTORS
330
1FDA
102
}
330
6B
100
AcDbEntity
  8
AM_0 ( Kontur 0.5 )
100
AcDbLine
 10
1454.965370573053
 20
1740.471462972558
 30
0.0
 11
1487.965370573053
 21
1740.471462972558
 31
0.0
  0
LINE
  5
1FC5
330
6B
100
AcDbEntity
  8
AM_0 ( Kontur 0.5 )
100
AcDbLine
 10
1454.965370573053
 20
1750.471540646358
 30
0.0
 11
1487.965370573053
 21
1750.471540646358
 31
0.0
  0
LINE
  5
1FC6
102
{ACAD_REACTORS
330
1FCE
102
}
330
6B
100
AcDbEntity
  8
AM_3 ( Verdeckt )
  6
AM_ISO02W050x2
100
AcDbLine
 10
1465.465370573053
 20
1842.281707010058
 30
0.0
 11
1465.465370573053
 21
1822.14954436833
 31
0.0
  0
LINE
  5
1FC7
102
{ACAD_REACTORS
330
1FCE
102
}
330
6B
100
AcDbEntity
  8
AM_3 ( Verdeckt )
  6
AM_ISO02W050x2
100
AcDbLine
 10
1477.465370573053
 20
1842.281707010058
 30
0.0
 11
1477.465370573053
 21
1822.14954436833
 31
0.0
  0
LINE
  5
1FC8
102
{ACAD_REACTORS
330
1FCB
102
}
330
6B
100
AcDbEntity
  8
AM_2 ( Kontur 0.25)
100
AcDbLine
 10
1471.465370573053
 20
1771.781707010058
 30
0.0
 11
1477.702721297586
 21
1801.126135032072
 31
0.0
  0
DIMENSION
  5
1FC9
102
{ACAD_XDICTIONARY
360
1FCA
102
}
102
{ACAD_REACTORS
330
1FCB
102
}
330
6B
100
AcDbEntity
  8
AM_5 ( Bemassung)
100
AcDbDimension
280
     0
  2
*D20
 10
1471.465370573053
 20
1848.559878707045
 30
0.0
 11
1501.735295980754
 21
1864.630163100733
 31
0.0
 70
   162
  1
15%%d
 71
     5
 42
0.2094395102393147
 73
     0
 74
     0
 75
     0
  3
AM_DIN$2
100
AcDb2LineAngularDimension
 13
1471.465370573053
 23
1771.781707010058
 33
0.0
 14
1477.702721297586
 24
1801.126135032072
 34
0.0
 15
1471.465370573053
 25
1717.383163839621
 35
0.0
 16
1478.277655149817
 26
1869.20191518811
 36
0.0
1001
ACAD_DSTYLE_DIMTALN
1070
   392
1070
     0
1001
ACAD
1000
DSTYLE
1002
{
1070
    40
1040
2.0
1002
}
1001
ACAD_DSTYLE_DIMINSPECT
1070
   396
1000
100%
1070
   395
1000

1070
   394
1070
    33
1070
   393
1070
     0
  0
DIMENSION
  5
1FCC
102
{ACAD_XDICTIONARY
360
1FCD
102
}
102
{ACAD_REACTORS
330
1FCE
102
}
330
6B
100
AcDbEntity
  8
AM_5 ( Bemassung)
100
AcDbDimension
280
     0
  2
*D21
 10
1465.465370573053
 20
1877.91656918195
 30
0.0
 11
1471.465370573053
 21
1877.91656918195
 31
0.0
 70
   160
  1
%%c<>
 71
     5
 42
12.0
 73
     0
 74
     0
 75
     0
  3
AM_DIN$0
100
AcDbAlignedDimension
 13
1477.465370573053
 23
1842.281707010058
 33
0.0
 14
1465.465370573053
 24
1842.281707010058
 34
0.0
100
AcDbRotatedDimension
1001
ACAD_DSTYLE_DIMINSPECT
1070
   396
1000
100%
1070
   395
1000

1070
   394
1070
    33
1070
   393
1070
     0
1001
ACAD_DSTYLE_DIMTALN
1070
   392
1070
     0
1001
ACAD
1000
DSTYLE
1002
{
1070
    40
1040
2.0
1002
}
  0
DIMENSION
  5
1FCF
102
{ACAD_XDICTIONARY
360
1FD0
102
}
102
{ACAD_REACTORS
330
1FD1
102
}
330
6B
100
AcDbEntity
  8
AM_5 ( Bemassung)
100
AcDbDimension
280
     0
  2
*D22
 10
1460.965370573053
 20
1899.320118079138
 30
0.0
 11
1471.465370573053
 21
1899.320118079138
 31
0.0
 70
   160
  1
%%c <>
 71
     5
 42
21.0
 73
     0
 74
     0
 75
     0
  3
AM_DIN$0
100
AcDbAlignedDimension
 13
1481.965370573053
 23
1841.281707010058
 33
0.0
 14
1460.965370573053
 24
1841.281707010058
 34
0.0
100
AcDbRotatedDimension
1001
ACAD_DSTYLE_DIMINSPECT
1070
   396
1000
100%
1070
   395
1000

1070
   394
1070
    33
1070
   393
1070
     0
1001
ACAD_DSTYLE_DIMTALN
1070
   392
1070
     0
1001
ACAD
1000
DSTYLE
1002
{
1070
    40
1040
2.0
1002
}
  0
DIMENSION
  5
1FD2
102
{ACAD_XDICTIONARY
360
1FD3
102
}
102
{ACAD_REACTORS
330
1FD4
102
}
330
6B
100
AcDbEntity
  8
AM_5 ( Bemassung)
100
AcDbDimension
280
     0
  2
*D23
 10
1526.451263867452
 20
1723.671462972558
 30
0.0
 11
1526.451263867451
 21
1782.976584991308
 31
0.0
 70
   160
  1
118
 71
     5
 42
118.6102440375
 73
     0
 74
     0
 75
     0
  3
AM_DIN$0
100
AcDbAlignedDimension
 13
1471.465370573053
 23
1842.281707010058
 33
0.0
 14
1471.465370573053
 24
1723.671462972558
 34
0.0
 50
90.0
100
AcDbRotatedDimension
1001
ACAD_DSTYLE_DIMTALN
1070
   392
1070
     0
1001
ACAD_DSTYLE_DIMINSPECT
1070
   396
1000
100%
1070
   395
1000

1070
   394
1070
    33
1070
   393
1070
     0
1001
ACAD
1000
DSTYLE
1002
{
1070
    40
1040
2.0
1002
}
  0
DIMENSION
  5
1FD5
102
{ACAD_XDICTIONARY
360
1FD6
102
}
102
{ACAD_REACTORS
330
1FD7
102
}
330
6B
100
AcDbEntity
  8
AM_5 ( Bemassung)
100
AcDbDimension
280
     0
  2
*D24
 10
1508.690149896499
 20
1723.671462972558
 30
0.0
 11
1508.690149896499
 21
1757.051874405398
 31
0.0
 70
   160
 71
     5
 42
62.1485924527999
 73
     0
 74
     0
 75
     0
  3
AM_DIN$0
100
AcDbAlignedDimension
 13
1485.963066733813
 23
1785.820055425358
 33
0.0
 14
1485.272715921577
 24
1723.671462972558
 34
0.0
 50
90.0
100
AcDbRotatedDimension
1001
ACAD_DSTYLE_DIMINSPECT
1070
   396
1000
100%
1070
   395
1000

1070
   394
1070
    33
1070
   393
1070
     0
1001
ACAD_DSTYLE_DIMTALN
1070
   392
1070
     0
1001
ACAD
1000
DSTYLE
1002
{
1070
    40
1040
2.0
1070
   271
1070
     0
1002
}
  0
DIMENSION
  5
1FD8
102
{ACAD_XDICTIONARY
360
1FD9
102
}
102
{ACAD_REACTORS
330
1FDA
102
}
330
6B
100
AcDbEntity
  8
AM_5 ( Bemassung)
100
AcDbDimension
280
     0
  2
*D25
 10
1446.884519347075
 20
1723.671462972558
 30
0.0
 11
1446.884519347074
 21
1732.071462972558
 31
0.0
 70
   160
 71
     5
 42
16.79999999999995
 73
     0
 74
     0
 75
     0
  3
AM_DIN$0
100
AcDbAlignedDimension
 13
1471.465370573054
 23
1740.471462972558
 33
0.0
 14
1471.465370573053
 24
1723.671462972558
 34
0.0
 50
90.0
100
AcDbRotatedDimension
1001
ACAD_DSTYLE_DIMTALN
1070
   392
1070
     0
1001
ACAD_DSTYLE_DIMINSPECT
1070
   396
1000
100%
1070
   395
1000

1070
   394
1070
    33
1070
   393
1070
     0
1001
ACAD
1000
DSTYLE
1002
{
1070
    40
1040
2.0
1070
   271
1070
     0
1002
}
  0
DIMENSION
  5
1FDB
102
{ACAD_XDICTIONARY
360
1FDC
102
}
102
{ACAD_REACTORS
330
1FDD
102
}
330
6B
100
AcDbEntity
  8
AM_5 ( Bemassung)
100
AcDbDimension
280
     0
  2
*D26
 10
1454.965370573053
 20
1705.327415396932
 30
0.0
 11
1470.259388835546
 21
1705.327415396932
 31
0.0
 70
   160
  1
G1
 71
     5
 42
32.99999999999978
 73
     0
 74
     0
 75
     0
  3
AM_DIN$0
100
AcDbAlignedDimension
 13
1487.965370573053
 23
1734.221462972558
 33
0.0
 14
1454.965370573053
 24
1731.664273695385
 34
0.0
100
AcDbRotatedDimension
1001
ACAD_DSTYLE_DIMINSPECT
1070
   396
1000
100%
1070
   395
1000

1070
   394
1070
    33
1070
   393
1070
     0
1001
ACAD_DSTYLE_DIMTALN
1070
   392
1070
     0
1001
ACAD
1000
DSTYLE
1002
{
1070
    40
1040
2.0
1002
}
  0
INSERT
  5
1FDE
330
6B
100
AcDbEntity
  8
AM_12 ( Teile Referenz)
100
AcDbBlockReference
  2
*S2417
 10
740.6069321652822
 20
1545.951157038574
 30
0.0
  0
INSERT
  5
1FDF
330
6B
100
AcDbEntity
  8
AM_12 ( Teile Referenz)
100
AcDbBlockReference
  2
*S2518
 10
740.64794442123
 20
1540.239507564997
 30
0.0
  0
TEXT
  5
1FE0
330
6B
100
AcDbEntity
  8
AM_2 ( Kontur 0.25)
100
AcDbText
 10
1462.297013625208
 20
1986.63652170829
 30
0.0
 40
13.17007150281506
  1
10-12
100
AcDbText
  0
ENDSEC
  0
SECTION
  2
OBJECTS
  0
DICTIONARY
  5
C
330
0
100
AcDbDictionary
281
     1
  3
ACAD_CIP_PREVIOUS_PRODUCT_INFO
350
E9
  3
ACAD_COLOR
350
62
  3
ACAD_DETAILVIEWSTYLE
350
4B9
  3
ACAD_FIELDLIST
350
4E5
  3
ACAD_GROUP
350
D
  3
ACAD_LAYOUT
350
61
  3
ACAD_MATERIAL
350
10
  3
ACAD_MLEADERSTYLE
350
65
  3
ACAD_MLINESTYLE
350
5E
  3
ACAD_PLOTSETTINGS
350
60
  3
ACAD_PLOTSTYLENAME
350
E
  3
ACAD_SCALELIST
350
42
  3
ACAD_SECTIONVIEWSTYLE
350
4B7
  3
ACAD_TABLESTYLE
350
63
  3
ACAD_VISUALSTYLE
350
29
  3
ACDB_RECOMPOSE_DATA
350
20A0
  3
AcDbVariableDictionary
350
459
  3
AcmDictionary
350
116
  3
AMG
350
EA
  3
AMGPDM
350
1DD1
  3
AMGSNAPSETTINGS
350
15D
  3
ASE_INDEX_DICTIONARY
350
1934
  0
DICTIONARY
  5
265
330
2
100
AcDbDictionary
280
     1
281
     1
  3
ACAD_LAYERSTATES
360
41F
  3
AMLAYER_GROUPCOLORS
360
266
  0
DICTIONARY
  5
363
330
54
100
AcDbDictionary
280
     1
281
     1
  3
ADSK_XREC_LAYER_RECONCILED
360
364
  0
DICTIONARY
  5
36F
330
252
100
AcDbDictionary
280
     1
281
     1
  3
ADSK_XREC_LAYER_RECONCILED
360
370
  0
DICTIONARY
  5
54E
330
54D
100
AcDbDictionary
280
     1
281
     1
  3
ADSK_XREC_LAYER_RECONCILED
360
17C7
  0
DICTIONARY
  5
17C8
330
54F
100
AcDbDictionary
280
     1
281
     1
  3
ADSK_XREC_LAYER_RECONCILED
360
17C9
  0
DICTIONARY
  5
185A
330
1857
100
AcDbDictionary
280
     1
281
     1
  3
ADSK_XREC_LAYER_RECONCILED
360
185B
  0
DICTIONARY
  5
18AE
330
189A
100
AcDbDictionary
280
     1
281
     1
  3
ADSK_XREC_LAYER_RECONCILED
360
18AF
  0
DICTIONARY
  5
1E68
330
1AF9
100
AcDbDictionary
280
     1
281
     1
  3
ADSK_XREC_LAYER_RECONCILED
360
1E69
  0
DICTIONARY
  5
1F07
330
1F06
100
AcDbDictionary
280
     1
281
     1
  0
DICTIONARY
  5
1FBF
330
1FBE
100
AcDbDictionary
280
     1
281
     1
  3
ACAD_DIMASSOC
360
1FC0
  0
DICTIONARY
  5
1FCA
330
1FC9
100
AcDbDictionary
280
     1
281
     1
  3
ACAD_DIMASSOC
360
1FCB
  0
DICTIONARY
  5
1FCD
330
1FCC
100
AcDbDictionary
280
     1
281
     1
  3
ACAD_DIMASSOC
360
1FCE
  0
DICTIONARY
  5
1FD0
330
1FCF
100
AcDbDictionary
280
     1
281
     1
  3
ACAD_DIMASSOC
360
1FD1
  0
DICTIONARY
  5
1FD3
330
1FD2
100
AcDbDictionary
280
     1
281
     1
  3
ACAD_DIMASSOC
360
1FD4
  0
DICTIONARY
  5
1FD6
330
1FD5
100
AcDbDictionary
280
     1
281
     1
  3
ACAD_DIMASSOC
360
1FD7
  0
DICTIONARY
  5
1FD9
330
1FD8
100
AcDbDictionary
280
     1
281
     1
  3
ACAD_DIMASSOC
360
1FDA
  0
DICTIONARY
  5
1FDC
330
1FDB
100
AcDbDictionary
280
     1
281
     1
  3
ACAD_DIMASSOC
360
1FDD
  0
XRECORD
  5
E9
102
{ACAD_REACTORS
330
C
102
}
330
C
100
AcDbXrecord
280
     1
300
AMECH_PP
300
2016
300
PDSU_F_S
  0
DICTIONARY
  5
62
102
{ACAD_REACTORS
330
C
102
}
330
C
100
AcDbDictionary
281
     1
  0
DICTIONARY
  5
4B9
102
{ACAD_REACTORS
330
C
102
}
330
C
100
AcDbDictionary
281
     1
  3
ASME Y14.35 - 1987
350
198F
  3
DIN 6
350
55B
  3
Imperial24
350
1996
  3
Metric50
350
4BA
  0
FIELDLIST
  5
4E5
102
{ACAD_REACTORS
330
C
102
}
330
C
100
AcDbIdSet
 90
       19
330
198A
330
198B
330
198C
330
1992
330
1993
330
1994
330
1995
330
514
330
515
330
516
330
51A
330
51B
330
51C
330
558
330
559
330
55A
330
55E
330
55F
330
560
100
AcDbFieldList
  0
DICTIONARY
  5
D
102
{ACAD_REACTORS
330
C
102
}
330
C
100
AcDbDictionary
281
     1
  0
DICTIONARY
  5
61
102
{ACAD_REACTORS
330
C
102
}
330
C
100
AcDbDictionary
281
     1
  3
Layout1
350
6A
  3
Model
350
6E
  0
DICTIONARY
  5
10
102
{ACAD_REACTORS
330
C
102
}
330
C
100
AcDbDictionary
281
     1
  3
ByBlock
350
19
  3
ByLayer
350
11
  3
Global
350
21
  0
DICTIONARY
  5
65
102
{ACAD_REACTORS
330
C
102
}
330
C
100
AcDbDictionary
281
     1
  3
Standard
350
66
  0
DICTIONARY
  5
5E
102
{ACAD_REACTORS
330
C
102
}
330
C
100
AcDbDictionary
281
     1
  3
Standard
350
5F
  0
DICTIONARY
  5
60
102
{ACAD_REACTORS
330
C
102
}
330
C
100
AcDbDictionary
281
     1
  0
ACDBDICTIONARYWDFLT
  5
E
102
{ACAD_REACTORS
330
C
102
}
330
C
100
AcDbDictionary
281
     1
  3
Normal
350
F
100
AcDbDictionaryWithDefault
340
F
  0
DICTIONARY
  5
42
102
{ACAD_REACTORS
330
C
102
}
330
C
100
AcDbDictionary
281
     1
  3
A3
350
1903
  0
DICTIONARY
  5
4B7
102
{ACAD_REACTORS
330
C
102
}
330
C
100
AcDbDictionary
281
     1
  3
ASME Y14.3 - 2003
350
1987
  3
DIN ISO 128-40_2002-05
350
555
  3
Imperial24
350
198D
  3
Metric50
350
4B8
  0
DICTIONARY
  5
63
102
{ACAD_REACTORS
330
C
102
}
330
C
100
AcDbDictionary
281
     1
  3
Standard
350
64
  0
DICTIONARY
  5
29
102
{ACAD_REACTORS
330
C
102
}
330
C
100
AcDbDictionary
281
     1
  3
2dWireframe
350
2F
  3
3D Hidden
350
1986
  3
3dWireframe
350
553
  3
Basic
350
2E
  3
Brighten
350
35
  3
ColorChange
350
39
  3
Conceptual
350
32
  3
Dim
350
34
  3
EdgeColorOff
350
41
  3
Facepattern
350
38
  3
Flat
350
2A
  3
FlatWithEdges
350
2B
  3
Gouraud
350
2C
  3
GouraudWithEdges
350
2D
  3
Hidden
350
31
  3
JitterOff
350
3F
  3
Linepattern
350
37
  3
OverhangOff
350
40
  3
Realistic
350
33
  3
Shaded
350
3E
  3
Shaded with edges
350
3D
  3
Shades of Gray
350
3A
  3
Sketchy
350
3B
  3
Thicken
350
36
  3
Wireframe
350
30
  3
X-Ray
350
3C
  0
XRECORD
  5
20A0
102
{ACAD_REACTORS
330
C
102
}
330
C
100
AcDbXrecord
280
     1
 90
        1
330
64
330
4B8
330
4BA
330
555
330
55B
330
1987
330
198D
330
198F
330
1996
  0
DICTIONARY
  5
459
102
{ACAD_REACTORS
330
C
102
}
330
C
100
AcDbDictionary
281
     1
  3
CANNOSCALE
350
45D
  3
CMLEADERSTYLE
350
45B
  3
CTABLESTYLE
350
45A
  3
CVIEWDETAILSTYLE
350
52F
  3
CVIEWSECTIONSTYLE
350
530
  3
LAYEREVAL
350
45F
  3
LAYERNOTIFY
350
460
  3
LIGHTINGUNITS
350
45E
  3
MSLTSCALE
350
45C
  0
DICTIONARY
  5
116
102
{ACAD_REACTORS
330
C
102
}
330
C
100
AcDbDictionary
281
     1
  3
AcmBOM
350
11D
  3
AcmStdDictionary
350
125
  3
AMDTSECTSYM_ARROWCOLOR
350
24C
  0
DICTIONARY
  5
EA
102
{ACAD_REACTORS
330
C
102
}
330
C
100
AcDbDictionary
281
     1
  0
DICTIONARY
  5
1DD1
102
{ACAD_REACTORS
330
C
102
}
330
C
100
AcDbDictionary
281
     1
  3
SAP_VERSION
350
1DF2
  0
DICTIONARY
  5
15D
102
{ACAD_REACTORS
330
C
102
}
330
C
100
AcDbDictionary
281
     1
  0
DICTIONARY
  5
1934
102
{ACAD_REACTORS
330
C
102
}
330
C
100
AcDbDictionary
281
     1
  3
ASEBlockHierarchyIndexRecord
350
1935
1001
DCO15
1040
1880775995.668
  0
DICTIONARY
  5
41F
102
{ACAD_REACTORS
330
265
102
}
330
265
100
AcDbDictionary
281
     1
  0
DICTIONARY
  5
266
102
{ACAD_REACTORS
330
265
102
}
330
265
100
AcDbDictionary
280
     1
281
     1
  0
XRECORD
  5
364
102
{ACAD_REACTORS
330
363
102
}
330
363
100
AcDbXrecord
280
     1
290
     1
  0
XRECORD
  5
370
102
{ACAD_REACTORS
330
36F
102
}
330
36F
100
AcDbXrecord
280
     1
290
     1
  0
XRECORD
  5
17C7
102
{ACAD_REACTORS
330
54E
102
}
330
54E
100
AcDbXrecord
280
     1
290
     1
  0
XRECORD
  5
17C9
102
{ACAD_REACTORS
330
17C8
102
}
330
17C8
100
AcDbXrecord
280
     1
290
     1
  0
XRECORD
  5
185B
102
{ACAD_REACTORS
330
185A
102
}
330
185A
100
AcDbXrecord
280
     1
290
     1
  0
XRECORD
  5
18AF
102
{ACAD_REACTORS
330
18AE
102
}
330
18AE
100
AcDbXrecord
280
     1
290
     1
  0
XRECORD
  5
1E69
102
{ACAD_REACTORS
330
1E68
102
}
330
1E68
100
AcDbXrecord
280
     1
290
     1
  0
DIMASSOC
  5
1FC0
102
{ACAD_REACTORS
330
1FBF
102
}
330
1FBF
100
AcDbDimAssoc
330
1FBE
 90
        3
 70
     0
 71
     0
  1
AcDbOsnapPointRef
 72
     6
331
1F7C
 73
     0
 91
        0
 40
0.1634035686121575
 10
0.0
 20
0.0
 30
0.0
332
1F81
 74
     0
 92
        0
 75
     0
  1
AcDbOsnapPointRef
 72
     6
331
1F7C
 73
     0
 91
        0
 40
0.8373529325698742
 10
0.0
 20
0.0
 30
0.0
332
1F7D
 74
     0
 92
        0
 75
     0
  0
DIMASSOC
  5
1FCB
102
{ACAD_REACTORS
330
1FCA
102
}
330
1FCA
100
AcDbDimAssoc
330
1FC9
 90
       15
 70
     0
 71
     0
  1
AcDbOsnapPointRef
 72
    13
331
1FC8
 73
     2
 91
        0
 40
0.0
 10
0.0
 20
0.0
 30
2.000000000000000E+50
 75
     0
  1
AcDbOsnapPointRef
 72
     1
331
1FC8
 73
     2
 91
        0
 40
0.0
 10
0.0
 20
0.0
 30
2.000000000000000E+50
 75
     0
  1
AcDbOsnapPointRef
 72
    13
331
1F87
 73
     2
 91
        0
 40
0.0
 10
0.0
 20
0.0
 30
2.000000000000000E+50
 75
     0
  1
AcDbOsnapPointRef
 72
     1
331
1F87
 73
     2
 91
        0
 40
0.0
 10
0.0
 20
0.0
 30
2.000000000000000E+50
 75
     0
  0
DIMASSOC
  5
1FCE
102
{ACAD_REACTORS
330
1FCD
102
}
330
1FCD
100
AcDbDimAssoc
330
1FCC
 90
        3
 70
     0
 71
     0
  1
AcDbOsnapPointRef
 72
    13
331
1FC7
 73
     0
 91
        0
 40
0.0
 10
0.0
 20
0.0
 30
2.000000000000000E+50
 75
     0
  1
AcDbOsnapPointRef
 72
    13
331
1FC6
 73
     0
 91
        0
 40
0.0
 10
0.0
 20
0.0
 30
2.000000000000000E+50
 75
     0
  0
DIMASSOC
  5
1FD1
102
{ACAD_REACTORS
330
1FD0
102
}
330
1FD0
100
AcDbDimAssoc
330
1FCF
 90
        3
 70
     0
 71
     0
  1
AcDbOsnapPointRef
 72
     1
331
1FBD
 73
     0
 91
        0
 40
0.0
 10
0.0
 20
0.0
 30
2.000000000000000E+50
 75
     0
  1
AcDbOsnapPointRef
 72
     1
331
1FBC
 73
     0
 91
        0
 40
0.0
 10
0.0
 20
0.0
 30
2.000000000000000E+50
 75
     0
  0
DIMASSOC
  5
1FD4
102
{ACAD_REACTORS
330
1FD3
102
}
330
1FD3
100
AcDbDimAssoc
330
1FD2
 90
        3
 70
     0
 71
     0
  1
AcDbOsnapPointRef
 72
    13
331
1FBA
 73
     0
 91
        0
 40
0.0
 10
0.0
 20
0.0
 30
2.000000000000000E+50
 75
     0
  1
AcDbOsnapPointRef
 72
     2
331
1FC2
 73
     0
 91
        0
 40
0.0
 10
0.0
 20
0.0
 30
0.0
 75
     0
  0
DIMASSOC
  5
1FD7
102
{ACAD_REACTORS
330
1FD6
102
}
330
1FD6
100
AcDbDimAssoc
330
1FD5
 90
        1
 70
     0
 71
     0
  1
AcDbOsnapPointRef
 72
    10
331
1F89
 73
     0
 91
        0
 40
0.8284397806148328
 10
0.0
 20
0.0
 30
0.0
 75
     0
  0
DIMASSOC
  5
1FDA
102
{ACAD_REACTORS
330
1FD9
102
}
330
1FD9
100
AcDbDimAssoc
330
1FD8
 90
        1
 70
     0
 71
     0
  1
AcDbOsnapPointRef
 72
     2
331
1FC4
 73
     0
 91
        0
 40
0.0
 10
0.0
 20
0.0
 30
0.0
 75
     0
  0
DIMASSOC
  5
1FDD
102
{ACAD_REACTORS
330
1FDC
102
}
330
1FDC
100
AcDbDimAssoc
330
1FDB
 90
        3
 70
     0
 71
     0
  1
AcDbOsnapPointRef
 72
     2
331
1FAB
 73
     0
 91
        0
 40
0.0
 10
0.0
 20
0.0
 30
0.0
 75
     0
  1
AcDbOsnapPointRef
 72
    10
331
1F95
 73
     0
 91
        0
 40
0.3236421188156326
 10
0.0
 20
0.0
 30
0.0
 75
     0
  0
ACDBDETAILVIEWSTYLE
  5
198F
102
{ACAD_XDICTIONARY
360
1990
102
}
102
{ACAD_REACTORS
330
4B9
330
19B2
330
19B3
330
19B4
330
19B5
102
}
330
4B9
100
AcDbModelDocViewStyle
 70
     0
  3

290
     0
100
AcDbDetailViewStyle
 70
     0
 71
     0
 90
        3
 71
     1
340
151
 62
    30
 40
0.24
340
197D
 62
   256
 40
0.24
300

 40
0.36
280
     2
 71
     2
340
F7
 90
       25
 62
   256
 71
     3
340
151
 62
    30
 40
0.24
 90
        1
 40
0.0
 90
        1
300
%<\AcVar ViewType \f "%tc1">% %<\AcVar ViewDetailId>%\PSCALE %<\AcVar ViewScale \f "%sn">%
 71
     4
340
5C
 90
       25
 62
   256
340
F7
 90
       25
 62
   256
280
     0
  0
ACDBDETAILVIEWSTYLE
  5
55B
102
{ACAD_XDICTIONARY
360
55C
102
}
102
{ACAD_REACTORS
330
4B9
330
17BD
330
17BE
330
17BF
330
17C0
102
}
330
4B9
100
AcDbModelDocViewStyle
 70
     0
  3

290
     0
100
AcDbDetailViewStyle
 70
     0
 71
     0
 90
        3
 71
     1
340
1E7
 62
     7
 40
5.0
340
4DD
 62
     3
 40
5.0
300

 40
0.0
280
     0
 71
     2
340
5C
 90
       25
 62
   256
 71
     3
340
1E7
 62
     7
 40
5.0
 90
        0
 40
0.0
 90
        1
300
%<\AcVar ViewDetailId>% %<\AcVar ViewScale \f "%sn">%
 71
     4
340
5C
 90
       25
 62
   256
340
5C
 90
       25
 62
   256
280
     2
  0
ACDBDETAILVIEWSTYLE
  5
1996
102
{ACAD_XDICTIONARY
360
1997
102
}
102
{ACAD_REACTORS
330
4B9
330
19AE
330
19AF
330
19B0
330
19B1
102
}
330
4B9
100
AcDbModelDocViewStyle
 70
     0
  3
Imperial24
290
     0
100
AcDbDetailViewStyle
 70
     0
 71
     0
 90
        3
 71
     1
340
55
 62
   256
 40
0.24
340
0
 62
   256
 40
0.24
300

 40
0.36
280
     3
 71
     2
340
5C
 90
       25
 62
   256
 71
     3
340
55
 62
   256
 40
0.24
 90
        1
 40
0.75
 90
        1
300
%<\AcVar ViewType \f "%tc1">% %<\AcVar ViewDetailId>%\PVARIA %<\AcVar ViewScale \f "%sn">%
 71
     4
340
5C
 90
       25
 62
   256
340
5C
 90
       25
 62
   256
280
     0
  0
ACDBDETAILVIEWSTYLE
  5
4BA
102
{ACAD_XDICTIONARY
360
52A
102
}
102
{ACAD_REACTORS
330
4B9
330
4D1
330
4D5
330
4D9
330
4E9
102
}
330
4B9
100
AcDbModelDocViewStyle
 70
     0
  3
Metric50
290
     0
100
AcDbDetailViewStyle
 70
     0
 71
     0
 90
        3
 71
     1
340
55
 62
   256
 40
5.0
340
0
 62
   256
 40
5.0
300

 40
0.0
280
     1
 71
     2
340
5C
 90
       25
 62
   256
 71
     3
340
55
 62
   256
 40
5.0
 90
        0
 40
15.0
 90
        1
300
%<\AcVar ViewDetailId>% (%<\AcVar ViewScale \f "%sn">%)
 71
     4
340
5C
 90
       25
 62
   256
340
5C
 90
       25
 62
   256
280
     0
  0
LAYOUT
  5
6A
102
{ACAD_REACTORS
330
61
102
}
330
61
100
AcDbPlotSettings
  1

  2
C:\Dokumente und Einstellungen\guzb562\anwendungsdaten\autodesk\autocad mechanical 2012\r18.2\deu\plotters\an03.pc3
  4

  6

 40
0.0
 41
0.0
 42
0.0
 43
0.0
 44
0.0
 45
0.0
 46
0.0
 47
0.0
 48
0.0
 49
0.0
140
0.0
141
0.0
142
1.0
143
1.0
 70
   688
 72
     0
 73
     0
 74
     5
  7
OASE.ctb
 75
    16
147
1.0
 76
     0
 77
     2
 78
   300
148
0.0
149
0.0
100
AcDbLayout
  1
Layout1
 70
     1
 71
     1
 10
0.0
 20
0.0
 11
12.0
 21
9.0
 12
0.0
 22
0.0
 32
0.0
 14
1.000000000000000E+20
 24
1.000000000000000E+20
 34
1.000000000000000E+20
 15
-1.000000000000000E+20
 25
-1.000000000000000E+20
 35
-1.000000000000000E+20
146
0.0
 13
0.0
 23
0.0
 33
0.0
 16
1.0
 26
0.0
 36
0.0
 17
0.0
 27
1.0
 37
0.0
 76
     0
330
67
  0
LAYOUT
  5
6E
102
{ACAD_XDICTIONARY
360
424
102
}
102
{ACAD_REACTORS
330
61
102
}
330
61
100
AcDbPlotSettings
  1

  2
C:\Dokumente und Einstellungen\guzb562\anwendungsdaten\autodesk\autocad mechanical 2012\r18.2\deu\plotters\an03.pc3
  4
A4
  6

 40
7.143749713897705
 41
7.186082363128662
 42
7.059066772460937
 43
5.027069091796875
 44
209.9733276367187
 45
296.9683227539062
 46
0.0
 47
0.0
 48
0.0
 49
0.0
140
0.0
141
0.0
142
1.0
143
0.8536264651932878
 70
 11952
 72
     1
 73
     1
 74
     0
  7
OASE.ctb
 75
     0
147
1.171472582886202
 76
     0
 77
     2
 78
   300
148
20.72444660720851
149
27.33390385380608
100
AcDbLayout
  1
Model
 70
     1
 71
     0
 10
0.0
 20
0.0
 11
12.0
 21
9.0
 12
0.0
 22
0.0
 32
0.0
 14
0.0
 24
0.0
 34
0.0
 15
0.0
 25
0.0
 35
0.0
146
0.0
 13
0.0
 23
0.0
 33
0.0
 16
1.0
 26
0.0
 36
0.0
 17
0.0
 27
1.0
 37
0.0
 76
     0
330
6B
331
76
1001
ACAD_PSEXT
1000
C:\Dokumente und Einstellungen\guzb562\anwendungsdaten\autodesk\autocad mechanical 2012\r18.2\deu\plotters\an03.pc3
1000
Kyocera Mita FS-3830N
1000
H4EG01.x
1000
Anlagenbau
1070
     0
  0
MATERIAL
  5
19
102
{ACAD_XDICTIONARY
360
1A
102
}
102
{ACAD_REACTORS
330
10
102
}
330
10
100
AcDbMaterial
  1
ByBlock
 72
     0
 43
0.0208333333333333
 43
0.0
 43
0.0
 43
0.0
 43
0.0
 43
0.0208333333333333
 43
0.0
 43
0.0
 43
0.0
 43
0.0
 43
1.0
 43
0.0
 43
0.0
 43
0.0
 43
0.0
 43
1.0
 77
     0
 47
0.0208333333333333
 47
0.0
 47
0.0
 47
0.0
 47
0.0
 47
0.0208333333333333
 47
0.0
 47
0.0
 47
0.0
 47
0.0
 47
1.0
 47
0.0
 47
0.0
 47
0.0
 47
0.0
 47
1.0
171
     0
 49
0.0208333333333333
 49
0.0
 49
0.0
 49
0.0
 49
0.0
 49
0.0208333333333333
 49
0.0
 49
0.0
 49
0.0
 49
0.0
 49
1.0
 49
0.0
 49
0.0
 49
0.0
 49
0.0
 49
1.0
175
     0
142
0.0208333333333333
142
0.0
142
0.0
142
0.0
142
0.0
142
0.0208333333333333
142
0.0
142
0.0
142
0.0
142
0.0
142
1.0
142
0.0
142
0.0
142
0.0
142
0.0
142
1.0
179
     0
144
0.0208333333333333
144
0.0
144
0.0
144
0.0
144
0.0
144
0.0208333333333333
144
0.0
144
0.0
144
0.0
144
0.0
144
1.0
144
0.0
144
0.0
144
0.0
144
0.0
144
1.0
147
0.0208333333333333
147
0.0
147
0.0
147
0.0
147
0.0
147
0.0208333333333333
147
0.0
147
0.0
147
0.0
147
0.0
147
1.0
147
0.0
147
0.0
147
0.0
147
0.0
147
1.0
  0
MATERIAL
  5
11
102
{ACAD_XDICTIONARY
360
12
102
}
102
{ACAD_REACTORS
330
10
102
}
330
10
100
AcDbMaterial
  1
ByLayer
 72
     0
 43
0.0208333333333333
 43
0.0
 43
0.0
 43
0.0
 43
0.0
 43
0.0208333333333333
 43
0.0
 43
0.0
 43
0.0
 43
0.0
 43
1.0
 43
0.0
 43
0.0
 43
0.0
 43
0.0
 43
1.0
 77
     0
 47
0.0208333333333333
 47
0.0
 47
0.0
 47
0.0
 47
0.0
 47
0.0208333333333333
 47
0.0
 47
0.0
 47
0.0
 47
0.0
 47
1.0
 47
0.0
 47
0.0
 47
0.0
 47
0.0
 47
1.0
171
     0
 49
0.0208333333333333
 49
0.0
 49
0.0
 49
0.0
 49
0.0
 49
0.0208333333333333
 49
0.0
 49
0.0
 49
0.0
 49
0.0
 49
1.0
 49
0.0
 49
0.0
 49
0.0
 49
0.0
 49
1.0
175
     0
142
0.0208333333333333
142
0.0
142
0.0
142
0.0
142
0.0
142
0.0208333333333333
142
0.0
142
0.0
142
0.0
142
0.0
142
1.0
142
0.0
142
0.0
142
0.0
142
0.0
142
1.0
179
     0
144
0.0208333333333333
144
0.0
144
0.0
144
0.0
144
0.0
144
0.0208333333333333
144
0.0
144
0.0
144
0.0
144
0.0
144
1.0
144
0.0
144
0.0
144
0.0
144
0.0
144
1.0
147
0.0208333333333333
147
0.0
147
0.0
147
0.0
147
0.0
147
0.0208333333333333
147
0.0
147
0.0
147
0.0
147
0.0
147
1.0
147
0.0
147
0.0
147
0.0
147
0.0
147
1.0
  0
MATERIAL
  5
21
102
{ACAD_XDICTIONARY
360
22
102
}
102
{ACAD_REACTORS
330
10
102
}
330
10
100
AcDbMaterial
  1
Global
 72
     0
 43
0.0208333333333333
 43
0.0
 43
0.0
 43
0.0
 43
0.0
 43
0.0208333333333333
 43
0.0
 43
0.0
 43
0.0
 43
0.0
 43
1.0
 43
0.0
 43
0.0
 43
0.0
 43
0.0
 43
1.0
 77
     0
 47
0.0208333333333333
 47
0.0
 47
0.0
 47
0.0
 47
0.0
 47
0.0208333333333333
 47
0.0
 47
0.0
 47
0.0
 47
0.0
 47
1.0
 47
0.0
 47
0.0
 47
0.0
 47
0.0
 47
1.0
171
     0
 49
0.0208333333333333
 49
0.0
 49
0.0
 49
0.0
 49
0.0
 49
0.0208333333333333
 49
0.0
 49
0.0
 49
0.0
 49
0.0
 49
1.0
 49
0.0
 49
0.0
 49
0.0
 49
0.0
 49
1.0
175
     0
142
0.0208333333333333
142
0.0
142
0.0
142
0.0
142
0.0
142
0.0208333333333333
142
0.0
142
0.0
142
0.0
142
0.0
142
1.0
142
0.0
142
0.0
142
0.0
142
0.0
142
1.0
179
     0
144
0.0208333333333333
144
0.0
144
0.0
144
0.0
144
0.0
144
0.0208333333333333
144
0.0
144
0.0
144
0.0
144
0.0
144
1.0
144
0.0
144
0.0
144
0.0
144
0.0
144
1.0
147
0.0208333333333333
147
0.0
147
0.0
147
0.0
147
0.0
147
0.0208333333333333
147
0.0
147
0.0
147
0.0
147
0.0
147
1.0
147
0.0
147
0.0
147
0.0
147
0.0
147
1.0
  0
MLEADERSTYLE
  5
66
102
{ACAD_REACTORS
330
65
102
}
330
65
100
AcDbMLeaderStyle
179
     2
170
     2
171
     1
172
     0
 90
        2
 40
0.0
 41
0.0
173
     1
 91
-1056964608
340
5A
 92
       -2
290
     1
 42
0.09
291
     1
 43
0.36
  3
Standard
 44
0.18
300

342
55
174
     1
178
     6
175
     1
176
     0
 93
-1056964608
 45
0.18
292
     0
297
     0
 46
0.18
 94
-1056964608
 47
1.0
 49
1.0
140
1.0
293
     1
141
0.0
294
     1
177
     0
142
1.0
295
     0
296
     0
143
0.125
271
     0
272
     9
273
     9
298
     0
  0
MLINESTYLE
  5
5F
102
{ACAD_REACTORS
330
5E
102
}
330
5E
100
AcDbMlineStyle
  2
STANDARD
 70
     0
  3

 62
   256
 51
90.0
 52
90.0
 71
     2
 49
0.5
 62
   256
  6
BYLAYER
 49
-0.5
 62
   256
  6
BYLAYER
  0
ACDBPLACEHOLDER
  5
F
102
{ACAD_REACTORS
330
E
102
}
330
E
  0
SCALE
  5
1903
102
{ACAD_REACTORS
330
42
102
}
330
42
100
AcDbScale
 70
     0
300
1:5
140
1.0
141
5.0
290
     0
  0
ACDBSECTIONVIEWSTYLE
  5
1987
102
{ACAD_XDICTIONARY
360
1988
102
}
102
{ACAD_REACTORS
330
4B7
330
19B6
330
19B7
330
19B8
330
19B9
102
}
330
4B7
100
AcDbModelDocViewStyle
 70
     0
  3

290
     0
100
AcDbSectionViewStyle
 70
     0
 71
     0
 90
       78
 71
     1
340
151
 62
    30
 40
0.24
340
1979
340
1979
 62
     7
 40
0.24
300
I,O,Q,S,X,Z
 40
0.4
 90
        3
 40
0.12
 90
        1
 71
     2
340
F7
 90
       -1
 62
     7
340
F7
 90
       -1
 62
     7
 40
0.4
 40
0.0
 40
0.4
 71
     3
340
151
 62
    30
 40
0.24
 90
        0
 40
0.18
 90
        1
300
SECTION %<\AcVar ViewSectionStartId>%-%<\AcVar ViewSectionEndId>%
 71
     4
 62
   256
 62
   257
300
ANSI31
 40
1.0
 90
        0
290
     0
290
     0
 90
        6
 40
0.0
 40
1.570796326794896
 40
0.2617993877991494
 40
1.308996938995747
 40
-0.2617993877991494
 40
1.832595714594046
  0
ACDBSECTIONVIEWSTYLE
  5
555
102
{ACAD_XDICTIONARY
360
556
102
}
102
{ACAD_REACTORS
330
4B7
330
17C1
330
17C2
330
17C3
330
17C4
102
}
330
4B7
100
AcDbModelDocViewStyle
 70
     0
  3

290
     0
100
AcDbSectionViewStyle
 70
     0
 71
     0
 90
      102
 71
     1
340
1E7
 62
     7
 40
5.0
340
0
340
0
 62
     7
 40
5.0
300
I,O,Q,S,X,Z
 40
10.0
 90
        0
 40
2.5
 90
        0
 71
     2
340
5C
 90
       -1
 62
     1
340
5C
 90
       -1
 62
     7
 40
10.0
 40
5.0
 40
25.0
 71
     3
340
1E7
 62
     7
 40
5.0
 90
        0
 40
0.27
 90
        1
300
%<\AcVar ViewSectionStartId>%-%<\AcVar ViewSectionEndId>%
 71
     4
 62
   256
 62
   257
300
ANSI31
 40
1.0
 90
        0
290
     0
290
     0
 90
        6
 40
0.0
 40
1.570796326794896
 40
0.2617993877991494
 40
1.308996938995747
 40
-0.2617993877991494
 40
1.832595714594046
  0
ACDBSECTIONVIEWSTYLE
  5
198D
102
{ACAD_XDICTIONARY
360
198E
102
}
102
{ACAD_REACTORS
330
4B7
330
19AA
330
19AB
330
19AC
330
19AD
102
}
330
4B7
100
AcDbModelDocViewStyle
 70
     0
  3
Imperial24
290
     0
100
AcDbSectionViewStyle
 70
     0
 71
     0
 90
       78
 71
     1
340
55
 62
   256
 40
0.24
340
0
340
0
 62
   256
 40
0.24
300
I, O, Q, S, X, Z
 40
0.48
 90
        3
 40
0.18
 90
        1
 71
     2
340
5C
 90
       25
 62
   256
340
5C
 90
       50
 62
   256
 40
0.24
 40
0.0
 40
0.24
 71
     3
340
55
 62
   256
 40
0.24
 90
        1
 40
0.75
 90
        1
300
%<\AcVar ViewType \f "%tc1">% %<\AcVar ViewSectionStartId>%-%<\AcVar ViewSectionEndId>%\PVARIA %<\AcVar ViewScale \f "%sn">%
 71
     4
 62
   256
 62
   257
300
ANSI31
 40
1.0
 90
        0
290
     0
290
     0
 90
        6
 40
0.0
 40
1.570796326794896
 40
0.2617993877991494
 40
1.308996938995747
 40
-0.2617993877991494
 40
1.832595714594046
  0
ACDBSECTIONVIEWSTYLE
  5
4B8
102
{ACAD_XDICTIONARY
360
528
102
}
102
{ACAD_REACTORS
330
4B7
330
4D0
330
4D4
330
4D8
330
4E8
102
}
330
4B7
100
AcDbModelDocViewStyle
 70
     0
  3
Metric50
290
     0
100
AcDbSectionViewStyle
 70
     0
 71
     0
 90
      102
 71
     1
340
55
 62
   256
 40
5.0
340
0
340
0
 62
   256
 40
5.0
300
I, O, Q, S, X, Z
 40
10.0
 90
        0
 40
2.5
 90
        0
 71
     2
340
5C
 90
       25
 62
   256
340
5C
 90
       50
 62
   256
 40
5.0
 40
2.5
 40
5.0
 71
     3
340
55
 62
   256
 40
5.0
 90
        0
 40
15.0
 90
        1
300
%<\AcVar ViewSectionStartId>%-%<\AcVar ViewSectionEndId>% (%<\AcVar ViewScale \f "%sn">%)
 71
     4
 62
   256
 62
   257
300
ANSI31
 40
1.0
 90
        0
290
     0
290
     0
 90
        6
 40
0.0
 40
1.570796326794896
 40
0.2617993877991494
 40
1.308996938995747
 40
-0.2617993877991494
 40
1.832595714594046
  0
TABLESTYLE
  5
64
102
{ACAD_XDICTIONARY
360
426
102
}
102
{ACAD_REACTORS
330
63
102
}
330
63
100
AcDbTableStyle
280
     0
  3
Standard
 70
     0
 71
     0
 40
0.06
 41
0.06
280
     0
281
     0
  7
STANDARD
140
0.18
170
     2
 62
     0
 63
     7
283
     0
 90
      512
 91
        0
  1

274
    -2
284
     1
 64
     0
275
    -2
285
     1
 65
     0
276
    -2
286
     1
 66
     0
277
    -2
287
     1
 67
     0
278
    -2
288
     1
 68
     0
279
    -2
289
     1
 69
     0
  7
STANDARD
140
0.25
170
     5
 62
     0
 63
     7
283
     0
 90
      512
 91
        0
  1

274
    -2
284
     1
 64
     0
275
    -2
285
     1
 65
     0
276
    -2
286
     1
 66
     0
277
    -2
287
     1
 67
     0
278
    -2
288
     1
 68
     0
279
    -2
289
     1
 69
     0
  7
STANDARD
140
0.18
170
     5
 62
     0
 63
     7
283
     0
 90
      512
 91
        0
  1

274
    -2
284
     1
 64
     0
275
    -2
285
     1
 65
     0
276
    -2
286
     1
 66
     0
277
    -2
287
     1
 67
     0
278
    -2
288
     1
 68
     0
279
    -2
289
     1
 69
     0
  0
VISUALSTYLE
  5
2F
102
{ACAD_REACTORS
330
29
102
}
330
29
100
AcDbVisualStyle
  2
2dWireframe
 70
     4
177
     3
291
     0
 70
    58
 90
        0
176
     1
 90
        2
176
     1
 90
        0
176
     1
 90
        0
176
     1
 40
0.6
176
     1
 40
30.0
176
     1
 62
     7
420
 16777215
176
     1
 90
        1
176
     1
 90
        4
176
     1
 62
     7
176
     1
 62
   257
176
     1
 90
        1
176
     1
 90
        1
176
     1
 40
1.0
176
     1
 90
        0
176
     1
 62
   257
176
     1
 40
1.0
176
     1
 90
        1
176
     1
 90
        6
176
     1
 90
        2
176
     1
 62
     7
176
     1
 90
        5
176
     1
 90
        0
176
     1
 90
        0
176
     1
290
     0
176
     1
 90
        1
176
     1
 40
0.0
176
     1
 90
        0
176
     1
290
     1
176
     1
290
     1
176
     1
290
     0
176
     1
290
     0
176
     1
290
     0
176
     1
290
     0
176
     1
290
     0
176
     1
290
     0
176
     1
290
     0
176
     1
 90
       50
176
     1
 40
0.0
176
     1
 40
1.0
176
     1
 90
        0
176
     1
 62
    18
420
        0
176
     1
 90
       50
176
     1
 90
        3
176
     1
 62
     5
420
      255
176
     1
290
     0
176
     1
 90
       50
176
     1
 90
       50
176
     1
 90
       50
176
     1
290
     0
176
     1
 90
       50
176
     1
 62
   256
176
     0
 40
1.0
176
     0
 90
        2
176
     1
  1
strokes_ogs.tif
176
     1
290
     0
176
     1
 40
1.0
176
     1
 40
1.0
176
     1
  0
VISUALSTYLE
  5
1986
102
{ACAD_REACTORS
330
29
102
}
330
29
100
AcDbVisualStyle
  2
3D Hidden
 70
     6
177
     3
291
     0
 70
    58
 90
        1
176
     1
 90
        2
176
     1
 90
        2
176
     1
 90
        0
176
     1
 40
0.6
176
     1
 40
30.0
176
     1
 62
     7
420
 16777215
176
     1
 90
        2
176
     1
 90
        2
176
     1
 62
     7
176
     1
 62
   257
176
     1
 90
        2
176
     1
 90
        1
176
     1
 40
40.0
176
     1
 90
        0
176
     1
 62
   257
176
     1
 40
1.0
176
     1
 90
        1
176
     1
 90
        6
176
     1
 90
        2
176
     1
 62
     7
176
     1
 90
        3
176
     1
 90
        0
176
     1
 90
        0
176
     1
290
     0
176
     1
 90
        1
176
     1
 40
0.0
176
     1
 90
        0
176
     1
290
     0
176
     1
290
     1
176
     1
290
     1
176
     1
290
     0
176
     1
290
     0
176
     1
290
     0
176
     1
290
     0
176
     1
290
     0
176
     1
290
     0
176
     1
 90
       50
176
     1
 40
0.0
176
     1
 40
1.0
176
     1
 90
        0
176
     1
 62
    18
420
        0
176
     1
 90
       50
176
     1
 90
        3
176
     1
 62
     5
420
      255
176
     1
290
     0
176
     1
 90
       50
176
     1
 90
       50
176
     1
 90
       50
176
     1
290
     0
176
     1
 90
       50
176
     1
 62
   256
176
     0
 40
1.0
176
     0
 90
        2
176
     1
  1
strokes_ogs.tif
176
     1
290
     0
176
     1
 40
1.0
176
     1
 40
1.0
176
     1
  0
VISUALSTYLE
  5
553
102
{ACAD_REACTORS
330
29
102
}
330
29
100
AcDbVisualStyle
  2
3dWireframe
 70
     5
177
     3
291
     0
 70
    58
 90
        0
176
     1
 90
        2
176
     1
 90
        0
176
     1
 90
        0
176
     1
 40
0.6
176
     1
 40
30.0
176
     1
 62
     7
176
     1
 90
        1
176
     1
 90
        4
176
     1
 62
     7
176
     1
 62
   257
176
     1
 90
        1
176
     1
 90
        1
176
     1
 40
1.0
176
     1
 90
        0
176
     1
 62
   257
176
     1
 40
1.0
176
     1
 90
        1
176
     1
 90
        6
176
     1
 90
        2
176
     1
 62
     7
176
     1
 90
        5
176
     1
 90
        0
176
     1
 90
        0
176
     1
290
     0
176
     1
 90
        1
176
     1
 40
0.0
176
     1
 90
        0
176
     1
290
     0
176
     1
290
     1
176
     1
290
     1
176
     1
290
     0
176
     1
290
     0
176
     1
290
     0
176
     1
290
     0
176
     1
290
     0
176
     1
290
     0
176
     1
 90
       50
176
     1
 40
0.0
176
     1
 40
1.0
176
     1
 90
        0
176
     1
 62
    18
420
        0
176
     1
 90
       50
176
     1
 90
        3
176
     1
 62
     5
420
      255
176
     1
290
     0
176
     1
 90
       50
176
     1
 90
       50
176
     1
 90
       50
176
     1
290
     0
176
     1
 90
       50
176
     1
 62
   256
176
     0
 40
1.0
176
     0
 90
        2
176
     1
  1
strokes_ogs.tif
176
     1
290
     0
176
     1
 40
1.0
176
     1
 40
1.0
176
     1
  0
VISUALSTYLE
  5
2E
102
{ACAD_REACTORS
330
29
102
}
330
29
100
AcDbVisualStyle
  2
Basic
 70
     7
177
     3
291
     1
 70
    58
 90
        1
176
     1
 90
        0
176
     1
 90
        1
176
     1
 90
        0
176
     1
 40
0.6
176
     1
 40
30.0
176
     1
 62
     7
420
 16777215
176
     1
 90
        0
176
     1
 90
        4
176
     1
 62
     7
176
     1
 62
   257
176
     1
 90
        1
176
     1
 90
        1
176
     1
 40
1.0
176
     1
 90
        8
176
     1
 62
     7
176
     1
 40
1.0
176
     1
 90
        1
176
     1
 90
        6
176
     1
 90
        2
176
     1
 62
     7
176
     1
 90
        5
176
     1
 90
        0
176
     1
 90
        0
176
     1
290
     0
176
     1
 90
        1
176
     1
 40
0.0
176
     1
 90
        0
176
     1
290
     0
176
     1
290
     1
176
     1
290
     1
176
     1
290
     0
176
     1
290
     0
176
     1
290
     0
176
     1
290
     0
176
     1
290
     0
176
     1
290
     0
176
     1
 90
       50
176
     1
 40
0.0
176
     1
 40
1.0
176
     1
 90
        0
176
     1
 62
    18
420
        0
176
     1
 90
       50
176
     1
 90
        3
176
     1
 62
     5
420
      255
176
     1
290
     0
176
     1
 90
       50
176
     1
 90
       50
176
     1
 90
       50
176
     1
290
     0
176
     1
 90
       50
176
     1
 62
   256
176
     0
 40
1.0
176
     0
 90
        2
176
     1
  1
strokes_ogs.tif
176
     1
290
     0
176
     1
 40
1.0
176
     1
 40
1.0
176
     1
  0
VISUALSTYLE
  5
35
102
{ACAD_REACTORS
330
29
102
}
330
29
100
AcDbVisualStyle
  2
Brighten
 70
    12
177
     3
291
     1
 70
    58
 90
        2
176
     1
 90
        2
176
     1
 90
        0
176
     1
 90
        0
176
     1
 40
0.6
176
     1
 40
30.0
176
     1
 62
     7
420
 16777215
176
     1
 90
        1
176
     1
 90
        4
176
     1
 62
     7
176
     1
 62
   257
176
     1
 90
        1
176
     1
 90
        1
176
     1
 40
1.0
176
     1
 90
        8
176
     1
 62
     7
176
     1
 40
1.0
176
     1
 90
        1
176
     1
 90
        6
176
     1
 90
        2
176
     1
 62
     7
176
     1
 90
        5
176
     1
 90
        0
176
     1
 90
        0
176
     1
290
     0
176
     1
 90
        1
176
     1
 40
50.0
176
     1
 90
        0
176
     1
290
     0
176
     1
290
     1
176
     1
290
     1
176
     1
290
     0
176
     1
290
     0
176
     1
290
     0
176
     1
290
     0
176
     1
290
     0
176
     1
290
     0
176
     1
 90
       50
176
     1
 40
0.0
176
     1
 40
1.0
176
     1
 90
        0
176
     1
 62
    18
420
        0
176
     1
 90
       50
176
     1
 90
        3
176
     1
 62
     5
420
      255
176
     1
290
     0
176
     1
 90
       50
176
     1
 90
       50
176
     1
 90
       50
176
     1
290
     0
176
     1
 90
       50
176
     1
 62
   256
176
     0
 40
1.0
176
     0
 90
        2
176
     1
  1
strokes_ogs.tif
176
     1
290
     0
176
     1
 40
1.0
176
     1
 40
1.0
176
     1
  0
VISUALSTYLE
  5
39
102
{ACAD_REACTORS
330
29
102
}
330
29
100
AcDbVisualStyle
  2
ColorChange
 70
    16
177
     3
291
     1
 70
    58
 90
        2
176
     1
 90
        2
176
     1
 90
        3
176
     1
 90
        0
176
     1
 40
0.6
176
     1
 40
30.0
176
     1
 62
     8
420
  8421504
176
     1
 90
        1
176
     1
 90
        4
176
     1
 62
     7
176
     1
 62
   257
176
     1
 90
        1
176
     1
 90
        1
176
     1
 40
1.0
176
     1
 90
        8
176
     1
 62
     8
420
  8421504
176
     1
 40
1.0
176
     1
 90
        1
176
     1
 90
        6
176
     1
 90
        2
176
     1
 62
     7
176
     1
 90
        5
176
     1
 90
        0
176
     1
 90
        0
176
     1
290
     0
176
     1
 90
        1
176
     1
 40
0.0
176
     1
 90
        0
176
     1
290
     0
176
     1
290
     1
176
     1
290
     1
176
     1
290
     0
176
     1
290
     0
176
     1
290
     0
176
     1
290
     0
176
     1
290
     0
176
     1
290
     0
176
     1
 90
       50
176
     1
 40
0.0
176
     1
 40
1.0
176
     1
 90
        0
176
     1
 62
    18
420
        0
176
     1
 90
       50
176
     1
 90
        3
176
     1
 62
     5
420
      255
176
     1
290
     0
176
     1
 90
       50
176
     1
 90
       50
176
     1
 90
       50
176
     1
290
     0
176
     1
 90
       50
176
     1
 62
   256
176
     0
 40
1.0
176
     0
 90
        2
176
     1
  1
strokes_ogs.tif
176
     1
290
     0
176
     1
 40
1.0
176
     1
 40
1.0
176
     1
  0
VISUALSTYLE
  5
32
102
{ACAD_REACTORS
330
29
102
}
330
29
100
AcDbVisualStyle
  2
Conceptual
 70
     9
177
     3
291
     0
 70
    58
 90
        3
176
     1
 90
        2
176
     1
 90
        0
176
     1
 90
        0
176
     1
 40
0.6
176
     1
 40
30.0
176
     1
 62
     7
420
 16777215
176
     1
 90
        2
176
     1
 90
        2
176
     1
 62
     7
176
     1
 62
   257
176
     1
 90
        1
176
     1
 90
        1
176
     1
 40
179.0
176
     1
 90
        8
176
     1
 62
     7
176
     1
 40
1.0
176
     1
 90
        1
176
     1
 90
        6
176
     1
 90
        2
176
     1
 62
     7
176
     1
 90
        3
176
     1
 90
        0
176
     1
 90
        0
176
     1
290
     0
176
     1
 90
        1
176
     1
 40
0.0
176
     1
 90
        0
176
     1
290
     0
176
     1
290
     1
176
     1
290
     1
176
     1
290
     0
176
     1
290
     0
176
     1
290
     0
176
     1
290
     0
176
     1
290
     0
176
     1
290
     0
176
     1
 90
       50
176
     1
 40
0.0
176
     1
 40
1.0
176
     1
 90
        0
176
     1
 62
    18
420
        0
176
     1
 90
       50
176
     1
 90
        3
176
     1
 62
     5
420
      255
176
     1
290
     0
176
     1
 90
       50
176
     1
 90
       50
176
     1
 90
       50
176
     1
290
     0
176
     1
 90
       50
176
     1
 62
   256
176
     0
 40
1.0
176
     0
 90
        2
176
     1
  1
strokes_ogs.tif
176
     1
290
     0
176
     1
 40
1.0
176
     1
 40
1.0
176
     1
  0
VISUALSTYLE
  5
34
102
{ACAD_REACTORS
330
29
102
}
330
29
100
AcDbVisualStyle
  2
Dim
 70
    11
177
     3
291
     1
 70
    58
 90
        2
176
     1
 90
        2
176
     1
 90
        0
176
     1
 90
        0
176
     1
 40
0.6
176
     1
 40
30.0
176
     1
 62
     7
420
 16777215
176
     1
 90
        1
176
     1
 90
        4
176
     1
 62
     7
176
     1
 62
   257
176
     1
 90
        1
176
     1
 90
        1
176
     1
 40
1.0
176
     1
 90
        8
176
     1
 62
     7
176
     1
 40
1.0
176
     1
 90
        1
176
     1
 90
        6
176
     1
 90
        2
176
     1
 62
     7
176
     1
 90
        5
176
     1
 90
        0
176
     1
 90
        0
176
     1
290
     0
176
     1
 90
        1
176
     1
 40
-50.0
176
     1
 90
        0
176
     1
290
     0
176
     1
290
     1
176
     1
290
     1
176
     1
290
     0
176
     1
290
     0
176
     1
290
     0
176
     1
290
     0
176
     1
290
     0
176
     1
290
     0
176
     1
 90
       50
176
     1
 40
0.0
176
     1
 40
1.0
176
     1
 90
        0
176
     1
 62
    18
420
        0
176
     1
 90
       50
176
     1
 90
        3
176
     1
 62
     5
420
      255
176
     1
290
     0
176
     1
 90
       50
176
     1
 90
       50
176
     1
 90
       50
176
     1
290
     0
176
     1
 90
       50
176
     1
 62
   256
176
     0
 40
1.0
176
     0
 90
        2
176
     1
  1
strokes_ogs.tif
176
     1
290
     0
176
     1
 40
1.0
176
     1
 40
1.0
176
     1
  0
VISUALSTYLE
  5
41
102
{ACAD_REACTORS
330
29
102
}
330
29
100
AcDbVisualStyle
  2
EdgeColorOff
 70
    22
177
     3
291
     1
 70
    58
 90
        2
176
     0
 90
        2
176
     0
 90
        0
176
     0
 90
        0
176
     0
 40
0.6
176
     0
 40
30.0
176
     0
 62
     7
420
 16777215
176
     0
 90
        1
176
     0
 90
        4
176
     0
 62
     7
176
     0
 62
   257
176
     0
 90
        1
176
     0
 90
        1
176
     0
 40
1.0
176
     0
 90
        8
176
     2
 62
     7
176
     0
 40
1.0
176
     0
 90
        1
176
     0
 90
        6
176
     0
 90
        2
176
     0
 62
     7
176
     0
 90
        5
176
     0
 90
        0
176
     0
 90
        0
176
     0
290
     0
176
     0
 90
        1
176
     0
 40
0.0
176
     0
 90
        0
176
     0
290
     0
176
     0
290
     1
176
     0
290
     1
176
     0
290
     0
176
     0
290
     0
176
     0
290
     0
176
     1
290
     0
176
     1
290
     0
176
     1
290
     0
176
     1
 90
       50
176
     1
 40
0.0
176
     1
 40
1.0
176
     1
 90
        0
176
     1
 62
    18
420
        0
176
     1
 90
       50
176
     1
 90
        3
176
     1
 62
     5
420
      255
176
     1
290
     0
176
     1
 90
       50
176
     1
 90
       50
176
     1
 90
       50
176
     1
290
     0
176
     1
 90
       50
176
     1
 62
   256
176
     0
 40
1.0
176
     0
 90
        2
176
     1
  1
strokes_ogs.tif
176
     1
290
     0
176
     1
 40
1.0
176
     1
 40
1.0
176
     1
  0
VISUALSTYLE
  5
38
102
{ACAD_REACTORS
330
29
102
}
330
29
100
AcDbVisualStyle
  2
Facepattern
 70
    15
177
     3
291
     1
 70
    58
 90
        2
176
     1
 90
        2
176
     1
 90
        0
176
     1
 90
        0
176
     1
 40
0.6
176
     1
 40
30.0
176
     1
 62
     7
420
 16777215
176
     1
 90
        1
176
     1
 90
        4
176
     1
 62
     7
176
     1
 62
   257
176
     1
 90
        1
176
     1
 90
        1
176
     1
 40
1.0
176
     1
 90
        8
176
     1
 62
     7
176
     1
 40
1.0
176
     1
 90
        1
176
     1
 90
        6
176
     1
 90
        2
176
     1
 62
     7
176
     1
 90
        5
176
     1
 90
        0
176
     1
 90
        0
176
     1
290
     0
176
     1
 90
        1
176
     1
 40
0.0
176
     1
 90
        0
176
     1
290
     0
176
     1
290
     1
176
     1
290
     1
176
     1
290
     0
176
     1
290
     0
176
     1
290
     0
176
     1
290
     0
176
     1
290
     0
176
     1
290
     0
176
     1
 90
       50
176
     1
 40
0.0
176
     1
 40
1.0
176
     1
 90
        0
176
     1
 62
    18
420
        0
176
     1
 90
       50
176
     1
 90
        3
176
     1
 62
     5
420
      255
176
     1
290
     0
176
     1
 90
       50
176
     1
 90
       50
176
     1
 90
       50
176
     1
290
     0
176
     1
 90
       50
176
     1
 62
   256
176
     0
 40
1.0
176
     0
 90
        2
176
     1
  1
strokes_ogs.tif
176
     1
290
     0
176
     1
 40
1.0
176
     1
 40
1.0
176
     1
  0
VISUALSTYLE
  5
2A
102
{ACAD_REACTORS
330
29
102
}
330
29
100
AcDbVisualStyle
  2
Flat
 70
     0
177
     3
291
     1
 70
    58
 90
        2
176
     1
 90
        1
176
     1
 90
        1
176
     1
 90
        2
176
     1
 40
0.6
176
     1
 40
30.0
176
     1
 62
     7
420
 16777215
176
     1
 90
        0
176
     1
 90
        0
176
     1
 62
     7
176
     1
 62
   257
176
     1
 90
        1
176
     1
 90
        1
176
     1
 40
1.0
176
     1
 90
        8
176
     1
 62
     7
176
     1
 40
1.0
176
     1
 90
        1
176
     1
 90
        6
176
     1
 90
        2
176
     1
 62
     7
176
     1
 90
        5
176
     1
 90
        0
176
     1
 90
        0
176
     1
290
     0
176
     1
 90
       13
176
     1
 40
0.0
176
     1
 90
        0
176
     1
290
     0
176
     1
290
     1
176
     1
290
     1
176
     1
290
     0
176
     1
290
     0
176
     1
290
     0
176
     1
290
     0
176
     1
290
     0
176
     1
290
     0
176
     1
 90
       50
176
     1
 40
0.0
176
     1
 40
1.0
176
     1
 90
        0
176
     1
 62
    18
420
        0
176
     1
 90
       50
176
     1
 90
        3
176
     1
 62
     5
420
      255
176
     1
290
     0
176
     1
 90
       50
176
     1
 90
       50
176
     1
 90
       50
176
     1
290
     0
176
     1
 90
       50
176
     1
 62
   256
176
     0
 40
1.0
176
     0
 90
        2
176
     1
  1
strokes_ogs.tif
176
     1
290
     0
176
     1
 40
1.0
176
     1
 40
1.0
176
     1
  0
VISUALSTYLE
  5
2B
102
{ACAD_REACTORS
330
29
102
}
330
29
100
AcDbVisualStyle
  2
FlatWithEdges
 70
     1
177
     3
291
     1
 70
    58
 90
        2
176
     1
 90
        1
176
     1
 90
        1
176
     1
 90
        2
176
     1
 40
0.6
176
     1
 40
30.0
176
     1
 62
     7
420
 16777215
176
     1
 90
        1
176
     1
 90
        0
176
     1
 62
     7
176
     1
 62
   257
176
     1
 90
        1
176
     1
 90
        1
176
     1
 40
1.0
176
     1
 90
        0
176
     1
 62
   257
176
     1
 40
1.0
176
     1
 90
        1
176
     1
 90
        6
176
     1
 90
        2
176
     1
 62
     7
176
     1
 90
        5
176
     1
 90
        0
176
     1
 90
        0
176
     1
290
     0
176
     1
 90
       13
176
     1
 40
0.0
176
     1
 90
        0
176
     1
290
     0
176
     1
290
     1
176
     1
290
     1
176
     1
290
     0
176
     1
290
     0
176
     1
290
     0
176
     1
290
     0
176
     1
290
     0
176
     1
290
     0
176
     1
 90
       50
176
     1
 40
0.0
176
     1
 40
1.0
176
     1
 90
        0
176
     1
 62
    18
420
        0
176
     1
 90
       50
176
     1
 90
        3
176
     1
 62
     5
420
      255
176
     1
290
     0
176
     1
 90
       50
176
     1
 90
       50
176
     1
 90
       50
176
     1
290
     0
176
     1
 90
       50
176
     1
 62
   256
176
     0
 40
1.0
176
     0
 90
        2
176
     1
  1
strokes_ogs.tif
176
     1
290
     0
176
     1
 40
1.0
176
     1
 40
1.0
176
     1
  0
VISUALSTYLE
  5
2C
102
{ACAD_REACTORS
330
29
102
}
330
29
100
AcDbVisualStyle
  2
Gouraud
 70
     2
177
     3
291
     1
 70
    58
 90
        2
176
     1
 90
        2
176
     1
 90
        1
176
     1
 90
        2
176
     1
 40
0.6
176
     1
 40
30.0
176
     1
 62
     7
420
 16777215
176
     1
 90
        0
176
     1
 90
        0
176
     1
 62
     7
176
     1
 62
   257
176
     1
 90
        1
176
     1
 90
        1
176
     1
 40
1.0
176
     1
 90
        0
176
     1
 62
     7
176
     1
 40
1.0
176
     1
 90
        1
176
     1
 90
        6
176
     1
 90
        2
176
     1
 62
     7
176
     1
 90
        5
176
     1
 90
        0
176
     1
 90
        0
176
     1
290
     0
176
     1
 90
       13
176
     1
 40
0.0
176
     1
 90
        0
176
     1
290
     0
176
     1
290
     1
176
     1
290
     1
176
     1
290
     0
176
     1
290
     0
176
     1
290
     0
176
     1
290
     0
176
     1
290
     0
176
     1
290
     0
176
     1
 90
       50
176
     1
 40
0.0
176
     1
 40
1.0
176
     1
 90
        0
176
     1
 62
    18
420
        0
176
     1
 90
       50
176
     1
 90
        3
176
     1
 62
     5
420
      255
176
     1
290
     0
176
     1
 90
       50
176
     1
 90
       50
176
     1
 90
       50
176
     1
290
     0
176
     1
 90
       50
176
     1
 62
   256
176
     0
 40
1.0
176
     0
 90
        2
176
     1
  1
strokes_ogs.tif
176
     1
290
     0
176
     1
 40
1.0
176
     1
 40
1.0
176
     1
  0
VISUALSTYLE
  5
2D
102
{ACAD_REACTORS
330
29
102
}
330
29
100
AcDbVisualStyle
  2
GouraudWithEdges
 70
     3
177
     3
291
     1
 70
    58
 90
        2
176
     1
 90
        2
176
     1
 90
        1
176
     1
 90
        2
176
     1
 40
0.6
176
     1
 40
30.0
176
     1
 62
     7
420
 16777215
176
     1
 90
        1
176
     1
 90
        0
176
     1
 62
     7
176
     1
 62
   257
176
     1
 90
        1
176
     1
 90
        1
176
     1
 40
1.0
176
     1
 90
        0
176
     1
 62
   257
176
     1
 40
1.0
176
     1
 90
        1
176
     1
 90
        6
176
     1
 90
        2
176
     1
 62
     7
176
     1
 90
        5
176
     1
 90
        0
176
     1
 90
        0
176
     1
290
     0
176
     1
 90
       13
176
     1
 40
0.0
176
     1
 90
        0
176
     1
290
     0
176
     1
290
     1
176
     1
290
     1
176
     1
290
     0
176
     1
290
     0
176
     1
290
     0
176
     1
290
     0
176
     1
290
     0
176
     1
290
     0
176
     1
 90
       50
176
     1
 40
0.0
176
     1
 40
1.0
176
     1
 90
        0
176
     1
 62
    18
420
        0
176
     1
 90
       50
176
     1
 90
        3
176
     1
 62
     5
420
      255
176
     1
290
     0
176
     1
 90
       50
176
     1
 90
       50
176
     1
 90
       50
176
     1
290
     0
176
     1
 90
       50
176
     1
 62
   256
176
     0
 40
1.0
176
     0
 90
        2
176
     1
  1
strokes_ogs.tif
176
     1
290
     0
176
     1
 40
1.0
176
     1
 40
1.0
176
     1
  0
VISUALSTYLE
  5
31
102
{ACAD_REACTORS
330
29
102
}
330
29
100
AcDbVisualStyle
  2
Hidden
 70
     6
177
     3
291
     0
 70
    58
 90
        1
176
     1
 90
        2
176
     1
 90
        2
176
     1
 90
        0
176
     1
 40
0.6
176
     1
 40
30.0
176
     1
 62
     7
420
 16777215
176
     1
 90
        2
176
     1
 90
        2
176
     1
 62
     7
176
     1
 62
   257
176
     1
 90
        2
176
     1
 90
        1
176
     1
 40
40.0
176
     1
 90
        0
176
     1
 62
   257
176
     1
 40
1.0
176
     1
 90
        1
176
     1
 90
        6
176
     1
 90
        2
176
     1
 62
     7
176
     1
 90
        3
176
     1
 90
        0
176
     1
 90
        0
176
     1
290
     0
176
     1
 90
        1
176
     1
 40
0.0
176
     1
 90
        0
176
     1
290
     0
176
     1
290
     1
176
     1
290
     1
176
     1
290
     0
176
     1
290
     0
176
     1
290
     0
176
     1
290
     0
176
     1
290
     0
176
     1
290
     0
176
     1
 90
       50
176
     1
 40
0.0
176
     1
 40
1.0
176
     1
 90
        0
176
     1
 62
    18
420
        0
176
     1
 90
       50
176
     1
 90
        3
176
     1
 62
     5
420
      255
176
     1
290
     0
176
     1
 90
       50
176
     1
 90
       50
176
     1
 90
       50
176
     1
290
     0
176
     1
 90
       50
176
     1
 62
   256
176
     0
 40
1.0
176
     0
 90
        2
176
     1
  1
strokes_ogs.tif
176
     1
290
     0
176
     1
 40
1.0
176
     1
 40
1.0
176
     1
  0
VISUALSTYLE
  5
3F
102
{ACAD_REACTORS
330
29
102
}
330
29
100
AcDbVisualStyle
  2
JitterOff
 70
    20
177
     3
291
     1
 70
    58
 90
        2
176
     0
 90
        2
176
     0
 90
        0
176
     0
 90
        0
176
     0
 40
0.6
176
     0
 40
30.0
176
     0
 62
     7
420
 16777215
176
     0
 90
        1
176
     0
 90
        4
176
     0
 62
     7
176
     0
 62
   257
176
     0
 90
        1
176
     0
 90
        1
176
     0
 40
1.0
176
     0
 90
       10
176
     2
 62
     7
176
     0
 40
1.0
176
     0
 90
        1
176
     0
 90
        6
176
     0
 90
        2
176
     0
 62
     7
176
     0
 90
        5
176
     0
 90
        0
176
     0
 90
        0
176
     0
290
     0
176
     0
 90
        1
176
     0
 40
0.0
176
     0
 90
        0
176
     0
290
     0
176
     0
290
     1
176
     0
290
     1
176
     0
290
     0
176
     0
290
     0
176
     0
290
     0
176
     1
290
     0
176
     1
290
     0
176
     1
290
     0
176
     1
 90
       50
176
     1
 40
0.0
176
     1
 40
1.0
176
     1
 90
        0
176
     1
 62
    18
420
        0
176
     1
 90
       50
176
     1
 90
        3
176
     1
 62
     5
420
      255
176
     1
290
     0
176
     1
 90
       50
176
     1
 90
       50
176
     1
 90
       50
176
     1
290
     0
176
     1
 90
       50
176
     1
 62
   256
176
     0
 40
1.0
176
     0
 90
        2
176
     1
  1
strokes_ogs.tif
176
     1
290
     0
176
     1
 40
1.0
176
     1
 40
1.0
176
     1
  0
VISUALSTYLE
  5
37
102
{ACAD_REACTORS
330
29
102
}
330
29
100
AcDbVisualStyle
  2
Linepattern
 70
    14
177
     3
291
     1
 70
    58
 90
        2
176
     1
 90
        2
176
     1
 90
        0
176
     1
 90
        0
176
     1
 40
0.6
176
     1
 40
30.0
176
     1
 62
     7
420
 16777215
176
     1
 90
        1
176
     1
 90
        4
176
     1
 62
     7
176
     1
 62
   257
176
     1
 90
        7
176
     1
 90
        7
176
     1
 40
1.0
176
     1
 90
        8
176
     1
 62
     7
176
     1
 40
1.0
176
     1
 90
        1
176
     1
 90
        6
176
     1
 90
        2
176
     1
 62
     7
176
     1
 90
        5
176
     1
 90
        0
176
     1
 90
        0
176
     1
290
     0
176
     1
 90
        1
176
     1
 40
0.0
176
     1
 90
        0
176
     1
290
     0
176
     1
290
     1
176
     1
290
     1
176
     1
290
     0
176
     1
290
     0
176
     1
290
     0
176
     1
290
     0
176
     1
290
     0
176
     1
290
     0
176
     1
 90
       50
176
     1
 40
0.0
176
     1
 40
1.0
176
     1
 90
        0
176
     1
 62
    18
420
        0
176
     1
 90
       50
176
     1
 90
        3
176
     1
 62
     5
420
      255
176
     1
290
     0
176
     1
 90
       50
176
     1
 90
       50
176
     1
 90
       50
176
     1
290
     0
176
     1
 90
       50
176
     1
 62
   256
176
     0
 40
1.0
176
     0
 90
        2
176
     1
  1
strokes_ogs.tif
176
     1
290
     0
176
     1
 40
1.0
176
     1
 40
1.0
176
     1
  0
VISUALSTYLE
  5
40
102
{ACAD_REACTORS
330
29
102
}
330
29
100
AcDbVisualStyle
  2
OverhangOff
 70
    21
177
     3
291
     1
 70
    58
 90
        2
176
     0
 90
        2
176
     0
 90
        0
176
     0
 90
        0
176
     0
 40
0.6
176
     0
 40
30.0
176
     0
 62
     7
420
 16777215
176
     0
 90
        1
176
     0
 90
        4
176
     0
 62
     7
176
     0
 62
   257
176
     0
 90
        1
176
     0
 90
        1
176
     0
 40
1.0
176
     0
 90
        9
176
     2
 62
     7
176
     0
 40
1.0
176
     0
 90
        1
176
     0
 90
        6
176
     0
 90
        2
176
     0
 62
     7
176
     0
 90
        5
176
     0
 90
        0
176
     0
 90
        0
176
     0
290
     0
176
     0
 90
        1
176
     0
 40
0.0
176
     0
 90
        0
176
     0
290
     0
176
     0
290
     1
176
     0
290
     1
176
     0
290
     0
176
     0
290
     0
176
     0
290
     0
176
     1
290
     0
176
     1
290
     0
176
     1
290
     0
176
     1
 90
       50
176
     1
 40
0.0
176
     1
 40
1.0
176
     1
 90
        0
176
     1
 62
    18
420
        0
176
     1
 90
       50
176
     1
 90
        3
176
     1
 62
     5
420
      255
176
     1
290
     0
176
     1
 90
       50
176
     1
 90
       50
176
     1
 90
       50
176
     1
290
     0
176
     1
 90
       50
176
     1
 62
   256
176
     0
 40
1.0
176
     0
 90
        2
176
     1
  1
strokes_ogs.tif
176
     1
290
     0
176
     1
 40
1.0
176
     1
 40
1.0
176
     1
  0
VISUALSTYLE
  5
33
102
{ACAD_REACTORS
330
29
102
}
330
29
100
AcDbVisualStyle
  2
Realistic
 70
     8
177
     3
291
     0
 70
    58
 90
        2
176
     1
 90
        2
176
     1
 90
        0
176
     1
 90
        2
176
     1
 40
0.6
176
     1
 40
30.0
176
     1
 62
     7
420
 16777215
176
     1
 90
        0
176
     1
 90
        0
176
     1
 62
     7
176
     1
 62
   257
176
     1
 90
        1
176
     1
 90
        1
176
     1
 40
1.0
176
     1
 90
        8
176
     1
 62
   257
176
     1
 40
1.0
176
     1
 90
        1
176
     1
 90
        6
176
     1
 90
        2
176
     1
 62
     7
176
     1
 90
        3
176
     1
 90
        0
176
     1
 90
        0
176
     1
290
     0
176
     1
 90
       13
176
     1
 40
0.0
176
     1
 90
        0
176
     1
290
     0
176
     1
290
     1
176
     1
290
     1
176
     1
290
     0
176
     1
290
     0
176
     1
290
     0
176
     1
290
     0
176
     1
290
     0
176
     1
290
     0
176
     1
 90
       50
176
     1
 40
0.0
176
     1
 40
1.0
176
     1
 90
        0
176
     1
 62
    18
420
        0
176
     1
 90
       50
176
     1
 90
        3
176
     1
 62
     5
420
      255
176
     1
290
     0
176
     1
 90
       50
176
     1
 90
       50
176
     1
 90
       50
176
     1
290
     0
176
     1
 90
       50
176
     1
 62
   256
176
     0
 40
1.0
176
     0
 90
        2
176
     1
  1
strokes_ogs.tif
176
     1
290
     0
176
     1
 40
1.0
176
     1
 40
1.0
176
     1
  0
VISUALSTYLE
  5
3E
102
{ACAD_REACTORS
330
29
102
}
330
29
100
AcDbVisualStyle
  2
Shaded
 70
    27
177
     3
291
     0
 70
    58
 90
        2
176
     1
 90
        2
176
     1
 90
        1
176
     1
 90
        2
176
     1
 40
0.6
176
     1
 40
30.0
176
     1
 62
     7
420
 16777215
176
     1
 90
        0
176
     1
 90
        4
176
     1
 62
     7
176
     1
 62
   257
176
     1
 90
        1
176
     1
 90
        1
176
     1
 40
1.0
176
     1
 90
        8
176
     1
 62
   257
176
     1
 40
1.0
176
     1
 90
        1
176
     1
 90
        6
176
     1
 90
        2
176
     1
 62
     8
420
  7895160
176
     1
 90
        3
176
     1
 90
        0
176
     1
 90
        0
176
     1
290
     0
176
     1
 90
        5
176
     1
 40
0.0
176
     1
 90
        0
176
     1
290
     0
176
     1
290
     1
176
     1
290
     1
176
     1
290
     0
176
     1
290
     0
176
     1
290
     0
176
     1
290
     0
176
     1
290
     0
176
     1
290
     0
176
     1
 90
       50
176
     1
 40
0.0
176
     1
 40
1.0
176
     1
 90
        0
176
     1
 62
    18
420
        0
176
     1
 90
       50
176
     1
 90
        3
176
     1
 62
     5
420
      255
176
     1
290
     0
176
     1
 90
       50
176
     1
 90
       50
176
     1
 90
       50
176
     1
290
     0
176
     1
 90
       50
176
     1
 62
   256
176
     0
 40
1.0
176
     0
 90
        2
176
     1
  1
strokes_ogs.tif
176
     1
290
     0
176
     1
 40
1.0
176
     1
 40
1.0
176
     1
  0
VISUALSTYLE
  5
3D
102
{ACAD_REACTORS
330
29
102
}
330
29
100
AcDbVisualStyle
  2
Shaded with edges
 70
    26
177
     3
291
     0
 70
    58
 90
        2
176
     1
 90
        2
176
     1
 90
        1
176
     1
 90
        2
176
     1
 40
0.6
176
     1
 40
30.0
176
     1
 62
     7
420
 16777215
176
     1
 90
        1
176
     1
 90
       10
176
     1
 62
     7
176
     1
 62
   257
176
     1
 90
        2
176
     1
 90
        1
176
     1
 40
1.0
176
     1
 90
        8
176
     1
 62
   257
176
     1
 40
1.0
176
     1
 90
        1
176
     1
 90
        6
176
     1
 90
        2
176
     1
 62
     7
176
     1
 90
        3
176
     1
 90
        0
176
     1
 90
        0
176
     1
290
     0
176
     1
 90
        5
176
     1
 40
0.0
176
     1
 90
        0
176
     1
290
     0
176
     1
290
     1
176
     1
290
     1
176
     1
290
     0
176
     1
290
     0
176
     1
290
     0
176
     1
290
     0
176
     1
290
     0
176
     1
290
     0
176
     1
 90
       50
176
     1
 40
0.0
176
     1
 40
1.0
176
     1
 90
        0
176
     1
 62
    18
420
        0
176
     1
 90
       50
176
     1
 90
        3
176
     1
 62
     5
420
      255
176
     1
290
     0
176
     1
 90
       50
176
     1
 90
       50
176
     1
 90
       50
176
     1
290
     0
176
     1
 90
       50
176
     1
 62
   256
176
     0
 40
1.0
176
     0
 90
        2
176
     1
  1
strokes_ogs.tif
176
     1
290
     0
176
     1
 40
1.0
176
     1
 40
1.0
176
     1
  0
VISUALSTYLE
  5
3A
102
{ACAD_REACTORS
330
29
102
}
330
29
100
AcDbVisualStyle
  2
Shades of Gray
 70
    23
177
     3
291
     0
 70
    58
 90
        2
176
     1
 90
        2
176
     1
 90
        3
176
     1
 90
        0
176
     1
 40
0.6
176
     1
 40
30.0
176
     1
 62
     7
420
 16777215
176
     1
 90
        2
176
     1
 90
        2
176
     1
 62
     7
176
     1
 62
     7
176
     1
 90
        1
176
     1
 90
        1
176
     1
 40
40.0
176
     1
 90
        8
176
     1
 62
     7
176
     1
 40
1.0
176
     1
 90
        1
176
     1
 90
        6
176
     1
 90
        2
176
     1
 62
     7
176
     1
 90
        3
176
     1
 90
        0
176
     1
 90
        0
176
     1
290
     0
176
     1
 90
        1
176
     1
 40
0.0
176
     1
 90
        0
176
     1
290
     0
176
     1
290
     1
176
     1
290
     1
176
     1
290
     0
176
     1
290
     0
176
     1
290
     0
176
     1
290
     0
176
     1
290
     0
176
     1
290
     0
176
     1
 90
       50
176
     1
 40
0.0
176
     1
 40
1.0
176
     1
 90
        0
176
     1
 62
    18
420
        0
176
     1
 90
       50
176
     1
 90
        3
176
     1
 62
     5
420
      255
176
     1
290
     0
176
     1
 90
       50
176
     1
 90
       50
176
     1
 90
       50
176
     1
290
     0
176
     1
 90
       50
176
     1
 62
   256
176
     0
 40
1.0
176
     0
 90
        2
176
     1
  1
strokes_ogs.tif
176
     1
290
     0
176
     1
 40
1.0
176
     1
 40
1.0
176
     1
  0
VISUALSTYLE
  5
3B
102
{ACAD_REACTORS
330
29
102
}
330
29
100
AcDbVisualStyle
  2
Sketchy
 70
    24
177
     3
291
     0
 70
    58
 90
        1
176
     1
 90
        2
176
     1
 90
        2
176
     1
 90
        0
176
     1
 40
0.6
176
     1
 40
30.0
176
     1
 62
     7
420
 16777215
176
     1
 90
        2
176
     1
 90
        2
176
     1
 62
     7
176
     1
 62
     7
176
     1
 90
        1
176
     1
 90
        1
176
     1
 40
40.0
176
     1
 90
       11
176
     1
 62
     7
176
     1
 40
1.0
176
     1
 90
        1
176
     1
 90
        6
176
     1
 90
        2
176
     1
 62
     7
176
     1
 90
        6
176
     1
 90
        0
176
     1
 90
        0
176
     1
290
     0
176
     1
 90
        1
176
     1
 40
0.0
176
     1
 90
        0
176
     1
290
     0
176
     1
290
     1
176
     1
290
     1
176
     1
290
     0
176
     1
290
     0
176
     1
290
     0
176
     1
290
     0
176
     1
290
     0
176
     1
290
     0
176
     1
 90
       50
176
     1
 40
0.0
176
     1
 40
1.0
176
     1
 90
        0
176
     1
 62
    18
420
        0
176
     1
 90
       50
176
     1
 90
        3
176
     1
 62
     5
420
      255
176
     1
290
     0
176
     1
 90
       50
176
     1
 90
       50
176
     1
 90
       50
176
     1
290
     0
176
     1
 90
       50
176
     1
 62
   256
176
     0
 40
1.0
176
     0
 90
        2
176
     1
  1
strokes_ogs.tif
176
     1
290
     0
176
     1
 40
1.0
176
     1
 40
1.0
176
     1
  0
VISUALSTYLE
  5
36
102
{ACAD_REACTORS
330
29
102
}
330
29
100
AcDbVisualStyle
  2
Thicken
 70
    13
177
     3
291
     1
 70
    58
 90
        2
176
     1
 90
        2
176
     1
 90
        0
176
     1
 90
        0
176
     1
 40
0.6
176
     1
 40
30.0
176
     1
 62
     7
420
 16777215
176
     1
 90
        1
176
     1
 90
        4
176
     1
 62
     7
176
     1
 62
   257
176
     1
 90
        1
176
     1
 90
        1
176
     1
 40
1.0
176
     1
 90
       12
176
     1
 62
     7
176
     1
 40
1.0
176
     1
 90
        1
176
     1
 90
        6
176
     1
 90
        2
176
     1
 62
     7
176
     1
 90
        5
176
     1
 90
        0
176
     1
 90
        0
176
     1
290
     0
176
     1
 90
        1
176
     1
 40
0.0
176
     1
 90
        0
176
     1
290
     0
176
     1
290
     1
176
     1
290
     1
176
     1
290
     0
176
     1
290
     0
176
     1
290
     0
176
     1
290
     0
176
     1
290
     0
176
     1
290
     0
176
     1
 90
       50
176
     1
 40
0.0
176
     1
 40
1.0
176
     1
 90
        0
176
     1
 62
    18
420
        0
176
     1
 90
       50
176
     1
 90
        3
176
     1
 62
     5
420
      255
176
     1
290
     0
176
     1
 90
       50
176
     1
 90
       50
176
     1
 90
       50
176
     1
290
     0
176
     1
 90
       50
176
     1
 62
   256
176
     0
 40
1.0
176
     0
 90
        2
176
     1
  1
strokes_ogs.tif
176
     1
290
     0
176
     1
 40
1.0
176
     1
 40
1.0
176
     1
  0
VISUALSTYLE
  5
30
102
{ACAD_REACTORS
330
29
102
}
330
29
100
AcDbVisualStyle
  2
Wireframe
 70
     5
177
     3
291
     0
 70
    58
 90
        0
176
     1
 90
        2
176
     1
 90
        0
176
     1
 90
        0
176
     1
 40
0.6
176
     1
 40
30.0
176
     1
 62
     7
420
 16777215
176
     1
 90
        1
176
     1
 90
        4
176
     1
 62
     7
176
     1
 62
   257
176
     1
 90
        1
176
     1
 90
        1
176
     1
 40
1.0
176
     1
 90
        0
176
     1
 62
   257
176
     1
 40
1.0
176
     1
 90
        1
176
     1
 90
        6
176
     1
 90
        2
176
     1
 62
     7
176
     1
 90
        3
176
     1
 90
        0
176
     1
 90
        0
176
     1
290
     0
176
     1
 90
        1
176
     1
 40
0.0
176
     1
 90
        0
176
     1
290
     0
176
     1
290
     1
176
     1
290
     1
176
     1
290
     0
176
     1
290
     0
176
     1
290
     0
176
     1
290
     0
176
     1
290
     0
176
     1
290
     0
176
     1
 90
       50
176
     1
 40
0.0
176
     1
 40
1.0
176
     1
 90
        0
176
     1
 62
    18
420
        0
176
     1
 90
       50
176
     1
 90
        3
176
     1
 62
     5
420
      255
176
     1
290
     0
176
     1
 90
       50
176
     1
 90
       50
176
     1
 90
       50
176
     1
290
     0
176
     1
 90
       50
176
     1
 62
   256
176
     0
 40
1.0
176
     0
 90
        2
176
     1
  1
strokes_ogs.tif
176
     1
290
     0
176
     1
 40
1.0
176
     1
 40
1.0
176
     1
  0
VISUALSTYLE
  5
3C
102
{ACAD_REACTORS
330
29
102
}
330
29
100
AcDbVisualStyle
  2
X-Ray
 70
    25
177
     3
291
     0
 70
    58
 90
        2
176
     1
 90
        2
176
     1
 90
        1
176
     1
 90
        1
176
     1
 40
0.5
176
     1
 40
30.0
176
     1
 62
     7
420
 16777215
176
     1
 90
        1
176
     1
 90
        0
176
     1
 62
     7
176
     1
 62
   257
176
     1
 90
        1
176
     1
 90
        1
176
     1
 40
1.0
176
     1
 90
        8
176
     1
 62
     7
176
     1
 40
1.0
176
     1
 90
        1
176
     1
 90
        6
176
     1
 90
        2
176
     1
 62
     7
176
     1
 90
        3
176
     1
 90
        0
176
     1
 90
        0
176
     1
290
     0
176
     1
 90
       13
176
     1
 40
0.0
176
     1
 90
        0
176
     1
290
     0
176
     1
290
     1
176
     1
290
     1
176
     1
290
     0
176
     1
290
     0
176
     1
290
     0
176
     1
290
     0
176
     1
290
     0
176
     1
290
     0
176
     1
 90
       50
176
     1
 40
0.0
176
     1
 40
1.0
176
     1
 90
        0
176
     1
 62
    18
420
        0
176
     1
 90
       50
176
     1
 90
        3
176
     1
 62
     5
420
      255
176
     1
290
     0
176
     1
 90
       50
176
     1
 90
       50
176
     1
 90
       50
176
     1
290
     0
176
     1
 90
       50
176
     1
 62
   256
176
     0
 40
1.0
176
     0
 90
        2
176
     1
  1
strokes_ogs.tif
176
     1
290
     0
176
     1
 40
1.0
176
     1
 40
1.0
176
     1
  0
DICTIONARYVAR
  5
45D
102
{ACAD_REACTORS
330
459
102
}
330
459
100
DictionaryVariables
280
     0
  1
1:5
  0
DICTIONARYVAR
  5
45B
102
{ACAD_REACTORS
330
459
102
}
330
459
100
DictionaryVariables
280
     0
  1
STANDARD
  0
DICTIONARYVAR
  5
45A
102
{ACAD_REACTORS
330
459
102
}
330
459
100
DictionaryVariables
280
     0
  1
STANDARD
  0
DICTIONARYVAR
  5
52F
102
{ACAD_REACTORS
330
459
102
}
330
459
100
DictionaryVariables
280
     0
  1
Metric50
  0
DICTIONARYVAR
  5
530
102
{ACAD_REACTORS
330
459
102
}
330
459
100
DictionaryVariables
280
     0
  1
Metric50
  0
DICTIONARYVAR
  5
45F
102
{ACAD_REACTORS
330
459
102
}
330
459
100
DictionaryVariables
280
     0
  1
1
  0
DICTIONARYVAR
  5
460
102
{ACAD_REACTORS
330
459
102
}
330
459
100
DictionaryVariables
280
     0
  1
15
  0
DICTIONARYVAR
  5
45E
102
{ACAD_REACTORS
330
459
102
}
330
459
100
DictionaryVariables
280
     0
  1
0
  0
DICTIONARYVAR
  5
45C
102
{ACAD_REACTORS
330
459
102
}
330
459
100
DictionaryVariables
280
     0
  1
0
  0
DICTIONARY
  5
11D
102
{ACAD_REACTORS
330
116
102
}
330
116
100
AcDbDictionary
281
     1
  0
DICTIONARY
  5
125
102
{ACAD_REACTORS
330
116
102
}
330
116
100
AcDbDictionary
281
     1
  0
XRECORD
  5
24C
102
{ACAD_REACTORS
330
116
102
}
330
116
100
AcDbXrecord
280
     1
 90
-1023410169
  0
XRECORD
  5
1DF2
102
{ACAD_REACTORS
330
1DD1
102
}
330
1DD1
100
AcDbXrecord
280
     1
 90
        0
302
{
302
{
300
MatBom2.0.1.
301
PS!ACADMPP!PV!20.1s (LMS Tech)!AVMa!2!AVMi!0!AVBu!0
303
}
303
}
  0
XRECORD
  5
1935
102
{ACAD_REACTORS
330
1934
102
}
330
1934
100
AcDbXrecord
280
     1
  0
DICTIONARY
  5
1990
330
198F
100
AcDbDictionary
280
     1
281
     1
  3
ACAD_FIELD
360
1991
  3
ACAD_XREC_ROUNDTRIP
360
209E
  0
DICTIONARY
  5
55C
330
55B
100
AcDbDictionary
280
     1
281
     1
  3
ACAD_FIELD
360
55D
  3
ACAD_XREC_ROUNDTRIP
360
209B
  0
DICTIONARY
  5
1997
330
1996
100
AcDbDictionary
280
     1
281
     1
  3
ACAD_XREC_ROUNDTRIP
360
209F
  0
DICTIONARY
  5
52A
330
4BA
100
AcDbDictionary
280
     1
281
     1
  3
ACAD_XREC_ROUNDTRIP
360
2099
  0
DICTIONARY
  5
424
330
6E
100
AcDbDictionary
280
     1
281
     1
  0
DICTIONARY
  5
1A
330
19
100
AcDbDictionary
280
     1
281
     1
  3
BUMPTILE
360
1C
  3
DIFFUSETILE
360
1B
  3
OPACITYTILE
360
1F
  3
REFLECTIONTILE
360
1E
  3
REFRACTIONTILE
360
20
  3
SPECULARTILE
360
1D
  0
DICTIONARY
  5
12
330
11
100
AcDbDictionary
280
     1
281
     1
  3
BUMPTILE
360
14
  3
DIFFUSETILE
360
13
  3
OPACITYTILE
360
17
  3
REFLECTIONTILE
360
16
  3
REFRACTIONTILE
360
18
  3
SPECULARTILE
360
15
  0
DICTIONARY
  5
22
330
21
100
AcDbDictionary
280
     1
281
     1
  3
BUMPTILE
360
24
  3
DIFFUSETILE
360
23
  3
OPACITYTILE
360
27
  3
REFLECTIONTILE
360
26
  3
REFRACTIONTILE
360
28
  3
SPECULARTILE
360
25
  0
DICTIONARY
  5
1988
330
1987
100
AcDbDictionary
280
     1
281
     1
  3
ACAD_FIELD
360
1989
  3
ACAD_XREC_ROUNDTRIP
360
209C
  0
DICTIONARY
  5
556
330
555
100
AcDbDictionary
280
     1
281
     1
  3
ACAD_FIELD
360
557
  3
ACAD_XREC_ROUNDTRIP
360
209A
  0
DICTIONARY
  5
198E
330
198D
100
AcDbDictionary
280
     1
281
     1
  3
ACAD_XREC_ROUNDTRIP
360
209D
  0
DICTIONARY
  5
528
330
4B8
100
AcDbDictionary
280
     1
281
     1
  3
ACAD_XREC_ROUNDTRIP
360
2098
  0
DICTIONARY
  5
426
330
64
100
AcDbDictionary
280
     1
281
     1
  3
ACAD_ROUNDTRIP_2008_TABLESTYLE_CELLSTYLEMAP
360
2097
  0
DICTIONARY
  5
1991
102
{ACAD_REACTORS
330
1990
102
}
330
1990
100
AcDbDictionary
280
     1
281
     1
  3
TEXT
360
1992
  0
XRECORD
  5
209E
102
{ACAD_REACTORS
330
1990
102
}
330
1990
100
AcDbXrecord
280
     1
102
DISPLAYNAME
  1
ASME Y14.35 - 1987
102
FLAGS
 90
        0
  0
DICTIONARY
  5
55D
102
{ACAD_REACTORS
330
55C
102
}
330
55C
100
AcDbDictionary
280
     1
281
     1
  3
TEXT
360
55E
  0
XRECORD
  5
209B
102
{ACAD_REACTORS
330
55C
102
}
330
55C
100
AcDbXrecord
280
     1
102
DISPLAYNAME
  1
DIN 6
102
FLAGS
 90
        0
  0
XRECORD
  5
209F
102
{ACAD_REACTORS
330
1997
102
}
330
1997
100
AcDbXrecord
280
     1
102
DISPLAYNAME
  1
Imperial24
102
FLAGS
 90
        0
  0
XRECORD
  5
2099
102
{ACAD_REACTORS
330
52A
102
}
330
52A
100
AcDbXrecord
280
     1
102
DISPLAYNAME
  1
Metric50
102
FLAGS
 90
        0
  0
XRECORD
  5
1C
102
{ACAD_REACTORS
330
1A
102
}
330
1A
100
AcDbXrecord
280
     1
270
     1
271
     1
  0
XRECORD
  5
1B
102
{ACAD_REACTORS
330
1A
102
}
330
1A
100
AcDbXrecord
280
     1
270
     1
271
     1
  0
XRECORD
  5
1F
102
{ACAD_REACTORS
330
1A
102
}
330
1A
100
AcDbXrecord
280
     1
270
     1
271
     1
  0
XRECORD
  5
1E
102
{ACAD_REACTORS
330
1A
102
}
330
1A
100
AcDbXrecord
280
     1
270
     1
271
     1
  0
XRECORD
  5
20
102
{ACAD_REACTORS
330
1A
102
}
330
1A
100
AcDbXrecord
280
     1
270
     1
271
     1
  0
XRECORD
  5
1D
102
{ACAD_REACTORS
330
1A
102
}
330
1A
100
AcDbXrecord
280
     1
270
     1
271
     1
  0
XRECORD
  5
14
102
{ACAD_REACTORS
330
12
102
}
330
12
100
AcDbXrecord
280
     1
270
     1
271
     1
  0
XRECORD
  5
13
102
{ACAD_REACTORS
330
12
102
}
330
12
100
AcDbXrecord
280
     1
270
     1
271
     1
  0
XRECORD
  5
17
102
{ACAD_REACTORS
330
12
102
}
330
12
100
AcDbXrecord
280
     1
270
     1
271
     1
  0
XRECORD
  5
16
102
{ACAD_REACTORS
330
12
102
}
330
12
100
AcDbXrecord
280
     1
270
     1
271
     1
  0
XRECORD
  5
18
102
{ACAD_REACTORS
330
12
102
}
330
12
100
AcDbXrecord
280
     1
270
     1
271
     1
  0
XRECORD
  5
15
102
{ACAD_REACTORS
330
12
102
}
330
12
100
AcDbXrecord
280
     1
270
     1
271
     1
  0
XRECORD
  5
24
102
{ACAD_REACTORS
330
22
102
}
330
22
100
AcDbXrecord
280
     1
270
     1
271
     1
  0
XRECORD
  5
23
102
{ACAD_REACTORS
330
22
102
}
330
22
100
AcDbXrecord
280
     1
270
     1
271
     1
  0
XRECORD
  5
27
102
{ACAD_REACTORS
330
22
102
}
330
22
100
AcDbXrecord
280
     1
270
     1
271
     1
  0
XRECORD
  5
26
102
{ACAD_REACTORS
330
22
102
}
330
22
100
AcDbXrecord
280
     1
270
     1
271
     1
  0
XRECORD
  5
28
102
{ACAD_REACTORS
330
22
102
}
330
22
100
AcDbXrecord
280
     1
270
     1
271
     1
  0
XRECORD
  5
25
102
{ACAD_REACTORS
330
22
102
}
330
22
100
AcDbXrecord
280
     1
270
     1
271
     1
  0
DICTIONARY
  5
1989
102
{ACAD_REACTORS
330
1988
102
}
330
1988
100
AcDbDictionary
280
     1
281
     1
  3
TEXT
360
198A
  0
XRECORD
  5
209C
102
{ACAD_REACTORS
330
1988
102
}
330
1988
100
AcDbXrecord
280
     1
102
DISPLAYNAME
  1
ASME Y14.3 - 2003
102
FLAGS
 90
        0
  0
DICTIONARY
  5
557
102
{ACAD_REACTORS
330
556
102
}
330
556
100
AcDbDictionary
280
     1
281
     1
  3
TEXT
360
558
  0
XRECORD
  5
209A
102
{ACAD_REACTORS
330
556
102
}
330
556
100
AcDbXrecord
280
     1
102
DISPLAYNAME
  1
DIN ISO 128-40:2002-05
102
FLAGS
 90
        0
  0
XRECORD
  5
209D
102
{ACAD_REACTORS
330
198E
102
}
330
198E
100
AcDbXrecord
280
     1
102
DISPLAYNAME
  1
Imperial24
102
FLAGS
 90
        0
  0
XRECORD
  5
2098
102
{ACAD_REACTORS
330
528
102
}
330
528
100
AcDbXrecord
280
     1
102
DISPLAYNAME
  1
Metric50
102
FLAGS
 90
        0
  0
CELLSTYLEMAP
  5
2097
102
{ACAD_REACTORS
330
426
102
}
330
426
100
AcDbCellStyleMap
 90
        3
300
CELLSTYLE
  1
TABLEFORMAT_BEGIN
 90
        5
170
     1
 91
        0
 92
    32768
 62
   257
 93
        1
300
CONTENTFORMAT
  1
CONTENTFORMAT_BEGIN
 90
        0
 91
        0
 92
      512
 93
        0
300

 40
0.0
140
1.0
 94
        5
 62
     0
340
55
144
0.25
309
CONTENTFORMAT_END
171
     0
 94
        0
309
TABLEFORMAT_END
  1
CELLSTYLE_BEGIN
 90
        1
 91
        1
300
_TITLE
309
CELLSTYLE_END
300
CELLSTYLE
  1
TABLEFORMAT_BEGIN
 90
        5
170
     1
 91
        0
 92
        0
 62
   257
 93
        1
300
CONTENTFORMAT
  1
CONTENTFORMAT_BEGIN
 90
        0
 91
        0
 92
      512
 93
        0
300

 40
0.0
140
1.0
 94
        5
 62
     0
340
55
144
0.18
309
CONTENTFORMAT_END
171
     0
 94
        0
309
TABLEFORMAT_END
  1
CELLSTYLE_BEGIN
 90
        2
 91
        1
300
_HEADER
309
CELLSTYLE_END
300
CELLSTYLE
  1
TABLEFORMAT_BEGIN
 90
        5
170
     1
 91
        0
 92
        0
 62
   257
 93
        1
300
CONTENTFORMAT
  1
CONTENTFORMAT_BEGIN
 90
        0
 91
        0
 92
      512
 93
        0
300

 40
0.0
140
1.0
 94
        2
 62
     0
340
55
144
0.18
309
CONTENTFORMAT_END
171
     0
 94
        0
309
TABLEFORMAT_END
  1
CELLSTYLE_BEGIN
 90
        3
 91
        2
300
_DATA
309
CELLSTYLE_END
  0
FIELD
  5
1992
102
{ACAD_REACTORS
330
1991
102
}
330
1991
100
AcDbField
  1
_text
  2
%<\_FldIdx 0>% %<\_FldIdx 1>%\PSCALE %<\_FldIdx 2>%
 90
        3
360
1993
360
1994
360
1995
 97
        0
 91
       63
 92
        0
 94
        9
 95
        2
 96
        0
300

 93
        0
  7
ACFD_FIELD_VALUE
 93
        3
 90
        0
 94
        0
300

302

304
ACVALUE_END
301

 98
        0
  0
FIELD
  5
55E
102
{ACAD_REACTORS
330
55D
102
}
330
55D
100
AcDbField
  1
_text
  2
%<\_FldIdx 0>% %<\_FldIdx 1>%
 90
        2
360
55F
360
560
 97
        0
 91
       63
 92
        0
 94
        9
 95
        2
 96
        0
300

 93
        0
  7
ACFD_FIELD_VALUE
 93
        3
 90
        0
 94
        0
300

302

304
ACVALUE_END
301

 98
        0
  0
FIELD
  5
198A
102
{ACAD_REACTORS
330
1989
102
}
330
1989
100
AcDbField
  1
_text
  2
SECTION %<\_FldIdx 0>%-%<\_FldIdx 1>%
 90
        2
360
198B
360
198C
 97
        0
 91
       63
 92
        0
 94
        9
 95
        2
 96
        0
300

 93
        0
  7
ACFD_FIELD_VALUE
 93
        3
 90
        0
 94
        0
300

302

304
ACVALUE_END
301

 98
        0
  0
FIELD
  5
558
102
{ACAD_REACTORS
330
557
102
}
330
557
100
AcDbField
  1
_text
  2
%<\_FldIdx 0>%-%<\_FldIdx 1>%
 90
        2
360
559
360
55A
 97
        0
 91
       63
 92
        0
 94
        9
 95
        2
 96
        0
300

 93
        0
  7
ACFD_FIELD_VALUE
 93
        3
 90
        0
 94
        0
300

302

304
ACVALUE_END
301

 98
        0
  0
FIELD
  5
1993
330
1992
100
AcDbField
  1
AcVar
  2
\AcVar ViewType \f "%tc1"
 90
        0
 97
        0
 91
       63
 92
        0
 94
       43
 95
        2
 96
        0
300

 93
        1
  6
Variable
 93
        2
 90
        4
  1
ViewType
 94
        0
300

302

304
ACVALUE_END
  7
ACFD_FIELD_VALUE
 93
        1
 90
        0
 94
        0
300
%tc1
302

304
ACVALUE_END
301
----
 98
        4
  0
FIELD
  5
1994
330
1992
100
AcDbField
  1
AcVar
  2
\AcVar ViewDetailId
 90
        0
 97
        0
 91
       63
 92
        0
 94
       43
 95
        2
 96
        0
300

 93
        1
  6
Variable
 93
        2
 90
        4
  1
ViewDetailId
 94
        0
300

302

304
ACVALUE_END
  7
ACFD_FIELD_VALUE
 93
        1
 90
        0
 94
        0
300

302

304
ACVALUE_END
301
----
 98
        4
  0
FIELD
  5
1995
330
1992
100
AcDbField
  1
AcVar
  2
\AcVar ViewScale \f "%sn"
 90
        0
 97
        0
 91
       63
 92
        0
 94
       43
 95
        2
 96
        0
300

 93
        1
  6
Variable
 93
        2
 90
        4
  1
ViewScale
 94
        0
300

302

304
ACVALUE_END
  7
ACFD_FIELD_VALUE
 93
        1
 90
        0
 94
        0
300
%sn
302

304
ACVALUE_END
301
----
 98
        4
  0
FIELD
  5
55F
330
55E
100
AcDbField
  1
AcVar
  2
\AcVar ViewDetailId
 90
        0
 97
        0
 91
       63
 92
        0
 94
       43
 95
        2
 96
        0
300

 93
        1
  6
Variable
 93
        2
 90
        4
  1
ViewDetailId
 94
        0
300

302

304
ACVALUE_END
  7
ACFD_FIELD_VALUE
 93
        1
 90
        0
 94
        0
300

302

304
ACVALUE_END
301
----
 98
        4
  0
FIELD
  5
560
330
55E
100
AcDbField
  1
AcVar
  2
\AcVar ViewScale \f "%sn"
 90
        0
 97
        0
 91
       63
 92
        0
 94
       43
 95
        2
 96
        0
300

 93
        1
  6
Variable
 93
        2
 90
        4
  1
ViewScale
 94
        0
300

302

304
ACVALUE_END
  7
ACFD_FIELD_VALUE
 93
        1
 90
        0
 94
        0
300
%sn
302

304
ACVALUE_END
301
----
 98
        4
  0
FIELD
  5
198B
330
198A
100
AcDbField
  1
AcVar
  2
\AcVar ViewSectionStartId
 90
        0
 97
        0
 91
       63
 92
        0
 94
       43
 95
        2
 96
        0
300

 93
        1
  6
Variable
 93
        2
 90
        4
  1
ViewSectionStartId
 94
        0
300

302

304
ACVALUE_END
  7
ACFD_FIELD_VALUE
 93
        1
 90
        0
 94
        0
300

302

304
ACVALUE_END
301
----
 98
        4
  0
FIELD
  5
198C
330
198A
100
AcDbField
  1
AcVar
  2
\AcVar ViewSectionEndId
 90
        0
 97
        0
 91
       63
 92
        0
 94
       43
 95
        2
 96
        0
300

 93
        1
  6
Variable
 93
        2
 90
        4
  1
ViewSectionEndId
 94
        0
300

302

304
ACVALUE_END
  7
ACFD_FIELD_VALUE
 93
        1
 90
        0
 94
        0
300

302

304
ACVALUE_END
301
----
 98
        4
  0
FIELD
  5
559
330
558
100
AcDbField
  1
AcVar
  2
\AcVar ViewSectionStartId
 90
        0
 97
        0
 91
       63
 92
        0
 94
       43
 95
        2
 96
        0
300

 93
        1
  6
Variable
 93
        2
 90
        4
  1
ViewSectionStartId
 94
        0
300

302

304
ACVALUE_END
  7
ACFD_FIELD_VALUE
 93
        1
 90
        0
 94
        0
300

302

304
ACVALUE_END
301
----
 98
        4
  0
FIELD
  5
55A
330
558
100
AcDbField
  1
AcVar
  2
\AcVar ViewSectionEndId
 90
        0
 97
        0
 91
       63
 92
        0
 94
       43
 95
        2
 96
        0
300

 93
        1
  6
Variable
 93
        2
 90
        4
  1
ViewSectionEndId
 94
        0
300

302

304
ACVALUE_END
  7
ACFD_FIELD_VALUE
 93
        1
 90
        0
 94
        0
300

302

304
ACVALUE_END
301
----
 98
        4
  0
ENDSEC
  0
SECTION
  2
ACDSDATA
 70
     2
 71
     8
  0
ACDSSCHEMA
 90
        0
  1
AcDb_Thumbnail_Schema
  2
AcDbDs::ID
280
    10
 91
        8
  2
Thumbnail_Data
280
    15
 91
        0
101
ACDSRECORD
 95
        0
 90
        1
  2
AcDbDs::TreatedAsObjectData
280
     1
291
     1
101
ACDSRECORD
 95
        0
 90
        2
  2
AcDbDs::Legacy
280
     1
291
     1
101
ACDSRECORD
  1
AcDbDs::ID
 90
        3
  2
AcDs:Indexable
280
     1
291
     1
101
ACDSRECORD
  1
AcDbDs::ID
 90
        4
  2
AcDbDs::HandleAttribute
280
     7
282
     1
  0
ACDSSCHEMA
 90
        1
  1
AcDbDs::TreatedAsObjectDataSchema
  2
AcDbDs::TreatedAsObjectData
280
     1
 91
        0
  0
ACDSSCHEMA
 90
        2
  1
AcDbDs::LegacySchema
  2
AcDbDs::Legacy
280
     1
 91
        0
  0
ACDSSCHEMA
 90
        3
  1
AcDbDs::IndexedPropertySchema
  2
AcDs:Indexable
280
     1
 91
        0
  0
ACDSSCHEMA
 90
        4
  1
AcDbDs::HandleAttributeSchema
  2
AcDbDs::HandleAttribute
280
     7
 91
        1
284
     1
  0
ACDSRECORD
 90
        0
  2
AcDbDs::ID
280
    10
320
6E
  2
Thumbnail_Data
280
    15
 94
     1728
310
89504E470D0A1A0A0000000D4948445200000100000000800803000000D36B473800000300504C5445000000000000C8C8C80000000000000000000000000000000000000000000000000000330000660000990000CC0000FF0033000033330033660033990033CC0033FF0066000066330066660066990066CC0066FF0099
310
000099330099660099990099CC0099FF00CC0000CC3300CC6600CC9900CCCC00CCFF00FF0000FF3300FF6600FF9900FFCC00FFFF3300003300333300663300993300CC3300FF3333003333333333663333993333CC3333FF3366003366333366663366993366CC3366FF3399003399333399663399993399CC3399FF33CC00
310
33CC3333CC6633CC9933CCCC33CCFF33FF0033FF3333FF6633FF9933FFCC33FFFF6600006600336600666600996600CC6600FF6633006633336633666633996633CC6633FF6666006666336666666666996666CC6666FF6699006699336699666699996699CC6699FF66CC0066CC3366CC6666CC9966CCCC66CCFF66FF0066
310
FF3366FF6666FF9966FFCC66FFFF9900009900339900669900999900CC9900FF9933009933339933669933999933CC9933FF9966009966339966669966999966CC9966FF9999009999339999669999999999CC9999FF99CC0099CC3399CC6699CC9999CCCC99CCFF99FF0099FF3399FF6699FF9999FFCC99FFFFCC0000CC00
310
33CC0066CC0099CC00CCCC00FFCC3300CC3333CC3366CC3399CC33CCCC33FFCC6600CC6633CC6666CC6699CC66CCCC66FFCC9900CC9933CC9966CC9999CC99CCCC99FFCCCC00CCCC33CCCC66CCCC99CCCCCCCCCCFFCCFF00CCFF33CCFF66CCFF99CCFFCCCCFFFFFF0000FF0033FF0066FF0099FF00CCFF00FFFF3300FF3333
310
FF3366FF3399FF33CCFF33FFFF6600FF6633FF6666FF6699FF66CCFF66FFFF9900FF9933FF9966FF9999FF99CCFF99FFFFCC00FFCC33FFCC66FFCC99FFCCCCFFCCFFFFFF00FFFF33FFFF66FFFF99FFFFCCFFFFFF0000000D0D0D1A1A1A2828283535354343435050505D5D5D6B6B6B787878868686939393A1A1A1AEAEAEBB
310
BBBBC9C9C9D6D6D6E4E4E4F1F1F1FFFFFF00000000000000000000000000000000000000000000000000000000000008F1915C000001E44944415478DAED9C4192E2300C00F5037F4317FDFF01BC49F7496C1C12E6BEB535DD5D8150DCDC91252B31448888888888C83F66C418F73351408C790EB08031D002AE2930CC0822
310
22222222222222222222F277792D140025F32D203389A3FF0619038F93028002560E548002A055F0A883B9AA20B3061C0ACE8B9F31878F5C116D017B51885D0B5DD900180139DF663E00F6045BC09A070916405D092840010AA8BD10620AE84CF49D91EC571FC773CC24011DAF8A57743E1B049C800C05B0A78002E002B2C1
310
02A2CE62A800059005642840016801832D20E8026A04594077D5F1767DC17A54DAE7F8FB1470DD0B2209E8C58C805E5130774D7104ACD7F87C54006C0AAC573E0490AA405FCD9002A002BEC00938148C3DF8D1738B0C4BC0D1049E15A0663BA000A680670680E580CC35EEDAF9109704135E05AEDD00D429F09D04590256CF
310
7313904801F94B4006647FC05BC09500EF02704910BB49EABD39B0600DD02D022279A5EF9780FD2301E24E4905D005CC42F042FF684C444444E0147AF4B7DD31C8BF92E9E3A8F38E707F1A045A009C53E0B64D8C1502F3DACFC15F066002F6D3C125E0F378149401968315024001E7F02B7608B00454753DE8424640612360
310
E78002E7007C1578C740EF65C0BA414A5B09CE1C10D095A0CD90EDF07FC20FB0DCACD01344282C0000000049454E44AE4260826075A77BA3B6268B0482FE00D61FCAD77CB6CC0CF671D78E0115C0022036B762D1AD3B007001480578902EFAA402D8225007E019103403085D814600C13CD009605104D40AE08D402F80584C
310
54062077D17BDC06891280FC4D1FE03394760048A8401180D49E7203D01840F06782FF961400A8BE1CC6EEF1BB0E53A01D00AEC5772D0AE89507685400D109AA05C09A091A00036000840368FFA008036053408802DC87BA1034050679C6083380423D6C6176A25B10A2801800755140C914382554BF717C4875645680E3DA
310
20B178FFECFEB9F32905201CF35639DC00B8B6C8BC009C9D3B9D730AC8AB63F2274D21E9F837D6453E50BCBA4F07E0FB72B97CDFBF3E01704014600680CBD7CFD7E35BE5C3D6109A11CBD7105AB9DBFF11625640EB472A0A56804C00A600F301A680A802FE86693E40AF02C6A807F45780F88B2182029EB7126C4A04610745
310
3E205109909607244B842180305C485100A9EB0AC0943E40FBB3C7FF9680DE3C52B710526FB0B7A7CFA3A17F3ABA2638D439316D73D68AED3FDAC6F4EC05BC769E0000000049454E44AE426082
  0
ENDSEC
  0
EOF
