  0
SECTION
  2
HEADER
  9
$ACADVER
  1
AC1027
  9
$ACADMAINTVER
 70
   105
  9
$DWGCODEPAGE
  3
ANSI_1252
  9
$LASTSAVEDBY
  1
sand933
  9
$REQUIREDVERSIONS
160
                 0
  9
$INSBASE
 10
99.356
 20
149.8692
 30
0.0
  9
$EXTMIN
 10
-59.02098319286852
 20
-0.028867513893028
 30
0.0
  9
$EXTMAX
 10
518.5854620074924
 20
562.8327567451007
 30
0.0
  9
$LIMMIN
 10
0.0
 20
0.0
  9
$LIMMAX
 10
954.0173976800932
 20
637.333495995827
  9
$ORTHOMODE
 70
     0
  9
$REGENMODE
 70
     1
  9
$FILLMODE
 70
     1
  9
$QTEXTMODE
 70
     0
  9
$MIRRTEXT
 70
     0
  9
$LTSCALE
 40
5.0
  9
$ATTMODE
 70
     1
  9
$TEXTSIZE
 40
3.5
  9
$TRACEWID
 40
0.05
  9
$TEXTSTYLE
  7
STANDARD
  9
$CLAYER
  8
AM_2 ( Kontur 0.25)
  9
$CELTYPE
  6
BYLAYER
  9
$CECOLOR
 62
   256
  9
$CELTSCALE
 40
1.0
  9
$DISPSILH
 70
     0
  9
$DIMSCALE
 40
1.0
  9
$DIMASZ
 40
0.1
  9
$DIMEXO
 40
0.05
  9
$DIMDLI
 40
0.5
  9
$DIMRND
 40
0.0
  9
$DIMDLE
 40
0.0
  9
$DIMEXE
 40
0.1
  9
$DIMTP
 40
0.1
  9
$DIMTM
 40
0.1
  9
$DIMTXT
 40
0.12
  9
$DIMCEN
 40
0.0
  9
$DIMTSZ
 40
0.0
  9
$DIMTOL
 70
     0
  9
$DIMLIM
 70
     0
  9
$DIMTIH
 70
     1
  9
$DIMTOH
 70
     1
  9
$DIMSE1
 70
     0
  9
$DIMSE2
 70
     0
  9
$DIMTAD
 70
     0
  9
$DIMZIN
 70
     7
  9
$DIMBLK
  1

  9
$DIMASO
 70
     1
  9
$DIMSHO
 70
     1
  9
$DIMPOST
  1

  9
$DIMAPOST
  1
mm
  9
$DIMALT
 70
     0
  9
$DIMALTD
 70
     2
  9
$DIMALTF
 40
25.4
  9
$DIMLFAC
 40
1.0
  9
$DIMTOFL
 70
     0
  9
$DIMTVP
 40
0.0
  9
$DIMTIX
 70
     0
  9
$DIMSOXD
 70
     0
  9
$DIMSAH
 70
     0
  9
$DIMBLK1
  1

  9
$DIMBLK2
  1

  9
$DIMSTYLE
  2
AM_ANSI
  9
$DIMCLRD
 70
   256
  9
$DIMCLRE
 70
   256
  9
$DIMCLRT
 70
     2
  9
$DIMTFAC
 40
0.71
  9
$DIMGAP
 40
0.06
  9
$DIMJUST
 70
     0
  9
$DIMSD1
 70
     0
  9
$DIMSD2
 70
     0
  9
$DIMTOLJ
 70
     1
  9
$DIMTZIN
 70
     7
  9
$DIMALTZ
 70
     0
  9
$DIMALTTZ
 70
     0
  9
$DIMUPT
 70
     0
  9
$DIMDEC
 70
     4
  9
$DIMTDEC
 70
     4
  9
$DIMALTU
 70
     2
  9
$DIMALTTD
 70
     4
  9
$DIMTXSTY
  7
STANDARD
  9
$DIMAUNIT
 70
     0
  9
$DIMADEC
 70
     0
  9
$DIMALTRND
 40
0.0
  9
$DIMAZIN
 70
     2
  9
$DIMDSEP
 70
    46
  9
$DIMATFIT
 70
     3
  9
$DIMFRAC
 70
     0
  9
$DIMLDRBLK
  1

  9
$DIMLUNIT
 70
     2
  9
$DIMLWD
 70
    -1
  9
$DIMLWE
 70
    -1
  9
$DIMTMOVE
 70
     0
  9
$DIMFXL
 40
1.0
  9
$DIMFXLON
 70
     0
  9
$DIMJOGANG
 40
0.7853981633974483
  9
$DIMTFILL
 70
     0
  9
$DIMTFILLCLR
 70
     0
  9
$DIMARCSYM
 70
     1
  9
$DIMLTYPE
  6

  9
$DIMLTEX1
  6

  9
$DIMLTEX2
  6

  9
$DIMTXTDIRECTION
 70
     0
  9
$LUNITS
 70
     2
  9
$LUPREC
 70
     2
  9
$SKETCHINC
 40
0.1
  9
$FILLETRAD
 40
2.5
  9
$AUNITS
 70
     0
  9
$AUPREC
 70
     0
  9
$MENU
  1
acad
  9
$ELEVATION
 40
0.0
  9
$PELEVATION
 40
0.0
  9
$THICKNESS
 40
0.0
  9
$LIMCHECK
 70
     0
  9
$CHAMFERA
 40
2.5
  9
$CHAMFERB
 40
2.5
  9
$CHAMFERC
 40
0.0
  9
$CHAMFERD
 40
0.0
  9
$SKPOLY
 70
     0
  9
$TDCREATE
 40
2450574.552339352
  9
$TDUCREATE
 40
2450574.469006019
  9
$TDUPDATE
 40
2457962.408004757
  9
$TDUUPDATE
 40
2457962.324671424
  9
$TDINDWG
 40
0.0427224884
  9
$TDUSRTIMER
 40
0.0427212153
  9
$USRTIMER
 70
     1
  9
$ANGBASE
 50
0.0
  9
$ANGDIR
 70
     0
  9
$PDMODE
 70
     0
  9
$PDSIZE
 40
0.0
  9
$PLINEWID
 40
0.0
  9
$SPLFRAME
 70
     0
  9
$SPLINETYPE
 70
     6
  9
$SPLINESEGS
 70
    10
  9
$HANDSEED
  5
E33
  9
$SURFTAB1
 70
     6
  9
$SURFTAB2
 70
     6
  9
$SURFTYPE
 70
     6
  9
$SURFU
 70
     6
  9
$SURFV
 70
     6
  9
$UCSBASE
  2

  9
$UCSNAME
  2

  9
$UCSORG
 10
0.0
 20
0.0
 30
0.0
  9
$UCSXDIR
 10
1.0
 20
0.0
 30
0.0
  9
$UCSYDIR
 10
0.0
 20
1.0
 30
0.0
  9
$UCSORTHOREF
  2

  9
$UCSORTHOVIEW
 70
     0
  9
$UCSORGTOP
 10
0.0
 20
0.0
 30
0.0
  9
$UCSORGBOTTOM
 10
0.0
 20
0.0
 30
0.0
  9
$UCSORGLEFT
 10
0.0
 20
0.0
 30
0.0
  9
$UCSORGRIGHT
 10
0.0
 20
0.0
 30
0.0
  9
$UCSORGFRONT
 10
0.0
 20
0.0
 30
0.0
  9
$UCSORGBACK
 10
0.0
 20
0.0
 30
0.0
  9
$PUCSBASE
  2

  9
$PUCSNAME
  2

  9
$PUCSORG
 10
0.0
 20
0.0
 30
0.0
  9
$PUCSXDIR
 10
1.0
 20
0.0
 30
0.0
  9
$PUCSYDIR
 10
0.0
 20
1.0
 30
0.0
  9
$PUCSORTHOREF
  2

  9
$PUCSORTHOVIEW
 70
     0
  9
$PUCSORGTOP
 10
0.0
 20
0.0
 30
0.0
  9
$PUCSORGBOTTOM
 10
0.0
 20
0.0
 30
0.0
  9
$PUCSORGLEFT
 10
0.0
 20
0.0
 30
0.0
  9
$PUCSORGRIGHT
 10
0.0
 20
0.0
 30
0.0
  9
$PUCSORGFRONT
 10
0.0
 20
0.0
 30
0.0
  9
$PUCSORGBACK
 10
0.0
 20
0.0
 30
0.0
  9
$USERI1
 70
     0
  9
$USERI2
 70
     0
  9
$USERI3
 70
     0
  9
$USERI4
 70
     0
  9
$USERI5
 70
     0
  9
$USERR1
 40
0.0
  9
$USERR2
 40
0.0
  9
$USERR3
 40
0.0
  9
$USERR4
 40
0.0
  9
$USERR5
 40
0.0
  9
$WORLDVIEW
 70
     1
  9
$SHADEDGE
 70
     3
  9
$SHADEDIF
 70
    70
  9
$TILEMODE
 70
     1
  9
$MAXACTVP
 70
    16
  9
$PINSBASE
 10
0.0
 20
0.0
 30
0.0
  9
$PLIMCHECK
 70
     0
  9
$PEXTMIN
 10
1.000000000000000E+20
 20
1.000000000000000E+20
 30
1.000000000000000E+20
  9
$PEXTMAX
 10
-1.000000000000000E+20
 20
-1.000000000000000E+20
 30
-1.000000000000000E+20
  9
$PLIMMIN
 10
0.0
 20
0.0
  9
$PLIMMAX
 10
12.0
 20
9.0
  9
$UNITMODE
 70
     0
  9
$VISRETAIN
 70
     0
  9
$PLINEGEN
 70
     0
  9
$PSLTSCALE
 70
     0
  9
$TREEDEPTH
 70
  3020
  9
$CMLSTYLE
  2
STANDARD
  9
$CMLJUST
 70
     0
  9
$CMLSCALE
 40
1.0
  9
$PROXYGRAPHICS
 70
     1
  9
$MEASUREMENT
 70
     0
  9
$CELWEIGHT
370
    -1
  9
$ENDCAPS
280
     0
  9
$JOINSTYLE
280
     0
  9
$LWDISPLAY
290
     0
  9
$INSUNITS
 70
     0
  9
$HYPERLINKBASE
  1

  9
$STYLESHEET
  1
MONOCHROME.CTB
  9
$XEDIT
290
     1
  9
$CEPSNTYPE
380
     0
  9
$PSTYLEMODE
290
     1
  9
$FINGERPRINTGUID
  2
{75760582-04ED-11D6-A604-00B0D0796DB7}
  9
$VERSIONGUID
  2
{6A44D0BE-6969-4F69-968F-D450BD4F20A2}
  9
$EXTNAMES
290
     1
  9
$PSVPSCALE
 40
0.0
  9
$OLESTARTUP
290
     0
  9
$SORTENTS
280
   127
  9
$INDEXCTL
280
     0
  9
$HIDETEXT
280
     0
  9
$XCLIPFRAME
280
     0
  9
$HALOGAP
280
     0
  9
$OBSCOLOR
 70
   257
  9
$OBSLTYPE
280
     0
  9
$INTERSECTIONDISPLAY
280
     0
  9
$INTERSECTIONCOLOR
 70
   257
  9
$DIMASSOC
280
     2
  9
$PROJECTNAME
  1

  9
$CAMERADISPLAY
290
     0
  9
$LENSLENGTH
 40
50.0
  9
$CAMERAHEIGHT
 40
0.0
  9
$STEPSPERSEC
 40
2.0
  9
$STEPSIZE
 40
6.0
  9
$3DDWFPREC
 40
2.0
  9
$PSOLWIDTH
 40
0.25
  9
$PSOLHEIGHT
 40
4.0
  9
$LOFTANG1
 40
1.570796326794896
  9
$LOFTANG2
 40
1.570796326794896
  9
$LOFTMAG1
 40
0.0
  9
$LOFTMAG2
 40
0.0
  9
$LOFTPARAM
 70
     7
  9
$LOFTNORMALS
280
     1
  9
$LATITUDE
 40
37.795
  9
$LONGITUDE
 40
-122.394
  9
$NORTHDIRECTION
 40
0.0
  9
$TIMEZONE
 70
 -8000
  9
$LIGHTGLYPHDISPLAY
280
     1
  9
$TILEMODELIGHTSYNCH
280
     1
  9
$CMATERIAL
347
F7
  9
$SOLIDHIST
280
     1
  9
$SHOWHIST
280
     1
  9
$DWFFRAME
280
     2
  9
$DGNFRAME
280
     0
  9
$REALWORLDSCALE
290
     1
  9
$INTERFERECOLOR
 62
     1
  9
$INTERFEREOBJVS
345
119
  9
$INTERFEREVPVS
346
BDA
  9
$CSHADOW
280
     0
  9
$SHADOWPLANELOCATION
 40
0.0
  0
ENDSEC
  0
SECTION
  2
CLASSES
  0
CLASS
  1
DICTIONARYVAR
  2
AcDbDictionaryVar
  3
ObjectDBX Classes
 90
        0
 91
       15
280
     0
281
     0
  0
CLASS
  1
ACDBDICTIONARYWDFLT
  2
AcDbDictionaryWithDefault
  3
ObjectDBX Classes
 90
        0
 91
        1
280
     0
281
     0
  0
CLASS
  1
TABLESTYLE
  2
AcDbTableStyle
  3
ObjectDBX Classes
 90
     4095
 91
        1
280
     0
281
     0
  0
CLASS
  1
MATERIAL
  2
AcDbMaterial
  3
ObjectDBX Classes
 90
     1153
 91
        3
280
     0
281
     0
  0
CLASS
  1
VISUALSTYLE
  2
AcDbVisualStyle
  3
ObjectDBX Classes
 90
     4095
 91
       26
280
     0
281
     0
  0
CLASS
  1
SCALE
  2
AcDbScale
  3
ObjectDBX Classes
 90
     1153
 91
       33
280
     0
281
     0
  0
CLASS
  1
MLEADERSTYLE
  2
AcDbMLeaderStyle
  3
ACDB_MLEADERSTYLE_CLASS
 90
     4095
 91
        1
280
     0
281
     0
  0
CLASS
  1
AMGSETTINGSOBJ
  2
AmgSettingsObj
  3
"AcadM|Product Description: AutoCAD Mechanical|Company: Autodesk, Inc."
 90
     1024
 91
        2
280
     0
281
     0
  0
CLASS
  1
ACME_DOCUMENT
  2
AcMeDbDoc
  3
AcMeServices
 90
     1024
 91
        2
280
     0
281
     0
  0
CLASS
  1
ACMESCOPE
  2
AcMeScope
  3
AcMeServices
 90
     1024
 91
        1
280
     0
281
     0
  0
CLASS
  1
ACMECOMMANDHISTORY
  2
AcMeCommandHistory
  3
AcMeServices
 90
     1024
 91
        1
280
     0
281
     0
  0
CLASS
  1
ACIMSYSVARMAN
  2
AcImSysVarManager
  3
AcMeServices
 90
     1024
 91
        5
280
     0
281
     0
  0
CLASS
  1
ACIMINTSYSVAR
  2
AcImIntSysVar
  3
AcMeServices
 90
     1024
 91
       28
280
     0
281
     0
  0
CLASS
  1
ACMEDRAWINGMAN
  2
AcMeDrawingMan
  3
AcMeServices
 90
     1024
 91
        2
280
     0
281
     0
  0
CLASS
  1
ACMEVIEW
  2
AcMeView
  3
AcMeServices
 90
     1024
 91
        2
280
     0
281
     0
  0
CLASS
  1
ACDBENTITYCACHE
  2
AcMeEntityCache
  3
AcMeServices
 90
     1024
 91
        1
280
     0
281
     0
  0
CLASS
  1
GSMANAGER
  2
AcMeGSManager
  3
AcMeServices
 90
     1024
 91
        0
280
     0
281
     0
  0
CLASS
  1
AMDTINTERNALREACTOR
  2
AmdtInternalReactor
  3
AcMeServices
 90
     1024
 91
        1
280
     0
281
     0
  0
CLASS
  1
ACMESTATEMGR
  2
AcMeStateMgr
  3
AcMeServices
 90
     1024
 91
        1
280
     0
281
     0
  0
CLASS
  1
ACGREFMASTER
  2
AcGrefMaster
  3
AcAttribServices
 90
     1024
 91
        1
280
     0
281
     0
  0
CLASS
  1
AM_DRAWING_MGR
  2
AcDmDwgMgr
  3
AcMechDwgViewMgmt
 90
     1024
 91
        1
280
     0
281
     0
  0
CLASS
  1
AM_DWG_DOCUMENT
  2
AcDmDwgDocument
  3
AcMechDwgViewMgmt
 90
     1024
 91
        1
280
     0
281
     0
  0
CLASS
  1
AM_DWG_SHEET
  2
AcDmSheet
  3
AcMechDwgViewMgmt
 90
     1024
 91
        1
280
     0
281
     0
  0
CLASS
  1
AM_VIEWDIMPARMAP
  2
AcDmViewDimParMap
  3
AcMechDwgViewMgmt
 90
     1024
 91
        1
280
     0
281
     0
  0
CLASS
  1
ACIMREALSYSVAR
  2
AcImRealSysVar
  3
AcMeServices
 90
     1024
 91
        1
280
     0
281
     0
  0
CLASS
  1
AM_DWGMGR_NAME
  2
AcDmDwgMgrName
  3
AcMechDwgViewMgmt
 90
     1024
 91
        1
280
     0
281
     0
  0
CLASS
  1
ACME_DATABASE
  2
AcMeDbDatabase
  3
AcMeServices
 90
     1024
 91
        2
280
     0
281
     0
  0
CLASS
  1
ACRFINSADJUSTERMGR
  2
AcRfInsAdjusterMgr
  3
AcMeServices
 90
     1024
 91
        1
280
     0
281
     0
  0
CLASS
  1
ACGREFACADMASTER
  2
AcGrefacadMaster
  3
AcGrefServices
 90
     1024
 91
        1
280
     0
281
     0
  0
CLASS
  1
AMDTMENUSTATEMGR
  2
AmdtMenuStateMgr
  3
McadcomServices
 90
     1024
 91
        1
280
     0
281
     0
  0
CLASS
  1
AMDTMCOMMENUSTATE
  2
AmdtMcomMenuState
  3
McadcomServices
 90
     1024
 91
        1
280
     0
281
     0
  0
CLASS
  1
AMIMASTER
  2
AmiMaster
  3
AmiServices
 90
     1024
 91
        1
280
     0
281
     0
  0
CLASS
  1
MAPIAMMOUDLE
  2
MApiAmModule
  3
MApiAmServices
 90
     1024
 91
        1
280
     0
281
     0
  0
CLASS
  1
ACIMSTRSYSVAR
  2
AcImStrSysVar
  3
AcMeServices
 90
     1024
 91
        5
280
     0
281
     0
  0
CLASS
  1
AMDTADMENUSTATE
  2
AmdtAdMenuState
  3
DesignerServices
 90
     1024
 91
        0
280
     0
281
     0
  0
CLASS
  1
ADAPPL
  2
AcAdAppl
  3
DesignerAssemblies
 90
     1024
 91
        2
280
     0
281
     0
  0
CLASS
  1
DEPMGR
  2
AcAdDepMgr
  3
DesignerAssemblies
 90
     1024
 91
        2
280
     0
281
     0
  0
CLASS
  1
PARAMMGR
  2
AcAdParamMgr
  3
DesignerAssemblies
 90
     1024
 91
        2
280
     0
281
     0
  0
CLASS
  1
PARAMSCOPE
  2
AcAdParamScope
  3
DesignerAssemblies
 90
     1024
 91
        2
280
     0
281
     0
  0
CLASS
  1
NAMEDAPPL
  2
AcAdNamedAppl
  3
DesignerAssemblies
 90
     1024
 91
        2
280
     0
281
     0
  0
CLASS
  1
AMDTDMMENUSTATE
  2
AmdtDmMenuState
  3
AcMechDwgViewMgmt
 90
     1024
 91
        0
280
     0
281
     0
  0
CLASS
  1
AMDTAMMENUSTATE
  2
AmdtAmMenuState
  3
DesignerAssemblies
 90
     1024
 91
        1
280
     0
281
     0
  0
CLASS
  1
ACAMPROJECT
  2
AcAmProject
  3
DesignerAssemblies
 90
     1024
 91
        1
280
     0
281
     0
  0
CLASS
  1
ACAMGRCOMPDEF
  2
AcAmGrCompDef
  3
DesignerAssemblies
 90
     1024
 91
        1
280
     0
281
     0
  0
CLASS
  1
ACCMCONTEXT
  2
AcCmContext
  3
DesignerAssemblies
 90
     1024
 91
        1
280
     0
281
     0
  0
CLASS
  1
ACAMCOMPDEF
  2
AcAmCompDef
  3
DesignerAssemblies
 90
     1024
 91
        1
280
     0
281
     0
  0
CLASS
  1
ACAMCOMPDEFMGR
  2
AcAmCompDefMgr
  3
DesignerAssemblies
 90
     1024
 91
        1
280
     0
281
     0
  0
CLASS
  1
AMCONTEXTMGR
  2
AcAmContextMgr
  3
DesignerAssemblies
 90
     1024
 91
        1
280
     0
281
     0
  0
CLASS
  1
ACAMCONTEXTMODELER
  2
AcAmContextModeler
  3
DesignerAssemblies
 90
     1024
 91
        1
280
     0
281
     0
  0
CLASS
  1
ACMDATADICTIONARY
  2
AcmDataDictionary
  3
"AcmSymBB|Product Description: AutoCAD Mechanical|Company: Autodesk, Inc."
 90
     1024
 91
        1
280
     0
281
     0
  0
CLASS
  1
CATALOGSTATE
  2
AcAmCatalogState
  3
DesignerAssemblies
 90
     1024
 91
        1
280
     0
281
     0
  0
CLASS
  1
ACAMGRCOMPDEFSET
  2
AcAmGrCompDefSet
  3
DesignerAssemblies
 90
     1024
 91
        1
280
     0
281
     0
  0
CLASS
  1
AMDTBROWSERDBTAB
  2
AmdtBrowserDbTab
  3
McadcomServices
 90
     1024
 91
        1
280
     0
281
     0
  0
CLASS
  1
CBROWSERAPPOBJECT
  2
CBrowserAppObject
  3
McadcomServices
 90
     1024
 91
        2
280
     0
281
     0
  0
CLASS
  1
DM_PLACEHOLDER
  2
AcDmSelsetPlaceholder
  3
McadcomServices
 90
     1024
 91
        1
280
     0
281
     0
  0
CLASS
  1
ACMSTANDARDANSI
  2
AcmStandardANSI
  3
"Amdt_StdImp|Product Description: AutoCAD Mechanical|Company: Autodesk, Inc."
 90
     1024
 91
        1
280
     0
281
     0
  0
CLASS
  1
AMGOBJPROPCFG
  2
AmgObjPropCfg
  3
"AmgLay|Product Description: AutoCAD Mechanical|Company: Autodesk, Inc."
 90
     1024
 91
        1
280
     0
281
     0
  0
CLASS
  1
ACMSURFSTANDARDANSI
  2
AcmSurfTextStdANSI
  3
"Amdt_StdImp|Product Description: AutoCAD Mechanical|Company: Autodesk, Inc."
 90
     1024
 91
        1
280
     0
281
     0
  0
CLASS
  1
ACMFCFSTANDARDANSI
  2
AcmFCFStdANSI
  3
"Amdt_StdImp|Product Description: AutoCAD Mechanical|Company: Autodesk, Inc."
 90
     1024
 91
        1
280
     0
281
     0
  0
CLASS
  1
ACMWELDSTANDARDANSI
  2
AcmWeldingStdANSI
  3
"Amdt_StdImp|Product Description: AutoCAD Mechanical|Company: Autodesk, Inc."
 90
     1024
 91
        1
280
     0
281
     0
  0
CLASS
  1
ACMIDSTANDARDANSI
  2
AcmIdStdANSI
  3
"Amdt_StdImp|Product Description: AutoCAD Mechanical|Company: Autodesk, Inc."
 90
     1024
 91
        1
280
     0
281
     0
  0
CLASS
  1
ACMDATUMSTANDARDANSI
  2
AcmDatumStdANSI
  3
"Amdt_StdImp|Product Description: AutoCAD Mechanical|Company: Autodesk, Inc."
 90
     1024
 91
        1
280
     0
281
     0
  0
CLASS
  1
ACMBOMSTANDARDANSI
  2
AcmBOMStdANSI
  3
"Amdt_StdImp|Product Description: AutoCAD Mechanical|Company: Autodesk, Inc."
 90
     1024
 91
        1
280
     0
281
     0
  0
CLASS
  1
ACMDETAILSTANDARDANSI
  2
AmdtDetailSymStdANSI
  3
"Amdt_StdImp|Product Description: AutoCAD Mechanical|Company: Autodesk, Inc."
 90
     1024
 91
        1
280
     0
281
     0
  0
CLASS
  1
ACMSECTIONSTANDARDANSI
  2
AmdtSectionSymStdANSI
  3
"Amdt_StdImp|Product Description: AutoCAD Mechanical|Company: Autodesk, Inc."
 90
     1024
 91
        1
280
     0
281
     0
  0
CLASS
  1
ACMCENTERLINESTANDARDANSI
  2
AmdtCenterLineStdANSI
  3
"Amdt_StdImp|Product Description: AutoCAD Mechanical|Company: Autodesk, Inc."
 90
     1024
 91
        1
280
     0
281
     0
  0
CLASS
  1
ACMTHREADLINESTANDARDANSI
  2
AmdtThreadLineStdANSI
  3
"Amdt_StdImp|Product Description: AutoCAD Mechanical|Company: Autodesk, Inc."
 90
     1024
 91
        1
280
     0
281
     0
  0
CLASS
  1
ACMNOTESTANDARDANSI
  2
AmdtNoteStdANSI
  3
"Amdt_StdImp|Product Description: AutoCAD Mechanical|Company: Autodesk, Inc."
 90
     1024
 91
        1
280
     0
281
     0
  0
CLASS
  1
ACMTAPERSTANDARDANSI
  2
AcmTaperStdANSI
  3
"Amdt_StdImp|Product Description: AutoCAD Mechanical|Company: Autodesk, Inc."
 90
     1024
 91
        1
280
     0
281
     0
  0
CLASS
  1
ACMANOOTATIONVIEWSTANDARDANSI
  2
AmdtAnViewStdANSI
  3
"Amdt_StdImp|Product Description: AutoCAD Mechanical|Company: Autodesk, Inc."
 90
     1024
 91
        1
280
     0
281
     0
  0
CLASS
  1
AMDTNOTETEMPLATEDB
  2
AmdtNoteTemplateDB
  3
AcmSymBB|Product Description: AutoCAD Mechanical|Company: Autodesk, Inc.
 90
     1024
 91
       25
280
     0
281
     0
  0
CLASS
  1
ACAMGLAYSTD
  2
AcAmgLayStd
  3
"AmgLay|Product Description: AutoCAD Mechanical|Company: Autodesk, Inc."
 90
     1024
 91
        4
280
     0
281
     0
  0
CLASS
  1
ACAMGDIMSTD
  2
AcAmgDimStd
  3
"AmgDim|Product Description: AutoCAD Mechanical|Company: Autodesk, Inc."
 90
     1024
 91
        4
280
     0
281
     0
  0
CLASS
  1
ACAMGHOLECHARTSTDANSI
  2
AcAmgHoleChartStdANSI
  3
AmgDim|Product Description: AutoCAD Mechanical|Company: Autodesk, Inc.
 90
     1024
 91
        1
280
     0
281
     0
  0
CLASS
  1
ACAMGTITLESTD
  2
AcAmgTitleStd
  3
"AmgTitle|Product Description: AutoCAD Mechanical|Company: Autodesk, Inc."
 90
     1024
 91
        4
280
     0
281
     0
  0
CLASS
  1
ACAMGFILTERDAT
  2
AcAmgFilterDat
  3
"AcadM|Product Description: AutoCAD Mechanical|Company: Autodesk, Inc."
 90
     1024
 91
        0
280
     0
281
     0
  0
CLASS
  1
SORTENTSTABLE
  2
AcDbSortentsTable
  3
ObjectDBX Classes
 90
        0
 91
        2
280
     0
281
     0
  0
CLASS
  1
ACMSTANDARDDIN
  2
AcmStandardDIN
  3
"Amdt_StdImp|Product Description: AutoCAD Mechanical|Company: Autodesk, Inc."
 90
     1024
 91
        2
280
     0
281
     0
  0
CLASS
  1
AMDTEDGESTANDARDDIN13715
  2
AmdtEdgeStdDIN13715
  3
"Amdt_StdImp|Product Description: AutoCAD Mechanical|Company: Autodesk, Inc."
 90
     1024
 91
        2
280
     0
281
     0
  0
CLASS
  1
ACMSURFSTANDARDDIN2002
  2
AcmSurfTextStdDIN2002
  3
"Amdt_StdImp|Product Description: AutoCAD Mechanical|Company: Autodesk, Inc."
 90
     1024
 91
        2
280
     0
281
     0
  0
CLASS
  1
ACMFCFSTANDARDDIN
  2
AcmFCFStdDIN
  3
"Amdt_StdImp|Product Description: AutoCAD Mechanical|Company: Autodesk, Inc."
 90
     1024
 91
        2
280
     0
281
     0
  0
CLASS
  1
ACMWELDSTANDARDDIN
  2
AcmWeldingStdDIN
  3
"Amdt_StdImp|Product Description: AutoCAD Mechanical|Company: Autodesk, Inc."
 90
     1024
 91
        2
280
     0
281
     0
  0
CLASS
  1
ACMIDSTANDARDDIN
  2
AcmIdStdDIN
  3
"Amdt_StdImp|Product Description: AutoCAD Mechanical|Company: Autodesk, Inc."
 90
     1024
 91
        2
280
     0
281
     0
  0
CLASS
  1
ACMDATUMSTANDARDDIN
  2
AcmDatumStdDIN
  3
"Amdt_StdImp|Product Description: AutoCAD Mechanical|Company: Autodesk, Inc."
 90
     1024
 91
        2
280
     0
281
     0
  0
CLASS
  1
ACMBOMSTANDARDDIN
  2
AcmBOMStdDIN
  3
"Amdt_StdImp|Product Description: AutoCAD Mechanical|Company: Autodesk, Inc."
 90
     1024
 91
        2
280
     0
281
     0
  0
CLASS
  1
ACMDETAILSTANDARDDIN
  2
AmdtDetailSymStdDIN
  3
"Amdt_StdImp|Product Description: AutoCAD Mechanical|Company: Autodesk, Inc."
 90
     1024
 91
        2
280
     0
281
     0
  0
CLASS
  1
ACMSECTIONSTANDARDDIN
  2
AmdtSectionSymStdDIN
  3
"Amdt_StdImp|Product Description: AutoCAD Mechanical|Company: Autodesk, Inc."
 90
     1024
 91
        2
280
     0
281
     0
  0
CLASS
  1
ACMCENTERLINESTANDARDDIN
  2
AmdtCenterLineStdDIN
  3
"Amdt_StdImp|Product Description: AutoCAD Mechanical|Company: Autodesk, Inc."
 90
     1024
 91
        2
280
     0
281
     0
  0
CLASS
  1
ACMTHREADLINESTANDARDDIN
  2
AmdtThreadLineStdDIN
  3
"Amdt_StdImp|Product Description: AutoCAD Mechanical|Company: Autodesk, Inc."
 90
     1024
 91
        2
280
     0
281
     0
  0
CLASS
  1
ACMNOTESTANDARDDIN
  2
AmdtNoteStdDIN
  3
"Amdt_StdImp|Product Description: AutoCAD Mechanical|Company: Autodesk, Inc."
 90
     1024
 91
        2
280
     0
281
     0
  0
CLASS
  1
ACMTAPERSTANDARDDIN
  2
AcmTaperStdDIN
  3
"Amdt_StdImp|Product Description: AutoCAD Mechanical|Company: Autodesk, Inc."
 90
     1024
 91
        2
280
     0
281
     0
  0
CLASS
  1
ACMANOOTATIONVIEWSTANDARDDIN
  2
AmdtAnViewStdDIN
  3
"Amdt_StdImp|Product Description: AutoCAD Mechanical|Company: Autodesk, Inc."
 90
     1024
 91
        2
280
     0
281
     0
  0
CLASS
  1
ACAMGHOLECHARTSTDDIN
  2
AcAmgHoleChartStdDIN
  3
AmgDim|Product Description: AutoCAD Mechanical|Company: Autodesk, Inc.
 90
     1024
 91
        2
280
     0
281
     0
  0
CLASS
  1
ACMSTANDARDISO
  2
AcmStandardISO
  3
"Amdt_StdImp|Product Description: AutoCAD Mechanical|Company: Autodesk, Inc."
 90
     1024
 91
        1
280
     0
281
     0
  0
CLASS
  1
AMDTEDGESTANDARDISO
  2
AmdtEdgeStdISO
  3
"Amdt_StdImp|Product Description: AutoCAD Mechanical|Company: Autodesk, Inc."
 90
     1024
 91
        1
280
     0
281
     0
  0
CLASS
  1
ACMSURFSTANDARDISO2002
  2
AcmSurfTextStdISO2002
  3
"Amdt_StdImp|Product Description: AutoCAD Mechanical|Company: Autodesk, Inc."
 90
     1024
 91
        1
280
     0
281
     0
  0
CLASS
  1
ACMFCFSTANDARDISO
  2
AcmFCFStdISO
  3
"Amdt_StdImp|Product Description: AutoCAD Mechanical|Company: Autodesk, Inc."
 90
     1024
 91
        1
280
     0
281
     0
  0
CLASS
  1
ACMWELDSTANDARDISO
  2
AcmWeldingStdISO
  3
"Amdt_StdImp|Product Description: AutoCAD Mechanical|Company: Autodesk, Inc."
 90
     1024
 91
        1
280
     0
281
     0
  0
CLASS
  1
ACMIDSTANDARDISO
  2
AcmIdStdISO
  3
"Amdt_StdImp|Product Description: AutoCAD Mechanical|Company: Autodesk, Inc."
 90
     1024
 91
        1
280
     0
281
     0
  0
CLASS
  1
ACMDATUMSTANDARDISO
  2
AcmDatumStdISO
  3
"Amdt_StdImp|Product Description: AutoCAD Mechanical|Company: Autodesk, Inc."
 90
     1024
 91
        1
280
     0
281
     0
  0
CLASS
  1
ACMBOMSTANDARDISO
  2
AcmBOMStdISO
  3
"Amdt_StdImp|Product Description: AutoCAD Mechanical|Company: Autodesk, Inc."
 90
     1024
 91
        1
280
     0
281
     0
  0
CLASS
  1
ACMDETAILSTANDARDISO
  2
AmdtDetailSymStdISO
  3
"Amdt_StdImp|Product Description: AutoCAD Mechanical|Company: Autodesk, Inc."
 90
     1024
 91
        0
280
     0
281
     0
  0
CLASS
  1
ACMSECTIONSTANDARDISO2001
  2
AmdtSectionSymStdISO2001
  3
"Amdt_StdImp|Product Description: AutoCAD Mechanical|Company: Autodesk, Inc."
 90
     1024
 91
        0
280
     0
281
     0
  0
CLASS
  1
ACMCENTERLINESTANDARDISO
  2
AmdtCenterLineStdISO
  3
"Amdt_StdImp|Product Description: AutoCAD Mechanical|Company: Autodesk, Inc."
 90
     1024
 91
        1
280
     0
281
     0
  0
CLASS
  1
ACMNOTESTANDARDISO
  2
AmdtNoteStdISO
  3
"Amdt_StdImp|Product Description: AutoCAD Mechanical|Company: Autodesk, Inc."
 90
     1024
 91
        1
280
     0
281
     0
  0
CLASS
  1
ACAMGHOLECHARTSTDISO
  2
AcAmgHoleChartStdISO
  3
AmgDim|Product Description: AutoCAD Mechanical|Company: Autodesk, Inc.
 90
     1024
 91
        1
280
     0
281
     0
  0
CLASS
  1
ACMTHREADLINESTANDARDISO
  2
AmdtThreadLineStdISO
  3
"Amdt_StdImp|Product Description: AutoCAD Mechanical|Company: Autodesk, Inc."
 90
     1024
 91
        1
280
     0
281
     0
  0
CLASS
  1
ACMTAPERSTANDARDISO
  2
AcmTaperStdISO
  3
"Amdt_StdImp|Product Description: AutoCAD Mechanical|Company: Autodesk, Inc."
 90
     1024
 91
        1
280
     0
281
     0
  0
CLASS
  1
ACMANOOTATIONVIEWSTANDARDISO
  2
AmdtAnViewStdISO
  3
"Amdt_StdImp|Product Description: AutoCAD Mechanical|Company: Autodesk, Inc."
 90
     1024
 91
        1
280
     0
281
     0
  0
CLASS
  1
DIMASSOC
  2
AcDbDimAssoc
  3
"AcDbDimAssoc|Product Desc:     AcDim ARX App For Dimension|Company:          Autodesk, Inc.|WEB Address:      www.autodesk.com"
 90
        0
 91
       10
280
     0
281
     0
  0
CLASS
  1
CELLSTYLEMAP
  2
AcDbCellStyleMap
  3
ObjectDBX Classes
 90
     1152
 91
        2
280
     0
281
     0
  0
CLASS
  1
ACMDATAENTRYBLOCK
  2
AcmDataEntryBlock
  3
AcmSymBB|Product Description: AutoCAD Mechanical|Company: Autodesk, Inc.
 90
     1024
 91
        2
280
     0
281
     0
  0
CLASS
  1
ACMBOM
  2
AcmBom
  3
"AcmSymBB|Product Description: AutoCAD Mechanical|Company: Autodesk, Inc."
 90
     1024
 91
        1
280
     0
281
     0
  0
CLASS
  1
AMDTFORMULAUPDATEDISPATCHER
  2
AmdtFormulaUpdateDispatcher
  3
AcMeServices
 90
     1024
 91
        1
280
     0
281
     0
  0
CLASS
  1
CAMSSTRUCTBTNSTATE
  2
StructBtnState
  3
DesignerAssemblies
 90
     1024
 91
        1
280
     0
281
     0
  0
CLASS
  1
ACDBSECTIONVIEWSTYLE
  2
AcDbSectionViewStyle
  3
ObjectDBX Classes
 90
     1025
 91
        6
280
     0
281
     0
  0
CLASS
  1
ACDBDETAILVIEWSTYLE
  2
AcDbDetailViewStyle
  3
ObjectDBX Classes
 90
     1025
 91
        6
280
     0
281
     0
  0
CLASS
  1
ACRFATTGENMGR
  2
AcRfAttGeneralMgr
  3
AcAttribServices
 90
     1024
 91
        1
280
     0
281
     0
  0
CLASS
  1
ACRFOBJATTMGR
  2
AcRfObjAttGroupMgr
  3
AcAttribServices
 90
     1024
 91
        1
280
     0
281
     0
  0
CLASS
  1
ACRFMCADAPIATTHOLDER
  2
AcRfMCADAPIAttHolder
  3
AcAttribServices
 90
     1024
 91
        1
280
     0
281
     0
  0
CLASS
  1
AMDTSYSATTR
  2
AmdtSystemAttribute
  3
AcAttribServices
 90
     1024
 91
        2
280
     0
281
     0
  0
CLASS
  1
ACMSECTIONSTANDARDCUSTOM
  2
AmdtSectionSymStdCustom
  3
"Amdt_StdImp|Product Description: AutoCAD Mechanical|Company: Autodesk, Inc."
 90
     1024
 91
       15
280
     0
281
     0
  0
CLASS
  1
ACMDETAILTANDARDCUSTOM
  2
AmdtDetailSymStdCustom
  3
"Amdt_StdImp|Product Description: AutoCAD Mechanical|Company: Autodesk, Inc."
 90
     1024
 91
       15
280
     0
281
     0
  0
CLASS
  1
FIELD
  2
AcDbField
  3
ObjectDBX Classes
 90
     1152
 91
       22
280
     0
281
     0
  0
CLASS
  1
FIELDLIST
  2
AcDbFieldList
  3
ObjectDBX Classes
 90
     1152
 91
        1
280
     0
281
     0
  0
CLASS
  1
EXACXREFPANELOBJECT
  2
ExAcXREFPanelObject
  3
EXAC_ESW
 90
     1025
 91
        1
280
     0
281
     0
  0
CLASS
  1
NPOCOLLECTION
  2
AcDbImpNonPersistentObjectsCollection
  3
ObjectDBX Classes
 90
     1153
 91
        1
280
     0
281
     0
  0
CLASS
  1
ACMPARTREF
  2
AcmPartRef
  3
"AcmSymBB|Product Description: AutoCAD Mechanical|Company: Autodesk, Inc."
 90
     1024
 91
        2
280
     0
281
     1
  0
CLASS
  1
ACMDATAENTRYPART
  2
AcmDataEntryPart
  3
AcmSymBB|Product Description: AutoCAD Mechanical|Company: Autodesk, Inc.
 90
     1024
 91
        1
280
     0
281
     0
  0
CLASS
  1
ACMBOMROW
  2
AcmBomRow
  3
"AcmSymBB|Product Description: AutoCAD Mechanical|Company: Autodesk, Inc."
 90
     1024
 91
        1
280
     0
281
     0
  0
ENDSEC
  0
SECTION
  2
TABLES
  0
TABLE
  2
VPORT
  5
12
330
0
100
AcDbSymbolTable
 70
     1
  0
VPORT
  5
EF
330
12
100
AcDbSymbolTableRecord
100
AcDbViewportTableRecord
  2
*Active
 70
     0
 10
0.0
 20
0.0
 11
1.0
 21
1.0
 12
337.359430041751
 22
344.8073913486698
 13
0.0
 23
0.0
 14
0.125
 24
0.125
 15
1.0
 25
1.0
 16
0.0
 26
0.0
 36
1.0
 17
0.0
 27
0.0
 37
0.0
 40
912.5133706263669
 41
1.940298507462686
 42
50.0
 43
0.0
 44
0.0
 50
0.0
 51
0.0
 71
     0
 72
   100
 73
     1
 74
     0
 75
     0
 76
     0
 77
     0
 78
     0
281
     0
 65
     1
110
0.0
120
0.0
130
0.0
111
1.0
121
0.0
131
0.0
112
0.0
122
1.0
132
0.0
 79
     0
146
0.0
348
115
 60
     3
 61
     5
292
     1
282
     1
141
0.0
142
0.0
 63
   250
421
  3355443
1001
ACAD_NAV_VCDISPLAY
1070
     3
  0
ENDTAB
  0
TABLE
  2
LTYPE
  5
D
330
0
100
AcDbSymbolTable
 70
    73
  0
LTYPE
  5
E
330
D
100
AcDbSymbolTableRecord
100
AcDbLinetypeTableRecord
  2
BYBLOCK
 70
     0
  3

 72
    65
 73
     0
 40
0.0
  0
LTYPE
  5
F
330
D
100
AcDbSymbolTableRecord
100
AcDbLinetypeTableRecord
  2
BYLAYER
 70
     0
  3

 72
    65
 73
     0
 40
0.0
  0
LTYPE
  5
5
330
D
100
AcDbSymbolTableRecord
100
AcDbLinetypeTableRecord
  2
CONTINUOUS
 70
     0
  3
Solid line
 72
    65
 73
     0
 40
0.0
  0
LTYPE
  5
20
330
D
100
AcDbSymbolTableRecord
100
AcDbLinetypeTableRecord
  2
GESTRICHELT
 70
     0
  3
__ __ __ __ __ __ __ __ __ __ __ __ __ __ __
 72
    65
 73
     2
 40
0.75
 49
0.5
 74
     0
 49
-0.25
 74
     0
  0
LTYPE
  5
27
330
D
100
AcDbSymbolTableRecord
100
AcDbLinetypeTableRecord
  2
STRICHPUNKTIERT
 70
     0
  3
__ . __ . __ . __ . __ . __ . __ . __ . __ .
 72
    65
 73
     4
 40
1.0
 49
0.5
 74
     0
 49
-0.25
 74
     0
 49
0.0
 74
     0
 49
-0.25
 74
     0
  0
LTYPE
  5
179
330
D
100
AcDbSymbolTableRecord
100
AcDbLinetypeTableRecord
  2
HIDDEN
 70
     0
  3
Verdeckt
 72
    65
 73
     2
 40
0.375
 49
0.25
 74
     0
 49
-0.125
 74
     0
  0
LTYPE
  5
17A
330
D
100
AcDbSymbolTableRecord
100
AcDbLinetypeTableRecord
  2
PHANTOM2
 70
     0
  3
Phantom (.5x) ___ _ _ ___ _ _ ___ _ _ ___ _ _
 72
    65
 73
     6
 40
1.25
 49
0.625
 74
     0
 49
-0.125
 74
     0
 49
0.125
 74
     0
 49
-0.125
 74
     0
 49
0.125
 74
     0
 49
-0.125
 74
     0
  0
LTYPE
  5
17B
330
D
100
AcDbSymbolTableRecord
100
AcDbLinetypeTableRecord
  2
CENTER
 70
     0
  3
Center line
 72
    65
 73
     4
 40
2.0
 49
1.25
 74
     0
 49
-0.25
 74
     0
 49
0.25
 74
     0
 49
-0.25
 74
     0
  0
LTYPE
  5
1BF
330
D
100
AcDbSymbolTableRecord
100
AcDbLinetypeTableRecord
  2
ACANSTGB
 70
     0
  3
__ . . __ . .
 72
    65
 73
     6
 40
0.35433070866
 49
0.15748031496
 74
     0
 49
-0.03937007874
 74
     0
 49
0.03937007874
 74
     0
 49
-0.03937007874
 74
     0
 49
0.03937007874
 74
     0
 49
-0.03937007874
 74
     0
  0
LTYPE
  5
1C0
330
D
100
AcDbSymbolTableRecord
100
AcDbLinetypeTableRecord
  2
ACANSTGL
 70
     0
  3
_ _ _ _ _
 72
    65
 73
     2
 40
0.11811023622
 49
0.07874015748
 74
     0
 49
-0.03937007874
 74
     0
  0
LTYPE
  5
29D
330
D
100
AcDbSymbolTableRecord
100
AcDbLinetypeTableRecord
  2
AM_ISO02W050
 70
     0
  3
__ __ __ __ __ __ __ __ __ __ __ __ __ __ __
 72
    65
 73
     2
 40
7.5
 49
6.0
 74
     0
 49
-1.5
 74
     0
  0
LTYPE
  5
29E
330
D
100
AcDbSymbolTableRecord
100
AcDbLinetypeTableRecord
  2
AM_ISO08W050
 70
     0
  3
____ . ____ . ____ . ____ . ____ . ____ . ____
 72
    65
 73
     4
 40
18.0
 49
12.0
 74
     0
 49
-1.5
 74
     0
 49
3.0
 74
     0
 49
-1.5
 74
     0
  0
LTYPE
  5
29F
330
D
100
AcDbSymbolTableRecord
100
AcDbLinetypeTableRecord
  2
AM_ISO09W050
 70
     0
  3
_____ . . _____ . . _____ . . ____ .. ____
 72
    65
 73
     6
 40
22.5
 49
12.0
 74
     0
 49
-1.5
 74
     0
 49
3.0
 74
     0
 49
-1.5
 74
     0
 49
3.0
 74
     0
 49
-1.5
 74
     0
  0
LTYPE
  5
2A0
330
D
100
AcDbSymbolTableRecord
100
AcDbLinetypeTableRecord
  2
Amconstr
 70
     0
  3
_______________________
 72
    65
 73
     2
 40
9999.0
 49
9999.0
 74
     0
 49
0.0
 74
     0
  0
LTYPE
  5
2A1
330
D
100
AcDbSymbolTableRecord
100
AcDbLinetypeTableRecord
  2
AM_ISO08W050x2
 70
     0
  3
__ . __ . __ . __ . __ . __
 72
    65
 73
     4
 40
9.0
 49
6.0
 74
     0
 49
-0.75
 74
     0
 49
1.5
 74
     0
 49
-0.75
 74
     0
  0
LTYPE
  5
2A2
330
D
100
AcDbSymbolTableRecord
100
AcDbLinetypeTableRecord
  2
AM_ISO02W050x2
 70
     0
  3
 _ _ _ _ _ _ _ _ _ _ _ _
 72
    65
 73
     2
 40
3.75
 49
3.0
 74
     0
 49
-0.75
 74
     0
  0
LTYPE
  5
2A3
330
D
100
AcDbSymbolTableRecord
100
AcDbLinetypeTableRecord
  2
Amzigzag
 70
     0
  3
/\/-/\/-/\/-/\/-/\/-/\/
 72
    65
 73
     2
 40
11.0001
 49
0.0001
 74
     4
 75
   136
340
2A4
 46
0.04
 50
0.0
 44
0.0
 45
0.0
 49
-11.0
 74
     0
  0
LTYPE
  5
2BB
330
D
100
AcDbSymbolTableRecord
100
AcDbLinetypeTableRecord
  2
ACDINWELD
 70
     0
  3
_ _ _ _ _
 72
    65
 73
     2
 40
2.0
 49
2.0
 74
     0
 49
-1.0
 74
     0
  0
LTYPE
  5
2BE
330
D
100
AcDbSymbolTableRecord
100
AcDbLinetypeTableRecord
  2
ACDINTGB
 70
     0
  3
__ . . __ . .
 72
    65
 73
     6
 40
9.0
 49
4.0
 74
     0
 49
-1.0
 74
     0
 49
1.0
 74
     0
 49
-1.0
 74
     0
 49
1.0
 74
     0
 49
-1.0
 74
     0
  0
LTYPE
  5
2BF
330
D
100
AcDbSymbolTableRecord
100
AcDbLinetypeTableRecord
  2
ACDINTGL
 70
     0
  3
_ _ _ _ _
 72
    65
 73
     2
 40
3.0
 49
2.0
 74
     0
 49
-1.0
 74
     0
  0
LTYPE
  5
2CF
330
D
100
AcDbSymbolTableRecord
100
AcDbLinetypeTableRecord
  2
DASHED
 70
     0
  3
Dashed line
 72
    65
 73
     2
 40
0.75
 49
0.5
 74
     0
 49
-0.25
 74
     0
  0
LTYPE
  5
2D0
330
D
100
AcDbSymbolTableRecord
100
AcDbLinetypeTableRecord
  2
CENTER2
 70
     0
  3
Center (.5x) ___ _ ___ _ ___ _ ___ _ ___ _ ___
 72
    65
 73
     4
 40
1.125
 49
0.75
 74
     0
 49
-0.125
 74
     0
 49
0.125
 74
     0
 49
-0.125
 74
     0
  0
LTYPE
  5
2D1
330
D
100
AcDbSymbolTableRecord
100
AcDbLinetypeTableRecord
  2
HIDDEN2
 70
     0
  3
Hidden (.5x) _ _ _ _ _ _ _ _ _ _ _ _ _ _ _ _ _
 72
    65
 73
     2
 40
0.1875
 49
0.125
 74
     0
 49
-0.0625
 74
     0
  0
LTYPE
  5
2E5
330
D
100
AcDbSymbolTableRecord
100
AcDbLinetypeTableRecord
  2
ACISOWELD
 70
     0
  3
_ _ _ _ _
 72
    65
 73
     2
 40
2.0
 49
2.0
 74
     0
 49
-1.0
 74
     0
  0
LTYPE
  5
2E8
330
D
100
AcDbSymbolTableRecord
100
AcDbLinetypeTableRecord
  2
ACISOTGB
 70
     0
  3
__ . . __ . .
 72
    65
 73
     6
 40
9.0
 49
4.0
 74
     0
 49
-1.0
 74
     0
 49
1.0
 74
     0
 49
-1.0
 74
     0
 49
1.0
 74
     0
 49
-1.0
 74
     0
  0
LTYPE
  5
2E9
330
D
100
AcDbSymbolTableRecord
100
AcDbLinetypeTableRecord
  2
ACISOTGL
 70
     0
  3
_ _ _ _ _
 72
    65
 73
     2
 40
3.0
 49
2.0
 74
     0
 49
-1.0
 74
     0
  0
LTYPE
  5
812
330
D
100
AcDbSymbolTableRecord
100
AcDbLinetypeTableRecord
  2
BORDER
 70
     0
  3
Border __ __ . __ __ . __ __ . __ __ . __ __ .
 72
    65
 73
     6
 40
1.75
 49
0.5
 74
     0
 49
-0.25
 74
     0
 49
0.5
 74
     0
 49
-0.25
 74
     0
 49
0.0
 74
     0
 49
-0.25
 74
     0
  0
LTYPE
  5
813
330
D
100
AcDbSymbolTableRecord
100
AcDbLinetypeTableRecord
  2
BORDER2
 70
     0
  3
Border (.5x) __.__.__.__.__.__.__.__.__.__.__.
 72
    65
 73
     6
 40
0.875
 49
0.25
 74
     0
 49
-0.125
 74
     0
 49
0.25
 74
     0
 49
-0.125
 74
     0
 49
0.0
 74
     0
 49
-0.125
 74
     0
  0
LTYPE
  5
814
330
D
100
AcDbSymbolTableRecord
100
AcDbLinetypeTableRecord
  2
BORDERX2
 70
     0
  3
Border (2x) ____  ____  .  ____  ____  .  ___
 72
    65
 73
     6
 40
3.5
 49
1.0
 74
     0
 49
-0.5
 74
     0
 49
1.0
 74
     0
 49
-0.5
 74
     0
 49
0.0
 74
     0
 49
-0.5
 74
     0
  0
LTYPE
  5
815
330
D
100
AcDbSymbolTableRecord
100
AcDbLinetypeTableRecord
  2
CENTERX2
 70
     0
  3
Center (2x) ________  __  ________  __  _____
 72
    65
 73
     4
 40
4.0
 49
2.5
 74
     0
 49
-0.5
 74
     0
 49
0.5
 74
     0
 49
-0.5
 74
     0
  0
LTYPE
  5
816
330
D
100
AcDbSymbolTableRecord
100
AcDbLinetypeTableRecord
  2
DASHDOT
 70
     0
  3
Dash dot __ . __ . __ . __ . __ . __ . __ . __
 72
    65
 73
     4
 40
1.0
 49
0.5
 74
     0
 49
-0.25
 74
     0
 49
0.0
 74
     0
 49
-0.25
 74
     0
  0
LTYPE
  5
817
330
D
100
AcDbSymbolTableRecord
100
AcDbLinetypeTableRecord
  2
DASHDOT2
 70
     0
  3
Dash dot (.5x) _._._._._._._._._._._._._._._.
 72
    65
 73
     4
 40
0.5
 49
0.25
 74
     0
 49
-0.125
 74
     0
 49
0.0
 74
     0
 49
-0.125
 74
     0
  0
LTYPE
  5
818
330
D
100
AcDbSymbolTableRecord
100
AcDbLinetypeTableRecord
  2
DASHDOTX2
 70
     0
  3
Dash dot (2x) ____  .  ____  .  ____  .  ___
 72
    65
 73
     4
 40
2.0
 49
1.0
 74
     0
 49
-0.5
 74
     0
 49
0.0
 74
     0
 49
-0.5
 74
     0
  0
LTYPE
  5
819
330
D
100
AcDbSymbolTableRecord
100
AcDbLinetypeTableRecord
  2
DASHED2
 70
     0
  3
Dashed (.5x) _ _ _ _ _ _ _ _ _ _ _ _ _ _ _ _ _
 72
    65
 73
     2
 40
0.375
 49
0.25
 74
     0
 49
-0.125
 74
     0
  0
LTYPE
  5
81A
330
D
100
AcDbSymbolTableRecord
100
AcDbLinetypeTableRecord
  2
DASHEDX2
 70
     0
  3
Dashed (2x) ____  ____  ____  ____  ____  ___
 72
    65
 73
     2
 40
1.5
 49
1.0
 74
     0
 49
-0.5
 74
     0
  0
LTYPE
  5
81B
330
D
100
AcDbSymbolTableRecord
100
AcDbLinetypeTableRecord
  2
DIVIDE
 70
     0
  3
Divide ____ . . ____ . . ____ . . ____ . . ____
 72
    65
 73
     6
 40
1.25
 49
0.5
 74
     0
 49
-0.25
 74
     0
 49
0.0
 74
     0
 49
-0.25
 74
     0
 49
0.0
 74
     0
 49
-0.25
 74
     0
  0
LTYPE
  5
81C
330
D
100
AcDbSymbolTableRecord
100
AcDbLinetypeTableRecord
  2
DIVIDE2
 70
     0
  3
Divide (.5x) __..__..__..__..__..__..__..__.._
 72
    65
 73
     6
 40
0.625
 49
0.25
 74
     0
 49
-0.125
 74
     0
 49
0.0
 74
     0
 49
-0.125
 74
     0
 49
0.0
 74
     0
 49
-0.125
 74
     0
  0
LTYPE
  5
81D
330
D
100
AcDbSymbolTableRecord
100
AcDbLinetypeTableRecord
  2
DIVIDEX2
 70
     0
  3
Divide (2x) ________  .  .  ________  .  .  _
 72
    65
 73
     6
 40
2.5
 49
1.0
 74
     0
 49
-0.5
 74
     0
 49
0.0
 74
     0
 49
-0.5
 74
     0
 49
0.0
 74
     0
 49
-0.5
 74
     0
  0
LTYPE
  5
81E
330
D
100
AcDbSymbolTableRecord
100
AcDbLinetypeTableRecord
  2
DOT
 70
     0
  3
Dot . . . . . . . . . . . . . . . . . . . . . .
 72
    65
 73
     2
 40
0.25
 49
0.0
 74
     0
 49
-0.25
 74
     0
  0
LTYPE
  5
81F
330
D
100
AcDbSymbolTableRecord
100
AcDbLinetypeTableRecord
  2
DOT2
 70
     0
  3
Dot (.5x) .....................................
 72
    65
 73
     2
 40
0.125
 49
0.0
 74
     0
 49
-0.125
 74
     0
  0
LTYPE
  5
820
330
D
100
AcDbSymbolTableRecord
100
AcDbLinetypeTableRecord
  2
DOTX2
 70
     0
  3
Dot (2x) .  .  .  .  .  .  .  .  .  .  .  .  . 
 72
    65
 73
     2
 40
0.5
 49
0.0
 74
     0
 49
-0.5
 74
     0
  0
LTYPE
  5
821
330
D
100
AcDbSymbolTableRecord
100
AcDbLinetypeTableRecord
  2
GAS_LINE
 70
     0
  3
Gas line ----GAS----GAS----GAS----GAS----GAS---
 72
    65
 73
     3
 40
0.95
 49
0.5
 74
     0
 49
-0.2
 74
     2
 75
     0
340
C
 46
0.1
 50
0.0
 44
-0.1
 45
-0.05
  9
GAS
 49
-0.25
 74
     0
  0
LTYPE
  5
822
330
D
100
AcDbSymbolTableRecord
100
AcDbLinetypeTableRecord
  2
HIDDENX2
 70
     0
  3
Hidden (2x) ____ ____ ____ ____ ____ ____ ____
 72
    65
 73
     2
 40
0.75
 49
0.5
 74
     0
 49
-0.25
 74
     0
  0
LTYPE
  5
823
330
D
100
AcDbSymbolTableRecord
100
AcDbLinetypeTableRecord
  2
PHANTOM
 70
     0
  3
Phantom ______  __  __  ______  __  __  ______
 72
    65
 73
     6
 40
2.5
 49
1.25
 74
     0
 49
-0.25
 74
     0
 49
0.25
 74
     0
 49
-0.25
 74
     0
 49
0.25
 74
     0
 49
-0.25
 74
     0
  0
LTYPE
  5
824
330
D
100
AcDbSymbolTableRecord
100
AcDbLinetypeTableRecord
  2
PHANTOMX2
 70
     0
  3
Phantom (2x) ____________    ____    ____   _
 72
    65
 73
     6
 40
5.0
 49
2.5
 74
     0
 49
-0.5
 74
     0
 49
0.5
 74
     0
 49
-0.5
 74
     0
 49
0.5
 74
     0
 49
-0.5
 74
     0
  0
LTYPE
  5
825
330
D
100
AcDbSymbolTableRecord
100
AcDbLinetypeTableRecord
  2
ZIGZAG
 70
     0
  3
Zig zag /\/\/\/\/\/\/\/\/\/\/\/\/\/\/\/\/\/\/\/
 72
    65
 73
     4
 40
0.8001000000000001
 49
0.0001
 74
     0
 49
-0.2
 74
     4
 75
   131
340
846
 46
0.2
 50
0.0
 44
-0.2
 45
0.0
 49
-0.4
 74
     4
 75
   131
340
846
 46
0.2
 50
180.0
 44
0.2
 45
0.0
 49
-0.2
 74
     0
  0
LTYPE
  5
826
330
D
100
AcDbSymbolTableRecord
100
AcDbLinetypeTableRecord
  2
CPFLEX
 70
     0
  3
CP flex /\/\/\/\/\/\/\/\/\/\/\/\/\/\/\/\/\/\/\/
 72
    65
 73
     4
 40
0.8001000000000001
 49
0.0001
 74
     0
 49
-0.2
 74
     4
 75
   131
340
846
 46
0.2
 50
0.0
 44
-0.2
 45
0.0
 49
-0.4
 74
     4
 75
   131
340
846
 46
0.2
 50
180.0
 44
0.2
 45
0.0
 49
-0.2
 74
     0
  0
LTYPE
  5
827
330
D
100
AcDbSymbolTableRecord
100
AcDbLinetypeTableRecord
  2
CIRC
 70
     0
  3
 ----- ~ ----- ~ ---- ~ -----
 72
    65
 73
     3
 40
9.0
 49
7.0
 74
     0
 49
-1.0
 74
     2
 75
     0
340
C
 46
1.0
 50
0.0
 44
-0.3
 45
-0.6
  9
~
 49
-1.0
 74
     0
  0
LTYPE
  5
828
330
D
100
AcDbSymbolTableRecord
100
AcDbLinetypeTableRecord
  2
BATTING
 70
     0
  3
Batting SSSSSSSSSSSSSSSSSSSSSSSSSSSSSSSSSSSSSSS
 72
    65
 73
     4
 40
0.4001000000000002
 49
0.0001
 74
     0
 49
-0.1
 74
     4
 75
   134
340
846
 46
0.1
 50
0.0
 44
-0.1
 45
0.0
 49
-0.2
 74
     4
 75
   134
340
846
 46
0.1
 50
180.0
 44
0.1
 45
0.0
 49
-0.1
 74
     0
  0
LTYPE
  5
829
330
D
100
AcDbSymbolTableRecord
100
AcDbLinetypeTableRecord
  2
FENCELINE1
 70
     0
  3
Fenceline circle ----0-----0----0-----0----0---
 72
    65
 73
     4
 40
1.45
 49
0.25
 74
     0
 49
-0.1
 74
     4
 75
   133
340
846
 46
0.1
 50
0.0
 44
-0.1
 45
0.0
 49
-0.1
 74
     0
 49
1.0
 74
     0
  0
LTYPE
  5
82A
330
D
100
AcDbSymbolTableRecord
100
AcDbLinetypeTableRecord
  2
FENCELINE2
 70
     0
  3
Fenceline square ----[]-----[]----[]-----[]----
 72
    65
 73
     4
 40
1.45
 49
0.25
 74
     0
 49
-0.1
 74
     4
 75
   132
340
846
 46
0.1
 50
0.0
 44
-0.1
 45
0.0
 49
-0.1
 74
     0
 49
1.0
 74
     0
  0
LTYPE
  5
82B
330
D
100
AcDbSymbolTableRecord
100
AcDbLinetypeTableRecord
  2
GETRENNT
 70
     0
  3
Getrennt ____ . . ____ . . ____ . . ____ . . __
 72
    65
 73
     6
 40
1.25
 49
0.5
 74
     0
 49
-0.25
 74
     0
 49
0.0
 74
     0
 49
-0.25
 74
     0
 49
0.0
 74
     0
 49
-0.25
 74
     0
  0
LTYPE
  5
82C
330
D
100
AcDbSymbolTableRecord
100
AcDbLinetypeTableRecord
  2
GETRENNT2
 70
     0
  3
Getrennt (.5x) __..__..__..__..__..__..__..__..
 72
    65
 73
     6
 40
0.625
 49
0.25
 74
     0
 49
-0.125
 74
     0
 49
0.0
 74
     0
 49
-0.125
 74
     0
 49
0.0
 74
     0
 49
-0.125
 74
     0
  0
LTYPE
  5
82D
330
D
100
AcDbSymbolTableRecord
100
AcDbLinetypeTableRecord
  2
GETRENNTX2
 70
     0
  3
Getrennt (2x) ________  .  .  ________  .  .  _
 72
    65
 73
     6
 40
2.5
 49
1.0
 74
     0
 49
-0.5
 74
     0
 49
0.0
 74
     0
 49
-0.5
 74
     0
 49
0.0
 74
     0
 49
-0.5
 74
     0
  0
LTYPE
  5
82E
330
D
100
AcDbSymbolTableRecord
100
AcDbLinetypeTableRecord
  2
HOT_WATER_SUPPLY
 70
     0
  3
Hot water supply ---- HW ---- HW ---- HW ----
 72
    65
 73
     3
 40
0.9
 49
0.5
 74
     0
 49
-0.2
 74
     2
 75
     0
340
C
 46
0.1
 50
0.0
 44
-0.1
 45
-0.05
  9
HW
 49
-0.2
 74
     0
  0
LTYPE
  5
82F
330
D
100
AcDbSymbolTableRecord
100
AcDbLinetypeTableRecord
  2
MITTE
 70
     0
  3
Mitte ____ _ ____ _ ____ _ ____ _ ____ _ ____
 72
    65
 73
     4
 40
2.0
 49
1.25
 74
     0
 49
-0.25
 74
     0
 49
0.25
 74
     0
 49
-0.25
 74
     0
  0
LTYPE
  5
830
330
D
100
AcDbSymbolTableRecord
100
AcDbLinetypeTableRecord
  2
MITTE2
 70
     0
  3
Mitte (.5x) ___ _ ___ _ ___ _ ___ _ ___ _ ___
 72
    65
 73
     4
 40
1.125
 49
0.75
 74
     0
 49
-0.125
 74
     0
 49
0.125
 74
     0
 49
-0.125
 74
     0
  0
LTYPE
  5
831
330
D
100
AcDbSymbolTableRecord
100
AcDbLinetypeTableRecord
  2
MITTEX2
 70
     0
  3
Mitte (2x) ________  __  ________  __  _____
 72
    65
 73
     4
 40
4.0
 49
2.5
 74
     0
 49
-0.5
 74
     0
 49
0.5
 74
     0
 49
-0.5
 74
     0
  0
LTYPE
  5
832
330
D
100
AcDbSymbolTableRecord
100
AcDbLinetypeTableRecord
  2
PUNKT
 70
     0
  3
Punkt . . . . . . . . . . . . . . . . . . . . .
 72
    65
 73
     2
 40
0.25
 49
0.0
 74
     0
 49
-0.25
 74
     0
  0
LTYPE
  5
833
330
D
100
AcDbSymbolTableRecord
100
AcDbLinetypeTableRecord
  2
PUNKT2
 70
     0
  3
Punkt (.5x) ...................................
 72
    65
 73
     2
 40
0.125
 49
0.0
 74
     0
 49
-0.125
 74
     0
  0
LTYPE
  5
834
330
D
100
AcDbSymbolTableRecord
100
AcDbLinetypeTableRecord
  2
PUNKTX2
 70
     0
  3
Punkt (2x) .  .  .  .  .  .  .  .  .  .  .  .  
 72
    65
 73
     2
 40
0.5
 49
0.0
 74
     0
 49
-0.5
 74
     0
  0
LTYPE
  5
835
330
D
100
AcDbSymbolTableRecord
100
AcDbLinetypeTableRecord
  2
RAND
 70
     0
  3
Rand __ __ . __ __ . __ __ . __ __ . __ __ .
 72
    65
 73
     6
 40
1.75
 49
0.5
 74
     0
 49
-0.25
 74
     0
 49
0.5
 74
     0
 49
-0.25
 74
     0
 49
0.0
 74
     0
 49
-0.25
 74
     0
  0
LTYPE
  5
836
330
D
100
AcDbSymbolTableRecord
100
AcDbLinetypeTableRecord
  2
RAND2
 70
     0
  3
Rand (.5x) __.__.__.__.__.__.__.__.__.__.__.
 72
    65
 73
     6
 40
0.875
 49
0.25
 74
     0
 49
-0.125
 74
     0
 49
0.25
 74
     0
 49
-0.125
 74
     0
 49
0.0
 74
     0
 49
-0.125
 74
     0
  0
LTYPE
  5
837
330
D
100
AcDbSymbolTableRecord
100
AcDbLinetypeTableRecord
  2
RANDX2
 70
     0
  3
Rand (2x) ____  ____  .  ____  ____  .  ___
 72
    65
 73
     6
 40
3.5
 49
1.0
 74
     0
 49
-0.5
 74
     0
 49
1.0
 74
     0
 49
-0.5
 74
     0
 49
0.0
 74
     0
 49
-0.5
 74
     0
  0
LTYPE
  5
838
330
D
100
AcDbSymbolTableRecord
100
AcDbLinetypeTableRecord
  2
STRICHPUNKT
 70
     0
  3
Strichpunkt __ . __ . __ . __ . __ . __ . __ . 
 72
    65
 73
     4
 40
1.0
 49
0.5
 74
     0
 49
-0.25
 74
     0
 49
0.0
 74
     0
 49
-0.25
 74
     0
  0
LTYPE
  5
839
330
D
100
AcDbSymbolTableRecord
100
AcDbLinetypeTableRecord
  2
STRICHPUNKT2
 70
     0
  3
Strichpunkt (.5x) _._._._._._._._._._._._._._._
 72
    65
 73
     4
 40
0.5
 49
0.25
 74
     0
 49
-0.125
 74
     0
 49
0.0
 74
     0
 49
-0.125
 74
     0
  0
LTYPE
  5
83A
330
D
100
AcDbSymbolTableRecord
100
AcDbLinetypeTableRecord
  2
STRICHPUNKTX2
 70
     0
  3
Strichpunkt (2x) ____  .  ____  .  ____  .  ___
 72
    65
 73
     4
 40
2.0
 49
1.0
 74
     0
 49
-0.5
 74
     0
 49
0.0
 74
     0
 49
-0.5
 74
     0
  0
LTYPE
  5
83B
330
D
100
AcDbSymbolTableRecord
100
AcDbLinetypeTableRecord
  2
TRACKS
 70
     0
  3
Tracks -|-|-|-|-|-|-|-|-|-|-|-|-|-|-|-|-|-|-|-|
 72
    65
 73
     2
 40
0.3
 49
0.15
 74
     4
 75
   130
340
846
 46
0.25
 50
0.0
 44
0.0
 45
0.0
 49
0.15
 74
     0
  0
LTYPE
  5
83C
330
D
100
AcDbSymbolTableRecord
100
AcDbLinetypeTableRecord
  2
VERDECKT
 70
     0
  3
Verdeckt __ __ __ __ __ __ __ __ __ __ __ __ __
 72
    65
 73
     2
 40
0.375
 49
0.25
 74
     0
 49
-0.125
 74
     0
  0
LTYPE
  5
83D
330
D
100
AcDbSymbolTableRecord
100
AcDbLinetypeTableRecord
  2
VERDECKT2
 70
     0
  3
Verdeckt (.5x) _ _ _ _ _ _ _ _ _ _ _ _ _ _ _ _ 
 72
    65
 73
     2
 40
0.1875
 49
0.125
 74
     0
 49
-0.0625
 74
     0
  0
LTYPE
  5
83E
330
D
100
AcDbSymbolTableRecord
100
AcDbLinetypeTableRecord
  2
VERDECKTX2
 70
     0
  3
Verdeckt (2x) ____ ____ ____ ____ ____ ____ ___
 72
    65
 73
     2
 40
0.75
 49
0.5
 74
     0
 49
-0.25
 74
     0
  0
LTYPE
  5
83F
330
D
100
AcDbSymbolTableRecord
100
AcDbLinetypeTableRecord
  2
STRICHLINIE
 70
     0
  3
Strichlinie __ __ __ __ __ __ __ __ __ __ __ __
 72
    65
 73
     2
 40
0.75
 49
0.5
 74
     0
 49
-0.25
 74
     0
  0
LTYPE
  5
840
330
D
100
AcDbSymbolTableRecord
100
AcDbLinetypeTableRecord
  2
STRICHLINIE2
 70
     0
  3
Strichlinie (.5x) _ _ _ _ _ _ _ _ _ _ _ _ _ _ _
 72
    65
 73
     2
 40
0.375
 49
0.25
 74
     0
 49
-0.125
 74
     0
  0
LTYPE
  5
841
330
D
100
AcDbSymbolTableRecord
100
AcDbLinetypeTableRecord
  2
STRICHLINIEX2
 70
     0
  3
Strichlinie (2x) ____  ____  ____  ____  ____  
 72
    65
 73
     2
 40
1.5
 49
1.0
 74
     0
 49
-0.5
 74
     0
  0
ENDTAB
  0
TABLE
  2
LAYER
  5
A
102
{ACAD_XDICTIONARY
360
30B
102
}
330
0
100
AcDbSymbolTable
 70
    24
  0
LAYER
  5
4
102
{ACAD_XDICTIONARY
360
758
102
}
330
A
100
AcDbSymbolTableRecord
100
AcDbLayerTableRecord
  2
0
 70
     0
 62
     7
  6
CONTINUOUS
370
    -3
390
41
347
107
348
0
  0
LAYER
  5
1B
102
{ACAD_XDICTIONARY
360
75A
102
}
330
A
100
AcDbSymbolTableRecord
100
AcDbLayerTableRecord
  2
LAYER03
 70
     0
 62
     7
  6
CONTINUOUS
370
    -3
390
41
347
107
348
0
  0
LAYER
  5
29
102
{ACAD_XDICTIONARY
360
75C
102
}
330
A
100
AcDbSymbolTableRecord
100
AcDbLayerTableRecord
  2
KÖRPERKANTEN
 70
     0
 62
     7
  6
CONTINUOUS
370
    -3
390
41
347
107
348
0
  0
LAYER
  5
23
102
{ACAD_XDICTIONARY
360
75E
102
}
330
A
100
AcDbSymbolTableRecord
100
AcDbLayerTableRecord
  2
LICHTKANTEN
 70
     0
 62
     2
  6
CONTINUOUS
370
    -3
390
41
347
107
348
0
  0
LAYER
  5
26
102
{ACAD_XDICTIONARY
360
760
102
}
330
A
100
AcDbSymbolTableRecord
100
AcDbLayerTableRecord
  2
MITTELLINIEN
 70
     0
 62
     3
  6
STRICHPUNKTIERT
370
    -3
390
41
347
107
348
0
  0
LAYER
  5
1F
102
{ACAD_XDICTIONARY
360
762
102
}
330
A
100
AcDbSymbolTableRecord
100
AcDbLayerTableRecord
  2
VERDECKT
 70
     0
 62
     6
  6
GESTRICHELT
370
    -3
390
41
347
107
348
0
  0
LAYER
  5
247
330
A
100
AcDbSymbolTableRecord
100
AcDbLayerTableRecord
  2
Defpoints
 70
     0
 62
     7
  6
CONTINUOUS
290
     0
370
    -3
390
41
347
107
348
0
  0
LAYER
  5
307
102
{ACAD_XDICTIONARY
360
308
102
}
330
A
100
AcDbSymbolTableRecord
100
AcDbLayerTableRecord
  2
AM_2 ( Kontur 0.25)
 70
     0
 62
     5
  6
CONTINUOUS
370
    25
390
41
347
107
348
0
1001
AcAecLayerStandard
1000

1000

  0
LAYER
  5
30A
102
{ACAD_XDICTIONARY
360
764
102
}
330
A
100
AcDbSymbolTableRecord
100
AcDbLayerTableRecord
  2
AM_0 ( Kontur 0.5 )
 70
     0
 62
     7
  6
CONTINUOUS
370
    50
390
41
347
107
348
0
1001
AcAecLayerStandard
1000

1000

  0
LAYER
  5
30E
102
{ACAD_XDICTIONARY
360
766
102
}
330
A
100
AcDbSymbolTableRecord
100
AcDbLayerTableRecord
  2
AM_7 (Mittellinie)
 70
     0
 62
     4
  6
AM_ISO08W050
370
    25
390
41
347
107
348
0
1001
AcAecLayerStandard
1000

1000

  0
LAYER
  5
310
102
{ACAD_XDICTIONARY
360
768
102
}
330
A
100
AcDbSymbolTableRecord
100
AcDbLayerTableRecord
  2
AM_3 ( Verdeckt )
 70
     0
 62
     6
  6
AM_ISO02W050
370
    25
390
41
347
107
348
0
1001
AcAecLayerStandard
1000

1000

  0
LAYER
  5
314
102
{ACAD_XDICTIONARY
360
76A
102
}
330
A
100
AcDbSymbolTableRecord
100
AcDbLayerTableRecord
  2
AM_5 ( Bemassung)
 70
     0
 62
     3
  6
CONTINUOUS
370
    25
390
41
347
107
348
0
1001
AcAecLayerStandard
1000

1000

  0
LAYER
  5
452
102
{ACAD_XDICTIONARY
360
76C
102
}
330
A
100
AcDbSymbolTableRecord
100
AcDbLayerTableRecord
  2
AM_CL ( Konstruktionlinien)
 70
     0
 62
     1
  6
Amconstr
370
    25
390
41
347
107
348
0
1001
AcAecLayerStandard
1000

1000

  0
LAYER
  5
842
330
A
100
AcDbSymbolTableRecord
100
AcDbLayerTableRecord
  2
CP_TEXTNORM
 70
     0
 62
    53
  6
CONTINUOUS
370
    -3
390
41
347
107
348
0
  0
LAYER
  5
843
330
A
100
AcDbSymbolTableRecord
100
AcDbLayerTableRecord
  2
CP_DIM
 70
     0
 62
   173
  6
CONTINUOUS
370
    -3
390
41
347
107
348
0
  0
LAYER
  5
844
330
A
100
AcDbSymbolTableRecord
100
AcDbLayerTableRecord
  2
CP_TEXTBOLD
 70
     0
 62
   175
  6
CONTINUOUS
370
    -3
390
41
347
107
348
0
  0
LAYER
  5
98B
330
A
100
AcDbSymbolTableRecord
100
AcDbLayerTableRecord
  2
AM_5
 70
     0
 62
     3
  6
CONTINUOUS
370
    15
390
41
347
107
348
0
1001
AcAecLayerStandard
1000

1000

  0
LAYER
  5
C34
330
A
100
AcDbSymbolTableRecord
100
AcDbLayerTableRecord
  2
AM_0
 70
     0
 62
     7
  6
CONTINUOUS
370
    30
390
41
347
107
348
0
1001
AcAecLayerStandard
1000

1000

  0
LAYER
  5
C35
330
A
100
AcDbSymbolTableRecord
100
AcDbLayerTableRecord
  2
AM_3
 70
     0
 62
     6
  6
HIDDEN
370
    15
390
41
347
107
348
0
1001
AcAecLayerStandard
1000

1000

  0
LAYER
  5
C36
330
A
100
AcDbSymbolTableRecord
100
AcDbLayerTableRecord
  2
AM_1
 70
     0
 62
    14
  6
CONTINUOUS
370
    30
390
41
347
107
348
0
1001
AcAecLayerStandard
1000

1000

  0
LAYER
  5
C37
330
A
100
AcDbSymbolTableRecord
100
AcDbLayerTableRecord
  2
AM_7
 70
     0
 62
     4
  6
CENTER
370
    15
390
41
347
107
348
0
1001
AcAecLayerStandard
1000

1000

  0
LAYER
  5
C38
330
A
100
AcDbSymbolTableRecord
100
AcDbLayerTableRecord
  2
AM_1 ( Kontur 0.7)
 70
     0
 62
    14
  6
CONTINUOUS
370
    70
390
41
347
107
348
0
1001
AcAecLayerStandard
1000

1000

  0
LAYER
  5
C39
102
{ACAD_XDICTIONARY
360
C3A
102
}
330
A
100
AcDbSymbolTableRecord
100
AcDbLayerTableRecord
  2
AM_12 ( Teile Referenz)
 70
     0
 62
     7
  6
CONTINUOUS
290
     0
370
    50
390
41
347
107
348
0
1001
AcAecLayerStandard
1000

1000

  0
LAYER
  5
C3B
102
{ACAD_XDICTIONARY
360
C3C
102
}
330
A
100
AcDbSymbolTableRecord
100
AcDbLayerTableRecord
  2
AM_PAREF ( Teilereferenz)
 70
     0
 62
     4
  6
CONTINUOUS
290
     0
370
    25
390
41
347
107
348
0
1001
AcAecLayerStandard
1000

1000

  0
ENDTAB
  0
TABLE
  2
STYLE
  5
B
330
0
100
AcDbSymbolTable
 70
    18
  0
STYLE
  5
C
330
B
100
AcDbSymbolTableRecord
100
AcDbTextStyleTableRecord
  2
STANDARD
 70
     0
 40
0.0
 41
1.0
 50
0.0
 71
     0
 42
3.5
  3
ARIAL.TTF
  4

1001
ACAD
1000
Arial
1071
       34
  0
STYLE
  5
1B0
330
B
100
AcDbSymbolTableRecord
100
AcDbTextStyleTableRecord
  2
ACANSTS
 70
     0
 40
1.0
 41
1.0
 50
0.0
 71
     0
 42
3.5
  3
romans.shx
  4

  0
STYLE
  5
1BE
330
B
100
AcDbSymbolTableRecord
100
AcDbTextStyleTableRecord
  2
ACANSGDT
 70
     0
 40
0.0
 41
1.0
 50
0.0
 71
     0
 42
3.5
  3
amgdt.shx
  4

  0
STYLE
  5
2A4
330
B
100
AcDbSymbolTableRecord
100
AcDbTextStyleTableRecord
  2

 70
     1
 40
0.0
 41
1.0
 50
0.0
 71
     0
 42
2.5
  3
genltshp.shx
  4

  0
STYLE
  5
2B5
330
B
100
AcDbSymbolTableRecord
100
AcDbTextStyleTableRecord
  2
ACDINTS
 70
     0
 40
1.0
 41
1.0
 50
0.0
 71
     0
 42
3.5
  3
isocp.shx
  4

  0
STYLE
  5
2B9
330
B
100
AcDbSymbolTableRecord
100
AcDbTextStyleTableRecord
  2
ACDINGDT
 70
     0
 40
0.0
 41
1.0
 50
0.0
 71
     0
 42
3.5
  3
amgdt.shx
  4

  0
STYLE
  5
2DF
330
B
100
AcDbSymbolTableRecord
100
AcDbTextStyleTableRecord
  2
ACISOTS
 70
     0
 40
1.0
 41
1.0
 50
0.0
 71
     0
 42
2.5
  3
ARIALN.TTF
  4

1001
ACAD
1000
Arial Narrow
1071
       34
  0
STYLE
  5
2E3
330
B
100
AcDbSymbolTableRecord
100
AcDbTextStyleTableRecord
  2
ACISOGDT
 70
     0
 40
0.0
 41
1.0
 50
0.0
 71
     0
 42
2.5
  3
amgdt.shx
  4

  0
STYLE
  5
303
330
B
100
AcDbSymbolTableRecord
100
AcDbTextStyleTableRecord
  2
Annotative
 70
     0
 40
0.0
 41
1.0
 50
0.0
 71
     0
 42
0.2
  3
@Arial Unicode MS
  4

1001
AcadAnnotative
1000
AnnotativeData
1002
{
1070
     1
1070
     1
1002
}
  0
STYLE
  5
304
330
B
100
AcDbSymbolTableRecord
100
AcDbTextStyleTableRecord
  2
USER1
 70
     0
 40
0.0
 41
1.0
 50
0.0
 71
     0
 42
3.5
  3
TXT.SHX
  4

  0
STYLE
  5
305
330
B
100
AcDbSymbolTableRecord
100
AcDbTextStyleTableRecord
  2
USER2
 70
     0
 40
0.0
 41
1.0
 50
0.0
 71
     0
 42
3.5
  3
SIMPLEX.SHX
  4

  0
STYLE
  5
306
330
B
100
AcDbSymbolTableRecord
100
AcDbTextStyleTableRecord
  2
USER3
 70
     0
 40
0.0
 41
1.0
 50
0.0
 71
     0
 42
3.5
  3
ITALIC.SHX
  4

  0
STYLE
  5
845
330
B
100
AcDbSymbolTableRecord
100
AcDbTextStyleTableRecord
  2
CP_TXT
 70
     0
 40
0.0
 41
1.0
 50
0.0
 71
     0
 42
2.5
  3
ROMANS.SHX
  4

  0
STYLE
  5
846
330
B
100
AcDbSymbolTableRecord
100
AcDbTextStyleTableRecord
  2

 70
     1
 40
0.0
 41
1.0
 50
0.0
 71
     0
 42
2.5
  3
LTYPESHP.SHX
  4

  0
STYLE
  5
847
330
B
100
AcDbSymbolTableRecord
100
AcDbTextStyleTableRecord
  2
CP_ATTR
 70
     0
 40
0.0
 41
1.0
 50
0.0
 71
     0
 42
0.2
  3
ROMANS.SHX
  4

  0
STYLE
  5
848
330
B
100
AcDbSymbolTableRecord
100
AcDbTextStyleTableRecord
  2
CP_TXT_IT
 70
     0
 40
0.0
 41
1.0
 50
15.0
 71
     0
 42
2.5
  3
ROMANS.SHX
  4

  0
STYLE
  5
849
330
B
100
AcDbSymbolTableRecord
100
AcDbTextStyleTableRecord
  2
CP_TXTCON
 70
     0
 40
0.0
 41
0.8
 50
0.0
 71
     0
 42
2.5
  3
ROMANS.SHX
  4

  0
STYLE
  5
84A
330
B
100
AcDbSymbolTableRecord
100
AcDbTextStyleTableRecord
  2
CP_TXTCON_IT
 70
     0
 40
0.0
 41
0.8
 50
15.0
 71
     0
 42
2.5
  3
ROMANS.SHX
  4

  0
ENDTAB
  0
TABLE
  2
VIEW
  5
10
330
0
100
AcDbSymbolTable
 70
     0
  0
ENDTAB
  0
TABLE
  2
UCS
  5
11
330
0
100
AcDbSymbolTable
 70
     0
  0
ENDTAB
  0
TABLE
  2
APPID
  5
14
330
0
100
AcDbSymbolTable
 70
    72
  0
APPID
  5
15
330
14
100
AcDbSymbolTableRecord
100
AcDbRegAppTableRecord
  2
ACAD
 70
     0
  0
APPID
  5
144
330
14
100
AcDbSymbolTableRecord
100
AcDbRegAppTableRecord
  2
ACAD_MLEADERVER
 70
     0
  0
APPID
  5
14C
330
14
100
AcDbSymbolTableRecord
100
AcDbRegAppTableRecord
  2
MCAD_NO_VIS
 70
     0
  0
APPID
  5
14D
330
14
100
AcDbSymbolTableRecord
100
AcDbRegAppTableRecord
  2
ACAD_TEMP_GRAPHIC
 70
     0
  0
APPID
  5
17D
330
14
100
AcDbSymbolTableRecord
100
AcDbRegAppTableRecord
  2
AD_DRAW
 70
     0
  0
APPID
  5
180
330
14
100
AcDbSymbolTableRecord
100
AcDbRegAppTableRecord
  2
ACATTRIBSERVICES
 70
     0
  0
APPID
  5
1A1
330
14
100
AcDbSymbolTableRecord
100
AcDbRegAppTableRecord
  2
DESIGNERASSEMBLIES
 70
     0
  0
APPID
  5
1A7
330
14
100
AcDbSymbolTableRecord
100
AcDbRegAppTableRecord
  2
ACADM_DIM_EDIT
 70
     0
  0
APPID
  5
1A8
330
14
100
AcDbSymbolTableRecord
100
AcDbRegAppTableRecord
  2
AMDT_DM_ADJ
 70
     0
  0
APPID
  5
248
330
14
100
AcDbSymbolTableRecord
100
AcDbRegAppTableRecord
  2
AcadAnnotative
 70
     0
  0
APPID
  5
249
330
14
100
AcDbSymbolTableRecord
100
AcDbRegAppTableRecord
  2
ACAD_DSTYLE_DIMARC_LENGTH_SYMBOL
 70
     0
  0
APPID
  5
24A
330
14
100
AcDbSymbolTableRecord
100
AcDbRegAppTableRecord
  2
AcAecLayerStandard
 70
     0
  0
APPID
  5
24B
330
14
100
AcDbSymbolTableRecord
100
AcDbRegAppTableRecord
  2
ACAD_DSTYLE_DIMJOGGED_JOGANGLE_SYMBOL
 70
     0
  0
APPID
  5
24C
330
14
100
AcDbSymbolTableRecord
100
AcDbRegAppTableRecord
  2
AcadAnnoPO
 70
     0
  0
APPID
  5
24D
330
14
100
AcDbSymbolTableRecord
100
AcDbRegAppTableRecord
  2
ACAD_EXEMPT_FROM_CAD_STANDARDS
 70
     0
  0
APPID
  5
24E
330
14
100
AcDbSymbolTableRecord
100
AcDbRegAppTableRecord
  2
GENIUS_GENODEF_13
 70
     0
  0
APPID
  5
24F
330
14
100
AcDbSymbolTableRecord
100
AcDbRegAppTableRecord
  2
GENIUS_GENOBJ-N-CRS_13
 70
     0
  0
APPID
  5
250
330
14
100
AcDbSymbolTableRecord
100
AcDbRegAppTableRecord
  2
GENIUS_GENOENT_13
 70
     0
  0
APPID
  5
251
330
14
100
AcDbSymbolTableRecord
100
AcDbRegAppTableRecord
  2
GENIUS_GENOLIS_13
 70
     0
  0
APPID
  5
252
330
14
100
AcDbSymbolTableRecord
100
AcDbRegAppTableRecord
  2
GENIUS_GENOREF_13
 70
     0
  0
APPID
  5
253
330
14
100
AcDbSymbolTableRecord
100
AcDbRegAppTableRecord
  2
GEVID1190879659
 70
     0
  0
APPID
  5
254
330
14
100
AcDbSymbolTableRecord
100
AcDbRegAppTableRecord
  2
GEVDC
 70
     0
  0
APPID
  5
255
330
14
100
AcDbSymbolTableRecord
100
AcDbRegAppTableRecord
  2
GENIUS_GENBH_13
 70
     0
  0
APPID
  5
256
330
14
100
AcDbSymbolTableRecord
100
AcDbRegAppTableRecord
  2
GENIUS_GENOBJ-NBEHI-BHF_13
 70
     0
  0
APPID
  5
257
330
14
100
AcDbSymbolTableRecord
100
AcDbRegAppTableRecord
  2
GENIUS_GENOBJ-NBEHI-BHB_13
 70
     0
  0
APPID
  5
258
330
14
100
AcDbSymbolTableRecord
100
AcDbRegAppTableRecord
  2
GEVID1190879660
 70
     0
  0
APPID
  5
259
330
14
100
AcDbSymbolTableRecord
100
AcDbRegAppTableRecord
  2
GEVID1190879661
 70
     0
  0
APPID
  5
25A
330
14
100
AcDbSymbolTableRecord
100
AcDbRegAppTableRecord
  2
ACAD_DSTYLE_DIMRADIAL_EXTENSION
 70
     0
  0
APPID
  5
25B
330
14
100
AcDbSymbolTableRecord
100
AcDbRegAppTableRecord
  2
GEVID1190879662
 70
     0
  0
APPID
  5
25C
330
14
100
AcDbSymbolTableRecord
100
AcDbRegAppTableRecord
  2
GEVID1190879663
 70
     0
  0
APPID
  5
25D
330
14
100
AcDbSymbolTableRecord
100
AcDbRegAppTableRecord
  2
GEVID1190879664
 70
     0
  0
APPID
  5
25E
330
14
100
AcDbSymbolTableRecord
100
AcDbRegAppTableRecord
  2
GEVID1190879665
 70
     0
  0
APPID
  5
25F
330
14
100
AcDbSymbolTableRecord
100
AcDbRegAppTableRecord
  2
GEVID1190879666
 70
     0
  0
APPID
  5
260
330
14
100
AcDbSymbolTableRecord
100
AcDbRegAppTableRecord
  2
GENIUS_GENOBJ-N-CEN_13
 70
     0
  0
APPID
  5
261
330
14
100
AcDbSymbolTableRecord
100
AcDbRegAppTableRecord
  2
GENIUS_GENCEN_19
 70
     0
  0
APPID
  5
262
330
14
100
AcDbSymbolTableRecord
100
AcDbRegAppTableRecord
  2
GEVID1190879667
 70
     0
  0
APPID
  5
263
330
14
100
AcDbSymbolTableRecord
100
AcDbRegAppTableRecord
  2
GENIUS_GENOBJ-N-CRC_13
 70
     0
  0
APPID
  5
264
330
14
100
AcDbSymbolTableRecord
100
AcDbRegAppTableRecord
  2
GENIUS_GENCRC_14
 70
     0
  0
APPID
  5
265
330
14
100
AcDbSymbolTableRecord
100
AcDbRegAppTableRecord
  2
ACAD_PSEXT
 70
     0
  0
APPID
  5
266
330
14
100
AcDbSymbolTableRecord
100
AcDbRegAppTableRecord
  2
GEVID1190888456
 70
     0
  0
APPID
  5
267
330
14
100
AcDbSymbolTableRecord
100
AcDbRegAppTableRecord
  2
GEVID1190888457
 70
     0
  0
APPID
  5
268
330
14
100
AcDbSymbolTableRecord
100
AcDbRegAppTableRecord
  2
GEVID1190888458
 70
     0
  0
APPID
  5
269
330
14
100
AcDbSymbolTableRecord
100
AcDbRegAppTableRecord
  2
GEVID1190888459
 70
     0
  0
APPID
  5
26A
330
14
100
AcDbSymbolTableRecord
100
AcDbRegAppTableRecord
  2
GEVID1190888460
 70
     0
  0
APPID
  5
26B
330
14
100
AcDbSymbolTableRecord
100
AcDbRegAppTableRecord
  2
GEVID1190888461
 70
     0
  0
APPID
  5
26C
330
14
100
AcDbSymbolTableRecord
100
AcDbRegAppTableRecord
  2
GEVID1190888462
 70
     0
  0
APPID
  5
26D
330
14
100
AcDbSymbolTableRecord
100
AcDbRegAppTableRecord
  2
ACAD_DSTYLE_DIMJAG
 70
     0
  0
APPID
  5
26E
330
14
100
AcDbSymbolTableRecord
100
AcDbRegAppTableRecord
  2
ACAD_DSTYLE_DIMTALN
 70
     0
  0
APPID
  5
26F
330
14
100
AcDbSymbolTableRecord
100
AcDbRegAppTableRecord
  2
GENIUS_GENBLLY_14
 70
     0
  0
APPID
  5
270
330
14
100
AcDbSymbolTableRecord
100
AcDbRegAppTableRecord
  2
DCO15
 70
     0
  0
APPID
  5
271
330
14
100
AcDbSymbolTableRecord
100
AcDbRegAppTableRecord
  2
GENIUS_GENREC_14
 70
     0
  0
APPID
  5
272
330
14
100
AcDbSymbolTableRecord
100
AcDbRegAppTableRecord
  2
GENIUS_GENOBJ-N-REC_13
 70
     0
  0
APPID
  5
273
330
14
100
AcDbSymbolTableRecord
100
AcDbRegAppTableRecord
  2
GENIUS_GENOBJ-N-TIT_13
 70
     0
  0
APPID
  5
274
330
14
100
AcDbSymbolTableRecord
100
AcDbRegAppTableRecord
  2
GENIUS_GENTITLE_13
 70
     0
  0
APPID
  5
275
330
14
100
AcDbSymbolTableRecord
100
AcDbRegAppTableRecord
  2
GENIUS_GENSCREG_15
 70
     0
  0
APPID
  5
276
330
14
100
AcDbSymbolTableRecord
100
AcDbRegAppTableRecord
  2
GENIUS_GENOBJ-N-SDF_13
 70
     0
  0
APPID
  5
277
330
14
100
AcDbSymbolTableRecord
100
AcDbRegAppTableRecord
  2
ACAD_DSTYLE_DIMINSPECT
 70
     0
  0
APPID
  5
278
330
14
100
AcDbSymbolTableRecord
100
AcDbRegAppTableRecord
  2
GENIUS_GENDIMSH_14
 70
     0
  0
APPID
  5
279
330
14
100
AcDbSymbolTableRecord
100
AcDbRegAppTableRecord
  2
GENIUS_GENOBJ-N-HTC_13
 70
     0
  0
APPID
  5
27A
330
14
100
AcDbSymbolTableRecord
100
AcDbRegAppTableRecord
  2
GENIUS_GENHATCH_13
 70
     0
  0
APPID
  5
27B
330
14
100
AcDbSymbolTableRecord
100
AcDbRegAppTableRecord
  2
ACAUTHENVIRON
 70
     0
  0
APPID
  5
27C
330
14
100
AcDbSymbolTableRecord
100
AcDbRegAppTableRecord
  2
AcDbDynamicBlockTrueName
 70
     0
  0
APPID
  5
27D
330
14
100
AcDbSymbolTableRecord
100
AcDbRegAppTableRecord
  2
AcDbDynamicBlockGUID
 70
     0
  0
APPID
  5
27E
330
14
100
AcDbSymbolTableRecord
100
AcDbRegAppTableRecord
  2
ACDBBLOCKREPETAG
 70
     0
  0
APPID
  5
69F
330
14
100
AcDbSymbolTableRecord
100
AcDbRegAppTableRecord
  2
GENIUS_GENDTOL_13
 70
     0
  0
APPID
  5
974
330
14
100
AcDbSymbolTableRecord
100
AcDbRegAppTableRecord
  2
EAR3_SAP_ACAD
 70
     0
  0
APPID
  5
C27
330
14
100
AcDbSymbolTableRecord
100
AcDbRegAppTableRecord
  2
ACAD_NAV_VCDISPLAY
 70
     0
  0
APPID
  5
C45
330
14
100
AcDbSymbolTableRecord
100
AcDbRegAppTableRecord
  2
ACAD_DSTYLE_DIMBREAK
 70
     0
  0
APPID
  5
C46
330
14
100
AcDbSymbolTableRecord
100
AcDbRegAppTableRecord
  2
CADDESKTOPMDT
 70
     0
  0
APPID
  5
C47
330
14
100
AcDbSymbolTableRecord
100
AcDbRegAppTableRecord
  2
GENIUS_GENOBJ-N-FIL_13
 70
     0
  0
APPID
  5
C48
330
14
100
AcDbSymbolTableRecord
100
AcDbRegAppTableRecord
  2
GENIUS_GENTRA_14
 70
     0
  0
APPID
  5
C49
330
14
100
AcDbSymbolTableRecord
100
AcDbRegAppTableRecord
  2
GENIUS_AMGTXT_16
 70
     0
  0
ENDTAB
  0
TABLE
  2
DIMSTYLE
  5
16
330
0
100
AcDbSymbolTable
 70
    40
100
AcDbDimStyleTable
 71
     2
340
1CB
340
2D3
  0
DIMSTYLE
105
1D
330
16
100
AcDbSymbolTableRecord
100
AcDbDimStyleTableRecord
  2
STANDARD
 70
     0
340
C
  0
DIMSTYLE
105
1CB
330
16
100
AcDbSymbolTableRecord
100
AcDbDimStyleTableRecord
  2
AM_ANSI
 70
     0
  4
mm
 41
0.1
 42
0.05
 43
0.5
 44
0.1
 47
0.1
 48
0.1
 78
     7
 79
     2
 90
     1
140
0.12
141
0.0
146
0.71
147
0.06
176
   256
177
   256
178
     2
274
     4
284
     7
340
C
371
    -1
372
    -1
  0
DIMSTYLE
105
1CC
330
16
100
AcDbSymbolTableRecord
100
AcDbDimStyleTableRecord
  2
AM_ANSI$3
 70
     0
  4
mm
 41
0.1
 42
0.05
 43
0.5
 44
0.1
 47
0.1
 48
0.1
 78
     7
 79
     2
 90
     1
140
0.12
141
0.0
146
0.71
147
0.06
176
   256
177
   256
178
     2
274
     4
284
     7
288
     1
289
     0
340
C
371
    -1
372
    -1
  0
DIMSTYLE
105
1CD
330
16
100
AcDbSymbolTableRecord
100
AcDbDimStyleTableRecord
  2
AM_ANSI$4
 70
     0
  4
mm
 41
0.1
 42
0.05
 43
0.5
 44
0.1
 47
0.1
 48
0.1
 78
     7
 79
     2
 90
     1
140
0.12
141
0.0
146
0.71
147
0.06
176
   256
177
   256
178
     2
274
     4
284
     7
288
     1
289
     0
340
C
371
    -1
372
    -1
  0
DIMSTYLE
105
1CE
330
16
100
AcDbSymbolTableRecord
100
AcDbDimStyleTableRecord
  2
AM_ANSI$7
 70
     0
  4
mm
 41
0.1
 42
0.05
 43
0.5
 44
0.1
 47
0.1
 48
0.1
 78
     7
 79
     2
 90
     1
140
0.24
141
0.0
146
0.71
147
0.06
176
   256
177
   256
178
     2
274
     4
284
     7
340
C
371
    -1
372
    -1
  0
DIMSTYLE
105
1CF
330
16
100
AcDbSymbolTableRecord
100
AcDbDimStyleTableRecord
  2
AM_ANSI$SF
 70
     0
  4
mm
 41
0.1
 42
0.05
 43
0.5
 44
0.1
 47
0.1
 48
0.1
 75
     1
 76
     1
 78
     7
 79
     2
 90
     1
140
0.12
141
0.0
146
0.71
147
0.06
176
   256
177
   256
178
     2
274
     4
284
     7
340
C
371
    -1
372
    -1
  0
DIMSTYLE
105
1D4
330
16
100
AcDbSymbolTableRecord
100
AcDbDimStyleTableRecord
  2
AM_ANSI$SH
 70
     0
  4
mm
 41
0.1
 42
0.05
 43
0.5
 44
0.1
 47
0.1
 48
0.1
 75
     1
 76
     1
 78
     7
 79
     2
 90
     1
140
0.12
141
0.0
146
0.71
147
0.06
173
     1
176
   256
177
   256
178
     2
274
     4
284
     7
340
C
343
1D0
371
    -1
372
    -1
  0
DIMSTYLE
105
2D3
330
16
100
AcDbSymbolTableRecord
100
AcDbDimStyleTableRecord
  2
AM_DIN
 70
     0
  4
"
 41
5.0
 42
1.0
 43
10.0
 44
1.0
 47
0.1
 48
0.1
 50
89.99999999999998
 73
     0
 74
     0
 77
     1
 78
     8
 79
     2
140
5.0
141
0.0
143
0.0393701
146
0.71
147
1.5
172
     1
176
   256
177
   256
178
     2
271
     2
272
     2
283
     0
284
     8
340
C
371
    -1
372
    -1
1001
ACAD_DSTYLE_DIMJAG
1070
   388
1040
1.5
1001
ACAD_DSTYLE_DIMTALN
1070
   392
1070
     0
1001
ACAD_DSTYLE_DIMJOGGED_JOGANGLE_SYMBOL
1070
   384
1040
1.570796326794896
  0
DIMSTYLE
105
2D4
102
{ACAD_REACTORS
330
46A
330
422
330
4F6
330
3F0
330
3C9
330
33E
330
38C
330
365
330
317
102
}
330
16
100
AcDbSymbolTableRecord
100
AcDbDimStyleTableRecord
  2
AM_DIN$0
 70
     0
  4
"
 41
4.0
 42
0.0
 43
10.0
 44
1.0
 47
0.1
 48
0.1
 50
89.99999999999998
 73
     0
 74
     0
 77
     1
 78
     8
 79
     2
140
3.5
141
0.0
143
0.0393701
146
0.71
147
1.5
172
     1
176
   256
177
   256
178
     2
271
     2
272
     2
283
     0
284
     8
340
C
371
    -1
372
    -1
1001
ACAD_DSTYLE_DIMJOGGED_JOGANGLE_SYMBOL
1070
   384
1040
1.570796326794896
  0
DIMSTYLE
105
2D5
102
{ACAD_REACTORS
330
4DC
330
49C
102
}
330
16
100
AcDbSymbolTableRecord
100
AcDbDimStyleTableRecord
  2
AM_DIN$2
 70
     0
  4
"
 41
4.0
 42
0.0
 43
10.0
 44
1.0
 47
0.1
 48
0.1
 50
89.99999999999998
 73
     0
 74
     0
 77
     1
 78
     8
 79
     2
140
3.5
141
0.0
143
0.0393701
146
0.71
147
1.5
172
     1
176
   256
177
   256
178
     2
271
     2
272
     2
283
     0
284
     8
340
C
371
    -1
372
    -1
1001
ACAD_DSTYLE_DIMJOGGED_JOGANGLE_SYMBOL
1070
   384
1040
1.570796326794896
  0
DIMSTYLE
105
2D6
330
16
100
AcDbSymbolTableRecord
100
AcDbDimStyleTableRecord
  2
AM_DIN$3
 70
     0
  4
"
 41
3.5
 42
1.0
 43
10.0
 44
1.0
 47
0.1
 48
0.1
 50
89.99999999999998
 73
     0
 77
     1
 78
     8
 79
     2
140
3.5
141
0.0
143
0.0393701
146
0.71
147
1.5
176
   256
177
   256
178
     2
271
     2
272
     2
283
     0
284
     8
288
     1
289
     0
340
C
371
    -1
372
    -1
1001
ACAD_DSTYLE_DIMJOGGED_JOGANGLE_SYMBOL
1070
   384
1040
1.570796326794896
  0
DIMSTYLE
105
2D7
330
16
100
AcDbSymbolTableRecord
100
AcDbDimStyleTableRecord
  2
AM_DIN$4
 70
     0
  4
"
 41
4.0
 42
1.0
 43
10.0
 44
1.0
 47
0.1
 48
0.1
 50
89.99999999999998
 73
     0
 77
     1
 78
     8
 79
     2
140
3.5
141
0.0
143
0.0393701
146
0.71
147
1.5
176
   256
177
   256
178
     2
271
     2
272
     2
283
     0
284
     8
288
     1
289
     0
340
C
371
    -1
372
    -1
1001
ACAD_DSTYLE_DIMJOGGED_JOGANGLE_SYMBOL
1070
   384
1040
1.570796326794896
  0
DIMSTYLE
105
2D8
330
16
100
AcDbSymbolTableRecord
100
AcDbDimStyleTableRecord
  2
AM_DIN$6
 70
     0
  4
"
 41
4.0
 42
0.0
 43
10.0
 44
1.0
 47
0.1
 48
0.1
 50
89.99999999999998
 73
     0
 74
     0
 78
     8
 79
     2
140
3.5
141
0.0
143
0.0393701
146
0.71
147
1.5
172
     1
176
   256
177
   256
178
     2
271
     2
272
     2
283
     0
284
     8
340
C
371
    -1
372
    -1
1001
ACAD_DSTYLE_DIMJOGGED_JOGANGLE_SYMBOL
1070
   384
1040
1.570796326794896
  0
DIMSTYLE
105
2D9
330
16
100
AcDbSymbolTableRecord
100
AcDbDimStyleTableRecord
  2
AM_DIN$7
 70
     0
  4
"
 41
5.0
 42
1.0
 43
10.0
 44
1.0
 47
0.1
 48
0.1
 50
89.99999999999998
 73
     0
 74
     0
 77
     1
 78
     8
 79
     2
140
5.0
141
0.0
143
0.0393701
146
0.71
147
1.5
172
     1
176
   256
177
   256
178
     2
271
     2
272
     2
283
     0
284
     8
340
C
371
    -1
372
    -1
1001
ACAD_DSTYLE_DIMJOGGED_JOGANGLE_SYMBOL
1070
   384
1040
1.570796326794896
  0
DIMSTYLE
105
2DA
330
16
100
AcDbSymbolTableRecord
100
AcDbDimStyleTableRecord
  2
AM_DIN$SF
 70
     0
  4
"
 41
4.0
 42
1.0
 43
10.0
 44
1.0
 47
0.1
 48
0.1
 50
89.99999999999998
 73
     0
 74
     0
 75
     1
 76
     1
 77
     1
 78
     8
 79
     2
140
3.5
141
0.0
143
0.0393701
146
0.71
147
1.5
172
     1
176
   256
177
   256
178
     2
271
     2
272
     2
283
     0
284
     8
340
C
371
    -1
372
    -1
1001
ACAD_DSTYLE_DIMJOGGED_JOGANGLE_SYMBOL
1070
   384
1040
1.570796326794896
  0
DIMSTYLE
105
2DB
330
16
100
AcDbSymbolTableRecord
100
AcDbDimStyleTableRecord
  2
AM_DIN$SH
 70
     0
  4
"
 41
4.0
 42
1.0
 43
10.0
 44
1.0
 47
0.1
 48
0.1
 50
89.99999999999998
 73
     0
 74
     0
 75
     1
 76
     1
 77
     1
 78
     8
 79
     2
140
3.5
141
0.0
143
0.0393701
144
2.0
146
0.71
147
1.5
172
     1
173
     1
176
   256
177
   256
178
     2
271
     2
272
     2
283
     0
284
     8
340
C
343
1D0
371
    -1
372
    -1
1001
ACAD_DSTYLE_DIMJOGGED_JOGANGLE_SYMBOL
1070
   384
1040
1.570796326794896
  0
DIMSTYLE
105
2F7
330
16
100
AcDbSymbolTableRecord
100
AcDbDimStyleTableRecord
  2
AM_ISO
 70
     0
  4
"
 41
2.5
 42
1.0
 43
10.0
 44
1.0
 47
0.1
 48
0.1
 73
     0
 74
     0
 77
     1
 78
     8
 79
     2
 90
     1
140
3.5
141
0.0
143
0.0393701
146
0.71
147
1.5
172
     1
176
   256
177
   256
178
     2
271
     2
272
     3
274
     4
283
     0
284
     8
340
C
371
    -1
372
    -1
1001
ACAD_DSTYLE_DIMJOGGED_JOGANGLE_SYMBOL
1070
   384
1040
0.7853981633974483
  0
DIMSTYLE
105
2F8
330
16
100
AcDbSymbolTableRecord
100
AcDbDimStyleTableRecord
  2
AM_ISO$3
 70
     0
  4
"
 41
2.5
 42
1.0
 43
10.0
 44
1.0
 47
0.1
 48
0.1
 73
     0
 77
     1
 78
     8
 79
     2
 90
     1
140
3.5
141
0.0
143
0.0393701
146
0.71
147
1.5
176
   256
177
   256
178
     2
271
     2
272
     3
274
     4
283
     0
284
     8
288
     1
289
     0
340
C
371
    -1
372
    -1
1001
ACAD_DSTYLE_DIMJOGGED_JOGANGLE_SYMBOL
1070
   384
1040
0.7853981633974483
  0
DIMSTYLE
105
2F9
330
16
100
AcDbSymbolTableRecord
100
AcDbDimStyleTableRecord
  2
AM_ISO$4
 70
     0
  4
"
 41
2.5
 42
1.0
 43
10.0
 44
1.0
 47
0.1
 48
0.1
 73
     0
 77
     1
 78
     8
 79
     2
 90
     1
140
3.5
141
0.0
143
0.0393701
146
0.71
147
1.5
176
   256
177
   256
178
     2
271
     2
272
     3
274
     4
283
     0
284
     8
288
     1
289
     0
340
C
371
    -1
372
    -1
1001
ACAD_DSTYLE_DIMJOGGED_JOGANGLE_SYMBOL
1070
   384
1040
0.7853981633974483
  0
DIMSTYLE
105
2FA
330
16
100
AcDbSymbolTableRecord
100
AcDbDimStyleTableRecord
  2
AM_ISO$6
 70
     0
  4
"
 41
2.5
 42
1.0
 43
10.0
 44
1.0
 47
0.1
 48
0.1
 73
     0
 74
     0
 78
     8
 79
     2
 90
     1
140
3.5
141
0.0
143
0.0393701
146
0.71
147
1.5
172
     1
176
   256
177
   256
178
     2
271
     2
272
     3
274
     4
283
     0
284
     8
340
C
371
    -1
372
    -1
1001
ACAD_DSTYLE_DIMJOGGED_JOGANGLE_SYMBOL
1070
   384
1040
0.7853981633974483
  0
DIMSTYLE
105
2FB
330
16
100
AcDbSymbolTableRecord
100
AcDbDimStyleTableRecord
  2
AM_ISO$7
 70
     0
  4
"
 41
2.5
 42
1.0
 43
10.0
 44
1.0
 47
0.1
 48
0.1
 73
     0
 74
     0
 77
     1
 78
     8
 79
     2
 90
     1
140
5.0
141
0.0
143
0.0393701
146
0.71
147
1.5
172
     1
176
   256
177
   256
178
     2
271
     2
272
     3
274
     4
283
     0
284
     8
340
C
371
    -1
372
    -1
1001
ACAD_DSTYLE_DIMJOGGED_JOGANGLE_SYMBOL
1070
   384
1040
0.7853981633974483
  0
DIMSTYLE
105
2FC
330
16
100
AcDbSymbolTableRecord
100
AcDbDimStyleTableRecord
  2
AM_ISO$SF
 70
     0
  4
"
 41
2.5
 42
1.0
 43
10.0
 44
1.0
 47
0.1
 48
0.1
 73
     0
 74
     0
 75
     1
 76
     1
 77
     1
 78
     8
 79
     2
 90
     1
140
3.5
141
0.0
143
0.0393701
146
0.71
147
1.5
172
     1
176
   256
177
   256
178
     2
271
     2
272
     3
274
     4
283
     0
284
     8
340
C
371
    -1
372
    -1
1001
ACAD_DSTYLE_DIMJOGGED_JOGANGLE_SYMBOL
1070
   384
1040
0.7853981633974483
  0
DIMSTYLE
105
2FD
330
16
100
AcDbSymbolTableRecord
100
AcDbDimStyleTableRecord
  2
AM_ISO$SH
 70
     0
  4
"
 41
2.5
 42
1.0
 43
10.0
 44
1.0
 47
0.1
 48
0.1
 73
     0
 74
     0
 75
     1
 76
     1
 77
     1
 78
     8
 79
     2
 90
     1
140
3.5
141
0.0
143
0.0393701
144
2.0
146
0.71
147
1.5
172
     1
173
     1
176
   256
177
   256
178
     2
271
     2
272
     3
274
     4
283
     0
284
     8
340
C
343
1D0
371
    -1
372
    -1
1001
ACAD_DSTYLE_DIMJOGGED_JOGANGLE_SYMBOL
1070
   384
1040
0.7853981633974483
  0
DIMSTYLE
105
84B
330
16
100
AcDbSymbolTableRecord
100
AcDbDimStyleTableRecord
  2
ISO-25
 70
     0
 41
2.5
 42
0.625
 43
3.75
 44
1.25
 73
     0
 74
     0
 77
     1
 78
     8
140
2.5
141
2.5
143
0.03937007874016
147
0.625
171
     3
172
     1
271
     2
272
     2
274
     3
283
     0
284
     8
340
C
  0
DIMSTYLE
105
84C
330
16
100
AcDbSymbolTableRecord
100
AcDbDimStyleTableRecord
  2
CP_DIM_CM_100
 70
     0
 41
0.25
 42
0.625
 43
0.0
 44
1.25
 73
     0
 74
     0
 75
     1
 76
     1
 77
     1
140
15.0
141
2.5
143
0.03937007874016
147
5.0
172
     1
174
     1
178
    44
271
     1
272
     1
279
     2
283
     0
284
     8
340
849
342
80D
  0
DIMSTYLE
105
84D
330
16
100
AcDbSymbolTableRecord
100
AcDbDimStyleTableRecord
  2
CP_DIM_M_100
 70
     0
 41
0.0025
 42
0.625
 43
0.0
 44
1.25
 73
     0
 74
     0
 75
     1
 76
     1
 77
     1
140
0.15
141
2.5
143
0.03937007874016
147
0.05
172
     1
174
     1
178
    44
271
     2
272
     2
279
     2
283
     0
284
     8
340
849
342
80D
  0
DIMSTYLE
105
84E
330
16
100
AcDbSymbolTableRecord
100
AcDbDimStyleTableRecord
  2
CP_DIM_MM_100
 70
     0
 41
2.0
 42
0.625
 43
0.0
 44
1.25
 73
     0
 74
     0
 75
     1
 76
     1
 77
     1
140
150.0
141
2.5
143
0.03937007874016
147
50.0
172
     1
174
     1
178
    44
271
     0
272
     0
279
     2
283
     0
284
     8
340
849
342
80D
  0
DIMSTYLE
105
84F
330
16
100
AcDbSymbolTableRecord
100
AcDbDimStyleTableRecord
  2
CP_DIM_CM_50
 70
     0
 41
0.125
 42
0.625
 43
0.0
 44
1.25
 73
     0
 74
     0
 75
     1
 76
     1
 77
     1
140
7.5
141
2.5
143
0.03937007874016
147
2.5
172
     1
174
     1
178
    44
271
     1
272
     1
279
     2
283
     0
284
     8
340
849
342
80D
  0
DIMSTYLE
105
850
330
16
100
AcDbSymbolTableRecord
100
AcDbDimStyleTableRecord
  2
CP_DIM_M_50
 70
     0
 41
0.00125
 42
0.625
 43
0.0
 44
1.25
 73
     0
 74
     0
 75
     1
 76
     1
 77
     1
140
0.075
141
2.5
143
0.03937007874016
147
0.025
172
     1
174
     1
178
    44
271
     2
272
     2
279
     2
283
     0
284
     8
340
849
342
80D
  0
DIMSTYLE
105
851
330
16
100
AcDbSymbolTableRecord
100
AcDbDimStyleTableRecord
  2
CP_DIM_MM_50
 70
     0
 41
1.0
 42
0.625
 43
0.0
 44
1.25
 73
     0
 74
     0
 75
     1
 76
     1
 77
     1
140
75.0
141
2.5
143
0.03937007874016
147
25.0
172
     1
174
     1
178
    44
271
     0
272
     0
279
     2
283
     0
284
     8
340
849
342
80D
  0
DIMSTYLE
105
98C
330
16
100
AcDbSymbolTableRecord
100
AcDbDimStyleTableRecord
  2
AM_ANSI$0
 70
     0
  4
mm
 41
0.1
 42
0.05
 43
0.5
 44
0.1
 47
0.1
 48
0.1
 78
     7
 79
     2
 90
     1
140
0.12
141
0.0
146
0.71
147
0.06
176
   256
177
   256
178
     2
274
     4
284
     7
340
C
371
    -1
372
    -1
  0
DIMSTYLE
105
C3D
330
16
100
AcDbSymbolTableRecord
100
AcDbDimStyleTableRecord
  2
BENUTZERDEFINIERTE NORM
 70
     0
  4
"
 41
2.5
 42
0.0
 43
10.0
 44
1.0
 47
0.1
 48
0.1
 50
90.0
 73
     0
 74
     0
 77
     1
 78
     8
 79
     2
140
3.5
141
0.0
143
0.0393701
146
0.71
147
1.5
172
     1
176
   256
177
   256
178
     6
271
     2
272
     2
283
     0
284
     8
340
C
371
    -1
372
    -1
1001
ACAD_DSTYLE_DIMJAG
1070
   388
1040
1.5
1001
ACAD_DSTYLE_DIMTALN
1070
   392
1070
     0
  0
DIMSTYLE
105
C3E
330
16
100
AcDbSymbolTableRecord
100
AcDbDimStyleTableRecord
  2
BENUTZERDEFINIERTE NORM$0
 70
     0
  4
"
 41
2.5
 42
0.0
 43
10.0
 44
1.0
 47
0.1
 48
0.1
 50
90.0
 73
     0
 74
     0
 77
     1
 78
     8
 79
     2
140
3.5
141
0.0
143
0.0393701
146
0.71
147
1.5
172
     1
176
   256
177
   256
178
     6
271
     2
272
     2
283
     0
284
     8
340
C
371
    -1
372
    -1
1001
ACAD_DSTYLE_DIMBREAK
1070
   391
1040
3.75
1001
ACAD_DSTYLE_DIMJAG
1070
   388
1040
1.5
1001
ACAD_DSTYLE_DIMTALN
1070
   392
1070
     0
  0
DIMSTYLE
105
C3F
330
16
100
AcDbSymbolTableRecord
100
AcDbDimStyleTableRecord
  2
BENUTZERDEFINIERTE NORM$3
 70
     0
  4
"
 41
2.5
 42
0.0
 43
10.0
 44
1.0
 47
0.1
 48
0.1
 50
90.0
 73
     0
 77
     1
 78
     8
 79
     2
140
3.5
141
0.0
143
0.0393701
146
0.71
147
1.5
176
   256
177
   256
178
     6
271
     2
272
     2
283
     0
284
     8
288
     1
289
     0
340
C
371
    -1
372
    -1
1001
ACAD_DSTYLE_DIMBREAK
1070
   391
1040
3.75
1001
ACAD_DSTYLE_DIMJAG
1070
   388
1040
1.5
1001
ACAD_DSTYLE_DIMTALN
1070
   392
1070
     0
  0
DIMSTYLE
105
C40
330
16
100
AcDbSymbolTableRecord
100
AcDbDimStyleTableRecord
  2
BENUTZERDEFINIERTE NORM$4
 70
     0
  4
"
 41
2.5
 42
0.0
 43
10.0
 44
1.0
 47
0.1
 48
0.1
 50
90.0
 73
     0
 77
     1
 78
     8
 79
     2
140
3.5
141
0.0
143
0.0393701
146
0.71
147
1.5
176
   256
177
   256
178
     6
271
     2
272
     2
283
     0
284
     8
288
     1
289
     0
340
C
371
    -1
372
    -1
1001
ACAD_DSTYLE_DIMBREAK
1070
   391
1040
3.75
1001
ACAD_DSTYLE_DIMJAG
1070
   388
1040
1.5
1001
ACAD_DSTYLE_DIMTALN
1070
   392
1070
     0
  0
DIMSTYLE
105
C41
330
16
100
AcDbSymbolTableRecord
100
AcDbDimStyleTableRecord
  2
BENUTZERDEFINIERTE NORM$6
 70
     0
  4
"
 41
2.5
 42
0.0
 43
10.0
 44
1.0
 47
0.1
 48
0.1
 50
90.0
 73
     0
 74
     0
 78
     8
 79
     2
140
3.5
141
0.0
143
0.0393701
146
0.71
147
1.5
172
     1
176
   256
177
   256
178
     6
271
     2
272
     2
283
     0
284
     8
340
C
371
    -1
372
    -1
1001
ACAD_DSTYLE_DIMBREAK
1070
   391
1040
3.75
1001
ACAD_DSTYLE_DIMJAG
1070
   388
1040
1.5
1001
ACAD_DSTYLE_DIMTALN
1070
   392
1070
     0
  0
DIMSTYLE
105
C42
330
16
100
AcDbSymbolTableRecord
100
AcDbDimStyleTableRecord
  2
BENUTZERDEFINIERTE NORM$7
 70
     0
  4
"
 41
2.5
 42
0.0
 43
10.0
 44
1.0
 47
0.1
 48
0.1
 50
90.0
 73
     0
 74
     0
 77
     1
 78
     8
 79
     2
140
5.0
141
0.0
143
0.0393701
146
0.71
147
1.5
172
     1
176
   256
177
   256
178
     6
271
     2
272
     2
283
     0
284
     8
340
C
371
    -1
372
    -1
1001
ACAD_DSTYLE_DIMBREAK
1070
   391
1040
3.75
1001
ACAD_DSTYLE_DIMJAG
1070
   388
1040
1.5
1001
ACAD_DSTYLE_DIMTALN
1070
   392
1070
     0
  0
DIMSTYLE
105
C43
330
16
100
AcDbSymbolTableRecord
100
AcDbDimStyleTableRecord
  2
BENUTZERDEFINIERTE NORM$SF
 70
     0
  4
"
 41
2.5
 42
1.0
 43
10.0
 44
1.0
 47
0.1
 48
0.1
 50
90.0
 73
     0
 74
     0
 75
     1
 76
     1
 77
     1
 78
     8
 79
     2
140
3.5
141
0.0
143
0.0393701
146
0.71
147
1.5
172
     1
176
   256
177
   256
178
     6
271
     2
272
     3
274
     4
283
     0
284
     8
340
C
371
    -1
372
    -1
1001
ACAD_DSTYLE_DIMBREAK
1070
   391
1040
3.75
1001
ACAD_DSTYLE_DIMJAG
1070
   388
1040
1.5
1001
ACAD_DSTYLE_DIMTALN
1070
   392
1070
     0
  0
DIMSTYLE
105
C44
330
16
100
AcDbSymbolTableRecord
100
AcDbDimStyleTableRecord
  2
BENUTZERDEFINIERTE NORM$SH
 70
     0
  4
"
 41
2.5
 42
1.0
 43
10.0
 44
1.0
 47
0.1
 48
0.1
 50
90.0
 73
     0
 74
     0
 75
     1
 76
     1
 77
     1
 78
     8
 79
     2
140
3.5
141
0.0
143
0.0393701
144
2.0
146
0.71
147
1.5
172
     1
173
     1
176
   256
177
   256
178
     6
271
     2
272
     3
274
     4
283
     0
284
     8
340
C
343
1D0
371
    -1
372
    -1
1001
ACAD_DSTYLE_DIMBREAK
1070
   391
1040
3.75
1001
ACAD_DSTYLE_DIMJAG
1070
   388
1040
1.5
1001
ACAD_DSTYLE_DIMTALN
1070
   392
1070
     0
  0
ENDTAB
  0
TABLE
  2
BLOCK_RECORD
  5
1
330
0
100
AcDbSymbolTable
 70
    26
  0
BLOCK_RECORD
  5
2
102
{ACAD_XDICTIONARY
360
6A
102
}
330
1
100
AcDbSymbolTableRecord
100
AcDbBlockTableRecord
  2
*MODEL_SPACE
340
74
 70
     0
280
     1
281
     0
  0
BLOCK_RECORD
  5
7
102
{ACAD_XDICTIONARY
360
6C
102
}
330
1
100
AcDbSymbolTableRecord
100
AcDbBlockTableRecord
  2
*PAPER_SPACE
340
75
 70
     0
280
     1
281
     0
  0
BLOCK_RECORD
  5
78
102
{ACAD_XDICTIONARY
360
A8
102
}
330
1
100
AcDbSymbolTableRecord
100
AcDbBlockTableRecord
  2
50976_A00_Schwalldüse_115-15_Seitenansicht
340
0
 70
     0
280
     1
281
     0
  0
BLOCK_RECORD
  5
AC
102
{ACAD_XDICTIONARY
360
E6
102
}
330
1
100
AcDbSymbolTableRecord
100
AcDbBlockTableRecord
  2
50976_A00_Schwalldüse_115-15_Vorderansicht
340
0
 70
     0
280
     1
281
     0
  0
BLOCK_RECORD
  5
1D0
330
1
100
AcDbSymbolTableRecord
100
AcDbBlockTableRecord
  2
GENAXEH
340
0
310
2800000020000000200000000100080000000000000400000000000000000000000000000000000000000000000080000080000000808000800000008000800080800000C0C0C000C0DCC000F0CAA6000020400000206000002080000020A0000020C0000020E00000400000004020000040400000406000004080000040A0
310
000040C0000040E00000600000006020000060400000606000006080000060A0000060C0000060E00000800000008020000080400000806000008080000080A0000080C0000080E00000A0000000A0200000A0400000A0600000A0800000A0A00000A0C00000A0E00000C0000000C0200000C0400000C0600000C0800000C0
310
A00000C0C00000C0E00000E0000000E0200000E0400000E0600000E0800000E0A00000E0C00000E0E00040000000400020004000400040006000400080004000A0004000C0004000E00040200000402020004020400040206000402080004020A0004020C0004020E000404000004040200040404000404060004040800040
310
40A0004040C0004040E00040600000406020004060400040606000406080004060A0004060C0004060E00040800000408020004080400040806000408080004080A0004080C0004080E00040A0000040A0200040A0400040A0600040A0800040A0A00040A0C00040A0E00040C0000040C0200040C0400040C0600040C08000
310
40C0A00040C0C00040C0E00040E0000040E0200040E0400040E0600040E0800040E0A00040E0C00040E0E00080000000800020008000400080006000800080008000A0008000C0008000E00080200000802020008020400080206000802080008020A0008020C0008020E00080400000804020008040400080406000804080
310
008040A0008040C0008040E00080600000806020008060400080606000806080008060A0008060C0008060E00080800000808020008080400080806000808080008080A0008080C0008080E00080A0000080A0200080A0400080A0600080A0800080A0A00080A0C00080A0E00080C0000080C0200080C0400080C0600080C0
310
800080C0A00080C0C00080C0E00080E0000080E0200080E0400080E0600080E0800080E0A00080E0C00080E0E000C0000000C0002000C0004000C0006000C0008000C000A000C000C000C000E000C0200000C0202000C0204000C0206000C0208000C020A000C020C000C020E000C0400000C0402000C0404000C0406000C0
310
408000C040A000C040C000C040E000C0600000C0602000C0604000C0606000C0608000C060A000C060C000C060E000C0800000C0802000C0804000C0806000C0808000C080A000C080C000C080E000C0A00000C0A02000C0A04000C0A06000C0A08000C0A0A000C0A0C000C0A0E000C0C00000C0C02000C0C04000C0C06000
310
C0C08000C0C0A000F0FBFF00A4A0A000808080000000FF0000FF000000FFFF00FF000000FF00FF00FFFF0000FFFFFF0000000000000000000000000000000000000000000000000000000000000000000000000000000000000000000000000000000000000000000000000000000000000000000000000000000000000000
310
00000000000000000000000000000000000000000000000000000000000000000000000000000000000000000000000000000000000000000000000000000000000000000000000000000000000000000000000000000000000000000000000000000000000000000000000000000000000000000000000000000000000000
310
00000000000000000000000000000000000000000000000000000000000000000000000000000000000000000000000000000000000000000000000000000000000000000000000000000000000000000000000000000000000000000000000000000000000000000000000000000000000000000000000000000000000000
310
00000000000000000000000000000000000000000000000000000000000000000000000000000000000000000000000000000000000000000000000000000000000000000000000000000000000000000000000000000000000000000000000000000000000000000000000000000000000000000000000000000000000000
310
0000000000000000000000000000000000000000000000000000000000000000000000000000000000000000000000000000000000FFFFFFFFFFFFFFFFFFFFFFFFFFFFFFFFFFFFFFFFFFFFFFFFFFFFFFFFFFFF0000000000000000000000000000000000000000000000000000000000000000000000000000000000000000
310
00000000000000000000000000000000000000000000000000000000000000000000000000000000000000000000000000000000000000000000000000000000000000000000000000000000000000000000000000000000000000000000000000000000000000000000000000000000000000000000000000000000000000
310
00000000000000000000000000000000000000000000000000000000000000000000000000000000000000000000000000000000000000000000000000000000000000000000000000000000000000000000000000000000000000000000000000000000000000000000000000000000000000000000000000000000000000
310
00000000000000000000000000000000000000000000000000000000000000000000000000000000000000000000000000000000000000000000000000000000000000000000000000000000000000000000000000000000000000000000000000000000000000000000000000000000000000000000000000000000000000
310
0000000000000000000000000000000000000000000000000000000000000000000000000000000000000000000000000000000000000000
 70
     0
280
     1
281
     0
  0
BLOCK_RECORD
  5
318
330
1
100
AcDbSymbolTableRecord
100
AcDbBlockTableRecord
  2
*D3
340
0
 70
     0
280
     1
281
     0
  0
BLOCK_RECORD
  5
33F
330
1
100
AcDbSymbolTableRecord
100
AcDbBlockTableRecord
  2
*D4
340
0
 70
     0
280
     1
281
     0
  0
BLOCK_RECORD
  5
366
330
1
100
AcDbSymbolTableRecord
100
AcDbBlockTableRecord
  2
*D5
340
0
 70
     0
280
     1
281
     0
  0
BLOCK_RECORD
  5
38D
330
1
100
AcDbSymbolTableRecord
100
AcDbBlockTableRecord
  2
*D6
340
0
 70
     0
280
     1
281
     0
  0
BLOCK_RECORD
  5
3CA
330
1
100
AcDbSymbolTableRecord
100
AcDbBlockTableRecord
  2
*D7
340
0
 70
     0
280
     1
281
     0
  0
BLOCK_RECORD
  5
3F1
330
1
100
AcDbSymbolTableRecord
100
AcDbBlockTableRecord
  2
*D8
340
0
 70
     0
280
     1
281
     0
  0
BLOCK_RECORD
  5
423
330
1
100
AcDbSymbolTableRecord
100
AcDbBlockTableRecord
  2
*D9
340
0
 70
     0
280
     1
281
     0
  0
BLOCK_RECORD
  5
46B
330
1
100
AcDbSymbolTableRecord
100
AcDbBlockTableRecord
  2
*D10
340
0
 70
     0
280
     1
281
     0
  0
BLOCK_RECORD
  5
49D
330
1
100
AcDbSymbolTableRecord
100
AcDbBlockTableRecord
  2
*D11
340
0
 70
     0
280
     1
281
     0
  0
BLOCK_RECORD
  5
4DD
330
1
100
AcDbSymbolTableRecord
100
AcDbBlockTableRecord
  2
*D12
340
0
 70
     0
280
     1
281
     0
  0
BLOCK_RECORD
  5
4F7
330
1
100
AcDbSymbolTableRecord
100
AcDbBlockTableRecord
  2
*D13
340
0
 70
     0
280
     1
281
     0
  0
BLOCK_RECORD
  5
80D
330
1
100
AcDbSymbolTableRecord
100
AcDbBlockTableRecord
  2
dimarch
340
0
 70
     0
280
     1
281
     0
  0
BLOCK_RECORD
  5
C06
330
1
100
AcDbSymbolTableRecord
100
AcDbBlockTableRecord
  2
_ACMNONE
340
0
 70
     0
280
     1
281
     0
  0
BLOCK_RECORD
  5
C0A
330
1
100
AcDbSymbolTableRecord
100
AcDbBlockTableRecord
  2
_ACMFILLED
340
0
 70
     0
280
     1
281
     0
  0
BLOCK_RECORD
  5
C15
330
1
100
AcDbSymbolTableRecord
100
AcDbBlockTableRecord
  2
_ACMFILLEDHALF
340
0
 70
     0
280
     1
281
     0
  0
BLOCK_RECORD
  5
C29
330
1
100
AcDbSymbolTableRecord
100
AcDbBlockTableRecord
  2
*U20
340
0
 70
     0
280
     1
281
     0
  0
BLOCK_RECORD
  5
C2C
330
1
100
AcDbSymbolTableRecord
100
AcDbBlockTableRecord
  2
_ACMFILLED15
340
0
310
28000000200000002000000001002000000000000010000001000000010000000000000000000000171717FF171717FF171717FF171717FF171717FF171717FF171717FF171717FF171717FF171717FF171717FF171717FF171717FF171717FF171717FF171717FF171717FF171717FF171717FF171717FF171717FF171717
310
FF171717FF171717FF171717FF171717FF171717FF171717FF171717FF171717FF171717FF171717FF171717FF171717FF171717FF171717FF171717FF171717FF171717FF171717FF171717FF171717FF171717FF171717FF171717FF171717FF171717FF171717FF171717FF171717FF171717FF171717FF171717FF1717
310
17FF171717FF171717FF171717FF171717FF171717FF171717FF171717FF171717FF171717FF171717FF171717FF171717FF171717FF171717FF171717FF171717FF171717FF171717FF171717FF171717FF171717FF171717FF171717FF171717FF171717FF171717FF171717FF171717FF171717FF171717FF171717FF17
310
1717FF171717FF171717FF171717FF171717FF171717FF171717FF171717FF171717FF171717FF171717FF171717FF171717FF171717FF171717FF171717FF171717FF171717FF171717FF171717FF171717FF171717FF171717FF171717FF171717FF171717FF171717FF171717FF171717FF171717FF171717FF171717FF
310
171717FF171717FF171717FF171717FF171717FF171717FF171717FF171717FF171717FF171717FF171717FF171717FF171717FF171717FF171717FF171717FF171717FF171717FF171717FF171717FF171717FF171717FF171717FF171717FF171717FF171717FF171717FF171717FF171717FF171717FF171717FF171717
310
FF171717FF171717FF171717FF171717FF171717FF171717FF171717FF171717FF171717FF171717FF171717FF171717FF171717FF171717FF171717FF171717FF171717FF171717FF171717FF171717FF171717FF171717FF171717FF171717FF171717FF171717FF171717FF171717FF171717FF171717FF171717FF1717
310
17FF171717FF171717FF171717FF171717FF171717FF171717FF171717FF171717FF171717FF171717FF171717FF171717FF171717FF171717FF171717FF171717FF171717FF171717FF171717FF171717FF171717FF171717FF171717FF171717FF171717FF171717FF171717FF171717FF171717FF171717FF171717FF17
310
1717FF171717FF171717FF171717FF171717FF171717FF171717FF171717FF171717FF171717FF171717FF171717FF171717FF171717FF171717FF171717FF171717FF171717FF171717FF171717FF171717FF171717FF171717FF171717FF171717FF171717FF171717FF171717FF171717FF171717FF171717FF171717FF
310
171717FF171717FF171717FF171717FF171717FF171717FF171717FF171717FF171717FF171717FF171717FF171717FF171717FF171717FF171717FF171717FF171717FF171717FF171717FF171717FF171717FF171717FF171717FF171717FF171717FF171717FF171717FF171717FF171717FF171717FF171717FF171717
310
FF171717FF171717FF171717FF171717FF171717FF171717FF171717FF171717FF171717FF171717FF171717FF171717FF171717FF171717FF171717FF171717FF171717FF171717FF171717FF171717FF171717FF171717FF171717FF171717FF171717FF171717FF171717FF171717FF171717FF171717FF171717FF1717
310
17FF171717FF171717FF171717FF171717FF171717FF171717FF171717FF171717FF171717FF171717FF171717FF171717FF171717FF171717FF171717FF171717FF171717FF171717FF171717FF171717FF171717FF171717FF171717FF171717FF171717FF171717FF171717FF171717FF171717FF171717FF171717FF17
310
1717FF171717FF171717FF171717FF171717FF171717FF171717FF171717FF171717FF171717FF171717FF171717FF171717FF171717FF171717FF171717FF171717FF171717FF171717FF171717FF171717FF171717FF171717FF171717FF171717FF171717FF171717FF171717FF171717FF171717FF171717FF171717FF
310
171717FF171717FF171717FF171717FF171717FF171717FF171717FF171717FF171717FF171717FF171717FF171717FF171717FF171717FFFFFFFFFFFFFFFFFFFFFFFFFFFFFFFFFFFFFFFFFF171717FF171717FF171717FF171717FF171717FF171717FF171717FF171717FF171717FF171717FF171717FF171717FF171717
310
FF171717FF171717FF171717FF171717FF171717FF171717FF171717FF171717FF171717FF171717FF171717FF171717FF171717FF171717FFFFFFFFFFFFFFFFFFFFFFFFFFFFFFFFFFFFFFFFFFFFFFFFFFFFFFFFFFFFFFFFFFFFFFFFFFFFFFFFFFFFFFFFFFFFFFFFFFFFFFFFFFFFFFFFFFFFFFFFFF171717FF171717FF1717
310
17FF171717FF171717FF171717FF171717FF171717FF171717FF171717FF171717FF171717FF171717FF171717FF171717FF171717FF171717FFFFFFFFFFFFFFFFFFFFFFFFFFFFFFFFFFFFFFFFFFFFFFFFFFFFFFFFFFFFFFFFFFFFFFFFFFFFFFFFFFFFFFFFFFFFFFFFFFFFFFFFFFFFFFFFFFFFFFFFFFFFFFFFFFFFFFFFFFFF
310
FFFFFFFFFFFFFFFFFFFFFFFFFFFFFFFFFFFFFFFFFFFFFFFFFFFFFFFFFFFFFF171717FF171717FF171717FF171717FF171717FF171717FF171717FFFFFFFFFFFFFFFFFFFFFFFFFFFFFFFFFFFFFFFFFFFFFFFFFFFFFFFFFFFFFFFFFFFFFFFFFFFFFFFFFFFFFFFFFFFFFFFFFFFFFFFFFFFFFFFFFFFFFFFFFFFFFFFFFFFFFFFFFF
310
FFFFFFFFFFFFFFFFFFFFFFFFFFFFFFFFFFFFFFFFFFFFFFFFFFFFFFFFFFFFFFFFFFFFFFFFFFFFFFFFFFFFFFFFFFFFFFFFFFFFFFFF171717FF171717FFFFFFFFFFFFFFFFFFFFFFFFFFFFFFFFFFFFFFFFFFFFFFFFFFFFFFFFFFFFFFFFFFFFFFFFFFFFFFFFFFFFFFFFFFFFFFFFFFFFFFFFFFFFFFFFFFFFFFFFFFFFFFFFFFFFFFFF
310
FFFFFFFFFFFFFFFFFFFFFFFFFFFFFFFFFFFFFFFFFFFFFFFFFFFFFFFFFFFFFFFFFFFFFFFFFF171717FF171717FF171717FF171717FF171717FF171717FFFFFFFFFFFFFFFFFFFFFFFFFFFFFFFFFFFFFFFFFFFFFFFFFFFFFFFFFFFFFFFFFFFFFFFFFFFFFFFFFFFFFFFFFFFFFFFFFFFFFFFFFFFFFFFFFFFFFFFFFFFFFFFFFFFFFF
310
FFFFFFFFFFFFFFFFFFFF171717FF171717FF171717FF171717FF171717FF171717FF171717FF171717FF171717FF171717FF171717FF171717FF171717FFFFFFFFFFFFFFFFFFFFFFFFFFFFFFFFFFFFFFFFFFFFFFFFFFFFFFFFFFFFFFFFFFFFFFFFFFFFFFFFFFFFFFFFFF171717FF171717FF171717FF171717FF171717FF17
310
1717FF171717FF171717FF171717FF171717FF171717FF171717FF171717FF171717FF171717FF171717FF171717FF171717FF171717FF171717FF171717FFFFFFFFFFFFFFFFFFFFFFFFFFFFFFFFFF171717FF171717FF171717FF171717FF171717FF171717FF171717FF171717FF171717FF171717FF171717FF171717FF
310
171717FF171717FF171717FF171717FF171717FF171717FF171717FF171717FF171717FF171717FF171717FF171717FF171717FF171717FF171717FF171717FF171717FF171717FF171717FF171717FF171717FF171717FF171717FF171717FF171717FF171717FF171717FF171717FF171717FF171717FF171717FF171717
310
FF171717FF171717FF171717FF171717FF171717FF171717FF171717FF171717FF171717FF171717FF171717FF171717FF171717FF171717FF171717FF171717FF171717FF171717FF171717FF171717FF171717FF171717FF171717FF171717FF171717FF171717FF171717FF171717FF171717FF171717FF171717FF1717
310
17FF171717FF171717FF171717FF171717FF171717FF171717FF171717FF171717FF171717FF171717FF171717FF171717FF171717FF171717FF171717FF171717FF171717FF171717FF171717FF171717FF171717FF171717FF171717FF171717FF171717FF171717FF171717FF171717FF171717FF171717FF171717FF17
310
1717FF171717FF171717FF171717FF171717FF171717FF171717FF171717FF171717FF171717FF171717FF171717FF171717FF171717FF171717FF171717FF171717FF171717FF171717FF171717FF171717FF171717FF171717FF171717FF171717FF171717FF171717FF171717FF171717FF171717FF171717FF171717FF
310
171717FF171717FF171717FF171717FF171717FF171717FF171717FF171717FF171717FF171717FF171717FF171717FF171717FF171717FF171717FF171717FF171717FF171717FF171717FF171717FF171717FF171717FF171717FF171717FF171717FF171717FF171717FF171717FF171717FF171717FF171717FF171717
310
FF171717FF171717FF171717FF171717FF171717FF171717FF171717FF171717FF171717FF171717FF171717FF171717FF171717FF171717FF171717FF171717FF171717FF171717FF171717FF171717FF171717FF171717FF171717FF171717FF171717FF171717FF171717FF171717FF171717FF171717FF171717FF1717
310
17FF171717FF171717FF171717FF171717FF171717FF171717FF171717FF171717FF171717FF171717FF171717FF171717FF171717FF171717FF171717FF171717FF171717FF171717FF171717FF171717FF171717FF171717FF171717FF171717FF171717FF171717FF171717FF171717FF171717FF171717FF171717FF17
310
1717FF171717FF171717FF171717FF171717FF171717FF171717FF171717FF171717FF171717FF171717FF171717FF171717FF171717FF171717FF171717FF171717FF171717FF171717FF171717FF171717FF171717FF171717FF171717FF171717FF171717FF171717FF171717FF171717FF171717FF171717FF171717FF
310
171717FF171717FF171717FF171717FF171717FF171717FF171717FF171717FF171717FF171717FF171717FF171717FF171717FF171717FF171717FF171717FF171717FF171717FF171717FF171717FF171717FF171717FF171717FF171717FF171717FF171717FF171717FF171717FF171717FF171717FF171717FF171717
310
FF171717FF171717FF171717FF171717FF171717FF171717FF171717FF171717FF171717FF171717FF171717FF171717FF171717FF171717FF171717FF171717FF171717FF171717FF171717FF171717FF171717FF171717FF171717FF171717FF171717FF171717FF171717FF171717FF171717FF171717FF171717FF1717
310
17FF171717FF171717FF171717FF171717FF171717FF171717FF171717FF171717FF171717FF171717FF171717FF171717FF171717FF171717FF171717FF171717FF171717FF171717FF171717FF171717FF171717FF171717FF171717FF171717FF171717FF171717FF171717FF171717FF171717FF171717FF171717FF17
310
1717FF171717FF171717FF171717FF171717FF171717FF171717FF171717FF171717FF171717FF171717FF171717FF171717FF171717FF171717FF171717FF171717FF171717FF171717FF171717FF171717FF171717FF171717FF171717FF171717FF171717FF171717FF171717FF171717FF171717FF171717FF171717FF
310
171717FF171717FF171717FF171717FF171717FF171717FF171717FF171717FF171717FF171717FF171717FF171717FF171717FF171717FF171717FF171717FF171717FF171717FF
 70
     0
280
     1
281
     0
  0
BLOCK_RECORD
  5
C30
330
1
100
AcDbSymbolTableRecord
100
AcDbBlockTableRecord
  2
_ACMFILLED30
340
0
310
28000000200000002000000001002000000000000010000001000000010000000000000000000000171717FF171717FF171717FF171717FF171717FF171717FF171717FF171717FF171717FF171717FF171717FF171717FF171717FF171717FF171717FF171717FF171717FF171717FF171717FF171717FF171717FF171717
310
FF171717FF171717FF171717FF171717FF171717FF171717FF171717FF171717FF171717FF171717FF171717FF171717FF171717FF171717FF171717FF171717FF171717FF171717FF171717FF171717FF171717FF171717FF171717FF171717FF171717FF171717FF171717FF171717FF171717FF171717FF171717FF1717
310
17FF171717FF171717FF171717FF171717FF171717FF171717FF171717FF171717FF171717FF171717FF171717FF171717FF171717FF171717FF171717FF171717FF171717FF171717FF171717FF171717FF171717FF171717FF171717FF171717FF171717FF171717FF171717FF171717FF171717FF171717FF171717FF17
310
1717FF171717FF171717FF171717FF171717FF171717FF171717FF171717FF171717FF171717FF171717FF171717FF171717FF171717FF171717FF171717FF171717FF171717FF171717FF171717FF171717FF171717FF171717FF171717FF171717FF171717FF171717FF171717FF171717FF171717FF171717FF171717FF
310
171717FF171717FF171717FF171717FF171717FF171717FF171717FF171717FF171717FF171717FF171717FF171717FF171717FF171717FF171717FF171717FF171717FF171717FF171717FF171717FF171717FF171717FF171717FF171717FF171717FF171717FF171717FF171717FF171717FF171717FF171717FF171717
310
FF171717FF171717FF171717FF171717FF171717FF171717FF171717FF171717FF171717FF171717FF171717FF171717FF171717FF171717FF171717FF171717FF171717FF171717FF171717FF171717FF171717FF171717FF171717FF171717FF171717FF171717FF171717FF171717FF171717FF171717FF171717FF1717
310
17FF171717FF171717FF171717FF171717FF171717FF171717FF171717FF171717FF171717FF171717FF171717FF171717FF171717FF171717FF171717FF171717FF171717FF171717FF171717FF171717FF171717FF171717FF171717FF171717FF171717FF171717FF171717FF171717FF171717FF171717FF171717FF17
310
1717FF171717FF171717FF171717FF171717FF171717FF171717FF171717FF171717FF171717FF171717FF171717FF171717FF171717FF171717FF171717FF171717FF171717FF171717FF171717FF171717FF171717FF171717FF171717FF171717FF171717FF171717FF171717FF171717FF171717FF171717FF171717FF
310
171717FF171717FF171717FF171717FF171717FF171717FF171717FF171717FF171717FF171717FF171717FF171717FF171717FFFFFFFFFFFFFFFFFFFFFFFFFF171717FF171717FF171717FF171717FF171717FF171717FF171717FF171717FF171717FF171717FF171717FF171717FF171717FF171717FF171717FF171717
310
FF171717FF171717FF171717FF171717FF171717FF171717FF171717FF171717FF171717FF171717FF171717FF171717FF171717FFFFFFFFFFFFFFFFFFFFFFFFFFFFFFFFFFFFFFFFFFFFFFFFFFFFFFFFFF171717FF171717FF171717FF171717FF171717FF171717FF171717FF171717FF171717FF171717FF171717FF1717
310
17FF171717FF171717FF171717FF171717FF171717FF171717FF171717FF171717FF171717FF171717FF171717FF171717FF171717FFFFFFFFFFFFFFFFFFFFFFFFFFFFFFFFFFFFFFFFFFFFFFFFFFFFFFFFFFFFFFFFFFFFFFFFFFFFFFFFFFFFFFFFFF171717FF171717FF171717FF171717FF171717FF171717FF171717FF17
310
1717FF171717FF171717FF171717FF171717FF171717FF171717FF171717FF171717FF171717FF171717FF171717FF171717FF171717FFFFFFFFFFFFFFFFFFFFFFFFFFFFFFFFFFFFFFFFFFFFFFFFFFFFFFFFFFFFFFFFFFFFFFFFFFFFFFFFFFFFFFFFFFFFFFFFFFFFFFFFFFFFFFFFFFFFFFFFFF171717FF171717FF171717FF
310
171717FF171717FF171717FF171717FF171717FF171717FF171717FF171717FF171717FF171717FF171717FF171717FF171717FF171717FFFFFFFFFFFFFFFFFFFFFFFFFFFFFFFFFFFFFFFFFFFFFFFFFFFFFFFFFFFFFFFFFFFFFFFFFFFFFFFFFFFFFFFFFFFFFFFFFFFFFFFFFFFFFFFFFFFFFFFFFFFFFFFFFFFFFFFFFFFFFFFF
310
FFFFFFFFFF171717FF171717FF171717FF171717FF171717FF171717FF171717FF171717FF171717FF171717FF171717FF171717FF171717FFFFFFFFFFFFFFFFFFFFFFFFFFFFFFFFFFFFFFFFFFFFFFFFFFFFFFFFFFFFFFFFFFFFFFFFFFFFFFFFFFFFFFFFFFFFFFFFFFFFFFFFFFFFFFFFFFFFFFFFFFFFFFFFFFFFFFFFFFFFFF
310
FFFFFFFFFFFFFFFFFFFFFFFFFFFFFFFFFFFFFFFFFFFF171717FF171717FF171717FF171717FF171717FF171717FF171717FF171717FF171717FFFFFFFFFFFFFFFFFFFFFFFFFFFFFFFFFFFFFFFFFFFFFFFFFFFFFFFFFFFFFFFFFFFFFFFFFFFFFFFFFFFFFFFFFFFFFFFFFFFFFFFFFFFFFFFFFFFFFFFFFFFFFFFFFFFFFFFFFFFF
310
FFFFFFFFFFFFFFFFFFFFFFFFFFFFFFFFFFFFFFFFFFFFFFFFFFFFFFFFFFFFFFFFFFFFFFFFFFFFFF171717FF171717FF171717FF171717FF171717FFFFFFFFFFFFFFFFFFFFFFFFFFFFFFFFFFFFFFFFFFFFFFFFFFFFFFFFFFFFFFFFFFFFFFFFFFFFFFFFFFFFFFFFFFFFFFFFFFFFFFFFFFFFFFFFFFFFFFFFFFFFFFFFFFFFFFFFFF
310
FFFFFFFFFFFFFFFFFFFFFFFFFFFFFFFFFFFFFFFFFFFFFFFFFFFFFFFFFFFFFFFFFFFFFFFFFFFFFFFFFFFFFFFFFFFFFFFFFFFFFFFF171717FF171717FFFFFFFFFFFFFFFFFFFFFFFFFFFFFFFFFFFFFFFFFFFFFFFFFFFFFFFFFFFFFFFFFFFFFFFFFFFFFFFFFFFFFFFFFFFFFFFFFFFFFFFFFFFFFFFFFFFFFFFFFFFFFFFFFFFFFFFF
310
FFFFFFFFFFFFFFFFFFFFFFFFFFFFFFFFFFFFFFFFFFFFFFFFFFFFFFFFFFFFFFFFFFFFFFFFFFFFFFFFFFFFFFFFFF171717FF171717FF171717FF171717FFFFFFFFFFFFFFFFFFFFFFFFFFFFFFFFFFFFFFFFFFFFFFFFFFFFFFFFFFFFFFFFFFFFFFFFFFFFFFFFFFFFFFFFFFFFFFFFFFFFFFFFFFFFFFFFFFFFFFFFFFFFFFFFFFFFFF
310
FFFFFFFFFFFFFFFFFFFFFFFFFFFFFFFFFFFFFFFFFFFFFFFFFFFFFFFFFFFF171717FF171717FF171717FF171717FF171717FF171717FF171717FF171717FFFFFFFFFFFFFFFFFFFFFFFFFFFFFFFFFFFFFFFFFFFFFFFFFFFFFFFFFFFFFFFFFFFFFFFFFFFFFFFFFFFFFFFFFFFFFFFFFFFFFFFFFFFFFFFFFFFFFFFFFFFFFFFFFFFF
310
FFFFFFFFFFFFFFFFFFFFFFFFFFFFFF171717FF171717FF171717FF171717FF171717FF171717FF171717FF171717FF171717FF171717FF171717FF171717FFFFFFFFFFFFFFFFFFFFFFFFFFFFFFFFFFFFFFFFFFFFFFFFFFFFFFFFFFFFFFFFFFFFFFFFFFFFFFFFFFFFFFFFFFFFFFFFFFFFFFFFFFFFFFFFFFFFFFFFFFFFFFFFFF
310
FFFFFFFF171717FF171717FF171717FF171717FF171717FF171717FF171717FF171717FF171717FF171717FF171717FF171717FF171717FF171717FF171717FFFFFFFFFFFFFFFFFFFFFFFFFFFFFFFFFFFFFFFFFFFFFFFFFFFFFFFFFFFFFFFFFFFFFFFFFFFFFFFFFFFFFFFFFFFFFFFFFFFFFFFFFF171717FF171717FF171717
310
FF171717FF171717FF171717FF171717FF171717FF171717FF171717FF171717FF171717FF171717FF171717FF171717FF171717FF171717FF171717FF171717FFFFFFFFFFFFFFFFFFFFFFFFFFFFFFFFFFFFFFFFFFFFFFFFFFFFFFFFFFFFFFFFFFFFFFFFFFFFFFFFFF171717FF171717FF171717FF171717FF171717FF1717
310
17FF171717FF171717FF171717FF171717FF171717FF171717FF171717FF171717FF171717FF171717FF171717FF171717FF171717FF171717FF171717FF171717FFFFFFFFFFFFFFFFFFFFFFFFFFFFFFFFFFFFFFFFFFFFFFFFFF171717FF171717FF171717FF171717FF171717FF171717FF171717FF171717FF171717FF17
310
1717FF171717FF171717FF171717FF171717FF171717FF171717FF171717FF171717FF171717FF171717FF171717FF171717FF171717FF171717FF171717FF171717FFFFFFFFFFFFFFFFFF171717FF171717FF171717FF171717FF171717FF171717FF171717FF171717FF171717FF171717FF171717FF171717FF171717FF
310
171717FF171717FF171717FF171717FF171717FF171717FF171717FF171717FF171717FF171717FF171717FF171717FF171717FF171717FF171717FF171717FF171717FF171717FF171717FF171717FF171717FF171717FF171717FF171717FF171717FF171717FF171717FF171717FF171717FF171717FF171717FF171717
310
FF171717FF171717FF171717FF171717FF171717FF171717FF171717FF171717FF171717FF171717FF171717FF171717FF171717FF171717FF171717FF171717FF171717FF171717FF171717FF171717FF171717FF171717FF171717FF171717FF171717FF171717FF171717FF171717FF171717FF171717FF171717FF1717
310
17FF171717FF171717FF171717FF171717FF171717FF171717FF171717FF171717FF171717FF171717FF171717FF171717FF171717FF171717FF171717FF171717FF171717FF171717FF171717FF171717FF171717FF171717FF171717FF171717FF171717FF171717FF171717FF171717FF171717FF171717FF171717FF17
310
1717FF171717FF171717FF171717FF171717FF171717FF171717FF171717FF171717FF171717FF171717FF171717FF171717FF171717FF171717FF171717FF171717FF171717FF171717FF171717FF171717FF171717FF171717FF171717FF171717FF171717FF171717FF171717FF171717FF171717FF171717FF171717FF
310
171717FF171717FF171717FF171717FF171717FF171717FF171717FF171717FF171717FF171717FF171717FF171717FF171717FF171717FF171717FF171717FF171717FF171717FF171717FF171717FF171717FF171717FF171717FF171717FF171717FF171717FF171717FF171717FF171717FF171717FF171717FF171717
310
FF171717FF171717FF171717FF171717FF171717FF171717FF171717FF171717FF171717FF171717FF171717FF171717FF171717FF171717FF171717FF171717FF171717FF171717FF171717FF171717FF171717FF171717FF171717FF171717FF171717FF171717FF171717FF171717FF171717FF171717FF171717FF1717
310
17FF171717FF171717FF171717FF171717FF171717FF171717FF171717FF171717FF171717FF171717FF171717FF171717FF171717FF171717FF171717FF171717FF171717FF171717FF171717FF171717FF171717FF171717FF171717FF171717FF171717FF171717FF171717FF171717FF171717FF171717FF171717FF17
310
1717FF171717FF171717FF171717FF171717FF171717FF171717FF171717FF171717FF171717FF171717FF171717FF171717FF171717FF171717FF171717FF171717FF171717FF171717FF171717FF171717FF171717FF171717FF171717FF171717FF171717FF171717FF171717FF171717FF171717FF171717FF171717FF
310
171717FF171717FF171717FF171717FF171717FF171717FF171717FF171717FF171717FF171717FF171717FF171717FF171717FF171717FF171717FF171717FF171717FF171717FF
 70
     0
280
     1
281
     0
  0
BLOCK_RECORD
  5
C6F
102
{ACAD_XDICTIONARY
360
C8A
102
}
330
1
100
AcDbSymbolTableRecord
100
AcDbBlockTableRecord
  2
doppelnippel 1 1_2 v
340
0
 70
     0
280
     1
281
     0
  0
BLOCK_RECORD
  5
E1E
330
1
100
AcDbSymbolTableRecord
100
AcDbBlockTableRecord
  2
*S25
340
0
 70
     0
280
     1
281
     0
  0
ENDTAB
  0
ENDSEC
  0
SECTION
  2
BLOCKS
  0
BLOCK
  5
3
330
2
100
AcDbEntity
  8
0
 62
     7
100
AcDbBlockBegin
  2
*MODEL_SPACE
 70
     0
 10
0.0
 20
0.0
 30
0.0
  3
*MODEL_SPACE
  1

  0
ENDBLK
  5
6
330
2
100
AcDbEntity
  8
0
 62
     7
100
AcDbBlockEnd
  0
BLOCK
  5
8
330
7
100
AcDbEntity
 67
     1
  8
0
 62
     7
100
AcDbBlockBegin
  2
*PAPER_SPACE
 70
     0
 10
0.0
 20
0.0
 30
0.0
  3
*PAPER_SPACE
  1

  0
ENDBLK
  5
9
330
7
100
AcDbEntity
 67
     1
  8
0
 62
     7
100
AcDbBlockEnd
  0
BLOCK
  5
A9
330
78
100
AcDbEntity
  8
0
 62
     7
100
AcDbBlockBegin
  2
50976_A00_Schwalldüse_115-15_Seitenansicht
 70
     0
 10
0.0
 20
0.0
 30
0.0
  3
50976_A00_Schwalldüse_115-15_Seitenansicht
  1

  0
ARC
  5
79
330
78
100
AcDbEntity
  8
VERDECKT
  6
GESTRICHELT
100
AcDbCircle
 10
55.00003244640204
 20
54.28101049991219
 30
0.0
 40
74.0
100
AcDbArc
 50
127.5000000000007
 51
180.0
  0
LINE
  5
7A
330
78
100
AcDbEntity
  8
VERDECKT
  6
GESTRICHELT
100
AcDbLine
 10
107.8770081903029
 20
180.6377890222646
 30
0.0
 11
30.57224539009252
 21
79.89226069955812
 31
0.0
  0
ARC
  5
7B
330
78
100
AcDbEntity
  8
MITTELLINIEN
  6
STRICHPUNKTIERT
100
AcDbCircle
 10
65.00003244640192
 20
50.07616458615231
 30
0.0
 40
65.0
100
AcDbArc
 50
135.0
 51
180.0
  0
ARC
  5
7C
330
78
100
AcDbEntity
  8
KÖRPERKANTEN
  6
Continuous
100
AcDbCircle
 10
52.00003244640214
 20
53.52632087503915
 30
0.0
 40
80.0
100
AcDbArc
 50
127.5000000000007
 51
180.0
  0
LINE
  5
7D
330
78
100
AcDbEntity
  8
KÖRPERKANTEN
  6
Continuous
100
AcDbLine
 10
116.7158429551352
 20
180.2842356316718
 30
0.0
 11
38.33236543184012
 21
78.13289891178411
 31
0.0
  0
LINE
  5
7E
330
78
100
AcDbEntity
  8
VERDECKT
  6
GESTRICHELT
100
AcDbLine
 10
-18.99996755359807
 20
34.00004614040521
 30
0.0
 11
-18.99996755359807
 21
54.28101049991219
 31
0.0
  0
LINE
  5
7F
330
78
100
AcDbEntity
  8
VERDECKT
  6
GESTRICHELT
100
AcDbLine
 10
19.00003244640186
 20
34.00004614040521
 30
0.0
 11
19.00003244640186
 21
45.80162067507004
 31
0.0
  0
LINE
  5
80
330
78
100
AcDbEntity
  8
MITTELLINIEN
  6
STRICHPUNKTIERT
100
AcDbLine
 10
0.0000324464018604
 20
-6.316384350774824
 30
0.0
 11
0.0000324464018604
 21
50.07616458615231
 31
0.0
  0
LINE
  5
81
330
78
100
AcDbEntity
  8
KÖRPERKANTEN
  6
Continuous
100
AcDbLine
 10
-27.99996755359811
 20
0.0000461404052885
 30
0.0
 11
-27.99996755359811
 21
53.52632087503947
 31
0.0
  0
LINE
  5
82
330
78
100
AcDbEntity
  8
KÖRPERKANTEN
  6
Continuous
100
AcDbLine
 10
28.00003244640203
 20
0.0000461404052885
 30
0.0
 11
28.00003244640203
 21
47.69482746134828
 31
0.0
  0
LINE
  5
83
330
78
100
AcDbEntity
  8
VERDECKT
  6
GESTRICHELT
100
AcDbLine
 10
0.0000324464018604
 20
34.00004614040521
 30
0.0
 11
24.00003244640186
 21
34.00004614040521
 31
0.0
  0
LINE
  5
84
330
78
100
AcDbEntity
  8
VERDECKT
  6
GESTRICHELT
100
AcDbLine
 10
0.0000324464018604
 20
30.0000461404052
 30
0.0
 11
24.00003244640186
 21
30.0000461404052
 31
0.0
  0
LINE
  5
85
330
78
100
AcDbEntity
  8
VERDECKT
  6
GESTRICHELT
100
AcDbLine
 10
0.0000324464018604
 20
1.500046140405174
 30
0.0
 11
22.50003244640186
 21
1.500046140405174
 31
0.0
  0
LINE
  5
86
330
78
100
AcDbEntity
  8
KÖRPERKANTEN
  6
Continuous
100
AcDbLine
 10
0.0000324464018604
 20
0.0000461404051748
 30
0.0
 11
28.00003244640203
 21
0.0000461404052885
 31
0.0
  0
LINE
  5
87
330
78
100
AcDbEntity
  8
VERDECKT
  6
GESTRICHELT
100
AcDbLine
 10
-23.99996755359797
 20
0.0000461404051748
 30
0.0
 11
-23.99996755359797
 21
29.73084241698129
 31
0.0
  0
LINE
  5
88
330
78
100
AcDbEntity
  8
VERDECKT
  6
GESTRICHELT
100
AcDbLine
 10
-22.49996755359808
 20
30.0000461404052
 30
0.0
 11
-22.49996755359808
 21
1.500046140405174
 31
0.0
  0
LINE
  5
89
330
78
100
AcDbEntity
  8
VERDECKT
  6
GESTRICHELT
100
AcDbLine
 10
0.0000324464018604
 20
1.500046140405174
 30
0.0
 11
-22.49996755359808
 21
1.500046140405174
 31
0.0
  0
LINE
  5
8A
330
78
100
AcDbEntity
  8
KÖRPERKANTEN
  6
Continuous
100
AcDbLine
 10
0.0000324464018604
 20
0.0000461404051748
 30
0.0
 11
-27.99996755359811
 21
0.0000461404052885
 31
0.0
  0
LINE
  5
8B
330
78
100
AcDbEntity
  8
VERDECKT
  6
GESTRICHELT
100
AcDbLine
 10
-22.49996755359808
 20
1.500046140405174
 30
0.0
 11
-23.99996755359797
 21
0.0000461404052885
 31
0.0
  0
LINE
  5
8C
330
78
100
AcDbEntity
  8
VERDECKT
  6
GESTRICHELT
100
AcDbLine
 10
0.0000324464018604
 20
34.00004614040521
 30
0.0
 11
-23.99996755359797
 21
34.00004614040521
 31
0.0
  0
LINE
  5
8D
330
78
100
AcDbEntity
  8
VERDECKT
  6
GESTRICHELT
100
AcDbLine
 10
0.0000324464018604
 20
30.0000461404052
 30
0.0
 11
-23.99996755359797
 21
30.0000461404052
 31
0.0
  0
LINE
  5
8E
330
78
100
AcDbEntity
  8
VERDECKT
  6
GESTRICHELT
100
AcDbLine
 10
-23.99996755359797
 20
30.00196295059007
 30
0.0
 11
-23.99996755359797
 21
34.00004614040521
 31
0.0
  0
LINE
  5
8F
330
78
100
AcDbEntity
  8
VERDECKT
  6
GESTRICHELT
100
AcDbLine
 10
24.00003244640186
 20
0.0000461404051748
 30
0.0
 11
24.00003244640186
 21
29.73084241698129
 31
0.0
  0
LINE
  5
90
330
78
100
AcDbEntity
  8
VERDECKT
  6
GESTRICHELT
100
AcDbLine
 10
22.50003244640186
 20
30.0000461404052
 30
0.0
 11
22.50003244640186
 21
1.500046140405174
 31
0.0
  0
LINE
  5
91
330
78
100
AcDbEntity
  8
VERDECKT
  6
GESTRICHELT
100
AcDbLine
 10
22.50003244640186
 20
1.500046140405174
 30
0.0
 11
24.00003244640186
 21
0.0000461404052885
 31
0.0
  0
LINE
  5
92
330
78
100
AcDbEntity
  8
VERDECKT
  6
GESTRICHELT
100
AcDbLine
 10
24.00003244640186
 20
30.00196295059007
 30
0.0
 11
24.00003244640186
 21
34.00004614040521
 31
0.0
  0
ARC
  5
93
330
78
100
AcDbEntity
  8
VERDECKT
  6
GESTRICHELT
100
AcDbCircle
 10
75.00003244640192
 20
45.80162067507004
 30
0.0
 40
56.0
100
AcDbArc
 50
142.4999999999993
 51
180.0
  0
ARC
  5
94
330
78
100
AcDbEntity
  8
KÖRPERKANTEN
  6
Continuous
100
AcDbCircle
 10
78.00003244640199
 20
47.69482746134828
 30
0.0
 40
50.0
100
AcDbArc
 50
142.4999999999993
 51
180.0
  0
LINE
  5
95
330
78
100
AcDbEntity
  8
VERDECKT
  6
GESTRICHELT
100
AcDbLine
 10
103.6377753282621
 20
184.8770218843055
 30
0.0
 11
9.951686699756292
 21
112.9891576814634
 31
0.0
  0
LINE
  5
96
330
78
100
AcDbEntity
  8
LICHTKANTEN
  6
Continuous
100
AcDbLine
 10
28.98136228481565
 20
126.909617387703
 30
0.0
 11
57.10205421246365
 21
126.909617387703
 31
0.0
  0
LINE
  5
97
330
78
100
AcDbEntity
  8
LICHTKANTEN
  6
Continuous
100
AcDbLine
 10
34.14112227153987
 20
123.0397973976596
 30
0.0
 11
52.20028222507551
 21
123.0397973976596
 31
0.0
  0
LINE
  5
98
330
78
100
AcDbEntity
  8
LICHTKANTEN
  6
Continuous
100
AcDbLine
 10
38.26893026091949
 20
118.9119894082801
 30
0.0
 11
48.58845023436835
 21
118.9119894082801
 31
0.0
  0
LINE
  5
99
330
78
100
AcDbEntity
  8
LICHTKANTEN
  6
Continuous
100
AcDbLine
 10
42.13875025096279
 20
114.5261934195643
 30
0.0
 11
45.23460624299753
 21
114.5261934195643
 31
0.0
  0
LINE
  5
9A
330
78
100
AcDbEntity
  8
LICHTKANTEN
  6
Continuous
100
AcDbLine
 10
-22.51941747971102
 20
130.4542283850174
 30
0.0
 11
111.2221958520127
 21
130.4542283850174
 31
0.0
  0
LINE
  5
9B
330
78
100
AcDbEntity
  8
MITTELLINIEN
  6
STRICHPUNKTIERT
100
AcDbLine
 10
114.2552722168496
 20
191.2552859108522
 30
0.0
 11
19.03809166927613
 21
96.0381053632776
 31
0.0
  0
LINE
  5
9C
330
78
100
AcDbEntity
  8
KÖRPERKANTEN
  6
Continuous
100
AcDbLine
 10
103.2842219376685
 20
193.715856649137
 30
0.0
 11
3.299118125704012
 21
116.9945880983377
 31
0.0
  0
LINE
  5
9D
330
78
100
AcDbEntity
  8
LICHTKANTEN
  6
Continuous
100
AcDbLine
 10
-15.65056160035067
 20
126.909617387703
 30
0.0
 11
12.47013032729751
 21
126.909617387703
 31
0.0
  0
LINE
  5
9E
330
78
100
AcDbEntity
  8
LICHTKANTEN
  6
Continuous
100
AcDbLine
 10
-2.4931736342034
 20
114.5261934195643
 30
0.0
 11
0.6026823578312133
 21
114.5261934195643
 31
0.0
  0
LINE
  5
9F
330
78
100
AcDbEntity
  8
LICHTKANTEN
  6
Continuous
100
AcDbLine
 10
-6.362993624246826
 20
118.9119894082801
 30
0.0
 11
3.956526349202134
 21
118.9119894082801
 31
0.0
  0
LINE
  5
A0
330
78
100
AcDbEntity
  8
LICHTKANTEN
  6
Continuous
100
AcDbLine
 10
-10.49080161362616
 20
123.0397973976596
 30
0.0
 11
7.568358339909137
 21
123.0397973976596
 31
0.0
  0
LINE
  5
A1
330
78
100
AcDbEntity
  8
VERDECKT
  6
GESTRICHELT
100
AcDbLine
 10
103.6360714157228
 20
184.8787257968448
 30
0.0
 11
107.8787121028424
 21
189.1213664839644
 31
0.0
  0
LINE
  5
A2
330
78
100
AcDbEntity
  8
KÖRPERKANTEN
  6
Continuous
100
AcDbLine
 10
103.2842219376685
 20
193.715856649137
 30
0.0
 11
116.7158429551352
 21
180.2842356316718
 31
0.0
  0
LINE
  5
A3
330
78
100
AcDbEntity
  8
LICHTKANTEN
  6
Continuous
100
AcDbLine
 10
101.6189635422836
 20
126.909617387703
 30
0.0
 11
73.49827161463537
 21
126.909617387703
 31
0.0
  0
LINE
  5
A4
330
78
100
AcDbEntity
  8
LICHTKANTEN
  6
Continuous
100
AcDbLine
 10
92.33139556617947
 20
118.9119894082801
 30
0.0
 11
82.01187559273069
 21
118.9119894082801
 31
0.0
  0
LINE
  5
A5
330
78
100
AcDbEntity
  8
LICHTKANTEN
  6
Continuous
100
AcDbLine
 10
96.45920355555915
 20
123.0397973976596
 30
0.0
 11
78.40004360202361
 21
123.0397973976596
 31
0.0
  0
LINE
  5
A6
330
78
100
AcDbEntity
  8
LICHTKANTEN
  6
Continuous
100
AcDbLine
 10
88.46157557613635
 20
114.5261934195643
 30
0.0
 11
85.36571958410162
 21
114.5261934195643
 31
0.0
  0
LINE
  5
A7
330
78
100
AcDbEntity
  8
VERDECKT
  6
GESTRICHELT
100
AcDbLine
 10
107.8787121028423
 20
180.6360851097254
 30
0.0
 11
112.1213527899621
 21
184.878725796845
 31
0.0
  0
ENDBLK
  5
AA
330
78
100
AcDbEntity
  8
0
 62
     7
100
AcDbBlockEnd
  0
BLOCK
  5
E7
330
AC
100
AcDbEntity
  8
0
 62
     7
100
AcDbBlockBegin
  2
50976_A00_Schwalldüse_115-15_Vorderansicht
 70
     0
 10
0.0
 20
0.0
 30
0.0
  3
50976_A00_Schwalldüse_115-15_Vorderansicht
  1

  0
LINE
  5
AD
330
AC
100
AcDbEntity
  8
VERDECKT
  6
GESTRICHELT
100
AcDbLine
 10
-59.91060481072278
 20
186.3905793884114
 30
0.0
 11
-22.37291890584652
 21
61.24478302067765
 31
0.0
  0
LINE
  5
AE
330
AC
100
AcDbEntity
  8
VERDECKT
  6
GESTRICHELT
100
AcDbLine
 10
59.91052136467089
 20
186.3905793884114
 30
0.0
 11
22.3728354597945
 21
61.24478302067765
 31
0.0
  0
LINE
  5
AF
330
AC
100
AcDbEntity
  8
LICHTKANTEN
  6
Continuous
100
AcDbLine
 10
58.07891358701811
 20
180.2842356316718
 30
0.0
 11
12.4592336289627
 21
63.6097425885595
 31
0.0
  0
LINE
  5
B0
330
AC
100
AcDbEntity
  8
LICHTKANTEN
  6
Continuous
100
AcDbLine
 10
-58.07899703307011
 20
180.2842356316718
 30
0.0
 11
-12.50753289266615
 21
63.73305805361301
 31
0.0
  0
LINE
  5
B1
330
AC
100
AcDbEntity
  8
MITTELLINIEN
  6
STRICHPUNKTIERT
100
AcDbLine
 10
-0.0000417230260013
 20
-6.316384350774824
 30
0.0
 11
-0.0000417230260013
 21
199.1507483509915
 31
0.0
  0
LINE
  5
B2
330
AC
100
AcDbEntity
  8
KÖRPERKANTEN
  6
Continuous
100
AcDbLine
 10
-65.75257701944734
 20
185.1937755808958
 30
0.0
 11
-30.94788789297568
 21
60.55643167592585
 31
0.0
  0
LINE
  5
B3
330
AC
100
AcDbEntity
  8
KÖRPERKANTEN
  6
Continuous
100
AcDbLine
 10
65.7524935733954
 20
185.1937755808958
 30
0.0
 11
30.94780444692371
 21
60.55643167592585
 31
0.0
  0
LINE
  5
B4
330
AC
100
AcDbEntity
  8
VERDECKT
  6
GESTRICHELT
100
AcDbLine
 10
-0.0000417230260723
 20
34.00004614040521
 30
0.0
 11
23.99995827697393
 21
34.00004614040521
 31
0.0
  0
LINE
  5
B5
330
AC
100
AcDbEntity
  8
VERDECKT
  6
GESTRICHELT
100
AcDbLine
 10
-0.0000417230260723
 20
30.0000461404052
 30
0.0
 11
23.99995827697393
 21
30.0000461404052
 31
0.0
  0
LINE
  5
B6
330
AC
100
AcDbEntity
  8
VERDECKT
  6
GESTRICHELT
100
AcDbLine
 10
-0.0000417230260013
 20
1.500046140405174
 30
0.0
 11
22.49995827697393
 21
1.500046140405174
 31
0.0
  0
ARC
  5
B7
330
AC
100
AcDbEntity
  8
LICHTKANTEN
  6
Continuous
100
AcDbCircle
 10
-0.0000414663661559
 20
59.20552596441289
 30
0.0
 40
10.0
100
AcDbArc
 50
201.3554785373851
 51
338.6445214626149
  0
LINE
  5
B8
330
AC
100
AcDbEntity
  8
KÖRPERKANTEN
  6
Continuous
100
AcDbLine
 10
-0.0000417230260723
 20
0.0000461404051748
 30
0.0
 11
27.99995827697393
 21
0.0000461404052885
 31
0.0
  0
LINE
  5
B9
330
AC
100
AcDbEntity
  8
VERDECKT
  6
GESTRICHELT
100
AcDbLine
 10
-19.00004172302604
 20
34.00004614040521
 30
0.0
 11
-19.00004172302604
 21
38.26035244776786
 31
0.0
  0
LINE
  5
BA
330
AC
100
AcDbEntity
  8
KÖRPERKANTEN
  6
Continuous
100
AcDbLine
 10
-28.00004172302605
 20
0.0000461404052885
 30
0.0
 11
-28.00004172302605
 21
39.03979648009957
 31
0.0
  0
LINE
  5
BB
330
AC
100
AcDbEntity
  8
VERDECKT
  6
GESTRICHELT
100
AcDbLine
 10
-24.00004172302605
 20
0.0000461404051748
 30
0.0
 11
-24.00004172302605
 21
29.73084241698129
 31
0.0
  0
LINE
  5
BC
330
AC
100
AcDbEntity
  8
VERDECKT
  6
GESTRICHELT
100
AcDbLine
 10
-22.50004172302604
 20
30.0000461404052
 30
0.0
 11
-22.50004172302604
 21
1.500046140405174
 31
0.0
  0
LINE
  5
BD
330
AC
100
AcDbEntity
  8
VERDECKT
  6
GESTRICHELT
100
AcDbLine
 10
-0.0000417230260723
 20
1.500046140405174
 30
0.0
 11
-22.50004172302604
 21
1.500046140405174
 31
0.0
  0
LINE
  5
BE
330
AC
100
AcDbEntity
  8
KÖRPERKANTEN
  6
Continuous
100
AcDbLine
 10
-0.0000417230260013
 20
0.0000461404051748
 30
0.0
 11
-28.00004172302605
 21
0.0000461404052885
 31
0.0
  0
LINE
  5
BF
330
AC
100
AcDbEntity
  8
VERDECKT
  6
GESTRICHELT
100
AcDbLine
 10
-22.50004172302604
 20
1.500046140405174
 30
0.0
 11
-24.00004172302605
 21
0.0000461404052885
 31
0.0
  0
LINE
  5
C0
330
AC
100
AcDbEntity
  8
VERDECKT
  6
GESTRICHELT
100
AcDbLine
 10
-0.0000417230260013
 20
34.00004614040521
 30
0.0
 11
-24.00004172302605
 21
34.00004614040521
 31
0.0
  0
LINE
  5
C1
330
AC
100
AcDbEntity
  8
VERDECKT
  6
GESTRICHELT
100
AcDbLine
 10
-0.0000417230260013
 20
30.0000461404052
 30
0.0
 11
-24.00004172302605
 21
30.0000461404052
 31
0.0
  0
LINE
  5
C2
330
AC
100
AcDbEntity
  8
VERDECKT
  6
GESTRICHELT
100
AcDbLine
 10
-24.00004172302605
 20
30.00196295059007
 30
0.0
 11
-24.00004172302605
 21
34.00004614040521
 31
0.0
  0
ARC
  5
C3
330
AC
100
AcDbEntity
  8
VERDECKT
  6
GESTRICHELT
100
AcDbCircle
 10
-99.00004172302587
 20
38.26035244776786
 30
0.0
 40
80.0
100
AcDbArc
 50
0.0
 51
16.69670175886157
  0
ARC
  5
C4
330
AC
100
AcDbEntity
  8
KÖRPERKANTEN
  6
Continuous
100
AcDbCircle
 10
-108.0000417230259
 20
39.03979648009957
 30
0.0
 40
80.0
100
AcDbArc
 50
0.0
 51
15.60226762232749
  0
LINE
  5
C5
330
AC
100
AcDbEntity
  8
VERDECKT
  6
GESTRICHELT
100
AcDbLine
 10
18.99995827697393
 20
34.00004614040521
 30
0.0
 11
18.99995827697393
 21
38.26035244776786
 31
0.0
  0
LINE
  5
C6
330
AC
100
AcDbEntity
  8
KÖRPERKANTEN
  6
Continuous
100
AcDbLine
 10
27.99995827697393
 20
0.0000461404052885
 30
0.0
 11
27.999958276974
 21
39.03979648009946
 31
0.0
  0
LINE
  5
C7
330
AC
100
AcDbEntity
  8
VERDECKT
  6
GESTRICHELT
100
AcDbLine
 10
23.99995827697393
 20
0.0000461404051748
 30
0.0
 11
23.99995827697393
 21
29.73084241698129
 31
0.0
  0
LINE
  5
C8
330
AC
100
AcDbEntity
  8
VERDECKT
  6
GESTRICHELT
100
AcDbLine
 10
22.49995827697393
 20
30.0000461404052
 30
0.0
 11
22.49995827697393
 21
1.500046140405174
 31
0.0
  0
LINE
  5
C9
330
AC
100
AcDbEntity
  8
VERDECKT
  6
GESTRICHELT
100
AcDbLine
 10
22.49995827697393
 20
1.500046140405174
 30
0.0
 11
23.99995827697393
 21
0.0000461404052885
 31
0.0
  0
LINE
  5
CA
330
AC
100
AcDbEntity
  8
VERDECKT
  6
GESTRICHELT
100
AcDbLine
 10
23.99995827697393
 20
30.00196295059007
 30
0.0
 11
23.99995827697393
 21
34.00004614040521
 31
0.0
  0
ARC
  5
CB
330
AC
100
AcDbEntity
  8
VERDECKT
  6
GESTRICHELT
100
AcDbCircle
 10
98.99995827697392
 20
38.26035244776786
 30
0.0
 40
80.0
100
AcDbArc
 50
163.3032982411384
 51
180.0
  0
ARC
  5
CC
330
AC
100
AcDbEntity
  8
KÖRPERKANTEN
  6
Continuous
100
AcDbCircle
 10
107.999958276974
 20
39.03979648009946
 30
0.0
 40
80.0
100
AcDbArc
 50
164.3977323776725
 51
180.0
  0
ARC
  5
CD
330
AC
100
AcDbEntity
  8
KÖRPERKANTEN
  6
Continuous
100
AcDbCircle
 10
-57.87872137946624
 20
187.0000461404045
 30
0.0
 40
2.121320343559605
100
AcDbArc
 50
90.0
 51
270.0000001211513
  0
ARC
  5
CE
330
AC
100
AcDbEntity
  8
KÖRPERKANTEN
  6
Continuous
100
AcDbCircle
 10
-59.28423121429315
 20
187.0000461404043
 30
0.0
 40
6.715810508732655
100
AcDbArc
 50
90.0
 51
270.0
  0
ARC
  5
CF
330
AC
100
AcDbEntity
  8
KÖRPERKANTEN
  6
Continuous
100
AcDbCircle
 10
57.87863793341432
 20
187.0000461404045
 30
0.0
 40
2.121320343559605
100
AcDbArc
 50
269.9999998788487
 51
90.0
  0
ARC
  5
D0
330
AC
100
AcDbEntity
  8
KÖRPERKANTEN
  6
Continuous
100
AcDbCircle
 10
59.28414776824117
 20
187.0000461404043
 30
0.0
 40
6.715810508732655
100
AcDbArc
 50
270.0
 51
90.0
  0
LINE
  5
D1
330
AC
100
AcDbEntity
  8
LICHTKANTEN
  6
Continuous
100
AcDbLine
 10
-15.98187305992714
 20
126.909617387703
 30
0.0
 11
12.13881886772091
 21
126.909617387703
 31
0.0
  0
LINE
  5
D2
330
AC
100
AcDbEntity
  8
LICHTKANTEN
  6
Continuous
100
AcDbLine
 10
-10.82211307320274
 20
123.0397973976596
 30
0.0
 11
7.237046880332798
 21
123.0397973976596
 31
0.0
  0
LINE
  5
D3
330
AC
100
AcDbEntity
  8
LICHTKANTEN
  6
Continuous
100
AcDbLine
 10
-67.48265282445368
 20
130.4542283850174
 30
0.0
 11
66.25896050727011
 21
130.4542283850174
 31
0.0
  0
LINE
  5
D4
330
AC
100
AcDbEntity
  8
KÖRPERKANTEN
  6
Continuous
100
AcDbLine
 10
-0.0000417230260013
 20
184.8787257968448
 30
0.0
 11
57.8820431615005
 21
184.8787257968448
 31
0.0
  0
LINE
  5
D5
330
AC
100
AcDbEntity
  8
KÖRPERKANTEN
  6
Continuous
100
AcDbLine
 10
-0.0000417230260013
 20
180.2842356316718
 30
0.0
 11
59.99995827697389
 21
180.2842356316718
 31
0.0
  0
LINE
  5
D6
330
AC
100
AcDbEntity
  8
LICHTKANTEN
  6
Continuous
100
AcDbLine
 10
-60.61379694509343
 20
126.909617387703
 30
0.0
 11
-32.49310501744528
 21
126.909617387703
 31
0.0
  0
LINE
  5
D7
330
AC
100
AcDbEntity
  8
LICHTKANTEN
  6
Continuous
100
AcDbLine
 10
-55.45403695836903
 20
123.0397973976596
 30
0.0
 11
-37.39487700483348
 21
123.0397973976596
 31
0.0
  0
LINE
  5
D8
330
AC
100
AcDbEntity
  8
LICHTKANTEN
  6
Continuous
100
AcDbLine
 10
-51.32622896898944
 20
118.9119894082801
 30
0.0
 11
-41.00670899554063
 21
118.9119894082801
 31
0.0
  0
LINE
  5
D9
330
AC
100
AcDbEntity
  8
LICHTKANTEN
  6
Continuous
100
AcDbLine
 10
-47.45640897894611
 20
114.5261934195643
 30
0.0
 11
-44.36055298691147
 21
114.5261934195643
 31
0.0
  0
LINE
  5
DA
330
AC
100
AcDbEntity
  8
LICHTKANTEN
  6
Continuous
100
AcDbLine
 10
-6.694305083823137
 20
118.9119894082801
 30
0.0
 11
3.625214889625596
 21
118.9119894082801
 31
0.0
  0
LINE
  5
DB
330
AC
100
AcDbEntity
  8
LICHTKANTEN
  6
Continuous
100
AcDbLine
 10
-2.82448509377984
 20
114.5261934195643
 30
0.0
 11
0.2713708982548013
 21
114.5261934195643
 31
0.0
  0
LINE
  5
DC
330
AC
100
AcDbEntity
  8
KÖRPERKANTEN
  6
Continuous
100
AcDbLine
 10
-0.0000417230258307
 20
184.8787257968448
 30
0.0
 11
-57.88212660755247
 21
184.8787257968448
 31
0.0
  0
LINE
  5
DD
330
AC
100
AcDbEntity
  8
KÖRPERKANTEN
  6
Continuous
100
AcDbLine
 10
-0.0000417230258307
 20
180.2842356316718
 30
0.0
 11
-60.00004172302586
 21
180.2842356316718
 31
0.0
  0
LINE
  5
DE
330
AC
100
AcDbEntity
  8
LICHTKANTEN
  6
Continuous
100
AcDbLine
 10
56.65572819754082
 20
126.909617387703
 30
0.0
 11
28.53503626989262
 21
126.909617387703
 31
0.0
  0
LINE
  5
DF
330
AC
100
AcDbEntity
  8
LICHTKANTEN
  6
Continuous
100
AcDbLine
 10
51.4959682108164
 20
123.0397973976596
 30
0.0
 11
33.4368082572809
 21
123.0397973976596
 31
0.0
  0
LINE
  5
E0
330
AC
100
AcDbEntity
  8
LICHTKANTEN
  6
Continuous
100
AcDbLine
 10
47.36816022143679
 20
118.9119894082801
 30
0.0
 11
37.04864024798791
 21
118.9119894082801
 31
0.0
  0
LINE
  5
E1
330
AC
100
AcDbEntity
  8
LICHTKANTEN
  6
Continuous
100
AcDbLine
 10
43.49834023139353
 20
114.5261934195643
 30
0.0
 11
40.4024842393589
 21
114.5261934195643
 31
0.0
  0
LINE
  5
E2
330
AC
100
AcDbEntity
  8
KÖRPERKANTEN
  6
Continuous
100
AcDbLine
 10
-0.0000417230260013
 20
189.121366483964
 30
0.0
 11
57.87863793341432
 21
189.121366483964
 31
0.0
  0
LINE
  5
E3
330
AC
100
AcDbEntity
  8
KÖRPERKANTEN
  6
Continuous
100
AcDbLine
 10
-0.0000417230259444
 20
193.715856649137
 30
0.0
 11
59.28414776824117
 21
193.715856649137
 31
0.0
  0
LINE
  5
E4
330
AC
100
AcDbEntity
  8
KÖRPERKANTEN
  6
Continuous
100
AcDbLine
 10
-0.0000417230258307
 20
189.121366483964
 30
0.0
 11
-57.87872137946624
 21
189.121366483964
 31
0.0
  0
LINE
  5
E5
330
AC
100
AcDbEntity
  8
KÖRPERKANTEN
  6
Continuous
100
AcDbLine
 10
-0.0000417230259018
 20
193.715856649137
 30
0.0
 11
-59.28423121429315
 21
193.715856649137
 31
0.0
  0
ENDBLK
  5
E8
330
AC
100
AcDbEntity
  8
0
 62
     7
100
AcDbBlockEnd
  0
BLOCK
  5
880
330
1D0
100
AcDbEntity
  8
0
100
AcDbBlockBegin
  2
GENAXEH
 70
     0
 10
0.0
 20
0.0
 30
0.0
  3
GENAXEH
  1

  0
LINE
  5
881
330
1D0
100
AcDbEntity
  8
0
100
AcDbLine
 10
-1.0
 20
0.0
 30
0.0
 11
1.0
 21
0.0
 31
0.0
  0
ENDBLK
  5
882
330
1D0
100
AcDbEntity
  8
0
100
AcDbBlockEnd
  0
BLOCK
  5
319
330
318
100
AcDbEntity
  8
0
100
AcDbBlockBegin
  2
*D3
 70
     1
 10
0.0
 20
0.0
 30
0.0
  3
*D3
  1

  0
LINE
  5
A5A
330
318
100
AcDbEntity
  8
AM_5 ( Bemassung)
440
 16777216
100
AcDbLine
 10
398.7247670603635
 20
411.6145116660946
 30
0.0
 11
398.7247670603635
 21
459.4717439538067
 31
0.0
  0
LINE
  5
A5B
330
318
100
AcDbEntity
  8
AM_5 ( Bemassung)
440
 16777216
100
AcDbLine
 10
254.0089565516302
 20
236.7340675121141
 30
0.0
 11
254.0089565516302
 21
459.4717439538067
 31
0.0
  0
LINE
  5
A5C
330
318
100
AcDbEntity
  8
AM_5 ( Bemassung)
440
 16777216
100
AcDbLine
 10
378.7247670603635
 20
455.4717439538067
 30
0.0
 11
274.0089565516302
 21
455.4717439538067
 31
0.0
  0
SOLID
  5
A5D
330
318
100
AcDbEntity
  8
AM_5 ( Bemassung)
440
 16777216
100
AcDbTrace
 10
378.7247670603635
 20
458.80507728714
 30
0.0
 11
378.7247670603635
 21
452.1384106204734
 31
0.0
 12
398.7247670603635
 22
455.4717439538067
 32
0.0
 13
398.7247670603635
 23
455.4717439538067
 33
0.0
  0
SOLID
  5
A5E
330
318
100
AcDbEntity
  8
AM_5 ( Bemassung)
440
 16777216
100
AcDbTrace
 10
274.0089565516302
 20
458.80507728714
 30
0.0
 11
274.0089565516302
 21
452.1384106204734
 31
0.0
 12
254.0089565516302
 22
455.4717439538067
 32
0.0
 13
254.0089565516302
 23
455.4717439538067
 33
0.0
  0
MTEXT
  5
A5F
330
318
100
AcDbEntity
  8
AM_5 ( Bemassung)
 62
     2
440
 16777216
100
AcDbMText
 10
320.1481393208878
 20
469.6832037082407
 30
0.0
 40
20.0
 41
0.0
 46
0.0
 71
     5
 72
     1
  1
145
 73
     1
 44
1.0
  0
POINT
  5
A60
330
318
100
AcDbEntity
  8
Defpoints
 62
     0
440
 16777216
100
AcDbPoint
 10
398.7247670603635
 20
411.6145116660946
 30
0.0
  0
POINT
  5
A61
330
318
100
AcDbEntity
  8
Defpoints
 62
     0
440
 16777216
100
AcDbPoint
 10
254.0089565516302
 20
236.7340675121141
 30
0.0
  0
POINT
  5
A62
330
318
100
AcDbEntity
  8
Defpoints
 62
     0
440
 16777216
100
AcDbPoint
 10
254.0089565516302
 20
455.4717439538067
 30
0.0
  0
ENDBLK
  5
31A
330
318
100
AcDbEntity
  8
0
100
AcDbBlockEnd
  0
BLOCK
  5
340
330
33F
100
AcDbEntity
  8
0
100
AcDbBlockBegin
  2
*D4
 70
     1
 10
0.0
 20
0.0
 30
0.0
  3
*D4
  1

  0
LINE
  5
DCC
330
33F
100
AcDbEntity
  8
AM_5 ( Bemassung)
440
 16777216
100
AcDbLine
 10
393.231119957241
 20
361.7845044194402
 30
0.0
 11
433.8125712254286
 21
361.7845044194402
 31
0.0
  0
LINE
  5
DCD
330
33F
100
AcDbEntity
  8
AM_5 ( Bemassung)
440
 16777216
100
AcDbLine
 10
305.9089569105722
 20
223.3303220546785
 30
0.0
 11
433.8125712254286
 21
223.3303220546784
 31
0.0
  0
LINE
  5
DCE
330
33F
100
AcDbEntity
  8
AM_5 ( Bemassung)
440
 16777216
100
AcDbLine
 10
429.8125712254286
 20
341.7845044194402
 30
0.0
 11
429.8125712254286
 21
243.3303220546784
 31
0.0
  0
SOLID
  5
DCF
330
33F
100
AcDbEntity
  8
AM_5 ( Bemassung)
440
 16777216
100
AcDbTrace
 10
426.4792378920953
 20
341.7845044194402
 30
0.0
 11
433.1459045587619
 21
341.7845044194402
 31
0.0
 12
429.8125712254286
 22
361.7845044194402
 32
0.0
 13
429.8125712254286
 23
361.7845044194402
 33
0.0
  0
SOLID
  5
DD0
330
33F
100
AcDbEntity
  8
AM_5 ( Bemassung)
440
 16777216
100
AcDbTrace
 10
426.4792378920953
 20
243.3303220546784
 30
0.0
 11
433.1459045587619
 21
243.3303220546784
 31
0.0
 12
429.8125712254286
 22
223.3303220546784
 32
0.0
 13
429.8125712254286
 23
223.3303220546784
 33
0.0
  0
MTEXT
  5
DD1
330
33F
100
AcDbEntity
  8
AM_5 ( Bemassung)
 62
     2
440
 16777216
100
AcDbMText
 10
415.5942901885937
 20
291.0369577965361
 30
0.0
 40
20.0
 41
0.0
 46
0.0
 71
     5
 72
     1
  1
130
 11
0.0000000000000001
 21
1.0
 31
0.0
 73
     1
 44
1.0
  0
POINT
  5
DD2
330
33F
100
AcDbEntity
  8
Defpoints
 62
     0
440
 16777216
100
AcDbPoint
 10
393.231119957241
 20
361.7845044194402
 30
0.0
  0
POINT
  5
DD3
330
33F
100
AcDbEntity
  8
Defpoints
 62
     0
440
 16777216
100
AcDbPoint
 10
305.9089569105722
 20
223.3303220546785
 30
0.0
  0
POINT
  5
DD4
330
33F
100
AcDbEntity
  8
Defpoints
 62
     0
440
 16777216
100
AcDbPoint
 10
429.8125712254286
 20
223.3303220546784
 30
0.0
  0
ENDBLK
  5
341
330
33F
100
AcDbEntity
  8
0
100
AcDbBlockEnd
  0
BLOCK
  5
367
330
366
100
AcDbEntity
  8
0
100
AcDbBlockBegin
  2
*D5
 70
     1
 10
0.0
 20
0.0
 30
0.0
  3
*D5
  1

  0
LINE
  5
A51
330
366
100
AcDbEntity
  8
AM_5 ( Bemassung)
440
 16777216
100
AcDbLine
 10
398.7247670603635
 20
411.6145116660946
 30
0.0
 11
432.2459367134
 21
411.6145116660946
 31
0.0
  0
LINE
  5
A52
330
366
100
AcDbEntity
  8
AM_5 ( Bemassung)
440
 16777216
100
AcDbLine
 10
393.231119957241
 20
361.7845044194402
 30
0.0
 11
432.2459367134
 21
361.7845044194402
 31
0.0
  0
LINE
  5
A53
330
366
100
AcDbEntity
  8
AM_5 ( Bemassung)
440
 16777216
100
AcDbLine
 10
428.2459367134001
 20
391.6145116660946
 30
0.0
 11
428.2459367134001
 21
381.7845044194402
 31
0.0
  0
SOLID
  5
A54
330
366
100
AcDbEntity
  8
AM_5 ( Bemassung)
440
 16777216
100
AcDbTrace
 10
424.9126033800669
 20
391.6145116660946
 30
0.0
 11
431.5792700467333
 21
391.6145116660946
 31
0.0
 12
428.2459367134001
 22
411.6145116660946
 32
0.0
 13
428.2459367134001
 23
411.6145116660946
 33
0.0
  0
SOLID
  5
A55
330
366
100
AcDbEntity
  8
AM_5 ( Bemassung)
440
 16777216
100
AcDbTrace
 10
424.9126033800669
 20
381.7845044194402
 30
0.0
 11
431.5792700467333
 21
381.7845044194402
 31
0.0
 12
428.2459367134001
 22
361.7845044194402
 32
0.0
 13
428.2459367134001
 23
361.7845044194402
 33
0.0
  0
MTEXT
  5
A56
330
366
100
AcDbEntity
  8
AM_5 ( Bemassung)
 62
     2
440
 16777216
100
AcDbMText
 10
414.0344769589662
 20
383.433647966066
 30
0.0
 40
20.0
 41
0.0
 46
0.0
 71
     5
 72
     1
  1
50
 11
0.0000000000000001
 21
1.0
 31
0.0
 73
     1
 44
1.0
  0
POINT
  5
A57
330
366
100
AcDbEntity
  8
Defpoints
 62
     0
440
 16777216
100
AcDbPoint
 10
398.7247670603635
 20
411.6145116660946
 30
0.0
  0
POINT
  5
A58
330
366
100
AcDbEntity
  8
Defpoints
 62
     0
440
 16777216
100
AcDbPoint
 10
393.231119957241
 20
361.7845044194402
 30
0.0
  0
POINT
  5
A59
330
366
100
AcDbEntity
  8
Defpoints
 62
     0
440
 16777216
100
AcDbPoint
 10
428.2459367134001
 20
361.7845044194402
 30
0.0
  0
ENDBLK
  5
368
330
366
100
AcDbEntity
  8
0
100
AcDbBlockEnd
  0
BLOCK
  5
38E
330
38D
100
AcDbEntity
  8
0
100
AcDbBlockBegin
  2
*D6
 70
     1
 10
0.0
 20
0.0
 30
0.0
  3
*D6
  1

  0
LINE
  5
D70
330
38D
100
AcDbEntity
  8
AM_5 ( Bemassung)
440
 16777216
100
AcDbLine
 10
385.2931460428968
 20
425.0461326835599
 30
0.0
 11
476.8950251249763
 21
425.0461326835599
 31
0.0
  0
LINE
  5
D71
330
38D
100
AcDbEntity
  8
AM_5 ( Bemassung)
440
 16777216
100
AcDbLine
 10
303.6595919714011
 20
223.3303220546785
 30
0.0
 11
476.8950251249762
 21
223.3303220546784
 31
0.0
  0
LINE
  5
D72
330
38D
100
AcDbEntity
  8
AM_5 ( Bemassung)
440
 16777216
100
AcDbLine
 10
472.8950251249763
 20
405.0461326835598
 30
0.0
 11
472.8950251249762
 21
243.3303220546784
 31
0.0
  0
SOLID
  5
D73
330
38D
100
AcDbEntity
  8
AM_5 ( Bemassung)
440
 16777216
100
AcDbTrace
 10
469.561691791643
 20
405.0461326835598
 30
0.0
 11
476.2283584583096
 21
405.0461326835598
 31
0.0
 12
472.8950251249763
 22
425.0461326835599
 32
0.0
 13
472.8950251249763
 23
425.0461326835599
 33
0.0
  0
SOLID
  5
D74
330
38D
100
AcDbEntity
  8
AM_5 ( Bemassung)
440
 16777216
100
AcDbTrace
 10
469.5616917916429
 20
243.3303220546784
 30
0.0
 11
476.2283584583095
 21
243.3303220546784
 31
0.0
 12
472.8950251249762
 22
223.3303220546784
 32
0.0
 13
472.8950251249762
 23
223.3303220546784
 33
0.0
  0
MTEXT
  5
D75
330
38D
100
AcDbEntity
  8
AM_5 ( Bemassung)
 62
     2
440
 16777216
100
AcDbMText
 10
458.6835653705423
 20
326.2729838782917
 30
0.0
 40
20.0
 41
0.0
 46
0.0
 71
     5
 72
     1
  1
194
 11
0.0000000000000001
 21
1.0
 31
0.0
 73
     1
 44
1.0
  0
POINT
  5
D76
330
38D
100
AcDbEntity
  8
Defpoints
 62
     0
440
 16777216
100
AcDbPoint
 10
385.2931460428968
 20
425.0461326835599
 30
0.0
  0
POINT
  5
D77
330
38D
100
AcDbEntity
  8
Defpoints
 62
     0
440
 16777216
100
AcDbPoint
 10
303.6595919714011
 20
223.3303220546785
 30
0.0
  0
POINT
  5
D78
330
38D
100
AcDbEntity
  8
Defpoints
 62
     0
440
 16777216
100
AcDbPoint
 10
472.8950251249762
 20
223.3303220546784
 30
0.0
  0
ENDBLK
  5
38F
330
38D
100
AcDbEntity
  8
0
100
AcDbBlockEnd
  0
BLOCK
  5
3CB
330
3CA
100
AcDbEntity
  8
0
100
AcDbBlockBegin
  2
*D7
 70
     1
 10
0.0
 20
0.0
 30
0.0
  3
*D7
  1

  0
LINE
  5
D42
330
3CA
100
AcDbEntity
  8
AM_5 ( Bemassung)
440
 16777216
100
AcDbLine
 10
254.0089565516302
 20
236.7340675121141
 30
0.0
 11
254.0089565516302
 21
155.5988961097255
 31
0.0
  0
LINE
  5
D43
330
3CA
100
AcDbEntity
  8
AM_5 ( Bemassung)
440
 16777216
100
AcDbLine
 10
310.0089565516303
 20
231.3303221748281
 30
0.0
 11
310.0089565516303
 21
155.5988961097255
 31
0.0
  0
LINE
  5
D44
330
3CA
100
AcDbEntity
  8
AM_5 ( Bemassung)
440
 16777216
100
AcDbLine
 10
274.0089565516302
 20
159.5988961097255
 30
0.0
 11
290.0089565516303
 21
159.5988961097255
 31
0.0
  0
LINE
  5
D45
330
3CA
100
AcDbEntity
  8
AM_5 ( Bemassung)
440
 16777216
100
AcDbLine
 10
310.0089565516303
 20
159.5988961097255
 30
0.0
 11
388.4045909308936
 21
159.5988961097255
 31
0.0
  0
SOLID
  5
D46
330
3CA
100
AcDbEntity
  8
AM_5 ( Bemassung)
440
 16777216
100
AcDbTrace
 10
274.0089565516302
 20
162.9322294430588
 30
0.0
 11
274.0089565516302
 21
156.2655627763921
 31
0.0
 12
254.0089565516302
 22
159.5988961097255
 32
0.0
 13
254.0089565516302
 23
159.5988961097255
 33
0.0
  0
SOLID
  5
D47
330
3CA
100
AcDbEntity
  8
AM_5 ( Bemassung)
440
 16777216
100
AcDbTrace
 10
290.0089565516303
 20
162.9322294430588
 30
0.0
 11
290.0089565516303
 21
156.2655627763921
 31
0.0
 12
310.0089565516303
 22
159.5988961097255
 32
0.0
 13
310.0089565516303
 23
159.5988961097255
 33
0.0
  0
MTEXT
  5
D48
330
3CA
100
AcDbEntity
  8
AM_5 ( Bemassung)
 62
     2
440
 16777216
100
AcDbMText
 10
359.2067737412619
 20
174.3697010210488
 30
0.0
 40
20.0
 41
0.0
 46
0.0
 71
     5
 72
     1
  1
%%c56
 73
     1
 44
1.0
  0
POINT
  5
D49
330
3CA
100
AcDbEntity
  8
Defpoints
 62
     0
440
 16777216
100
AcDbPoint
 10
254.0089565516302
 20
236.7340675121141
 30
0.0
  0
POINT
  5
D4A
330
3CA
100
AcDbEntity
  8
Defpoints
 62
     0
440
 16777216
100
AcDbPoint
 10
310.0089565516303
 20
231.3303221748281
 30
0.0
  0
POINT
  5
D4B
330
3CA
100
AcDbEntity
  8
Defpoints
 62
     0
440
 16777216
100
AcDbPoint
 10
310.0089565516303
 20
159.5988961097255
 30
0.0
  0
ENDBLK
  5
3CC
330
3CA
100
AcDbEntity
  8
0
100
AcDbBlockEnd
  0
BLOCK
  5
3F2
330
3F1
100
AcDbEntity
  8
0
100
AcDbBlockBegin
  2
*D8
 70
     1
 10
0.0
 20
0.0
 30
0.0
  3
*D8
  1

  0
LINE
  5
A33
330
3F1
100
AcDbEntity
  8
AM_5 ( Bemassung)
440
 16777216
100
AcDbLine
 10
258.0089565516303
 20
265.330322174828
 30
0.0
 11
219.8001023748439
 21
265.330322174828
 31
0.0
  0
LINE
  5
A34
330
3F1
100
AcDbEntity
  8
AM_5 ( Bemassung)
440
 16777216
100
AcDbLine
 10
254.0089565516302
 20
231.3303221748281
 30
0.0
 11
219.8001023748439
 21
231.3303221748281
 31
0.0
  0
LINE
  5
A35
330
3F1
100
AcDbEntity
  8
AM_5 ( Bemassung)
440
 16777216
100
AcDbLine
 10
223.8001023748439
 20
285.330322174828
 30
0.0
 11
223.8001023748439
 21
305.330322174828
 31
0.0
  0
LINE
  5
A36
330
3F1
100
AcDbEntity
  8
AM_5 ( Bemassung)
440
 16777216
100
AcDbLine
 10
223.8001023748439
 20
211.3303221748281
 30
0.0
 11
223.8001023748438
 21
191.3303221748281
 31
0.0
  0
LINE
  5
A37
330
3F1
100
AcDbEntity
  8
AM_5 ( Bemassung)
440
 16777216
100
AcDbLine
 10
223.8001023748439
 20
265.330322174828
 30
0.0
 11
223.8001023748439
 21
231.3303221748281
 31
0.0
  0
SOLID
  5
A38
330
3F1
100
AcDbEntity
  8
AM_5 ( Bemassung)
440
 16777216
100
AcDbTrace
 10
220.4667690415105
 20
285.330322174828
 30
0.0
 11
227.1334357081772
 21
285.330322174828
 31
0.0
 12
223.8001023748439
 22
265.330322174828
 32
0.0
 13
223.8001023748439
 23
265.330322174828
 33
0.0
  0
SOLID
  5
A39
330
3F1
100
AcDbEntity
  8
AM_5 ( Bemassung)
440
 16777216
100
AcDbTrace
 10
220.4667690415105
 20
211.3303221748281
 30
0.0
 11
227.1334357081772
 21
211.3303221748281
 31
0.0
 12
223.8001023748439
 22
231.3303221748281
 32
0.0
 13
223.8001023748439
 23
231.3303221748281
 33
0.0
  0
MTEXT
  5
A3A
330
3F1
100
AcDbEntity
  8
AM_5 ( Bemassung)
 62
     2
440
 16777216
100
AcDbMText
 10
209.5818213380089
 20
248.3303221748281
 30
0.0
 40
20.0
 41
0.0
 46
0.0
 71
     5
 72
     1
  1
34
 11
0.0000000000000001
 21
1.0
 31
0.0
 73
     1
 44
1.0
  0
POINT
  5
A3B
330
3F1
100
AcDbEntity
  8
Defpoints
 62
     0
440
 16777216
100
AcDbPoint
 10
258.0089565516303
 20
265.330322174828
 30
0.0
  0
POINT
  5
A3C
330
3F1
100
AcDbEntity
  8
Defpoints
 62
     0
440
 16777216
100
AcDbPoint
 10
254.0089565516302
 20
231.3303221748281
 30
0.0
  0
POINT
  5
A3D
330
3F1
100
AcDbEntity
  8
Defpoints
 62
     0
440
 16777216
100
AcDbPoint
 10
223.8001023748439
 20
231.3303221748281
 30
0.0
  0
ENDBLK
  5
3F3
330
3F1
100
AcDbEntity
  8
0
100
AcDbBlockEnd
  0
BLOCK
  5
424
330
423
100
AcDbEntity
  8
0
100
AcDbBlockBegin
  2
*D9
 70
     1
 10
0.0
 20
0.0
 30
0.0
  3
*D9
  1

  0
LINE
  5
9C6
330
423
100
AcDbEntity
  8
AM_5 ( Bemassung)
440
 16777216
100
AcDbLine
 10
41.65568802131995
 20
418.2372569195549
 30
0.0
 11
41.65568802131995
 21
453.986000624046
 31
0.0
  0
LINE
  5
9C7
330
423
100
AcDbEntity
  8
AM_5 ( Bemassung)
440
 16777216
100
AcDbLine
 10
161.6556880213197
 20
418.2372569195549
 30
0.0
 11
161.6556880213197
 21
453.986000624046
 31
0.0
  0
LINE
  5
9C8
330
423
100
AcDbEntity
  8
AM_5 ( Bemassung)
440
 16777216
100
AcDbLine
 10
61.65568802131995
 20
449.986000624046
 30
0.0
 11
141.6556880213197
 21
449.986000624046
 31
0.0
  0
SOLID
  5
9C9
330
423
100
AcDbEntity
  8
AM_5 ( Bemassung)
440
 16777216
100
AcDbTrace
 10
61.65568802131995
 20
453.3193339573792
 30
0.0
 11
61.65568802131995
 21
446.6526672907126
 31
0.0
 12
41.65568802131995
 22
449.986000624046
 32
0.0
 13
41.65568802131995
 23
449.986000624046
 33
0.0
  0
SOLID
  5
9CA
330
423
100
AcDbEntity
  8
AM_5 ( Bemassung)
440
 16777216
100
AcDbTrace
 10
141.6556880213197
 20
453.3193339573792
 30
0.0
 11
141.6556880213197
 21
446.6526672907126
 31
0.0
 12
161.6556880213197
 22
449.986000624046
 32
0.0
 13
161.6556880213197
 23
449.986000624046
 33
0.0
  0
MTEXT
  5
9CB
330
423
100
AcDbEntity
  8
AM_5 ( Bemassung)
 62
     2
440
 16777216
100
AcDbMText
 10
101.675342941639
 20
464.1974603784798
 30
0.0
 40
20.0
 41
0.0
 46
0.0
 71
     5
 72
     1
  1
120
 73
     1
 44
1.0
  0
POINT
  5
9CC
330
423
100
AcDbEntity
  8
Defpoints
 62
     0
440
 16777216
100
AcDbPoint
 10
41.65568802131995
 20
418.2372569195549
 30
0.0
  0
POINT
  5
9CD
330
423
100
AcDbEntity
  8
Defpoints
 62
     0
440
 16777216
100
AcDbPoint
 10
161.6556880213197
 20
418.2372569195549
 30
0.0
  0
POINT
  5
9CE
330
423
100
AcDbEntity
  8
Defpoints
 62
     0
440
 16777216
100
AcDbPoint
 10
161.6556880213197
 20
449.986000624046
 30
0.0
  0
ENDBLK
  5
425
330
423
100
AcDbEntity
  8
0
100
AcDbBlockEnd
  0
BLOCK
  5
46C
330
46B
100
AcDbEntity
  8
0
100
AcDbBlockBegin
  2
*D10
 70
     1
 10
0.0
 20
0.0
 30
0.0
  3
*D10
  1

  0
LINE
  5
A1F
330
46B
100
AcDbEntity
  8
AM_5 ( Bemassung)
440
 16777216
100
AcDbLine
 10
35.65568802132001
 20
418.2372569195549
 30
0.0
 11
35.65568802132002
 21
496.2163124466723
 31
0.0
  0
LINE
  5
A20
330
46B
100
AcDbEntity
  8
AM_5 ( Bemassung)
440
 16777216
100
AcDbLine
 10
167.6556880213196
 20
418.2372569195549
 30
0.0
 11
167.6556880213196
 21
496.2163124466723
 31
0.0
  0
LINE
  5
A21
330
46B
100
AcDbEntity
  8
AM_5 ( Bemassung)
440
 16777216
100
AcDbLine
 10
55.65568802132002
 20
492.2163124466723
 30
0.0
 11
147.6556880213196
 21
492.2163124466723
 31
0.0
  0
SOLID
  5
A22
330
46B
100
AcDbEntity
  8
AM_5 ( Bemassung)
440
 16777216
100
AcDbTrace
 10
55.65568802132002
 20
495.5496457800057
 30
0.0
 11
55.65568802132002
 21
488.8829791133391
 31
0.0
 12
35.65568802132002
 22
492.2163124466723
 32
0.0
 13
35.65568802132002
 23
492.2163124466723
 33
0.0
  0
SOLID
  5
A23
330
46B
100
AcDbEntity
  8
AM_5 ( Bemassung)
440
 16777216
100
AcDbTrace
 10
147.6556880213196
 20
495.5496457800057
 30
0.0
 11
147.6556880213196
 21
488.8829791133391
 31
0.0
 12
167.6556880213196
 22
492.2163124466723
 32
0.0
 13
167.6556880213196
 23
492.2163124466723
 33
0.0
  0
MTEXT
  5
A24
330
46B
100
AcDbEntity
  8
AM_5 ( Bemassung)
 62
     2
440
 16777216
100
AcDbMText
 10
99.052832592105
 20
506.4345934835071
 30
0.0
 40
20.0
 41
0.0
 46
0.0
 71
     5
 72
     1
  1
132
 73
     1
 44
1.0
  0
POINT
  5
A25
330
46B
100
AcDbEntity
  8
Defpoints
 62
     0
440
 16777216
100
AcDbPoint
 10
35.65568802132001
 20
418.2372569195549
 30
0.0
  0
POINT
  5
A26
330
46B
100
AcDbEntity
  8
Defpoints
 62
     0
440
 16777216
100
AcDbPoint
 10
167.6556880213196
 20
418.2372569195549
 30
0.0
  0
POINT
  5
A27
330
46B
100
AcDbEntity
  8
Defpoints
 62
     0
440
 16777216
100
AcDbPoint
 10
167.6556880213196
 20
492.2163124466723
 30
0.0
  0
ENDBLK
  5
46D
330
46B
100
AcDbEntity
  8
0
100
AcDbBlockEnd
  0
BLOCK
  5
49E
330
49D
100
AcDbEntity
  8
0
100
AcDbBlockBegin
  2
*D11
 70
     1
 10
0.0
 20
0.0
 30
0.0
  3
*D11
  1

  0
LINE
  5
A28
330
49D
100
AcDbEntity
  8
AM_5 ( Bemassung)
440
 16777216
100
AcDbLine
 10
167.4082233177412
 20
416.4309863600461
 30
0.0
 11
197.4466586904233
 21
524.0001356292067
 31
0.0
  0
LINE
  5
A29
330
49D
100
AcDbEntity
  8
AM_5 ( Bemassung)
440
 16777216
100
AcDbLine
 10
35.90315272489846
 20
416.4309863600461
 30
0.0
 11
5.864717352216826
 21
524.0001356292068
 31
0.0
  0
ARC
  5
A2A
330
49D
100
AcDbEntity
  8
AM_5 ( Bemassung)
440
 16777216
100
AcDbCircle
 10
101.6556880213197
 20
180.9678473391995
 30
0.0
 40
352.1559502117124
100
AcDbArc
 50
77.65217021760881
 51
102.3478297823911
  0
SOLID
  5
A2B
330
49D
100
AcDbEntity
  8
AM_5 ( Bemassung)
440
 16777216
100
AcDbTrace
 10
177.7678049447819
 20
528.2121844155145
 30
0.0
 11
176.1578094377
 21
521.7428445023841
 31
0.0
 12
196.370826930632
 22
520.1475279377041
 32
0.0
 13
196.370826930632
 23
520.1475279377041
 33
0.0
  0
SOLID
  5
A2C
330
49D
100
AcDbEntity
  8
AM_5 ( Bemassung)
440
 16777216
100
AcDbTrace
 10
27.15356660493996
 20
521.7428445023845
 30
0.0
 11
25.54357109785818
 21
528.2121844155149
 31
0.0
 12
6.940549112008127
 22
520.1475279377043
 32
0.0
 13
6.940549112008127
 23
520.1475279377043
 33
0.0
  0
MTEXT
  5
A2D
330
49D
100
AcDbEntity
  8
AM_5 ( Bemassung)
 62
     2
440
 16777216
100
AcDbMText
 10
100.5879872502223
 20
547.3405228187272
 30
0.0
 40
20.0
 41
0.0
 46
0.0
 71
     5
 72
     1
  1
31°
 11
0.9999957536068675
 21
0.0029142354457054
 31
0.0
 73
     1
 44
1.0
  0
POINT
  5
A2E
330
49D
100
AcDbEntity
  8
Defpoints
 62
     0
440
 16777216
100
AcDbPoint
 10
133.5771171124436
 20
531.6740429421488
 30
0.0
  0
POINT
  5
A2F
330
49D
100
AcDbEntity
  8
Defpoints
 62
     0
440
 16777216
100
AcDbPoint
 10
35.90315272489846
 20
416.4309863600461
 30
0.0
  0
POINT
  5
A30
330
49D
100
AcDbEntity
  8
Defpoints
 62
     0
440
 16777216
100
AcDbPoint
 10
167.4082233177412
 20
416.4309863600461
 30
0.0
  0
POINT
  5
A31
330
49D
100
AcDbEntity
  8
Defpoints
 62
     0
440
 16777216
100
AcDbPoint
 10
132.6035341912694
 20
291.7936424550762
 30
0.0
  0
POINT
  5
A32
330
49D
100
AcDbEntity
  8
Defpoints
 62
     0
440
 16777216
100
AcDbPoint
 10
70.70784185137012
 20
291.7936424550762
 30
0.0
  0
ENDBLK
  5
49F
330
49D
100
AcDbEntity
  8
0
100
AcDbBlockEnd
  0
BLOCK
  5
4DE
330
4DD
100
AcDbEntity
  8
0
100
AcDbBlockBegin
  2
*D12
 70
     1
 10
0.0
 20
0.0
 30
0.0
  3
*D12
  1

  0
POINT
  5
4F1
330
4DD
100
AcDbEntity
  8
Defpoints
 62
     0
440
 16777216
100
AcDbPoint
 10
98.46178735625471
 20
216.2080766270863
 30
0.0
  0
POINT
  5
4F2
330
4DD
100
AcDbEntity
  8
Defpoints
 62
     0
440
 16777216
100
AcDbPoint
 10
125.6556880213197
 20
231.2372569195556
 30
0.0
  0
POINT
  5
4F3
330
4DD
100
AcDbEntity
  8
Defpoints
 62
     0
440
 16777216
100
AcDbPoint
 10
77.65568802131975
 20
231.2372569195556
 30
0.0
  0
POINT
  5
4F4
330
4DD
100
AcDbEntity
  8
Defpoints
 62
     0
440
 16777216
100
AcDbPoint
 10
77.65568802131975
 20
260.9680531961317
 30
0.0
  0
POINT
  5
4F5
330
4DD
100
AcDbEntity
  8
Defpoints
 62
     0
440
 16777216
100
AcDbPoint
 10
125.6556880213197
 20
260.9680531961317
 30
0.0
  0
ENDBLK
  5
4DF
330
4DD
100
AcDbEntity
  8
0
100
AcDbBlockEnd
  0
BLOCK
  5
4F8
330
4F7
100
AcDbEntity
  8
0
100
AcDbBlockBegin
  2
*D13
 70
     1
 10
0.0
 20
0.0
 30
0.0
  3
*D13
  1

  0
LINE
  5
E00
330
4F7
100
AcDbEntity
  8
AM_5 ( Bemassung)
440
 16777216
100
AcDbLine
 10
77.65568802131975
 20
231.2372569195556
 30
0.0
 11
77.65568802131975
 21
184.5094635116595
 31
0.0
  0
LINE
  5
E01
330
4F7
100
AcDbEntity
  8
AM_5 ( Bemassung)
440
 16777216
100
AcDbLine
 10
125.6556880213197
 20
231.2372569195556
 30
0.0
 11
125.6556880213197
 21
184.5094635116595
 31
0.0
  0
LINE
  5
E02
330
4F7
100
AcDbEntity
  8
AM_5 ( Bemassung)
440
 16777216
100
AcDbLine
 10
145.6556880213197
 20
188.5094635116595
 30
0.0
 11
165.6556880213197
 21
188.5094635116595
 31
0.0
  0
LINE
  5
E03
330
4F7
100
AcDbEntity
  8
AM_5 ( Bemassung)
440
 16777216
100
AcDbLine
 10
57.65568802131975
 20
188.5094635116595
 30
0.0
 11
-59.02098319286852
 21
188.5094635116595
 31
0.0
  0
LINE
  5
E04
330
4F7
100
AcDbEntity
  8
AM_5 ( Bemassung)
440
 16777216
100
AcDbLine
 10
125.6556880213197
 20
188.5094635116595
 30
0.0
 11
77.65568802131975
 21
188.5094635116595
 31
0.0
  0
SOLID
  5
E05
330
4F7
100
AcDbEntity
  8
AM_5 ( Bemassung)
440
 16777216
100
AcDbTrace
 10
145.6556880213197
 20
191.8427968449929
 30
0.0
 11
145.6556880213197
 21
185.1761301783262
 31
0.0
 12
125.6556880213197
 22
188.5094635116595
 32
0.0
 13
125.6556880213197
 23
188.5094635116595
 33
0.0
  0
SOLID
  5
E06
330
4F7
100
AcDbEntity
  8
AM_5 ( Bemassung)
440
 16777216
100
AcDbTrace
 10
57.65568802131975
 20
191.8427968449929
 30
0.0
 11
57.65568802131975
 21
185.1761301783262
 31
0.0
 12
77.65568802131975
 22
188.5094635116595
 32
0.0
 13
77.65568802131975
 23
188.5094635116595
 33
0.0
  0
MTEXT
  5
E07
330
4F7
100
AcDbEntity
  8
AM_5 ( Bemassung)
 62
     2
440
 16777216
100
AcDbMText
 10
-10.68264758577439
 20
202.8505276317141
 30
0.0
 40
20.0
 41
0.0
 46
0.0
 71
     5
 72
     1
  1
G 1 1/2
 73
     1
 44
1.0
  0
POINT
  5
E08
330
4F7
100
AcDbEntity
  8
Defpoints
 62
     0
440
 16777216
100
AcDbPoint
 10
77.65568802131975
 20
231.2372569195556
 30
0.0
  0
POINT
  5
E09
330
4F7
100
AcDbEntity
  8
Defpoints
 62
     0
440
 16777216
100
AcDbPoint
 10
125.6556880213197
 20
231.2372569195556
 30
0.0
  0
POINT
  5
E0A
330
4F7
100
AcDbEntity
  8
Defpoints
 62
     0
440
 16777216
100
AcDbPoint
 10
125.6556880213197
 20
188.5094635116595
 30
0.0
  0
ENDBLK
  5
4F9
330
4F7
100
AcDbEntity
  8
0
100
AcDbBlockEnd
  0
BLOCK
  5
80E
330
80D
100
AcDbEntity
  8
0
100
AcDbBlockBegin
  2
dimarch
 70
     0
 10
0.0
 20
0.0
 30
0.0
  3
dimarch
  1

  0
LINE
  5
80F
330
80D
100
AcDbEntity
  8
0
100
AcDbLine
 10
14.0
 20
14.0
 30
0.0
 11
-14.0
 21
-14.0
 31
0.0
  0
LINE
  5
810
330
80D
100
AcDbEntity
  8
0
100
AcDbLine
 10
0.0
 20
-20.0
 30
0.0
 11
0.0
 21
20.0
 31
0.0
  0
ENDBLK
  5
811
330
80D
100
AcDbEntity
  8
0
100
AcDbBlockEnd
  0
BLOCK
  5
C07
330
C06
100
AcDbEntity
  8
0
100
AcDbBlockBegin
  2
_ACMNONE
 70
     0
 10
0.0
 20
0.0
 30
0.0
  3
_ACMNONE
  1

  0
LINE
  5
C09
330
C06
100
AcDbEntity
  8
AM_2 ( Kontur 0.25)
 62
     0
100
AcDbLine
 10
-1.0
 20
0.0
 30
0.0
 11
0.0
 21
0.0
 31
0.0
  0
ENDBLK
  5
C08
330
C06
100
AcDbEntity
  8
0
100
AcDbBlockEnd
  0
BLOCK
  5
C0B
330
C0A
100
AcDbEntity
  8
0
100
AcDbBlockBegin
  2
_ACMFILLED
 70
     0
 10
0.0
 20
0.0
 30
0.0
  3
_ACMFILLED
  1

  0
TRACE
  5
C0D
330
C0A
100
AcDbEntity
  8
AM_2 ( Kontur 0.25)
 62
     0
100
AcDbTrace
 10
-1.0
 20
-0.166666666
 30
0.0
 11
-1.0
 21
0.166666666
 31
0.0
 12
0.0
 22
0.0
 32
0.0
 13
0.0
 23
0.0
 33
0.0
  0
ENDBLK
  5
C0C
330
C0A
100
AcDbEntity
  8
0
100
AcDbBlockEnd
  0
BLOCK
  5
C16
330
C15
100
AcDbEntity
  8
0
100
AcDbBlockBegin
  2
_ACMFILLEDHALF
 70
     0
 10
0.0
 20
0.0
 30
0.0
  3
_ACMFILLEDHALF
  1

  0
TRACE
  5
C18
330
C15
100
AcDbEntity
  8
AM_2 ( Kontur 0.25)
 62
     0
100
AcDbTrace
 10
-0.8
 20
0.0
 30
0.0
 11
-1.0
 21
0.166666666
 31
0.0
 12
0.0
 22
0.0
 32
0.0
 13
0.0
 23
0.0
 33
0.0
  0
LINE
  5
C19
330
C15
100
AcDbEntity
  8
AM_2 ( Kontur 0.25)
 62
     0
100
AcDbLine
 10
-1.0
 20
0.0
 30
0.0
 11
-0.8
 21
0.0
 31
0.0
  0
ENDBLK
  5
C17
330
C15
100
AcDbEntity
  8
0
100
AcDbBlockEnd
  0
BLOCK
  5
C2A
330
C29
100
AcDbEntity
  8
0
100
AcDbBlockBegin
  2
*U20
 70
     1
 10
0.0
 20
0.0
 30
0.0
  3
*U20
  1

  0
ENDBLK
  5
C2B
330
C29
100
AcDbEntity
  8
0
100
AcDbBlockEnd
  0
BLOCK
  5
C2D
330
C2C
100
AcDbEntity
  8
0
 62
   151
420
  9810903
370
    70
100
AcDbBlockBegin
  2
_ACMFILLED15
 70
     0
 10
0.0
 20
0.0
 30
0.0
  3
_ACMFILLED15
  1

  0
TRACE
  5
C2E
330
C2C
100
AcDbEntity
  8
AM_0 ( Kontur 0.5 )
 62
     0
100
AcDbTrace
 10
-1.0
 20
-0.131652497
 30
0.0
 11
-1.0
 21
0.131652497
 31
0.0
 12
0.0
 22
0.0
 32
0.0
 13
0.0
 23
0.0
 33
0.0
  0
ENDBLK
  5
C2F
330
C2C
100
AcDbEntity
  8
0
 62
   151
420
  9810903
370
    70
100
AcDbBlockEnd
  0
BLOCK
  5
C31
330
C30
100
AcDbEntity
  8
0
 62
   151
420
  9810903
370
    70
100
AcDbBlockBegin
  2
_ACMFILLED30
 70
     0
 10
0.0
 20
0.0
 30
0.0
  3
_ACMFILLED30
  1

  0
TRACE
  5
C32
330
C30
100
AcDbEntity
  8
AM_0 ( Kontur 0.5 )
 62
     0
100
AcDbTrace
 10
-1.0
 20
-0.26794919
 30
0.0
 11
-1.0
 21
0.26794919
 31
0.0
 12
0.0
 22
0.0
 32
0.0
 13
0.0
 23
0.0
 33
0.0
  0
ENDBLK
  5
C33
330
C30
100
AcDbEntity
  8
0
 62
   151
420
  9810903
370
    70
100
AcDbBlockEnd
  0
BLOCK
  5
C8C
330
C6F
100
AcDbEntity
  8
0
100
AcDbBlockBegin
  2
doppelnippel 1 1_2 v
 70
     0
 10
0.0
 20
0.0
 30
0.0
  3
doppelnippel 1 1_2 v
  1

  0
LINE
  5
C70
330
C6F
100
AcDbEntity
  8
AM_7 (Mittellinie)
  6
AM_ISO08W050
100
AcDbLine
 10
-43.64298118047
 20
0.0
 30
0.0
 11
32.14168776135202
 21
0.0
 31
0.0
  0
LINE
  5
C71
330
C6F
100
AcDbEntity
  8
AM_0 ( Kontur 0.5 )
100
AcDbLine
 10
-7.000000105129998
 20
14.43375694651399
 30
0.0
 11
-1.000000015018997
 21
14.43375694651399
 31
0.0
  0
LINE
  5
C72
330
C6F
100
AcDbEntity
  8
AM_0 ( Kontur 0.5 )
100
AcDbLine
 10
-7.000000105129998
 20
-28.86751389302799
 30
0.0
 11
-1.000000015018997
 21
-28.86751389302799
 31
0.0
  0
ARC
  5
C73
330
C6F
100
AcDbEntity
  8
AM_0 ( Kontur 0.5 )
100
AcDbCircle
 10
18.54166694513401
 20
21.65063541977099
 30
0.0
 40
26.54166706528251
100
AcDbArc
 50
164.2221938995054
 51
195.7778061004946
  0
LINE
  5
C74
330
C6F
100
AcDbEntity
  8
AM_0 ( Kontur 0.5 )
100
AcDbLine
 10
-8.000000120148996
 20
21.65063541977099
 30
0.0
 11
-8.000000120148996
 21
-21.65063541977099
 31
0.0
  0
LINE
  5
C75
330
C6F
100
AcDbEntity
  8
AM_0 ( Kontur 0.5 )
100
AcDbLine
 10
-7.000000105129998
 20
28.86751389302799
 30
0.0
 11
-1.000000015018997
 21
28.86751389302799
 31
0.0
  0
ARC
  5
C76
330
C6F
100
AcDbEntity
  8
AM_0 ( Kontur 0.5 )
100
AcDbCircle
 10
-26.54166706528295
 20
-21.65063541977099
 30
0.0
 40
26.54166706528251
100
AcDbArc
 50
344.2221938995054
 51
15.7778061004946
  0
ARC
  5
C77
330
C6F
100
AcDbEntity
  8
AM_0 ( Kontur 0.5 )
100
AcDbCircle
 10
104.666668238603
 20
0.0
 30
0.0
 40
104.666668238603
210
0.0
220
0.0
230
-1.0
100
AcDbArc
 50
172.0735300650984
 51
187.9264699349016
  0
LINE
  5
C78
330
C6F
100
AcDbEntity
  8
AM_0 ( Kontur 0.5 )
100
AcDbLine
 10
-7.000000105129998
 20
-14.43375694651399
 30
0.0
 11
-1.000000015018997
 21
-14.43375694651399
 31
0.0
  0
LINE
  5
C79
330
C6F
100
AcDbEntity
  8
AM_3 ( Verdeckt )
  6
AM_ISO02W050
100
AcDbLine
 10
-31.00000046557398
 20
-20.95000031463701
 30
0.0
 11
23.00000034542501
 21
-20.95000031463701
 31
0.0
  0
ARC
  5
C7A
330
C6F
100
AcDbEntity
  8
AM_0 ( Kontur 0.5 )
100
AcDbCircle
 10
26.54166706528295
 20
21.65063541977099
 30
0.0
 40
26.54166706528251
210
0.0
220
0.0
230
-1.0
100
AcDbArc
 50
164.2221938995054
 51
195.7778061004946
  0
LINE
  5
C7B
330
C6F
100
AcDbEntity
  8
AM_0 ( Kontur 0.5 )
100
AcDbLine
 10
-0.0000000000009948
 20
21.65063541977099
 30
0.0
 11
-0.0000000000009948
 21
-21.65063541977099
 31
0.0
  0
ARC
  5
C7C
330
C6F
100
AcDbEntity
  8
AM_0 ( Kontur 0.5 )
100
AcDbCircle
 10
96.66666811845303
 20
0.0
 30
0.0
 40
104.666668238603
100
AcDbArc
 50
172.0735300650984
 51
187.9264699349016
  0
ARC
  5
C7D
330
C6F
100
AcDbEntity
  8
AM_0 ( Kontur 0.5 )
100
AcDbCircle
 10
-18.54166694513401
 20
-21.65063541977099
 30
0.0
 40
26.54166706528251
210
0.0
220
0.0
230
-1.0
100
AcDbArc
 50
344.2221938995054
 51
15.7778061004946
  0
LINE
  5
C7E
330
C6F
100
AcDbEntity
  8
AM_0 ( Kontur 0.5 )
100
AcDbLine
 10
23.00000034542501
 20
23.90000035894207
 30
0.0
 11
-0.0954868500849955
 21
23.90000035894207
 31
0.0
  0
LINE
  5
C7F
330
C6F
100
AcDbEntity
  8
AM_0 ( Kontur 0.5 )
100
AcDbLine
 10
-31.00000046557398
 20
23.90000035894207
 30
0.0
 11
-7.904513270063972
 21
23.90000035894207
 31
0.0
  0
LINE
  5
C80
330
C6F
100
AcDbEntity
  8
AM_2 ( Kontur 0.25)
100
AcDbLine
 10
-31.00000046557398
 20
-22.42500033678993
 30
0.0
 11
-7.988701495194987
 21
-22.42500033678993
 31
0.0
  0
LINE
  5
C81
330
C6F
100
AcDbEntity
  8
AM_0 ( Kontur 0.5 )
100
AcDbLine
 10
-31.00000046557398
 20
-23.90000035894195
 30
0.0
 11
-7.904513270063972
 21
-23.90000035894195
 31
0.0
  0
LINE
  5
C82
330
C6F
100
AcDbEntity
  8
AM_0 ( Kontur 0.5 )
100
AcDbLine
 10
-31.00000046557398
 20
-23.90000035894195
 30
0.0
 11
-31.00000046557398
 21
23.90000035894207
 31
0.0
  0
LINE
  5
C83
330
C6F
100
AcDbEntity
  8
AM_2 ( Kontur 0.25)
100
AcDbLine
 10
23.00000034542501
 20
-22.42500033678993
 30
0.0
 11
-0.0112986249539802
 21
-22.42500033678993
 31
0.0
  0
LINE
  5
C84
330
C6F
100
AcDbEntity
  8
AM_2 ( Kontur 0.25)
100
AcDbLine
 10
-31.00000046557398
 20
22.42500033679005
 30
0.0
 11
-7.988701495194987
 21
22.42500033679005
 31
0.0
  0
LINE
  5
C85
330
C6F
100
AcDbEntity
  8
AM_0 ( Kontur 0.5 )
100
AcDbLine
 10
23.00000034542501
 20
-23.90000035894195
 30
0.0
 11
-0.0954868500849955
 21
-23.90000035894195
 31
0.0
  0
LINE
  5
C86
330
C6F
100
AcDbEntity
  8
AM_0 ( Kontur 0.5 )
100
AcDbLine
 10
23.00000034542501
 20
-23.90000035894195
 30
0.0
 11
23.00000034542501
 21
23.90000035894207
 31
0.0
  0
LINE
  5
C87
330
C6F
100
AcDbEntity
  8
AM_3 ( Verdeckt )
  6
AM_ISO02W050
100
AcDbLine
 10
-31.00000046557398
 20
20.95000031463701
 30
0.0
 11
23.00000034542501
 21
20.95000031463701
 31
0.0
  0
LINE
  5
C88
330
C6F
100
AcDbEntity
  8
AM_2 ( Kontur 0.25)
100
AcDbLine
 10
23.00000034542501
 20
22.42500033679005
 30
0.0
 11
-0.0112986249539802
 21
22.42500033679005
 31
0.0
  0
INSERT
  5
C89
102
{ACAD_REACTORS
330
CF1
102
}
330
C6F
100
AcDbEntity
  8
AM_12 ( Teile Referenz)
100
AcDbBlockReference
  2
*S25
 10
0.0
 20
0.0
 30
0.0
  0
ENDBLK
  5
C8D
330
C6F
100
AcDbEntity
  8
0
100
AcDbBlockEnd
  0
BLOCK
  5
E22
330
E1E
100
AcDbEntity
  8
0
100
AcDbBlockBegin
  2
*S25
 70
     1
 10
0.0
 20
0.0
 30
0.0
  3
*S25
  1

  0
CIRCLE
  5
E1F
330
E1E
100
AcDbEntity
  8
AM_12 ( Teile Referenz)
 62
     4
100
AcDbCircle
 10
-15.55650676081743
 20
9.421035057107474
 30
0.0
 40
2.5
  0
LINE
  5
E20
330
E1E
100
AcDbEntity
  8
AM_12 ( Teile Referenz)
 62
     4
100
AcDbLine
 10
-18.05650676081743
 20
6.921035057107474
 30
0.0
 11
-13.05650676081743
 21
11.92103505710747
 31
0.0
  0
LINE
  5
E21
330
E1E
100
AcDbEntity
  8
AM_12 ( Teile Referenz)
 62
     4
100
AcDbLine
 10
-18.05650676081743
 20
11.92103505710747
 30
0.0
 11
-13.05650676081743
 21
6.921035057107474
 31
0.0
  0
ENDBLK
  5
E23
330
E1E
100
AcDbEntity
  8
0
100
AcDbBlockEnd
  0
ENDSEC
  0
SECTION
  2
ENTITIES
  0
LINE
  5
1E
330
2
100
AcDbEntity
  8
AM_3 ( Verdeckt )
  6
AM_ISO02W050x2
100
AcDbLine
 10
81.64675088583617
 20
156.1146540678543
 30
0.0
 11
39.7088358738034
 21
35.61976400427628
 31
0.0
  0
LINE
  5
21
330
2
100
AcDbEntity
  8
AM_3 ( Verdeckt )
  6
AM_ISO02W050x2
100
AcDbLine
 10
117.5351656681118
 20
156.1146540678543
 30
0.0
 11
159.4730806801445
 21
35.61976400427628
 31
0.0
  0
LINE
  5
22
330
2
100
AcDbEntity
  8
AM_3 ( Verdeckt )
  6
AM_ISO02W050x2
100
AcDbLine
 10
157.669913587018
 20
41.63828177636664
 30
0.0
 11
110.5627916693511
 21
147.9879645979289
 31
0.0
  0
LINE
  5
24
330
2
100
AcDbEntity
  8
AM_3 ( Verdeckt )
  6
AM_ISO02W050x2
100
AcDbLine
 10
41.51200296692983
 20
41.63828177636664
 30
0.0
 11
88.61912488459683
 21
147.9879645979289
 31
0.0
  0
LINE
  5
25
330
2
100
AcDbEntity
  8
AM_7 (Mittellinie)
  6
AM_ISO08W050x2
100
AcDbLine
 10
99.59095827697399
 20
184.0789615791344
 30
0.0
 11
99.59095827697396
 21
22.77176905704698
 31
0.0
  0
LINE
  5
28
330
2
100
AcDbEntity
  8
AM_0 ( Kontur 0.5 )
100
AcDbLine
 10
72.93290228936155
 20
158.4335697158679
 30
0.0
 11
33.91282405199272
 21
36.97663326986644
 31
0.0
  0
LINE
  5
2A
330
2
100
AcDbEntity
  8
AM_0 ( Kontur 0.5 )
100
AcDbLine
 10
126.2490142645864
 20
158.4335697158679
 30
0.0
 11
165.2690925019552
 21
36.97663326986643
 31
0.0
  0
LINE
  5
2B
330
2
100
AcDbEntity
  8
AM_0 ( Kontur 0.5 )
100
AcDbLine
 10
99.5909582769738
 20
32.80115092407438
 30
0.0
 11
157.4696379334142
 21
32.80115092407438
 31
0.0
  0
LINE
  5
2C
330
2
100
AcDbEntity
  8
AM_0 ( Kontur 0.5 )
100
AcDbLine
 10
99.5909582769738
 20
37.04379161119375
 30
0.0
 11
157.4730431615004
 21
37.04379161119375
 31
0.0
  0
LINE
  5
2D
330
2
100
AcDbEntity
  8
AM_0 ( Kontur 0.5 )
100
AcDbLine
 10
99.59095827697383
 20
28.20666075890138
 30
0.0
 11
158.8751477682411
 21
28.20666075890138
 31
0.0
  0
LINE
  5
2E
330
2
100
AcDbEntity
  8
AM_0 ( Kontur 0.5 )
100
AcDbLine
 10
99.59095827697382
 20
41.63828177636664
 30
0.0
 11
159.5909582769738
 21
41.63828177636664
 31
0.0
  0
LINE
  5
2F
330
2
100
AcDbEntity
  8
AM_0 ( Kontur 0.5 )
100
AcDbLine
 10
99.59095827697396
 20
32.80115092407438
 30
0.0
 11
41.71227862053357
 21
32.80115092407438
 31
0.0
  0
LINE
  5
30
330
2
100
AcDbEntity
  8
AM_0 ( Kontur 0.5 )
100
AcDbLine
 10
99.59095827697396
 20
37.04379161119375
 30
0.0
 11
41.70887339244734
 21
37.04379161119375
 31
0.0
  0
LINE
  5
31
330
2
100
AcDbEntity
  8
AM_0 ( Kontur 0.5 )
100
AcDbLine
 10
99.59095827697392
 20
28.20666075890138
 30
0.0
 11
40.30676878570668
 21
28.20666075890138
 31
0.0
  0
LINE
  5
32
330
2
100
AcDbEntity
  8
AM_0 ( Kontur 0.5 )
100
AcDbLine
 10
99.59095827697396
 20
41.63828177636664
 30
0.0
 11
39.59095827697396
 21
41.63828177636664
 31
0.0
  0
ARC
  5
33
330
2
100
AcDbEntity
  8
AM_0 ( Kontur 0.5 )
100
AcDbCircle
 10
40.30676878570668
 20
34.92247126763404
 30
0.0
 40
6.715810508732655
100
AcDbArc
 50
90.0
 51
270.0
  0
ARC
  5
34
330
2
100
AcDbEntity
  8
AM_0 ( Kontur 0.5 )
100
AcDbCircle
 10
41.71227862053357
 20
34.92247126763398
 30
0.0
 40
2.121320343559605
100
AcDbArc
 50
89.99999987884834
 51
270.0
  0
ARC
  5
35
330
2
100
AcDbEntity
  8
AM_0 ( Kontur 0.5 )
100
AcDbCircle
 10
158.8751477682411
 20
34.92247126763404
 30
0.0
 40
6.715810508732655
100
AcDbArc
 50
270.0
 51
90.0
  0
ARC
  5
36
330
2
100
AcDbEntity
  8
AM_0 ( Kontur 0.5 )
100
AcDbCircle
 10
157.4696379334142
 20
34.92247126763398
 30
0.0
 40
2.121320343559605
100
AcDbArc
 50
270.0
 51
90.00000012115165
  0
CIRCLE
  5
37
330
2
100
AcDbEntity
  8
AM_3 ( Verdeckt )
  6
AM_ISO02W050x2
100
AcDbCircle
 10
99.59095827697399
 20
149.8692220488637
 30
0.0
 40
24.06094382612774
  0
CIRCLE
  5
38
330
2
100
AcDbEntity
  8
AM_3 ( Verdeckt )
  6
AM_ISO02W050x2
100
AcDbCircle
 10
99.59095827697399
 20
149.8692220488637
 30
0.0
 40
22.5
  0
CIRCLE
  5
39
330
2
100
AcDbEntity
  8
AM_3 ( Verdeckt )
  6
AM_ISO02W050x2
100
AcDbCircle
 10
99.59095827697399
 20
149.8692220488637
 30
0.0
 40
18.99999999999996
  0
ARC
  5
3A
330
2
100
AcDbEntity
  8
AM_0 ( Kontur 0.5 )
100
AcDbCircle
 10
99.59095827697399
 20
149.8692220488637
 30
0.0
 40
28.0
100
AcDbArc
 50
166.1478447643355
 51
11.58236676748365
  0
ARC
  5
3B
330
2
100
AcDbEntity
  8
AM_3 ( Verdeckt )
  6
AM_ISO02W050x2
100
AcDbCircle
 10
99.59095827697399
 20
143.128039494605
 30
0.0
 40
12.0
100
AcDbArc
 50
23.89073602386637
 51
156.1092639761336
  0
LINE
  5
3C
330
2
100
AcDbEntity
  8
AM_7 (Mittellinie)
  6
AM_ISO08W050x2
100
AcDbLine
 10
133.1613399940445
 20
149.8692220488637
 30
0.0
 11
65.55074042744505
 21
149.8692220488637
 31
0.0
  0
ARC
  5
3D
330
2
100
AcDbEntity
  8
AM_0 ( Kontur 0.5 )
100
AcDbCircle
 10
99.59095827697399
 20
149.8692220488637
 30
0.0
 40
28.0
100
AcDbArc
 50
17.21063231127651
 51
162.040493305435
  0
LINE
  5
1DE
330
2
100
AcDbEntity
  8
AM_3 ( Verdeckt )
  6
AM_ISO02W050x2
100
AcDbLine
 10
41.74512493362303
 20
417.6277901675617
 30
0.0
 11
79.28281083849928
 21
292.4819937998281
 31
0.0
  0
LINE
  5
1DF
330
2
100
AcDbEntity
  8
AM_3 ( Verdeckt )
  6
AM_ISO02W050x2
100
AcDbLine
 10
161.5662511090167
 20
417.6277901675617
 30
0.0
 11
124.0285652041403
 21
292.4819937998281
 31
0.0
  0
LINE
  5
1E0
330
2
100
AcDbEntity
  8
AM_3 ( Verdeckt )
  6
AM_ISO02W050x2
100
AcDbLine
 10
159.7346433313639
 20
411.5214464108222
 30
0.0
 11
114.1149633733085
 21
294.8469533677099
 31
0.0
  0
LINE
  5
1E1
330
2
100
AcDbEntity
  8
AM_3 ( Verdeckt )
  6
AM_ISO02W050x2
100
AcDbLine
 10
43.57673271127569
 20
411.5214464108222
 30
0.0
 11
89.14819685167964
 21
294.9702688327634
 31
0.0
  0
LINE
  5
1E2
330
2
100
AcDbEntity
  8
AM_7 (Mittellinie)
  6
AM_ISO08W050x2
100
AcDbLine
 10
101.6556880213198
 20
224.9208264283756
 30
0.0
 11
101.6556880213198
 21
430.3879591301418
 31
0.0
  0
LINE
  5
1E3
102
{ACAD_REACTORS
330
4B0
102
}
330
2
100
AcDbEntity
  8
AM_0 ( Kontur 0.5 )
100
AcDbLine
 10
35.90315272489846
 20
416.4309863600461
 30
0.0
 11
70.70784185137012
 21
291.7936424550762
 31
0.0
  0
LINE
  5
1E4
102
{ACAD_REACTORS
330
4B0
102
}
330
2
100
AcDbEntity
  8
AM_0 ( Kontur 0.5 )
100
AcDbLine
 10
167.4082233177412
 20
416.4309863600461
 30
0.0
 11
132.6035341912695
 21
291.7936424550762
 31
0.0
  0
LINE
  5
1E5
330
2
100
AcDbEntity
  8
AM_3 ( Verdeckt )
  6
AM_ISO02W050x2
100
AcDbLine
 10
101.6556880213197
 20
265.2372569195556
 30
0.0
 11
125.6556880213197
 21
265.2372569195556
 31
0.0
  0
LINE
  5
1E6
330
2
100
AcDbEntity
  8
AM_3 ( Verdeckt )
  6
AM_ISO02W050x2
100
AcDbLine
 10
101.6556880213197
 20
261.2372569195556
 30
0.0
 11
125.6556880213197
 21
261.2372569195556
 31
0.0
  0
LINE
  5
1E7
330
2
100
AcDbEntity
  8
AM_3 ( Verdeckt )
  6
AM_ISO02W050x2
100
AcDbLine
 10
101.6556880213198
 20
232.7372569195556
 30
0.0
 11
124.1556880213197
 21
232.7372569195556
 31
0.0
  0
ARC
  5
1E8
330
2
100
AcDbEntity
  8
AM_3 ( Verdeckt )
  6
AM_ISO02W050x2
100
AcDbCircle
 10
101.6556882779796
 20
290.4427367435634
 30
0.0
 40
10.0
100
AcDbArc
 50
201.3554785373851
 51
338.6445214626149
  0
LINE
  5
1E9
330
2
100
AcDbEntity
  8
AM_0 ( Kontur 0.5 )
100
AcDbLine
 10
101.6556880213197
 20
231.2372569195556
 30
0.0
 11
129.6556880213197
 21
231.2372569195557
 31
0.0
  0
LINE
  5
1EA
330
2
100
AcDbEntity
  8
AM_3 ( Verdeckt )
  6
AM_ISO02W050x2
100
AcDbLine
 10
82.65568802131976
 20
265.2372569195556
 30
0.0
 11
82.65568802131976
 21
269.4975632269183
 31
0.0
  0
LINE
  5
1EB
330
2
100
AcDbEntity
  8
AM_0 ( Kontur 0.5 )
100
AcDbLine
 10
73.65568802131973
 20
231.2372569195557
 30
0.0
 11
73.65568802131973
 21
270.27700725925
 31
0.0
  0
LINE
  5
1EC
102
{ACAD_REACTORS
330
4E6
330
506
102
}
330
2
100
AcDbEntity
  8
AM_3 ( Verdeckt )
  6
AM_ISO02W050x2
100
AcDbLine
 10
77.65568802131975
 20
231.2372569195556
 30
0.0
 11
77.65568802131975
 21
260.9680531961317
 31
0.0
  0
LINE
  5
1ED
330
2
100
AcDbEntity
  8
AM_3 ( Verdeckt )
  6
AM_ISO02W050x2
100
AcDbLine
 10
79.15568802131978
 20
261.2372569195556
 30
0.0
 11
79.15568802131978
 21
232.7372569195556
 31
0.0
  0
LINE
  5
1EE
330
2
100
AcDbEntity
  8
AM_3 ( Verdeckt )
  6
AM_ISO02W050x2
100
AcDbLine
 10
101.6556880213197
 20
232.7372569195556
 30
0.0
 11
79.15568802131978
 21
232.7372569195556
 31
0.0
  0
LINE
  5
1EF
330
2
100
AcDbEntity
  8
AM_0 ( Kontur 0.5 )
100
AcDbLine
 10
101.6556880213198
 20
231.2372569195556
 30
0.0
 11
73.65568802131973
 21
231.2372569195557
 31
0.0
  0
LINE
  5
1F0
330
2
100
AcDbEntity
  8
AM_3 ( Verdeckt )
  6
AM_ISO02W050x2
100
AcDbLine
 10
79.15568802131978
 20
232.7372569195556
 30
0.0
 11
77.65568802131975
 21
231.2372569195557
 31
0.0
  0
LINE
  5
1F1
330
2
100
AcDbEntity
  8
AM_3 ( Verdeckt )
  6
AM_ISO02W050x2
100
AcDbLine
 10
101.6556880213198
 20
265.2372569195556
 30
0.0
 11
77.65568802131975
 21
265.2372569195556
 31
0.0
  0
LINE
  5
1F2
330
2
100
AcDbEntity
  8
AM_3 ( Verdeckt )
  6
AM_ISO02W050x2
100
AcDbLine
 10
101.6556880213198
 20
261.2372569195556
 30
0.0
 11
77.65568802131975
 21
261.2372569195556
 31
0.0
  0
LINE
  5
1F3
330
2
100
AcDbEntity
  8
AM_3 ( Verdeckt )
  6
AM_ISO02W050x2
100
AcDbLine
 10
77.65568802131975
 20
261.2391737297405
 30
0.0
 11
77.65568802131975
 21
265.2372569195556
 31
0.0
  0
ARC
  5
1F4
330
2
100
AcDbEntity
  8
AM_3 ( Verdeckt )
  6
AM_ISO02W050x2
100
AcDbCircle
 10
2.655688021319931
 20
269.4975632269183
 30
0.0
 40
80.0
100
AcDbArc
 50
0.0
 51
16.69670175886157
  0
ARC
  5
1F5
330
2
100
AcDbEntity
  8
AM_0 ( Kontur 0.5 )
100
AcDbCircle
 10
-6.344311978680107
 20
270.27700725925
 30
0.0
 40
80.0
100
AcDbArc
 50
0.0
 51
15.60226762232749
  0
LINE
  5
1F6
330
2
100
AcDbEntity
  8
AM_3 ( Verdeckt )
  6
AM_ISO02W050x2
100
AcDbLine
 10
120.6556880213197
 20
265.2372569195556
 30
0.0
 11
120.6556880213197
 21
269.4975632269183
 31
0.0
  0
LINE
  5
1F7
330
2
100
AcDbEntity
  8
AM_0 ( Kontur 0.5 )
100
AcDbLine
 10
129.6556880213197
 20
231.2372569195557
 30
0.0
 11
129.6556880213197
 21
270.2770072592498
 31
0.0
  0
LINE
  5
1F8
102
{ACAD_REACTORS
330
4E6
330
506
102
}
330
2
100
AcDbEntity
  8
AM_3 ( Verdeckt )
  6
AM_ISO02W050x2
100
AcDbLine
 10
125.6556880213197
 20
231.2372569195556
 30
0.0
 11
125.6556880213197
 21
260.9680531961317
 31
0.0
  0
LINE
  5
1F9
330
2
100
AcDbEntity
  8
AM_3 ( Verdeckt )
  6
AM_ISO02W050x2
100
AcDbLine
 10
124.1556880213197
 20
261.2372569195556
 30
0.0
 11
124.1556880213197
 21
232.7372569195556
 31
0.0
  0
LINE
  5
1FA
330
2
100
AcDbEntity
  8
AM_3 ( Verdeckt )
  6
AM_ISO02W050x2
100
AcDbLine
 10
124.1556880213197
 20
232.7372569195556
 30
0.0
 11
125.6556880213197
 21
231.2372569195557
 31
0.0
  0
LINE
  5
1FB
330
2
100
AcDbEntity
  8
AM_3 ( Verdeckt )
  6
AM_ISO02W050x2
100
AcDbLine
 10
125.6556880213197
 20
261.2391737297405
 30
0.0
 11
125.6556880213197
 21
265.2372569195556
 31
0.0
  0
ARC
  5
1FC
330
2
100
AcDbEntity
  8
AM_3 ( Verdeckt )
  6
AM_ISO02W050x2
100
AcDbCircle
 10
200.6556880213197
 20
269.4975632269183
 30
0.0
 40
80.0
100
AcDbArc
 50
163.3032982411384
 51
180.0
  0
ARC
  5
1FD
330
2
100
AcDbEntity
  8
AM_0 ( Kontur 0.5 )
100
AcDbCircle
 10
209.6556880213198
 20
270.2770072592498
 30
0.0
 40
80.0
100
AcDbArc
 50
164.3977323776725
 51
180.0
  0
ARC
  5
1FE
330
2
100
AcDbEntity
  8
AM_0 ( Kontur 0.5 )
100
AcDbCircle
 10
43.77700836487957
 20
418.2372569195549
 30
0.0
 40
2.121320343559605
100
AcDbArc
 50
90.0
 51
270.0000001211513
  0
ARC
  5
1FF
330
2
100
AcDbEntity
  8
AM_0 ( Kontur 0.5 )
100
AcDbCircle
 10
42.37149853005266
 20
418.2372569195543
 30
0.0
 40
6.715810508732655
100
AcDbArc
 50
90.0
 51
270.0
  0
ARC
  5
200
330
2
100
AcDbEntity
  8
AM_0 ( Kontur 0.5 )
100
AcDbCircle
 10
159.53436767776
 20
418.2372569195549
 30
0.0
 40
2.121320343559605
100
AcDbArc
 50
269.9999998788487
 51
90.0
  0
ARC
  5
201
330
2
100
AcDbEntity
  8
AM_0 ( Kontur 0.5 )
100
AcDbCircle
 10
160.9398775125869
 20
418.2372569195543
 30
0.0
 40
6.715810508732655
100
AcDbArc
 50
270.0
 51
90.0
  0
LINE
  5
204
330
2
100
AcDbEntity
  8
AM_2 ( Kontur 0.25)
100
AcDbLine
 10
34.17307691989214
 20
361.6914391641679
 30
0.0
 11
193.7926009125225
 21
361.6914391641679
 31
0.0
  0
LINE
  5
205
330
2
100
AcDbEntity
  8
AM_0 ( Kontur 0.5 )
100
AcDbLine
 10
101.6556880213198
 20
416.1159365759948
 30
0.0
 11
159.5377729058463
 21
416.1159365759948
 31
0.0
  0
LINE
  5
206
330
2
100
AcDbEntity
  8
AM_0 ( Kontur 0.5 )
100
AcDbLine
 10
101.6556880213198
 20
411.5214464108222
 30
0.0
 11
161.6556880213197
 21
411.5214464108222
 31
0.0
  0
LINE
  5
207
330
2
100
AcDbEntity
  8
AM_2 ( Kontur 0.25)
100
AcDbLine
 10
41.04193279925236
 20
358.1468281668534
 30
0.0
 11
69.16262472690053
 21
358.1468281668534
 31
0.0
  0
LINE
  5
208
330
2
100
AcDbEntity
  8
AM_2 ( Kontur 0.25)
100
AcDbLine
 10
46.20169278597678
 20
354.27700817681
 30
0.0
 11
64.26085273951233
 21
354.27700817681
 31
0.0
  0
LINE
  5
209
330
2
100
AcDbEntity
  8
AM_2 ( Kontur 0.25)
100
AcDbLine
 10
50.32950077535636
 20
350.1492001874305
 30
0.0
 11
60.64902074880517
 21
350.1492001874305
 31
0.0
  0
LINE
  5
20A
330
2
100
AcDbEntity
  8
AM_2 ( Kontur 0.25)
100
AcDbLine
 10
54.19932076539968
 20
345.7634041987147
 30
0.0
 11
57.29517675743434
 21
345.7634041987147
 31
0.0
  0
LINE
  5
20D
330
2
100
AcDbEntity
  8
AM_0 ( Kontur 0.5 )
100
AcDbLine
 10
101.6556880213199
 20
416.1159365759948
 30
0.0
 11
43.77360313679329
 21
416.1159365759948
 31
0.0
  0
LINE
  5
20E
330
2
100
AcDbEntity
  8
AM_0 ( Kontur 0.5 )
100
AcDbLine
 10
101.6556880213199
 20
411.5214464108222
 30
0.0
 11
41.65568802131994
 21
411.5214464108222
 31
0.0
  0
LINE
  5
213
330
2
100
AcDbEntity
  8
AM_0 ( Kontur 0.5 )
100
AcDbLine
 10
101.6556880213198
 20
420.3585772631144
 30
0.0
 11
159.53436767776
 21
420.3585772631144
 31
0.0
  0
LINE
  5
214
330
2
100
AcDbEntity
  8
AM_0 ( Kontur 0.5 )
100
AcDbLine
 10
101.6556880213198
 20
424.9530674282873
 30
0.0
 11
160.9398775125869
 21
424.9530674282873
 31
0.0
  0
LINE
  5
215
330
2
100
AcDbEntity
  8
AM_0 ( Kontur 0.5 )
100
AcDbLine
 10
101.6556880213199
 20
420.3585772631144
 30
0.0
 11
43.77700836487957
 21
420.3585772631144
 31
0.0
  0
LINE
  5
216
330
2
100
AcDbEntity
  8
AM_0 ( Kontur 0.5 )
100
AcDbLine
 10
101.6556880213199
 20
424.9530674282873
 30
0.0
 11
42.37149853005266
 21
424.9530674282873
 31
0.0
  0
ARC
  5
218
330
2
100
AcDbEntity
  8
AM_3 ( Verdeckt )
  6
AM_ISO02W050x2
100
AcDbCircle
 10
337.0089565516303
 20
285.611286534335
 30
0.0
 40
74.0
100
AcDbArc
 50
127.5000000000007
 51
180.0
  0
LINE
  5
219
330
2
100
AcDbEntity
  8
AM_3 ( Verdeckt )
  6
AM_ISO02W050x2
100
AcDbLine
 10
389.8859322955312
 20
411.9680650566873
 30
0.0
 11
312.5811694953208
 21
311.2225367339809
 31
0.0
  0
ARC
  5
21A
330
2
100
AcDbEntity
  8
AM_7 (Mittellinie)
  6
AM_ISO08W050x2
100
AcDbCircle
 10
347.0089565516301
 20
281.4064406205751
 30
0.0
 40
65.0
100
AcDbArc
 50
135.0
 51
180.0
  0
ARC
  5
21B
330
2
100
AcDbEntity
  8
AM_0 ( Kontur 0.5 )
100
AcDbCircle
 10
334.0089565516304
 20
284.8565969094618
 30
0.0
 40
80.0
100
AcDbArc
 50
127.5000000000007
 51
180.0
  0
LINE
  5
21C
330
2
100
AcDbEntity
  8
AM_0 ( Kontur 0.5 )
100
AcDbLine
 10
398.7247670603635
 20
411.6145116660946
 30
0.0
 11
320.3412895370683
 21
309.4631749462069
 31
0.0
  0
LINE
  5
21D
330
2
100
AcDbEntity
  8
AM_3 ( Verdeckt )
  6
AM_ISO02W050x2
100
AcDbLine
 10
263.0089565516302
 20
265.330322174828
 30
0.0
 11
263.0089565516302
 21
285.611286534335
 31
0.0
  0
LINE
  5
21E
330
2
100
AcDbEntity
  8
AM_3 ( Verdeckt )
  6
AM_ISO02W050x2
100
AcDbLine
 10
301.0089565516302
 20
265.330322174828
 30
0.0
 11
301.0089565516302
 21
277.1318967094928
 31
0.0
  0
LINE
  5
21F
330
2
100
AcDbEntity
  8
AM_7 (Mittellinie)
  6
AM_ISO08W050x2
100
AcDbLine
 10
282.0089565516301
 20
225.013891683648
 30
0.0
 11
282.0089565516301
 21
281.4064406205751
 31
0.0
  0
LINE
  5
220
330
2
100
AcDbEntity
  8
AM_0 ( Kontur 0.5 )
100
AcDbLine
 10
254.0089565516302
 20
231.3303221748281
 30
0.0
 11
254.0089565516302
 21
284.8565969094623
 31
0.0
  0
LINE
  5
221
102
{ACAD_REACTORS
330
3D9
102
}
330
2
100
AcDbEntity
  8
AM_0 ( Kontur 0.5 )
100
AcDbLine
 10
310.0089565516303
 20
231.3303221748281
 30
0.0
 11
310.0089565516303
 21
279.0251034957711
 31
0.0
  0
LINE
  5
222
330
2
100
AcDbEntity
  8
AM_3 ( Verdeckt )
  6
AM_ISO02W050x2
100
AcDbLine
 10
282.0089565516301
 20
265.330322174828
 30
0.0
 11
306.0089565516301
 21
265.330322174828
 31
0.0
  0
LINE
  5
223
330
2
100
AcDbEntity
  8
AM_3 ( Verdeckt )
  6
AM_ISO02W050x2
100
AcDbLine
 10
282.0089565516301
 20
261.330322174828
 30
0.0
 11
306.0089565516301
 21
261.330322174828
 31
0.0
  0
LINE
  5
224
330
2
100
AcDbEntity
  8
AM_3 ( Verdeckt )
  6
AM_ISO02W050x2
100
AcDbLine
 10
282.0089565516301
 20
232.830322174828
 30
0.0
 11
304.5089565516302
 21
232.830322174828
 31
0.0
  0
LINE
  5
225
330
2
100
AcDbEntity
  8
AM_0 ( Kontur 0.5 )
100
AcDbLine
 10
282.0089565516301
 20
231.330322174828
 30
0.0
 11
310.0089565516303
 21
231.3303221748281
 31
0.0
  0
LINE
  5
226
330
2
100
AcDbEntity
  8
AM_3 ( Verdeckt )
  6
AM_ISO02W050x2
100
AcDbLine
 10
258.0089565516303
 20
231.330322174828
 30
0.0
 11
258.0089565516303
 21
261.0611184514041
 31
0.0
  0
LINE
  5
227
330
2
100
AcDbEntity
  8
AM_3 ( Verdeckt )
  6
AM_ISO02W050x2
100
AcDbLine
 10
259.5089565516301
 20
261.330322174828
 30
0.0
 11
259.5089565516301
 21
232.830322174828
 31
0.0
  0
LINE
  5
228
330
2
100
AcDbEntity
  8
AM_3 ( Verdeckt )
  6
AM_ISO02W050x2
100
AcDbLine
 10
282.0089565516301
 20
232.830322174828
 30
0.0
 11
259.5089565516301
 21
232.830322174828
 31
0.0
  0
LINE
  5
229
102
{ACAD_REACTORS
330
400
102
}
330
2
100
AcDbEntity
  8
AM_0 ( Kontur 0.5 )
100
AcDbLine
 10
282.0089565516301
 20
231.330322174828
 30
0.0
 11
254.0089565516302
 21
231.3303221748281
 31
0.0
  0
LINE
  5
22A
330
2
100
AcDbEntity
  8
AM_3 ( Verdeckt )
  6
AM_ISO02W050x2
100
AcDbLine
 10
259.5089565516301
 20
232.830322174828
 30
0.0
 11
258.0089565516303
 21
231.3303221748281
 31
0.0
  0
LINE
  5
22B
330
2
100
AcDbEntity
  8
AM_3 ( Verdeckt )
  6
AM_ISO02W050x2
100
AcDbLine
 10
282.0089565516301
 20
265.330322174828
 30
0.0
 11
258.0089565516303
 21
265.330322174828
 31
0.0
  0
LINE
  5
22C
330
2
100
AcDbEntity
  8
AM_3 ( Verdeckt )
  6
AM_ISO02W050x2
100
AcDbLine
 10
282.0089565516301
 20
261.330322174828
 30
0.0
 11
258.0089565516303
 21
261.330322174828
 31
0.0
  0
LINE
  5
22D
330
2
100
AcDbEntity
  8
AM_3 ( Verdeckt )
  6
AM_ISO02W050x2
100
AcDbLine
 10
258.0089565516303
 20
261.3322389850129
 30
0.0
 11
258.0089565516303
 21
265.330322174828
 31
0.0
  0
LINE
  5
22E
330
2
100
AcDbEntity
  8
AM_3 ( Verdeckt )
  6
AM_ISO02W050x2
100
AcDbLine
 10
306.0089565516301
 20
231.330322174828
 30
0.0
 11
306.0089565516301
 21
261.0611184514041
 31
0.0
  0
LINE
  5
22F
330
2
100
AcDbEntity
  8
AM_3 ( Verdeckt )
  6
AM_ISO02W050x2
100
AcDbLine
 10
304.5089565516302
 20
261.330322174828
 30
0.0
 11
304.5089565516302
 21
232.830322174828
 31
0.0
  0
LINE
  5
230
330
2
100
AcDbEntity
  8
AM_3 ( Verdeckt )
  6
AM_ISO02W050x2
100
AcDbLine
 10
304.5089565516302
 20
232.830322174828
 30
0.0
 11
306.0089565516301
 21
231.3303221748281
 31
0.0
  0
LINE
  5
231
330
2
100
AcDbEntity
  8
AM_3 ( Verdeckt )
  6
AM_ISO02W050x2
100
AcDbLine
 10
306.0089565516301
 20
261.3322389850129
 30
0.0
 11
306.0089565516301
 21
265.330322174828
 31
0.0
  0
ARC
  5
232
330
2
100
AcDbEntity
  8
AM_3 ( Verdeckt )
  6
AM_ISO02W050x2
100
AcDbCircle
 10
357.0089565516302
 20
277.1318967094928
 30
0.0
 40
56.0
100
AcDbArc
 50
142.4999999999993
 51
180.0
  0
ARC
  5
233
330
2
100
AcDbEntity
  8
AM_0 ( Kontur 0.5 )
100
AcDbCircle
 10
360.0089565516303
 20
279.0251034957711
 30
0.0
 40
50.0
100
AcDbArc
 50
142.4999999999993
 51
180.0
  0
LINE
  5
234
330
2
100
AcDbEntity
  8
AM_3 ( Verdeckt )
  6
AM_ISO02W050x2
100
AcDbLine
 10
385.6466994334904
 20
416.207297918728
 30
0.0
 11
291.9606108049846
 21
344.3194337158863
 31
0.0
  0
LINE
  5
239
102
{ACAD_REACTORS
330
34E
330
375
102
}
330
2
100
AcDbEntity
  8
AM_2 ( Kontur 0.25)
100
AcDbLine
 10
200.2781485331993
 20
361.7845044194402
 30
0.0
 11
393.231119957241
 21
361.7845044194402
 31
0.0
  0
LINE
  5
23A
330
2
100
AcDbEntity
  8
AM_7 (Mittellinie)
  6
AM_ISO08W050x2
100
AcDbLine
 10
396.2641963220779
 20
422.5855619452748
 30
0.0
 11
301.0470157745043
 21
327.3683813977005
 31
0.0
  0
LINE
  5
23B
330
2
100
AcDbEntity
  8
AM_0 ( Kontur 0.5 )
100
AcDbLine
 10
385.2931460428968
 20
425.0461326835599
 30
0.0
 11
285.3080422309323
 21
348.3248641327605
 31
0.0
  0
LINE
  5
240
330
2
100
AcDbEntity
  8
AM_3 ( Verdeckt )
  6
AM_ISO02W050x2
100
AcDbLine
 10
385.6449955209512
 20
416.2090018312676
 30
0.0
 11
389.8876362080707
 21
420.4516425183872
 31
0.0
  0
LINE
  5
241
102
{ACAD_REACTORS
330
327
330
39C
102
}
330
2
100
AcDbEntity
  8
AM_0 ( Kontur 0.5 )
100
AcDbLine
 10
385.2931460428968
 20
425.0461326835599
 30
0.0
 11
398.7247670603635
 21
411.6145116660946
 31
0.0
  0
LINE
  5
246
330
2
100
AcDbEntity
  8
AM_3 ( Verdeckt )
  6
AM_ISO02W050x2
100
AcDbLine
 10
389.8876362080706
 20
411.966361144148
 30
0.0
 11
394.1302768951904
 21
416.2090018312676
 31
0.0
  0
DIMENSION
  5
317
102
{ACAD_XDICTIONARY
360
326
102
}
102
{ACAD_REACTORS
330
327
102
}
330
2
100
AcDbEntity
  8
AM_5 ( Bemassung)
100
AcDbDimension
280
     0
  2
*D3
 10
254.0089565516302
 20
455.4717439538067
 30
0.0
 11
320.1481393208878
 21
455.4717439538067
 31
0.0
 70
   160
 71
     5
 42
144.7158105087333
 73
     0
 74
     0
 75
     0
  3
AM_DIN$0
100
AcDbAlignedDimension
 13
398.7247670603635
 23
411.6145116660946
 33
0.0
 14
254.0089565516302
 24
236.7340675121141
 34
0.0
 50
0.0000000000000114
100
AcDbRotatedDimension
1001
ACAD_DSTYLE_DIMINSPECT
1070
   396
1000
100%
1070
   395
1000

1070
   394
1070
    33
1070
   393
1070
     0
1001
ACAD
1000
DSTYLE
1002
{
1070
    40
1040
20.0
1070
    41
1040
1.0
1070
    44
1040
0.2
1070
    77
1070
     3
1070
   140
1040
1.0
1070
   147
1040
0.2
1070
   271
1070
     0
1002
}
  0
DIMENSION
  5
33E
102
{ACAD_XDICTIONARY
360
34D
102
}
102
{ACAD_REACTORS
330
34E
102
}
330
2
100
AcDbEntity
  8
AM_5 ( Bemassung)
100
AcDbDimension
280
     0
  2
*D4
 10
429.8125712254286
 20
223.3303220546784
 30
0.0
 11
429.8125712254286
 21
291.0369577965361
 31
0.0
 70
   160
  1
130
 71
     5
 42
138.4541823647618
 73
     0
 74
     0
 75
     0
  3
AM_DIN$0
100
AcDbAlignedDimension
 13
393.231119957241
 23
361.7845044194402
 33
0.0
 14
305.9089569105722
 24
223.3303220546785
 34
0.0
 50
90.00000000000005
100
AcDbRotatedDimension
1001
ACAD
1000
DSTYLE
1002
{
1070
    40
1040
20.0
1070
    41
1040
1.0
1070
    44
1040
0.2
1070
    77
1070
     3
1070
   140
1040
1.0
1070
   147
1040
0.2
1070
   271
1070
     0
1002
}
1001
ACAD_DSTYLE_DIMINSPECT
1070
   396
1000
100%
1070
   395
1000

1070
   394
1070
    33
1070
   393
1070
     0
  0
DIMENSION
  5
365
102
{ACAD_XDICTIONARY
360
374
102
}
102
{ACAD_REACTORS
330
375
102
}
330
2
100
AcDbEntity
  8
AM_5 ( Bemassung)
100
AcDbDimension
280
     0
  2
*D5
 10
428.2459367134001
 20
361.7845044194402
 30
0.0
 11
428.2459367134001
 21
383.433647966066
 31
0.0
 70
   160
 71
     5
 42
49.83000724665441
 73
     0
 74
     0
 75
     0
  3
AM_DIN$0
100
AcDbAlignedDimension
 13
398.7247670603635
 23
411.6145116660946
 33
0.0
 14
393.231119957241
 24
361.7845044194402
 34
0.0
 50
90.0
100
AcDbRotatedDimension
1001
ACAD_DSTYLE_DIMINSPECT
1070
   396
1000
100%
1070
   395
1000

1070
   394
1070
    33
1070
   393
1070
     0
1001
ACAD
1000
DSTYLE
1002
{
1070
    40
1040
20.0
1070
    41
1040
1.0
1070
    44
1040
0.2
1070
    77
1070
     3
1070
   140
1040
1.0
1070
   147
1040
0.2
1070
   271
1070
     0
1002
}
  0
DIMENSION
  5
38C
102
{ACAD_XDICTIONARY
360
39B
102
}
102
{ACAD_REACTORS
330
39C
102
}
330
2
100
AcDbEntity
  8
AM_5 ( Bemassung)
100
AcDbDimension
280
     0
  2
*D6
 10
472.8950251249762
 20
223.3303220546784
 30
0.0
 11
472.8950251249762
 21
326.2729838782916
 31
0.0
 70
   160
  1
194
 71
     5
 42
201.7158106288815
 73
     0
 74
     0
 75
     0
  3
AM_DIN$0
100
AcDbAlignedDimension
 13
385.2931460428968
 23
425.0461326835599
 33
0.0
 14
303.6595919714011
 24
223.3303220546785
 34
0.0
 50
90.00000000000026
100
AcDbRotatedDimension
1001
ACAD
1000
DSTYLE
1002
{
1070
    40
1040
20.0
1070
    41
1040
1.0
1070
    44
1040
0.2
1070
    77
1070
     3
1070
   140
1040
1.0
1070
   147
1040
0.2
1070
   271
1070
     0
1002
}
1001
ACAD_DSTYLE_DIMINSPECT
1070
   396
1000
100%
1070
   395
1000

1070
   394
1070
    33
1070
   393
1070
     0
  0
DIMENSION
  5
3C9
102
{ACAD_XDICTIONARY
360
3D8
102
}
102
{ACAD_REACTORS
330
3D9
102
}
330
2
100
AcDbEntity
  8
AM_5 ( Bemassung)
100
AcDbDimension
280
     0
  2
*D7
 10
310.0089565516303
 20
159.5988961097255
 30
0.0
 11
359.2067737412619
 21
159.5988961097255
 31
0.0
 70
   160
  1
%%c<>
 71
     5
 42
56.00000000000014
 73
     0
 74
     0
 75
     0
  3
AM_DIN$0
100
AcDbAlignedDimension
 13
254.0089565516302
 23
236.7340675121141
 33
0.0
 14
310.0089565516303
 24
231.3303221748281
 34
0.0
 50
0.0000000000001132
100
AcDbRotatedDimension
1001
ACAD_DSTYLE_DIMINSPECT
1070
   396
1000
100%
1070
   395
1000

1070
   394
1070
    33
1070
   393
1070
     0
1001
ACAD
1000
DSTYLE
1002
{
1070
    40
1040
20.0
1070
    41
1040
1.0
1070
    44
1040
0.2
1070
    77
1070
     3
1070
   140
1040
1.0
1070
   147
1040
0.2
1070
   271
1070
     0
1002
}
  0
DIMENSION
  5
3F0
102
{ACAD_XDICTIONARY
360
3FF
102
}
102
{ACAD_REACTORS
330
400
102
}
330
2
100
AcDbEntity
  8
AM_5 ( Bemassung)
100
AcDbDimension
280
     0
  2
*D8
 10
223.8001023748439
 20
231.3303221748281
 30
0.0
 11
223.8001023748438
 21
248.3303221748281
 31
0.0
 70
   160
 71
     5
 42
33.9999999999999
 73
     0
 74
     0
 75
     0
  3
AM_DIN$0
100
AcDbAlignedDimension
 13
258.0089565516303
 23
265.330322174828
 33
0.0
 14
254.0089565516302
 24
231.3303221748281
 34
0.0
 50
90.00000000000005
100
AcDbRotatedDimension
1001
ACAD_DSTYLE_DIMINSPECT
1070
   396
1000
100%
1070
   395
1000

1070
   394
1070
    33
1070
   393
1070
     0
1001
ACAD
1000
DSTYLE
1002
{
1070
    40
1040
20.0
1070
    41
1040
1.0
1070
    44
1040
0.2
1070
    77
1070
     3
1070
   140
1040
1.0
1070
   147
1040
0.2
1070
   271
1070
     0
1002
}
  0
DIMENSION
  5
422
330
2
100
AcDbEntity
  8
AM_5 ( Bemassung)
100
AcDbDimension
280
     0
  2
*D9
 10
161.6556880213197
 20
449.986000624046
 30
0.0
 11
101.675342941639
 21
449.986000624046
 31
0.0
 70
   160
 71
     5
 42
119.9999999999997
 73
     0
 74
     0
 75
     0
  3
AM_DIN$0
100
AcDbAlignedDimension
 13
41.65568802131995
 23
418.2372569195549
 33
0.0
 14
161.6556880213197
 24
418.2372569195549
 34
0.0
 50
0.0000000000000114
100
AcDbRotatedDimension
1001
ACAD_DSTYLE_DIMINSPECT
1070
   396
1000
100%
1070
   395
1000

1070
   394
1070
    33
1070
   393
1070
     0
1001
ACAD
1000
DSTYLE
1002
{
1070
    40
1040
20.0
1070
    41
1040
1.0
1070
    44
1040
0.2
1070
    77
1070
     3
1070
   140
1040
1.0
1070
   147
1040
0.2
1070
   271
1070
     0
1002
}
  0
DIMENSION
  5
46A
330
2
100
AcDbEntity
  8
AM_5 ( Bemassung)
100
AcDbDimension
280
     0
  2
*D10
 10
167.6556880213196
 20
492.2163124466723
 30
0.0
 11
99.052832592105
 21
492.2163124466723
 31
0.0
 70
   160
 71
     5
 42
131.9999999999996
 73
     0
 74
     0
 75
     0
  3
AM_DIN$0
100
AcDbAlignedDimension
 13
35.65568802132001
 23
418.2372569195549
 33
0.0
 14
167.6556880213196
 24
418.2372569195549
 34
0.0
 50
0.0000000000000114
100
AcDbRotatedDimension
1001
ACAD_DSTYLE_DIMINSPECT
1070
   396
1000
100%
1070
   395
1000

1070
   394
1070
    33
1070
   393
1070
     0
1001
ACAD
1000
DSTYLE
1002
{
1070
    40
1040
20.0
1070
    41
1040
1.0
1070
    44
1040
0.2
1070
    77
1070
     3
1070
   140
1040
1.0
1070
   147
1040
0.2
1070
   271
1070
     0
1002
}
  0
DIMENSION
  5
49C
102
{ACAD_XDICTIONARY
360
4AF
102
}
102
{ACAD_REACTORS
330
4B0
102
}
330
2
100
AcDbEntity
  8
AM_5 ( Bemassung)
100
AcDbDimension
280
     0
  2
*D11
 10
70.70784185137012
 20
291.7936424550762
 30
0.0
 11
100.6294226687969
 21
533.1223021583032
 31
0.0
 70
   162
 71
     5
 42
0.5446218815738473
 73
     0
 74
     0
 75
     0
  3
AM_DIN$2
100
AcDb2LineAngularDimension
 13
167.4082233177412
 23
416.4309863600461
 33
0.0
 14
132.6035341912695
 24
291.7936424550762
 34
0.0
 15
35.90315272489846
 25
416.4309863600461
 35
0.0
 16
133.5771171124436
 26
531.6740429421488
 36
0.0
1001
ACAD_DSTYLE_DIMINSPECT
1070
   396
1000
100%
1070
   395
1000

1070
   394
1070
    33
1070
   393
1070
     0
1001
ACAD
1000
DSTYLE
1002
{
1070
    40
1040
20.0
1070
    41
1040
1.0
1070
    44
1040
0.2
1070
    77
1070
     3
1070
   140
1040
1.0
1070
   147
1040
0.2
1070
   271
1070
     0
1002
}
  0
DIMENSION
  5
4DC
102
{ACAD_XDICTIONARY
360
4E5
102
}
102
{ACAD_REACTORS
330
4E6
102
}
330
2
100
AcDbEntity
  8
AM_5 ( Bemassung)
100
AcDbDimension
280
     0
  2
*D12
 10
125.6556880213197
 20
260.9680531961317
 30
0.0
 11
98.46178735625471
 21
216.2080766270863
 31
0.0
 70
    34
 71
     5
 42
-1.0
 73
     0
 74
     0
 75
     0
  3
AM_DIN$2
100
AcDb2LineAngularDimension
 13
77.65568802131975
 23
231.2372569195556
 33
0.0
 14
77.65568802131975
 24
260.9680531961317
 34
0.0
 15
125.6556880213197
 25
231.2372569195556
 35
0.0
 16
98.46178735625471
 26
216.2080766270863
 36
0.0
1001
ACAD
1000
DSTYLE
1002
{
1070
    40
1040
20.0
1002
}
1001
ACAD_DSTYLE_DIMINSPECT
1070
   396
1000
100%
1070
   395
1000

1070
   394
1070
    33
1070
   393
1070
     0
  0
DIMENSION
  5
4F6
102
{ACAD_XDICTIONARY
360
505
102
}
102
{ACAD_REACTORS
330
506
102
}
330
2
100
AcDbEntity
  8
AM_5 ( Bemassung)
100
AcDbDimension
280
     0
  2
*D13
 10
125.6556880213197
 20
188.5094635116595
 30
0.0
 11
-10.68264758577439
 21
188.5094635116595
 31
0.0
 70
   160
  1
G 1 1/2
 71
     5
 42
47.99999999999994
 73
     0
 74
     0
 75
     0
  3
AM_DIN$0
100
AcDbAlignedDimension
 13
77.65568802131975
 23
231.2372569195556
 33
0.0
 14
125.6556880213197
 24
231.2372569195556
 34
0.0
 50
359.9999999999998
100
AcDbRotatedDimension
1001
ACAD_DSTYLE_DIMINSPECT
1070
   396
1000
100%
1070
   395
1000

1070
   394
1070
    33
1070
   393
1070
     0
1001
ACAD
1000
DSTYLE
1002
{
1070
    40
1040
20.0
1070
    41
1040
1.0
1070
    44
1040
0.2
1070
    77
1070
     3
1070
   140
1040
1.0
1070
   147
1040
0.2
1070
   271
1070
     0
1002
}
  0
LINE
  5
B28
330
2
100
AcDbEntity
  8
AM_2 ( Kontur 0.25)
100
AcDbLine
 10
207.1470044125595
 20
358.2398934221257
 30
0.0
 11
235.2676963402076
 21
358.2398934221257
 31
0.0
  0
LINE
  5
B29
330
2
100
AcDbEntity
  8
AM_2 ( Kontur 0.25)
100
AcDbLine
 10
212.3067643992839
 20
354.3700734320823
 30
0.0
 11
230.3659243528195
 21
354.3700734320823
 31
0.0
  0
LINE
  5
B2A
330
2
100
AcDbEntity
  8
AM_2 ( Kontur 0.25)
100
AcDbLine
 10
216.4345723886635
 20
350.2422654427028
 30
0.0
 11
226.7540923621123
 21
350.2422654427028
 31
0.0
  0
LINE
  5
B2B
330
2
100
AcDbEntity
  8
AM_2 ( Kontur 0.25)
100
AcDbLine
 10
220.3043923787068
 20
345.856469453987
 30
0.0
 11
223.4002483707415
 21
345.856469453987
 31
0.0
  0
LINE
  5
CFA
330
2
100
AcDbEntity
  8
AM_7 (Mittellinie)
  6
AM_ISO08W050
100
AcDbLine
 10
282.0089565516301
 20
266.973303235148
 30
0.0
 11
282.0089565516301
 21
191.1886342933259
 31
0.0
  0
LINE
  5
CFB
330
2
100
AcDbEntity
  8
AM_0 ( Kontur 0.5 )
100
AcDbLine
 10
296.4427134981441
 20
230.330322159808
 30
0.0
 11
296.4427134981441
 21
224.330322069697
 31
0.0
  0
LINE
  5
CFC
330
2
100
AcDbEntity
  8
AM_0 ( Kontur 0.5 )
100
AcDbLine
 10
253.1414426586021
 20
230.330322159808
 30
0.0
 11
253.1414426586021
 21
224.330322069697
 31
0.0
  0
ARC
  5
CFD
330
2
100
AcDbEntity
  8
AM_0 ( Kontur 0.5 )
100
AcDbCircle
 10
303.6595919714011
 20
204.788655109544
 30
0.0
 40
26.54166706528251
100
AcDbArc
 50
74.2221938995054
 51
105.7778061004946
  0
LINE
  5
CFE
330
2
100
AcDbEntity
  8
AM_0 ( Kontur 0.5 )
100
AcDbLine
 10
303.6595919714011
 20
231.330322174827
 30
0.0
 11
260.3583211318591
 21
231.330322174827
 31
0.0
  0
LINE
  5
CFF
330
2
100
AcDbEntity
  8
AM_0 ( Kontur 0.5 )
100
AcDbLine
 10
310.8764704446581
 20
230.330322159808
 30
0.0
 11
310.8764704446581
 21
224.330322069697
 31
0.0
  0
ARC
  5
D00
330
2
100
AcDbEntity
  8
AM_0 ( Kontur 0.5 )
100
AcDbCircle
 10
260.3583211318591
 20
249.871989119961
 30
0.0
 40
26.54166706528251
100
AcDbArc
 50
254.2221938995054
 51
285.7778061004946
  0
ARC
  5
D01
330
2
100
AcDbEntity
  8
AM_0 ( Kontur 0.5 )
100
AcDbCircle
 10
-282.0089565516301
 20
327.996990293281
 30
0.0
 40
104.666668238603
210
0.0
220
0.0
230
-1.0
100
AcDbArc
 50
262.0735300650984
 51
277.9264699349016
  0
LINE
  5
D02
330
2
100
AcDbEntity
  8
AM_0 ( Kontur 0.5 )
100
AcDbLine
 10
267.5751996051161
 20
230.330322159808
 30
0.0
 11
267.5751996051161
 21
224.330322069697
 31
0.0
  0
LINE
  5
D03
330
2
100
AcDbEntity
  8
AM_3 ( Verdeckt )
  6
AM_ISO02W050
100
AcDbLine
 10
261.0589562369932
 20
223.330322054679
 30
0.0
 11
261.0589562369932
 21
200.330321709253
 31
0.0
  0
ARC
  5
D04
330
2
100
AcDbEntity
  8
AM_0 ( Kontur 0.5 )
100
AcDbCircle
 10
-303.6595919714011
 20
249.871989119961
 30
0.0
 40
26.54166706528251
210
0.0
220
0.0
230
-1.0
100
AcDbArc
 50
254.2221938995054
 51
285.7778061004946
  0
LINE
  5
D05
330
2
100
AcDbEntity
  8
AM_0 ( Kontur 0.5 )
100
AcDbLine
 10
303.6595919714011
 20
223.330322054679
 30
0.0
 11
260.3583211318591
 21
223.330322054679
 31
0.0
  0
ARC
  5
D06
330
2
100
AcDbEntity
  8
AM_0 ( Kontur 0.5 )
100
AcDbCircle
 10
282.0089565516301
 20
126.663653936225
 30
0.0
 40
104.666668238603
100
AcDbArc
 50
82.07353006509835
 51
97.92646993490166
  0
ARC
  5
D07
330
2
100
AcDbEntity
  8
AM_0 ( Kontur 0.5 )
100
AcDbCircle
 10
-260.3583211318591
 20
204.788655109544
 30
0.0
 40
26.54166706528251
210
0.0
220
0.0
230
-1.0
100
AcDbArc
 50
74.2221938995054
 51
105.7778061004946
  0
LINE
  5
D08
330
2
100
AcDbEntity
  8
AM_0 ( Kontur 0.5 )
100
AcDbLine
 10
305.9089569105722
 20
200.330321709253
 30
0.0
 11
305.9089569105722
 21
223.425808904763
 31
0.0
  0
LINE
  5
D0D
330
2
100
AcDbEntity
  8
AM_2 ( Kontur 0.25)
100
AcDbLine
 10
259.5839562148402
 20
200.330321709253
 30
0.0
 11
259.5839562148402
 21
223.341620679632
 31
0.0
  0
LINE
  5
D0F
330
2
100
AcDbEntity
  8
AM_0 ( Kontur 0.5 )
100
AcDbLine
 10
258.1089561926882
 20
200.330321709253
 30
0.0
 11
258.1089561926882
 21
223.425808904763
 31
0.0
  0
LINE
  5
D10
330
2
100
AcDbEntity
  8
AM_0 ( Kontur 0.5 )
100
AcDbLine
 10
258.1089561926882
 20
200.330321709253
 30
0.0
 11
305.9089569105722
 21
200.330321709253
 31
0.0
  0
LINE
  5
D11
330
2
100
AcDbEntity
  8
AM_3 ( Verdeckt )
  6
AM_ISO02W050
100
AcDbLine
 10
302.9589568662672
 20
223.3395711929465
 30
0.0
 11
302.9589568662672
 21
200.330321709253
 31
0.0
  0
LINE
  5
D12
330
2
100
AcDbEntity
  8
AM_2 ( Kontur 0.25)
100
AcDbLine
 10
304.4339568884202
 20
200.330321709253
 30
0.0
 11
304.4339568884202
 21
223.341620679632
 31
0.0
  0
LINE
  5
DEB
330
2
100
AcDbEntity
  8
AM_0 ( Kontur 0.5 )
100
AcDbLine
 10
101.6556880213194
 20
231.2372569195556
 30
0.0
 11
129.6556880213195
 21
231.2372569195557
 31
0.0
  0
LINE
  5
DEC
330
2
100
AcDbEntity
  8
AM_0 ( Kontur 0.5 )
100
AcDbLine
 10
101.6556880213194
 20
231.2372569195556
 30
0.0
 11
73.65568802131943
 21
231.2372569195557
 31
0.0
  0
LINE
  5
DED
330
2
100
AcDbEntity
  8
AM_0 ( Kontur 0.5 )
100
AcDbLine
 10
116.0894449678334
 20
230.2372569045356
 30
0.0
 11
116.0894449678334
 21
224.2372568144246
 31
0.0
  0
LINE
  5
DEE
330
2
100
AcDbEntity
  8
AM_0 ( Kontur 0.5 )
100
AcDbLine
 10
72.78817412829141
 20
230.2372569045356
 30
0.0
 11
72.78817412829141
 21
224.2372568144246
 31
0.0
  0
ARC
  5
DEF
330
2
100
AcDbEntity
  8
AM_0 ( Kontur 0.5 )
100
AcDbCircle
 10
123.3063234410904
 20
204.6955898542716
 30
0.0
 40
26.54166706528251
100
AcDbArc
 50
74.22219389950541
 51
105.7778061004946
  0
LINE
  5
DF0
330
2
100
AcDbEntity
  8
AM_0 ( Kontur 0.5 )
100
AcDbLine
 10
123.3063234410904
 20
231.2372569195546
 30
0.0
 11
80.00505260154842
 21
231.2372569195546
 31
0.0
  0
LINE
  5
DF1
330
2
100
AcDbEntity
  8
AM_0 ( Kontur 0.5 )
100
AcDbLine
 10
130.5232019143474
 20
230.2372569045356
 30
0.0
 11
130.5232019143474
 21
224.2372568144246
 31
0.0
  0
ARC
  5
DF2
330
2
100
AcDbEntity
  8
AM_0 ( Kontur 0.5 )
100
AcDbCircle
 10
80.00505260154842
 20
249.7789238646886
 30
0.0
 40
26.54166706528251
100
AcDbArc
 50
254.2221938995054
 51
285.7778061004946
  0
ARC
  5
DF3
330
2
100
AcDbEntity
  8
AM_0 ( Kontur 0.5 )
100
AcDbCircle
 10
-101.6556880213194
 20
327.9039250380086
 30
0.0
 40
104.666668238603
210
0.0
220
0.0
230
-1.0
100
AcDbArc
 50
262.0735300650984
 51
277.9264699349016
  0
LINE
  5
DF4
330
2
100
AcDbEntity
  8
AM_0 ( Kontur 0.5 )
100
AcDbLine
 10
87.2219310748054
 20
230.2372569045356
 30
0.0
 11
87.2219310748054
 21
224.2372568144246
 31
0.0
  0
LINE
  5
DF5
330
2
100
AcDbEntity
  8
AM_3 ( Verdeckt )
  6
AM_ISO02W050
100
AcDbLine
 10
80.7056877066824
 20
223.2372567994066
 30
0.0
 11
80.7056877066824
 21
200.2372564539806
 31
0.0
  0
ARC
  5
DF6
330
2
100
AcDbEntity
  8
AM_0 ( Kontur 0.5 )
100
AcDbCircle
 10
-123.3063234410904
 20
249.7789238646886
 30
0.0
 40
26.54166706528251
210
0.0
220
0.0
230
-1.0
100
AcDbArc
 50
254.2221938995054
 51
285.7778061004946
  0
LINE
  5
DF7
330
2
100
AcDbEntity
  8
AM_0 ( Kontur 0.5 )
100
AcDbLine
 10
123.3063234410904
 20
223.2372567994066
 30
0.0
 11
80.00505260154842
 21
223.2372567994066
 31
0.0
  0
ARC
  5
DF8
330
2
100
AcDbEntity
  8
AM_0 ( Kontur 0.5 )
100
AcDbCircle
 10
101.6556880213194
 20
126.5705886809526
 30
0.0
 40
104.666668238603
100
AcDbArc
 50
82.07353006509833
 51
97.92646993490166
  0
ARC
  5
DF9
330
2
100
AcDbEntity
  8
AM_0 ( Kontur 0.5 )
100
AcDbCircle
 10
-80.00505260154842
 20
204.6955898542716
 30
0.0
 40
26.54166706528251
210
0.0
220
0.0
230
-1.0
100
AcDbArc
 50
74.22219389950541
 51
105.7778061004946
  0
LINE
  5
DFA
330
2
100
AcDbEntity
  8
AM_0 ( Kontur 0.5 )
100
AcDbLine
 10
125.5556883802614
 20
200.2372564539806
 30
0.0
 11
125.5556883802614
 21
223.3327436494906
 31
0.0
  0
LINE
  5
DFB
330
2
100
AcDbEntity
  8
AM_2 ( Kontur 0.25)
100
AcDbLine
 10
79.23068768452947
 20
200.2372564539806
 30
0.0
 11
79.23068768452947
 21
223.2485554243596
 31
0.0
  0
LINE
  5
DFC
330
2
100
AcDbEntity
  8
AM_0 ( Kontur 0.5 )
100
AcDbLine
 10
77.75568766237745
 20
200.2372564539806
 30
0.0
 11
77.75568766237745
 21
223.3327436494906
 31
0.0
  0
LINE
  5
DFD
330
2
100
AcDbEntity
  8
AM_0 ( Kontur 0.5 )
100
AcDbLine
 10
77.75568766237745
 20
200.2372564539806
 30
0.0
 11
125.5556883802614
 21
200.2372564539806
 31
0.0
  0
LINE
  5
DFE
330
2
100
AcDbEntity
  8
AM_3 ( Verdeckt )
  6
AM_ISO02W050
100
AcDbLine
 10
122.6056883359564
 20
223.2465059376742
 30
0.0
 11
122.6056883359564
 21
200.2372564539806
 31
0.0
  0
LINE
  5
DFF
330
2
100
AcDbEntity
  8
AM_2 ( Kontur 0.25)
100
AcDbLine
 10
124.0806883581094
 20
200.2372564539806
 30
0.0
 11
124.0806883581094
 21
223.2485554243596
 31
0.0
  0
ENDSEC
  0
SECTION
  2
OBJECTS
  0
DICTIONARY
  5
1A
330
0
100
AcDbDictionary
281
     1
  3
ACAD_CIP_PREVIOUS_PRODUCT_INFO
350
BF6
  3
ACAD_COLOR
350
71
  3
ACAD_DETAILVIEWSTYLE
350
BE6
  3
ACAD_FIELDLIST
350
C12
  3
ACAD_GROUP
350
18
  3
ACAD_LAYOUT
350
42
  3
ACAD_MATERIAL
350
70
  3
ACAD_MLEADERSTYLE
350
142
  3
ACAD_MLINESTYLE
350
19
  3
ACAD_PLOTSETTINGS
350
43
  3
ACAD_PLOTSTYLENAME
350
40
  3
ACAD_SCALELIST
350
120
  3
ACAD_SECTIONVIEWSTYLE
350
BE4
  3
ACAD_TABLESTYLE
350
72
  3
ACAD_VISUALSTYLE
350
10F
  3
ACDB_RECOMPOSE_DATA
350
E32
  3
AcDbVariableDictionary
350
EB
  3
AcmDictionary
350
1A2
  3
AMG
350
147
  3
AMGSNAPSETTINGS
350
1D7
  0
DICTIONARY
  5
30B
330
A
100
AcDbDictionary
280
     1
281
     1
  3
ACAD_LAYERSTATES
360
C4A
  3
AMLAYER_GROUPCOLORS
360
30C
  0
DICTIONARY
  5
758
330
4
100
AcDbDictionary
280
     1
281
     1
  3
ADSK_XREC_LAYER_RECONCILED
360
759
  0
DICTIONARY
  5
75A
330
1B
100
AcDbDictionary
280
     1
281
     1
  3
ADSK_XREC_LAYER_RECONCILED
360
75B
  0
DICTIONARY
  5
75C
330
29
100
AcDbDictionary
280
     1
281
     1
  3
ADSK_XREC_LAYER_RECONCILED
360
75D
  0
DICTIONARY
  5
75E
330
23
100
AcDbDictionary
280
     1
281
     1
  3
ADSK_XREC_LAYER_RECONCILED
360
75F
  0
DICTIONARY
  5
760
330
26
100
AcDbDictionary
280
     1
281
     1
  3
ADSK_XREC_LAYER_RECONCILED
360
761
  0
DICTIONARY
  5
762
330
1F
100
AcDbDictionary
280
     1
281
     1
  3
ADSK_XREC_LAYER_RECONCILED
360
763
  0
DICTIONARY
  5
308
330
307
100
AcDbDictionary
280
     1
281
     1
  3
ADSK_XREC_LAYER_RECONCILED
360
309
  0
DICTIONARY
  5
764
330
30A
100
AcDbDictionary
280
     1
281
     1
  3
ADSK_XREC_LAYER_RECONCILED
360
765
  0
DICTIONARY
  5
766
330
30E
100
AcDbDictionary
280
     1
281
     1
  3
ADSK_XREC_LAYER_RECONCILED
360
767
  0
DICTIONARY
  5
768
330
310
100
AcDbDictionary
280
     1
281
     1
  3
ADSK_XREC_LAYER_RECONCILED
360
769
  0
DICTIONARY
  5
76A
330
314
100
AcDbDictionary
280
     1
281
     1
  3
ADSK_XREC_LAYER_RECONCILED
360
76B
  0
DICTIONARY
  5
76C
330
452
100
AcDbDictionary
280
     1
281
     1
  3
ADSK_XREC_LAYER_RECONCILED
360
76D
  0
DICTIONARY
  5
C3A
330
C39
100
AcDbDictionary
280
     1
281
     1
  0
DICTIONARY
  5
C3C
330
C3B
100
AcDbDictionary
280
     1
281
     1
  0
DICTIONARY
  5
6A
330
2
100
AcDbDictionary
280
     1
281
     1
  3
ACAD_LAYOUTSELFREF
360
6B
  3
ACAD_SORTENTS
360
217
  0
DICTIONARY
  5
6C
330
7
100
AcDbDictionary
280
     1
281
     1
  3
ACAD_LAYOUTSELFREF
360
6D
  0
DICTIONARY
  5
A8
330
78
100
AcDbDictionary
280
     1
281
     1
  0
DICTIONARY
  5
E6
330
AC
100
AcDbDictionary
280
     1
281
     1
  0
DICTIONARY
  5
C8A
330
C6F
100
AcDbDictionary
280
     1
281
     1
  3
ACAD_SORTENTS
360
C8B
  0
DICTIONARY
  5
326
330
317
100
AcDbDictionary
280
     1
281
     1
  3
ACAD_DIMASSOC
360
327
  0
DICTIONARY
  5
34D
330
33E
100
AcDbDictionary
280
     1
281
     1
  3
ACAD_DIMASSOC
360
34E
  0
DICTIONARY
  5
374
330
365
100
AcDbDictionary
280
     1
281
     1
  3
ACAD_DIMASSOC
360
375
  0
DICTIONARY
  5
39B
330
38C
100
AcDbDictionary
280
     1
281
     1
  3
ACAD_DIMASSOC
360
39C
  0
DICTIONARY
  5
3D8
330
3C9
100
AcDbDictionary
280
     1
281
     1
  3
ACAD_DIMASSOC
360
3D9
  0
DICTIONARY
  5
3FF
330
3F0
100
AcDbDictionary
280
     1
281
     1
  3
ACAD_DIMASSOC
360
400
  0
DICTIONARY
  5
4AF
330
49C
100
AcDbDictionary
280
     1
281
     1
  3
ACAD_DIMASSOC
360
4B0
  0
DICTIONARY
  5
4E5
330
4DC
100
AcDbDictionary
280
     1
281
     1
  3
ACAD_DIMASSOC
360
4E6
  0
DICTIONARY
  5
505
330
4F6
100
AcDbDictionary
280
     1
281
     1
  3
ACAD_DIMASSOC
360
506
  0
XRECORD
  5
BF6
102
{ACAD_REACTORS
330
1A
102
}
330
1A
100
AcDbXrecord
280
     1
300
AMECH_PP
300
2016
300
PDSU_F_S
  0
DICTIONARY
  5
71
102
{ACAD_REACTORS
330
1A
102
}
330
1A
100
AcDbDictionary
281
     1
  0
DICTIONARY
  5
BE6
102
{ACAD_REACTORS
330
1A
102
}
330
1A
100
AcDbDictionary
281
     1
  3
Imperial24
350
BE7
  3
ISO 128-34_2001
350
C6B
  3
Metric50
350
C6D
  0
FIELDLIST
  5
C12
102
{ACAD_REACTORS
330
1A
102
}
330
1A
100
AcDbIdSet
 90
       22
330
C10
330
C11
330
C13
330
C14
330
C1D
330
C1E
330
C1F
330
C4E
330
C4F
330
C50
330
C54
330
C55
330
C56
330
C5A
330
C5B
330
C5C
330
C62
330
C63
330
C64
330
C68
330
C69
330
C6A
100
AcDbFieldList
  0
DICTIONARY
  5
18
102
{ACAD_REACTORS
330
1A
102
}
330
1A
100
AcDbDictionary
281
     1
  0
DICTIONARY
  5
42
102
{ACAD_REACTORS
330
1A
102
}
330
1A
100
AcDbDictionary
281
     1
  3
Layout1
350
75
  3
Model
350
74
  0
DICTIONARY
  5
70
102
{ACAD_REACTORS
330
1A
102
}
330
1A
100
AcDbDictionary
281
     1
  3
ByBlock
350
FF
  3
ByLayer
350
F7
  3
Global
350
107
  0
DICTIONARY
  5
142
102
{ACAD_REACTORS
330
1A
102
}
330
1A
100
AcDbDictionary
281
     1
  3
Standard
350
143
  0
DICTIONARY
  5
19
102
{ACAD_REACTORS
330
1A
102
}
330
1A
100
AcDbDictionary
281
     1
  3
STANDARD
350
1C
  0
DICTIONARY
  5
43
102
{ACAD_REACTORS
330
1A
102
}
330
1A
100
AcDbDictionary
281
     1
  0
ACDBDICTIONARYWDFLT
  5
40
102
{ACAD_REACTORS
330
1A
102
}
330
1A
100
AcDbDictionary
281
     1
  3
Normal
350
41
100
AcDbDictionaryWithDefault
340
41
  0
DICTIONARY
  5
120
102
{ACAD_REACTORS
330
1A
102
}
330
1A
100
AcDbDictionary
281
     1
  3
A0
350
121
  3
A1
350
122
  3
A2
350
123
  3
A3
350
124
  3
A4
350
125
  3
A5
350
126
  3
A6
350
127
  3
A7
350
128
  3
A8
350
129
  3
A9
350
12A
  3
B0
350
12B
  3
B1
350
12C
  3
B2
350
12D
  3
B3
350
12E
  3
B4
350
12F
  3
B5
350
130
  3
B6
350
131
  3
B7
350
132
  3
B8
350
133
  3
B9
350
134
  3
C0
350
135
  3
C1
350
136
  3
C2
350
137
  3
C3
350
138
  3
C4
350
139
  3
C5
350
13A
  3
C6
350
13B
  3
C7
350
13C
  3
C8
350
13D
  3
C9
350
13E
  3
D0
350
13F
  3
D1
350
140
  3
D2
350
141
  0
DICTIONARY
  5
BE4
102
{ACAD_REACTORS
330
1A
102
}
330
1A
100
AcDbDictionary
281
     1
  3
Imperial24
350
BE5
  3
ISO 128-40_2001(E)
350
C57
  3
Metric50
350
C5D
  0
DICTIONARY
  5
72
102
{ACAD_REACTORS
330
1A
102
}
330
1A
100
AcDbDictionary
281
     1
  3
Standard
350
73
  0
DICTIONARY
  5
10F
102
{ACAD_REACTORS
330
1A
102
}
330
1A
100
AcDbDictionary
281
     1
  3
2dWireframe
350
115
  3
3D Hidden
350
117
  3
3dWireframe
350
116
  3
Basic
350
114
  3
Brighten
350
11B
  3
ColorChange
350
11F
  3
Conceptual
350
118
  3
Dim
350
11A
  3
EdgeColorOff
350
BE3
  3
Facepattern
350
11E
  3
Flat
350
110
  3
FlatWithEdges
350
111
  3
Gouraud
350
112
  3
GouraudWithEdges
350
113
  3
Hidden
350
BDB
  3
JitterOff
350
BE1
  3
Linepattern
350
11D
  3
OverhangOff
350
BE2
  3
Realistic
350
119
  3
Shaded
350
BE0
  3
Shaded with edges
350
BDF
  3
Shades of Gray
350
BDC
  3
Sketchy
350
BDD
  3
Thicken
350
11C
  3
Wireframe
350
BDA
  3
X-Ray
350
BDE
  0
XRECORD
  5
E32
102
{ACAD_REACTORS
330
1A
102
}
330
1A
100
AcDbXrecord
280
     1
 90
        1
330
73
330
BE5
330
BE7
330
C57
330
C5D
330
C6B
330
C6D
  0
DICTIONARY
  5
EB
102
{ACAD_REACTORS
330
1A
102
}
330
1A
100
AcDbDictionary
281
     1
  3
CANNOSCALE
350
76F
  3
CMLEADERSTYLE
350
76E
  3
CTABLESTYLE
350
EC
  3
CVIEWDETAILSTYLE
350
E25
  3
CVIEWSECTIONSTYLE
350
E26
  3
DIMASSOC
350
ED
  3
LAYEREVAL
350
E27
  3
LAYERNOTIFY
350
E28
  3
LIGHTINGUNITS
350
BD8
  3
MSLTSCALE
350
BD7
  3
PROJECTNAME
350
EE
  0
DICTIONARY
  5
1A2
102
{ACAD_REACTORS
330
1A
102
}
330
1A
100
AcDbDictionary
281
     1
  3
AcmBOM
350
957
  3
AcmStdDictionary
350
1AD
  3
AMDTSECTSYM_ARROWCOLOR
350
1C2
  0
DICTIONARY
  5
147
102
{ACAD_REACTORS
330
1A
102
}
330
1A
100
AcDbDictionary
281
     1
  0
DICTIONARY
  5
1D7
102
{ACAD_REACTORS
330
1A
102
}
330
1A
100
AcDbDictionary
281
     1
  0
DICTIONARY
  5
C4A
102
{ACAD_REACTORS
330
30B
102
}
330
30B
100
AcDbDictionary
281
     1
  0
DICTIONARY
  5
30C
102
{ACAD_REACTORS
330
30B
102
}
330
30B
100
AcDbDictionary
280
     1
281
     1
  0
XRECORD
  5
759
102
{ACAD_REACTORS
330
758
102
}
330
758
100
AcDbXrecord
280
     1
290
     1
  0
XRECORD
  5
75B
102
{ACAD_REACTORS
330
75A
102
}
330
75A
100
AcDbXrecord
280
     1
290
     1
  0
XRECORD
  5
75D
102
{ACAD_REACTORS
330
75C
102
}
330
75C
100
AcDbXrecord
280
     1
290
     1
  0
XRECORD
  5
75F
102
{ACAD_REACTORS
330
75E
102
}
330
75E
100
AcDbXrecord
280
     1
290
     1
  0
XRECORD
  5
761
102
{ACAD_REACTORS
330
760
102
}
330
760
100
AcDbXrecord
280
     1
290
     1
  0
XRECORD
  5
763
102
{ACAD_REACTORS
330
762
102
}
330
762
100
AcDbXrecord
280
     1
290
     1
  0
XRECORD
  5
309
102
{ACAD_REACTORS
330
308
102
}
330
308
100
AcDbXrecord
280
     1
290
     1
  0
XRECORD
  5
765
102
{ACAD_REACTORS
330
764
102
}
330
764
100
AcDbXrecord
280
     1
290
     1
  0
XRECORD
  5
767
102
{ACAD_REACTORS
330
766
102
}
330
766
100
AcDbXrecord
280
     1
290
     1
  0
XRECORD
  5
769
102
{ACAD_REACTORS
330
768
102
}
330
768
100
AcDbXrecord
280
     1
290
     1
  0
XRECORD
  5
76B
102
{ACAD_REACTORS
330
76A
102
}
330
76A
100
AcDbXrecord
280
     1
290
     1
  0
XRECORD
  5
76D
102
{ACAD_REACTORS
330
76C
102
}
330
76C
100
AcDbXrecord
280
     1
290
     1
  0
XRECORD
  5
6B
102
{ACAD_REACTORS
330
6A
102
}
330
6A
100
AcDbXrecord
280
     1
340
2
  0
SORTENTSTABLE
  5
217
102
{ACAD_REACTORS
330
6A
102
}
330
6A
100
AcDbSortentsTable
330
2
331
1F3
  5
223
331
D0F
  5
D0F
331
225
  5
1EB
331
1F6
  5
226
331
208
  5
238
331
23A
  5
200
331
20E
  5
23E
331
CFB
  5
CFB
331
1DF
  5
20E
331
CFE
  5
CFE
331
214
  5
244
331
1E2
  5
211
331
D10
  5
D10
331
B29
  5
B29
331
1E5
  5
214
331
31
  5
31
331
34
  5
34
331
229
  5
1EF
331
22C
  5
1F2
331
1FA
  5
22A
331
37
  5
37
331
1FD
  5
22D
331
3A
  5
3A
331
22F
  5
1F5
331
4DC
  5
4DC
331
422
  5
422
331
232
  5
1F8
331
200
  5
230
331
3D
  5
3D
331
206
  5
236
331
D02
  5
D02
331
3F0
  5
3F0
331
218
  5
1DE
331
1E9
  5
219
331
D05
  5
D05
331
21B
  5
1E1
331
1EC
  5
21C
331
D08
  5
D08
331
21E
  5
1E4
331
1EF
  5
21F
331
2C
  5
2C
331
221
  5
1E7
331
1F2
  5
222
331
2F
  5
2F
331
224
  5
1EA
331
1F5
  5
225
331
227
  5
1ED
331
33E
  5
33E
331
239
  5
1FF
331
20A
  5
23A
331
20D
  5
23D
331
CFA
  5
CFA
331
46A
  5
46A
331
1DE
  5
20D
331
317
  5
317
331
1E1
  5
210
331
CFD
  5
CFD
331
213
  5
243
331
1E
  5
1E
331
B28
  5
B28
331
30
  5
30
331
1E4
  5
213
331
216
  5
246
331
D12
  5
D12
331
B2B
  5
B2B
331
1E7
  5
216
331
33
  5
33
331
228
  5
1EE
331
1F9
  5
229
331
36
  5
36
331
22B
  5
1F1
331
38C
  5
38C
331
1FC
  5
22C
331
39
  5
39
331
22E
  5
1F4
331
1FF
  5
22F
331
3C
  5
3C
331
231
  5
1F7
331
234
  5
1FA
331
205
  5
235
331
D01
  5
D01
331
22
  5
22
331
241
  5
207
331
1E8
  5
218
331
D04
  5
D04
331
49C
  5
49C
331
21A
  5
1E0
331
25
  5
25
331
1EB
  5
21B
331
D07
  5
D07
331
28
  5
28
331
21D
  5
1E3
331
1EE
  5
21E
331
2B
  5
2B
331
220
  5
1E6
331
1F1
  5
221
331
D0D
  5
D0D
331
2E
  5
2E
331
223
  5
1E9
331
226
  5
1EC
331
1F4
  5
224
331
4F6
  5
4F6
331
1F7
  5
227
331
3C9
  5
3C9
331
209
  5
239
331
23B
  5
201
331
365
  5
365
331
CFC
  5
CFC
331
1E0
  5
20F
331
1E3
  5
212
331
CFF
  5
CFF
331
215
  5
245
331
D11
  5
D11
331
B2A
  5
B2A
331
1E6
  5
215
331
32
  5
32
331
1F8
  5
228
331
35
  5
35
331
22A
  5
1F0
331
22D
  5
1F3
331
1FB
  5
22B
331
38
  5
38
331
1FE
  5
22E
331
3B
  5
3B
331
230
  5
1F6
331
201
  5
231
331
233
  5
1F9
331
204
  5
234
331
D00
  5
D00
331
21
  5
21
331
240
  5
206
331
207
  5
237
331
D03
  5
D03
331
219
  5
1DF
331
24
  5
24
331
1EA
  5
21A
331
D06
  5
D06
331
246
  5
20C
331
21C
  5
1E2
331
1ED
  5
21D
331
2A
  5
2A
331
21F
  5
1E5
331
1F0
  5
220
331
2D
  5
2D
331
222
  5
1E8
  0
XRECORD
  5
6D
102
{ACAD_REACTORS
330
6C
102
}
330
6C
100
AcDbXrecord
280
     1
340
7
  0
SORTENTSTABLE
  5
C8B
102
{ACAD_REACTORS
330
C8A
102
}
330
C8A
100
AcDbSortentsTable
330
C6F
  0
DIMASSOC
  5
327
102
{ACAD_REACTORS
330
326
102
}
330
326
100
AcDbDimAssoc
330
317
 90
        1
 70
     0
 71
     0
  1
AcDbOsnapPointRef
 72
     1
331
241
 73
     0
 91
        0
 40
0.0
 10
0.0
 20
0.0
 30
2.000000000000000E+50
 75
     0
  0
DIMASSOC
  5
34E
102
{ACAD_REACTORS
330
34D
102
}
330
34D
100
AcDbDimAssoc
330
33E
 90
        1
 70
     0
 71
     0
  1
AcDbOsnapPointRef
 72
     1
331
239
 73
     0
 91
        0
 40
0.0
 10
0.0
 20
0.0
 30
2.000000000000000E+50
 75
     0
  0
DIMASSOC
  5
375
102
{ACAD_REACTORS
330
374
102
}
330
374
100
AcDbDimAssoc
330
365
 90
        2
 70
     0
 71
     0
  1
AcDbOsnapPointRef
 72
     1
331
239
 73
     0
 91
        0
 40
0.0
 10
0.0
 20
0.0
 30
2.000000000000000E+50
 75
     0
  0
DIMASSOC
  5
39C
102
{ACAD_REACTORS
330
39B
102
}
330
39B
100
AcDbDimAssoc
330
38C
 90
        1
 70
     0
 71
     0
  1
AcDbOsnapPointRef
 72
    13
331
241
 73
     0
 91
        0
 40
0.0
 10
0.0
 20
0.0
 30
2.000000000000000E+50
 75
     0
  0
DIMASSOC
  5
3D9
102
{ACAD_REACTORS
330
3D8
102
}
330
3D8
100
AcDbDimAssoc
330
3C9
 90
        2
 70
     0
 71
     0
  1
AcDbOsnapPointRef
 72
    13
331
221
 73
     0
 91
        0
 40
0.0
 10
0.0
 20
0.0
 30
2.000000000000000E+50
 75
     0
  0
DIMASSOC
  5
400
102
{ACAD_REACTORS
330
3FF
102
}
330
3FF
100
AcDbDimAssoc
330
3F0
 90
        2
 70
     0
 71
     0
  1
AcDbOsnapPointRef
 72
     1
331
229
 73
     0
 91
        0
 40
0.0
 10
0.0
 20
0.0
 30
2.000000000000000E+50
 75
     0
  0
DIMASSOC
  5
4B0
102
{ACAD_REACTORS
330
4AF
102
}
330
4AF
100
AcDbDimAssoc
330
49C
 90
       15
 70
     0
 71
     0
  1
AcDbOsnapPointRef
 72
    13
331
1E4
 73
     2
 91
        0
 40
0.0
 10
0.0
 20
0.0
 30
2.000000000000000E+50
 75
     0
  1
AcDbOsnapPointRef
 72
     1
331
1E4
 73
     2
 91
        0
 40
0.0
 10
0.0
 20
0.0
 30
2.000000000000000E+50
 75
     0
  1
AcDbOsnapPointRef
 72
    13
331
1E3
 73
     2
 91
        0
 40
0.0
 10
0.0
 20
0.0
 30
2.000000000000000E+50
 75
     0
  1
AcDbOsnapPointRef
 72
     1
331
1E3
 73
     2
 91
        0
 40
0.0
 10
0.0
 20
0.0
 30
2.000000000000000E+50
 75
     0
  0
DIMASSOC
  5
4E6
102
{ACAD_REACTORS
330
4E5
102
}
330
4E5
100
AcDbDimAssoc
330
4DC
 90
       15
 70
     0
 71
     0
  1
AcDbOsnapPointRef
 72
    13
331
1EC
 73
     2
 91
        0
 40
0.0
 10
0.0
 20
0.0
 30
2.000000000000000E+50
 75
     0
  1
AcDbOsnapPointRef
 72
     1
331
1EC
 73
     2
 91
        0
 40
0.0
 10
0.0
 20
0.0
 30
2.000000000000000E+50
 75
     0
  1
AcDbOsnapPointRef
 72
    13
331
1F8
 73
     2
 91
        0
 40
0.0
 10
0.0
 20
0.0
 30
2.000000000000000E+50
 75
     0
  1
AcDbOsnapPointRef
 72
     1
331
1F8
 73
     2
 91
        0
 40
0.0
 10
0.0
 20
0.0
 30
2.000000000000000E+50
 75
     0
  0
DIMASSOC
  5
506
102
{ACAD_REACTORS
330
505
102
}
330
505
100
AcDbDimAssoc
330
4F6
 90
        3
 70
     0
 71
     0
  1
AcDbOsnapPointRef
 72
    13
331
1EC
 73
     0
 91
        0
 40
0.0
 10
0.0
 20
0.0
 30
2.000000000000000E+50
 75
     0
  1
AcDbOsnapPointRef
 72
    13
331
1F8
 73
     0
 91
        0
 40
0.0
 10
0.0
 20
0.0
 30
2.000000000000000E+50
 75
     0
  0
ACDBDETAILVIEWSTYLE
  5
BE7
102
{ACAD_XDICTIONARY
360
E2C
102
}
102
{ACAD_REACTORS
330
BE6
330
C04
102
}
330
BE6
100
AcDbModelDocViewStyle
 70
     0
  3
Imperial24
290
     0
100
AcDbDetailViewStyle
 70
     0
 71
     0
 90
        3
 71
     1
340
C
 62
   256
 40
0.24
340
0
 62
   256
 40
0.24
300

 40
0.36
280
     3
 71
     2
340
5
 90
       25
 62
   256
 71
     3
340
C
 62
   256
 40
0.24
 90
        1
 40
0.75
 90
        1
300
%<\AcVar ViewType \f "%tc1">% %<\AcVar ViewDetailId>%\PVARIA %<\AcVar ViewScale \f "%sn">%
 71
     4
340
5
 90
       25
 62
   256
340
5
 90
       25
 62
   256
280
     0
  0
ACDBDETAILVIEWSTYLE
  5
C6B
102
{ACAD_XDICTIONARY
360
C6C
102
}
102
{ACAD_REACTORS
330
C99
330
CBA
330
CDB
330
BE6
330
CF4
102
}
330
BE6
100
AcDbModelDocViewStyle
 70
     0
  3

290
     0
100
AcDbDetailViewStyle
 70
     0
 71
     0
 90
        3
 71
     1
340
2DF
 62
     7
 40
5.0
340
C2C
 62
   256
 40
5.0
300

 40
0.0
280
     0
 71
     2
340
5
 90
       25
 62
   256
 71
     3
340
2DF
 62
     7
 40
5.0
 90
        0
 40
0.0
 90
        1
300
%<\AcVar ViewDetailId>% (%<\AcVar ViewScale \f "%sn">%)
 71
     4
340
5
 90
       25
 62
   256
340
5
 90
       25
 62
   256
280
     0
  0
ACDBDETAILVIEWSTYLE
  5
C6D
102
{ACAD_XDICTIONARY
360
C6E
102
}
102
{ACAD_REACTORS
330
CB6
330
CD8
330
C96
330
BE6
330
CF6
102
}
330
BE6
100
AcDbModelDocViewStyle
 70
     0
  3
Metric50
290
     0
100
AcDbDetailViewStyle
 70
     0
 71
     0
 90
        3
 71
     1
340
C
 62
   256
 40
5.0
340
0
 62
   256
 40
5.0
300

 40
0.0
280
     1
 71
     2
340
5
 90
       25
 62
   256
 71
     3
340
C
 62
   256
 40
5.0
 90
        0
 40
15.0
 90
        1
300
%<\AcVar ViewDetailId>% (%<\AcVar ViewScale \f "%sn">%)
 71
     4
340
5
 90
       25
 62
   256
340
5
 90
       25
 62
   256
280
     0
  0
LAYOUT
  5
75
102
{ACAD_REACTORS
330
42
102
}
330
42
100
AcDbPlotSettings
  1

  2
\\OASE42\HP DesignJet 500 42+HPGL2 Card
  4

  6

 40
0.0
 41
0.0
 42
0.0
 43
0.0
 44
0.0
 45
0.0
 46
0.0
 47
0.0
 48
0.0
 49
0.0
140
0.0
141
0.0
142
1.0
143
1.0
 70
   688
 72
     0
 73
     0
 74
     5
  7
monochrome.ctb
 75
    16
147
1.0
 76
     0
 77
     2
 78
   300
148
0.0
149
0.0
100
AcDbLayout
  1
Layout1
 70
     0
 71
     1
 10
0.0
 20
0.0
 11
12.0
 21
9.0
 12
0.0
 22
0.0
 32
0.0
 14
1.000000000000000E+20
 24
1.000000000000000E+20
 34
1.000000000000000E+20
 15
-1.000000000000000E+20
 25
-1.000000000000000E+20
 35
-1.000000000000000E+20
146
0.0
 13
0.0
 23
0.0
 33
0.0
 16
1.0
 26
0.0
 36
0.0
 17
0.0
 27
1.0
 37
0.0
 76
     0
330
7
  0
LAYOUT
  5
74
102
{ACAD_REACTORS
330
42
102
}
330
42
100
AcDbPlotSettings
  1

  2
none_device
  4
Letter_(8.50_x_11.00_Inches)
  6

 40
6.349999904632567
 41
6.349999904632567
 42
6.350006103515625
 43
6.350006103515625
 44
215.8999938964844
 45
279.3999938964844
 46
0.0
 47
0.0
 48
0.0
 49
0.0
140
0.0
141
0.0
142
1.0
143
74.83889350426633
 70
 11952
 72
     0
 73
     1
 74
     0
  7
monochrome.ctb
 75
     0
147
0.0133620361442542
 76
     0
 77
     2
 78
   300
148
4672.203453075814
149
-527.347655482442
100
AcDbLayout
  1
Model
 70
     1
 71
     0
 10
0.0
 20
0.0
 11
12.0
 21
9.0
 12
0.0
 22
0.0
 32
0.0
 14
0.0
 24
0.0
 34
0.0
 15
0.0
 25
0.0
 35
0.0
146
0.0
 13
0.0
 23
0.0
 33
0.0
 16
1.0
 26
0.0
 36
0.0
 17
0.0
 27
1.0
 37
0.0
 76
     0
330
2
331
EF
1001
ACAD_PSEXT
1000
Kein
1000
Kein
1000
Nicht anwendbar
1000
Das Layout wird erst geplottet, wenn ein neuer Plotter-Konfigurationsname ausgewählt wird.
1070
     0
  0
MATERIAL
  5
FF
102
{ACAD_XDICTIONARY
360
100
102
}
102
{ACAD_REACTORS
330
70
102
}
330
70
100
AcDbMaterial
  1
ByBlock
 72
     0
 43
0.0208333333333333
 43
0.0
 43
0.0
 43
0.0
 43
0.0
 43
0.0208333333333333
 43
0.0
 43
0.0
 43
0.0
 43
0.0
 43
1.0
 43
0.0
 43
0.0
 43
0.0
 43
0.0
 43
1.0
 77
     0
 47
0.0208333333333333
 47
0.0
 47
0.0
 47
0.0
 47
0.0
 47
0.0208333333333333
 47
0.0
 47
0.0
 47
0.0
 47
0.0
 47
1.0
 47
0.0
 47
0.0
 47
0.0
 47
0.0
 47
1.0
171
     0
 49
0.0208333333333333
 49
0.0
 49
0.0
 49
0.0
 49
0.0
 49
0.0208333333333333
 49
0.0
 49
0.0
 49
0.0
 49
0.0
 49
1.0
 49
0.0
 49
0.0
 49
0.0
 49
0.0
 49
1.0
175
     0
142
0.0208333333333333
142
0.0
142
0.0
142
0.0
142
0.0
142
0.0208333333333333
142
0.0
142
0.0
142
0.0
142
0.0
142
1.0
142
0.0
142
0.0
142
0.0
142
0.0
142
1.0
179
     0
144
0.0208333333333333
144
0.0
144
0.0
144
0.0
144
0.0
144
0.0208333333333333
144
0.0
144
0.0
144
0.0
144
0.0
144
1.0
144
0.0
144
0.0
144
0.0
144
0.0
144
1.0
147
0.0208333333333333
147
0.0
147
0.0
147
0.0
147
0.0
147
0.0208333333333333
147
0.0
147
0.0
147
0.0
147
0.0
147
1.0
147
0.0
147
0.0
147
0.0
147
0.0
147
1.0
  0
MATERIAL
  5
F7
102
{ACAD_XDICTIONARY
360
F8
102
}
102
{ACAD_REACTORS
330
70
102
}
330
70
100
AcDbMaterial
  1
ByLayer
 72
     0
 43
0.0208333333333333
 43
0.0
 43
0.0
 43
0.0
 43
0.0
 43
0.0208333333333333
 43
0.0
 43
0.0
 43
0.0
 43
0.0
 43
1.0
 43
0.0
 43
0.0
 43
0.0
 43
0.0
 43
1.0
 77
     0
 47
0.0208333333333333
 47
0.0
 47
0.0
 47
0.0
 47
0.0
 47
0.0208333333333333
 47
0.0
 47
0.0
 47
0.0
 47
0.0
 47
1.0
 47
0.0
 47
0.0
 47
0.0
 47
0.0
 47
1.0
171
     0
 49
0.0208333333333333
 49
0.0
 49
0.0
 49
0.0
 49
0.0
 49
0.0208333333333333
 49
0.0
 49
0.0
 49
0.0
 49
0.0
 49
1.0
 49
0.0
 49
0.0
 49
0.0
 49
0.0
 49
1.0
175
     0
142
0.0208333333333333
142
0.0
142
0.0
142
0.0
142
0.0
142
0.0208333333333333
142
0.0
142
0.0
142
0.0
142
0.0
142
1.0
142
0.0
142
0.0
142
0.0
142
0.0
142
1.0
179
     0
144
0.0208333333333333
144
0.0
144
0.0
144
0.0
144
0.0
144
0.0208333333333333
144
0.0
144
0.0
144
0.0
144
0.0
144
1.0
144
0.0
144
0.0
144
0.0
144
0.0
144
1.0
147
0.0208333333333333
147
0.0
147
0.0
147
0.0
147
0.0
147
0.0208333333333333
147
0.0
147
0.0
147
0.0
147
0.0
147
1.0
147
0.0
147
0.0
147
0.0
147
0.0
147
1.0
  0
MATERIAL
  5
107
102
{ACAD_XDICTIONARY
360
108
102
}
102
{ACAD_REACTORS
330
70
102
}
330
70
100
AcDbMaterial
  1
Global
 72
     0
 43
0.0208333333333333
 43
0.0
 43
0.0
 43
0.0
 43
0.0
 43
0.0208333333333333
 43
0.0
 43
0.0
 43
0.0
 43
0.0
 43
1.0
 43
0.0
 43
0.0
 43
0.0
 43
0.0
 43
1.0
 77
     0
 47
0.0208333333333333
 47
0.0
 47
0.0
 47
0.0
 47
0.0
 47
0.0208333333333333
 47
0.0
 47
0.0
 47
0.0
 47
0.0
 47
1.0
 47
0.0
 47
0.0
 47
0.0
 47
0.0
 47
1.0
171
     0
 49
0.0208333333333333
 49
0.0
 49
0.0
 49
0.0
 49
0.0
 49
0.0208333333333333
 49
0.0
 49
0.0
 49
0.0
 49
0.0
 49
1.0
 49
0.0
 49
0.0
 49
0.0
 49
0.0
 49
1.0
175
     0
142
0.0208333333333333
142
0.0
142
0.0
142
0.0
142
0.0
142
0.0208333333333333
142
0.0
142
0.0
142
0.0
142
0.0
142
1.0
142
0.0
142
0.0
142
0.0
142
0.0
142
1.0
179
     0
144
0.0208333333333333
144
0.0
144
0.0
144
0.0
144
0.0
144
0.0208333333333333
144
0.0
144
0.0
144
0.0
144
0.0
144
1.0
144
0.0
144
0.0
144
0.0
144
0.0
144
1.0
147
0.0208333333333333
147
0.0
147
0.0
147
0.0
147
0.0
147
0.0208333333333333
147
0.0
147
0.0
147
0.0
147
0.0
147
1.0
147
0.0
147
0.0
147
0.0
147
0.0
147
1.0
  0
MLEADERSTYLE
  5
143
102
{ACAD_REACTORS
330
142
102
}
330
142
100
AcDbMLeaderStyle
179
     2
170
     2
171
     1
172
     0
 90
        2
 40
0.0
 41
0.0
173
     1
 91
-1056964608
340
E
 92
       -2
290
     1
 42
0.09
291
     1
 43
0.36
  3
Standard
 44
0.18
300

342
C
174
     1
178
     6
175
     1
176
     0
 93
-1056964608
 45
0.18
292
     0
297
     0
 46
0.18
 94
-1056964608
 47
1.0
 49
1.0
140
1.0
293
     1
141
0.0
294
     1
177
     0
142
1.0
295
     0
296
     0
143
0.125
271
     0
272
     9
273
     9
298
     0
  0
MLINESTYLE
  5
1C
102
{ACAD_REACTORS
330
19
102
}
330
19
100
AcDbMlineStyle
  2
STANDARD
 70
     0
  3

 62
   256
 51
90.0
 52
90.0
 71
     2
 49
0.5
 62
   256
  6
BYLAYER
 49
-0.5
 62
   256
  6
BYLAYER
  0
ACDBPLACEHOLDER
  5
41
102
{ACAD_REACTORS
330
40
102
}
330
40
  0
SCALE
  5
121
102
{ACAD_REACTORS
330
120
102
}
330
120
100
AcDbScale
 70
     0
300
1:1
140
1.0
141
1.0
290
     1
  0
SCALE
  5
122
102
{ACAD_REACTORS
330
120
102
}
330
120
100
AcDbScale
 70
     0
300
1:2
140
1.0
141
2.0
290
     0
  0
SCALE
  5
123
102
{ACAD_REACTORS
330
120
102
}
330
120
100
AcDbScale
 70
     0
300
1:4
140
1.0
141
4.0
290
     0
  0
SCALE
  5
124
102
{ACAD_REACTORS
330
120
102
}
330
120
100
AcDbScale
 70
     0
300
1:5
140
1.0
141
5.0
290
     0
  0
SCALE
  5
125
102
{ACAD_REACTORS
330
120
102
}
330
120
100
AcDbScale
 70
     0
300
1:8
140
1.0
141
8.0
290
     0
  0
SCALE
  5
126
102
{ACAD_REACTORS
330
120
102
}
330
120
100
AcDbScale
 70
     0
300
1:10
140
1.0
141
10.0
290
     0
  0
SCALE
  5
127
102
{ACAD_REACTORS
330
120
102
}
330
120
100
AcDbScale
 70
     0
300
1:16
140
1.0
141
16.0
290
     0
  0
SCALE
  5
128
102
{ACAD_REACTORS
330
120
102
}
330
120
100
AcDbScale
 70
     0
300
1:20
140
1.0
141
20.0
290
     0
  0
SCALE
  5
129
102
{ACAD_REACTORS
330
120
102
}
330
120
100
AcDbScale
 70
     0
300
1:30
140
1.0
141
30.0
290
     0
  0
SCALE
  5
12A
102
{ACAD_REACTORS
330
120
102
}
330
120
100
AcDbScale
 70
     0
300
1:40
140
1.0
141
40.0
290
     0
  0
SCALE
  5
12B
102
{ACAD_REACTORS
330
120
102
}
330
120
100
AcDbScale
 70
     0
300
1:50
140
1.0
141
50.0
290
     0
  0
SCALE
  5
12C
102
{ACAD_REACTORS
330
120
102
}
330
120
100
AcDbScale
 70
     0
300
1:100
140
1.0
141
100.0
290
     0
  0
SCALE
  5
12D
102
{ACAD_REACTORS
330
120
102
}
330
120
100
AcDbScale
 70
     0
300
2:1
140
2.0
141
1.0
290
     0
  0
SCALE
  5
12E
102
{ACAD_REACTORS
330
120
102
}
330
120
100
AcDbScale
 70
     0
300
4:1
140
4.0
141
1.0
290
     0
  0
SCALE
  5
12F
102
{ACAD_REACTORS
330
120
102
}
330
120
100
AcDbScale
 70
     0
300
8:1
140
8.0
141
1.0
290
     0
  0
SCALE
  5
130
102
{ACAD_REACTORS
330
120
102
}
330
120
100
AcDbScale
 70
     0
300
10:1
140
10.0
141
1.0
290
     0
  0
SCALE
  5
131
102
{ACAD_REACTORS
330
120
102
}
330
120
100
AcDbScale
 70
     0
300
100:1
140
100.0
141
1.0
290
     0
  0
SCALE
  5
132
102
{ACAD_REACTORS
330
120
102
}
330
120
100
AcDbScale
 70
     0
300
1/128" = 1'-0"
140
0.0078125
141
12.0
290
     0
  0
SCALE
  5
133
102
{ACAD_REACTORS
330
120
102
}
330
120
100
AcDbScale
 70
     0
300
1/64" = 1'-0"
140
0.015625
141
12.0
290
     0
  0
SCALE
  5
134
102
{ACAD_REACTORS
330
120
102
}
330
120
100
AcDbScale
 70
     0
300
1/32" = 1'-0"
140
0.03125
141
12.0
290
     0
  0
SCALE
  5
135
102
{ACAD_REACTORS
330
120
102
}
330
120
100
AcDbScale
 70
     0
300
1/16" = 1'-0"
140
0.0625
141
12.0
290
     0
  0
SCALE
  5
136
102
{ACAD_REACTORS
330
120
102
}
330
120
100
AcDbScale
 70
     0
300
3/32" = 1'-0"
140
0.09375
141
12.0
290
     0
  0
SCALE
  5
137
102
{ACAD_REACTORS
330
120
102
}
330
120
100
AcDbScale
 70
     0
300
1/8" = 1'-0"
140
0.125
141
12.0
290
     0
  0
SCALE
  5
138
102
{ACAD_REACTORS
330
120
102
}
330
120
100
AcDbScale
 70
     0
300
3/16" = 1'-0"
140
0.1875
141
12.0
290
     0
  0
SCALE
  5
139
102
{ACAD_REACTORS
330
120
102
}
330
120
100
AcDbScale
 70
     0
300
1/4" = 1'-0"
140
0.25
141
12.0
290
     0
  0
SCALE
  5
13A
102
{ACAD_REACTORS
330
120
102
}
330
120
100
AcDbScale
 70
     0
300
3/8" = 1'-0"
140
0.375
141
12.0
290
     0
  0
SCALE
  5
13B
102
{ACAD_REACTORS
330
120
102
}
330
120
100
AcDbScale
 70
     0
300
1/2" = 1'-0"
140
0.5
141
12.0
290
     0
  0
SCALE
  5
13C
102
{ACAD_REACTORS
330
120
102
}
330
120
100
AcDbScale
 70
     0
300
3/4" = 1'-0"
140
0.75
141
12.0
290
     0
  0
SCALE
  5
13D
102
{ACAD_REACTORS
330
120
102
}
330
120
100
AcDbScale
 70
     0
300
1" = 1'-0"
140
1.0
141
12.0
290
     0
  0
SCALE
  5
13E
102
{ACAD_REACTORS
330
120
102
}
330
120
100
AcDbScale
 70
     0
300
1-1/2" = 1'-0"
140
1.5
141
12.0
290
     0
  0
SCALE
  5
13F
102
{ACAD_REACTORS
330
120
102
}
330
120
100
AcDbScale
 70
     0
300
3" = 1'-0"
140
3.0
141
12.0
290
     0
  0
SCALE
  5
140
102
{ACAD_REACTORS
330
120
102
}
330
120
100
AcDbScale
 70
     0
300
6" = 1'-0"
140
6.0
141
12.0
290
     0
  0
SCALE
  5
141
102
{ACAD_REACTORS
330
120
102
}
330
120
100
AcDbScale
 70
     0
300
1'-0" = 1'-0"
140
12.0
141
12.0
290
     0
  0
ACDBSECTIONVIEWSTYLE
  5
BE5
102
{ACAD_XDICTIONARY
360
E2A
102
}
102
{ACAD_REACTORS
330
BE4
330
C03
102
}
330
BE4
100
AcDbModelDocViewStyle
 70
     0
  3
Imperial24
290
     0
100
AcDbSectionViewStyle
 70
     0
 71
     0
 90
       78
 71
     1
340
C
 62
   256
 40
0.24
340
0
340
0
 62
   256
 40
0.24
300
I, O, Q, S, X, Z
 40
0.48
 90
        3
 40
0.18
 90
        1
 71
     2
340
5
 90
       25
 62
   256
340
5
 90
       50
 62
   256
 40
0.24
 40
0.0
 40
0.24
 71
     3
340
C
 62
   256
 40
0.24
 90
        1
 40
0.75
 90
        1
300
%<\AcVar ViewType \f "%tc1">% %<\AcVar ViewSectionStartId>%-%<\AcVar ViewSectionEndId>%\PVARIA %<\AcVar ViewScale \f "%sn">%
 71
     4
 62
   256
 62
   257
300
ANSI31
 40
1.0
 90
        0
290
     0
290
     0
 90
        6
 40
0.0
 40
1.570796326794896
 40
0.2617993877991494
 40
1.308996938995747
 40
-0.2617993877991494
 40
1.832595714594046
  0
ACDBSECTIONVIEWSTYLE
  5
C57
102
{ACAD_XDICTIONARY
360
C58
102
}
102
{ACAD_REACTORS
330
C9E
330
CBF
330
CEE
330
BE4
330
CF3
102
}
330
BE4
100
AcDbModelDocViewStyle
 70
     0
  3

290
     0
100
AcDbSectionViewStyle
 70
     0
 71
     0
 90
      102
 71
     1
340
2DF
 62
     7
 40
5.0
340
C2C
340
C2C
 62
     7
 40
5.0
300
I,O,Q,S,X,Z
 40
10.0
 90
        0
 40
2.5
 90
        0
 71
     2
340
29E
 90
       -1
 62
   256
340
29E
 90
       -1
 62
     7
 40
10.0
 40
5.0
 40
10.0
 71
     3
340
2DF
 62
     7
 40
5.0
 90
        0
 40
5.25
 90
        1
300
%<\AcVar ViewSectionStartId>%-%<\AcVar ViewSectionEndId>%
 71
     4
 62
   256
 62
   257
300
ANSI31
 40
1.0
 90
        0
290
     0
290
     0
 90
        6
 40
0.0
 40
1.570796326794896
 40
0.2617993877991494
 40
1.308996938995747
 40
-0.2617993877991494
 40
1.832595714594046
  0
ACDBSECTIONVIEWSTYLE
  5
C5D
102
{ACAD_XDICTIONARY
360
C5E
102
}
102
{ACAD_REACTORS
330
CBB
330
CEB
330
C9B
330
BE4
330
CF5
102
}
330
BE4
100
AcDbModelDocViewStyle
 70
     0
  3
Metric50
290
     0
100
AcDbSectionViewStyle
 70
     0
 71
     0
 90
      102
 71
     1
340
C
 62
   256
 40
5.0
340
0
340
0
 62
   256
 40
5.0
300
I, O, Q, S, X, Z
 40
10.0
 90
        0
 40
2.5
 90
        0
 71
     2
340
5
 90
       25
 62
   256
340
5
 90
       50
 62
   256
 40
5.0
 40
2.5
 40
5.0
 71
     3
340
C
 62
   256
 40
5.0
 90
        0
 40
15.0
 90
        1
300
%<\AcVar ViewSectionStartId>%-%<\AcVar ViewSectionEndId>% (%<\AcVar ViewScale \f "%sn">%)
 71
     4
 62
   256
 62
   257
300
ANSI31
 40
1.0
 90
        0
290
     0
290
     0
 90
        6
 40
0.0
 40
1.570796326794896
 40
0.2617993877991494
 40
1.308996938995747
 40
-0.2617993877991494
 40
1.832595714594046
  0
TABLESTYLE
  5
73
102
{ACAD_XDICTIONARY
360
770
102
}
102
{ACAD_REACTORS
330
72
102
}
330
72
100
AcDbTableStyle
280
     0
  3
Standard
 70
     0
 71
     0
 40
0.06
 41
0.06
280
     0
281
     0
  7
STANDARD
140
0.18
170
     2
 62
     0
 63
     7
283
     0
 90
        4
 91
        0
  1

274
    -2
284
     1
 64
     0
275
    -2
285
     1
 65
     0
276
    -2
286
     1
 66
     0
277
    -2
287
     1
 67
     0
278
    -2
288
     1
 68
     0
279
    -2
289
     1
 69
     0
  7
STANDARD
140
0.25
170
     5
 62
     0
 63
     7
283
     0
 90
        4
 91
        0
  1

274
    -2
284
     1
 64
     0
275
    -2
285
     1
 65
     0
276
    -2
286
     1
 66
     0
277
    -2
287
     1
 67
     0
278
    -2
288
     1
 68
     0
279
    -2
289
     1
 69
     0
  7
STANDARD
140
0.18
170
     5
 62
     0
 63
     7
283
     0
 90
        4
 91
        0
  1

274
    -2
284
     1
 64
     0
275
    -2
285
     1
 65
     0
276
    -2
286
     1
 66
     0
277
    -2
287
     1
 67
     0
278
    -2
288
     1
 68
     0
279
    -2
289
     1
 69
     0
  0
VISUALSTYLE
  5
115
102
{ACAD_REACTORS
330
10F
102
}
330
10F
100
AcDbVisualStyle
  2
2dWireframe
 70
     4
177
     3
291
     0
 70
    58
 90
        0
176
     1
 90
        2
176
     1
 90
        0
176
     1
 90
        0
176
     1
 40
0.6
176
     1
 40
30.0
176
     1
 62
     7
420
 16777215
176
     1
 90
        1
176
     1
 90
        4
176
     1
 62
     7
176
     1
 62
   257
176
     1
 90
        1
176
     1
 90
        1
176
     1
 40
1.0
176
     1
 90
        0
176
     1
 62
   257
176
     1
 40
1.0
176
     1
 90
        1
176
     1
 90
        6
176
     1
 90
        2
176
     1
 62
     7
176
     1
 90
        5
176
     1
 90
        0
176
     1
 90
        0
176
     1
290
     0
176
     1
 90
        1
176
     1
 40
0.0
176
     1
 90
        0
176
     1
290
     1
176
     1
290
     1
176
     1
290
     0
176
     1
290
     0
176
     1
290
     0
176
     1
290
     0
176
     1
290
     0
176
     1
290
     0
176
     1
290
     0
176
     1
 90
       50
176
     1
 40
0.0
176
     1
 40
1.0
176
     1
 90
        0
176
     1
 62
    18
420
        0
176
     1
 90
       50
176
     1
 90
        3
176
     1
 62
     5
420
      255
176
     1
290
     0
176
     1
 90
       50
176
     1
 90
       50
176
     1
 90
       50
176
     1
290
     0
176
     1
 90
       50
176
     1
 62
   256
176
     0
 40
1.0
176
     0
 90
        2
176
     1
  1
strokes_ogs.tif
176
     1
290
     0
176
     1
 40
1.0
176
     1
 40
1.0
176
     1
1001
ACAD
1000
AcDbSavedByObjectVersion
1070
     0
1000
AcDbSavedByObjectVersion
1070
     0
1000
AcDbSavedByObjectVersion
1070
     0
  0
VISUALSTYLE
  5
117
102
{ACAD_REACTORS
330
10F
102
}
330
10F
100
AcDbVisualStyle
  2
3D Hidden
 70
     6
177
     3
291
     0
 70
    58
 90
        1
176
     1
 90
        2
176
     1
 90
        2
176
     1
 90
        0
176
     1
 40
0.6
176
     1
 40
30.0
176
     1
 62
     7
420
 16777215
176
     1
 90
        2
176
     1
 90
        2
176
     1
 62
     7
176
     1
 62
   257
176
     1
 90
        2
176
     1
 90
        1
176
     1
 40
40.0
176
     1
 90
        0
176
     1
 62
   257
176
     1
 40
1.0
176
     1
 90
        1
176
     1
 90
        6
176
     1
 90
        2
176
     1
 62
     7
176
     1
 90
        3
176
     1
 90
        0
176
     1
 90
        0
176
     1
290
     0
176
     1
 90
        1
176
     1
 40
0.0
176
     1
 90
        0
176
     1
290
     0
176
     1
290
     1
176
     1
290
     1
176
     1
290
     0
176
     1
290
     0
176
     1
290
     0
176
     1
290
     0
176
     1
290
     0
176
     1
290
     0
176
     1
 90
       50
176
     1
 40
0.0
176
     1
 40
1.0
176
     1
 90
        0
176
     1
 62
    18
420
        0
176
     1
 90
       50
176
     1
 90
        3
176
     1
 62
     5
420
      255
176
     1
290
     0
176
     1
 90
       50
176
     1
 90
       50
176
     1
 90
       50
176
     1
290
     0
176
     1
 90
       50
176
     1
 62
   256
176
     0
 40
1.0
176
     0
 90
        2
176
     1
  1
strokes_ogs.tif
176
     1
290
     0
176
     1
 40
1.0
176
     1
 40
1.0
176
     1
1001
ACAD
1000
AcDbSavedByObjectVersion
1070
     0
1000
AcDbSavedByObjectVersion
1070
     0
1000
AcDbSavedByObjectVersion
1070
     0
  0
VISUALSTYLE
  5
116
102
{ACAD_REACTORS
330
10F
102
}
330
10F
100
AcDbVisualStyle
  2
3dWireframe
 70
     5
177
     3
291
     0
 70
    58
 90
        0
176
     1
 90
        2
176
     1
 90
        0
176
     1
 90
        0
176
     1
 40
0.6
176
     1
 40
30.0
176
     1
 62
     7
420
 16777215
176
     1
 90
        1
176
     1
 90
        4
176
     1
 62
     7
176
     1
 62
   257
176
     1
 90
        1
176
     1
 90
        1
176
     1
 40
1.0
176
     1
 90
        0
176
     1
 62
   257
176
     1
 40
1.0
176
     1
 90
        1
176
     1
 90
        6
176
     1
 90
        2
176
     1
 62
     7
176
     1
 90
        5
176
     1
 90
        0
176
     1
 90
        0
176
     1
290
     0
176
     1
 90
        1
176
     1
 40
0.0
176
     1
 90
        0
176
     1
290
     0
176
     1
290
     1
176
     1
290
     1
176
     1
290
     0
176
     1
290
     0
176
     1
290
     0
176
     1
290
     0
176
     1
290
     0
176
     1
290
     0
176
     1
 90
       50
176
     1
 40
0.0
176
     1
 40
1.0
176
     1
 90
        0
176
     1
 62
    18
420
        0
176
     1
 90
       50
176
     1
 90
        3
176
     1
 62
     5
420
      255
176
     1
290
     0
176
     1
 90
       50
176
     1
 90
       50
176
     1
 90
       50
176
     1
290
     0
176
     1
 90
       50
176
     1
 62
   256
176
     0
 40
1.0
176
     0
 90
        2
176
     1
  1
strokes_ogs.tif
176
     1
290
     0
176
     1
 40
1.0
176
     1
 40
1.0
176
     1
1001
ACAD
1000
AcDbSavedByObjectVersion
1070
     0
1000
AcDbSavedByObjectVersion
1070
     0
1000
AcDbSavedByObjectVersion
1070
     0
  0
VISUALSTYLE
  5
114
102
{ACAD_REACTORS
330
10F
102
}
330
10F
100
AcDbVisualStyle
  2
Basic
 70
     7
177
     3
291
     1
 70
    58
 90
        1
176
     1
 90
        0
176
     1
 90
        1
176
     1
 90
        0
176
     1
 40
0.6
176
     1
 40
30.0
176
     1
 62
     7
420
 16777215
176
     1
 90
        0
176
     1
 90
        4
176
     1
 62
     7
176
     1
 62
   257
176
     1
 90
        1
176
     1
 90
        1
176
     1
 40
1.0
176
     1
 90
        8
176
     1
 62
     7
176
     1
 40
1.0
176
     1
 90
        1
176
     1
 90
        6
176
     1
 90
        2
176
     1
 62
     7
176
     1
 90
        5
176
     1
 90
        0
176
     1
 90
        0
176
     1
290
     0
176
     1
 90
        1
176
     1
 40
0.0
176
     1
 90
        0
176
     1
290
     0
176
     1
290
     1
176
     1
290
     1
176
     1
290
     0
176
     1
290
     0
176
     1
290
     0
176
     1
290
     0
176
     1
290
     0
176
     1
290
     0
176
     1
 90
       50
176
     1
 40
0.0
176
     1
 40
1.0
176
     1
 90
        0
176
     1
 62
    18
420
        0
176
     1
 90
       50
176
     1
 90
        3
176
     1
 62
     5
420
      255
176
     1
290
     0
176
     1
 90
       50
176
     1
 90
       50
176
     1
 90
       50
176
     1
290
     0
176
     1
 90
       50
176
     1
 62
   256
176
     0
 40
1.0
176
     0
 90
        2
176
     1
  1
strokes_ogs.tif
176
     1
290
     0
176
     1
 40
1.0
176
     1
 40
1.0
176
     1
1001
ACAD
1000
AcDbSavedByObjectVersion
1070
     0
1000
AcDbSavedByObjectVersion
1070
     0
1000
AcDbSavedByObjectVersion
1070
     0
  0
VISUALSTYLE
  5
11B
102
{ACAD_REACTORS
330
10F
102
}
330
10F
100
AcDbVisualStyle
  2
Brighten
 70
    12
177
     3
291
     1
 70
    58
 90
        2
176
     1
 90
        2
176
     1
 90
        0
176
     1
 90
        0
176
     1
 40
0.6
176
     1
 40
30.0
176
     1
 62
     7
420
 16777215
176
     1
 90
        1
176
     1
 90
        4
176
     1
 62
     7
176
     1
 62
   257
176
     1
 90
        1
176
     1
 90
        1
176
     1
 40
1.0
176
     1
 90
        8
176
     1
 62
     7
176
     1
 40
1.0
176
     1
 90
        1
176
     1
 90
        6
176
     1
 90
        2
176
     1
 62
     7
176
     1
 90
        5
176
     1
 90
        0
176
     1
 90
        0
176
     1
290
     0
176
     1
 90
        1
176
     1
 40
50.0
176
     1
 90
        0
176
     1
290
     0
176
     1
290
     1
176
     1
290
     1
176
     1
290
     0
176
     1
290
     0
176
     1
290
     0
176
     1
290
     0
176
     1
290
     0
176
     1
290
     0
176
     1
 90
       50
176
     1
 40
0.0
176
     1
 40
1.0
176
     1
 90
        0
176
     1
 62
    18
420
        0
176
     1
 90
       50
176
     1
 90
        3
176
     1
 62
     5
420
      255
176
     1
290
     0
176
     1
 90
       50
176
     1
 90
       50
176
     1
 90
       50
176
     1
290
     0
176
     1
 90
       50
176
     1
 62
   256
176
     0
 40
1.0
176
     0
 90
        2
176
     1
  1
strokes_ogs.tif
176
     1
290
     0
176
     1
 40
1.0
176
     1
 40
1.0
176
     1
1001
ACAD
1000
AcDbSavedByObjectVersion
1070
     0
1000
AcDbSavedByObjectVersion
1070
     0
1000
AcDbSavedByObjectVersion
1070
     0
  0
VISUALSTYLE
  5
11F
102
{ACAD_REACTORS
330
10F
102
}
330
10F
100
AcDbVisualStyle
  2
ColorChange
 70
    16
177
     3
291
     1
 70
    58
 90
        2
176
     1
 90
        2
176
     1
 90
        3
176
     1
 90
        0
176
     1
 40
0.6
176
     1
 40
30.0
176
     1
 62
     8
420
  8421504
176
     1
 90
        1
176
     1
 90
        4
176
     1
 62
     7
176
     1
 62
   257
176
     1
 90
        1
176
     1
 90
        1
176
     1
 40
1.0
176
     1
 90
        8
176
     1
 62
     8
420
  8421504
176
     1
 40
1.0
176
     1
 90
        1
176
     1
 90
        6
176
     1
 90
        2
176
     1
 62
     7
176
     1
 90
        5
176
     1
 90
        0
176
     1
 90
        0
176
     1
290
     0
176
     1
 90
        1
176
     1
 40
0.0
176
     1
 90
        0
176
     1
290
     0
176
     1
290
     1
176
     1
290
     1
176
     1
290
     0
176
     1
290
     0
176
     1
290
     0
176
     1
290
     0
176
     1
290
     0
176
     1
290
     0
176
     1
 90
       50
176
     1
 40
0.0
176
     1
 40
1.0
176
     1
 90
        0
176
     1
 62
    18
420
        0
176
     1
 90
       50
176
     1
 90
        3
176
     1
 62
     5
420
      255
176
     1
290
     0
176
     1
 90
       50
176
     1
 90
       50
176
     1
 90
       50
176
     1
290
     0
176
     1
 90
       50
176
     1
 62
   256
176
     0
 40
1.0
176
     0
 90
        2
176
     1
  1
strokes_ogs.tif
176
     1
290
     0
176
     1
 40
1.0
176
     1
 40
1.0
176
     1
1001
ACAD
1000
AcDbSavedByObjectVersion
1070
     0
1000
AcDbSavedByObjectVersion
1070
     0
1000
AcDbSavedByObjectVersion
1070
     0
  0
VISUALSTYLE
  5
118
102
{ACAD_REACTORS
330
10F
102
}
330
10F
100
AcDbVisualStyle
  2
Conceptual
 70
     9
177
     3
291
     0
 70
    58
 90
        3
176
     1
 90
        2
176
     1
 90
        0
176
     1
 90
        0
176
     1
 40
0.6
176
     1
 40
30.0
176
     1
 62
     7
420
 16777215
176
     1
 90
        2
176
     1
 90
        2
176
     1
 62
     7
176
     1
 62
   257
176
     1
 90
        1
176
     1
 90
        1
176
     1
 40
40.0
176
     1
 90
        8
176
     1
 62
     7
176
     1
 40
1.0
176
     1
 90
        1
176
     1
 90
        6
176
     1
 90
        2
176
     1
 62
     7
176
     1
 90
        3
176
     1
 90
        0
176
     1
 90
        0
176
     1
290
     0
176
     1
 90
        1
176
     1
 40
0.0
176
     1
 90
        0
176
     1
290
     0
176
     1
290
     1
176
     1
290
     1
176
     1
290
     0
176
     1
290
     0
176
     1
290
     0
176
     1
290
     0
176
     1
290
     0
176
     1
290
     0
176
     1
 90
       50
176
     1
 40
0.0
176
     1
 40
1.0
176
     1
 90
        0
176
     1
 62
    18
420
        0
176
     1
 90
       50
176
     1
 90
        3
176
     1
 62
     5
420
      255
176
     1
290
     0
176
     1
 90
       50
176
     1
 90
       50
176
     1
 90
       50
176
     1
290
     0
176
     1
 90
       50
176
     1
 62
   256
176
     0
 40
1.0
176
     0
 90
        2
176
     1
  1
strokes_ogs.tif
176
     1
290
     0
176
     1
 40
1.0
176
     1
 40
1.0
176
     1
1001
ACAD
1000
AcDbSavedByObjectVersion
1070
     0
1000
AcDbSavedByObjectVersion
1070
     0
1000
AcDbSavedByObjectVersion
1070
     0
  0
VISUALSTYLE
  5
11A
102
{ACAD_REACTORS
330
10F
102
}
330
10F
100
AcDbVisualStyle
  2
Dim
 70
    11
177
     3
291
     1
 70
    58
 90
        2
176
     1
 90
        2
176
     1
 90
        0
176
     1
 90
        0
176
     1
 40
0.6
176
     1
 40
30.0
176
     1
 62
     7
420
 16777215
176
     1
 90
        1
176
     1
 90
        4
176
     1
 62
     7
176
     1
 62
   257
176
     1
 90
        1
176
     1
 90
        1
176
     1
 40
1.0
176
     1
 90
        8
176
     1
 62
     7
176
     1
 40
1.0
176
     1
 90
        1
176
     1
 90
        6
176
     1
 90
        2
176
     1
 62
     7
176
     1
 90
        5
176
     1
 90
        0
176
     1
 90
        0
176
     1
290
     0
176
     1
 90
        1
176
     1
 40
-50.0
176
     1
 90
        0
176
     1
290
     0
176
     1
290
     1
176
     1
290
     1
176
     1
290
     0
176
     1
290
     0
176
     1
290
     0
176
     1
290
     0
176
     1
290
     0
176
     1
290
     0
176
     1
 90
       50
176
     1
 40
0.0
176
     1
 40
1.0
176
     1
 90
        0
176
     1
 62
    18
420
        0
176
     1
 90
       50
176
     1
 90
        3
176
     1
 62
     5
420
      255
176
     1
290
     0
176
     1
 90
       50
176
     1
 90
       50
176
     1
 90
       50
176
     1
290
     0
176
     1
 90
       50
176
     1
 62
   256
176
     0
 40
1.0
176
     0
 90
        2
176
     1
  1
strokes_ogs.tif
176
     1
290
     0
176
     1
 40
1.0
176
     1
 40
1.0
176
     1
1001
ACAD
1000
AcDbSavedByObjectVersion
1070
     0
1000
AcDbSavedByObjectVersion
1070
     0
1000
AcDbSavedByObjectVersion
1070
     0
  0
VISUALSTYLE
  5
BE3
102
{ACAD_REACTORS
330
10F
102
}
330
10F
100
AcDbVisualStyle
  2
EdgeColorOff
 70
    22
177
     3
291
     1
 70
    58
 90
        2
176
     0
 90
        2
176
     0
 90
        0
176
     0
 90
        0
176
     0
 40
0.6
176
     0
 40
30.0
176
     0
 62
     7
420
 16777215
176
     0
 90
        1
176
     0
 90
        4
176
     0
 62
     7
176
     0
 62
   257
176
     0
 90
        1
176
     0
 90
        1
176
     0
 40
1.0
176
     0
 90
        8
176
     2
 62
     7
176
     0
 40
1.0
176
     0
 90
        1
176
     0
 90
        6
176
     0
 90
        2
176
     0
 62
     7
176
     0
 90
        5
176
     0
 90
        0
176
     0
 90
        0
176
     0
290
     0
176
     0
 90
        1
176
     0
 40
0.0
176
     0
 90
        0
176
     0
290
     0
176
     0
290
     1
176
     0
290
     1
176
     0
290
     0
176
     0
290
     0
176
     0
290
     0
176
     0
290
     0
176
     0
290
     0
176
     0
290
     0
176
     0
 90
       50
176
     0
 40
0.0
176
     0
 40
1.0
176
     0
 90
        0
176
     0
 62
    18
420
        0
176
     0
 90
       50
176
     0
 90
        3
176
     0
 62
     5
420
      255
176
     0
290
     0
176
     0
 90
       50
176
     0
 90
       50
176
     0
 90
       50
176
     0
290
     0
176
     0
 90
       50
176
     0
 62
   256
176
     0
 40
1.0
176
     0
 90
        2
176
     0
  1
strokes_ogs.tif
176
     0
290
     0
176
     0
 40
1.0
176
     0
 40
1.0
176
     0
  0
VISUALSTYLE
  5
11E
102
{ACAD_REACTORS
330
10F
102
}
330
10F
100
AcDbVisualStyle
  2
Facepattern
 70
    15
177
     3
291
     1
 70
    58
 90
        2
176
     1
 90
        2
176
     1
 90
        0
176
     1
 90
        0
176
     1
 40
0.6
176
     1
 40
30.0
176
     1
 62
     7
420
 16777215
176
     1
 90
        1
176
     1
 90
        4
176
     1
 62
     7
176
     1
 62
   257
176
     1
 90
        1
176
     1
 90
        1
176
     1
 40
1.0
176
     1
 90
        8
176
     1
 62
     7
176
     1
 40
1.0
176
     1
 90
        1
176
     1
 90
        6
176
     1
 90
        2
176
     1
 62
     7
176
     1
 90
        5
176
     1
 90
        0
176
     1
 90
        0
176
     1
290
     0
176
     1
 90
        1
176
     1
 40
0.0
176
     1
 90
        0
176
     1
290
     0
176
     1
290
     1
176
     1
290
     1
176
     1
290
     0
176
     1
290
     0
176
     1
290
     0
176
     1
290
     0
176
     1
290
     0
176
     1
290
     0
176
     1
 90
       50
176
     1
 40
0.0
176
     1
 40
1.0
176
     1
 90
        0
176
     1
 62
    18
420
        0
176
     1
 90
       50
176
     1
 90
        3
176
     1
 62
     5
420
      255
176
     1
290
     0
176
     1
 90
       50
176
     1
 90
       50
176
     1
 90
       50
176
     1
290
     0
176
     1
 90
       50
176
     1
 62
   256
176
     0
 40
1.0
176
     0
 90
        2
176
     1
  1
strokes_ogs.tif
176
     1
290
     0
176
     1
 40
1.0
176
     1
 40
1.0
176
     1
1001
ACAD
1000
AcDbSavedByObjectVersion
1070
     0
1000
AcDbSavedByObjectVersion
1070
     0
1000
AcDbSavedByObjectVersion
1070
     0
  0
VISUALSTYLE
  5
110
102
{ACAD_REACTORS
330
10F
102
}
330
10F
100
AcDbVisualStyle
  2
Flat
 70
     0
177
     3
291
     1
 70
    58
 90
        2
176
     1
 90
        1
176
     1
 90
        1
176
     1
 90
        2
176
     1
 40
0.6
176
     1
 40
30.0
176
     1
 62
     7
420
 16777215
176
     1
 90
        0
176
     1
 90
        4
176
     1
 62
     7
176
     1
 62
   257
176
     1
 90
        1
176
     1
 90
        1
176
     1
 40
1.0
176
     1
 90
        8
176
     1
 62
     7
176
     1
 40
1.0
176
     1
 90
        1
176
     1
 90
        6
176
     1
 90
        2
176
     1
 62
     7
176
     1
 90
        5
176
     1
 90
        0
176
     1
 90
        0
176
     1
290
     0
176
     1
 90
       13
176
     1
 40
0.0
176
     1
 90
        0
176
     1
290
     0
176
     1
290
     1
176
     1
290
     1
176
     1
290
     0
176
     1
290
     0
176
     1
290
     0
176
     1
290
     0
176
     1
290
     0
176
     1
290
     0
176
     1
 90
       50
176
     1
 40
0.0
176
     1
 40
1.0
176
     1
 90
        0
176
     1
 62
    18
420
        0
176
     1
 90
       50
176
     1
 90
        3
176
     1
 62
     5
420
      255
176
     1
290
     0
176
     1
 90
       50
176
     1
 90
       50
176
     1
 90
       50
176
     1
290
     0
176
     1
 90
       50
176
     1
 62
   256
176
     0
 40
1.0
176
     0
 90
        2
176
     1
  1
strokes_ogs.tif
176
     1
290
     0
176
     1
 40
1.0
176
     1
 40
1.0
176
     1
1001
ACAD
1000
AcDbSavedByObjectVersion
1070
     0
1000
AcDbSavedByObjectVersion
1070
     0
1000
AcDbSavedByObjectVersion
1070
     0
  0
VISUALSTYLE
  5
111
102
{ACAD_REACTORS
330
10F
102
}
330
10F
100
AcDbVisualStyle
  2
FlatWithEdges
 70
     1
177
     3
291
     1
 70
    58
 90
        2
176
     1
 90
        1
176
     1
 90
        1
176
     1
 90
        2
176
     1
 40
0.6
176
     1
 40
30.0
176
     1
 62
     7
420
 16777215
176
     1
 90
        1
176
     1
 90
        4
176
     1
 62
     7
176
     1
 62
   257
176
     1
 90
        1
176
     1
 90
        1
176
     1
 40
1.0
176
     1
 90
        0
176
     1
 62
   257
176
     1
 40
1.0
176
     1
 90
        1
176
     1
 90
        6
176
     1
 90
        2
176
     1
 62
     7
176
     1
 90
        5
176
     1
 90
        0
176
     1
 90
        0
176
     1
290
     0
176
     1
 90
       13
176
     1
 40
0.0
176
     1
 90
        0
176
     1
290
     0
176
     1
290
     1
176
     1
290
     1
176
     1
290
     0
176
     1
290
     0
176
     1
290
     0
176
     1
290
     0
176
     1
290
     0
176
     1
290
     0
176
     1
 90
       50
176
     1
 40
0.0
176
     1
 40
1.0
176
     1
 90
        0
176
     1
 62
    18
420
        0
176
     1
 90
       50
176
     1
 90
        3
176
     1
 62
     5
420
      255
176
     1
290
     0
176
     1
 90
       50
176
     1
 90
       50
176
     1
 90
       50
176
     1
290
     0
176
     1
 90
       50
176
     1
 62
   256
176
     0
 40
1.0
176
     0
 90
        2
176
     1
  1
strokes_ogs.tif
176
     1
290
     0
176
     1
 40
1.0
176
     1
 40
1.0
176
     1
1001
ACAD
1000
AcDbSavedByObjectVersion
1070
     0
1000
AcDbSavedByObjectVersion
1070
     0
1000
AcDbSavedByObjectVersion
1070
     0
  0
VISUALSTYLE
  5
112
102
{ACAD_REACTORS
330
10F
102
}
330
10F
100
AcDbVisualStyle
  2
Gouraud
 70
     2
177
     3
291
     1
 70
    58
 90
        2
176
     1
 90
        2
176
     1
 90
        1
176
     1
 90
        2
176
     1
 40
0.6
176
     1
 40
30.0
176
     1
 62
     7
420
 16777215
176
     1
 90
        0
176
     1
 90
        4
176
     1
 62
     7
176
     1
 62
   257
176
     1
 90
        1
176
     1
 90
        1
176
     1
 40
1.0
176
     1
 90
        0
176
     1
 62
     7
176
     1
 40
1.0
176
     1
 90
        1
176
     1
 90
        6
176
     1
 90
        2
176
     1
 62
     7
176
     1
 90
        5
176
     1
 90
        0
176
     1
 90
        0
176
     1
290
     0
176
     1
 90
       13
176
     1
 40
0.0
176
     1
 90
        0
176
     1
290
     0
176
     1
290
     1
176
     1
290
     1
176
     1
290
     0
176
     1
290
     0
176
     1
290
     0
176
     1
290
     0
176
     1
290
     0
176
     1
290
     0
176
     1
 90
       50
176
     1
 40
0.0
176
     1
 40
1.0
176
     1
 90
        0
176
     1
 62
    18
420
        0
176
     1
 90
       50
176
     1
 90
        3
176
     1
 62
     5
420
      255
176
     1
290
     0
176
     1
 90
       50
176
     1
 90
       50
176
     1
 90
       50
176
     1
290
     0
176
     1
 90
       50
176
     1
 62
   256
176
     0
 40
1.0
176
     0
 90
        2
176
     1
  1
strokes_ogs.tif
176
     1
290
     0
176
     1
 40
1.0
176
     1
 40
1.0
176
     1
1001
ACAD
1000
AcDbSavedByObjectVersion
1070
     0
1000
AcDbSavedByObjectVersion
1070
     0
1000
AcDbSavedByObjectVersion
1070
     0
  0
VISUALSTYLE
  5
113
102
{ACAD_REACTORS
330
10F
102
}
330
10F
100
AcDbVisualStyle
  2
GouraudWithEdges
 70
     3
177
     3
291
     1
 70
    58
 90
        2
176
     1
 90
        2
176
     1
 90
        1
176
     1
 90
        2
176
     1
 40
0.6
176
     1
 40
30.0
176
     1
 62
     7
420
 16777215
176
     1
 90
        1
176
     1
 90
        4
176
     1
 62
     7
176
     1
 62
   257
176
     1
 90
        1
176
     1
 90
        1
176
     1
 40
1.0
176
     1
 90
        0
176
     1
 62
   257
176
     1
 40
1.0
176
     1
 90
        1
176
     1
 90
        6
176
     1
 90
        2
176
     1
 62
     7
176
     1
 90
        5
176
     1
 90
        0
176
     1
 90
        0
176
     1
290
     0
176
     1
 90
       13
176
     1
 40
0.0
176
     1
 90
        0
176
     1
290
     0
176
     1
290
     1
176
     1
290
     1
176
     1
290
     0
176
     1
290
     0
176
     1
290
     0
176
     1
290
     0
176
     1
290
     0
176
     1
290
     0
176
     1
 90
       50
176
     1
 40
0.0
176
     1
 40
1.0
176
     1
 90
        0
176
     1
 62
    18
420
        0
176
     1
 90
       50
176
     1
 90
        3
176
     1
 62
     5
420
      255
176
     1
290
     0
176
     1
 90
       50
176
     1
 90
       50
176
     1
 90
       50
176
     1
290
     0
176
     1
 90
       50
176
     1
 62
   256
176
     0
 40
1.0
176
     0
 90
        2
176
     1
  1
strokes_ogs.tif
176
     1
290
     0
176
     1
 40
1.0
176
     1
 40
1.0
176
     1
1001
ACAD
1000
AcDbSavedByObjectVersion
1070
     0
1000
AcDbSavedByObjectVersion
1070
     0
1000
AcDbSavedByObjectVersion
1070
     0
  0
VISUALSTYLE
  5
BDB
102
{ACAD_REACTORS
330
10F
102
}
330
10F
100
AcDbVisualStyle
  2
Hidden
 70
     6
177
     3
291
     0
 70
    58
 90
        1
176
     1
 90
        2
176
     1
 90
        2
176
     1
 90
        0
176
     1
 40
0.6
176
     1
 40
30.0
176
     1
 62
     7
420
 16777215
176
     1
 90
        2
176
     1
 90
        2
176
     1
 62
     7
176
     1
 62
   257
176
     1
 90
        2
176
     1
 90
        1
176
     1
 40
40.0
176
     1
 90
        0
176
     1
 62
   257
176
     1
 40
1.0
176
     1
 90
        1
176
     1
 90
        6
176
     1
 90
        2
176
     1
 62
     7
176
     1
 90
        3
176
     1
 90
        0
176
     1
 90
        0
176
     1
290
     0
176
     1
 90
        1
176
     1
 40
0.0
176
     1
 90
        0
176
     1
290
     0
176
     1
290
     1
176
     1
290
     1
176
     1
290
     0
176
     1
290
     0
176
     1
290
     0
176
     1
290
     0
176
     1
290
     0
176
     1
290
     0
176
     1
 90
       50
176
     1
 40
0.0
176
     1
 40
1.0
176
     1
 90
        0
176
     1
 62
    18
420
        0
176
     1
 90
       50
176
     1
 90
        3
176
     1
 62
     5
420
      255
176
     1
290
     0
176
     1
 90
       50
176
     1
 90
       50
176
     1
 90
       50
176
     1
290
     0
176
     1
 90
       50
176
     1
 62
   256
176
     0
 40
1.0
176
     0
 90
        2
176
     1
  1
strokes_ogs.tif
176
     1
290
     0
176
     1
 40
1.0
176
     1
 40
1.0
176
     1
  0
VISUALSTYLE
  5
BE1
102
{ACAD_REACTORS
330
10F
102
}
330
10F
100
AcDbVisualStyle
  2
JitterOff
 70
    20
177
     3
291
     1
 70
    58
 90
        2
176
     0
 90
        2
176
     0
 90
        0
176
     0
 90
        0
176
     0
 40
0.6
176
     0
 40
30.0
176
     0
 62
     7
420
 16777215
176
     0
 90
        1
176
     0
 90
        4
176
     0
 62
     7
176
     0
 62
   257
176
     0
 90
        1
176
     0
 90
        1
176
     0
 40
1.0
176
     0
 90
       10
176
     2
 62
     7
176
     0
 40
1.0
176
     0
 90
        1
176
     0
 90
        6
176
     0
 90
        2
176
     0
 62
     7
176
     0
 90
        5
176
     0
 90
        0
176
     0
 90
        0
176
     0
290
     0
176
     0
 90
        1
176
     0
 40
0.0
176
     0
 90
        0
176
     0
290
     0
176
     0
290
     1
176
     0
290
     1
176
     0
290
     0
176
     0
290
     0
176
     0
290
     0
176
     0
290
     0
176
     0
290
     0
176
     0
290
     0
176
     0
 90
       50
176
     0
 40
0.0
176
     0
 40
1.0
176
     0
 90
        0
176
     0
 62
    18
420
        0
176
     0
 90
       50
176
     0
 90
        3
176
     0
 62
     5
420
      255
176
     0
290
     0
176
     0
 90
       50
176
     0
 90
       50
176
     0
 90
       50
176
     0
290
     0
176
     0
 90
       50
176
     0
 62
   256
176
     0
 40
1.0
176
     0
 90
        2
176
     0
  1
strokes_ogs.tif
176
     0
290
     0
176
     0
 40
1.0
176
     0
 40
1.0
176
     0
  0
VISUALSTYLE
  5
11D
102
{ACAD_REACTORS
330
10F
102
}
330
10F
100
AcDbVisualStyle
  2
Linepattern
 70
    14
177
     3
291
     1
 70
    58
 90
        2
176
     1
 90
        2
176
     1
 90
        0
176
     1
 90
        0
176
     1
 40
0.6
176
     1
 40
30.0
176
     1
 62
     7
420
 16777215
176
     1
 90
        1
176
     1
 90
        4
176
     1
 62
     7
176
     1
 62
   257
176
     1
 90
        7
176
     1
 90
        7
176
     1
 40
1.0
176
     1
 90
        8
176
     1
 62
     7
176
     1
 40
1.0
176
     1
 90
        1
176
     1
 90
        6
176
     1
 90
        2
176
     1
 62
     7
176
     1
 90
        5
176
     1
 90
        0
176
     1
 90
        0
176
     1
290
     0
176
     1
 90
        1
176
     1
 40
0.0
176
     1
 90
        0
176
     1
290
     0
176
     1
290
     1
176
     1
290
     1
176
     1
290
     0
176
     1
290
     0
176
     1
290
     0
176
     1
290
     0
176
     1
290
     0
176
     1
290
     0
176
     1
 90
       50
176
     1
 40
0.0
176
     1
 40
1.0
176
     1
 90
        0
176
     1
 62
    18
420
        0
176
     1
 90
       50
176
     1
 90
        3
176
     1
 62
     5
420
      255
176
     1
290
     0
176
     1
 90
       50
176
     1
 90
       50
176
     1
 90
       50
176
     1
290
     0
176
     1
 90
       50
176
     1
 62
   256
176
     0
 40
1.0
176
     0
 90
        2
176
     1
  1
strokes_ogs.tif
176
     1
290
     0
176
     1
 40
1.0
176
     1
 40
1.0
176
     1
1001
ACAD
1000
AcDbSavedByObjectVersion
1070
     0
1000
AcDbSavedByObjectVersion
1070
     0
1000
AcDbSavedByObjectVersion
1070
     0
  0
VISUALSTYLE
  5
BE2
102
{ACAD_REACTORS
330
10F
102
}
330
10F
100
AcDbVisualStyle
  2
OverhangOff
 70
    21
177
     3
291
     1
 70
    58
 90
        2
176
     0
 90
        2
176
     0
 90
        0
176
     0
 90
        0
176
     0
 40
0.6
176
     0
 40
30.0
176
     0
 62
     7
420
 16777215
176
     0
 90
        1
176
     0
 90
        4
176
     0
 62
     7
176
     0
 62
   257
176
     0
 90
        1
176
     0
 90
        1
176
     0
 40
1.0
176
     0
 90
        9
176
     2
 62
     7
176
     0
 40
1.0
176
     0
 90
        1
176
     0
 90
        6
176
     0
 90
        2
176
     0
 62
     7
176
     0
 90
        5
176
     0
 90
        0
176
     0
 90
        0
176
     0
290
     0
176
     0
 90
        1
176
     0
 40
0.0
176
     0
 90
        0
176
     0
290
     0
176
     0
290
     1
176
     0
290
     1
176
     0
290
     0
176
     0
290
     0
176
     0
290
     0
176
     0
290
     0
176
     0
290
     0
176
     0
290
     0
176
     0
 90
       50
176
     0
 40
0.0
176
     0
 40
1.0
176
     0
 90
        0
176
     0
 62
    18
420
        0
176
     0
 90
       50
176
     0
 90
        3
176
     0
 62
     5
420
      255
176
     0
290
     0
176
     0
 90
       50
176
     0
 90
       50
176
     0
 90
       50
176
     0
290
     0
176
     0
 90
       50
176
     0
 62
   256
176
     0
 40
1.0
176
     0
 90
        2
176
     0
  1
strokes_ogs.tif
176
     0
290
     0
176
     0
 40
1.0
176
     0
 40
1.0
176
     0
  0
VISUALSTYLE
  5
119
102
{ACAD_REACTORS
330
10F
102
}
330
10F
100
AcDbVisualStyle
  2
Realistic
 70
     8
177
     3
291
     0
 70
    58
 90
        2
176
     1
 90
        2
176
     1
 90
        0
176
     1
 90
        0
176
     1
 40
0.6
176
     1
 40
30.0
176
     1
 62
     7
420
 16777215
176
     1
 90
        1
176
     1
 90
        0
176
     1
 62
     7
176
     1
 62
   257
176
     1
 90
        1
176
     1
 90
        1
176
     1
 40
1.0
176
     1
 90
        8
176
     1
 62
     8
420
  7895160
176
     1
 40
1.0
176
     1
 90
        1
176
     1
 90
        6
176
     1
 90
        2
176
     1
 62
     7
176
     1
 90
        5
176
     1
 90
        0
176
     1
 90
        0
176
     1
290
     0
176
     1
 90
       13
176
     1
 40
0.0
176
     1
 90
        0
176
     1
290
     0
176
     1
290
     1
176
     1
290
     1
176
     1
290
     0
176
     1
290
     0
176
     1
290
     0
176
     1
290
     0
176
     1
290
     0
176
     1
290
     0
176
     1
 90
       50
176
     1
 40
0.0
176
     1
 40
1.0
176
     1
 90
        0
176
     1
 62
    18
420
        0
176
     1
 90
       50
176
     1
 90
        3
176
     1
 62
     5
420
      255
176
     1
290
     0
176
     1
 90
       50
176
     1
 90
       50
176
     1
 90
       50
176
     1
290
     0
176
     1
 90
       50
176
     1
 62
   256
176
     0
 40
1.0
176
     0
 90
        2
176
     1
  1
strokes_ogs.tif
176
     1
290
     0
176
     1
 40
1.0
176
     1
 40
1.0
176
     1
1001
ACAD
1000
AcDbSavedByObjectVersion
1070
     0
1000
AcDbSavedByObjectVersion
1070
     0
1000
AcDbSavedByObjectVersion
1070
     0
  0
VISUALSTYLE
  5
BE0
102
{ACAD_REACTORS
330
10F
102
}
330
10F
100
AcDbVisualStyle
  2
Shaded
 70
    27
177
     3
291
     0
 70
    58
 90
        2
176
     1
 90
        2
176
     1
 90
        1
176
     1
 90
        2
176
     1
 40
0.6
176
     1
 40
30.0
176
     1
 62
     7
420
 16777215
176
     1
 90
        0
176
     1
 90
        4
176
     1
 62
     7
176
     1
 62
   257
176
     1
 90
        1
176
     1
 90
        1
176
     1
 40
1.0
176
     1
 90
        8
176
     1
 62
   257
176
     1
 40
1.0
176
     1
 90
        1
176
     1
 90
        6
176
     1
 90
        2
176
     1
 62
     8
420
  7895160
176
     1
 90
        3
176
     1
 90
        0
176
     1
 90
        0
176
     1
290
     0
176
     1
 90
        5
176
     1
 40
0.0
176
     1
 90
        0
176
     1
290
     0
176
     1
290
     1
176
     1
290
     1
176
     1
290
     0
176
     1
290
     0
176
     1
290
     0
176
     1
290
     0
176
     1
290
     0
176
     1
290
     0
176
     1
 90
       50
176
     1
 40
0.0
176
     1
 40
1.0
176
     1
 90
        0
176
     1
 62
    18
420
        0
176
     1
 90
       50
176
     1
 90
        3
176
     1
 62
     5
420
      255
176
     1
290
     0
176
     1
 90
       50
176
     1
 90
       50
176
     1
 90
       50
176
     1
290
     0
176
     1
 90
       50
176
     1
 62
   256
176
     0
 40
1.0
176
     0
 90
        2
176
     1
  1
strokes_ogs.tif
176
     1
290
     0
176
     1
 40
1.0
176
     1
 40
1.0
176
     1
  0
VISUALSTYLE
  5
BDF
102
{ACAD_REACTORS
330
10F
102
}
330
10F
100
AcDbVisualStyle
  2
Shaded with edges
 70
    26
177
     3
291
     0
 70
    58
 90
        2
176
     1
 90
        2
176
     1
 90
        1
176
     1
 90
        2
176
     1
 40
0.6
176
     1
 40
30.0
176
     1
 62
     7
420
 16777215
176
     1
 90
        1
176
     1
 90
       10
176
     1
 62
     7
176
     1
 62
   257
176
     1
 90
        2
176
     1
 90
        1
176
     1
 40
1.0
176
     1
 90
        8
176
     1
 62
   257
176
     1
 40
1.0
176
     1
 90
        1
176
     1
 90
        6
176
     1
 90
        2
176
     1
 62
     7
176
     1
 90
        3
176
     1
 90
        0
176
     1
 90
        0
176
     1
290
     0
176
     1
 90
        5
176
     1
 40
0.0
176
     1
 90
        0
176
     1
290
     0
176
     1
290
     1
176
     1
290
     1
176
     1
290
     0
176
     1
290
     0
176
     1
290
     0
176
     1
290
     0
176
     1
290
     0
176
     1
290
     0
176
     1
 90
       50
176
     1
 40
0.0
176
     1
 40
1.0
176
     1
 90
        0
176
     1
 62
    18
420
        0
176
     1
 90
       50
176
     1
 90
        3
176
     1
 62
     5
420
      255
176
     1
290
     0
176
     1
 90
       50
176
     1
 90
       50
176
     1
 90
       50
176
     1
290
     0
176
     1
 90
       50
176
     1
 62
   256
176
     0
 40
1.0
176
     0
 90
        2
176
     1
  1
strokes_ogs.tif
176
     1
290
     0
176
     1
 40
1.0
176
     1
 40
1.0
176
     1
  0
VISUALSTYLE
  5
BDC
102
{ACAD_REACTORS
330
10F
102
}
330
10F
100
AcDbVisualStyle
  2
Shades of Gray
 70
    23
177
     3
291
     0
 70
    58
 90
        2
176
     1
 90
        2
176
     1
 90
        3
176
     1
 90
        0
176
     1
 40
0.6
176
     1
 40
30.0
176
     1
 62
     7
420
 16777215
176
     1
 90
        2
176
     1
 90
        2
176
     1
 62
     7
176
     1
 62
     7
176
     1
 90
        1
176
     1
 90
        1
176
     1
 40
40.0
176
     1
 90
        8
176
     1
 62
     7
176
     1
 40
1.0
176
     1
 90
        1
176
     1
 90
        6
176
     1
 90
        2
176
     1
 62
     7
176
     1
 90
        3
176
     1
 90
        0
176
     1
 90
        0
176
     1
290
     0
176
     1
 90
        1
176
     1
 40
0.0
176
     1
 90
        0
176
     1
290
     0
176
     1
290
     1
176
     1
290
     1
176
     1
290
     0
176
     1
290
     0
176
     1
290
     0
176
     1
290
     0
176
     1
290
     0
176
     1
290
     0
176
     1
 90
       50
176
     1
 40
0.0
176
     1
 40
1.0
176
     1
 90
        0
176
     1
 62
    18
420
        0
176
     1
 90
       50
176
     1
 90
        3
176
     1
 62
     5
420
      255
176
     1
290
     0
176
     1
 90
       50
176
     1
 90
       50
176
     1
 90
       50
176
     1
290
     0
176
     1
 90
       50
176
     1
 62
   256
176
     0
 40
1.0
176
     0
 90
        2
176
     1
  1
strokes_ogs.tif
176
     1
290
     0
176
     1
 40
1.0
176
     1
 40
1.0
176
     1
  0
VISUALSTYLE
  5
BDD
102
{ACAD_REACTORS
330
10F
102
}
330
10F
100
AcDbVisualStyle
  2
Sketchy
 70
    24
177
     3
291
     0
 70
    58
 90
        1
176
     1
 90
        2
176
     1
 90
        2
176
     1
 90
        0
176
     1
 40
0.6
176
     1
 40
30.0
176
     1
 62
     7
420
 16777215
176
     1
 90
        2
176
     1
 90
        2
176
     1
 62
     7
176
     1
 62
     7
176
     1
 90
        1
176
     1
 90
        1
176
     1
 40
40.0
176
     1
 90
       11
176
     1
 62
     7
176
     1
 40
1.0
176
     1
 90
        1
176
     1
 90
        6
176
     1
 90
        2
176
     1
 62
     7
176
     1
 90
        6
176
     1
 90
        0
176
     1
 90
        0
176
     1
290
     0
176
     1
 90
        1
176
     1
 40
0.0
176
     1
 90
        0
176
     1
290
     0
176
     1
290
     1
176
     1
290
     1
176
     1
290
     0
176
     1
290
     0
176
     1
290
     0
176
     1
290
     0
176
     1
290
     0
176
     1
290
     0
176
     1
 90
       50
176
     1
 40
0.0
176
     1
 40
1.0
176
     1
 90
        0
176
     1
 62
    18
420
        0
176
     1
 90
       50
176
     1
 90
        3
176
     1
 62
     5
420
      255
176
     1
290
     0
176
     1
 90
       50
176
     1
 90
       50
176
     1
 90
       50
176
     1
290
     0
176
     1
 90
       50
176
     1
 62
   256
176
     0
 40
1.0
176
     0
 90
        2
176
     1
  1
strokes_ogs.tif
176
     1
290
     0
176
     1
 40
1.0
176
     1
 40
1.0
176
     1
  0
VISUALSTYLE
  5
11C
102
{ACAD_REACTORS
330
10F
102
}
330
10F
100
AcDbVisualStyle
  2
Thicken
 70
    13
177
     3
291
     1
 70
    58
 90
        2
176
     1
 90
        2
176
     1
 90
        0
176
     1
 90
        0
176
     1
 40
0.6
176
     1
 40
30.0
176
     1
 62
     7
420
 16777215
176
     1
 90
        1
176
     1
 90
        4
176
     1
 62
     7
176
     1
 62
   257
176
     1
 90
        1
176
     1
 90
        1
176
     1
 40
1.0
176
     1
 90
       12
176
     1
 62
     7
176
     1
 40
1.0
176
     1
 90
        1
176
     1
 90
        6
176
     1
 90
        2
176
     1
 62
     7
176
     1
 90
        5
176
     1
 90
        0
176
     1
 90
        0
176
     1
290
     0
176
     1
 90
        1
176
     1
 40
0.0
176
     1
 90
        0
176
     1
290
     0
176
     1
290
     1
176
     1
290
     1
176
     1
290
     0
176
     1
290
     0
176
     1
290
     0
176
     1
290
     0
176
     1
290
     0
176
     1
290
     0
176
     1
 90
       50
176
     1
 40
0.0
176
     1
 40
1.0
176
     1
 90
        0
176
     1
 62
    18
420
        0
176
     1
 90
       50
176
     1
 90
        3
176
     1
 62
     5
420
      255
176
     1
290
     0
176
     1
 90
       50
176
     1
 90
       50
176
     1
 90
       50
176
     1
290
     0
176
     1
 90
       50
176
     1
 62
   256
176
     0
 40
1.0
176
     0
 90
        2
176
     1
  1
strokes_ogs.tif
176
     1
290
     0
176
     1
 40
1.0
176
     1
 40
1.0
176
     1
1001
ACAD
1000
AcDbSavedByObjectVersion
1070
     0
1000
AcDbSavedByObjectVersion
1070
     0
1000
AcDbSavedByObjectVersion
1070
     0
  0
VISUALSTYLE
  5
BDA
102
{ACAD_REACTORS
330
10F
102
}
330
10F
100
AcDbVisualStyle
  2
Wireframe
 70
     5
177
     3
291
     0
 70
    58
 90
        0
176
     1
 90
        2
176
     1
 90
        0
176
     1
 90
        0
176
     1
 40
0.6
176
     1
 40
30.0
176
     1
 62
     7
420
 16777215
176
     1
 90
        1
176
     1
 90
        4
176
     1
 62
     7
176
     1
 62
   257
176
     1
 90
        1
176
     1
 90
        1
176
     1
 40
1.0
176
     1
 90
        0
176
     1
 62
   257
176
     1
 40
1.0
176
     1
 90
        1
176
     1
 90
        6
176
     1
 90
        2
176
     1
 62
     7
176
     1
 90
        3
176
     1
 90
        0
176
     1
 90
        0
176
     1
290
     0
176
     1
 90
        1
176
     1
 40
0.0
176
     1
 90
        0
176
     1
290
     0
176
     1
290
     1
176
     1
290
     1
176
     1
290
     0
176
     1
290
     0
176
     1
290
     0
176
     1
290
     0
176
     1
290
     0
176
     1
290
     0
176
     1
 90
       50
176
     1
 40
0.0
176
     1
 40
1.0
176
     1
 90
        0
176
     1
 62
    18
420
        0
176
     1
 90
       50
176
     1
 90
        3
176
     1
 62
     5
420
      255
176
     1
290
     0
176
     1
 90
       50
176
     1
 90
       50
176
     1
 90
       50
176
     1
290
     0
176
     1
 90
       50
176
     1
 62
   256
176
     0
 40
1.0
176
     0
 90
        2
176
     1
  1
strokes_ogs.tif
176
     1
290
     0
176
     1
 40
1.0
176
     1
 40
1.0
176
     1
  0
VISUALSTYLE
  5
BDE
102
{ACAD_REACTORS
330
10F
102
}
330
10F
100
AcDbVisualStyle
  2
X-Ray
 70
    25
177
     3
291
     0
 70
    58
 90
        2
176
     1
 90
        2
176
     1
 90
        1
176
     1
 90
        1
176
     1
 40
0.5
176
     1
 40
30.0
176
     1
 62
     7
420
 16777215
176
     1
 90
        1
176
     1
 90
        0
176
     1
 62
     7
176
     1
 62
   257
176
     1
 90
        1
176
     1
 90
        1
176
     1
 40
1.0
176
     1
 90
        8
176
     1
 62
     7
176
     1
 40
1.0
176
     1
 90
        1
176
     1
 90
        6
176
     1
 90
        2
176
     1
 62
     7
176
     1
 90
        3
176
     1
 90
        0
176
     1
 90
        0
176
     1
290
     0
176
     1
 90
       13
176
     1
 40
0.0
176
     1
 90
        0
176
     1
290
     0
176
     1
290
     1
176
     1
290
     1
176
     1
290
     0
176
     1
290
     0
176
     1
290
     0
176
     1
290
     0
176
     1
290
     0
176
     1
290
     0
176
     1
 90
       50
176
     1
 40
0.0
176
     1
 40
1.0
176
     1
 90
        0
176
     1
 62
    18
420
        0
176
     1
 90
       50
176
     1
 90
        3
176
     1
 62
     5
420
      255
176
     1
290
     0
176
     1
 90
       50
176
     1
 90
       50
176
     1
 90
       50
176
     1
290
     0
176
     1
 90
       50
176
     1
 62
   256
176
     0
 40
1.0
176
     0
 90
        2
176
     1
  1
strokes_ogs.tif
176
     1
290
     0
176
     1
 40
1.0
176
     1
 40
1.0
176
     1
  0
DICTIONARYVAR
  5
76F
102
{ACAD_REACTORS
330
EB
102
}
330
EB
100
DictionaryVariables
280
     0
  1
1:1
  0
DICTIONARYVAR
  5
76E
102
{ACAD_REACTORS
330
EB
102
}
330
EB
100
DictionaryVariables
280
     0
  1
STANDARD
  0
DICTIONARYVAR
  5
EC
102
{ACAD_REACTORS
330
EB
102
}
330
EB
100
DictionaryVariables
280
     0
  1
STANDARD
  0
DICTIONARYVAR
  5
E25
102
{ACAD_REACTORS
330
EB
102
}
330
EB
100
DictionaryVariables
280
     0
  1
Metric50
  0
DICTIONARYVAR
  5
E26
102
{ACAD_REACTORS
330
EB
102
}
330
EB
100
DictionaryVariables
280
     0
  1
Metric50
  0
DICTIONARYVAR
  5
ED
102
{ACAD_REACTORS
330
EB
102
}
330
EB
100
DictionaryVariables
280
     0
  1
1
  0
DICTIONARYVAR
  5
E27
102
{ACAD_REACTORS
330
EB
102
}
330
EB
100
DictionaryVariables
280
     0
  1
1
  0
DICTIONARYVAR
  5
E28
102
{ACAD_REACTORS
330
EB
102
}
330
EB
100
DictionaryVariables
280
     0
  1
15
  0
DICTIONARYVAR
  5
BD8
102
{ACAD_REACTORS
330
EB
102
}
330
EB
100
DictionaryVariables
280
     0
  1
0
  0
DICTIONARYVAR
  5
BD7
102
{ACAD_REACTORS
330
EB
102
}
330
EB
100
DictionaryVariables
280
     0
  1
0
  0
DICTIONARYVAR
  5
EE
102
{ACAD_REACTORS
330
EB
102
}
330
EB
100
DictionaryVariables
280
     0
  1

  0
DICTIONARY
  5
957
102
{ACAD_REACTORS
330
1A2
102
}
330
1A2
100
AcDbDictionary
281
     1
  0
DICTIONARY
  5
1AD
102
{ACAD_REACTORS
330
1A2
102
}
330
1A2
100
AcDbDictionary
281
     1
  0
XRECORD
  5
1C2
102
{ACAD_REACTORS
330
1A2
102
}
330
1A2
100
AcDbXrecord
280
     1
 90
-1023410169
  0
DICTIONARY
  5
E2C
330
BE7
100
AcDbDictionary
280
     1
281
     1
  3
ACAD_XREC_ROUNDTRIP
360
E2D
  0
DICTIONARY
  5
C6C
330
C6B
100
AcDbDictionary
280
     1
281
     1
  3
ACAD_XREC_ROUNDTRIP
360
E30
  0
DICTIONARY
  5
C6E
330
C6D
100
AcDbDictionary
280
     1
281
     1
  3
ACAD_XREC_ROUNDTRIP
360
E31
  0
DICTIONARY
  5
100
330
FF
100
AcDbDictionary
280
     1
281
     1
  3
ACAD_XREC_ROUNDTRIP
360
777
  3
BUMPTILE
360
102
  3
DIFFUSETILE
360
101
  3
OPACITYTILE
360
105
  3
REFLECTIONTILE
360
104
  3
REFRACTIONTILE
360
106
  3
SPECULARTILE
360
103
  0
DICTIONARY
  5
F8
330
F7
100
AcDbDictionary
280
     1
281
     1
  3
ACAD_XREC_ROUNDTRIP
360
776
  3
BUMPTILE
360
FA
  3
DIFFUSETILE
360
F9
  3
OPACITYTILE
360
FD
  3
REFLECTIONTILE
360
FC
  3
REFRACTIONTILE
360
FE
  3
SPECULARTILE
360
FB
  0
DICTIONARY
  5
108
330
107
100
AcDbDictionary
280
     1
281
     1
  3
ACAD_XREC_ROUNDTRIP
360
778
  3
BUMPTILE
360
10A
  3
DIFFUSETILE
360
109
  3
OPACITYTILE
360
10D
  3
REFLECTIONTILE
360
10C
  3
REFRACTIONTILE
360
10E
  3
SPECULARTILE
360
10B
  0
DICTIONARY
  5
E2A
330
BE5
100
AcDbDictionary
280
     1
281
     1
  3
ACAD_XREC_ROUNDTRIP
360
E2B
  0
DICTIONARY
  5
C58
330
C57
100
AcDbDictionary
280
     1
281
     1
  3
ACAD_FIELD
360
C59
  3
ACAD_XREC_ROUNDTRIP
360
E2E
  0
DICTIONARY
  5
C5E
330
C5D
100
AcDbDictionary
280
     1
281
     1
  3
ACAD_XREC_ROUNDTRIP
360
E2F
  0
DICTIONARY
  5
770
330
73
100
AcDbDictionary
280
     1
281
     1
  3
ACAD_ROUNDTRIP_2008_TABLESTYLE_CELLSTYLEMAP
360
E29
  0
XRECORD
  5
E2D
102
{ACAD_REACTORS
330
E2C
102
}
330
E2C
100
AcDbXrecord
280
     1
102
DISPLAYNAME
  1
Imperial24
102
FLAGS
 90
        0
  0
XRECORD
  5
E30
102
{ACAD_REACTORS
330
C6C
102
}
330
C6C
100
AcDbXrecord
280
     1
102
DISPLAYNAME
  1
ISO 128-34:2001
102
FLAGS
 90
        0
  0
XRECORD
  5
E31
102
{ACAD_REACTORS
330
C6E
102
}
330
C6E
100
AcDbXrecord
280
     1
102
DISPLAYNAME
  1
Metric50
102
FLAGS
 90
        0
  0
XRECORD
  5
777
102
{ACAD_REACTORS
330
100
102
}
330
100
100
AcDbXrecord
280
     1
102
MATERIAL
148
0.0
149
0.0
149
0.0
 93
        0
 94
      127
282
     0
 72
     0
 77
     0
171
     0
175
     0
179
     0
273
     0
  0
XRECORD
  5
102
102
{ACAD_REACTORS
330
100
102
}
330
100
100
AcDbXrecord
280
     1
270
     1
271
     1
  0
XRECORD
  5
101
102
{ACAD_REACTORS
330
100
102
}
330
100
100
AcDbXrecord
280
     1
270
     1
271
     1
  0
XRECORD
  5
105
102
{ACAD_REACTORS
330
100
102
}
330
100
100
AcDbXrecord
280
     1
270
     1
271
     1
  0
XRECORD
  5
104
102
{ACAD_REACTORS
330
100
102
}
330
100
100
AcDbXrecord
280
     1
270
     1
271
     1
  0
XRECORD
  5
106
102
{ACAD_REACTORS
330
100
102
}
330
100
100
AcDbXrecord
280
     1
270
     1
271
     1
  0
XRECORD
  5
103
102
{ACAD_REACTORS
330
100
102
}
330
100
100
AcDbXrecord
280
     1
270
     1
271
     1
  0
XRECORD
  5
776
102
{ACAD_REACTORS
330
F8
102
}
330
F8
100
AcDbXrecord
280
     1
102
MATERIAL
148
0.0
149
0.0
149
0.0
 93
        0
 94
      127
282
     0
 72
     0
 77
     0
171
     0
175
     0
179
     0
273
     0
  0
XRECORD
  5
FA
102
{ACAD_REACTORS
330
F8
102
}
330
F8
100
AcDbXrecord
280
     1
270
     1
271
     1
  0
XRECORD
  5
F9
102
{ACAD_REACTORS
330
F8
102
}
330
F8
100
AcDbXrecord
280
     1
270
     1
271
     1
  0
XRECORD
  5
FD
102
{ACAD_REACTORS
330
F8
102
}
330
F8
100
AcDbXrecord
280
     1
270
     1
271
     1
  0
XRECORD
  5
FC
102
{ACAD_REACTORS
330
F8
102
}
330
F8
100
AcDbXrecord
280
     1
270
     1
271
     1
  0
XRECORD
  5
FE
102
{ACAD_REACTORS
330
F8
102
}
330
F8
100
AcDbXrecord
280
     1
270
     1
271
     1
  0
XRECORD
  5
FB
102
{ACAD_REACTORS
330
F8
102
}
330
F8
100
AcDbXrecord
280
     1
270
     1
271
     1
  0
XRECORD
  5
778
102
{ACAD_REACTORS
330
108
102
}
330
108
100
AcDbXrecord
280
     1
102
MATERIAL
148
0.0
149
0.0
149
0.0
 93
        0
 94
      127
282
     0
 72
     0
 77
     0
171
     0
175
     0
179
     0
273
     0
  0
XRECORD
  5
10A
102
{ACAD_REACTORS
330
108
102
}
330
108
100
AcDbXrecord
280
     1
270
     1
271
     1
  0
XRECORD
  5
109
102
{ACAD_REACTORS
330
108
102
}
330
108
100
AcDbXrecord
280
     1
270
     1
271
     1
  0
XRECORD
  5
10D
102
{ACAD_REACTORS
330
108
102
}
330
108
100
AcDbXrecord
280
     1
270
     1
271
     1
  0
XRECORD
  5
10C
102
{ACAD_REACTORS
330
108
102
}
330
108
100
AcDbXrecord
280
     1
270
     1
271
     1
  0
XRECORD
  5
10E
102
{ACAD_REACTORS
330
108
102
}
330
108
100
AcDbXrecord
280
     1
270
     1
271
     1
  0
XRECORD
  5
10B
102
{ACAD_REACTORS
330
108
102
}
330
108
100
AcDbXrecord
280
     1
270
     1
271
     1
  0
XRECORD
  5
E2B
102
{ACAD_REACTORS
330
E2A
102
}
330
E2A
100
AcDbXrecord
280
     1
102
DISPLAYNAME
  1
Imperial24
102
FLAGS
 90
        0
  0
DICTIONARY
  5
C59
102
{ACAD_REACTORS
330
C58
102
}
330
C58
100
AcDbDictionary
280
     1
281
     1
  3
TEXT
360
C5A
  0
XRECORD
  5
E2E
102
{ACAD_REACTORS
330
C58
102
}
330
C58
100
AcDbXrecord
280
     1
102
DISPLAYNAME
  1
ISO 128-40:2001(E)
102
FLAGS
 90
        0
  0
XRECORD
  5
E2F
102
{ACAD_REACTORS
330
C5E
102
}
330
C5E
100
AcDbXrecord
280
     1
102
DISPLAYNAME
  1
Metric50
102
FLAGS
 90
        0
  0
CELLSTYLEMAP
  5
E29
102
{ACAD_REACTORS
330
770
102
}
330
770
100
AcDbCellStyleMap
 90
        3
300
CELLSTYLE
  1
TABLEFORMAT_BEGIN
 90
        5
170
     1
 91
        0
 92
    32768
 62
   257
 93
        1
300
CONTENTFORMAT
  1
CONTENTFORMAT_BEGIN
 90
        0
 91
        0
 92
        4
 93
        0
300

 40
0.0
140
1.0
 94
        5
 62
     0
340
C
144
0.25
309
CONTENTFORMAT_END
171
     1
301
MARGIN
  1
CELLMARGIN_BEGIN
 40
0.06
 40
0.06
 40
0.06
 40
0.06
 40
0.18
 40
0.18
309
CELLMARGIN_END
 94
        6
 95
        1
302
GRIDFORMAT
  1
GRIDFORMAT_BEGIN
 90
        0
 91
        1
 62
     0
 92
       -2
340
0
 93
        0
 40
0.045
309
GRIDFORMAT_END
 95
        2
302
GRIDFORMAT
  1
GRIDFORMAT_BEGIN
 90
        0
 91
        1
 62
     0
 92
       -2
340
0
 93
        0
 40
0.045
309
GRIDFORMAT_END
 95
        4
302
GRIDFORMAT
  1
GRIDFORMAT_BEGIN
 90
        0
 91
        1
 62
     0
 92
       -2
340
0
 93
        0
 40
0.045
309
GRIDFORMAT_END
 95
        8
302
GRIDFORMAT
  1
GRIDFORMAT_BEGIN
 90
        0
 91
        1
 62
     0
 92
       -2
340
0
 93
        0
 40
0.045
309
GRIDFORMAT_END
 95
       16
302
GRIDFORMAT
  1
GRIDFORMAT_BEGIN
 90
        0
 91
        1
 62
     0
 92
       -2
340
0
 93
        0
 40
0.045
309
GRIDFORMAT_END
 95
       32
302
GRIDFORMAT
  1
GRIDFORMAT_BEGIN
 90
        0
 91
        1
 62
     0
 92
       -2
340
0
 93
        0
 40
0.045
309
GRIDFORMAT_END
309
TABLEFORMAT_END
  1
CELLSTYLE_BEGIN
 90
        1
 91
        1
300
_TITLE
309
CELLSTYLE_END
300
CELLSTYLE
  1
TABLEFORMAT_BEGIN
 90
        5
170
     1
 91
        0
 92
        0
 62
   257
 93
        1
300
CONTENTFORMAT
  1
CONTENTFORMAT_BEGIN
 90
        0
 91
        0
 92
        4
 93
        0
300

 40
0.0
140
1.0
 94
        5
 62
     0
340
C
144
0.18
309
CONTENTFORMAT_END
171
     1
301
MARGIN
  1
CELLMARGIN_BEGIN
 40
0.06
 40
0.06
 40
0.06
 40
0.06
 40
0.18
 40
0.18
309
CELLMARGIN_END
 94
        6
 95
        1
302
GRIDFORMAT
  1
GRIDFORMAT_BEGIN
 90
        0
 91
        1
 62
     0
 92
       -2
340
0
 93
        0
 40
0.045
309
GRIDFORMAT_END
 95
        2
302
GRIDFORMAT
  1
GRIDFORMAT_BEGIN
 90
        0
 91
        1
 62
     0
 92
       -2
340
0
 93
        0
 40
0.045
309
GRIDFORMAT_END
 95
        4
302
GRIDFORMAT
  1
GRIDFORMAT_BEGIN
 90
        0
 91
        1
 62
     0
 92
       -2
340
0
 93
        0
 40
0.045
309
GRIDFORMAT_END
 95
        8
302
GRIDFORMAT
  1
GRIDFORMAT_BEGIN
 90
        0
 91
        1
 62
     0
 92
       -2
340
0
 93
        0
 40
0.045
309
GRIDFORMAT_END
 95
       16
302
GRIDFORMAT
  1
GRIDFORMAT_BEGIN
 90
        0
 91
        1
 62
     0
 92
       -2
340
0
 93
        0
 40
0.045
309
GRIDFORMAT_END
 95
       32
302
GRIDFORMAT
  1
GRIDFORMAT_BEGIN
 90
        0
 91
        1
 62
     0
 92
       -2
340
0
 93
        0
 40
0.045
309
GRIDFORMAT_END
309
TABLEFORMAT_END
  1
CELLSTYLE_BEGIN
 90
        2
 91
        1
300
_HEADER
309
CELLSTYLE_END
300
CELLSTYLE
  1
TABLEFORMAT_BEGIN
 90
        5
170
     1
 91
        0
 92
        0
 62
   257
 93
        1
300
CONTENTFORMAT
  1
CONTENTFORMAT_BEGIN
 90
        0
 91
        0
 92
        4
 93
        0
300

 40
0.0
140
1.0
 94
        2
 62
     0
340
C
144
0.18
309
CONTENTFORMAT_END
171
     1
301
MARGIN
  1
CELLMARGIN_BEGIN
 40
0.06
 40
0.06
 40
0.06
 40
0.06
 40
0.18
 40
0.18
309
CELLMARGIN_END
 94
        6
 95
        1
302
GRIDFORMAT
  1
GRIDFORMAT_BEGIN
 90
        0
 91
        1
 62
     0
 92
       -2
340
0
 93
        0
 40
0.045
309
GRIDFORMAT_END
 95
        2
302
GRIDFORMAT
  1
GRIDFORMAT_BEGIN
 90
        0
 91
        1
 62
     0
 92
       -2
340
0
 93
        0
 40
0.045
309
GRIDFORMAT_END
 95
        4
302
GRIDFORMAT
  1
GRIDFORMAT_BEGIN
 90
        0
 91
        1
 62
     0
 92
       -2
340
0
 93
        0
 40
0.045
309
GRIDFORMAT_END
 95
        8
302
GRIDFORMAT
  1
GRIDFORMAT_BEGIN
 90
        0
 91
        1
 62
     0
 92
       -2
340
0
 93
        0
 40
0.045
309
GRIDFORMAT_END
 95
       16
302
GRIDFORMAT
  1
GRIDFORMAT_BEGIN
 90
        0
 91
        1
 62
     0
 92
       -2
340
0
 93
        0
 40
0.045
309
GRIDFORMAT_END
 95
       32
302
GRIDFORMAT
  1
GRIDFORMAT_BEGIN
 90
        0
 91
        1
 62
     0
 92
       -2
340
0
 93
        0
 40
0.045
309
GRIDFORMAT_END
309
TABLEFORMAT_END
  1
CELLSTYLE_BEGIN
 90
        3
 91
        2
300
_DATA
309
CELLSTYLE_END
  0
FIELD
  5
C5A
102
{ACAD_REACTORS
330
C59
102
}
330
C59
100
AcDbField
  1
_text
  2
%<\_FldIdx 0>%-%<\_FldIdx 1>%
 90
        2
360
C5B
360
C5C
 97
        0
 91
       63
 92
        0
 94
        9
 95
        2
 96
        0
300

 93
        0
  7
ACFD_FIELD_VALUE
 93
        3
 90
        0
 94
        0
300

302

304
ACVALUE_END
301

 98
        0
  0
FIELD
  5
C5B
330
C5A
100
AcDbField
  1
AcVar
  2
\AcVar ViewSectionStartId
 90
        0
 97
        0
 91
       63
 92
        0
 94
       43
 95
        2
 96
        0
300

 93
        1
  6
Variable
 93
        2
 90
        4
  1
ViewSectionStartId
 94
        0
300

302

304
ACVALUE_END
  7
ACFD_FIELD_VALUE
 93
        1
 90
        0
 94
        0
300

302

304
ACVALUE_END
301
----
 98
        4
  0
FIELD
  5
C5C
330
C5A
100
AcDbField
  1
AcVar
  2
\AcVar ViewSectionEndId
 90
        0
 97
        0
 91
       63
 92
        0
 94
       43
 95
        2
 96
        0
300

 93
        1
  6
Variable
 93
        2
 90
        4
  1
ViewSectionEndId
 94
        0
300

302

304
ACVALUE_END
  7
ACFD_FIELD_VALUE
 93
        1
 90
        0
 94
        0
300

302

304
ACVALUE_END
301
----
 98
        4
  0
ENDSEC
  0
EOF
