  0
SECTION
  2
HEADER
  9
$ACADVER
  1
AC1018
  9
$ACADMAINTVER
 70
   104
  9
$DWGCODEPAGE
  3
ANSI_1252
  9
$LASTSAVEDBY
  1
guzb562
  9
$INSBASE
 10
0.0
 20
0.0
 30
0.0
  9
$EXTMIN
 10
1239.462236354338
 20
-618.3139659094265
 30
-0.0000000000000058
  9
$EXTMAX
 10
1366.446488586866
 20
-160.3249431213885
 30
0.0000000000000104
  9
$LIMMIN
 10
0.0
 20
0.0
  9
$LIMMAX
 10
410.0
 20
287.0
  9
$ORTHOMODE
 70
     1
  9
$REGENMODE
 70
     1
  9
$FILLMODE
 70
     1
  9
$QTEXTMODE
 70
     0
  9
$MIRRTEXT
 70
     0
  9
$LTSCALE
 40
1.0
  9
$ATTMODE
 70
     1
  9
$TEXTSIZE
 40
0.0
  9
$TRACEWID
 40
1.0
  9
$TEXTSTYLE
  7
AUDIT_I_060331094926-0
  9
$CLAYER
  8
AM_3
  9
$CELTYPE
  6
ByLayer
  9
$CECOLOR
 62
   256
  9
$CELTSCALE
 40
1.0
  9
$DISPSILH
 70
     0
  9
$DIMSCALE
 40
1.0
  9
$DIMASZ
 40
5.0
  9
$DIMEXO
 40
1.0
  9
$DIMDLI
 40
10.0
  9
$DIMRND
 40
0.0
  9
$DIMDLE
 40
0.0
  9
$DIMEXE
 40
1.0
  9
$DIMTP
 40
0.1
  9
$DIMTM
 40
0.1
  9
$DIMTXT
 40
5.0
  9
$DIMCEN
 40
0.0
  9
$DIMTSZ
 40
0.0
  9
$DIMTOL
 70
     0
  9
$DIMLIM
 70
     0
  9
$DIMTIH
 70
     0
  9
$DIMTOH
 70
     0
  9
$DIMSE1
 70
     0
  9
$DIMSE2
 70
     0
  9
$DIMTAD
 70
     1
  9
$DIMZIN
 70
     8
  9
$DIMBLK
  1

  9
$DIMASO
 70
     1
  9
$DIMSHO
 70
     1
  9
$DIMPOST
  1

  9
$DIMAPOST
  1
"
  9
$DIMALT
 70
     0
  9
$DIMALTD
 70
     2
  9
$DIMALTF
 40
0.0393701
  9
$DIMLFAC
 40
1.0
  9
$DIMTOFL
 70
     1
  9
$DIMTVP
 40
0.0
  9
$DIMTIX
 70
     0
  9
$DIMSOXD
 70
     0
  9
$DIMSAH
 70
     0
  9
$DIMBLK1
  1

  9
$DIMBLK2
  1

  9
$DIMSTYLE
  2
AM_DIN
  9
$DIMCLRD
 70
   256
  9
$DIMCLRE
 70
   256
  9
$DIMCLRT
 70
     2
  9
$DIMTFAC
 40
0.71
  9
$DIMGAP
 40
1.5
  9
$DIMJUST
 70
     0
  9
$DIMSD1
 70
     0
  9
$DIMSD2
 70
     0
  9
$DIMTOLJ
 70
     0
  9
$DIMTZIN
 70
     8
  9
$DIMALTZ
 70
     0
  9
$DIMALTTZ
 70
     0
  9
$DIMUPT
 70
     0
  9
$DIMDEC
 70
     2
  9
$DIMTDEC
 70
     2
  9
$DIMALTU
 70
     2
  9
$DIMALTTD
 70
     2
  9
$DIMTXSTY
  7
AUDIT_I_060331094926-0
  9
$DIMAUNIT
 70
     0
  9
$DIMADEC
 70
     0
  9
$DIMALTRND
 40
0.0
  9
$DIMAZIN
 70
     2
  9
$DIMDSEP
 70
    46
  9
$DIMATFIT
 70
     3
  9
$DIMFRAC
 70
     0
  9
$DIMLDRBLK
  1

  9
$DIMLUNIT
 70
     2
  9
$DIMLWD
 70
    -1
  9
$DIMLWE
 70
    -1
  9
$DIMTMOVE
 70
     0
  9
$LUNITS
 70
     2
  9
$LUPREC
 70
     2
  9
$SKETCHINC
 40
1.0
  9
$FILLETRAD
 40
2.5
  9
$AUNITS
 70
     0
  9
$AUPREC
 70
     0
  9
$MENU
  1
ACAD
  9
$ELEVATION
 40
0.0
  9
$PELEVATION
 40
0.0
  9
$THICKNESS
 40
0.0
  9
$LIMCHECK
 70
     0
  9
$CHAMFERA
 40
2.5
  9
$CHAMFERB
 40
2.5
  9
$CHAMFERC
 40
0.0
  9
$CHAMFERD
 40
0.0
  9
$SKPOLY
 70
     0
  9
$TDCREATE
 40
2448793.749559954
  9
$TDUCREATE
 40
2448793.666226620
  9
$TDUPDATE
 40
2454747.435349641
  9
$TDUUPDATE
 40
2454747.352016308
  9
$TDINDWG
 40
0.0429376042
  9
$TDUSRTIMER
 40
0.0429352546
  9
$USRTIMER
 70
     1
  9
$ANGBASE
 50
0.0
  9
$ANGDIR
 70
     0
  9
$PDMODE
 70
     0
  9
$PDSIZE
 40
0.0
  9
$PLINEWID
 40
0.0
  9
$SPLFRAME
 70
     0
  9
$SPLINETYPE
 70
     6
  9
$SPLINESEGS
 70
     8
  9
$HANDSEED
  5
1900
  9
$SURFTAB1
 70
     6
  9
$SURFTAB2
 70
     6
  9
$SURFTYPE
 70
     6
  9
$SURFU
 70
     6
  9
$SURFV
 70
     6
  9
$UCSBASE
  2

  9
$UCSNAME
  2

  9
$UCSORG
 10
0.0
 20
0.0
 30
0.0
  9
$UCSXDIR
 10
1.0
 20
0.0
 30
0.0
  9
$UCSYDIR
 10
0.0
 20
1.0
 30
0.0
  9
$UCSORTHOREF
  2

  9
$UCSORTHOVIEW
 70
     0
  9
$UCSORGTOP
 10
0.0
 20
0.0
 30
0.0
  9
$UCSORGBOTTOM
 10
0.0
 20
0.0
 30
0.0
  9
$UCSORGLEFT
 10
0.0
 20
0.0
 30
0.0
  9
$UCSORGRIGHT
 10
0.0
 20
0.0
 30
0.0
  9
$UCSORGFRONT
 10
0.0
 20
0.0
 30
0.0
  9
$UCSORGBACK
 10
0.0
 20
0.0
 30
0.0
  9
$PUCSBASE
  2

  9
$PUCSNAME
  2

  9
$PUCSORG
 10
0.0
 20
0.0
 30
0.0
  9
$PUCSXDIR
 10
1.0
 20
0.0
 30
0.0
  9
$PUCSYDIR
 10
0.0
 20
1.0
 30
0.0
  9
$PUCSORTHOREF
  2

  9
$PUCSORTHOVIEW
 70
     0
  9
$PUCSORGTOP
 10
0.0
 20
0.0
 30
0.0
  9
$PUCSORGBOTTOM
 10
0.0
 20
0.0
 30
0.0
  9
$PUCSORGLEFT
 10
0.0
 20
0.0
 30
0.0
  9
$PUCSORGRIGHT
 10
0.0
 20
0.0
 30
0.0
  9
$PUCSORGFRONT
 10
0.0
 20
0.0
 30
0.0
  9
$PUCSORGBACK
 10
0.0
 20
0.0
 30
0.0
  9
$USERI1
 70
     0
  9
$USERI2
 70
     0
  9
$USERI3
 70
     0
  9
$USERI4
 70
     0
  9
$USERI5
 70
     0
  9
$USERR1
 40
0.0
  9
$USERR2
 40
0.0
  9
$USERR3
 40
0.0
  9
$USERR4
 40
0.0
  9
$USERR5
 40
0.0
  9
$WORLDVIEW
 70
     1
  9
$SHADEDGE
 70
     3
  9
$SHADEDIF
 70
    70
  9
$TILEMODE
 70
     1
  9
$MAXACTVP
 70
    64
  9
$PINSBASE
 10
0.0
 20
0.0
 30
0.0
  9
$PLIMCHECK
 70
     0
  9
$PEXTMIN
 10
1.000000000000000E+20
 20
1.000000000000000E+20
 30
1.000000000000000E+20
  9
$PEXTMAX
 10
-1.000000000000000E+20
 20
-1.000000000000000E+20
 30
-1.000000000000000E+20
  9
$PLIMMIN
 10
0.0
 20
0.0
  9
$PLIMMAX
 10
12.0
 20
9.0
  9
$UNITMODE
 70
     0
  9
$VISRETAIN
 70
     1
  9
$PLINEGEN
 70
     0
  9
$PSLTSCALE
 70
     1
  9
$TREEDEPTH
 70
  3020
  9
$CMLSTYLE
  2
Standard
  9
$CMLJUST
 70
     0
  9
$CMLSCALE
 40
1.0
  9
$PROXYGRAPHICS
 70
     1
  9
$MEASUREMENT
 70
     0
  9
$CELWEIGHT
370
    -1
  9
$ENDCAPS
280
     0
  9
$JOINSTYLE
280
     0
  9
$LWDISPLAY
290
     0
  9
$INSUNITS
 70
     0
  9
$HYPERLINKBASE
  1

  9
$STYLESHEET
  1

  9
$XEDIT
290
     1
  9
$CEPSNTYPE
380
     0
  9
$PSTYLEMODE
290
     1
  9
$FINGERPRINTGUID
  2
{058D1A67-C83A-47C2-9ACB-B02E208D7C6E}
  9
$VERSIONGUID
  2
{2E22AD48-398C-4310-91DB-88B7F93E32C4}
  9
$EXTNAMES
290
     1
  9
$PSVPSCALE
 40
0.0
  9
$OLESTARTUP
290
     0
  9
$SORTENTS
280
   127
  9
$INDEXCTL
280
     0
  9
$HIDETEXT
280
     0
  9
$XCLIPFRAME
290
     0
  9
$HALOGAP
280
     0
  9
$OBSCOLOR
 70
   257
  9
$OBSLTYPE
280
     0
  9
$INTERSECTIONDISPLAY
280
     0
  9
$INTERSECTIONCOLOR
 70
   257
  9
$DIMASSOC
280
     2
  9
$PROJECTNAME
  1

  0
ENDSEC
  0
SECTION
  2
CLASSES
  0
CLASS
  1
ACDBDICTIONARYWDFLT
  2
AcDbDictionaryWithDefault
  3
ObjectDBX Classes
 90
        0
 91
        1
280
     0
281
     0
  0
CLASS
  1
TABLESTYLE
  2
AcDbTableStyle
  3
ObjectDBX Classes
 90
     4095
 91
        1
280
     0
281
     0
  0
CLASS
  1
DICTIONARYVAR
  2
AcDbDictionaryVar
  3
ObjectDBX Classes
 90
        0
 91
        5
280
     0
281
     0
  0
CLASS
  1
MATERIAL
  2
AcDbMaterial
  3
ObjectDBX Classes
 90
     1153
 91
        3
280
     0
281
     0
  0
CLASS
  1
VISUALSTYLE
  2
AcDbVisualStyle
  3
ObjectDBX Classes
 90
     4095
 91
       16
280
     0
281
     0
  0
CLASS
  1
SCALE
  2
AcDbScale
  3
ObjectDBX Classes
 90
     1153
 91
       34
280
     0
281
     0
  0
CLASS
  1
MLEADERSTYLE
  2
AcDbMLeaderStyle
  3
ACDB_MLEADERSTYLE_CLASS
 90
     4095
 91
        1
280
     0
281
     0
  0
CLASS
  1
AMGSETTINGSOBJ
  2
AmgSettingsObj
  3
"AcadM|Product Description: AutoCAD Mechanical|Company: Autodesk, Inc."
 90
     1024
 91
        5
280
     0
281
     0
  0
CLASS
  1
ACME_DOCUMENT
  2
AcMeDbDoc
  3
AcMeServices
 90
     1024
 91
        1
280
     0
281
     0
  0
CLASS
  1
ACMESCOPE
  2
AcMeScope
  3
AcMeServices
 90
     1024
 91
        1
280
     0
281
     0
  0
CLASS
  1
ACMECOMMANDHISTORY
  2
AcMeCommandHistory
  3
AcMeServices
 90
     1024
 91
        1
280
     0
281
     0
  0
CLASS
  1
ACIMSYSVARMAN
  2
AcImSysVarManager
  3
AcMeServices
 90
     1024
 91
        5
280
     0
281
     0
  0
CLASS
  1
ACIMINTSYSVAR
  2
AcImIntSysVar
  3
AcMeServices
 90
     1024
 91
       28
280
     0
281
     0
  0
CLASS
  1
ACMEDRAWINGMAN
  2
AcMeDrawingMan
  3
AcMeServices
 90
     1024
 91
        1
280
     0
281
     0
  0
CLASS
  1
ACMEVIEW
  2
AcMeView
  3
AcMeServices
 90
     1024
 91
        1
280
     0
281
     0
  0
CLASS
  1
ACDBENTITYCACHE
  2
AcMeEntityCache
  3
AcMeServices
 90
     1024
 91
        1
280
     0
281
     0
  0
CLASS
  1
GSMANAGER
  2
AcMeGSManager
  3
AcMeServices
 90
     1024
 91
        1
280
     0
281
     0
  0
CLASS
  1
AMDTINTERNALREACTOR
  2
AmdtInternalReactor
  3
AcMeServices
 90
     1024
 91
        3
280
     0
281
     0
  0
CLASS
  1
ACMESTATEMGR
  2
AcMeStateMgr
  3
AcMeServices
 90
     1024
 91
        1
280
     0
281
     0
  0
CLASS
  1
ACGREFMASTER
  2
AcGrefMaster
  3
AcAttribServices
 90
     1024
 91
        1
280
     0
281
     0
  0
CLASS
  1
AM_DRAWING_MGR
  2
AcDmDwgMgr
  3
AcMechDwgViewMgmt
 90
     1024
 91
        1
280
     0
281
     0
  0
CLASS
  1
AM_DWG_DOCUMENT
  2
AcDmDwgDocument
  3
AcMechDwgViewMgmt
 90
     1024
 91
        1
280
     0
281
     0
  0
CLASS
  1
AM_DWG_SHEET
  2
AcDmSheet
  3
AcMechDwgViewMgmt
 90
     1024
 91
        1
280
     0
281
     0
  0
CLASS
  1
AM_VIEWDIMPARMAP
  2
AcDmViewDimParMap
  3
AcMechDwgViewMgmt
 90
     1024
 91
        1
280
     0
281
     0
  0
CLASS
  1
ACIMREALSYSVAR
  2
AcImRealSysVar
  3
AcMeServices
 90
     1024
 91
        1
280
     0
281
     0
  0
CLASS
  1
AM_DWGMGR_NAME
  2
AcDmDwgMgrName
  3
AcMechDwgViewMgmt
 90
     1024
 91
        1
280
     0
281
     0
  0
CLASS
  1
ACME_DATABASE
  2
AcMeDbDatabase
  3
AcMeServices
 90
     1024
 91
        1
280
     0
281
     0
  0
CLASS
  1
ACRFINSADJUSTERMGR
  2
AcRfInsAdjusterMgr
  3
AcMeServices
 90
     1024
 91
        1
280
     0
281
     0
  0
CLASS
  1
ACGREFACADMASTER
  2
AcGrefacadMaster
  3
AcGrefServices
 90
     1024
 91
        1
280
     0
281
     0
  0
CLASS
  1
AMDTMENUSTATEMGR
  2
AmdtMenuStateMgr
  3
McadcomServices
 90
     1024
 91
        1
280
     0
281
     0
  0
CLASS
  1
AMDTMCOMMENUSTATE
  2
AmdtMcomMenuState
  3
McadcomServices
 90
     1024
 91
        1
280
     0
281
     0
  0
CLASS
  1
AMIMASTER
  2
AmiMaster
  3
AmiServices
 90
     1024
 91
        1
280
     0
281
     0
  0
CLASS
  1
MAPIAMMOUDLE
  2
MApiAmModule
  3
MApiAmServices
 90
     1024
 91
        1
280
     0
281
     0
  0
CLASS
  1
ACIMSTRSYSVAR
  2
AcImStrSysVar
  3
AcMeServices
 90
     1024
 91
        5
280
     0
281
     0
  0
CLASS
  1
AMDTADMENUSTATE
  2
AmdtAdMenuState
  3
DesignerServices
 90
     1024
 91
        1
280
     0
281
     0
  0
CLASS
  1
ADAPPL
  2
AcAdAppl
  3
DesignerServices
 90
     1024
 91
        1
280
     0
281
     0
  0
CLASS
  1
DEPMGR
  2
AcAdDepMgr
  3
DesignerServices
 90
     1024
 91
        1
280
     0
281
     0
  0
CLASS
  1
PARAMMGR
  2
AcAdParamMgr
  3
DesignerServices
 90
     1024
 91
        1
280
     0
281
     0
  0
CLASS
  1
PARAMSCOPE
  2
AcAdParamScope
  3
DesignerServices
 90
     1024
 91
        1
280
     0
281
     0
  0
CLASS
  1
NAMEDAPPL
  2
AcAdNamedAppl
  3
DesignerServices
 90
     1024
 91
        1
280
     0
281
     0
  0
CLASS
  1
AMDTDMMENUSTATE
  2
AmdtDmMenuState
  3
AcMechDwgViewMgmt
 90
     1024
 91
        1
280
     0
281
     0
  0
CLASS
  1
AMDTAMMENUSTATE
  2
AmdtAmMenuState
  3
DesignerAssemblies
 90
     1024
 91
        1
280
     0
281
     0
  0
CLASS
  1
ACAMPROJECT
  2
AcAmProject
  3
DesignerAssemblies
 90
     1024
 91
        1
280
     0
281
     0
  0
CLASS
  1
ACAMGRCOMPDEF
  2
AcAmGrCompDef
  3
DesignerAssemblies
 90
     1024
 91
        1
280
     0
281
     0
  0
CLASS
  1
ACCMCONTEXT
  2
AcCmContext
  3
DesignerAssemblies
 90
     1024
 91
        1
280
     0
281
     0
  0
CLASS
  1
ACAMCOMPDEF
  2
AcAmCompDef
  3
DesignerAssemblies
 90
     1024
 91
        1
280
     0
281
     0
  0
CLASS
  1
ACAMCOMPDEFMGR
  2
AcAmCompDefMgr
  3
DesignerAssemblies
 90
     1024
 91
        1
280
     0
281
     0
  0
CLASS
  1
AMCONTEXTMGR
  2
AcAmContextMgr
  3
DesignerAssemblies
 90
     1024
 91
        1
280
     0
281
     0
  0
CLASS
  1
ACAMCONTEXTMODELER
  2
AcAmContextModeler
  3
DesignerAssemblies
 90
     1024
 91
        1
280
     0
281
     0
  0
CLASS
  1
ACMDATADICTIONARY
  2
AcmDataDictionary
  3
"AcmSymBB|Product Description: AutoCAD Mechanical|Company: Autodesk, Inc."
 90
     1024
 91
        1
280
     0
281
     0
  0
CLASS
  1
CATALOGSTATE
  2
AcAmCatalogState
  3
DesignerAssemblies
 90
     1024
 91
        1
280
     0
281
     0
  0
CLASS
  1
ACAMGRCOMPDEFSET
  2
AcAmGrCompDefSet
  3
DesignerAssemblies
 90
     1024
 91
        1
280
     0
281
     0
  0
CLASS
  1
AMDTBROWSERDBTAB
  2
AmdtBrowserDbTab
  3
McadcomServices
 90
     1024
 91
        1
280
     0
281
     0
  0
CLASS
  1
CBROWSERAPPOBJECT
  2
CBrowserAppObject
  3
McadcomServices
 90
     1024
 91
        3
280
     0
281
     0
  0
CLASS
  1
DM_PLACEHOLDER
  2
AcDmSelsetPlaceholder
  3
AcMechDwgViewMgmt
 90
     1024
 91
        1
280
     0
281
     0
  0
CLASS
  1
ACMSTANDARDANSI
  2
AcmStandardANSI
  3
"Amdt_StdImp|Product Description: AutoCAD Mechanical|Company: Autodesk, Inc."
 90
     1024
 91
        2
280
     0
281
     0
  0
CLASS
  1
AMGOBJPROPCFG
  2
AmgObjPropCfg
  3
"AmgLay|Product Description: AutoCAD Mechanical|Company: Autodesk, Inc."
 90
     1025
 91
        2
280
     0
281
     0
  0
CLASS
  1
ACMSURFSTANDARDANSI
  2
AcmSurfTextStdANSI
  3
"Amdt_StdImp|Product Description: AutoCAD Mechanical|Company: Autodesk, Inc."
 90
     1024
 91
        2
280
     0
281
     0
  0
CLASS
  1
ACMFCFSTANDARDANSI
  2
AcmFCFStdANSI
  3
"Amdt_StdImp|Product Description: AutoCAD Mechanical|Company: Autodesk, Inc."
 90
     1024
 91
        2
280
     0
281
     0
  0
CLASS
  1
ACMWELDSTANDARDANSI
  2
AcmWeldingStdANSI
  3
"Amdt_StdImp|Product Description: AutoCAD Mechanical|Company: Autodesk, Inc."
 90
     1024
 91
        2
280
     0
281
     0
  0
CLASS
  1
ACMIDSTANDARDANSI
  2
AcmIdStdANSI
  3
"Amdt_StdImp|Product Description: AutoCAD Mechanical|Company: Autodesk, Inc."
 90
     1024
 91
        2
280
     0
281
     0
  0
CLASS
  1
ACMDATUMSTANDARDANSI
  2
AcmDatumStdANSI
  3
"Amdt_StdImp|Product Description: AutoCAD Mechanical|Company: Autodesk, Inc."
 90
     1024
 91
        2
280
     0
281
     0
  0
CLASS
  1
ACMBOMSTANDARDANSI
  2
AcmBOMStdANSI
  3
"Amdt_StdImp|Product Description: AutoCAD Mechanical|Company: Autodesk, Inc."
 90
     1024
 91
        2
280
     0
281
     0
  0
CLASS
  1
ACMDETAILSTANDARDANSI
  2
AmdtDetailSymStdANSI
  3
"Amdt_StdImp|Product Description: AutoCAD Mechanical|Company: Autodesk, Inc."
 90
     1024
 91
        2
280
     0
281
     0
  0
CLASS
  1
ACMSECTIONSTANDARDANSI
  2
AmdtSectionSymStdANSI
  3
"Amdt_StdImp|Product Description: AutoCAD Mechanical|Company: Autodesk, Inc."
 90
     1024
 91
        2
280
     0
281
     0
  0
CLASS
  1
ACMCENTERLINESTANDARDANSI
  2
AmdtCenterLineStdANSI
  3
"Amdt_StdImp|Product Description: AutoCAD Mechanical|Company: Autodesk, Inc."
 90
     1024
 91
        2
280
     0
281
     0
  0
CLASS
  1
ACMTHREADLINESTANDARDANSI
  2
AmdtThreadLineStdANSI
  3
"Amdt_StdImp|Product Description: AutoCAD Mechanical|Company: Autodesk, Inc."
 90
     1024
 91
        2
280
     0
281
     0
  0
CLASS
  1
ACMNOTESTANDARDANSI
  2
AmdtNoteStdANSI
  3
"Amdt_StdImp|Product Description: AutoCAD Mechanical|Company: Autodesk, Inc."
 90
     1024
 91
        2
280
     0
281
     0
  0
CLASS
  1
ACMTAPERSTANDARDANSI
  2
AcmTaperStdANSI
  3
"Amdt_StdImp|Product Description: AutoCAD Mechanical|Company: Autodesk, Inc."
 90
     1024
 91
        2
280
     0
281
     0
  0
CLASS
  1
ACMANOOTATIONVIEWSTANDARDANSI
  2
AmdtAnViewStdANSI
  3
"Amdt_StdImp|Product Description: AutoCAD Mechanical|Company: Autodesk, Inc."
 90
     1024
 91
        2
280
     0
281
     0
  0
CLASS
  1
AMDTNOTETEMPLATEDB
  2
AmdtNoteTemplateDB
  3
AcmSymBB|Product Description: AutoCAD Mechanical|Company: Autodesk, Inc.
 90
     1024
 91
       24
280
     0
281
     0
  0
CLASS
  1
ACAMGLAYSTD
  2
AcAmgLayStd
  3
"AmgLay|Product Description: AutoCAD Mechanical|Company: Autodesk, Inc."
 90
     1024
 91
        4
280
     0
281
     0
  0
CLASS
  1
ACAMGDIMSTD
  2
AcAmgDimStd
  3
"AmgDim|Product Description: AutoCAD Mechanical|Company: Autodesk, Inc."
 90
     1024
 91
        4
280
     0
281
     0
  0
CLASS
  1
ACAMGHOLECHARTSTDANSI
  2
AcAmgHoleChartStdANSI
  3
AmgDim|Product Description: AutoCAD Mechanical|Company: Autodesk, Inc.
 90
     1024
 91
        2
280
     0
281
     0
  0
CLASS
  1
ACAMGTITLESTD
  2
AcAmgTitleStd
  3
"AmgTitle|Product Description: AutoCAD Mechanical|Company: Autodesk, Inc."
 90
     4095
 91
        4
280
     0
281
     0
  0
CLASS
  1
ACMSTANDARDDIN
  2
AcmStandardDIN
  3
"Amdt_StdImp|Product Description: AutoCAD Mechanical|Company: Autodesk, Inc."
 90
     1024
 91
        1
280
     0
281
     0
  0
CLASS
  1
AMDTEDGESTANDARDDIN13715
  2
AmdtEdgeStdDIN13715
  3
"Amdt_StdImp|Product Description: AutoCAD Mechanical|Company: Autodesk, Inc."
 90
     1024
 91
        1
280
     0
281
     0
  0
CLASS
  1
ACMSURFSTANDARDDIN2002
  2
AcmSurfTextStdDIN2002
  3
"Amdt_StdImp|Product Description: AutoCAD Mechanical|Company: Autodesk, Inc."
 90
     1024
 91
        1
280
     0
281
     0
  0
CLASS
  1
ACMFCFSTANDARDDIN
  2
AcmFCFStdDIN
  3
"Amdt_StdImp|Product Description: AutoCAD Mechanical|Company: Autodesk, Inc."
 90
     1024
 91
        1
280
     0
281
     0
  0
CLASS
  1
ACMWELDSTANDARDDIN
  2
AcmWeldingStdDIN
  3
"Amdt_StdImp|Product Description: AutoCAD Mechanical|Company: Autodesk, Inc."
 90
     1024
 91
        1
280
     0
281
     0
  0
CLASS
  1
ACMIDSTANDARDDIN
  2
AcmIdStdDIN
  3
"Amdt_StdImp|Product Description: AutoCAD Mechanical|Company: Autodesk, Inc."
 90
     1024
 91
        1
280
     0
281
     0
  0
CLASS
  1
ACMDATUMSTANDARDDIN
  2
AcmDatumStdDIN
  3
"Amdt_StdImp|Product Description: AutoCAD Mechanical|Company: Autodesk, Inc."
 90
     1024
 91
        1
280
     0
281
     0
  0
CLASS
  1
ACMBOMSTANDARDDIN
  2
AcmBOMStdDIN
  3
"Amdt_StdImp|Product Description: AutoCAD Mechanical|Company: Autodesk, Inc."
 90
     1024
 91
        1
280
     0
281
     0
  0
CLASS
  1
ACMDETAILSTANDARDDIN
  2
AmdtDetailSymStdDIN
  3
"Amdt_StdImp|Product Description: AutoCAD Mechanical|Company: Autodesk, Inc."
 90
     1024
 91
        1
280
     0
281
     0
  0
CLASS
  1
ACMSECTIONSTANDARDDIN
  2
AmdtSectionSymStdDIN
  3
"Amdt_StdImp|Product Description: AutoCAD Mechanical|Company: Autodesk, Inc."
 90
     1024
 91
        1
280
     0
281
     0
  0
CLASS
  1
ACMCENTERLINESTANDARDDIN
  2
AmdtCenterLineStdDIN
  3
"Amdt_StdImp|Product Description: AutoCAD Mechanical|Company: Autodesk, Inc."
 90
     1024
 91
        1
280
     0
281
     0
  0
CLASS
  1
ACMTHREADLINESTANDARDDIN
  2
AmdtThreadLineStdDIN
  3
"Amdt_StdImp|Product Description: AutoCAD Mechanical|Company: Autodesk, Inc."
 90
     1024
 91
        1
280
     0
281
     0
  0
CLASS
  1
ACMNOTESTANDARDDIN
  2
AmdtNoteStdDIN
  3
"Amdt_StdImp|Product Description: AutoCAD Mechanical|Company: Autodesk, Inc."
 90
     1024
 91
        1
280
     0
281
     0
  0
CLASS
  1
ACMTAPERSTANDARDDIN
  2
AcmTaperStdDIN
  3
"Amdt_StdImp|Product Description: AutoCAD Mechanical|Company: Autodesk, Inc."
 90
     1024
 91
        1
280
     0
281
     0
  0
CLASS
  1
ACMANOOTATIONVIEWSTANDARDDIN
  2
AmdtAnViewStdDIN
  3
"Amdt_StdImp|Product Description: AutoCAD Mechanical|Company: Autodesk, Inc."
 90
     1024
 91
        1
280
     0
281
     0
  0
CLASS
  1
ACAMGHOLECHARTSTDDIN
  2
AcAmgHoleChartStdDIN
  3
AmgDim|Product Description: AutoCAD Mechanical|Company: Autodesk, Inc.
 90
     1024
 91
        1
280
     0
281
     0
  0
CLASS
  1
ACMSTANDARDISO
  2
AcmStandardISO
  3
"Amdt_StdImp|Product Description: AutoCAD Mechanical|Company: Autodesk, Inc."
 90
     1024
 91
        1
280
     0
281
     0
  0
CLASS
  1
AMDTEDGESTANDARDISO
  2
AmdtEdgeStdISO
  3
"Amdt_StdImp|Product Description: AutoCAD Mechanical|Company: Autodesk, Inc."
 90
     1024
 91
        1
280
     0
281
     0
  0
CLASS
  1
ACMSURFSTANDARDISO2002
  2
AcmSurfTextStdISO2002
  3
"Amdt_StdImp|Product Description: AutoCAD Mechanical|Company: Autodesk, Inc."
 90
     1024
 91
        1
280
     0
281
     0
  0
CLASS
  1
ACMFCFSTANDARDISO
  2
AcmFCFStdISO
  3
"Amdt_StdImp|Product Description: AutoCAD Mechanical|Company: Autodesk, Inc."
 90
     1024
 91
        1
280
     0
281
     0
  0
CLASS
  1
ACMWELDSTANDARDISO
  2
AcmWeldingStdISO
  3
"Amdt_StdImp|Product Description: AutoCAD Mechanical|Company: Autodesk, Inc."
 90
     1024
 91
        1
280
     0
281
     0
  0
CLASS
  1
ACMIDSTANDARDISO
  2
AcmIdStdISO
  3
"Amdt_StdImp|Product Description: AutoCAD Mechanical|Company: Autodesk, Inc."
 90
     1024
 91
        1
280
     0
281
     0
  0
CLASS
  1
ACMDATUMSTANDARDISO
  2
AcmDatumStdISO
  3
"Amdt_StdImp|Product Description: AutoCAD Mechanical|Company: Autodesk, Inc."
 90
     1024
 91
        1
280
     0
281
     0
  0
CLASS
  1
ACMBOMSTANDARDISO
  2
AcmBOMStdISO
  3
"Amdt_StdImp|Product Description: AutoCAD Mechanical|Company: Autodesk, Inc."
 90
     1024
 91
        1
280
     0
281
     0
  0
CLASS
  1
ACMDETAILSTANDARDISO
  2
AmdtDetailSymStdISO
  3
"Amdt_StdImp|Product Description: AutoCAD Mechanical|Company: Autodesk, Inc."
 90
     1024
 91
        1
280
     0
281
     0
  0
CLASS
  1
ACMSECTIONSTANDARDISO2001
  2
AmdtSectionSymStdISO2001
  3
"Amdt_StdImp|Product Description: AutoCAD Mechanical|Company: Autodesk, Inc."
 90
     1024
 91
        1
280
     0
281
     0
  0
CLASS
  1
ACMCENTERLINESTANDARDISO
  2
AmdtCenterLineStdISO
  3
"Amdt_StdImp|Product Description: AutoCAD Mechanical|Company: Autodesk, Inc."
 90
     1024
 91
        1
280
     0
281
     0
  0
CLASS
  1
ACMNOTESTANDARDISO
  2
AmdtNoteStdISO
  3
"Amdt_StdImp|Product Description: AutoCAD Mechanical|Company: Autodesk, Inc."
 90
     1024
 91
        1
280
     0
281
     0
  0
CLASS
  1
ACAMGHOLECHARTSTDISO
  2
AcAmgHoleChartStdISO
  3
AmgDim|Product Description: AutoCAD Mechanical|Company: Autodesk, Inc.
 90
     1024
 91
        1
280
     0
281
     0
  0
CLASS
  1
ACMTHREADLINESTANDARDISO
  2
AmdtThreadLineStdISO
  3
"Amdt_StdImp|Product Description: AutoCAD Mechanical|Company: Autodesk, Inc."
 90
     1024
 91
        1
280
     0
281
     0
  0
CLASS
  1
ACMTAPERSTANDARDISO
  2
AcmTaperStdISO
  3
"Amdt_StdImp|Product Description: AutoCAD Mechanical|Company: Autodesk, Inc."
 90
     1024
 91
        1
280
     0
281
     0
  0
CLASS
  1
ACMANOOTATIONVIEWSTANDARDISO
  2
AmdtAnViewStdISO
  3
"Amdt_StdImp|Product Description: AutoCAD Mechanical|Company: Autodesk, Inc."
 90
     1024
 91
        1
280
     0
281
     0
  0
CLASS
  1
ACAMGFILTERDAT
  2
AcAmgFilterDat
  3
"AcadM|Product Description: AutoCAD Mechanical|Company: Autodesk, Inc."
 90
     1024
 91
        0
280
     0
281
     0
  0
CLASS
  1
SORTENTSTABLE
  2
AcDbSortentsTable
  3
ObjectDBX Classes
 90
        0
 91
        2
280
     0
281
     0
  0
CLASS
  1
DIMASSOC
  2
AcDbDimAssoc
  3
"AcDbDimAssoc|Product Desc:     AcDim ARX App For Dimension|Company:          Autodesk, Inc.|WEB Address:      www.autodesk.com"
 90
        0
 91
        7
280
     0
281
     0
  0
CLASS
  1
ACMPARTREF
  2
AcmPartRef
  3
"AcmSymBB|Product Description: AutoCAD Mechanical|Company: Autodesk, Inc."
 90
     4095
 91
        2
280
     0
281
     1
  0
CLASS
  1
ACDBCIRCARCRES
  2
AcDbCircArcRes
  3
AcGrefServices
 90
     1024
 91
        0
280
     0
281
     0
  0
CLASS
  1
ACMDATAENTRYPART
  2
AcmDataEntryPart
  3
AcmSymBB|Product Description: AutoCAD Mechanical|Company: Autodesk, Inc.
 90
     1024
 91
        1
280
     0
281
     0
  0
CLASS
  1
CELLSTYLEMAP
  2
AcDbCellStyleMap
  3
ObjectDBX Classes
 90
     1152
 91
        2
280
     0
281
     0
  0
CLASS
  1
ACDBLINERES
  2
AcDbLineRes
  3
AcGrefServices
 90
     1024
 91
        2
280
     0
281
     0
  0
ENDSEC
  0
SECTION
  2
TABLES
  0
TABLE
  2
VPORT
  5
8
330
0
100
AcDbSymbolTable
 70
     1
  0
VPORT
  5
A05
330
8
100
AcDbSymbolTableRecord
100
AcDbViewportTableRecord
  2
*Active
 70
     0
 10
0.0
 20
0.0
 11
1.0
 21
1.0
 12
1302.954362470602
 22
-389.3194545154075
 13
0.0
 23
0.0
 14
0.125
 24
0.125
 15
1.0
 25
1.0
 16
0.0
 26
0.0
 36
1.0
 17
0.0
 27
0.0
 37
0.0
 40
461.3279464049617
 41
1.453771289537712
 42
50.0
 43
0.0
 44
0.0
 50
0.0
 51
0.0
 71
     0
 72
   100
 73
     1
 74
     1
 75
     0
 76
     0
 77
     0
 78
     0
281
     0
 65
     1
110
0.0
120
0.0
130
0.0
111
1.0
121
0.0
131
0.0
112
0.0
122
1.0
132
0.0
 79
     0
146
0.0
  0
ENDTAB
  0
TABLE
  2
LTYPE
  5
5
330
0
100
AcDbSymbolTable
 70
    70
  0
LTYPE
  5
13
330
5
100
AcDbSymbolTableRecord
100
AcDbLinetypeTableRecord
  2
ByBlock
 70
     0
  3

 72
    65
 73
     0
 40
0.0
  0
LTYPE
  5
14
330
5
100
AcDbSymbolTableRecord
100
AcDbLinetypeTableRecord
  2
ByLayer
 70
     0
  3

 72
    65
 73
     0
 40
0.0
  0
LTYPE
  5
15
330
5
100
AcDbSymbolTableRecord
100
AcDbLinetypeTableRecord
  2
CONTINUOUS
 70
     0
  3
Solid line
 72
    65
 73
     0
 40
0.0
  0
LTYPE
  5
26
330
5
100
AcDbSymbolTableRecord
100
AcDbLinetypeTableRecord
  2
DASHED
 70
     0
  3
Dashed line
 72
    65
 73
     2
 40
0.75
 49
0.5
 74
     0
 49
-0.25
 74
     0
  0
LTYPE
  5
27
330
5
100
AcDbSymbolTableRecord
100
AcDbLinetypeTableRecord
  2
CENTER
 70
     0
  3
Center line
 72
    65
 73
     4
 40
2.0
 49
1.25
 74
     0
 49
-0.25
 74
     0
 49
0.25
 74
     0
 49
-0.25
 74
     0
  0
LTYPE
  5
A8E
330
5
100
AcDbSymbolTableRecord
100
AcDbLinetypeTableRecord
  2
HIDDEN
 70
     0
  3
Verdeckt
 72
    65
 73
     2
 40
0.375
 49
0.25
 74
     0
 49
-0.125
 74
     0
  0
LTYPE
  5
A8F
330
5
100
AcDbSymbolTableRecord
100
AcDbLinetypeTableRecord
  2
PHANTOM2
 70
     0
  3
Phantom (.5x) ___ _ _ ___ _ _ ___ _ _ ___ _ _
 72
    65
 73
     6
 40
1.25
 49
0.625
 74
     0
 49
-0.125
 74
     0
 49
0.125
 74
     0
 49
-0.125
 74
     0
 49
0.125
 74
     0
 49
-0.125
 74
     0
  0
LTYPE
  5
AD3
330
5
100
AcDbSymbolTableRecord
100
AcDbLinetypeTableRecord
  2
ACANSTGB
 70
     0
  3
__ . . __ . .
 72
    65
 73
     6
 40
0.35433070866
 49
0.15748031496
 74
     0
 49
-0.03937007874
 74
     0
 49
0.03937007874
 74
     0
 49
-0.03937007874
 74
     0
 49
0.03937007874
 74
     0
 49
-0.03937007874
 74
     0
  0
LTYPE
  5
AD4
330
5
100
AcDbSymbolTableRecord
100
AcDbLinetypeTableRecord
  2
ACANSTGL
 70
     0
  3
_ _ _ _ _
 72
    65
 73
     2
 40
0.11811023622
 49
0.07874015748
 74
     0
 49
-0.03937007874
 74
     0
  0
LTYPE
  5
B40
330
5
100
AcDbSymbolTableRecord
100
AcDbLinetypeTableRecord
  2
AM_ISO02W050
 70
     0
  3
__ __ __ __ __ __ __ __ __ __ __ __ __ __ __
 72
    65
 73
     2
 40
7.5
 49
6.0
 74
     0
 49
-1.5
 74
     0
  0
LTYPE
  5
B41
330
5
100
AcDbSymbolTableRecord
100
AcDbLinetypeTableRecord
  2
AM_ISO08W050
 70
     0
  3
____ . ____ . ____ . ____ . ____ . ____ . ____
 72
    65
 73
     4
 40
18.0
 49
12.0
 74
     0
 49
-1.5
 74
     0
 49
3.0
 74
     0
 49
-1.5
 74
     0
  0
LTYPE
  5
B42
330
5
100
AcDbSymbolTableRecord
100
AcDbLinetypeTableRecord
  2
AM_ISO09W050
 70
     0
  3
_____ . . _____ . . _____ . . ____ .. ____
 72
    65
 73
     6
 40
22.5
 49
12.0
 74
     0
 49
-1.5
 74
     0
 49
3.0
 74
     0
 49
-1.5
 74
     0
 49
3.0
 74
     0
 49
-1.5
 74
     0
  0
LTYPE
  5
B43
330
5
100
AcDbSymbolTableRecord
100
AcDbLinetypeTableRecord
  2
Amconstr
 70
     0
  3
_______________________
 72
    65
 73
     2
 40
9999.0
 49
9999.0
 74
     0
 49
0.0
 74
     0
  0
LTYPE
  5
B44
330
5
100
AcDbSymbolTableRecord
100
AcDbLinetypeTableRecord
  2
AM_ISO08W050x2
 70
     0
  3
__ . __ . __ . __ . __ . __
 72
    65
 73
     4
 40
9.0
 49
6.0
 74
     0
 49
-0.75
 74
     0
 49
1.5
 74
     0
 49
-0.75
 74
     0
  0
LTYPE
  5
B45
330
5
100
AcDbSymbolTableRecord
100
AcDbLinetypeTableRecord
  2
AM_ISO02W050x2
 70
     0
  3
 _ _ _ _ _ _ _ _ _ _ _ _
 72
    65
 73
     2
 40
3.75
 49
3.0
 74
     0
 49
-0.75
 74
     0
  0
LTYPE
  5
B46
330
5
100
AcDbSymbolTableRecord
100
AcDbLinetypeTableRecord
  2
Amzigzag
 70
     0
  3
/\/-/\/-/\/-/\/-/\/-/\/
 72
    65
 73
     2
 40
11.0001
 49
0.0001
 74
     4
 75
   136
340
B47
 46
0.04
 50
0.0
 44
0.0
 45
0.0
 49
-11.0
 74
     0
  0
LTYPE
  5
B5E
330
5
100
AcDbSymbolTableRecord
100
AcDbLinetypeTableRecord
  2
ACDINWELD
 70
     0
  3
_ _ _ _ _
 72
    65
 73
     2
 40
2.0
 49
2.0
 74
     0
 49
-1.0
 74
     0
  0
LTYPE
  5
B61
330
5
100
AcDbSymbolTableRecord
100
AcDbLinetypeTableRecord
  2
ACDINTGB
 70
     0
  3
__ . . __ . .
 72
    65
 73
     6
 40
9.0
 49
4.0
 74
     0
 49
-1.0
 74
     0
 49
1.0
 74
     0
 49
-1.0
 74
     0
 49
1.0
 74
     0
 49
-1.0
 74
     0
  0
LTYPE
  5
B62
330
5
100
AcDbSymbolTableRecord
100
AcDbLinetypeTableRecord
  2
ACDINTGL
 70
     0
  3
_ _ _ _ _
 72
    65
 73
     2
 40
3.0
 49
2.0
 74
     0
 49
-1.0
 74
     0
  0
LTYPE
  5
B73
330
5
100
AcDbSymbolTableRecord
100
AcDbLinetypeTableRecord
  2
CENTER2
 70
     0
  3
Center (.5x) ___ _ ___ _ ___ _ ___ _ ___ _ ___
 72
    65
 73
     4
 40
1.125
 49
0.75
 74
     0
 49
-0.125
 74
     0
 49
0.125
 74
     0
 49
-0.125
 74
     0
  0
LTYPE
  5
B74
330
5
100
AcDbSymbolTableRecord
100
AcDbLinetypeTableRecord
  2
HIDDEN2
 70
     0
  3
Hidden (.5x) _ _ _ _ _ _ _ _ _ _ _ _ _ _ _ _ _
 72
    65
 73
     2
 40
0.1875
 49
0.125
 74
     0
 49
-0.0625
 74
     0
  0
LTYPE
  5
B88
330
5
100
AcDbSymbolTableRecord
100
AcDbLinetypeTableRecord
  2
ACISOWELD
 70
     0
  3
_ _ _ _ _
 72
    65
 73
     2
 40
2.0
 49
2.0
 74
     0
 49
-1.0
 74
     0
  0
LTYPE
  5
B8B
330
5
100
AcDbSymbolTableRecord
100
AcDbLinetypeTableRecord
  2
ACISOTGB
 70
     0
  3
__ . . __ . .
 72
    65
 73
     6
 40
9.0
 49
4.0
 74
     0
 49
-1.0
 74
     0
 49
1.0
 74
     0
 49
-1.0
 74
     0
 49
1.0
 74
     0
 49
-1.0
 74
     0
  0
LTYPE
  5
B8C
330
5
100
AcDbSymbolTableRecord
100
AcDbLinetypeTableRecord
  2
ACISOTGL
 70
     0
  3
_ _ _ _ _
 72
    65
 73
     2
 40
3.0
 49
2.0
 74
     0
 49
-1.0
 74
     0
  0
ENDTAB
  0
TABLE
  2
LAYER
  5
2
102
{ACAD_XDICTIONARY
360
BB6
102
}
330
0
100
AcDbSymbolTable
 70
    30
  0
LAYER
  5
10
102
{ACAD_XDICTIONARY
360
1137
102
}
330
2
100
AcDbSymbolTableRecord
100
AcDbLayerTableRecord
  2
0
 70
     0
 62
     7
  6
CONTINUOUS
370
    -3
390
F
  0
LAYER
  5
28
330
2
100
AcDbSymbolTableRecord
100
AcDbLayerTableRecord
  2
DEFPOINTS
 70
     0
 62
    -7
  6
CONTINUOUS
290
     0
370
    -3
390
F
  0
LAYER
  5
BB1
102
{ACAD_XDICTIONARY
360
BB2
102
}
330
2
100
AcDbSymbolTableRecord
100
AcDbLayerTableRecord
  2
AM_2 ( Kontur 0.25)
 70
     0
 62
     5
  6
CONTINUOUS
370
    25
390
F
1001
AcAecLayerStandard
1000

1000

  0
LAYER
  5
BB5
102
{ACAD_XDICTIONARY
360
114D
102
}
330
2
100
AcDbSymbolTableRecord
100
AcDbLayerTableRecord
  2
AM_0 ( Kontur 0.5 )
 70
     0
 62
     7
  6
CONTINUOUS
370
    50
390
F
1001
AcAecLayerStandard
1000

1000

  0
LAYER
  5
BBA
102
{ACAD_XDICTIONARY
360
114F
102
}
330
2
100
AcDbSymbolTableRecord
100
AcDbLayerTableRecord
  2
AM_3 ( Verdeckt )
 70
     0
 62
     6
  6
AM_ISO02W050
370
    25
390
F
1001
AcAecLayerStandard
1000

1000

  0
LAYER
  5
BBC
102
{ACAD_XDICTIONARY
360
1151
102
}
330
2
100
AcDbSymbolTableRecord
100
AcDbLayerTableRecord
  2
AM_7 (Mittellinie)
 70
     0
 62
     4
  6
AM_ISO08W050
370
    25
390
F
1001
AcAecLayerStandard
1000

1000

  0
LAYER
  5
CFB
102
{ACAD_XDICTIONARY
360
1153
102
}
330
2
100
AcDbSymbolTableRecord
100
AcDbLayerTableRecord
  2
AM_5 ( Bemassung)
 70
     0
 62
     3
  6
CONTINUOUS
370
    25
390
F
1001
AcAecLayerStandard
1000

1000

  0
LAYER
  5
1216
330
2
100
AcDbSymbolTableRecord
100
AcDbLayerTableRecord
  2
AM_3
 70
     0
 62
     6
  6
HIDDEN
370
    15
390
F
1001
AcAecLayerStandard
1000

1000

  0
LAYER
  5
1882
330
2
100
AcDbSymbolTableRecord
100
AcDbLayerTableRecord
  2
AM_12 ( Teile Referenz)
 70
     0
 62
     7
  6
CONTINUOUS
290
     0
370
    50
390
F
1001
AcAecLayerStandard
1000

1000

  0
LAYER
  5
1883
330
2
100
AcDbSymbolTableRecord
100
AcDbLayerTableRecord
  2
AM_PAREF ( Teilereferenz)
 70
     0
 62
     4
  6
CONTINUOUS
290
     0
370
    25
390
F
1001
AcAecLayerStandard
1000

1000

  0
ENDTAB
  0
TABLE
  2
STYLE
  5
3
330
0
100
AcDbSymbolTable
 70
    19
  0
STYLE
  5
11
330
3
100
AcDbSymbolTableRecord
100
AcDbTextStyleTableRecord
  2
AUDIT_I_060331094926-0
 70
     0
 40
0.0
 41
1.0
 50
0.0
 71
     0
 42
0.0
  3
@Arial Unicode MS
  4

  0
STYLE
  5
996
330
3
100
AcDbSymbolTableRecord
100
AcDbTextStyleTableRecord
  2
STANDARD
 70
     0
 40
0.0
 41
1.0
 50
0.0
 71
     0
 42
3.5
  3
ARIAL.TTF
  4

1001
ACAD
1000
Arial
1071
       34
  0
STYLE
  5
AC4
330
3
100
AcDbSymbolTableRecord
100
AcDbTextStyleTableRecord
  2
ACANSTS
 70
     0
 40
1.0
 41
1.0
 50
0.0
 71
     0
 42
3.5
  3
romans.shx
  4

  0
STYLE
  5
AD2
330
3
100
AcDbSymbolTableRecord
100
AcDbTextStyleTableRecord
  2
ACANSGDT
 70
     0
 40
0.0
 41
1.0
 50
0.0
 71
     0
 42
3.5
  3
amgdt.shx
  4

  0
STYLE
  5
B47
330
3
100
AcDbSymbolTableRecord
100
AcDbTextStyleTableRecord
  2

 70
     1
 40
0.0
 41
1.0
 50
0.0
 71
     0
 42
2.5
  3
genltshp.shx
  4

  0
STYLE
  5
B58
330
3
100
AcDbSymbolTableRecord
100
AcDbTextStyleTableRecord
  2
ACDINTS
 70
     0
 40
1.0
 41
1.0
 50
0.0
 71
     0
 42
3.5
  3
isocp.shx
  4

  0
STYLE
  5
B5C
330
3
100
AcDbSymbolTableRecord
100
AcDbTextStyleTableRecord
  2
ACDINGDT
 70
     0
 40
0.0
 41
1.0
 50
0.0
 71
     0
 42
3.5
  3
amgdt.shx
  4

  0
STYLE
  5
B82
330
3
100
AcDbSymbolTableRecord
100
AcDbTextStyleTableRecord
  2
ACISOTS
 70
     0
 40
1.0
 41
1.0
 50
0.0
 71
     0
 42
2.5
  3
ARIALN.TTF
  4

1001
ACAD
1000
Arial Narrow
1071
       34
  0
STYLE
  5
B86
330
3
100
AcDbSymbolTableRecord
100
AcDbTextStyleTableRecord
  2
ACISOGDT
 70
     0
 40
0.0
 41
1.0
 50
0.0
 71
     0
 42
2.5
  3
amgdt.shx
  4

  0
ENDTAB
  0
TABLE
  2
VIEW
  5
6
330
0
100
AcDbSymbolTable
 70
     0
  0
ENDTAB
  0
TABLE
  2
UCS
  5
7
330
0
100
AcDbSymbolTable
 70
     0
  0
ENDTAB
  0
TABLE
  2
APPID
  5
9
330
0
100
AcDbSymbolTable
 70
    67
  0
APPID
  5
12
330
9
100
AcDbSymbolTableRecord
100
AcDbRegAppTableRecord
  2
ACAD
 70
     0
  0
APPID
  5
A5A
330
9
100
AcDbSymbolTableRecord
100
AcDbRegAppTableRecord
  2
ACAD_MLEADERVER
 70
     0
  0
APPID
  5
A61
330
9
100
AcDbSymbolTableRecord
100
AcDbRegAppTableRecord
  2
MCAD_NO_VIS
 70
     0
  0
APPID
  5
A62
330
9
100
AcDbSymbolTableRecord
100
AcDbRegAppTableRecord
  2
ACAD_TEMP_GRAPHIC
 70
     0
  0
APPID
  5
A91
330
9
100
AcDbSymbolTableRecord
100
AcDbRegAppTableRecord
  2
AD_DRAW
 70
     0
  0
APPID
  5
A94
330
9
100
AcDbSymbolTableRecord
100
AcDbRegAppTableRecord
  2
ACATTRIBSERVICES
 70
     0
  0
APPID
  5
AB5
330
9
100
AcDbSymbolTableRecord
100
AcDbRegAppTableRecord
  2
DESIGNERASSEMBLIES
 70
     0
  0
APPID
  5
ABB
330
9
100
AcDbSymbolTableRecord
100
AcDbRegAppTableRecord
  2
ACADM_DIM_EDIT
 70
     0
  0
APPID
  5
ABC
330
9
100
AcDbSymbolTableRecord
100
AcDbRegAppTableRecord
  2
AMDT_DM_ADJ
 70
     0
  0
APPID
  5
AEB
330
9
100
AcDbSymbolTableRecord
100
AcDbRegAppTableRecord
  2
AcadAnnotative
 70
     0
  0
APPID
  5
AEC
330
9
100
AcDbSymbolTableRecord
100
AcDbRegAppTableRecord
  2
ACAD_DSTYLE_DIMARC_LENGTH_SYMBOL
 70
     0
  0
APPID
  5
AED
330
9
100
AcDbSymbolTableRecord
100
AcDbRegAppTableRecord
  2
AcAecLayerStandard
 70
     0
  0
APPID
  5
AEE
330
9
100
AcDbSymbolTableRecord
100
AcDbRegAppTableRecord
  2
ACAD_DSTYLE_DIMJOGGED_JOGANGLE_SYMBOL
 70
     0
  0
APPID
  5
AEF
330
9
100
AcDbSymbolTableRecord
100
AcDbRegAppTableRecord
  2
AcadAnnoPO
 70
     0
  0
APPID
  5
AF0
330
9
100
AcDbSymbolTableRecord
100
AcDbRegAppTableRecord
  2
ACAD_EXEMPT_FROM_CAD_STANDARDS
 70
     0
  0
APPID
  5
AF1
330
9
100
AcDbSymbolTableRecord
100
AcDbRegAppTableRecord
  2
GENIUS_GENODEF_13
 70
     0
  0
APPID
  5
AF2
330
9
100
AcDbSymbolTableRecord
100
AcDbRegAppTableRecord
  2
GENIUS_GENOBJ-N-CRS_13
 70
     0
  0
APPID
  5
AF3
330
9
100
AcDbSymbolTableRecord
100
AcDbRegAppTableRecord
  2
GENIUS_GENOENT_13
 70
     0
  0
APPID
  5
AF4
330
9
100
AcDbSymbolTableRecord
100
AcDbRegAppTableRecord
  2
GENIUS_GENOLIS_13
 70
     0
  0
APPID
  5
AF5
330
9
100
AcDbSymbolTableRecord
100
AcDbRegAppTableRecord
  2
GENIUS_GENOREF_13
 70
     0
  0
APPID
  5
AF6
330
9
100
AcDbSymbolTableRecord
100
AcDbRegAppTableRecord
  2
GEVID1190879659
 70
     0
  0
APPID
  5
AF7
330
9
100
AcDbSymbolTableRecord
100
AcDbRegAppTableRecord
  2
GEVDC
 70
     0
  0
APPID
  5
AF8
330
9
100
AcDbSymbolTableRecord
100
AcDbRegAppTableRecord
  2
GENIUS_GENBH_13
 70
     0
  0
APPID
  5
AF9
330
9
100
AcDbSymbolTableRecord
100
AcDbRegAppTableRecord
  2
GENIUS_GENOBJ-NBEHI-BHF_13
 70
     0
  0
APPID
  5
AFA
330
9
100
AcDbSymbolTableRecord
100
AcDbRegAppTableRecord
  2
GENIUS_GENOBJ-NBEHI-BHB_13
 70
     0
  0
APPID
  5
AFB
330
9
100
AcDbSymbolTableRecord
100
AcDbRegAppTableRecord
  2
GEVID1190879660
 70
     0
  0
APPID
  5
AFC
330
9
100
AcDbSymbolTableRecord
100
AcDbRegAppTableRecord
  2
GEVID1190879661
 70
     0
  0
APPID
  5
AFD
330
9
100
AcDbSymbolTableRecord
100
AcDbRegAppTableRecord
  2
ACAD_DSTYLE_DIMRADIAL_EXTENSION
 70
     0
  0
APPID
  5
AFE
330
9
100
AcDbSymbolTableRecord
100
AcDbRegAppTableRecord
  2
GEVID1190879662
 70
     0
  0
APPID
  5
AFF
330
9
100
AcDbSymbolTableRecord
100
AcDbRegAppTableRecord
  2
GEVID1190879663
 70
     0
  0
APPID
  5
B00
330
9
100
AcDbSymbolTableRecord
100
AcDbRegAppTableRecord
  2
GEVID1190879664
 70
     0
  0
APPID
  5
B01
330
9
100
AcDbSymbolTableRecord
100
AcDbRegAppTableRecord
  2
GEVID1190879665
 70
     0
  0
APPID
  5
B02
330
9
100
AcDbSymbolTableRecord
100
AcDbRegAppTableRecord
  2
GEVID1190879666
 70
     0
  0
APPID
  5
B03
330
9
100
AcDbSymbolTableRecord
100
AcDbRegAppTableRecord
  2
GENIUS_GENOBJ-N-CEN_13
 70
     0
  0
APPID
  5
B04
330
9
100
AcDbSymbolTableRecord
100
AcDbRegAppTableRecord
  2
GENIUS_GENCEN_19
 70
     0
  0
APPID
  5
B05
330
9
100
AcDbSymbolTableRecord
100
AcDbRegAppTableRecord
  2
GEVID1190879667
 70
     0
  0
APPID
  5
B06
330
9
100
AcDbSymbolTableRecord
100
AcDbRegAppTableRecord
  2
GENIUS_GENOBJ-N-CRC_13
 70
     0
  0
APPID
  5
B07
330
9
100
AcDbSymbolTableRecord
100
AcDbRegAppTableRecord
  2
GENIUS_GENCRC_14
 70
     0
  0
APPID
  5
B08
330
9
100
AcDbSymbolTableRecord
100
AcDbRegAppTableRecord
  2
ACAD_PSEXT
 70
     0
  0
APPID
  5
B09
330
9
100
AcDbSymbolTableRecord
100
AcDbRegAppTableRecord
  2
GEVID1190888456
 70
     0
  0
APPID
  5
B0A
330
9
100
AcDbSymbolTableRecord
100
AcDbRegAppTableRecord
  2
GEVID1190888457
 70
     0
  0
APPID
  5
B0B
330
9
100
AcDbSymbolTableRecord
100
AcDbRegAppTableRecord
  2
GEVID1190888458
 70
     0
  0
APPID
  5
B0C
330
9
100
AcDbSymbolTableRecord
100
AcDbRegAppTableRecord
  2
GEVID1190888459
 70
     0
  0
APPID
  5
B0D
330
9
100
AcDbSymbolTableRecord
100
AcDbRegAppTableRecord
  2
GEVID1190888460
 70
     0
  0
APPID
  5
B0E
330
9
100
AcDbSymbolTableRecord
100
AcDbRegAppTableRecord
  2
GEVID1190888461
 70
     0
  0
APPID
  5
B0F
330
9
100
AcDbSymbolTableRecord
100
AcDbRegAppTableRecord
  2
GEVID1190888462
 70
     0
  0
APPID
  5
B10
330
9
100
AcDbSymbolTableRecord
100
AcDbRegAppTableRecord
  2
ACAD_DSTYLE_DIMJAG
 70
     0
  0
APPID
  5
B11
330
9
100
AcDbSymbolTableRecord
100
AcDbRegAppTableRecord
  2
ACAD_DSTYLE_DIMTALN
 70
     0
  0
APPID
  5
B12
330
9
100
AcDbSymbolTableRecord
100
AcDbRegAppTableRecord
  2
GENIUS_GENBLLY_14
 70
     0
  0
APPID
  5
B13
330
9
100
AcDbSymbolTableRecord
100
AcDbRegAppTableRecord
  2
DCO15
 70
     0
  0
APPID
  5
B14
330
9
100
AcDbSymbolTableRecord
100
AcDbRegAppTableRecord
  2
GENIUS_GENREC_14
 70
     0
  0
APPID
  5
B15
330
9
100
AcDbSymbolTableRecord
100
AcDbRegAppTableRecord
  2
GENIUS_GENOBJ-N-REC_13
 70
     0
  0
APPID
  5
B16
330
9
100
AcDbSymbolTableRecord
100
AcDbRegAppTableRecord
  2
GENIUS_GENOBJ-N-TIT_13
 70
     0
  0
APPID
  5
B17
330
9
100
AcDbSymbolTableRecord
100
AcDbRegAppTableRecord
  2
GENIUS_GENTITLE_13
 70
     0
  0
APPID
  5
B18
330
9
100
AcDbSymbolTableRecord
100
AcDbRegAppTableRecord
  2
GENIUS_GENSCREG_15
 70
     0
  0
APPID
  5
B19
330
9
100
AcDbSymbolTableRecord
100
AcDbRegAppTableRecord
  2
GENIUS_GENOBJ-N-SDF_13
 70
     0
  0
APPID
  5
B1A
330
9
100
AcDbSymbolTableRecord
100
AcDbRegAppTableRecord
  2
ACAD_DSTYLE_DIMINSPECT
 70
     0
  0
APPID
  5
B1B
330
9
100
AcDbSymbolTableRecord
100
AcDbRegAppTableRecord
  2
GENIUS_GENDIMSH_14
 70
     0
  0
APPID
  5
B1C
330
9
100
AcDbSymbolTableRecord
100
AcDbRegAppTableRecord
  2
GENIUS_GENOBJ-N-HTC_13
 70
     0
  0
APPID
  5
B1D
330
9
100
AcDbSymbolTableRecord
100
AcDbRegAppTableRecord
  2
GENIUS_GENHATCH_13
 70
     0
  0
APPID
  5
B1E
330
9
100
AcDbSymbolTableRecord
100
AcDbRegAppTableRecord
  2
ACAUTHENVIRON
 70
     0
  0
APPID
  5
B1F
330
9
100
AcDbSymbolTableRecord
100
AcDbRegAppTableRecord
  2
AcDbDynamicBlockTrueName
 70
     0
  0
APPID
  5
B20
330
9
100
AcDbSymbolTableRecord
100
AcDbRegAppTableRecord
  2
AcDbDynamicBlockGUID
 70
     0
  0
APPID
  5
B21
330
9
100
AcDbSymbolTableRecord
100
AcDbRegAppTableRecord
  2
ACDBBLOCKREPETAG
 70
     0
  0
APPID
  5
BB4
330
9
100
AcDbSymbolTableRecord
100
AcDbRegAppTableRecord
  2
GENIUS_GENTRA_14
 70
     0
  0
APPID
  5
EF5
330
9
100
AcDbSymbolTableRecord
100
AcDbRegAppTableRecord
  2
GENIUS_GENDTOL_13
 70
     0
  0
APPID
  5
1030
330
9
100
AcDbSymbolTableRecord
100
AcDbRegAppTableRecord
  2
GENIUS_GENOBJ-N-FIL_13
 70
     0
  0
ENDTAB
  0
TABLE
  2
DIMSTYLE
  5
A
330
0
100
AcDbSymbolTable
 70
    31
100
AcDbDimStyleTable
 71
     3
340
B76
340
ADF
340
730
  0
DIMSTYLE
105
730
330
A
100
AcDbSymbolTableRecord
100
AcDbDimStyleTableRecord
  2
Standard
 70
     0
340
11
  0
DIMSTYLE
105
ADF
330
A
100
AcDbSymbolTableRecord
100
AcDbDimStyleTableRecord
  2
AM_ANSI
 70
     0
  4
mm
 41
0.1
 42
0.05
 43
0.5
 44
0.1
 47
0.1
 48
0.1
 78
     7
 79
     2
140
0.12
141
0.0
146
0.71
147
0.06
176
   256
177
   256
178
     2
274
     4
284
     7
340
11
371
    -1
372
    -1
1001
ACAD_DSTYLE_DIMARC_LENGTH_SYMBOL
1070
   379
1070
     1
  0
DIMSTYLE
105
AE0
330
A
100
AcDbSymbolTableRecord
100
AcDbDimStyleTableRecord
  2
AM_ANSI$3
 70
     0
  4
mm
 41
0.1
 42
0.05
 43
0.5
 44
0.1
 47
0.1
 48
0.1
 78
     7
 79
     2
140
0.12
141
0.0
146
0.71
147
0.06
176
   256
177
   256
178
     2
274
     4
284
     7
288
     1
289
     0
340
11
371
    -1
372
    -1
1001
ACAD_DSTYLE_DIMARC_LENGTH_SYMBOL
1070
   379
1070
     1
  0
DIMSTYLE
105
AE1
330
A
100
AcDbSymbolTableRecord
100
AcDbDimStyleTableRecord
  2
AM_ANSI$4
 70
     0
  4
mm
 41
0.1
 42
0.05
 43
0.5
 44
0.1
 47
0.1
 48
0.1
 78
     7
 79
     2
140
0.12
141
0.0
146
0.71
147
0.06
176
   256
177
   256
178
     2
274
     4
284
     7
288
     1
289
     0
340
11
371
    -1
372
    -1
1001
ACAD_DSTYLE_DIMARC_LENGTH_SYMBOL
1070
   379
1070
     1
  0
DIMSTYLE
105
AE2
330
A
100
AcDbSymbolTableRecord
100
AcDbDimStyleTableRecord
  2
AM_ANSI$7
 70
     0
  4
mm
 41
0.1
 42
0.05
 43
0.5
 44
0.1
 47
0.1
 48
0.1
 78
     7
 79
     2
140
0.24
141
0.0
146
0.71
147
0.06
176
   256
177
   256
178
     2
274
     4
284
     7
340
11
371
    -1
372
    -1
1001
ACAD_DSTYLE_DIMARC_LENGTH_SYMBOL
1070
   379
1070
     1
  0
DIMSTYLE
105
AE3
330
A
100
AcDbSymbolTableRecord
100
AcDbDimStyleTableRecord
  2
AM_ANSI$SF
 70
     0
  4
mm
 41
0.1
 42
0.05
 43
0.5
 44
0.1
 47
0.1
 48
0.1
 75
     1
 76
     1
 78
     7
 79
     2
140
0.12
141
0.0
146
0.71
147
0.06
176
   256
177
   256
178
     2
274
     4
284
     7
340
11
371
    -1
372
    -1
1001
ACAD_DSTYLE_DIMARC_LENGTH_SYMBOL
1070
   379
1070
     1
  0
DIMSTYLE
105
AE8
330
A
100
AcDbSymbolTableRecord
100
AcDbDimStyleTableRecord
  2
AM_ANSI$SH
 70
     0
  4
mm
 41
0.1
 42
0.05
 43
0.5
 44
0.1
 47
0.1
 48
0.1
 75
     1
 76
     1
 78
     7
 79
     2
140
0.12
141
0.0
146
0.71
147
0.06
173
     1
176
   256
177
   256
178
     2
274
     4
284
     7
340
11
343
AE4
371
    -1
372
    -1
1001
ACAD_DSTYLE_DIMARC_LENGTH_SYMBOL
1070
   379
1070
     1
  0
DIMSTYLE
105
B76
330
A
100
AcDbSymbolTableRecord
100
AcDbDimStyleTableRecord
  2
AM_DIN
 70
     0
  4
"
 41
5.0
 42
1.0
 43
10.0
 44
1.0
 47
0.1
 48
0.1
 73
     0
 74
     0
 77
     1
 78
     8
 79
     2
140
5.0
141
0.0
143
0.0393701
146
0.71
147
1.5
172
     1
176
   256
177
   256
178
     2
271
     2
272
     2
283
     0
284
     8
340
11
371
    -1
372
    -1
1001
ACAD_DSTYLE_DIMJOGGED_JOGANGLE_SYMBOL
1070
   384
1040
1.570796326794896
  0
DIMSTYLE
105
B77
102
{ACAD_REACTORS
330
CFD
330
712
330
714
330
715
330
DB5
330
1235
330
11EF
330
12D8
102
}
330
A
100
AcDbSymbolTableRecord
100
AcDbDimStyleTableRecord
  2
AM_DIN$0
 70
     0
  4
"
 41
4.0
 42
0.0
 43
10.0
 44
1.0
 47
0.1
 48
0.1
 73
     0
 74
     0
 77
     1
 78
     8
 79
     2
140
3.5
141
0.0
143
0.0393701
146
0.71
147
1.5
172
     1
176
   256
177
   256
178
     2
271
     2
272
     2
283
     0
284
     8
340
11
371
    -1
372
    -1
1001
ACAD_DSTYLE_DIMJOGGED_JOGANGLE_SYMBOL
1070
   384
1040
1.570796326794896
  0
DIMSTYLE
105
B78
102
{ACAD_REACTORS
330
E88
330
E4C
102
}
330
A
100
AcDbSymbolTableRecord
100
AcDbDimStyleTableRecord
  2
AM_DIN$2
 70
     0
  4
"
 41
4.0
 42
0.0
 43
10.0
 44
1.0
 47
0.1
 48
0.1
 73
     0
 74
     0
 77
     1
 78
     8
 79
     2
140
3.5
141
0.0
143
0.0393701
146
0.71
147
1.5
172
     1
176
   256
177
   256
178
     2
271
     2
272
     2
283
     0
284
     8
340
11
371
    -1
372
    -1
1001
ACAD_DSTYLE_DIMJOGGED_JOGANGLE_SYMBOL
1070
   384
1040
1.570796326794896
  0
DIMSTYLE
105
B79
330
A
100
AcDbSymbolTableRecord
100
AcDbDimStyleTableRecord
  2
AM_DIN$3
 70
     0
  4
"
 41
3.5
 42
1.0
 43
10.0
 44
1.0
 47
0.1
 48
0.1
 73
     0
 77
     1
 78
     8
 79
     2
140
3.5
141
0.0
143
0.0393701
146
0.71
147
1.5
176
   256
177
   256
178
     2
271
     2
272
     2
283
     0
284
     8
288
     1
289
     0
340
11
371
    -1
372
    -1
1001
ACAD_DSTYLE_DIMJOGGED_JOGANGLE_SYMBOL
1070
   384
1040
1.570796326794896
  0
DIMSTYLE
105
B7A
330
A
100
AcDbSymbolTableRecord
100
AcDbDimStyleTableRecord
  2
AM_DIN$4
 70
     0
  4
"
 41
4.0
 42
1.0
 43
10.0
 44
1.0
 47
0.1
 48
0.1
 73
     0
 77
     1
 78
     8
 79
     2
140
3.5
141
0.0
143
0.0393701
146
0.71
147
1.5
176
   256
177
   256
178
     2
271
     2
272
     2
283
     0
284
     8
288
     1
289
     0
340
11
371
    -1
372
    -1
1001
ACAD_DSTYLE_DIMJOGGED_JOGANGLE_SYMBOL
1070
   384
1040
1.570796326794896
  0
DIMSTYLE
105
B7B
330
A
100
AcDbSymbolTableRecord
100
AcDbDimStyleTableRecord
  2
AM_DIN$6
 70
     0
  4
"
 41
4.0
 42
0.0
 43
10.0
 44
1.0
 47
0.1
 48
0.1
 73
     0
 74
     0
 78
     8
 79
     2
140
3.5
141
0.0
143
0.0393701
146
0.71
147
1.5
172
     1
176
   256
177
   256
178
     2
271
     2
272
     2
283
     0
284
     8
340
11
371
    -1
372
    -1
1001
ACAD_DSTYLE_DIMJOGGED_JOGANGLE_SYMBOL
1070
   384
1040
1.570796326794896
  0
DIMSTYLE
105
B7C
330
A
100
AcDbSymbolTableRecord
100
AcDbDimStyleTableRecord
  2
AM_DIN$7
 70
     0
  4
"
 41
5.0
 42
1.0
 43
10.0
 44
1.0
 47
0.1
 48
0.1
 73
     0
 74
     0
 77
     1
 78
     8
 79
     2
140
5.0
141
0.0
143
0.0393701
146
0.71
147
1.5
172
     1
176
   256
177
   256
178
     2
271
     2
272
     2
283
     0
284
     8
340
11
371
    -1
372
    -1
1001
ACAD_DSTYLE_DIMJOGGED_JOGANGLE_SYMBOL
1070
   384
1040
1.570796326794896
  0
DIMSTYLE
105
B7D
330
A
100
AcDbSymbolTableRecord
100
AcDbDimStyleTableRecord
  2
AM_DIN$SF
 70
     0
  4
"
 41
4.0
 42
1.0
 43
10.0
 44
1.0
 47
0.1
 48
0.1
 73
     0
 74
     0
 75
     1
 76
     1
 77
     1
 78
     8
 79
     2
140
3.5
141
0.0
143
0.0393701
146
0.71
147
1.5
172
     1
176
   256
177
   256
178
     2
271
     2
272
     2
283
     0
284
     8
340
11
371
    -1
372
    -1
1001
ACAD_DSTYLE_DIMJOGGED_JOGANGLE_SYMBOL
1070
   384
1040
1.570796326794896
  0
DIMSTYLE
105
B7E
330
A
100
AcDbSymbolTableRecord
100
AcDbDimStyleTableRecord
  2
AM_DIN$SH
 70
     0
  4
"
 41
4.0
 42
1.0
 43
10.0
 44
1.0
 47
0.1
 48
0.1
 73
     0
 74
     0
 75
     1
 76
     1
 77
     1
 78
     8
 79
     2
140
3.5
141
0.0
143
0.0393701
144
2.0
146
0.71
147
1.5
172
     1
173
     1
176
   256
177
   256
178
     2
271
     2
272
     2
283
     0
284
     8
340
11
343
AE4
371
    -1
372
    -1
1001
ACAD_DSTYLE_DIMJOGGED_JOGANGLE_SYMBOL
1070
   384
1040
1.570796326794896
  0
DIMSTYLE
105
B9A
330
A
100
AcDbSymbolTableRecord
100
AcDbDimStyleTableRecord
  2
AM_ISO
 70
     0
  4
"
 41
2.5
 42
1.0
 43
10.0
 44
1.0
 47
0.1
 48
0.1
 73
     0
 74
     0
 77
     1
 78
     8
 79
     2
140
3.5
141
0.0
143
0.0393701
146
0.71
147
1.5
172
     1
176
   256
177
   256
178
     2
271
     2
272
     3
274
     4
283
     0
284
     8
340
11
371
    -1
372
    -1
1001
ACAD_DSTYLE_DIMJOGGED_JOGANGLE_SYMBOL
1070
   384
1040
0.7853981633974483
1001
ACAD_DSTYLE_DIMARC_LENGTH_SYMBOL
1070
   379
1070
     1
  0
DIMSTYLE
105
B9B
330
A
100
AcDbSymbolTableRecord
100
AcDbDimStyleTableRecord
  2
AM_ISO$3
 70
     0
  4
"
 41
2.5
 42
1.0
 43
10.0
 44
1.0
 47
0.1
 48
0.1
 73
     0
 77
     1
 78
     8
 79
     2
140
3.5
141
0.0
143
0.0393701
146
0.71
147
1.5
176
   256
177
   256
178
     2
271
     2
272
     3
274
     4
283
     0
284
     8
288
     1
289
     0
340
11
371
    -1
372
    -1
1001
ACAD_DSTYLE_DIMJOGGED_JOGANGLE_SYMBOL
1070
   384
1040
0.7853981633974483
1001
ACAD_DSTYLE_DIMARC_LENGTH_SYMBOL
1070
   379
1070
     1
  0
DIMSTYLE
105
B9C
330
A
100
AcDbSymbolTableRecord
100
AcDbDimStyleTableRecord
  2
AM_ISO$4
 70
     0
  4
"
 41
2.5
 42
1.0
 43
10.0
 44
1.0
 47
0.1
 48
0.1
 73
     0
 77
     1
 78
     8
 79
     2
140
3.5
141
0.0
143
0.0393701
146
0.71
147
1.5
176
   256
177
   256
178
     2
271
     2
272
     3
274
     4
283
     0
284
     8
288
     1
289
     0
340
11
371
    -1
372
    -1
1001
ACAD_DSTYLE_DIMJOGGED_JOGANGLE_SYMBOL
1070
   384
1040
0.7853981633974483
1001
ACAD_DSTYLE_DIMARC_LENGTH_SYMBOL
1070
   379
1070
     1
  0
DIMSTYLE
105
B9D
330
A
100
AcDbSymbolTableRecord
100
AcDbDimStyleTableRecord
  2
AM_ISO$6
 70
     0
  4
"
 41
2.5
 42
1.0
 43
10.0
 44
1.0
 47
0.1
 48
0.1
 73
     0
 74
     0
 78
     8
 79
     2
140
3.5
141
0.0
143
0.0393701
146
0.71
147
1.5
172
     1
176
   256
177
   256
178
     2
271
     2
272
     3
274
     4
283
     0
284
     8
340
11
371
    -1
372
    -1
1001
ACAD_DSTYLE_DIMJOGGED_JOGANGLE_SYMBOL
1070
   384
1040
0.7853981633974483
1001
ACAD_DSTYLE_DIMARC_LENGTH_SYMBOL
1070
   379
1070
     1
  0
DIMSTYLE
105
B9E
330
A
100
AcDbSymbolTableRecord
100
AcDbDimStyleTableRecord
  2
AM_ISO$7
 70
     0
  4
"
 41
2.5
 42
1.0
 43
10.0
 44
1.0
 47
0.1
 48
0.1
 73
     0
 74
     0
 77
     1
 78
     8
 79
     2
140
5.0
141
0.0
143
0.0393701
146
0.71
147
1.5
172
     1
176
   256
177
   256
178
     2
271
     2
272
     3
274
     4
283
     0
284
     8
340
11
371
    -1
372
    -1
1001
ACAD_DSTYLE_DIMJOGGED_JOGANGLE_SYMBOL
1070
   384
1040
0.7853981633974483
1001
ACAD_DSTYLE_DIMARC_LENGTH_SYMBOL
1070
   379
1070
     1
  0
DIMSTYLE
105
B9F
330
A
100
AcDbSymbolTableRecord
100
AcDbDimStyleTableRecord
  2
AM_ISO$SF
 70
     0
  4
"
 41
2.5
 42
1.0
 43
10.0
 44
1.0
 47
0.1
 48
0.1
 73
     0
 74
     0
 75
     1
 76
     1
 77
     1
 78
     8
 79
     2
140
3.5
141
0.0
143
0.0393701
146
0.71
147
1.5
172
     1
176
   256
177
   256
178
     2
271
     2
272
     3
274
     4
283
     0
284
     8
340
11
371
    -1
372
    -1
1001
ACAD_DSTYLE_DIMJOGGED_JOGANGLE_SYMBOL
1070
   384
1040
0.7853981633974483
1001
ACAD_DSTYLE_DIMARC_LENGTH_SYMBOL
1070
   379
1070
     1
  0
DIMSTYLE
105
BA0
330
A
100
AcDbSymbolTableRecord
100
AcDbDimStyleTableRecord
  2
AM_ISO$SH
 70
     0
  4
"
 41
2.5
 42
1.0
 43
10.0
 44
1.0
 47
0.1
 48
0.1
 73
     0
 74
     0
 75
     1
 76
     1
 77
     1
 78
     8
 79
     2
140
3.5
141
0.0
143
0.0393701
144
2.0
146
0.71
147
1.5
172
     1
173
     1
176
   256
177
   256
178
     2
271
     2
272
     3
274
     4
283
     0
284
     8
340
11
343
AE4
371
    -1
372
    -1
1001
ACAD_DSTYLE_DIMJOGGED_JOGANGLE_SYMBOL
1070
   384
1040
0.7853981633974483
1001
ACAD_DSTYLE_DIMARC_LENGTH_SYMBOL
1070
   379
1070
     1
  0
DIMSTYLE
105
11ED
330
A
100
AcDbSymbolTableRecord
100
AcDbDimStyleTableRecord
  2
AM_ANSI$0
 70
     0
  4
mm
 41
0.1
 42
0.05
 43
0.5
 44
0.1
 47
0.1
 48
0.1
 78
     7
 79
     2
140
0.12
141
0.0
146
0.71
147
0.06
176
   256
177
   256
178
     2
274
     4
284
     7
340
11
371
    -1
372
    -1
1001
ACAD_DSTYLE_DIMARC_LENGTH_SYMBOL
1070
   379
1070
     1
  0
ENDTAB
  0
TABLE
  2
BLOCK_RECORD
  5
1
330
0
100
AcDbSymbolTable
 70
    73
  0
BLOCK_RECORD
  5
22
102
{ACAD_XDICTIONARY
360
C94
102
}
330
1
100
AcDbSymbolTableRecord
100
AcDbBlockTableRecord
  2
*Model_Space
340
25
  0
BLOCK_RECORD
  5
1E
330
1
100
AcDbSymbolTableRecord
100
AcDbBlockTableRecord
  2
*Paper_Space
340
21
  0
BLOCK_RECORD
  5
732
330
1
100
AcDbSymbolTableRecord
100
AcDbBlockTableRecord
  2
*D30
340
0
  0
BLOCK_RECORD
  5
74A
330
1
100
AcDbSymbolTableRecord
100
AcDbBlockTableRecord
  2
*D32
340
0
  0
BLOCK_RECORD
  5
756
330
1
100
AcDbSymbolTableRecord
100
AcDbBlockTableRecord
  2
*D33
340
0
  0
BLOCK_RECORD
  5
AE4
330
1
100
AcDbSymbolTableRecord
100
AcDbBlockTableRecord
  2
GENAXEH
340
0
310
2800000020000000200000000100080000000000000400000000000000000000000000000000000000000000000080000080000000808000800000008000800080800000C0C0C000C0DCC000F0CAA6000020400000206000002080000020A0000020C0000020E00000400000004020000040400000406000004080000040A0
310
000040C0000040E00000600000006020000060400000606000006080000060A0000060C0000060E00000800000008020000080400000806000008080000080A0000080C0000080E00000A0000000A0200000A0400000A0600000A0800000A0A00000A0C00000A0E00000C0000000C0200000C0400000C0600000C0800000C0
310
A00000C0C00000C0E00000E0000000E0200000E0400000E0600000E0800000E0A00000E0C00000E0E00040000000400020004000400040006000400080004000A0004000C0004000E00040200000402020004020400040206000402080004020A0004020C0004020E000404000004040200040404000404060004040800040
310
40A0004040C0004040E00040600000406020004060400040606000406080004060A0004060C0004060E00040800000408020004080400040806000408080004080A0004080C0004080E00040A0000040A0200040A0400040A0600040A0800040A0A00040A0C00040A0E00040C0000040C0200040C0400040C0600040C08000
310
40C0A00040C0C00040C0E00040E0000040E0200040E0400040E0600040E0800040E0A00040E0C00040E0E00080000000800020008000400080006000800080008000A0008000C0008000E00080200000802020008020400080206000802080008020A0008020C0008020E00080400000804020008040400080406000804080
310
008040A0008040C0008040E00080600000806020008060400080606000806080008060A0008060C0008060E00080800000808020008080400080806000808080008080A0008080C0008080E00080A0000080A0200080A0400080A0600080A0800080A0A00080A0C00080A0E00080C0000080C0200080C0400080C0600080C0
310
800080C0A00080C0C00080C0E00080E0000080E0200080E0400080E0600080E0800080E0A00080E0C00080E0E000C0000000C0002000C0004000C0006000C0008000C000A000C000C000C000E000C0200000C0202000C0204000C0206000C0208000C020A000C020C000C020E000C0400000C0402000C0404000C0406000C0
310
408000C040A000C040C000C040E000C0600000C0602000C0604000C0606000C0608000C060A000C060C000C060E000C0800000C0802000C0804000C0806000C0808000C080A000C080C000C080E000C0A00000C0A02000C0A04000C0A06000C0A08000C0A0A000C0A0C000C0A0E000C0C00000C0C02000C0C04000C0C06000
310
C0C08000C0C0A000F0FBFF00A4A0A000808080000000FF0000FF000000FFFF00FF000000FF00FF00FFFF0000FFFFFF0000000000000000000000000000000000000000000000000000000000000000000000000000000000000000000000000000000000000000000000000000000000000000000000000000000000000000
310
00000000000000000000000000000000000000000000000000000000000000000000000000000000000000000000000000000000000000000000000000000000000000000000000000000000000000000000000000000000000000000000000000000000000000000000000000000000000000000000000000000000000000
310
00000000000000000000000000000000000000000000000000000000000000000000000000000000000000000000000000000000000000000000000000000000000000000000000000000000000000000000000000000000000000000000000000000000000000000000000000000000000000000000000000000000000000
310
00000000000000000000000000000000000000000000000000000000000000000000000000000000000000000000000000000000000000000000000000000000000000000000000000000000000000000000000000000000000000000000000000000000000000000000000000000000000000000000000000000000000000
310
0000000000000000000000000000000000000000000000000000000000000000000000000000000000000000000000000000000000FFFFFFFFFFFFFFFFFFFFFFFFFFFFFFFFFFFFFFFFFFFFFFFFFFFFFFFFFFFF0000000000000000000000000000000000000000000000000000000000000000000000000000000000000000
310
00000000000000000000000000000000000000000000000000000000000000000000000000000000000000000000000000000000000000000000000000000000000000000000000000000000000000000000000000000000000000000000000000000000000000000000000000000000000000000000000000000000000000
310
00000000000000000000000000000000000000000000000000000000000000000000000000000000000000000000000000000000000000000000000000000000000000000000000000000000000000000000000000000000000000000000000000000000000000000000000000000000000000000000000000000000000000
310
00000000000000000000000000000000000000000000000000000000000000000000000000000000000000000000000000000000000000000000000000000000000000000000000000000000000000000000000000000000000000000000000000000000000000000000000000000000000000000000000000000000000000
310
0000000000000000000000000000000000000000000000000000000000000000000000000000000000000000000000000000000000000000
  0
BLOCK_RECORD
  5
CFE
330
1
100
AcDbSymbolTableRecord
100
AcDbBlockTableRecord
  2
*D51
340
0
  0
BLOCK_RECORD
  5
DB6
330
1
100
AcDbSymbolTableRecord
100
AcDbBlockTableRecord
  2
*D52
340
0
  0
BLOCK_RECORD
  5
E4D
330
1
100
AcDbSymbolTableRecord
100
AcDbBlockTableRecord
  2
*D55
340
0
  0
BLOCK_RECORD
  5
E89
330
1
100
AcDbSymbolTableRecord
100
AcDbBlockTableRecord
  2
*D56
340
0
  0
BLOCK_RECORD
  5
11F0
330
1
100
AcDbSymbolTableRecord
100
AcDbBlockTableRecord
  2
*D60
340
0
  0
BLOCK_RECORD
  5
1236
330
1
100
AcDbSymbolTableRecord
100
AcDbBlockTableRecord
  2
*D61
340
0
  0
BLOCK_RECORD
  5
12D9
330
1
100
AcDbSymbolTableRecord
100
AcDbBlockTableRecord
  2
*D62
340
0
  0
BLOCK_RECORD
  5
18EE
330
1
100
AcDbSymbolTableRecord
100
AcDbBlockTableRecord
  2
*S71
340
0
  0
BLOCK_RECORD
  5
18F5
330
1
100
AcDbSymbolTableRecord
100
AcDbBlockTableRecord
  2
*S72
340
0
  0
ENDTAB
  0
ENDSEC
  0
SECTION
  2
BLOCKS
  0
BLOCK
  5
23
330
22
100
AcDbEntity
  8
0
100
AcDbBlockBegin
  2
*Model_Space
 70
     0
 10
0.0
 20
0.0
 30
0.0
  3
*Model_Space
  1

  0
ENDBLK
  5
24
330
22
100
AcDbEntity
  8
0
100
AcDbBlockEnd
  0
BLOCK
  5
1F
330
1E
100
AcDbEntity
 67
     1
  8
0
100
AcDbBlockBegin
  2
*Paper_Space
 70
     0
 10
0.0
 20
0.0
 30
0.0
  3
*Paper_Space
  1

  0
ENDBLK
  5
20
330
1E
100
AcDbEntity
 67
     1
  8
0
100
AcDbBlockEnd
  0
BLOCK
  5
73C
330
732
100
AcDbEntity
  8
0
100
AcDbBlockBegin
  2
*D30
 70
     1
 10
0.0
 20
0.0
 30
0.0
  3
*D30
  1

  0
LINE
  5
188A
330
732
100
AcDbEntity
  8
AM_5 ( Bemassung)
100
AcDbLine
 10
1309.47154923762
 20
-267.924646739761
 30
0.0
 11
1343.490320815219
 21
-267.924646739761
 31
0.0
  0
LINE
  5
188B
330
732
100
AcDbEntity
  8
AM_5 ( Bemassung)
100
AcDbLine
 10
1357.43797243961
 20
-287.924647040131
 30
0.0
 11
1339.490320815219
 21
-287.924647040131
 31
0.0
  0
LINE
  5
188C
330
732
100
AcDbEntity
  8
AM_5 ( Bemassung)
100
AcDbLine
 10
1341.490320815219
 20
-257.924646739761
 30
0.0
 11
1341.490320815219
 21
-247.924646739761
 31
0.0
  0
LINE
  5
188D
330
732
100
AcDbEntity
  8
AM_5 ( Bemassung)
100
AcDbLine
 10
1341.490320815219
 20
-297.924647040131
 30
0.0
 11
1341.490320815219
 21
-307.924647040131
 31
0.0
  0
LINE
  5
188E
330
732
100
AcDbEntity
  8
AM_5 ( Bemassung)
100
AcDbLine
 10
1341.490320815219
 20
-267.924646739761
 30
0.0
 11
1341.490320815219
 21
-287.924647040131
 31
0.0
  0
SOLID
  5
188F
330
732
100
AcDbEntity
  8
AM_5 ( Bemassung)
100
AcDbTrace
 10
1339.823654148552
 20
-257.924646739761
 30
0.0
 11
1343.156987481886
 21
-257.924646739761
 31
0.0
 12
1341.490320815219
 22
-267.924646739761
 32
0.0
 13
1341.490320815219
 23
-267.924646739761
 33
0.0
  0
SOLID
  5
1890
330
732
100
AcDbEntity
  8
AM_5 ( Bemassung)
100
AcDbTrace
 10
1339.823654148552
 20
-297.924647040131
 30
0.0
 11
1343.156987481886
 21
-297.924647040131
 31
0.0
 12
1341.490320815219
 22
-287.924647040131
 32
0.0
 13
1341.490320815219
 23
-287.924647040131
 33
0.0
  0
MTEXT
  5
1891
330
732
100
AcDbEntity
  8
AM_5 ( Bemassung)
 62
     2
100
AcDbMText
 10
1334.381180296801
 20
-277.9246468899458
 30
0.0
 40
10.0
 41
0.0
 71
     5
 72
     1
  1
20
 11
0.0000000000000001
 21
1.0
 31
0.0
 73
     1
 44
1.0
  0
POINT
  5
1892
330
732
100
AcDbEntity
  8
DEFPOINTS
 62
     0
100
AcDbPoint
 10
1309.47154923762
 20
-267.924646739761
 30
0.0
  0
POINT
  5
1893
330
732
100
AcDbEntity
  8
DEFPOINTS
 62
     0
100
AcDbPoint
 10
1357.43797243961
 20
-287.924647040131
 30
0.0
  0
POINT
  5
1894
330
732
100
AcDbEntity
  8
DEFPOINTS
 62
     0
100
AcDbPoint
 10
1341.490320815219
 20
-287.924647040131
 30
0.0
  0
ENDBLK
  5
73D
330
732
100
AcDbEntity
  8
0
100
AcDbBlockEnd
  0
BLOCK
  5
754
330
74A
100
AcDbEntity
  8
0
100
AcDbBlockBegin
  2
*D32
 70
     1
 10
0.0
 20
0.0
 30
0.0
  3
*D32
  1

  0
LINE
  5
1895
330
74A
100
AcDbEntity
  8
AM_5 ( Bemassung)
100
AcDbLine
 10
1309.47154923762
 20
-267.924646739761
 30
0.0
 11
1366.411865135391
 21
-267.924646739761
 31
0.0
  0
LINE
  5
1896
330
74A
100
AcDbEntity
  8
AM_5 ( Bemassung)
100
AcDbLine
 10
1319.47154985282
 20
-461.083110027934
 30
0.0
 11
1366.411865135391
 21
-461.083110027934
 31
0.0
  0
LINE
  5
1897
330
74A
100
AcDbEntity
  8
AM_5 ( Bemassung)
100
AcDbLine
 10
1364.411865135391
 20
-277.924646739761
 30
0.0
 11
1364.411865135391
 21
-451.0831100279339
 31
0.0
  0
SOLID
  5
1898
330
74A
100
AcDbEntity
  8
AM_5 ( Bemassung)
100
AcDbTrace
 10
1362.745198468724
 20
-277.924646739761
 30
0.0
 11
1366.078531802057
 21
-277.924646739761
 31
0.0
 12
1364.411865135391
 22
-267.924646739761
 32
0.0
 13
1364.411865135391
 23
-267.924646739761
 33
0.0
  0
SOLID
  5
1899
330
74A
100
AcDbEntity
  8
AM_5 ( Bemassung)
100
AcDbTrace
 10
1362.745198468724
 20
-451.0831100279339
 30
0.0
 11
1366.078531802057
 21
-451.0831100279339
 31
0.0
 12
1364.411865135391
 22
-461.083110027934
 32
0.0
 13
1364.411865135391
 23
-461.083110027934
 33
0.0
  0
MTEXT
  5
189A
330
74A
100
AcDbEntity
  8
AM_5 ( Bemassung)
 62
     2
100
AcDbMText
 10
1357.302724616973
 20
-364.0038783838473
 30
0.0
 40
10.0
 41
0.0
 71
     5
 72
     1
  1
193
 11
0.0000000000000001
 21
1.0
 31
0.0
 73
     1
 44
1.0
  0
POINT
  5
189B
330
74A
100
AcDbEntity
  8
DEFPOINTS
 62
     0
100
AcDbPoint
 10
1309.47154923762
 20
-267.924646739761
 30
0.0
  0
POINT
  5
189C
330
74A
100
AcDbEntity
  8
DEFPOINTS
 62
     0
100
AcDbPoint
 10
1319.47154985282
 20
-461.083110027934
 30
0.0
  0
POINT
  5
189D
330
74A
100
AcDbEntity
  8
DEFPOINTS
 62
     0
100
AcDbPoint
 10
1364.411865135391
 20
-461.083110027934
 30
0.0
  0
ENDBLK
  5
755
330
74A
100
AcDbEntity
  8
0
100
AcDbBlockEnd
  0
BLOCK
  5
760
330
756
100
AcDbEntity
  8
0
100
AcDbBlockBegin
  2
*D33
 70
     1
 10
0.0
 20
0.0
 30
0.0
  3
*D33
  1

  0
LINE
  5
189E
330
756
100
AcDbEntity
  8
AM_5 ( Bemassung)
100
AcDbLine
 10
1319.47154985282
 20
-452.0831099077859
 30
0.0
 11
1319.47154985282
 21
-512.8028029880592
 31
0.0
  0
LINE
  5
189F
330
756
100
AcDbEntity
  8
AM_5 ( Bemassung)
100
AcDbLine
 10
1241.47154868138
 20
-460.083110027934
 30
0.0
 11
1241.47154868138
 21
-512.8028029880592
 31
0.0
  0
LINE
  5
18A0
330
756
100
AcDbEntity
  8
AM_5 ( Bemassung)
100
AcDbLine
 10
1309.47154985282
 20
-510.8028029880593
 30
0.0
 11
1251.47154868138
 21
-510.8028029880593
 31
0.0
  0
SOLID
  5
18A1
330
756
100
AcDbEntity
  8
AM_5 ( Bemassung)
100
AcDbTrace
 10
1309.47154985282
 20
-509.1361363213926
 30
0.0
 11
1309.47154985282
 21
-512.4694696547258
 31
0.0
 12
1319.47154985282
 22
-510.8028029880593
 32
0.0
 13
1319.47154985282
 23
-510.8028029880593
 33
0.0
  0
SOLID
  5
18A2
330
756
100
AcDbEntity
  8
AM_5 ( Bemassung)
100
AcDbTrace
 10
1251.47154868138
 20
-509.1361363213926
 30
0.0
 11
1251.47154868138
 21
-512.4694696547258
 31
0.0
 12
1241.47154868138
 22
-510.8028029880593
 32
0.0
 13
1241.47154868138
 23
-510.8028029880593
 33
0.0
  0
MTEXT
  5
18A3
330
756
100
AcDbEntity
  8
AM_5 ( Bemassung)
 62
     2
100
AcDbMText
 10
1279.400881134424
 20
-503.6186283632297
 30
0.0
 40
10.0
 41
0.0
 71
     5
 72
     1
  1
%%c78
 73
     1
 44
1.0
  0
POINT
  5
18A4
330
756
100
AcDbEntity
  8
DEFPOINTS
 62
     0
100
AcDbPoint
 10
1319.47154985282
 20
-452.0831099077859
 30
0.0
  0
POINT
  5
18A5
330
756
100
AcDbEntity
  8
DEFPOINTS
 62
     0
100
AcDbPoint
 10
1241.47154868138
 20
-460.083110027934
 30
0.0
  0
POINT
  5
18A6
330
756
100
AcDbEntity
  8
DEFPOINTS
 62
     0
100
AcDbPoint
 10
1241.47154868138
 20
-510.8028029880593
 30
0.0
  0
ENDBLK
  5
761
330
756
100
AcDbEntity
  8
0
100
AcDbBlockEnd
  0
BLOCK
  5
17C8
330
AE4
100
AcDbEntity
  8
0
100
AcDbBlockBegin
  2
GENAXEH
 70
     0
 10
0.0
 20
0.0
 30
0.0
  3
GENAXEH
  1

  0
LINE
  5
17C9
330
AE4
100
AcDbEntity
  8
0
100
AcDbLine
 10
-1.0
 20
0.0
 30
0.0
 11
1.0
 21
0.0
 31
0.0
  0
ENDBLK
  5
17CA
330
AE4
100
AcDbEntity
  8
0
100
AcDbBlockEnd
  0
BLOCK
  5
CFF
330
CFE
100
AcDbEntity
  8
0
100
AcDbBlockBegin
  2
*D51
 70
     1
 10
0.0
 20
0.0
 30
0.0
  3
*D51
  1

  0
LINE
  5
18A7
330
CFE
100
AcDbEntity
  8
AM_5 ( Bemassung)
100
AcDbLine
 10
1310.47154926766
 20
-269.924646769798
 30
0.0
 11
1310.47154926766
 21
-192.951615708254
 31
0.0
  0
LINE
  5
18A8
330
CFE
100
AcDbEntity
  8
AM_5 ( Bemassung)
100
AcDbLine
 10
1250.4715492671
 20
-269.924646769798
 30
0.0
 11
1250.4715492671
 21
-192.951615708254
 31
0.0
  0
LINE
  5
18A9
330
CFE
100
AcDbEntity
  8
AM_5 ( Bemassung)
100
AcDbLine
 10
1300.47154926766
 20
-194.951615708254
 30
0.0
 11
1260.4715492671
 21
-194.951615708254
 31
0.0
  0
SOLID
  5
18AA
330
CFE
100
AcDbEntity
  8
AM_5 ( Bemassung)
100
AcDbTrace
 10
1300.47154926766
 20
-193.2849490415873
 30
0.0
 11
1300.47154926766
 21
-196.6182823749207
 31
0.0
 12
1310.47154926766
 22
-194.951615708254
 32
0.0
 13
1310.47154926766
 23
-194.951615708254
 33
0.0
  0
SOLID
  5
18AB
330
CFE
100
AcDbEntity
  8
AM_5 ( Bemassung)
100
AcDbTrace
 10
1260.4715492671
 20
-193.2849490415873
 30
0.0
 11
1260.4715492671
 21
-196.6182823749207
 31
0.0
 12
1250.4715492671
 22
-194.951615708254
 32
0.0
 13
1250.4715492671
 23
-194.951615708254
 33
0.0
  0
MTEXT
  5
18AC
330
CFE
100
AcDbEntity
  8
AM_5 ( Bemassung)
 62
     2
100
AcDbMText
 10
1277.578445859318
 20
-187.7674410834245
 30
0.0
 40
10.0
 41
0.0
 71
     5
 72
     1
  1
%%c 60
 73
     1
 44
1.0
  0
POINT
  5
18AD
330
CFE
100
AcDbEntity
  8
DEFPOINTS
 62
     0
100
AcDbPoint
 10
1310.47154926766
 20
-269.924646769798
 30
0.0
  0
POINT
  5
18AE
330
CFE
100
AcDbEntity
  8
DEFPOINTS
 62
     0
100
AcDbPoint
 10
1250.4715492671
 20
-269.924646769798
 30
0.0
  0
POINT
  5
18AF
330
CFE
100
AcDbEntity
  8
DEFPOINTS
 62
     0
100
AcDbPoint
 10
1250.4715492671
 20
-194.951615708254
 30
0.0
  0
ENDBLK
  5
D00
330
CFE
100
AcDbEntity
  8
0
100
AcDbBlockEnd
  0
BLOCK
  5
DB7
330
DB6
100
AcDbEntity
  8
0
100
AcDbBlockBegin
  2
*D52
 70
     1
 10
0.0
 20
0.0
 30
0.0
  3
*D52
  1

  0
LINE
  5
18B0
330
DB6
100
AcDbEntity
  8
AM_5 ( Bemassung)
100
AcDbLine
 10
1263.8715490178
 20
-459.5831100204248
 30
0.0
 11
1263.8715490178
 21
-488.0189037163896
 31
0.0
  0
LINE
  5
18B1
330
DB6
100
AcDbEntity
  8
AM_5 ( Bemassung)
100
AcDbLine
 10
1297.07154951641
 20
-460.083110027934
 30
0.0
 11
1297.07154951641
 21
-488.0189037163896
 31
0.0
  0
LINE
  5
18B2
330
DB6
100
AcDbEntity
  8
AM_5 ( Bemassung)
100
AcDbLine
 10
1273.8715490178
 20
-486.0189037163896
 30
0.0
 11
1287.07154951641
 21
-486.0189037163896
 31
0.0
  0
SOLID
  5
18B3
330
DB6
100
AcDbEntity
  8
AM_5 ( Bemassung)
100
AcDbTrace
 10
1273.8715490178
 20
-484.3522370497229
 30
0.0
 11
1273.8715490178
 21
-487.6855703830563
 31
0.0
 12
1263.8715490178
 22
-486.0189037163896
 32
0.0
 13
1263.8715490178
 23
-486.0189037163896
 33
0.0
  0
SOLID
  5
18B4
330
DB6
100
AcDbEntity
  8
AM_5 ( Bemassung)
100
AcDbTrace
 10
1287.07154951641
 20
-484.3522370497229
 30
0.0
 11
1287.07154951641
 21
-487.6855703830563
 31
0.0
 12
1297.07154951641
 22
-486.0189037163896
 32
0.0
 13
1297.07154951641
 23
-486.0189037163896
 33
0.0
  0
MTEXT
  5
18B5
330
DB6
100
AcDbEntity
  8
AM_5 ( Bemassung)
 62
     2
100
AcDbMText
 10
1280.519458944536
 20
-478.8483716563622
 30
0.0
 40
10.0
 41
0.0
 71
     5
 72
     1
  1
G1"\P
 73
     1
 44
1.0
  0
POINT
  5
18B6
330
DB6
100
AcDbEntity
  8
DEFPOINTS
 62
     0
100
AcDbPoint
 10
1263.8715490178
 20
-459.5831100204248
 30
0.0
  0
POINT
  5
18B7
330
DB6
100
AcDbEntity
  8
DEFPOINTS
 62
     0
100
AcDbPoint
 10
1297.07154951641
 20
-460.083110027934
 30
0.0
  0
POINT
  5
18B8
330
DB6
100
AcDbEntity
  8
DEFPOINTS
 62
     0
100
AcDbPoint
 10
1297.07154951641
 20
-486.0189037163896
 30
0.0
  0
ENDBLK
  5
DB8
330
DB6
100
AcDbEntity
  8
0
100
AcDbBlockEnd
  0
BLOCK
  5
E4E
330
E4D
100
AcDbEntity
  8
0
100
AcDbBlockBegin
  2
*D55
 70
     1
 10
0.0
 20
0.0
 30
0.0
  3
*D55
  1

  0
LINE
  5
18B9
330
E4D
100
AcDbEntity
  8
AM_5 ( Bemassung)
100
AcDbLine
 10
1295.02661471215
 20
-280.4833716741921
 30
0.0
 11
1299.234395785502
 21
-232.3882139272178
 31
0.0
  0
LINE
  5
18BA
330
E4D
100
AcDbEntity
  8
AM_5 ( Bemassung)
100
AcDbLine
 10
1280.4715492671
 20
-262.956907859518
 30
0.0
 11
1280.4715492671
 21
-231.5690103565765
 31
0.0
  0
ARC
  5
18BB
330
E4D
100
AcDbEntity
  8
AM_5 ( Bemassung)
100
AcDbCircle
 10
1280.4715492671
 20
-446.8485309811804
 30
0.0
 40
213.2795206246039
100
AcDbArc
 50
81.77619292031611
 51
83.38809646015738
  0
ARC
  5
18BC
330
E4D
100
AcDbEntity
  8
AM_5 ( Bemassung)
100
AcDbCircle
 10
1280.4715492671
 20
-446.8485309811804
 30
0.0
 40
213.2795206246039
100
AcDbArc
 50
91.6119035398413
 51
93.22380707968259
  0
ARC
  5
18BD
330
E4D
100
AcDbEntity
  8
AM_5 ( Bemassung)
100
AcDbCircle
 10
1280.4715492671
 20
-446.8485309811804
 30
0.0
 40
213.2795206246039
100
AcDbArc
 50
84.99999999999863
 51
90.00000000000005
  0
SOLID
  5
18BE
330
E4D
100
AcDbEntity
  8
AM_5 ( Bemassung)
100
AcDbTrace
 10
1304.928145892791
 20
-235.9824313863625
 30
0.0
 11
1305.130465178466
 21
-233.9926909744885
 31
0.0
 12
1299.060084300007
 22
-234.3806033234014
 32
0.0
 13
1299.060084300007
 23
-234.3806033234014
 33
0.0
  0
SOLID
  5
18BF
330
E4D
100
AcDbEntity
  8
AM_5 ( Bemassung)
100
AcDbTrace
 10
1274.458076809472
 20
-232.6535055770419
 30
0.0
 11
1274.486208905711
 21
-234.6533077135446
 31
0.0
 12
1280.4715492671
 22
-233.5690103565765
 32
0.0
 13
1280.4715492671
 23
-233.5690103565765
 33
0.0
  0
MTEXT
  5
18C0
330
E4D
100
AcDbEntity
  8
AM_5 ( Bemassung)
 62
     2
100
AcDbMText
 10
1286.310119171246
 20
-226.5611044248526
 30
0.0
 40
10.0
 41
0.0
 71
     5
 72
     1
  1
5\U+00B0
 11
0.9996489452808493
 21
-0.0264950221529581
 31
0.0
 73
     1
 44
1.0
  0
POINT
  5
18C1
330
E4D
100
AcDbEntity
  8
DEFPOINTS
 62
     0
100
AcDbPoint
 10
1292.872650503929
 20
-233.9298455494533
 30
0.0
  0
POINT
  5
18C2
330
E4D
100
AcDbEntity
  8
DEFPOINTS
 62
     0
100
AcDbPoint
 10
1280.4715492671
 20
-262.956907859518
 30
0.0
  0
POINT
  5
18C3
330
E4D
100
AcDbEntity
  8
DEFPOINTS
 62
     0
100
AcDbPoint
 10
1280.4715492671
 20
-446.8485309811796
 30
0.0
  0
POINT
  5
18C4
330
E4D
100
AcDbEntity
  8
DEFPOINTS
 62
     0
100
AcDbPoint
 10
1295.02661471215
 20
-280.4833716741921
 30
0.0
  0
POINT
  5
18C5
330
E4D
100
AcDbEntity
  8
DEFPOINTS
 62
     0
100
AcDbPoint
 10
1280.4715492671
 20
-463.6465769827069
 30
0.0
  0
ENDBLK
  5
E4F
330
E4D
100
AcDbEntity
  8
0
100
AcDbBlockEnd
  0
BLOCK
  5
E8A
330
E89
100
AcDbEntity
  8
0
100
AcDbBlockBegin
  2
*D56
 70
     1
 10
0.0
 20
0.0
 30
0.0
  3
*D56
  1

  0
LINE
  5
18C6
330
E89
100
AcDbEntity
  8
AM_5 ( Bemassung)
100
AcDbLine
 10
1280.4715492671
 20
-262.956907859518
 30
0.0
 11
1280.4715492671
 21
-245.3941856166086
 31
0.0
  0
LINE
  5
18C7
330
E89
100
AcDbEntity
  8
AM_5 ( Bemassung)
100
AcDbLine
 10
1266.14680458928
 20
-283.115950089977
 30
0.0
 11
1262.913646167109
 21
-246.1607802214504
 31
0.0
  0
ARC
  5
18C8
330
E89
100
AcDbEntity
  8
AM_5 ( Bemassung)
100
AcDbCircle
 10
1280.4715492671
 20
-446.8485309811796
 30
0.0
 40
199.4543453645711
100
AcDbArc
 50
86.55271846845399
 51
88.27635923422702
  0
ARC
  5
18C9
330
E89
100
AcDbEntity
  8
AM_5 ( Bemassung)
100
AcDbCircle
 10
1280.4715492671
 20
-446.8485309811796
 30
0.0
 40
199.4543453645711
100
AcDbArc
 50
96.72364076577244
 51
98.44728153154541
  0
ARC
  5
18CA
330
E89
100
AcDbEntity
  8
AM_5 ( Bemassung)
100
AcDbCircle
 10
1280.4715492671
 20
-446.8485309811796
 30
0.0
 40
199.4543453645711
100
AcDbArc
 50
90.0
 51
94.99999999999941
  0
SOLID
  5
18CB
330
E89
100
AcDbEntity
  8
AM_5 ( Bemassung)
100
AcDbTrace
 10
1286.455829494357
 20
-248.4843187101588
 30
0.0
 11
1286.485911566468
 21
-246.4845449557211
 31
0.0
 12
1280.4715492671
 22
-247.3941856166086
 32
0.0
 13
1280.4715492671
 23
-247.3941856166086
 33
0.0
  0
SOLID
  5
18CC
330
E89
100
AcDbEntity
  8
AM_5 ( Bemassung)
100
AcDbTrace
 10
1257.017201410138
 20
-247.771176627444
 30
0.0
 11
1257.221460777777
 21
-249.7607188136596
 31
0.0
 12
1263.087957652605
 22
-248.1531696176339
 32
0.0
 13
1263.087957652605
 23
-248.1531696176339
 33
0.0
  0
MTEXT
  5
18CD
330
E89
100
AcDbEntity
  8
AM_5 ( Bemassung)
 62
     2
100
AcDbMText
 10
1271.10436446866
 20
-240.5214437532106
 30
0.0
 40
10.0
 41
0.0
 71
     5
 72
     1
  1
5\U+00B0
 11
0.9989710246611744
 21
0.045352969995398
 31
0.0
 73
     1
 44
1.0
  0
POINT
  5
18CE
330
E89
100
AcDbEntity
  8
DEFPOINTS
 62
     0
100
AcDbPoint
 10
1274.670475730081
 20
-247.4785647610198
 30
0.0
  0
POINT
  5
18CF
330
E89
100
AcDbEntity
  8
DEFPOINTS
 62
     0
100
AcDbPoint
 10
1280.4715492671
 20
-446.8485309811796
 30
0.0
  0
POINT
  5
18D0
330
E89
100
AcDbEntity
  8
DEFPOINTS
 62
     0
100
AcDbPoint
 10
1280.4715492671
 20
-262.956907859518
 30
0.0
  0
POINT
  5
18D1
330
E89
100
AcDbEntity
  8
DEFPOINTS
 62
     0
100
AcDbPoint
 10
1280.4715492671
 20
-463.6465769827068
 30
0.0
  0
POINT
  5
18D2
330
E89
100
AcDbEntity
  8
DEFPOINTS
 62
     0
100
AcDbPoint
 10
1266.14680458928
 20
-283.115950089977
 30
0.0
  0
ENDBLK
  5
E8B
330
E89
100
AcDbEntity
  8
0
100
AcDbBlockEnd
  0
BLOCK
  5
11F1
330
11F0
100
AcDbEntity
  8
0
100
AcDbBlockBegin
  2
*D60
 70
     1
 10
0.0
 20
0.0
 30
0.0
  3
*D60
  1

  0
LINE
  5
18D3
330
11F0
100
AcDbEntity
  8
AM_5 ( Bemassung)
100
AcDbLine
 10
1315.47154979275
 20
-349.324647962266
 30
0.0
 11
1315.47154979275
 21
-175.591370123368
 31
0.0
  0
LINE
  5
18D4
330
11F0
100
AcDbEntity
  8
AM_5 ( Bemassung)
100
AcDbLine
 10
1245.471548741453
 20
-354.92464804637
 30
0.0
 11
1245.471548741453
 21
-175.591370123368
 31
0.0
  0
LINE
  5
18D5
330
11F0
100
AcDbEntity
  8
AM_5 ( Bemassung)
100
AcDbLine
 10
1305.47154979275
 20
-177.591370123368
 30
0.0
 11
1255.471548741453
 21
-177.591370123368
 31
0.0
  0
SOLID
  5
18D6
330
11F0
100
AcDbEntity
  8
AM_5 ( Bemassung)
100
AcDbTrace
 10
1305.47154979275
 20
-175.9247034567013
 30
0.0
 11
1305.47154979275
 21
-179.2580367900346
 31
0.0
 12
1315.47154979275
 22
-177.591370123368
 32
0.0
 13
1315.47154979275
 23
-177.591370123368
 33
0.0
  0
SOLID
  5
18D7
330
11F0
100
AcDbEntity
  8
AM_5 ( Bemassung)
100
AcDbTrace
 10
1255.471548741453
 20
-175.9247034567013
 30
0.0
 11
1255.471548741453
 21
-179.2580367900346
 31
0.0
 12
1245.471548741453
 22
-177.591370123368
 32
0.0
 13
1245.471548741453
 23
-177.591370123368
 33
0.0
  0
MTEXT
  5
18D8
330
11F0
100
AcDbEntity
  8
AM_5 ( Bemassung)
 62
     2
100
AcDbMText
 10
1280.471549267101
 20
-170.4071954985385
 30
0.0
 40
10.0
 41
0.0
 71
     5
 72
     1
  1
%%c 70
 73
     1
 44
1.0
  0
POINT
  5
18D9
330
11F0
100
AcDbEntity
  8
DEFPOINTS
 62
     0
100
AcDbPoint
 10
1315.47154979275
 20
-349.324647962266
 30
0.0
  0
POINT
  5
18DA
330
11F0
100
AcDbEntity
  8
DEFPOINTS
 62
     0
100
AcDbPoint
 10
1245.471548741453
 20
-354.92464804637
 30
0.0
  0
POINT
  5
18DB
330
11F0
100
AcDbEntity
  8
DEFPOINTS
 62
     0
100
AcDbPoint
 10
1245.471548741453
 20
-177.591370123368
 30
0.0
  0
ENDBLK
  5
11F2
330
11F0
100
AcDbEntity
  8
0
100
AcDbBlockEnd
  0
BLOCK
  5
1237
330
1236
100
AcDbEntity
  8
0
100
AcDbBlockBegin
  2
*D61
 70
     1
 10
0.0
 20
0.0
 30
0.0
  3
*D61
  1

  0
LINE
  5
18DC
330
1236
100
AcDbEntity
  8
AM_5 ( Bemassung)
100
AcDbLine
 10
1254.4715492671
 20
-270.3504512517716
 30
0.0
 11
1254.4715492671
 21
-211.2160408431857
 31
0.0
  0
LINE
  5
18DD
330
1236
100
AcDbEntity
  8
AM_5 ( Bemassung)
100
AcDbLine
 10
1306.4715492671
 20
-270.3504512517716
 30
0.0
 11
1306.4715492671
 21
-211.2160408431857
 31
0.0
  0
LINE
  5
18DE
330
1236
100
AcDbEntity
  8
AM_5 ( Bemassung)
100
AcDbLine
 10
1264.4715492671
 20
-213.2160408431857
 30
0.0
 11
1296.4715492671
 21
-213.2160408431857
 31
0.0
  0
SOLID
  5
18DF
330
1236
100
AcDbEntity
  8
AM_5 ( Bemassung)
100
AcDbTrace
 10
1264.4715492671
 20
-211.549374176519
 30
0.0
 11
1264.4715492671
 21
-214.8827075098523
 31
0.0
 12
1254.4715492671
 22
-213.2160408431857
 32
0.0
 13
1254.4715492671
 23
-213.2160408431857
 33
0.0
  0
SOLID
  5
18E0
330
1236
100
AcDbEntity
  8
AM_5 ( Bemassung)
100
AcDbTrace
 10
1296.4715492671
 20
-211.549374176519
 30
0.0
 11
1296.4715492671
 21
-214.8827075098523
 31
0.0
 12
1306.4715492671
 22
-213.2160408431857
 32
0.0
 13
1306.4715492671
 23
-213.2160408431857
 33
0.0
  0
MTEXT
  5
18E1
330
1236
100
AcDbEntity
  8
AM_5 ( Bemassung)
 62
     2
100
AcDbMText
 10
1280.4715492671
 20
-206.0318662183562
 30
0.0
 40
10.0
 41
0.0
 71
     5
 72
     1
  1
%%c 52
 73
     1
 44
1.0
  0
POINT
  5
18E2
330
1236
100
AcDbEntity
  8
DEFPOINTS
 62
     0
100
AcDbPoint
 10
1254.4715492671
 20
-270.3504512517716
 30
0.0
  0
POINT
  5
18E3
330
1236
100
AcDbEntity
  8
DEFPOINTS
 62
     0
100
AcDbPoint
 10
1306.4715492671
 20
-270.3504512517716
 30
0.0
  0
POINT
  5
18E4
330
1236
100
AcDbEntity
  8
DEFPOINTS
 62
     0
100
AcDbPoint
 10
1306.4715492671
 20
-213.2160408431857
 30
0.0
  0
ENDBLK
  5
1238
330
1236
100
AcDbEntity
  8
0
100
AcDbBlockEnd
  0
BLOCK
  5
12DA
330
12D9
100
AcDbEntity
  8
0
100
AcDbBlockBegin
  2
*D62
 70
     1
 10
0.0
 20
0.0
 30
0.0
  3
*D62
  1

  0
LINE
  5
18E5
330
12D9
100
AcDbEntity
  8
AM_5 ( Bemassung)
100
AcDbLine
 10
1341.990320815219
 20
-287.924647040131
 30
0.0
 11
1339.490320815219
 21
-287.924647040131
 31
0.0
  0
LINE
  5
18E6
330
12D9
100
AcDbEntity
  8
AM_5 ( Bemassung)
100
AcDbLine
 10
1319.47154985282
 20
-461.083110027934
 30
0.0
 11
1343.490320815219
 21
-461.083110027934
 31
0.0
  0
LINE
  5
18E7
330
12D9
100
AcDbEntity
  8
AM_5 ( Bemassung)
100
AcDbLine
 10
1341.490320815219
 20
-297.924647040131
 30
0.0
 11
1341.490320815219
 21
-451.0831100279339
 31
0.0
  0
SOLID
  5
18E8
330
12D9
100
AcDbEntity
  8
AM_5 ( Bemassung)
100
AcDbTrace
 10
1339.823654148552
 20
-297.924647040131
 30
0.0
 11
1343.156987481886
 21
-297.924647040131
 31
0.0
 12
1341.490320815219
 22
-287.924647040131
 32
0.0
 13
1341.490320815219
 23
-287.924647040131
 33
0.0
  0
SOLID
  5
18E9
330
12D9
100
AcDbEntity
  8
AM_5 ( Bemassung)
100
AcDbTrace
 10
1339.823654148552
 20
-451.0831100279339
 30
0.0
 11
1343.156987481886
 21
-451.0831100279339
 31
0.0
 12
1341.490320815219
 22
-461.083110027934
 32
0.0
 13
1341.490320815219
 23
-461.083110027934
 33
0.0
  0
MTEXT
  5
18EA
330
12D9
100
AcDbEntity
  8
AM_5 ( Bemassung)
 62
     2
100
AcDbMText
 10
1334.381180296801
 20
-374.5038785340323
 30
0.0
 40
10.0
 41
0.0
 71
     5
 72
     1
  1
173
 11
0.0000000000000001
 21
1.0
 31
0.0
 73
     1
 44
1.0
  0
POINT
  5
18EB
330
12D9
100
AcDbEntity
  8
DEFPOINTS
 62
     0
100
AcDbPoint
 10
1341.990320815219
 20
-287.924647040131
 30
0.0
  0
POINT
  5
18EC
330
12D9
100
AcDbEntity
  8
DEFPOINTS
 62
     0
100
AcDbPoint
 10
1319.47154985282
 20
-461.083110027934
 30
0.0
  0
POINT
  5
18ED
330
12D9
100
AcDbEntity
  8
DEFPOINTS
 62
     0
100
AcDbPoint
 10
1341.490320815219
 20
-461.083110027934
 30
0.0
  0
ENDBLK
  5
12DB
330
12D9
100
AcDbEntity
  8
0
100
AcDbBlockEnd
  0
BLOCK
  5
18F2
330
18EE
100
AcDbEntity
  8
0
100
AcDbBlockBegin
  2
*S71
 70
     1
 10
0.0
 20
0.0
 30
0.0
  3
*S71
  1

  0
CIRCLE
  5
18EF
330
18EE
100
AcDbEntity
  8
AM_12 ( Teile Referenz)
 62
     4
100
AcDbCircle
 10
1263.095119485368
 20
-350.8417058294015
 30
0.0
 40
2.5
  0
LINE
  5
18F0
330
18EE
100
AcDbEntity
  8
AM_12 ( Teile Referenz)
 62
     4
100
AcDbLine
 10
1260.595119485368
 20
-353.3417058294014
 30
0.0
 11
1265.595119485368
 21
-348.3417058294015
 31
0.0
  0
LINE
  5
18F1
330
18EE
100
AcDbEntity
  8
AM_12 ( Teile Referenz)
 62
     4
100
AcDbLine
 10
1260.595119485368
 20
-348.3417058294015
 30
0.0
 11
1265.595119485368
 21
-353.3417058294014
 31
0.0
  0
ENDBLK
  5
18F3
330
18EE
100
AcDbEntity
  8
0
100
AcDbBlockEnd
  0
BLOCK
  5
18F9
330
18F5
100
AcDbEntity
  8
0
100
AcDbBlockBegin
  2
*S72
 70
     1
 10
0.0
 20
0.0
 30
0.0
  3
*S72
  1

  0
CIRCLE
  5
18F6
330
18F5
100
AcDbEntity
  8
AM_12 ( Teile Referenz)
 62
     4
100
AcDbCircle
 10
1290.595120003508
 20
-581.2895928063491
 30
0.0
 40
2.5
  0
LINE
  5
18F7
330
18F5
100
AcDbEntity
  8
AM_12 ( Teile Referenz)
 62
     4
100
AcDbLine
 10
1288.095120003508
 20
-583.7895928063492
 30
0.0
 11
1293.095120003508
 21
-578.7895928063492
 31
0.0
  0
LINE
  5
18F8
330
18F5
100
AcDbEntity
  8
AM_12 ( Teile Referenz)
 62
     4
100
AcDbLine
 10
1288.095120003508
 20
-578.7895928063492
 30
0.0
 11
1293.095120003508
 21
-583.7895928063492
 31
0.0
  0
ENDBLK
  5
18FA
330
18F5
100
AcDbEntity
  8
0
100
AcDbBlockEnd
  0
ENDSEC
  0
SECTION
  2
ENTITIES
  0
DIMENSION
  5
712
330
22
100
AcDbEntity
  8
AM_5 ( Bemassung)
100
AcDbDimension
  2
*D30
 10
1341.490320815219
 20
-287.924647040131
 30
0.0
 11
1334.381180296801
 21
-277.9246468899458
 31
0.0
 70
    32
 71
     5
 42
20.00000030037
  3
AM_DIN$0
100
AcDbAlignedDimension
 13
1309.47154923762
 23
-267.924646739761
 33
0.0
 14
1357.43797243961
 24
-287.924647040131
 34
0.0
 50
90.0
100
AcDbRotatedDimension
1001
ACAD
1000
DSTYLE
1002
{
1070
    40
1040
20.0
1070
    41
1040
0.5
1070
    44
1040
0.1
1070
    74
1070
     1
1070
   140
1040
0.5
1070
   147
1040
0.1
1070
   271
1070
     0
1002
}
  0
DIMENSION
  5
714
330
22
100
AcDbEntity
  8
AM_5 ( Bemassung)
100
AcDbDimension
  2
*D32
 10
1364.411865135391
 20
-461.083110027934
 30
0.0
 11
1364.411865135391
 21
-364.0038783838473
 31
0.0
 70
   160
 71
     5
 42
193.158463288173
  3
AM_DIN$0
100
AcDbAlignedDimension
 13
1309.47154923762
 23
-267.924646739761
 33
0.0
 14
1319.47154985282
 24
-461.083110027934
 34
0.0
 50
90.0
100
AcDbRotatedDimension
1001
ACAD
1000
DSTYLE
1002
{
1070
    40
1040
20.0
1070
    41
1040
0.5
1070
    44
1040
0.1
1070
    74
1070
     1
1070
   140
1040
0.5
1070
   147
1040
0.1
1070
   271
1070
     0
1002
}
  0
DIMENSION
  5
715
330
22
100
AcDbEntity
  8
AM_5 ( Bemassung)
100
AcDbDimension
  2
*D33
 10
1241.47154868138
 20
-510.8028029880593
 30
0.0
 11
1279.400881134424
 21
-510.8028029880593
 31
0.0
 70
   160
  1
%%c<>
 71
     5
 42
78.00000117144008
  3
AM_DIN$0
100
AcDbAlignedDimension
 13
1319.47154985282
 23
-452.0831099077859
 33
0.0
 14
1241.47154868138
 24
-460.083110027934
 34
0.0
100
AcDbRotatedDimension
1001
ACAD
1000
DSTYLE
1002
{
1070
    40
1040
20.0
1070
    41
1040
0.5
1070
    44
1040
0.1
1070
    74
1070
     1
1070
   140
1040
0.5
1070
   147
1040
0.1
1070
   271
1070
     0
1002
}
1001
ACAD_DSTYLE_DIMINSPECT
1070
   396
1000
100%
1070
   395
1000

1070
   394
1070
    33
1070
   393
1070
     0
  0
LINE
  5
BE2
330
22
100
AcDbEntity
  8
AM_0 ( Kontur 0.5 )
100
AcDbLine
 10
1245.97154874896
 20
-348.824647954757
 30
0.0
 11
1314.97154978524
 21
-348.824647954756
 31
0.0
  0
LINE
  5
BE3
330
22
100
AcDbEntity
  8
AM_0 ( Kontur 0.5 )
100
AcDbLine
 10
1250.97154927461
 20
-273.9246468298722
 30
0.0
 11
1280.4715492671
 21
-273.924646829872
 31
0.0
  0
LINE
  5
BE4
330
22
100
AcDbEntity
  8
AM_0 ( Kontur 0.5 )
100
AcDbLine
 10
1259.51654895239
 20
-389.424648564507
 30
0.0
 11
1301.42654958182
 21
-389.424648564507
 31
0.0
  0
LINE
  5
BE5
330
22
100
AcDbEntity
  8
AM_0 ( Kontur 0.5 )
100
AcDbLine
 10
1259.51654895239
 20
-389.424648564507
 30
0.0
 11
1266.40523807291
 21
-377.493089010219
 31
0.0
  0
LINE
  5
BE6
330
22
100
AcDbEntity
  8
AM_0 ( Kontur 0.5 )
100
AcDbLine
 10
1301.42654958182
 20
-416.9246489775169
 30
0.0
 11
1305.451496760962
 21
-421.3525336630508
 31
0.0
  0
LINE
  5
BE7
330
22
100
AcDbEntity
  8
AM_7 (Mittellinie)
  6
AM_ISO08W050x2
100
AcDbLine
 10
1311.97154974019
 20
-468.156504741754
 30
0.0
 11
1311.97154974019
 21
-428.625000503673
 31
0.0
  0
LINE
  5
BE8
330
22
100
AcDbEntity
  8
AM_3 ( Verdeckt )
  6
AM_ISO02W050x2
100
AcDbLine
 10
1295.57154949388
 20
-459.083109997897
 30
0.0
 11
1295.57154949388
 21
-430.1831095788807
 31
0.0
  0
LINE
  5
BE9
330
22
100
AcDbEntity
  8
AM_0 ( Kontur 0.5 )
100
AcDbLine
 10
1243.47154868138
 20
-436.9246492778868
 30
0.0
 11
1280.4715492671
 21
-436.9246492778868
 31
0.0
  0
LINE
  5
BEA
330
22
100
AcDbEntity
  8
AM_0 ( Kontur 0.5 )
100
AcDbLine
 10
1314.97154974018
 20
-461.083110027934
 30
0.0
 11
1314.97154974018
 21
-466.3112142778869
 31
0.0
  0
ARC
  5
BEB
330
22
100
AcDbEntity
  8
AM_0 ( Kontur 0.5 )
100
AcDbCircle
 10
1306.97154966509
 20
-435.9246492628678
 30
0.0
 40
1.00000001501849
100
AcDbArc
 50
180.0
 51
270.0
  0
LINE
  5
BEC
330
22
100
AcDbEntity
  8
AM_0 ( Kontur 0.5 )
100
AcDbLine
 10
1305.97154965007
 20
-422.6978055868491
 30
0.0
 11
1305.97154965007
 21
-435.9246492628678
 31
0.0
  0
LINE
  5
BED
330
22
100
AcDbEntity
  8
AM_0 ( Kontur 0.5 )
100
AcDbLine
 10
1280.4715492671
 20
-436.9246492778868
 30
0.0
 11
1317.47154985282
 21
-436.9246492778868
 31
0.0
  0
LINE
  5
BEE
330
22
100
AcDbEntity
  8
AM_0 ( Kontur 0.5 )
100
AcDbLine
 10
1255.491601773239
 20
-421.3525336630501
 30
0.0
 11
1258.996496063281
 21
-417.4967643670756
 31
0.0
  0
LINE
  5
BEF
330
22
100
AcDbEntity
  8
AM_0 ( Kontur 0.5 )
100
AcDbLine
 10
1243.47154871142
 20
-450.0831098777489
 30
0.0
 11
1280.4715492671
 21
-450.0831098777489
 31
0.0
  0
LINE
  5
BF0
330
22
100
AcDbEntity
  8
AM_7 (Mittellinie)
  6
AM_ISO08W050x2
100
AcDbLine
 10
1248.97154879402
 20
-466.656504741754
 30
0.0
 11
1248.97154879402
 21
-427.125000503674
 31
0.0
  0
LINE
  5
BF1
330
22
100
AcDbEntity
  8
AM_0 ( Kontur 0.5 )
100
AcDbLine
 10
1241.47154868138
 20
-438.9246492778869
 30
0.0
 11
1241.47154868138
 21
-444.924649398035
 31
0.0
  0
ARC
  5
BF2
330
22
100
AcDbEntity
  8
AM_0 ( Kontur 0.5 )
100
AcDbCircle
 10
1253.97154886911
 20
-435.9246492628678
 30
0.0
 40
1.00000001501849
100
AcDbArc
 50
270.0
 51
0.0000000000002036
  0
LINE
  5
BF3
330
22
100
AcDbEntity
  8
AM_0 ( Kontur 0.5 )
100
AcDbLine
 10
1254.97154888413
 20
-422.6978055868507
 30
0.0
 11
1254.97154888413
 21
-435.9246492628678
 31
0.0
  0
LINE
  5
BF4
330
22
100
AcDbEntity
  8
AM_0 ( Kontur 0.5 )
100
AcDbLine
 10
1241.47154868138
 20
-444.924649398035
 30
0.0
 11
1280.4715492671
 21
-444.924649398035
 31
0.0
  0
LINE
  5
BF5
330
22
100
AcDbEntity
  8
AM_0 ( Kontur 0.5 )
100
AcDbLine
 10
1259.51654895239
 20
-389.424648564507
 30
0.0
 11
1259.51654895239
 21
-416.1514924432752
 31
0.0
  0
LINE
  5
BF6
330
22
100
AcDbEntity
  8
AM_0 ( Kontur 0.5 )
100
AcDbLine
 10
1301.42654958182
 20
-389.424648564507
 30
0.0
 11
1301.42654958182
 21
-416.9246489775169
 31
0.0
  0
ARC
  5
BF7
330
22
100
AcDbEntity
  8
AM_0 ( Kontur 0.5 )
100
AcDbCircle
 10
1252.47154929714
 20
-269.924646769798
 30
0.0
 40
2.00000003003698
100
AcDbArc
 50
89.9999999999996
 51
180.0
  0
ARC
  5
BF8
330
22
100
AcDbEntity
  8
AM_0 ( Kontur 0.5 )
100
AcDbCircle
 10
1308.47154923762
 20
-269.924646769798
 30
0.0
 40
2.00000003003698
100
AcDbArc
 50
0.0000000000001908
 51
89.9999999999996
  0
LINE
  5
BF9
330
22
100
AcDbEntity
  8
AM_0 ( Kontur 0.5 )
100
AcDbLine
 10
1280.4715492671
 20
-356.924648076407
 30
0.0
 11
1247.47154877149
 21
-356.924648076407
 31
0.0
  0
ARC
  5
BFA
330
22
100
AcDbEntity
  8
AM_0 ( Kontur 0.5 )
100
AcDbCircle
 10
1313.47154976271
 20
-354.92464804637
 30
0.0
 40
2.00000003003698
100
AcDbArc
 50
270.0
 51
0.0000000000002036
  0
ARC
  5
BFB
102
{ACAD_REACTORS
330
11FE
102
}
330
22
100
AcDbEntity
  8
AM_0 ( Kontur 0.5 )
100
AcDbCircle
 10
-1247.47154877149
 20
-354.92464804637
 30
0.0
 40
2.00000003003698
210
0.0
220
0.0
230
-1.0
100
AcDbArc
 50
270.0
 51
0.0
  0
LINE
  5
BFC
330
22
100
AcDbEntity
  8
AM_0 ( Kontur 0.5 )
100
AcDbLine
 10
1249.97154880904
 20
-356.924648076407
 30
0.0
 11
1249.97154880904
 21
-364.2528514167401
 31
0.0
  0
LINE
  5
BFD
330
22
100
AcDbEntity
  8
AM_0 ( Kontur 0.5 )
100
AcDbLine
 10
1310.97154972517
 20
-356.924648076407
 30
0.0
 11
1310.97154972517
 21
-364.252851416741
 31
0.0
  0
LINE
  5
BFE
330
22
100
AcDbEntity
  8
AM_0 ( Kontur 0.5 )
100
AcDbLine
 10
1273.47154916197
 20
-357.324648082414
 30
0.0
 11
1287.47154937223
 21
-357.324648082414
 31
0.0
  0
LINE
  5
BFF
330
22
100
AcDbEntity
  8
AM_0 ( Kontur 0.5 )
100
AcDbLine
 10
1266.23498546
 20
-377.787975185895
 30
0.0
 11
1254.18953793715
 21
-356.924648076407
 31
0.0
  0
LINE
  5
C00
330
22
100
AcDbEntity
  8
AM_0 ( Kontur 0.5 )
100
AcDbLine
 10
1302.2761020402
 20
-364.679833785658
 30
0.0
 11
1306.75356059706
 21
-356.924648076407
 31
0.0
  0
ARC
  5
C01
330
22
100
AcDbEntity
  8
AM_0 ( Kontur 0.5 )
100
AcDbCircle
 10
1280.4715492671
 20
-288.585897525772
 30
0.0
 40
2.303999999999998
100
AcDbArc
 50
179.999890707802
 51
0.0000000000002036
  0
LINE
  5
C02
330
22
100
AcDbEntity
  8
AM_0 ( Kontur 0.5 )
100
AcDbLine
 10
1294.7081130742
 20
-377.787975185895
 30
0.0
 11
1306.81129562484
 21
-356.824648074904
 31
0.0
  0
LINE
  5
C03
330
22
100
AcDbEntity
  8
AM_0 ( Kontur 0.5 )
100
AcDbLine
 10
1280.4715492671
 20
-345.541332688668
 30
0.0
 11
1280.4715492671
 21
-367.164356711848
 31
0.0
  0
LINE
  5
C04
330
22
100
AcDbEntity
  8
AM_0 ( Kontur 0.5 )
100
AcDbLine
 10
1262.01052081034
 20
-385.104962593892
 30
0.0
 11
1249.97154880904
 21
-364.2528514167401
 31
0.0
  0
LINE
  5
C05
330
22
100
AcDbEntity
  8
AM_0 ( Kontur 0.5 )
100
AcDbLine
 10
1298.93257772387
 20
-385.104962593892
 30
0.0
 11
1310.97154972517
 21
-364.252851416741
 31
0.0
  0
ARC
  5
C06
330
22
100
AcDbEntity
  8
AM_0 ( Kontur 0.5 )
100
AcDbCircle
 10
1245.971548748969
 20
-349.324647962266
 30
0.0
 40
0.5000000075092462
100
AcDbArc
 50
89.9999999999996
 51
180.0
  0
ARC
  5
C07
330
22
100
AcDbEntity
  8
AM_0 ( Kontur 0.5 )
100
AcDbCircle
 10
1314.97154978524
 20
-349.324647962266
 30
0.0
 40
0.5000000075092462
100
AcDbArc
 50
0.0000000000001908
 51
89.9999999999996
  0
ARC
  5
C08
330
22
100
AcDbEntity
  8
AM_0 ( Kontur 0.5 )
100
AcDbCircle
 10
1250.97154927461
 20
-273.424646822363
 30
0.0
 40
0.5000000075092462
100
AcDbArc
 50
180.0
 51
270.0
  0
ARC
  5
C09
330
22
100
AcDbEntity
  8
AM_0 ( Kontur 0.5 )
100
AcDbCircle
 10
1309.97154926015
 20
-273.424646822363
 30
0.0
 40
0.5000000075092462
100
AcDbArc
 50
270.0
 51
0.0000000000002036
  0
LINE
  5
C0A
330
22
100
AcDbEntity
  8
AM_0 ( Kontur 0.5 )
100
AcDbLine
 10
1273.47154916197
 20
-365.253879181875
 30
0.0
 11
1287.47154937223
 21
-365.253879181875
 31
0.0
  0
LINE
  5
C0B
330
22
100
AcDbEntity
  8
AM_0 ( Kontur 0.5 )
100
AcDbLine
 10
1301.42654958182
 20
-389.424648564507
 30
0.0
 11
1294.58464759981
 21
-377.574126711261
 31
0.0
  0
ARC
  5
C0C
330
22
100
AcDbEntity
  8
AM_0 ( Kontur 0.5 )
100
AcDbCircle
 10
1280.4715492671
 20
-283.977897525767
 30
0.0
 40
2.303999999999998
100
AcDbArc
 50
0.0
 51
180.0
  0
LINE
  5
C0D
330
22
100
AcDbEntity
  8
AM_0 ( Kontur 0.5 )
100
AcDbLine
 10
1280.4715492671
 20
-356.924648076407
 30
0.0
 11
1313.47154976271
 21
-356.924648076407
 31
0.0
  0
LINE
  5
C0E
330
22
100
AcDbEntity
  8
AM_0 ( Kontur 0.5 )
100
AcDbLine
 10
1293.06871669329
 20
-383.924648076406
 30
0.0
 11
1299.51387798359
 21
-356.924648076407
 31
0.0
  0
LINE
  5
C0F
330
22
100
AcDbEntity
  8
AM_0 ( Kontur 0.5 )
100
AcDbLine
 10
1273.47154916197
 20
-357.324648082414
 30
0.0
 11
1273.47154916197
 21
-365.253879181875
 31
0.0
  0
LINE
  5
C10
330
22
100
AcDbEntity
  8
AM_0 ( Kontur 0.5 )
100
AcDbLine
 10
1287.47154937223
 20
-357.324648082414
 30
0.0
 11
1287.47154937223
 21
-365.253879181875
 31
0.0
  0
LINE
  5
C11
330
22
100
AcDbEntity
  8
AM_0 ( Kontur 0.5 )
100
AcDbLine
 10
1272.87815304747
 20
-366.281671401204
 30
0.0
 11
1273.47154916197
 21
-365.253879181875
 31
0.0
  0
ARC
  5
C12
330
22
100
AcDbEntity
  8
AM_0 ( Kontur 0.5 )
100
AcDbCircle
 10
-1110.797751445095
 20
-300.7773361590437
 30
0.0
 40
143.4590521659152
210
0.0
220
0.0
230
-1.0
100
AcDbArc
 50
169.2117325027465
 51
199.5676758226963
  0
LINE
  5
C13
330
22
100
AcDbEntity
  8
AM_0 ( Kontur 0.5 )
100
AcDbLine
 10
1245.47154874146
 20
-349.324647962266
 30
0.0
 11
1245.47154874146
 21
-354.92464804637
 31
0.0
  0
LINE
  5
C14
102
{ACAD_REACTORS
330
11FE
102
}
330
22
100
AcDbEntity
  8
AM_0 ( Kontur 0.5 )
100
AcDbLine
 10
1315.47154979275
 20
-349.324647962266
 30
0.0
 11
1315.47154979275
 21
-354.92464804637
 31
0.0
  0
LINE
  5
C15
330
22
100
AcDbEntity
  8
AM_0 ( Kontur 0.5 )
100
AcDbLine
 10
1280.4715492671
 20
-273.924646829872
 30
0.0
 11
1309.97154926015
 21
-273.924646829872
 31
0.0
  0
LINE
  5
C16
330
22
100
AcDbEntity
  8
AM_0 ( Kontur 0.5 )
100
AcDbLine
 10
1250.4715492671
 20
-269.924646769798
 30
0.0
 11
1250.4715492671
 21
-273.424646822363
 31
0.0
  0
LINE
  5
C17
102
{ACAD_REACTORS
330
D0D
102
}
330
22
100
AcDbEntity
  8
AM_0 ( Kontur 0.5 )
100
AcDbLine
 10
1310.47154926766
 20
-269.924646769798
 30
0.0
 11
1310.47154926766
 21
-273.424646822363
 31
0.0
  0
ARC
  5
C18
330
22
100
AcDbEntity
  8
AM_0 ( Kontur 0.5 )
100
AcDbCircle
 10
1469.633386740134
 20
-298.8303244567282
 30
0.0
 40
162.5414291566521
100
AcDbArc
 50
171.186038146209
 51
197.913387706218
  0
LINE
  5
C19
330
22
100
AcDbEntity
  8
AM_0 ( Kontur 0.5 )
100
AcDbLine
 10
1252.47154929714
 20
-267.924646739761
 30
0.0
 11
1308.47154923762
 21
-267.924646739761
 31
0.0
  0
LINE
  5
C1A
330
22
100
AcDbEntity
  8
AM_3 ( Verdeckt )
  6
AM_ISO02W050x2
100
AcDbLine
 10
1300.97154957498
 20
-444.924649398035
 30
0.0
 11
1300.97154957498
 21
-426.774021506428
 31
0.0
  0
LINE
  5
C1B
330
22
100
AcDbEntity
  8
AM_3 ( Verdeckt )
  6
AM_ISO02W050x2
100
AcDbLine
 10
1259.97154895922
 20
-444.924649398035
 30
0.0
 11
1259.97154895922
 21
-426.774021506428
 31
0.0
  0
LINE
  5
C1C
330
22
100
AcDbEntity
  8
AM_3 ( Verdeckt )
  6
AM_ISO02W050x2
100
AcDbLine
 10
1263.8715490178
 20
-435.083109652471
 30
0.0
 11
1297.07154951641
 21
-435.083109652471
 31
0.0
  0
LINE
  5
C1D
330
22
100
AcDbEntity
  8
AM_0 ( Kontur 0.5 )
100
AcDbLine
 10
1316.37154974019
 20
-430.9246492778869
 30
0.0
 11
1307.57154974019
 21
-430.9246492778869
 31
0.0
  0
LINE
  5
C1E
330
22
100
AcDbEntity
  8
AM_3 ( Verdeckt )
  6
AM_ISO02W050x2
100
AcDbLine
 10
1309.08479839424
 20
-430.9246492778869
 30
0.0
 11
1309.08479839424
 21
-433.9246492778859
 31
0.0
  0
LINE
  5
C1F
330
22
100
AcDbEntity
  8
AM_0 ( Kontur 0.5 )
100
AcDbLine
 10
1314.35811474019
 20
-466.3112142778869
 30
0.0
 11
1314.35811474019
 21
-466.9246492778859
 31
0.0
  0
LINE
  5
C20
330
22
100
AcDbEntity
  8
AM_0 ( Kontur 0.5 )
100
AcDbLine
 10
1308.97154974019
 20
-461.083110027934
 30
0.0
 11
1308.97154974019
 21
-466.3112142778869
 31
0.0
  0
LINE
  5
C21
330
22
100
AcDbEntity
  8
AM_3 ( Verdeckt )
  6
AM_ISO02W050x2
100
AcDbLine
 10
1310.52817406721
 20
-430.9246492778869
 30
0.0
 11
1310.52817406721
 21
-433.9246492778859
 31
0.0
  0
LINE
  5
C22
330
22
100
AcDbEntity
  8
AM_3 ( Verdeckt )
  6
AM_ISO02W050x2
100
AcDbLine
 10
1313.41492541316
 20
-430.9246492778869
 30
0.0
 11
1313.41492541316
 21
-433.9246492778859
 31
0.0
  0
ARC
  5
C23
330
22
100
AcDbEntity
  8
AM_3 ( Verdeckt )
  6
AM_ISO02W050x2
100
AcDbCircle
 10
1314.13661324965
 20
-430.4446810326159
 30
0.0
 40
0.8667195912175799
100
AcDbArc
 50
213.626429135973
 51
326.373570864027
  0
ARC
  5
C24
330
22
100
AcDbEntity
  8
AM_3 ( Verdeckt )
  6
AM_ISO02W050x2
100
AcDbCircle
 10
1311.97154974019
 20
-428.4246492778859
 30
0.0
 40
2.886751345948128
100
AcDbArc
 50
240.0
 51
300.0
  0
LINE
  5
C25
330
22
100
AcDbEntity
  8
AM_0 ( Kontur 0.5 )
100
AcDbLine
 10
1306.97154974018
 20
-431.5246492778869
 30
0.0
 11
1306.97154974018
 21
-436.9246492778868
 31
0.0
  0
LINE
  5
C26
330
22
100
AcDbEntity
  8
AM_0 ( Kontur 0.5 )
100
AcDbLine
 10
1308.97154974019
 20
-444.924649398035
 30
0.0
 11
1308.97154974019
 21
-450.0831098777489
 31
0.0
  0
LINE
  5
C27
330
22
100
AcDbEntity
  8
AM_0 ( Kontur 0.5 )
100
AcDbLine
 10
1319.47154985282
 20
-461.0831100279338
 30
0.0
 11
1319.47154985282
 21
-452.0831099077859
 31
0.0
  0
LINE
  5
C28
102
{ACAD_REACTORS
330
12E7
102
}
330
22
100
AcDbEntity
  8
AM_0 ( Kontur 0.5 )
100
AcDbLine
 10
1241.47154868138
 20
-461.083110027934
 30
0.0
 11
1319.47154985282
 21
-461.083110027934
 31
0.0
  0
LINE
  5
C29
330
22
100
AcDbEntity
  8
AM_3 ( Verdeckt )
  6
AM_ISO02W050x2
100
AcDbLine
 10
1266.90688909713
 20
-420.0831094271938
 30
0.0
 11
1294.03620943707
 21
-420.0831094271938
 31
0.0
  0
LINE
  5
C2A
330
22
100
AcDbEntity
  8
AM_3 ( Verdeckt )
  6
AM_ISO02W050x2
100
AcDbLine
 10
1295.57154949388
 20
-459.083109997897
 30
0.0
 11
1297.57154952392
 21
-461.083110027934
 31
0.0
  0
LINE
  5
C2B
330
22
100
AcDbEntity
  8
AM_3 ( Verdeckt )
  6
AM_ISO02W050x2
100
AcDbLine
 10
1265.37154904032
 20
-459.083109997897
 30
0.0
 11
1263.37154901029
 21
-461.083110027934
 31
0.0
  0
LINE
  5
C2C
330
22
100
AcDbEntity
  8
AM_3 ( Verdeckt )
  6
AM_ISO02W050x2
100
AcDbLine
 10
1265.37154904032
 20
-459.083109997897
 30
0.0
 11
1295.57154949388
 21
-459.083109997897
 31
0.0
  0
LINE
  5
C2D
330
22
100
AcDbEntity
  8
AM_3 ( Verdeckt )
  6
AM_ISO02W050x2
100
AcDbLine
 10
1268.47154908688
 20
-427.083109532324
 30
0.0
 11
1265.37154904032
 21
-430.1831095788807
 31
0.0
  0
ARC
  5
C2E
330
22
100
AcDbEntity
  8
AM_3 ( Verdeckt )
  6
AM_ISO02W050x2
100
AcDbCircle
 10
1280.4715492671
 20
-441.083109742582
 30
0.0
 40
25.00000037546231
100
AcDbArc
 50
122.859880378889
 51
145.084793752556
  0
ARC
  5
C2F
330
22
100
AcDbEntity
  8
AM_3 ( Verdeckt )
  6
AM_ISO02W050x2
100
AcDbCircle
 10
1280.4715492671
 20
-441.083109742582
 30
0.0
 40
25.00000037546231
100
AcDbArc
 50
34.9152062474441
 51
57.1401196211111
  0
LINE
  5
C30
330
22
100
AcDbEntity
  8
AM_3 ( Verdeckt )
  6
AM_ISO02W050x2
100
AcDbLine
 10
1292.47154944732
 20
-427.083109532324
 30
0.0
 11
1295.57154949388
 21
-430.1831095788807
 31
0.0
  0
LINE
  5
C31
330
22
100
AcDbEntity
  8
AM_3 ( Verdeckt )
  6
AM_ISO02W050x2
100
AcDbLine
 10
1268.47154908688
 20
-427.083109532324
 30
0.0
 11
1268.47154908688
 21
-420.0831094271938
 31
0.0
  0
LINE
  5
C32
330
22
100
AcDbEntity
  8
AM_3 ( Verdeckt )
  6
AM_ISO02W050x2
100
AcDbLine
 10
1292.47154944732
 20
-427.083109532324
 30
0.0
 11
1292.47154944732
 21
-420.0831094271938
 31
0.0
  0
LINE
  5
C33
330
22
100
AcDbEntity
  8
AM_3 ( Verdeckt )
  6
AM_ISO02W050x2
100
AcDbLine
 10
1268.47154908688
 20
-427.083109532324
 30
0.0
 11
1292.47154944732
 21
-427.083109532324
 31
0.0
  0
LINE
  5
C34
330
22
100
AcDbEntity
  8
AM_3 ( Verdeckt )
  6
AM_ISO02W050x2
100
AcDbLine
 10
1265.37154904032
 20
-459.083109997897
 30
0.0
 11
1265.37154904032
 21
-430.1831095788807
 31
0.0
  0
LINE
  5
C35
330
22
100
AcDbEntity
  8
AM_0 ( Kontur 0.5 )
100
AcDbLine
 10
1280.4715492671
 20
-444.924649398035
 30
0.0
 11
1319.47154985282
 21
-444.924649398035
 31
0.0
  0
LINE
  5
C36
330
22
100
AcDbEntity
  8
AM_0 ( Kontur 0.5 )
100
AcDbLine
 10
1280.4715492671
 20
-450.0831098777489
 30
0.0
 11
1317.47154982279
 21
-450.0831098777489
 31
0.0
  0
LINE
  5
C37
102
{ACAD_REACTORS
330
DC5
102
}
330
22
100
AcDbEntity
  8
AM_3 ( Verdeckt )
  6
AM_ISO02W050x2
100
AcDbLine
 10
1263.8715490178
 20
-461.083110027934
 30
0.0
 11
1263.8715490178
 21
-435.083109652471
 31
0.0
  0
LINE
  5
C38
330
22
100
AcDbEntity
  8
AM_0 ( Kontur 0.5 )
100
AcDbLine
 10
1314.97154974018
 20
-444.924649398035
 30
0.0
 11
1314.97154974018
 21
-450.0831098777489
 31
0.0
  0
LINE
  5
C39
330
22
100
AcDbEntity
  8
AM_3 ( Verdeckt )
  6
AM_ISO02W050x2
100
AcDbLine
 10
1314.85830108613
 20
-433.9246492778859
 30
0.0
 11
1309.08479839424
 21
-433.9246492778859
 31
0.0
  0
LINE
  5
C3A
330
22
100
AcDbEntity
  8
AM_0 ( Kontur 0.5 )
100
AcDbLine
 10
1309.58498474019
 20
-466.3112142778869
 30
0.0
 11
1309.58498474019
 21
-466.9246492778859
 31
0.0
  0
LINE
  5
C3B
330
22
100
AcDbEntity
  8
AM_0 ( Kontur 0.5 )
100
AcDbLine
 10
1308.97154974019
 20
-466.3112142778869
 30
0.0
 11
1314.97154974018
 21
-466.3112142778869
 31
0.0
  0
LINE
  5
C3C
330
22
100
AcDbEntity
  8
AM_0 ( Kontur 0.5 )
100
AcDbLine
 10
1300.97154957498
 20
-448.083109847712
 30
0.0
 11
1300.97154957498
 21
-444.924649398035
 31
0.0
  0
LINE
  5
C3D
330
22
100
AcDbEntity
  8
AM_0 ( Kontur 0.5 )
100
AcDbLine
 10
1319.47154985282
 20
-438.9246492778869
 30
0.0
 11
1319.47154985282
 21
-444.924649398035
 31
0.0
  0
ARC
  5
C3E
330
22
100
AcDbEntity
  8
AM_0 ( Kontur 0.5 )
100
AcDbCircle
 10
1317.47154982279
 20
-452.0831099077859
 30
0.0
 40
2.00000003003698
100
AcDbArc
 50
0.0000000000001908
 51
90.00000000000019
  0
ARC
  5
C3F
330
22
100
AcDbEntity
  8
AM_0 ( Kontur 0.5 )
100
AcDbCircle
 10
1243.47154871142
 20
-452.0831099077859
 30
0.0
 40
2.00000003003698
100
AcDbArc
 50
90.00000000000019
 51
180.0
  0
ARC
  5
C40
330
22
100
AcDbEntity
  8
AM_0 ( Kontur 0.5 )
100
AcDbCircle
 10
1257.97154892919
 20
-448.083109847712
 30
0.0
 40
2.00000003003698
100
AcDbArc
 50
270.0
 51
0.0000000000002036
  0
ARC
  5
C41
330
22
100
AcDbEntity
  8
AM_0 ( Kontur 0.5 )
100
AcDbCircle
 10
1302.97154960502
 20
-448.083109847712
 30
0.0
 40
2.00000003003698
100
AcDbArc
 50
180.0
 51
270.0
  0
LINE
  5
C42
102
{ACAD_REACTORS
330
DC5
102
}
330
22
100
AcDbEntity
  8
AM_3 ( Verdeckt )
  6
AM_ISO02W050x2
100
AcDbLine
 10
1297.07154951641
 20
-461.083110027934
 30
0.0
 11
1297.07154951641
 21
-435.083109652471
 31
0.0
  0
LINE
  5
C43
330
22
100
AcDbEntity
  8
AM_0 ( Kontur 0.5 )
100
AcDbLine
 10
1241.47154868138
 20
-461.0831100279338
 30
0.0
 11
1241.47154868138
 21
-452.0831099077859
 31
0.0
  0
LINE
  5
C44
330
22
100
AcDbEntity
  8
AM_3 ( Verdeckt )
  6
AM_ISO02W050x2
100
AcDbLine
 10
1314.85830108613
 20
-430.9246492778869
 30
0.0
 11
1314.85830108613
 21
-433.9246492778859
 31
0.0
  0
LINE
  5
C45
330
22
100
AcDbEntity
  8
AM_0 ( Kontur 0.5 )
100
AcDbLine
 10
1309.58498474019
 20
-466.9246492778859
 30
0.0
 11
1308.97154974019
 21
-466.3112142778869
 31
0.0
  0
LINE
  5
C46
330
22
100
AcDbEntity
  8
AM_0 ( Kontur 0.5 )
100
AcDbLine
 10
1259.97154895922
 20
-448.083109847712
 30
0.0
 11
1259.97154895922
 21
-444.924649398035
 31
0.0
  0
LINE
  5
C47
330
22
100
AcDbEntity
  8
AM_0 ( Kontur 0.5 )
100
AcDbLine
 10
1316.97154974018
 20
-436.9246492778868
 30
0.0
 11
1316.97154974018
 21
-431.5246492778869
 31
0.0
  0
LINE
  5
C48
330
22
100
AcDbEntity
  8
AM_0 ( Kontur 0.5 )
100
AcDbLine
 10
1314.35811474019
 20
-466.9246492778859
 30
0.0
 11
1309.58498474019
 21
-466.9246492778859
 31
0.0
  0
ARC
  5
C49
330
22
100
AcDbEntity
  8
AM_0 ( Kontur 0.5 )
100
AcDbCircle
 10
1316.37154974019
 20
-431.5246492778869
 30
0.0
 40
0.6
100
AcDbArc
 50
0.0000000000001908
 51
89.9999999999996
  0
LINE
  5
C4A
330
22
100
AcDbEntity
  8
AM_0 ( Kontur 0.5 )
100
AcDbLine
 10
1314.97154974018
 20
-466.3112142778869
 30
0.0
 11
1314.35811474019
 21
-466.9246492778859
 31
0.0
  0
ARC
  5
C4B
330
22
100
AcDbEntity
  8
AM_3 ( Verdeckt )
  6
AM_ISO02W050x2
100
AcDbCircle
 10
1309.80648623072
 20
-430.4446810326159
 30
0.0
 40
0.8667195912175799
100
AcDbArc
 50
213.626429135973
 51
326.373570864027
  0
LINE
  5
C4C
330
22
100
AcDbEntity
  8
AM_0 ( Kontur 0.5 )
100
AcDbLine
 10
1314.97154974018
 20
-466.3112142778869
 30
0.0
 11
1308.97154974019
 21
-466.3112142778869
 31
0.0
  0
ARC
  5
C4D
330
22
100
AcDbEntity
  8
AM_0 ( Kontur 0.5 )
100
AcDbCircle
 10
1307.57154974019
 20
-431.5246492778869
 30
0.0
 40
0.6
100
AcDbArc
 50
89.9999999999996
 51
180.0
  0
LINE
  5
C4E
330
22
100
AcDbEntity
  8
AM_2 ( Kontur 0.25)
100
AcDbLine
 10
1309.58498474019
 20
-444.924649398035
 30
0.0
 11
1309.58498474019
 21
-450.0831098777489
 31
0.0
  0
LINE
  5
C4F
330
22
100
AcDbEntity
  8
AM_2 ( Kontur 0.25)
100
AcDbLine
 10
1314.35811474019
 20
-444.924649398035
 30
0.0
 11
1314.35811474019
 21
-450.0831098777489
 31
0.0
  0
LINE
  5
C50
330
22
100
AcDbEntity
  8
AM_2 ( Kontur 0.25)
100
AcDbLine
 10
1309.58498474019
 20
-461.083110027934
 30
0.0
 11
1309.58498474019
 21
-466.3112142778869
 31
0.0
  0
LINE
  5
C51
330
22
100
AcDbEntity
  8
AM_2 ( Kontur 0.25)
100
AcDbLine
 10
1314.35811474019
 20
-461.083110027934
 30
0.0
 11
1314.35811474019
 21
-466.3112142778869
 31
0.0
  0
LINE
  5
C52
330
22
100
AcDbEntity
  8
AM_0 ( Kontur 0.5 )
100
AcDbLine
 10
1259.51654895239
 20
-416.9246489775169
 30
0.0
 11
1301.42654958182
 21
-416.9246489775169
 31
0.0
  0
LINE
  5
C53
330
22
100
AcDbEntity
  8
AM_0 ( Kontur 0.5 )
100
AcDbLine
 10
1305.816062857819
 20
-421.924649052609
 30
0.0
 11
1255.127035676381
 21
-421.924649052609
 31
0.0
  0
LINE
  5
C54
330
22
100
AcDbEntity
  8
AM_0 ( Kontur 0.5 )
100
AcDbLine
 10
1288.11421559907
 20
-366.367009739073
 30
0.0
 11
1287.47154937223
 21
-365.253879181875
 31
0.0
  0
LINE
  5
C55
330
22
100
AcDbEntity
  8
AM_0 ( Kontur 0.5 )
100
AcDbLine
 10
1285.46488727535
 20
-379.775612011604
 30
0.0
 11
1286.14051346298
 21
-383.924648076406
 31
0.0
  0
LINE
  5
C56
330
22
100
AcDbEntity
  8
AM_0 ( Kontur 0.5 )
100
AcDbLine
 10
1286.14051346298
 20
-383.924648076406
 30
0.0
 11
1293.06871669329
 21
-383.924648076406
 31
0.0
  0
LINE
  5
C57
330
22
100
AcDbEntity
  8
AM_0 ( Kontur 0.5 )
100
AcDbLine
 10
1285.46488727535
 20
-379.775612011604
 30
0.0
 11
1289.97987733527
 21
-356.924648076407
 31
0.0
  0
LINE
  5
C58
330
22
100
AcDbEntity
  8
AM_0 ( Kontur 0.5 )
100
AcDbLine
 10
1286.14051346298
 20
-383.924648076406
 30
0.0
 11
1292.58567475329
 21
-356.924648076407
 31
0.0
  0
LINE
  5
C59
330
22
100
AcDbEntity
  8
AM_0 ( Kontur 0.5 )
100
AcDbLine
 10
1271.0293528208
 20
-356.924648076407
 30
0.0
 11
1275.54434288085
 21
-379.775612011604
 31
0.0
  0
LINE
  5
C5A
330
22
100
AcDbEntity
  8
AM_0 ( Kontur 0.5 )
100
AcDbLine
 10
1274.86871669321
 20
-383.924648076406
 30
0.0
 11
1275.54434288085
 21
-379.775612011604
 31
0.0
  0
LINE
  5
C5B
330
22
100
AcDbEntity
  8
AM_0 ( Kontur 0.5 )
100
AcDbLine
 10
1268.42355540291
 20
-356.924648076407
 30
0.0
 11
1274.86871669321
 21
-383.924648076406
 31
0.0
  0
LINE
  5
C5C
330
22
100
AcDbEntity
  8
AM_0 ( Kontur 0.5 )
100
AcDbLine
 10
1261.49535217261
 20
-356.924648076407
 30
0.0
 11
1267.9405134629
 21
-383.924648076406
 31
0.0
  0
LINE
  5
C5D
330
22
100
AcDbEntity
  8
AM_0 ( Kontur 0.5 )
100
AcDbLine
 10
1267.9405134629
 20
-383.924648076406
 30
0.0
 11
1274.86871669321
 21
-383.924648076406
 31
0.0
  0
LINE
  5
C5E
330
22
100
AcDbEntity
  8
AM_0 ( Kontur 0.5 )
100
AcDbLine
 10
1278.87798197692
 20
-339.933965816423
 30
0.0
 11
1281.75798231418
 21
-339.933965816423
 31
0.0
  0
LINE
  5
C5F
330
22
100
AcDbEntity
  8
AM_0 ( Kontur 0.5 )
100
AcDbLine
 10
1278.87798197692
 20
-341.085965816424
 30
0.0
 11
1281.75798231418
 21
-341.085965816424
 31
0.0
  0
LINE
  5
C60
330
22
100
AcDbEntity
  8
AM_0 ( Kontur 0.5 )
100
AcDbLine
 10
1278.87798197692
 20
-345.693965816409
 30
0.0
 11
1282.90998197697
 21
-345.693965816409
 31
0.0
  0
LINE
  5
C61
330
22
100
AcDbEntity
  8
AM_0 ( Kontur 0.5 )
100
AcDbLine
 10
1278.87798197692
 20
-339.933965816423
 30
0.0
 11
1278.87798197692
 21
-336.477965816419
 31
0.0
  0
LINE
  5
C62
330
22
100
AcDbEntity
  8
AM_0 ( Kontur 0.5 )
100
AcDbLine
 10
1278.87798197692
 20
-336.477965816419
 30
0.0
 11
1282.90998197697
 21
-336.477965816419
 31
0.0
  0
LINE
  5
C63
330
22
100
AcDbEntity
  8
AM_0 ( Kontur 0.5 )
100
AcDbLine
 10
1277.72598197686
 20
-346.845965816411
 30
0.0
 11
1282.90998197697
 21
-346.845965816411
 31
0.0
  0
LINE
  5
C64
330
22
100
AcDbEntity
  8
AM_0 ( Kontur 0.5 )
100
AcDbLine
 10
1277.72598197686
 20
-335.325965816428
 30
0.0
 11
1282.90998197697
 21
-335.325965816428
 31
0.0
  0
LINE
  5
C65
330
22
100
AcDbEntity
  8
AM_0 ( Kontur 0.5 )
100
AcDbLine
 10
1277.72598197686
 20
-346.845965816411
 30
0.0
 11
1277.72598197686
 21
-335.325965816428
 31
0.0
  0
LINE
  5
C66
330
22
100
AcDbEntity
  8
AM_0 ( Kontur 0.5 )
100
AcDbLine
 10
1280.49372775194
 20
-301.166942316001
 30
0.0
 11
1282.19057044104
 21
-306.257470383733
 31
0.0
  0
LINE
  5
C67
330
22
100
AcDbEntity
  8
AM_0 ( Kontur 0.5 )
100
AcDbLine
 10
1278.79688506257
 20
-306.257470383733
 30
0.0
 11
1280.49372775194
 21
-301.166942316001
 31
0.0
  0
LINE
  5
C68
330
22
100
AcDbEntity
  8
AM_0 ( Kontur 0.5 )
100
AcDbLine
 10
1278.79688506257
 20
-306.257470383733
 30
0.0
 11
1282.19057044104
 21
-306.257470383733
 31
0.0
  0
LINE
  5
C69
330
22
100
AcDbEntity
  8
AM_0 ( Kontur 0.5 )
100
AcDbLine
 10
1278.41288506269
 20
-307.409470383734
 30
0.0
 11
1282.57457044119
 21
-307.409470383734
 31
0.0
  0
LINE
  5
C6A
330
22
100
AcDbEntity
  8
AM_0 ( Kontur 0.5 )
100
AcDbLine
 10
1281.04016954701
 20
-299.163323836789
 30
0.0
 11
1284.49616933155
 21
-309.531323190501
 31
0.0
  0
LINE
  5
C6B
330
22
100
AcDbEntity
  8
AM_0 ( Kontur 0.5 )
100
AcDbLine
 10
1282.57457044119
 20
-307.409470383734
 30
0.0
 11
1283.40328617213
 21
-309.895617576952
 31
0.0
  0
LINE
  5
C6C
330
22
100
AcDbEntity
  8
AM_0 ( Kontur 0.5 )
100
AcDbLine
 10
1277.58416933149
 20
-309.895617576952
 30
0.0
 11
1278.41288506269
 21
-307.409470383734
 31
0.0
  0
LINE
  5
C6D
330
22
100
AcDbEntity
  8
AM_0 ( Kontur 0.5 )
100
AcDbLine
 10
1276.49128617219
 20
-309.531323190501
 30
0.0
 11
1279.9472859306
 21
-299.163323915159
 31
0.0
  0
ARC
  5
C6E
330
22
100
AcDbEntity
  8
AM_0 ( Kontur 0.5 )
100
AcDbCircle
 10
1283.94972775184
 20
-309.713470383727
 30
0.0
 40
0.5760000000000021
100
AcDbArc
 50
198.434641464407
 51
18.4349488229215
  0
ARC
  5
C6F
330
22
100
AcDbEntity
  8
AM_0 ( Kontur 0.5 )
100
AcDbCircle
 10
1277.03772775191
 20
-309.713470383727
 30
0.0
 40
0.5760000000000021
100
AcDbArc
 50
161.565051177076
 51
341.565360238422
  0
ARC
  5
C70
330
22
100
AcDbEntity
  8
AM_0 ( Kontur 0.5 )
100
AcDbCircle
 10
1280.49372775194
 20
-299.345470383725
 30
0.0
 40
0.5759999999999971
100
AcDbArc
 50
18.4348810567411
 51
161.565127158135
  0
ARC
  5
C71
330
22
100
AcDbEntity
  8
AM_0 ( Kontur 0.5 )
100
AcDbCircle
 10
1277.69618019204
 20
-326.869965816421
 30
0.0
 40
0.5760000000000021
100
AcDbArc
 50
25.3769276100352
 51
205.376933525152
  0
ARC
  5
C72
330
22
100
AcDbEntity
  8
AM_0 ( Kontur 0.5 )
100
AcDbCircle
 10
1283.06712405657
 20
-318.805965816422
 30
0.0
 40
0.5760000000000021
100
AcDbArc
 50
205.376927610035
 51
25.376933525152
  0
ARC
  5
C73
330
22
100
AcDbEntity
  8
AM_0 ( Kontur 0.5 )
100
AcDbCircle
 10
1279.51765212428
 20
-326.005965816425
 30
0.0
 40
2.592000000000009
100
AcDbArc
 50
205.376933525152
 51
270.0
  0
ARC
  5
C74
330
22
100
AcDbEntity
  8
AM_0 ( Kontur 0.5 )
100
AcDbCircle
 10
1279.51765212428
 20
-326.005965816425
 30
0.0
 40
1.44000000000001
100
AcDbArc
 50
205.376931159105
 51
270.0
  0
ARC
  5
C75
330
22
100
AcDbEntity
  8
AM_0 ( Kontur 0.5 )
100
AcDbCircle
 10
1281.24565212434
 20
-319.669965816428
 30
0.0
 40
2.592000000000009
100
AcDbArc
 50
25.3769335251523
 51
90.00000000000019
  0
ARC
  5
C76
330
22
100
AcDbEntity
  8
AM_0 ( Kontur 0.5 )
100
AcDbCircle
 10
1281.24565212434
 20
-319.669965816428
 30
0.0
 40
1.44000000000001
100
AcDbArc
 50
25.3769311591051
 51
90.00000000000019
  0
LINE
  5
C77
330
22
100
AcDbEntity
  8
AM_0 ( Kontur 0.5 )
100
AcDbLine
 10
1277.96245212442
 20
-321.74356581642
 30
0.0
 11
1282.10965212432
 21
-324.853965816424
 31
0.0
  0
LINE
  5
C78
330
22
100
AcDbEntity
  8
AM_0 ( Kontur 0.5 )
100
AcDbLine
 10
1278.6536521243
 20
-320.821965816419
 30
0.0
 11
1282.80085212434
 21
-323.932365816423
 31
0.0
  0
ARC
  5
C79
330
22
100
AcDbEntity
  8
AM_0 ( Kontur 0.5 )
100
AcDbCircle
 10
1279.51765212428
 20
-319.669965816428
 30
0.0
 40
2.592000000000009
100
AcDbArc
 50
90.00000000000019
 51
233.130102354156
  0
ARC
  5
C7A
330
22
100
AcDbEntity
  8
AM_0 ( Kontur 0.5 )
100
AcDbCircle
 10
1281.24565212434
 20
-326.005965816425
 30
0.0
 40
2.592000000000009
100
AcDbArc
 50
270.0
 51
53.13010959866542
  0
ARC
  5
C7B
330
22
100
AcDbEntity
  8
AM_0 ( Kontur 0.5 )
100
AcDbCircle
 10
1281.24565212434
 20
-326.005965816425
 30
0.0
 40
1.44000000000001
100
AcDbArc
 50
270.0
 51
53.130164173972
  0
ARC
  5
C7C
330
22
100
AcDbEntity
  8
AM_0 ( Kontur 0.5 )
100
AcDbCircle
 10
1279.51765212428
 20
-319.669965816428
 30
0.0
 40
1.44000000000001
100
AcDbArc
 50
90.00000000000019
 51
233.130102354156
  0
LINE
  5
C7D
330
22
100
AcDbEntity
  8
AM_0 ( Kontur 0.5 )
100
AcDbLine
 10
1279.51765212428
 20
-327.445965816422
 30
0.0
 11
1281.24565212434
 21
-327.445965816422
 31
0.0
  0
LINE
  5
C7E
330
22
100
AcDbEntity
  8
AM_0 ( Kontur 0.5 )
100
AcDbLine
 10
1279.51765212428
 20
-318.229965816421
 30
0.0
 11
1281.24565212434
 21
-318.229965816421
 31
0.0
  0
LINE
  5
C7F
330
22
100
AcDbEntity
  8
AM_0 ( Kontur 0.5 )
100
AcDbLine
 10
1279.51765212428
 20
-328.597965816423
 30
0.0
 11
1281.24565212434
 21
-328.597965816423
 31
0.0
  0
LINE
  5
C80
330
22
100
AcDbEntity
  8
AM_0 ( Kontur 0.5 )
100
AcDbLine
 10
1279.51765212428
 20
-317.07796581642
 30
0.0
 11
1281.24565212434
 21
-317.07796581642
 31
0.0
  0
LINE
  5
C81
330
22
100
AcDbEntity
  8
AM_0 ( Kontur 0.5 )
100
AcDbLine
 10
1280.4715492671
 20
-456.785601918238
 30
0.0
 11
1280.4715492671
 21
-271.990427500793
 31
0.0
  0
LINE
  5
C82
330
22
100
AcDbEntity
  8
AM_0 ( Kontur 0.5 )
100
AcDbLine
 10
1282.77554926721
 20
-288.585901920672
 30
0.0
 11
1282.77554926721
 21
-283.977897525767
 31
0.0
  0
LINE
  5
C83
102
{ACAD_REACTORS
330
E5E
330
E9A
102
}
330
22
100
AcDbEntity
  8
AM_7 (Mittellinie)
  6
AM_ISO08W050x2
100
AcDbLine
 10
1280.4715492671
 20
-262.956907859518
 30
0.0
 11
1280.4715492671
 21
-463.6465769827069
 31
0.0
  0
LINE
  5
C84
330
22
100
AcDbEntity
  8
AM_0 ( Kontur 0.5 )
100
AcDbLine
 10
1278.16754926711
 20
-288.585901920672
 30
0.0
 11
1278.16754926711
 21
-283.977897525767
 31
0.0
  0
ARC
  5
C85
330
22
100
AcDbEntity
  8
AM_0 ( Kontur 0.5 )
100
AcDbCircle
 10
1280.4715492671
 20
-283.977897525767
 30
0.0
 40
3.455999999999998
100
AcDbArc
 50
0.0
 51
180.0
  0
LINE
  5
C86
330
22
100
AcDbEntity
  8
AM_0 ( Kontur 0.5 )
100
AcDbLine
 10
1283.92754926713
 20
-288.585901920672
 30
0.0
 11
1283.92754926713
 21
-283.977897525767
 31
0.0
  0
ARC
  5
C87
330
22
100
AcDbEntity
  8
AM_0 ( Kontur 0.5 )
100
AcDbCircle
 10
1281.75798197692
 20
-340.509965816423
 30
0.0
 40
0.5760000000000021
100
AcDbArc
 50
269.9999664574504
 51
90.0000335425495
  0
LINE
  5
C88
330
22
100
AcDbEntity
  8
AM_0 ( Kontur 0.5 )
100
AcDbLine
 10
1278.87798197692
 20
-345.693965816409
 30
0.0
 11
1278.87798197692
 21
-341.085965816424
 31
0.0
  0
LINE
  5
C89
330
22
100
AcDbEntity
  8
AM_0 ( Kontur 0.5 )
100
AcDbLine
 10
1277.01554926719
 20
-288.585901920672
 30
0.0
 11
1277.01554926719
 21
-283.977897525767
 31
0.0
  0
ARC
  5
C8A
330
22
100
AcDbEntity
  8
AM_0 ( Kontur 0.5 )
100
AcDbCircle
 10
1282.90998197697
 20
-335.901965816428
 30
0.0
 40
0.5760000000000021
100
AcDbArc
 50
270.0
 51
89.99999999999978
  0
ARC
  5
C8B
330
22
100
AcDbEntity
  8
AM_0 ( Kontur 0.5 )
100
AcDbCircle
 10
1282.90998197697
 20
-346.26996581641
 30
0.0
 40
0.5760000000000021
100
AcDbArc
 50
270.0
 51
89.99999999999978
  0
ARC
  5
C8C
330
22
100
AcDbEntity
  8
AM_0 ( Kontur 0.5 )
100
AcDbCircle
 10
1280.4715492671
 20
-288.585897525772
 30
0.0
 40
3.455999999999998
100
AcDbArc
 50
179.999927138534
 51
0.0000000000002036
  0
LINE
  5
C8D
330
22
100
AcDbEntity
  8
AM_2 ( Kontur 0.25)
100
AcDbLine
 10
1299.07113511777
 20
-296.112686123671
 30
0.0
 11
1350.181100737959
 21
-296.112686123671
 31
0.0
  0
LINE
  5
C8E
330
22
100
AcDbEntity
  8
AM_2 ( Kontur 0.25)
100
AcDbLine
 10
1318.63824102083
 20
-304.112686123671
 30
0.0
 11
1332.41834338066
 21
-304.112686123671
 31
0.0
  0
LINE
  5
C8F
330
22
100
AcDbEntity
  8
AM_2 ( Kontur 0.25)
100
AcDbLine
 10
1309.71794274149
 20
-300.112686123671
 30
0.0
 11
1344.88757753457
 21
-300.112686123671
 31
0.0
  0
LINE
  5
C90
102
{ACAD_REACTORS
330
E9A
102
}
330
22
100
AcDbEntity
  8
AM_7 (Mittellinie)
  6
AM_ISO08W050x2
100
AcDbLine
 10
1280.4715492671
 20
-446.8485309811796
 30
0.0
 11
1266.14680458928
 21
-283.115950089977
 31
0.0
  0
LINE
  5
C91
102
{ACAD_REACTORS
330
E5E
102
}
330
22
100
AcDbEntity
  8
AM_7 (Mittellinie)
  6
AM_ISO08W050x2
100
AcDbLine
 10
1280.4715492671
 20
-446.8485309811796
 30
0.0
 11
1295.02661471215
 21
-280.483371674192
 31
0.0
  0
LINE
  5
C92
330
22
100
AcDbEntity
  8
AM_2 ( Kontur 0.25)
100
AcDbLine
 10
1239.51910380382
 20
-287.924647040131
 30
0.0
 11
1357.43797243961
 21
-287.924647040131
 31
0.0
  0
LINE
  5
C93
330
22
100
AcDbEntity
  8
AM_2 ( Kontur 0.25)
100
AcDbLine
 10
1293.86838232281
 20
-292.112686123671
 30
0.0
 11
1355.135805189259
 21
-292.112686123671
 31
0.0
  0
LINE
  5
C96
330
22
100
AcDbEntity
  8
AM_0 ( Kontur 0.5 )
100
AcDbLine
 10
1267.67154903056
 20
-551.992734302794
 30
0.0
 11
1266.19654903056
 21
-549.4379593616297
 31
0.0
  0
LINE
  5
C97
330
22
100
AcDbEntity
  8
AM_0 ( Kontur 0.5 )
100
AcDbLine
 10
1266.19654903056
 20
-554.547509243958
 30
0.0
 11
1267.67154903056
 21
-551.992734302794
 31
0.0
  0
LINE
  5
C98
330
22
100
AcDbEntity
  8
AM_0 ( Kontur 0.5 )
100
AcDbLine
 10
1263.24654903056
 20
-554.547509243958
 30
0.0
 11
1266.19654903056
 21
-554.547509243958
 31
0.0
  0
LINE
  5
C99
330
22
100
AcDbEntity
  8
AM_0 ( Kontur 0.5 )
100
AcDbLine
 10
1261.77154903056
 20
-551.992734302794
 30
0.0
 11
1263.24654903056
 21
-554.547509243958
 31
0.0
  0
LINE
  5
C9A
330
22
100
AcDbEntity
  8
AM_0 ( Kontur 0.5 )
100
AcDbLine
 10
1263.24654903056
 20
-549.4379593616297
 30
0.0
 11
1261.77154903056
 21
-551.992734302794
 31
0.0
  0
LINE
  5
C9B
330
22
100
AcDbEntity
  8
AM_7 (Mittellinie)
  6
AM_ISO08W050x2
100
AcDbLine
 10
1268.72154903056
 20
-558.920937533069
 30
0.0
 11
1260.72154903056
 21
-545.0645310725177
 31
0.0
  0
ARC
  5
C9C
330
22
100
AcDbEntity
  8
AM_3 ( Verdeckt )
  6
AM_ISO02W050x2
100
AcDbCircle
 10
1264.72154903056
 20
-551.992734302794
 30
0.0
 40
5.0
100
AcDbArc
 50
168.73644206087
 51
71.2635579391432
  0
LINE
  5
C9D
330
22
100
AcDbEntity
  8
AM_7 (Mittellinie)
  6
AM_ISO08W050x2
100
AcDbLine
 10
1268.72154903056
 20
-599.624132330341
 30
0.0
 11
1260.72154903056
 21
-613.4805387908921
 31
0.0
  0
LINE
  5
C9E
330
22
100
AcDbEntity
  8
AM_7 (Mittellinie)
  6
AM_ISO08W050x2
100
AcDbLine
 10
1257.79334580029
 20
-602.552335560616
 30
0.0
 11
1271.64975226084
 21
-610.552335560616
 31
0.0
  0
LINE
  5
C9F
330
22
100
AcDbEntity
  8
AM_0 ( Kontur 0.5 )
100
AcDbLine
 10
1261.77154903056
 20
-606.552335560616
 30
0.0
 11
1263.24654903056
 21
-609.1071105017809
 31
0.0
  0
LINE
  5
CA0
330
22
100
AcDbEntity
  8
AM_0 ( Kontur 0.5 )
100
AcDbLine
 10
1263.24654903056
 20
-603.997560619453
 30
0.0
 11
1261.77154903056
 21
-606.552335560616
 31
0.0
  0
LINE
  5
CA1
330
22
100
AcDbEntity
  8
AM_0 ( Kontur 0.5 )
100
AcDbLine
 10
1266.19654903056
 20
-603.9975606194517
 30
0.0
 11
1263.24654903056
 21
-603.997560619453
 31
0.0
  0
LINE
  5
CA2
330
22
100
AcDbEntity
  8
AM_0 ( Kontur 0.5 )
100
AcDbLine
 10
1267.67154903056
 20
-606.5523355606169
 30
0.0
 11
1266.19654903056
 21
-603.9975606194517
 31
0.0
  0
LINE
  5
CA3
330
22
100
AcDbEntity
  8
AM_0 ( Kontur 0.5 )
100
AcDbLine
 10
1266.19654903056
 20
-609.1071105017809
 30
0.0
 11
1267.67154903056
 21
-606.5523355606169
 31
0.0
  0
LINE
  5
CA4
330
22
100
AcDbEntity
  8
AM_0 ( Kontur 0.5 )
100
AcDbLine
 10
1263.24654903056
 20
-609.1071105017809
 30
0.0
 11
1266.19654903056
 21
-609.1071105017809
 31
0.0
  0
ARC
  5
CA5
330
22
100
AcDbEntity
  8
AM_0 ( Kontur 0.5 )
100
AcDbCircle
 10
1264.72154903056
 20
-551.992734302794
 30
0.0
 40
5.0
100
AcDbArc
 50
71.26355793916359
 51
168.73644206087
  0
ARC
  5
CA6
330
22
100
AcDbEntity
  8
AM_3 ( Verdeckt )
  6
AM_ISO02W050x2
100
AcDbCircle
 10
1264.72154903056
 20
-606.552335560616
 30
0.0
 40
5.0
100
AcDbArc
 50
288.7364420608698
 51
191.2635579391439
  0
ARC
  5
CA7
330
22
100
AcDbEntity
  8
AM_0 ( Kontur 0.5 )
100
AcDbCircle
 10
1311.97154974019
 20
-579.2725349317047
 30
0.0
 40
5.0
100
AcDbArc
 50
0.0
 51
48.73644206086998
  0
LINE
  5
CA8
330
22
100
AcDbEntity
  8
AM_0 ( Kontur 0.5 )
100
AcDbLine
 10
1314.92154974019
 20
-579.2725349317047
 30
0.0
 11
1313.44654974019
 21
-576.717759990541
 31
0.0
  0
LINE
  5
CA9
330
22
100
AcDbEntity
  8
AM_0 ( Kontur 0.5 )
100
AcDbLine
 10
1313.44654974019
 20
-576.717759990541
 30
0.0
 11
1310.49654974019
 21
-576.717759990541
 31
0.0
  0
LINE
  5
CAA
330
22
100
AcDbEntity
  8
AM_0 ( Kontur 0.5 )
100
AcDbLine
 10
1310.49654974019
 20
-576.717759990541
 30
0.0
 11
1309.02154974019
 21
-579.2725349317047
 31
0.0
  0
LINE
  5
CAB
330
22
100
AcDbEntity
  8
AM_0 ( Kontur 0.5 )
100
AcDbLine
 10
1309.02154974019
 20
-579.2725349317047
 30
0.0
 11
1310.49654974019
 21
-581.827309872869
 31
0.0
  0
LINE
  5
CAC
330
22
100
AcDbEntity
  8
AM_0 ( Kontur 0.5 )
100
AcDbLine
 10
1310.49654974019
 20
-581.827309872869
 30
0.0
 11
1313.44654974019
 21
-581.827309872869
 31
0.0
  0
LINE
  5
CAD
330
22
100
AcDbEntity
  8
AM_0 ( Kontur 0.5 )
100
AcDbLine
 10
1313.44654974019
 20
-581.827309872869
 30
0.0
 11
1314.92154974019
 21
-579.2725349317047
 31
0.0
  0
LINE
  5
CAE
330
22
100
AcDbEntity
  8
AM_7 (Mittellinie)
  6
AM_ISO08W050x2
100
AcDbLine
 10
1311.97154974019
 20
-587.2725349317049
 30
0.0
 11
1311.97154974019
 21
-571.2725349317047
 31
0.0
  0
LINE
  5
CAF
330
22
100
AcDbEntity
  8
AM_0 ( Kontur 0.5 )
100
AcDbLine
 10
1303.97154974019
 20
-579.2725349317047
 30
0.0
 11
1319.97154974019
 21
-579.2725349317047
 31
0.0
  0
ARC
  5
CB0
330
22
100
AcDbEntity
  8
AM_3 ( Verdeckt )
  6
AM_ISO02W050x2
100
AcDbCircle
 10
1311.97154974019
 20
-579.2725349317047
 30
0.0
 40
5.0
100
AcDbArc
 50
48.73644206086998
 51
311.263557939144
  0
ARC
  5
CB1
330
22
100
AcDbEntity
  8
AM_0 ( Kontur 0.5 )
100
AcDbCircle
 10
1311.97154974019
 20
-579.2725349317047
 30
0.0
 40
5.0
100
AcDbArc
 50
311.2635579391435
 51
0.0000000000002036
  0
CIRCLE
  5
CB2
330
22
100
AcDbEntity
  8
AM_7 (Mittellinie)
  6
AM_ISO08W050x2
100
AcDbCircle
 10
1280.4715492671
 20
-579.2725349317047
 30
0.0
 40
31.5000004730826
  0
CIRCLE
  5
CB3
330
22
100
AcDbEntity
  8
AM_0 ( Kontur 0.5 )
100
AcDbCircle
 10
1280.4715492671
 20
-579.2725349317047
 30
0.0
 40
39.0000005857213
  0
ARC
  5
CB4
330
22
100
AcDbEntity
  8
AM_0 ( Kontur 0.5 )
100
AcDbCircle
 10
1264.72154903056
 20
-606.552335560616
 30
0.0
 40
5.0
100
AcDbArc
 50
191.263557939166
 51
288.73644206087
  0
LINE
  5
CB5
330
22
100
AcDbEntity
  8
AM_7 (Mittellinie)
  6
AM_ISO08W050x2
100
AcDbLine
 10
1280.4715492671
 20
-617.307140419338
 30
0.0
 11
1280.4715492671
 21
-541.993954491891
 31
0.0
  0
LINE
  5
CB6
330
22
100
AcDbEntity
  8
AM_0 ( Kontur 0.5 )
100
AcDbLine
 10
1265.75596310923
 20
-596.7606778203047
 30
0.0
 11
1267.90744765197
 21
-593.034197280582
 31
0.0
  0
LINE
  5
CB7
330
22
100
AcDbEntity
  8
AM_0 ( Kontur 0.5 )
100
AcDbLine
 10
1274.83565088224
 20
-597.034197280582
 30
0.0
 11
1267.90744765197
 21
-593.034197280582
 31
0.0
  0
LINE
  5
CB8
330
22
100
AcDbEntity
  8
AM_0 ( Kontur 0.5 )
100
AcDbLine
 10
1272.6841663395
 20
-600.760677820306
 30
0.0
 11
1274.83565088224
 21
-597.034197280582
 31
0.0
  0
LINE
  5
CB9
330
22
100
AcDbEntity
  8
AM_0 ( Kontur 0.5 )
100
AcDbLine
 10
1288.2589321947
 20
-600.7606778203047
 30
0.0
 11
1286.10744765197
 21
-597.034197280582
 31
0.0
  0
LINE
  5
CBA
330
22
100
AcDbEntity
  8
AM_0 ( Kontur 0.5 )
100
AcDbLine
 10
1293.03565088224
 20
-593.034197280582
 30
0.0
 11
1286.10744765197
 21
-597.034197280582
 31
0.0
  0
LINE
  5
CBB
330
22
100
AcDbEntity
  8
AM_0 ( Kontur 0.5 )
100
AcDbLine
 10
1295.18713542498
 20
-596.760677820306
 30
0.0
 11
1293.03565088224
 21
-593.034197280582
 31
0.0
  0
LINE
  5
CBC
330
22
100
AcDbEntity
  8
AM_0 ( Kontur 0.5 )
100
AcDbLine
 10
1302.97451835258
 20
-583.2725349317049
 30
0.0
 11
1298.6715492671
 21
-583.2725349317049
 31
0.0
  0
LINE
  5
CBD
330
22
100
AcDbEntity
  8
AM_0 ( Kontur 0.5 )
100
AcDbLine
 10
1298.6715492671
 20
-575.2725349317047
 30
0.0
 11
1298.6715492671
 21
-583.2725349317049
 31
0.0
  0
LINE
  5
CBE
330
22
100
AcDbEntity
  8
AM_0 ( Kontur 0.5 )
100
AcDbLine
 10
1302.97451835258
 20
-575.2725349317047
 30
0.0
 11
1298.6715492671
 21
-575.2725349317047
 31
0.0
  0
LINE
  5
CBF
330
22
100
AcDbEntity
  8
AM_0 ( Kontur 0.5 )
100
AcDbLine
 10
1295.18713542498
 20
-561.7843920431059
 30
0.0
 11
1293.03565088224
 21
-565.510872582828
 31
0.0
  0
LINE
  5
CC0
330
22
100
AcDbEntity
  8
AM_0 ( Kontur 0.5 )
100
AcDbLine
 10
1286.10744765197
 20
-561.510872582828
 30
0.0
 11
1293.03565088224
 21
-565.510872582828
 31
0.0
  0
LINE
  5
CC1
330
22
100
AcDbEntity
  8
AM_0 ( Kontur 0.5 )
100
AcDbLine
 10
1288.2589321947
 20
-557.7843920431047
 30
0.0
 11
1286.10744765197
 21
-561.510872582828
 31
0.0
  0
LINE
  5
CC2
330
22
100
AcDbEntity
  8
AM_7 (Mittellinie)
  6
AM_ISO08W050x2
100
AcDbLine
 10
1241.35805397789
 20
-579.2725349317047
 30
0.0
 11
1317.67675640637
 21
-579.2725349317047
 31
0.0
  0
CIRCLE
  5
CC3
330
22
100
AcDbEntity
  8
AM_0 ( Kontur 0.5 )
100
AcDbCircle
 10
1280.4715492671
 20
-579.2725349317047
 30
0.0
 40
29.5000000000001
  0
CIRCLE
  5
CC4
330
22
100
AcDbEntity
  8
AM_0 ( Kontur 0.5 )
100
AcDbCircle
 10
1280.4715492671
 20
-579.2725349317047
 30
0.0
 40
24.5
  0
LINE
  5
CC5
330
22
100
AcDbEntity
  8
AM_0 ( Kontur 0.5 )
100
AcDbLine
 10
1257.96858018163
 20
-575.2725349317047
 30
0.0
 11
1262.2715492671
 21
-575.2725349317047
 31
0.0
  0
LINE
  5
CC6
330
22
100
AcDbEntity
  8
AM_0 ( Kontur 0.5 )
100
AcDbLine
 10
1262.2715492671
 20
-583.2725349317049
 30
0.0
 11
1262.2715492671
 21
-575.2725349317047
 31
0.0
  0
ARC
  5
CC7
330
22
100
AcDbEntity
  8
AM_0 ( Kontur 0.5 )
100
AcDbCircle
 10
1280.4715492671
 20
-579.2725349317047
 30
0.0
 40
21.0
100
AcDbArc
 50
130.980575427612
 51
169.019424572388
  0
CIRCLE
  5
CC8
330
22
100
AcDbEntity
  8
AM_0 ( Kontur 0.5 )
100
AcDbCircle
 10
1280.4715492671
 20
-579.2725349317047
 30
0.0
 40
4.99999999999999
  0
CIRCLE
  5
CC9
330
22
100
AcDbEntity
  8
AM_0 ( Kontur 0.5 )
100
AcDbCircle
 10
1280.4715492671
 20
-579.2725349317047
 30
0.0
 40
6.99999999999999
  0
CIRCLE
  5
CCA
330
22
100
AcDbEntity
  8
AM_0 ( Kontur 0.5 )
100
AcDbCircle
 10
1280.4715492671
 20
-579.2725349317047
 30
0.0
 40
34.9999999999999
  0
LINE
  5
CCB
330
22
100
AcDbEntity
  8
AM_0 ( Kontur 0.5 )
100
AcDbLine
 10
1272.6841663395
 20
-557.7843920431047
 30
0.0
 11
1274.83565088224
 21
-561.510872582828
 31
0.0
  0
LINE
  5
CCC
330
22
100
AcDbEntity
  8
AM_0 ( Kontur 0.5 )
100
AcDbLine
 10
1267.90744765197
 20
-565.510872582828
 30
0.0
 11
1274.83565088224
 21
-561.510872582828
 31
0.0
  0
LINE
  5
CCD
330
22
100
AcDbEntity
  8
AM_0 ( Kontur 0.5 )
100
AcDbLine
 10
1265.75596310923
 20
-561.7843920431047
 30
0.0
 11
1267.90744765197
 21
-565.510872582828
 31
0.0
  0
ARC
  5
CCE
330
22
100
AcDbEntity
  8
AM_0 ( Kontur 0.5 )
100
AcDbCircle
 10
1280.4715492671
 20
-579.2725349317047
 30
0.0
 40
21.0
100
AcDbArc
 50
70.98057542761191
 51
109.019424572388
  0
ARC
  5
CCF
330
22
100
AcDbEntity
  8
AM_0 ( Kontur 0.5 )
100
AcDbCircle
 10
1280.4715492671
 20
-579.2725349317047
 30
0.0
 40
21.0
100
AcDbArc
 50
10.9805754276121
 51
49.01942457238781
  0
ARC
  5
CD0
330
22
100
AcDbEntity
  8
AM_0 ( Kontur 0.5 )
100
AcDbCircle
 10
1280.4715492671
 20
-579.2725349317047
 30
0.0
 40
21.0
100
AcDbArc
 50
310.980575427612
 51
349.019424572388
  0
ARC
  5
CD1
330
22
100
AcDbEntity
  8
AM_0 ( Kontur 0.5 )
100
AcDbCircle
 10
1280.4715492671
 20
-579.2725349317047
 30
0.0
 40
21.0
100
AcDbArc
 50
250.980575427612
 51
289.019424572388
  0
ARC
  5
CD2
330
22
100
AcDbEntity
  8
AM_0 ( Kontur 0.5 )
100
AcDbCircle
 10
1280.4715492671
 20
-579.2725349317047
 30
0.0
 40
21.0
100
AcDbArc
 50
190.980575427612
 51
229.019424572388
  0
CIRCLE
  5
CD3
330
22
100
AcDbEntity
  8
AM_0 ( Kontur 0.5 )
100
AcDbCircle
 10
1280.4715492671
 20
-579.2725349317047
 30
0.0
 40
22.855713020205
  0
LINE
  5
CD4
330
22
100
AcDbEntity
  8
AM_7 (Mittellinie)
  6
AM_ISO08W050x2
100
AcDbLine
 10
1271.64975226084
 20
-547.992734302794
 30
0.0
 11
1257.79334580029
 21
-555.992734302794
 31
0.0
  0
LINE
  5
CD5
330
22
100
AcDbEntity
  8
AM_0 ( Kontur 0.5 )
100
AcDbLine
 10
1257.96858018162
 20
-583.2725349317049
 30
0.0
 11
1262.2715492671
 21
-583.2725349317049
 31
0.0
  0
LINE
  5
CD6
330
22
100
AcDbEntity
  8
AM_0 ( Kontur 0.5 )
100
AcDbLine
 10
1266.19654903056
 20
-549.4379593616297
 30
0.0
 11
1263.24654903056
 21
-549.4379593616297
 31
0.0
  0
DIMENSION
  5
CFD
102
{ACAD_XDICTIONARY
360
D0C
102
}
102
{ACAD_REACTORS
330
D0D
102
}
330
22
100
AcDbEntity
  8
AM_5 ( Bemassung)
100
AcDbDimension
  2
*D51
 10
1250.4715492671
 20
-194.951615708254
 30
0.0
 11
1277.578445859318
 21
-194.951615708254
 31
0.0
 70
   160
  1
%%c <>
 71
     5
 42
60.0000000005598
  3
AM_DIN$0
100
AcDbAlignedDimension
 13
1310.47154926766
 23
-269.924646769798
 33
0.0
 14
1250.4715492671
 24
-269.924646769798
 34
0.0
100
AcDbRotatedDimension
1001
ACAD
1000
DSTYLE
1002
{
1070
    44
1040
0.1
1070
   271
1070
     0
1070
    74
1070
     1
1070
   147
1040
0.1
1070
   140
1040
0.5
1070
    41
1040
0.5
1070
    40
1040
20.0
1002
}
1001
ACAD_DSTYLE_DIMINSPECT
1070
   396
1000
100%
1070
   395
1000

1070
   394
1070
    33
1070
   393
1070
     0
  0
DIMENSION
  5
DB5
102
{ACAD_XDICTIONARY
360
DC4
102
}
102
{ACAD_REACTORS
330
DC5
102
}
330
22
100
AcDbEntity
  8
AM_5 ( Bemassung)
100
AcDbDimension
  2
*D52
 10
1297.07154951641
 20
-486.0189037163896
 30
0.0
 11
1280.519458944536
 21
-486.0189037163896
 31
0.0
 70
   160
  1
G1"\P
 71
     5
 42
33.20000049861005
  3
AM_DIN$0
100
AcDbAlignedDimension
 13
1263.8715490178
 23
-459.5831100204248
 33
0.0
 14
1297.07154951641
 24
-460.083110027934
 34
0.0
 50
0.0000000000001132
100
AcDbRotatedDimension
1001
ACAD
1000
DSTYLE
1002
{
1070
    40
1040
20.0
1070
    41
1040
0.5
1070
    44
1040
0.1
1070
    74
1070
     1
1070
   140
1040
0.5
1070
   147
1040
0.1
1070
   271
1070
     0
1002
}
1001
ACAD_DSTYLE_DIMINSPECT
1070
   396
1000
100%
1070
   395
1000

1070
   394
1070
    33
1070
   393
1070
     0
  0
DIMENSION
  5
E4C
102
{ACAD_XDICTIONARY
360
E5D
102
}
102
{ACAD_REACTORS
330
E5E
102
}
330
22
100
AcDbEntity
  8
AM_5 ( Bemassung)
100
AcDbDimension
  2
*D55
 10
1280.4715492671
 20
-463.6465769827069
 30
0.0
 11
1286.122394890821
 21
-233.64388313879
 31
0.0
 70
   162
 71
     5
 42
0.0872664625997413
  3
AM_DIN$2
100
AcDb2LineAngularDimension
 13
1280.4715492671
 23
-446.8485309811796
 33
0.0
 14
1295.02661471215
 24
-280.483371674192
 34
0.0
 15
1280.4715492671
 25
-262.956907859518
 35
0.0
 16
1292.872650503929
 26
-233.9298455494533
 36
0.0
1001
ACAD_DSTYLE_DIMINSPECT
1070
   396
1000
100%
1070
   395
1000

1070
   394
1070
    33
1070
   393
1070
     0
1001
ACAD
1000
DSTYLE
1002
{
1070
    40
1040
20.0
1070
    41
1040
0.3
1070
    44
1040
0.1
1070
    74
1070
     1
1070
   140
1040
0.5
1070
   147
1040
0.1
1070
   271
1070
     0
1002
}
  0
DIMENSION
  5
E88
102
{ACAD_XDICTIONARY
360
E99
102
}
102
{ACAD_REACTORS
330
E9A
102
}
330
22
100
AcDbEntity
  8
AM_5 ( Bemassung)
100
AcDbDimension
  2
*D56
 10
1266.14680458928
 20
-283.115950089977
 30
0.0
 11
1271.425702326329
 21
-247.5994192192104
 31
0.0
 70
   162
 71
     5
 42
0.0872664625997064
  3
AM_DIN$2
100
AcDb2LineAngularDimension
 13
1280.4715492671
 23
-262.956907859518
 33
0.0
 14
1280.4715492671
 24
-463.6465769827069
 34
0.0
 15
1280.4715492671
 25
-446.8485309811796
 35
0.0
 16
1274.670475730081
 26
-247.4785647610198
 36
0.0
1001
ACAD_DSTYLE_DIMINSPECT
1070
   396
1000
100%
1070
   395
1000

1070
   394
1070
    33
1070
   393
1070
     0
1001
ACAD
1000
DSTYLE
1002
{
1070
    40
1040
20.0
1070
    41
1040
0.3
1070
    44
1040
0.1
1070
    74
1070
     1
1070
   140
1040
0.5
1070
   147
1040
0.1
1070
   271
1070
     0
1002
}
  0
ARC
  5
102F
330
22
100
AcDbEntity
  8
AM_0 ( Kontur 0.5 )
100
AcDbCircle
 10
1243.47154868138
 20
-438.9246492778869
 30
0.0
 40
2.0
100
AcDbArc
 50
90.0
 51
180.0
1001
GENIUS_GENODEF_13
1002
{
1000
HIER
1070
     0
1002
}
1002
{
1000
MANEDIT
1070
     0
1002
}
1002
{
1000
NOSEL
1070
     0
1002
}
1002
{
1000
BEHIND
1070
     0
1002
}
1002
{
1000
OTHER
1070
     0
1002
}
1002
{
1000
REACTOR
1002
}
1001
GENIUS_GENOBJ-N-FIL_13
1002
{
1000
OWNER
1000
GEN
1002
}
  0
ARC
  5
1031
330
22
100
AcDbEntity
  8
AM_0 ( Kontur 0.5 )
100
AcDbCircle
 10
1317.47154985282
 20
-438.9246492778869
 30
0.0
 40
2.0
100
AcDbArc
 50
0.0
 51
90.0
1001
GENIUS_GENODEF_13
1002
{
1000
HIER
1070
     0
1002
}
1002
{
1000
MANEDIT
1070
     0
1002
}
1002
{
1000
NOSEL
1070
     0
1002
}
1002
{
1000
BEHIND
1070
     0
1002
}
1002
{
1000
OTHER
1070
     0
1002
}
1002
{
1000
REACTOR
1002
}
1001
GENIUS_GENOBJ-N-FIL_13
1002
{
1000
OWNER
1000
GEN
1002
}
  0
ARC
  5
1032
330
22
100
AcDbEntity
  8
AM_0 ( Kontur 0.5 )
100
AcDbCircle
 10
1257.51654895239
 20
-416.1514924432752
 30
0.0
 40
2.0
100
AcDbArc
 50
317.729162949074
 51
0.0
1001
GENIUS_GENOBJ-N-FIL_13
1002
{
1000
OWNER
1000
GEN
1002
}
1001
GENIUS_GENODEF_13
1002
{
1000
HIER
1070
     0
1002
}
1002
{
1000
MANEDIT
1070
     0
1002
}
1002
{
1000
NOSEL
1070
     0
1002
}
1002
{
1000
BEHIND
1070
     0
1002
}
1002
{
1000
OTHER
1070
     0
1002
}
1002
{
1000
REACTOR
1002
}
  0
ARC
  5
1033
330
22
100
AcDbEntity
  8
AM_0 ( Kontur 0.5 )
100
AcDbCircle
 10
1256.97154888413
 20
-422.6978055868507
 30
0.0
 40
2.0
100
AcDbArc
 50
137.7291629490727
 51
180.0
1001
GENIUS_GENODEF_13
1002
{
1000
HIER
1070
     0
1002
}
1002
{
1000
MANEDIT
1070
     0
1002
}
1002
{
1000
NOSEL
1070
     0
1002
}
1002
{
1000
BEHIND
1070
     0
1002
}
1002
{
1000
OTHER
1070
     0
1002
}
1002
{
1000
REACTOR
1002
}
1001
GENIUS_GENOBJ-N-FIL_13
1002
{
1000
OWNER
1000
GEN
1002
}
  0
ARC
  5
1034
330
22
100
AcDbEntity
  8
AM_0 ( Kontur 0.5 )
100
AcDbCircle
 10
1303.97154965007
 20
-422.6978055868491
 30
0.0
 40
2.0
100
AcDbArc
 50
0.0
 51
42.27083705086328
1001
GENIUS_GENODEF_13
1002
{
1000
HIER
1070
     0
1002
}
1002
{
1000
MANEDIT
1070
     0
1002
}
1002
{
1000
NOSEL
1070
     0
1002
}
1002
{
1000
BEHIND
1070
     0
1002
}
1002
{
1000
OTHER
1070
     0
1002
}
1002
{
1000
REACTOR
1002
}
1001
GENIUS_GENOBJ-N-FIL_13
1002
{
1000
OWNER
1000
GEN
1002
}
  0
DIMENSION
  5
11EF
102
{ACAD_XDICTIONARY
360
11FD
102
}
102
{ACAD_REACTORS
330
11FE
102
}
330
22
100
AcDbEntity
  8
AM_5 ( Bemassung)
100
AcDbDimension
  2
*D60
 10
1245.471548741453
 20
-177.591370123368
 30
0.0
 11
1280.471549267101
 21
-177.591370123368
 31
0.0
 70
   160
  1
%%c <>
 71
     5
 42
70.00000105129697
  3
AM_DIN$0
100
AcDbAlignedDimension
 13
1315.47154979275
 23
-349.324647962266
 33
0.0
 14
1245.471548741453
 24
-354.92464804637
 34
0.0
100
AcDbRotatedDimension
1001
ACAD
1000
DSTYLE
1002
{
1070
    40
1040
20.0
1070
    41
1040
0.5
1070
    44
1040
0.1
1070
    74
1070
     1
1070
   140
1040
0.5
1070
   147
1040
0.1
1070
   271
1070
     0
1002
}
1001
ACAD_DSTYLE_DIMINSPECT
1070
   396
1000
100%
1070
   395
1000

1070
   394
1070
    33
1070
   393
1070
     0
  0
LINE
  5
1217
102
{ACAD_REACTORS
330
1244
102
}
330
22
100
AcDbEntity
  8
AM_3 ( Verdeckt )
  6
AM_ISO02W050x2
100
AcDbLine
 10
1254.4715492671
 20
-267.924646739761
 30
0.0
 11
1254.4715492671
 21
-270.3504512517716
 31
0.0
  0
LINE
  5
1218
102
{ACAD_REACTORS
330
1244
102
}
330
22
100
AcDbEntity
  8
AM_3 ( Verdeckt )
  6
AM_ISO02W050x2
100
AcDbLine
 10
1306.4715492671
 20
-267.924646739761
 30
0.0
 11
1306.4715492671
 21
-270.3504512517716
 31
0.0
  0
DIMENSION
  5
1235
102
{ACAD_XDICTIONARY
360
1243
102
}
102
{ACAD_REACTORS
330
1244
102
}
330
22
100
AcDbEntity
  8
AM_5 ( Bemassung)
100
AcDbDimension
  2
*D61
 10
1306.4715492671
 20
-213.2160408431857
 30
0.0
 11
1280.4715492671
 21
-213.2160408431857
 31
0.0
 70
   160
  1
%%c <>
 71
     5
 42
52.0
  3
AM_DIN$0
100
AcDbAlignedDimension
 13
1254.4715492671
 23
-270.3504512517716
 33
0.0
 14
1306.4715492671
 24
-270.3504512517716
 34
0.0
100
AcDbRotatedDimension
1001
ACAD
1000
DSTYLE
1002
{
1070
    40
1040
20.0
1070
    41
1040
0.5
1070
    44
1040
0.1
1070
    74
1070
     1
1070
   140
1040
0.5
1070
   147
1040
0.1
1070
   271
1070
     0
1002
}
1001
ACAD_DSTYLE_DIMINSPECT
1070
   396
1000
100%
1070
   395
1000

1070
   394
1070
    33
1070
   393
1070
     0
  0
DIMENSION
  5
12D8
102
{ACAD_XDICTIONARY
360
12E6
102
}
102
{ACAD_REACTORS
330
12E7
102
}
330
22
100
AcDbEntity
  8
AM_5 ( Bemassung)
100
AcDbDimension
  2
*D62
 10
1341.490320815219
 20
-461.083110027934
 30
0.0
 11
1334.381180296801
 21
-374.5038785340323
 31
0.0
 70
    32
 71
     5
 42
173.158462987803
  3
AM_DIN$0
100
AcDbAlignedDimension
 13
1341.990320815219
 23
-287.924647040131
 33
0.0
 14
1319.47154985282
 24
-461.083110027934
 34
0.0
 50
90.00000000000005
100
AcDbRotatedDimension
1001
ACAD_DSTYLE_DIMINSPECT
1070
   396
1000
100%
1070
   395
1000

1070
   394
1070
    33
1070
   393
1070
     0
1001
ACAD
1000
DSTYLE
1002
{
1070
    40
1040
20.0
1070
    41
1040
0.5
1070
    44
1040
0.1
1070
    74
1070
     1
1070
   140
1040
0.5
1070
   147
1040
0.1
1070
   271
1070
     0
1002
}
  0
INSERT
  5
1885
102
{ACAD_REACTORS
330
1881
102
}
330
22
100
AcDbEntity
  8
AM_12 ( Teile Referenz)
100
AcDbBlockReference
  2
*S71
 10
0.0
 20
0.0
 30
0.0
  0
INSERT
  5
1888
102
{ACAD_REACTORS
330
1881
102
}
330
22
100
AcDbEntity
  8
AM_12 ( Teile Referenz)
100
AcDbBlockReference
  2
*S72
 10
0.0
 20
0.0
 30
0.0
  0
ENDSEC
  0
SECTION
  2
OBJECTS
  0
DICTIONARY
  5
C
330
0
100
AcDbDictionary
281
     1
  3
ACAD_2007HEADERVARS_RT
350
18FD
  3
ACAD_COLOR
350
1B
  3
ACAD_GROUP
350
D
  3
ACAD_LAYOUT
350
19
  3
ACAD_MATERIAL
350
1A
  3
ACAD_MLEADERSTYLE
350
A58
  3
ACAD_MLINESTYLE
350
16
  3
ACAD_PLOTSETTINGS
350
18
  3
ACAD_PLOTSTYLENAME
350
E
  3
ACAD_SCALELIST
350
A36
  3
ACAD_TABLESTYLE
350
1C
  3
ACAD_VISUALSTYLE
350
A25
  3
ACDB_RECOMPOSE_DATA
350
115F
  3
AcDbVariableDictionary
350
98A
  3
AcmDictionary
350
AB6
  3
AMG
350
A5C
  3
AMGSNAPSETTINGS
350
BA6
  3
ASE_INDEX_DICTIONARY
350
134E
  0
DICTIONARY
  5
BB6
330
2
100
AcDbDictionary
280
     1
281
     1
  3
ACAD_LAYERSTATES
360
1039
  3
AMLAYER_GROUPCOLORS
360
BB7
  0
DICTIONARY
  5
1137
330
10
100
AcDbDictionary
280
     1
281
     1
  3
ADSK_XREC_LAYER_RECONCILED
360
1138
  0
DICTIONARY
  5
BB2
330
BB1
100
AcDbDictionary
280
     1
281
     1
  3
ADSK_XREC_LAYER_RECONCILED
360
BB3
  0
DICTIONARY
  5
114D
330
BB5
100
AcDbDictionary
280
     1
281
     1
  3
ADSK_XREC_LAYER_RECONCILED
360
114E
  0
DICTIONARY
  5
114F
330
BBA
100
AcDbDictionary
280
     1
281
     1
  3
ADSK_XREC_LAYER_RECONCILED
360
1150
  0
DICTIONARY
  5
1151
330
BBC
100
AcDbDictionary
280
     1
281
     1
  3
ADSK_XREC_LAYER_RECONCILED
360
1152
  0
DICTIONARY
  5
1153
330
CFB
100
AcDbDictionary
280
     1
281
     1
  3
ADSK_XREC_LAYER_RECONCILED
360
1154
  0
DICTIONARY
  5
C94
330
22
100
AcDbDictionary
280
     1
281
     1
  3
ACAD_SORTENTS
360
C95
  0
DICTIONARY
  5
D0C
330
CFD
100
AcDbDictionary
280
     1
281
     1
  3
ACAD_DIMASSOC
360
D0D
  0
DICTIONARY
  5
DC4
330
DB5
100
AcDbDictionary
280
     1
281
     1
  3
ACAD_DIMASSOC
360
DC5
  0
DICTIONARY
  5
E5D
330
E4C
100
AcDbDictionary
280
     1
281
     1
  3
ACAD_DIMASSOC
360
E5E
  0
DICTIONARY
  5
E99
330
E88
100
AcDbDictionary
280
     1
281
     1
  3
ACAD_DIMASSOC
360
E9A
  0
DICTIONARY
  5
11FD
330
11EF
100
AcDbDictionary
280
     1
281
     1
  3
ACAD_DIMASSOC
360
11FE
  0
DICTIONARY
  5
1243
330
1235
100
AcDbDictionary
280
     1
281
     1
  3
ACAD_DIMASSOC
360
1244
  0
DICTIONARY
  5
12E6
330
12D8
100
AcDbDictionary
280
     1
281
     1
  3
ACAD_DIMASSOC
360
12E7
  0
DICTIONARY
  5
18FD
102
{ACAD_REACTORS
330
C
102
}
330
C
100
AcDbDictionary
281
     1
  3
DIMJOGANG
350
18FE
  0
DICTIONARY
  5
1B
102
{ACAD_REACTORS
330
C
102
}
330
C
100
AcDbDictionary
281
     1
  0
DICTIONARY
  5
D
102
{ACAD_REACTORS
330
C
102
}
330
C
100
AcDbDictionary
281
     1
  0
DICTIONARY
  5
19
102
{ACAD_REACTORS
330
C
102
}
330
C
100
AcDbDictionary
281
     1
  3
Layout1
350
21
  3
Model
350
25
  0
DICTIONARY
  5
1A
102
{ACAD_REACTORS
330
C
102
}
330
C
100
AcDbDictionary
281
     1
  3
ByBlock
350
A15
  3
ByLayer
350
A0D
  3
Global
350
A1D
  0
DICTIONARY
  5
A58
102
{ACAD_REACTORS
330
C
102
}
330
C
100
AcDbDictionary
281
     1
  3
Standard
350
A59
  0
DICTIONARY
  5
16
102
{ACAD_REACTORS
330
C
102
}
330
C
100
AcDbDictionary
281
     1
  3
Standard
350
17
  0
DICTIONARY
  5
18
102
{ACAD_REACTORS
330
C
102
}
330
C
100
AcDbDictionary
281
     1
  0
ACDBDICTIONARYWDFLT
  5
E
102
{ACAD_REACTORS
330
C
102
}
330
C
100
AcDbDictionary
281
     1
  3
Normal
350
F
100
AcDbDictionaryWithDefault
340
F
  0
DICTIONARY
  5
A36
102
{ACAD_REACTORS
330
C
102
}
330
C
100
AcDbDictionary
281
     1
  3
*A1
350
1038
  3
A0
350
A37
  3
A1
350
A38
  3
A2
350
A39
  3
A3
350
A3A
  3
A4
350
A3B
  3
A5
350
A3C
  3
A6
350
A3D
  3
A7
350
A3E
  3
A8
350
A3F
  3
A9
350
A40
  3
B0
350
A41
  3
B1
350
A42
  3
B2
350
A43
  3
B3
350
A44
  3
B4
350
A45
  3
B5
350
A46
  3
B6
350
A47
  3
B7
350
A48
  3
B8
350
A49
  3
B9
350
A4A
  3
C0
350
A4B
  3
C1
350
A4C
  3
C2
350
A4D
  3
C3
350
A4E
  3
C4
350
A4F
  3
C5
350
A50
  3
C6
350
A51
  3
C7
350
A52
  3
C8
350
A53
  3
C9
350
A54
  3
D0
350
A55
  3
D1
350
A56
  3
D2
350
A57
  0
DICTIONARY
  5
1C
102
{ACAD_REACTORS
330
C
102
}
330
C
100
AcDbDictionary
281
     1
  3
Standard
350
1D
  0
DICTIONARY
  5
A25
102
{ACAD_REACTORS
330
C
102
}
330
C
100
AcDbDictionary
281
     1
  3
2dWireframe
350
A2B
  3
3D Hidden
350
A2D
  3
3dWireframe
350
A2C
  3
Basic
350
A2A
  3
Brighten
350
A31
  3
ColorChange
350
A35
  3
Conceptual
350
A2E
  3
Dim
350
A30
  3
Facepattern
350
A34
  3
Flat
350
A26
  3
FlatWithEdges
350
A27
  3
Gouraud
350
A28
  3
GouraudWithEdges
350
A29
  3
Linepattern
350
A33
  3
Realistic
350
A2F
  3
Thicken
350
A32
  0
XRECORD
  5
115F
102
{ACAD_REACTORS
330
C
102
}
330
C
100
AcDbXrecord
280
     1
 90
        1
330
1D
  0
DICTIONARY
  5
98A
102
{ACAD_REACTORS
330
C
102
}
330
C
100
AcDbDictionary
281
     1
  3
CANNOSCALE
350
115C
  3
CMLEADERSTYLE
350
115B
  3
CTABLESTYLE
350
98B
  3
DIMASSOC
350
98C
  3
PROJECTNAME
350
98D
  0
DICTIONARY
  5
AB6
102
{ACAD_REACTORS
330
C
102
}
330
C
100
AcDbDictionary
281
     1
  3
AcmStdDictionary
350
AC1
  3
AMDTSECTSYM_ARROWCOLOR
350
AD6
  0
DICTIONARY
  5
A5C
102
{ACAD_REACTORS
330
C
102
}
330
C
100
AcDbDictionary
281
     1
  0
DICTIONARY
  5
BA6
102
{ACAD_REACTORS
330
C
102
}
330
C
100
AcDbDictionary
281
     1
  0
DICTIONARY
  5
134E
102
{ACAD_REACTORS
330
C
102
}
330
C
100
AcDbDictionary
281
     1
  3
ASEBlockHierarchyIndexRecord
350
134F
1001
DCO15
1040
1631417658.531
  0
DICTIONARY
  5
1039
102
{ACAD_REACTORS
330
BB6
102
}
330
BB6
100
AcDbDictionary
281
     1
  0
DICTIONARY
  5
BB7
102
{ACAD_REACTORS
330
BB6
102
}
330
BB6
100
AcDbDictionary
280
     1
281
     1
  0
XRECORD
  5
1138
102
{ACAD_REACTORS
330
1137
102
}
330
1137
100
AcDbXrecord
280
     1
290
     1
  0
XRECORD
  5
BB3
102
{ACAD_REACTORS
330
BB2
102
}
330
BB2
100
AcDbXrecord
280
     1
290
     1
  0
XRECORD
  5
114E
102
{ACAD_REACTORS
330
114D
102
}
330
114D
100
AcDbXrecord
280
     1
290
     1
  0
XRECORD
  5
1150
102
{ACAD_REACTORS
330
114F
102
}
330
114F
100
AcDbXrecord
280
     1
290
     1
  0
XRECORD
  5
1152
102
{ACAD_REACTORS
330
1151
102
}
330
1151
100
AcDbXrecord
280
     1
290
     1
  0
XRECORD
  5
1154
102
{ACAD_REACTORS
330
1153
102
}
330
1153
100
AcDbXrecord
280
     1
290
     1
  0
SORTENTSTABLE
  5
C95
102
{ACAD_REACTORS
330
C94
102
}
330
C94
100
AcDbSortentsTable
330
22
331
E4C
  5
1033
331
CAD
  5
BF5
331
C3F
  5
C81
331
C7E
  5
CC2
331
BE9
  5
C26
331
C18
  5
C5A
331
CB5
  5
BFD
331
C20
  5
C62
331
C47
  5
C89
331
BF1
  5
C31
331
C86
  5
CCA
331
CBD
  5
C05
331
BF9
  5
C3B
331
C4F
  5
C91
331
C57
  5
C9B
331
CC5
  5
C0D
331
715
  5
715
331
DB5
  5
1032
331
C28
  5
C6A
331
1034
  5
C2A
331
C5F
  5
CA3
331
C8E
  5
CD2
331
C01
  5
C43
331
C30
  5
C72
331
CCD
  5
C15
331
CD5
  5
C1D
331
C67
  5
CAB
331
C09
  5
C4B
331
C9E
  5
BE6
331
CA6
  5
BEE
331
C11
  5
C53
331
C6F
  5
CB3
331
C77
  5
CBB
331
C38
  5
C7A
331
BE2
  5
C1F
331
C7F
  5
CC3
331
CAE
  5
BF6
331
BEA
  5
C27
331
C19
  5
C5B
331
C40
  5
C82
331
C48
  5
C8A
331
C87
  5
CCB
331
BF2
  5
C33
331
C21
  5
C63
331
CB6
  5
BFE
331
CBE
  5
C06
331
C50
  5
C92
331
BFA
  5
C3C
331
CC6
  5
C0E
331
C29
  5
C6B
331
C58
  5
C9C
331
C8F
  5
CFD
331
CCE
  5
C16
331
C02
  5
C44
331
C31
  5
C73
331
C60
  5
CA4
331
C68
  5
CAC
331
C0A
  5
C4C
331
C9F
  5
BE7
331
CD6
  5
C1E
331
C70
  5
CB4
331
C12
  5
C54
331
CA7
  5
BEF
331
C39
  5
C7B
331
BE3
  5
C20
331
C78
  5
CBC
331
CAF
  5
BF7
331
C1A
  5
C5C
331
C41
  5
C83
331
BEB
  5
C28
331
C80
  5
CC4
331
CB7
  5
BFF
331
C22
  5
C64
331
C49
  5
C8B
331
BF3
  5
C34
331
CBF
  5
C07
331
BFB
  5
C3D
331
C51
  5
C93
331
CC7
  5
C0F
331
C96
  5
BB8
331
C59
  5
C9D
331
C88
  5
CCC
331
C2A
  5
C6C
331
CCF
  5
C17
331
C61
  5
CA5
331
C98
  5
BBB
331
C03
  5
C45
331
C32
  5
C74
331
C69
  5
CAD
331
C0B
  5
C4D
331
CA0
  5
BE8
331
102F
  5
C32
331
C13
  5
C55
331
C71
  5
CB5
331
C79
  5
CBD
331
CA8
  5
BF0
331
C3A
  5
C7C
331
BE4
  5
C21
331
C81
  5
CC5
331
CB0
  5
BF8
331
BEC
  5
C29
331
C1B
  5
C5D
331
C42
  5
C84
331
C4A
  5
C8C
331
BF4
  5
C36
331
C23
  5
C65
331
CB8
  5
C00
331
CC0
  5
C08
331
C52
  5
C96
331
BFC
  5
C3E
331
C97
  5
BB9
331
CC8
  5
C10
331
C2B
  5
C6D
331
C5A
  5
C9E
331
C89
  5
CCD
331
C99
  5
BBD
331
CD0
  5
C18
331
C04
  5
C46
331
C33
  5
C75
331
C62
  5
CA6
331
C6A
  5
CAE
331
C0C
  5
C4E
331
CA1
  5
BE9
331
C72
  5
CB6
331
C14
  5
C56
331
E88
  5
1034
331
C3B
  5
C7D
331
BE5
  5
C22
331
C7A
  5
CBE
331
CA9
  5
BF1
331
CB1
  5
BF9
331
C1C
  5
C5E
331
C43
  5
C85
331
BED
  5
C2B
331
C82
  5
CC6
331
CB9
  5
C01
331
C24
  5
C66
331
C4B
  5
C8D
331
BF5
  5
C37
331
CC1
  5
C09
331
BFD
  5
C3F
331
C53
  5
C97
331
C90
  5
DB5
331
C5B
  5
C9F
331
C8A
  5
CCE
331
C2C
  5
C6E
331
CC9
  5
C11
331
CD1
  5
C19
331
C34
  5
C76
331
C63
  5
CA7
331
C05
  5
C47
331
C9A
  5
BE2
331
C6B
  5
CAF
331
C0D
  5
C4F
331
CA2
  5
BEA
331
C15
  5
C57
331
C73
  5
CB7
331
C7B
  5
CBF
331
CAA
  5
BF2
331
BE6
  5
C23
331
C3C
  5
C7E
331
C83
  5
CC7
331
CB2
  5
BFA
331
BEE
  5
C2D
331
C1D
  5
C5F
331
C44
  5
C86
331
C4C
  5
C8E
331
BF6
  5
C38
331
C25
  5
C67
331
CBA
  5
C02
331
CC2
  5
C0A
331
C54
  5
C98
331
BFE
  5
C40
331
712
  5
712
331
C91
  5
E4C
331
1031
  5
C2C
331
C8B
  5
CCF
331
CCA
  5
C12
331
C2D
  5
C6F
331
C5C
  5
CA0
331
C9B
  5
BE3
331
CD2
  5
C1A
331
C06
  5
C48
331
C35
  5
C77
331
C64
  5
CA8
331
C6C
  5
CB0
331
C0E
  5
C50
331
CA3
  5
BEB
331
C74
  5
CB8
331
C16
  5
C58
331
C3D
  5
C7F
331
BE7
  5
C24
331
C7C
  5
CC0
331
CAB
  5
BF3
331
CB3
  5
BFB
331
C1E
  5
C60
331
C45
  5
C87
331
BEF
  5
C2F
331
C84
  5
CC8
331
CBB
  5
C03
331
BF7
  5
C39
331
C26
  5
C68
331
C4D
  5
C8F
331
CC3
  5
C0B
331
BFF
  5
C41
331
C55
  5
C99
331
C92
  5
E88
331
1032
  5
C2E
331
C5D
  5
CA1
331
C8C
  5
CD0
331
C2E
  5
C70
331
CCB
  5
C13
331
CD3
  5
C1B
331
C36
  5
C78
331
C65
  5
CA9
331
CFD
  5
1031
331
C07
  5
C49
331
C9C
  5
BE4
331
CA4
  5
BEC
331
C6D
  5
CB1
331
C0F
  5
C51
331
C17
  5
C59
331
C75
  5
CB9
331
C7D
  5
CC1
331
CAC
  5
BF4
331
BE8
  5
C25
331
C3E
  5
C80
331
C46
  5
C88
331
C85
  5
CC9
331
BF0
  5
C30
331
C1F
  5
C61
331
CB4
  5
BFC
331
C4E
  5
C90
331
BF8
  5
C3A
331
C27
  5
C69
331
CBC
  5
C04
331
CC4
  5
C0C
331
C56
  5
C9A
331
714
  5
714
331
C93
  5
102F
331
1033
  5
C35
331
C8D
  5
CD1
331
CCC
  5
C14
331
C00
  5
C42
331
C2F
  5
C71
331
C5E
  5
CA2
331
C9D
  5
BE5
331
CD4
  5
C1C
331
C08
  5
C4A
331
C37
  5
C79
331
C66
  5
CAA
331
C6E
  5
CB2
331
C10
  5
C52
331
CA5
  5
BED
331
C76
  5
CBA
  0
DIMASSOC
  5
D0D
102
{ACAD_REACTORS
330
D0C
102
}
330
D0C
100
AcDbDimAssoc
330
CFD
 90
        1
 70
     0
 71
     0
  1
AcDbOsnapPointRef
 72
    13
331
C17
 73
     0
 91
        0
 40
0.0
 10
0.0
 20
0.0
 30
2.000000000000000E+50
 75
     0
  0
DIMASSOC
  5
DC5
102
{ACAD_REACTORS
330
DC4
102
}
330
DC4
100
AcDbDimAssoc
330
DB5
 90
        3
 70
     0
 71
     0
  1
AcDbOsnapPointRef
 72
    13
331
C37
 73
     0
 91
        0
 40
0.0
 10
0.0
 20
0.0
 30
2.000000000000000E+50
 75
     0
  1
AcDbOsnapPointRef
 72
    13
331
C42
 73
     0
 91
        0
 40
0.0
 10
0.0
 20
0.0
 30
2.000000000000000E+50
 75
     0
  0
DIMASSOC
  5
E5E
102
{ACAD_REACTORS
330
E5D
102
}
330
E5D
100
AcDbDimAssoc
330
E4C
 90
       15
 70
     0
 71
     0
  1
AcDbOsnapPointRef
 72
    13
331
C91
 73
     2
 91
        0
 40
0.0
 10
0.0
 20
0.0
 30
2.000000000000000E+50
 75
     0
  1
AcDbOsnapPointRef
 72
     1
331
C91
 73
     2
 91
        0
 40
0.0
 10
0.0
 20
0.0
 30
2.000000000000000E+50
 75
     0
  1
AcDbOsnapPointRef
 72
    13
331
C83
 73
     2
 91
        0
 40
0.0
 10
0.0
 20
0.0
 30
2.000000000000000E+50
 75
     0
  1
AcDbOsnapPointRef
 72
     1
331
C83
 73
     2
 91
        0
 40
0.0
 10
0.0
 20
0.0
 30
2.000000000000000E+50
 75
     0
  0
DIMASSOC
  5
E9A
102
{ACAD_REACTORS
330
E99
102
}
330
E99
100
AcDbDimAssoc
330
E88
 90
       15
 70
     0
 71
     0
  1
AcDbOsnapPointRef
 72
    13
331
C83
 73
     2
 91
        0
 40
0.0
 10
0.0
 20
0.0
 30
2.000000000000000E+50
 75
     0
  1
AcDbOsnapPointRef
 72
     1
331
C83
 73
     2
 91
        0
 40
0.0
 10
0.0
 20
0.0
 30
2.000000000000000E+50
 75
     0
  1
AcDbOsnapPointRef
 72
    13
331
C90
 73
     2
 91
        0
 40
0.0
 10
0.0
 20
0.0
 30
2.000000000000000E+50
 75
     0
  1
AcDbOsnapPointRef
 72
     1
331
C90
 73
     2
 91
        0
 40
0.0
 10
0.0
 20
0.0
 30
2.000000000000000E+50
 75
     0
  0
DIMASSOC
  5
11FE
102
{ACAD_REACTORS
330
11FD
102
}
330
11FD
100
AcDbDimAssoc
330
11EF
 90
        3
 70
     0
 71
     0
  1
AcDbOsnapPointRef
 72
    13
331
C14
 73
     0
 91
        0
 40
0.0
 10
0.0
 20
0.0
 30
2.000000000000000E+50
 75
     0
  1
AcDbOsnapPointRef
 72
     1
331
BFB
 73
     0
 91
        0
 40
0.0
 10
0.0
 20
0.0
 30
2.000000000000000E+50
 75
     0
  0
DIMASSOC
  5
1244
102
{ACAD_REACTORS
330
1243
102
}
330
1243
100
AcDbDimAssoc
330
1235
 90
        3
 70
     0
 71
     0
  1
AcDbOsnapPointRef
 72
     1
331
1217
 73
     0
 91
        0
 40
0.0
 10
0.0
 20
0.0
 30
2.000000000000000E+50
 75
     0
  1
AcDbOsnapPointRef
 72
     1
331
1218
 73
     0
 91
        0
 40
0.0
 10
0.0
 20
0.0
 30
2.000000000000000E+50
 75
     0
  0
DIMASSOC
  5
12E7
102
{ACAD_REACTORS
330
12E6
102
}
330
12E6
100
AcDbDimAssoc
330
12D8
 90
        2
 70
     0
 71
     0
  1
AcDbOsnapPointRef
 72
     1
331
C28
 73
     0
 91
        0
 40
0.0
 10
0.0
 20
0.0
 30
2.000000000000000E+50
 75
     0
  0
XRECORD
  5
18FE
102
{ACAD_REACTORS
330
18FD
102
}
330
18FD
100
AcDbXrecord
280
     1
 40
1.570796326794896
  0
LAYOUT
  5
21
102
{ACAD_REACTORS
330
19
102
}
330
19
100
AcDbPlotSettings
  1

  2
\\OASE42\HP DesignJet 500 42+HPGL2 Card
  4

  6

 40
0.0
 41
0.0
 42
0.0
 43
0.0
 44
0.0
 45
0.0
 46
0.0
 47
0.0
 48
0.0
 49
0.0
140
0.0
141
0.0
142
1.0
143
1.0
 70
   688
 72
     0
 73
     0
 74
     5
  7
Kein
 75
    16
147
1.0
 76
     0
 77
     2
 78
   300
148
0.0
149
0.0
100
AcDbLayout
  1
Layout1
 70
     1
 71
     1
 10
0.0
 20
0.0
 11
12.0
 21
9.0
 12
0.0
 22
0.0
 32
0.0
 14
1.000000000000000E+20
 24
1.000000000000000E+20
 34
1.000000000000000E+20
 15
-1.000000000000000E+20
 25
-1.000000000000000E+20
 35
-1.000000000000000E+20
146
0.0
 13
0.0
 23
0.0
 33
0.0
 16
1.0
 26
0.0
 36
0.0
 17
0.0
 27
1.0
 37
0.0
 76
     0
330
1E
  0
LAYOUT
  5
25
102
{ACAD_REACTORS
330
19
102
}
330
19
100
AcDbPlotSettings
  1

  2
\\OASE42\HP DesignJet 500 42+HPGL2 Card
  4

  6

 40
0.0
 41
0.0
 42
0.0
 43
0.0
 44
0.0
 45
0.0
 46
0.0
 47
0.0
 48
0.0
 49
0.0
140
0.0
141
0.0
142
1.0
143
1.0
 70
  1712
 72
     0
 73
     0
 74
     0
  7
Kein
 75
     0
147
1.0
 76
     0
 77
     2
 78
   300
148
0.0
149
0.0
100
AcDbLayout
  1
Model
 70
     1
 71
     0
 10
0.0
 20
0.0
 11
12.0
 21
9.0
 12
0.0
 22
0.0
 32
0.0
 14
0.0
 24
0.0
 34
0.0
 15
0.0
 25
0.0
 35
0.0
146
0.0
 13
0.0
 23
0.0
 33
0.0
 16
1.0
 26
0.0
 36
0.0
 17
0.0
 27
1.0
 37
0.0
 76
     0
330
22
331
A05
  0
MATERIAL
  5
A15
102
{ACAD_XDICTIONARY
360
A16
102
}
102
{ACAD_REACTORS
330
1A
102
}
330
1A
100
AcDbMaterial
  1
ByBlock
 72
     0
 43
0.0208333333333333
 43
0.0
 43
0.0
 43
0.0
 43
0.0
 43
0.0208333333333333
 43
0.0
 43
0.0
 43
0.0
 43
0.0
 43
1.0
 43
0.0
 43
0.0
 43
0.0
 43
0.0
 43
1.0
 77
     0
 47
0.0208333333333333
 47
0.0
 47
0.0
 47
0.0
 47
0.0
 47
0.0208333333333333
 47
0.0
 47
0.0
 47
0.0
 47
0.0
 47
1.0
 47
0.0
 47
0.0
 47
0.0
 47
0.0
 47
1.0
171
     0
 49
0.0208333333333333
 49
0.0
 49
0.0
 49
0.0
 49
0.0
 49
0.0208333333333333
 49
0.0
 49
0.0
 49
0.0
 49
0.0
 49
1.0
 49
0.0
 49
0.0
 49
0.0
 49
0.0
 49
1.0
175
     0
142
0.0208333333333333
142
0.0
142
0.0
142
0.0
142
0.0
142
0.0208333333333333
142
0.0
142
0.0
142
0.0
142
0.0
142
1.0
142
0.0
142
0.0
142
0.0
142
0.0
142
1.0
179
     0
144
0.0208333333333333
144
0.0
144
0.0
144
0.0
144
0.0
144
0.0208333333333333
144
0.0
144
0.0
144
0.0
144
0.0
144
1.0
144
0.0
144
0.0
144
0.0
144
0.0
144
1.0
147
0.0208333333333333
147
0.0
147
0.0
147
0.0
147
0.0
147
0.0208333333333333
147
0.0
147
0.0
147
0.0
147
0.0
147
1.0
147
0.0
147
0.0
147
0.0
147
0.0
147
1.0
  0
MATERIAL
  5
A0D
102
{ACAD_XDICTIONARY
360
A0E
102
}
102
{ACAD_REACTORS
330
1A
102
}
330
1A
100
AcDbMaterial
  1
ByLayer
 72
     0
 43
0.0208333333333333
 43
0.0
 43
0.0
 43
0.0
 43
0.0
 43
0.0208333333333333
 43
0.0
 43
0.0
 43
0.0
 43
0.0
 43
1.0
 43
0.0
 43
0.0
 43
0.0
 43
0.0
 43
1.0
 77
     0
 47
0.0208333333333333
 47
0.0
 47
0.0
 47
0.0
 47
0.0
 47
0.0208333333333333
 47
0.0
 47
0.0
 47
0.0
 47
0.0
 47
1.0
 47
0.0
 47
0.0
 47
0.0
 47
0.0
 47
1.0
171
     0
 49
0.0208333333333333
 49
0.0
 49
0.0
 49
0.0
 49
0.0
 49
0.0208333333333333
 49
0.0
 49
0.0
 49
0.0
 49
0.0
 49
1.0
 49
0.0
 49
0.0
 49
0.0
 49
0.0
 49
1.0
175
     0
142
0.0208333333333333
142
0.0
142
0.0
142
0.0
142
0.0
142
0.0208333333333333
142
0.0
142
0.0
142
0.0
142
0.0
142
1.0
142
0.0
142
0.0
142
0.0
142
0.0
142
1.0
179
     0
144
0.0208333333333333
144
0.0
144
0.0
144
0.0
144
0.0
144
0.0208333333333333
144
0.0
144
0.0
144
0.0
144
0.0
144
1.0
144
0.0
144
0.0
144
0.0
144
0.0
144
1.0
147
0.0208333333333333
147
0.0
147
0.0
147
0.0
147
0.0
147
0.0208333333333333
147
0.0
147
0.0
147
0.0
147
0.0
147
1.0
147
0.0
147
0.0
147
0.0
147
0.0
147
1.0
  0
MATERIAL
  5
A1D
102
{ACAD_XDICTIONARY
360
A1E
102
}
102
{ACAD_REACTORS
330
1A
102
}
330
1A
100
AcDbMaterial
  1
Global
 72
     0
 43
0.0208333333333333
 43
0.0
 43
0.0
 43
0.0
 43
0.0
 43
0.0208333333333333
 43
0.0
 43
0.0
 43
0.0
 43
0.0
 43
1.0
 43
0.0
 43
0.0
 43
0.0
 43
0.0
 43
1.0
 77
     0
 47
0.0208333333333333
 47
0.0
 47
0.0
 47
0.0
 47
0.0
 47
0.0208333333333333
 47
0.0
 47
0.0
 47
0.0
 47
0.0
 47
1.0
 47
0.0
 47
0.0
 47
0.0
 47
0.0
 47
1.0
171
     0
 49
0.0208333333333333
 49
0.0
 49
0.0
 49
0.0
 49
0.0
 49
0.0208333333333333
 49
0.0
 49
0.0
 49
0.0
 49
0.0
 49
1.0
 49
0.0
 49
0.0
 49
0.0
 49
0.0
 49
1.0
175
     0
142
0.0208333333333333
142
0.0
142
0.0
142
0.0
142
0.0
142
0.0208333333333333
142
0.0
142
0.0
142
0.0
142
0.0
142
1.0
142
0.0
142
0.0
142
0.0
142
0.0
142
1.0
179
     0
144
0.0208333333333333
144
0.0
144
0.0
144
0.0
144
0.0
144
0.0208333333333333
144
0.0
144
0.0
144
0.0
144
0.0
144
1.0
144
0.0
144
0.0
144
0.0
144
0.0
144
1.0
147
0.0208333333333333
147
0.0
147
0.0
147
0.0
147
0.0
147
0.0208333333333333
147
0.0
147
0.0
147
0.0
147
0.0
147
1.0
147
0.0
147
0.0
147
0.0
147
0.0
147
1.0
  0
MLEADERSTYLE
  5
A59
102
{ACAD_REACTORS
330
A58
102
}
330
A58
100
AcDbMLeaderStyle
170
     2
171
     1
172
     0
 90
        2
 40
0.0
 41
0.0
173
     1
 91
-1056964608
340
13
 92
       -2
290
     1
 42
0.09
291
     1
 43
0.36
  3
Standard
 44
0.18
300

342
11
174
     1
178
     6
175
     1
176
     0
 93
-1056964608
 45
0.18
292
     0
297
     0
 46
0.18
 94
-1056964608
 47
1.0
 49
1.0
140
1.0
293
     1
141
0.0
294
     1
177
     0
142
1.0
295
     0
296
     0
143
0.125
1001
ACAD_MLEADERVER
1070
     2
  0
MLINESTYLE
  5
17
102
{ACAD_REACTORS
330
16
102
}
330
16
100
AcDbMlineStyle
  2
STANDARD
 70
     0
  3

 62
   256
 51
90.0
 52
90.0
 71
     2
 49
0.5
 62
   256
  6
BYLAYER
 49
-0.5
 62
   256
  6
BYLAYER
  0
ACDBPLACEHOLDER
  5
F
102
{ACAD_REACTORS
330
E
102
}
330
E
  0
SCALE
  5
1038
102
{ACAD_REACTORS
330
A36
102
}
330
A36
100
AcDbScale
 70
     0
300
1:200
140
1.0
141
200.0
290
     0
  0
SCALE
  5
A37
102
{ACAD_REACTORS
330
A36
102
}
330
A36
100
AcDbScale
 70
     0
300
1:1
140
1.0
141
1.0
290
     1
  0
SCALE
  5
A38
102
{ACAD_REACTORS
330
A36
102
}
330
A36
100
AcDbScale
 70
     0
300
1:2
140
1.0
141
2.0
290
     0
  0
SCALE
  5
A39
102
{ACAD_REACTORS
330
A36
102
}
330
A36
100
AcDbScale
 70
     0
300
1:4
140
1.0
141
4.0
290
     0
  0
SCALE
  5
A3A
102
{ACAD_REACTORS
330
A36
102
}
330
A36
100
AcDbScale
 70
     0
300
1:5
140
1.0
141
5.0
290
     0
  0
SCALE
  5
A3B
102
{ACAD_REACTORS
330
A36
102
}
330
A36
100
AcDbScale
 70
     0
300
1:8
140
1.0
141
8.0
290
     0
  0
SCALE
  5
A3C
102
{ACAD_REACTORS
330
A36
102
}
330
A36
100
AcDbScale
 70
     0
300
1:10
140
1.0
141
10.0
290
     0
  0
SCALE
  5
A3D
102
{ACAD_REACTORS
330
A36
102
}
330
A36
100
AcDbScale
 70
     0
300
1:16
140
1.0
141
16.0
290
     0
  0
SCALE
  5
A3E
102
{ACAD_REACTORS
330
A36
102
}
330
A36
100
AcDbScale
 70
     0
300
1:20
140
1.0
141
20.0
290
     0
  0
SCALE
  5
A3F
102
{ACAD_REACTORS
330
A36
102
}
330
A36
100
AcDbScale
 70
     0
300
1:30
140
1.0
141
30.0
290
     0
  0
SCALE
  5
A40
102
{ACAD_REACTORS
330
A36
102
}
330
A36
100
AcDbScale
 70
     0
300
1:40
140
1.0
141
40.0
290
     0
  0
SCALE
  5
A41
102
{ACAD_REACTORS
330
A36
102
}
330
A36
100
AcDbScale
 70
     0
300
1:50
140
1.0
141
50.0
290
     0
  0
SCALE
  5
A42
102
{ACAD_REACTORS
330
A36
102
}
330
A36
100
AcDbScale
 70
     0
300
1:100
140
1.0
141
100.0
290
     0
  0
SCALE
  5
A43
102
{ACAD_REACTORS
330
A36
102
}
330
A36
100
AcDbScale
 70
     0
300
2:1
140
2.0
141
1.0
290
     0
  0
SCALE
  5
A44
102
{ACAD_REACTORS
330
A36
102
}
330
A36
100
AcDbScale
 70
     0
300
4:1
140
4.0
141
1.0
290
     0
  0
SCALE
  5
A45
102
{ACAD_REACTORS
330
A36
102
}
330
A36
100
AcDbScale
 70
     0
300
8:1
140
8.0
141
1.0
290
     0
  0
SCALE
  5
A46
102
{ACAD_REACTORS
330
A36
102
}
330
A36
100
AcDbScale
 70
     0
300
10:1
140
10.0
141
1.0
290
     0
  0
SCALE
  5
A47
102
{ACAD_REACTORS
330
A36
102
}
330
A36
100
AcDbScale
 70
     0
300
100:1
140
100.0
141
1.0
290
     0
  0
SCALE
  5
A48
102
{ACAD_REACTORS
330
A36
102
}
330
A36
100
AcDbScale
 70
     0
300
1/128" = 1'-0"
140
0.0078125
141
12.0
290
     0
  0
SCALE
  5
A49
102
{ACAD_REACTORS
330
A36
102
}
330
A36
100
AcDbScale
 70
     0
300
1/64" = 1'-0"
140
0.015625
141
12.0
290
     0
  0
SCALE
  5
A4A
102
{ACAD_REACTORS
330
A36
102
}
330
A36
100
AcDbScale
 70
     0
300
1/32" = 1'-0"
140
0.03125
141
12.0
290
     0
  0
SCALE
  5
A4B
102
{ACAD_REACTORS
330
A36
102
}
330
A36
100
AcDbScale
 70
     0
300
1/16" = 1'-0"
140
0.0625
141
12.0
290
     0
  0
SCALE
  5
A4C
102
{ACAD_REACTORS
330
A36
102
}
330
A36
100
AcDbScale
 70
     0
300
3/32" = 1'-0"
140
0.09375
141
12.0
290
     0
  0
SCALE
  5
A4D
102
{ACAD_REACTORS
330
A36
102
}
330
A36
100
AcDbScale
 70
     0
300
1/8" = 1'-0"
140
0.125
141
12.0
290
     0
  0
SCALE
  5
A4E
102
{ACAD_REACTORS
330
A36
102
}
330
A36
100
AcDbScale
 70
     0
300
3/16" = 1'-0"
140
0.1875
141
12.0
290
     0
  0
SCALE
  5
A4F
102
{ACAD_REACTORS
330
A36
102
}
330
A36
100
AcDbScale
 70
     0
300
1/4" = 1'-0"
140
0.25
141
12.0
290
     0
  0
SCALE
  5
A50
102
{ACAD_REACTORS
330
A36
102
}
330
A36
100
AcDbScale
 70
     0
300
3/8" = 1'-0"
140
0.375
141
12.0
290
     0
  0
SCALE
  5
A51
102
{ACAD_REACTORS
330
A36
102
}
330
A36
100
AcDbScale
 70
     0
300
1/2" = 1'-0"
140
0.5
141
12.0
290
     0
  0
SCALE
  5
A52
102
{ACAD_REACTORS
330
A36
102
}
330
A36
100
AcDbScale
 70
     0
300
3/4" = 1'-0"
140
0.75
141
12.0
290
     0
  0
SCALE
  5
A53
102
{ACAD_REACTORS
330
A36
102
}
330
A36
100
AcDbScale
 70
     0
300
1" = 1'-0"
140
1.0
141
12.0
290
     0
  0
SCALE
  5
A54
102
{ACAD_REACTORS
330
A36
102
}
330
A36
100
AcDbScale
 70
     0
300
1-1/2" = 1'-0"
140
1.5
141
12.0
290
     0
  0
SCALE
  5
A55
102
{ACAD_REACTORS
330
A36
102
}
330
A36
100
AcDbScale
 70
     0
300
3" = 1'-0"
140
3.0
141
12.0
290
     0
  0
SCALE
  5
A56
102
{ACAD_REACTORS
330
A36
102
}
330
A36
100
AcDbScale
 70
     0
300
6" = 1'-0"
140
6.0
141
12.0
290
     0
  0
SCALE
  5
A57
102
{ACAD_REACTORS
330
A36
102
}
330
A36
100
AcDbScale
 70
     0
300
1'-0" = 1'-0"
140
12.0
141
12.0
290
     0
  0
TABLESTYLE
  5
1D
102
{ACAD_XDICTIONARY
360
115D
102
}
102
{ACAD_REACTORS
330
1C
102
}
330
1C
100
AcDbTableStyle
  3
Standard
 70
     0
 71
     0
 40
0.06
 41
0.06
280
     0
281
     0
  7
AUDIT_I_060331094926-0
140
0.18
170
     2
 62
     0
 63
     7
283
     0
274
    -2
284
     1
 64
     0
275
    -2
285
     1
 65
     0
276
    -2
286
     1
 66
     0
277
    -2
287
     1
 67
     0
278
    -2
288
     1
 68
     0
279
    -2
289
     1
 69
     0
  7
AUDIT_I_060331094926-0
140
0.25
170
     5
 62
     0
 63
     7
283
     0
274
    -2
284
     1
 64
     0
275
    -2
285
     1
 65
     0
276
    -2
286
     1
 66
     0
277
    -2
287
     1
 67
     0
278
    -2
288
     1
 68
     0
279
    -2
289
     1
 69
     0
  7
AUDIT_I_060331094926-0
140
0.18
170
     5
 62
     0
 63
     7
283
     0
274
    -2
284
     1
 64
     0
275
    -2
285
     1
 65
     0
276
    -2
286
     1
 66
     0
277
    -2
287
     1
 67
     0
278
    -2
288
     1
 68
     0
279
    -2
289
     1
 69
     0
  0
VISUALSTYLE
  5
A2B
102
{ACAD_REACTORS
330
A25
102
}
330
A25
100
AcDbVisualStyle
  2
2dWireframe
 70
     4
 71
     0
 72
     2
 73
     0
 90
        0
 40
-0.6
 41
-30.0
 62
     5
 63
     7
421
 16777215
 74
     1
 91
        4
 64
     7
 65
   257
 75
     1
175
     1
 42
1.0
 92
        0
 66
   257
 43
1.0
 76
     1
 77
     6
 78
     2
 67
     7
 79
     5
170
     0
171
     0
290
     0
174
     0
 93
        1
 44
0.0
173
     0
291
     0
 45
0.0
1001
ACAD
1000
AcDbSavedByObjectVersion
1070
     0
1000
AcDbSavedByObjectVersion
1070
     0
1000
AcDbSavedByObjectVersion
1070
     0
1000
AcDbSavedByObjectVersion
1070
     0
  0
VISUALSTYLE
  5
A2D
102
{ACAD_REACTORS
330
A25
102
}
330
A25
100
AcDbVisualStyle
  2
3D Hidden
 70
     6
 71
     1
 72
     2
 73
     2
 90
        0
 40
-0.6
 41
-30.0
 62
     5
 63
     7
421
 16777215
 74
     2
 91
        2
 64
     7
 65
   257
 75
     2
175
     1
 42
40.0
 92
        0
 66
   257
 43
1.0
 76
     1
 77
     6
 78
     2
 67
     7
 79
     3
170
     0
171
     0
290
     0
174
     0
 93
        1
 44
0.0
173
     0
291
     0
 45
0.0
1001
ACAD
1000
AcDbSavedByObjectVersion
1070
     0
1000
AcDbSavedByObjectVersion
1070
     0
1000
AcDbSavedByObjectVersion
1070
     0
1000
AcDbSavedByObjectVersion
1070
     0
  0
VISUALSTYLE
  5
A2C
102
{ACAD_REACTORS
330
A25
102
}
330
A25
100
AcDbVisualStyle
  2
3dWireframe
 70
     5
 71
     0
 72
     2
 73
     0
 90
        0
 40
-0.6
 41
-30.0
 62
     5
 63
     7
421
 16777215
 74
     1
 91
        4
 64
     7
 65
   257
 75
     1
175
     1
 42
1.0
 92
        0
 66
   257
 43
1.0
 76
     1
 77
     6
 78
     2
 67
     7
 79
     5
170
     0
171
     0
290
     0
174
     0
 93
        1
 44
0.0
173
     0
291
     0
 45
0.0
1001
ACAD
1000
AcDbSavedByObjectVersion
1070
     0
1000
AcDbSavedByObjectVersion
1070
     0
1000
AcDbSavedByObjectVersion
1070
     0
1000
AcDbSavedByObjectVersion
1070
     0
  0
VISUALSTYLE
  5
A2A
102
{ACAD_REACTORS
330
A25
102
}
330
A25
100
AcDbVisualStyle
  2
Basic
 70
     7
 71
     1
 72
     0
 73
     1
 90
        0
 40
-0.6
 41
-30.0
 62
     5
 63
     7
421
 16777215
 74
     0
 91
        4
 64
     7
 65
   257
 75
     1
175
     1
 42
1.0
 92
        8
 66
     7
 43
1.0
 76
     1
 77
     6
 78
     2
 67
     7
 79
     5
170
     0
171
     0
290
     0
174
     0
 93
        1
 44
0.0
173
     0
291
     1
 45
0.0
1001
ACAD
1000
AcDbSavedByObjectVersion
1070
     0
1000
AcDbSavedByObjectVersion
1070
     0
1000
AcDbSavedByObjectVersion
1070
     0
1000
AcDbSavedByObjectVersion
1070
     0
  0
VISUALSTYLE
  5
A31
102
{ACAD_REACTORS
330
A25
102
}
330
A25
100
AcDbVisualStyle
  2
Brighten
 70
    12
 71
     2
 72
     2
 73
     0
 90
        0
 40
-0.6
 41
-30.0
 62
     5
 63
     7
421
 16777215
 74
     1
 91
        4
 64
     7
 65
   257
 75
     1
175
     1
 42
1.0
 92
        8
 66
     7
 43
1.0
 76
     1
 77
     6
 78
     2
 67
     7
 79
     5
170
     0
171
     0
290
     0
174
     0
 93
        1
 44
50.0
173
     0
291
     1
 45
0.0
1001
ACAD
1000
AcDbSavedByObjectVersion
1070
     0
1000
AcDbSavedByObjectVersion
1070
     0
1000
AcDbSavedByObjectVersion
1070
     0
1000
AcDbSavedByObjectVersion
1070
     0
  0
VISUALSTYLE
  5
A35
102
{ACAD_REACTORS
330
A25
102
}
330
A25
100
AcDbVisualStyle
  2
ColorChange
 70
    16
 71
     2
 72
     2
 73
     3
 90
        0
 40
-0.6
 41
-30.0
 62
     5
 63
     8
421
  8421504
 74
     1
 91
        4
 64
     7
 65
   257
 75
     1
175
     1
 42
1.0
 92
        8
 66
     8
424
  8421504
 43
1.0
 76
     1
 77
     6
 78
     2
 67
     7
 79
     5
170
     0
171
     0
290
     0
174
     0
 93
        1
 44
0.0
173
     0
291
     1
 45
0.0
1001
ACAD
1000
AcDbSavedByObjectVersion
1070
     0
1000
AcDbSavedByObjectVersion
1070
     0
1000
AcDbSavedByObjectVersion
1070
     0
1000
AcDbSavedByObjectVersion
1070
     0
  0
VISUALSTYLE
  5
A2E
102
{ACAD_REACTORS
330
A25
102
}
330
A25
100
AcDbVisualStyle
  2
Conceptual
 70
     9
 71
     3
 72
     2
 73
     0
 90
        0
 40
-0.6
 41
-30.0
 62
     5
 63
     7
421
 16777215
 74
     2
 91
        2
 64
     7
 65
   257
 75
     1
175
     1
 42
40.0
 92
        8
 66
     7
 43
1.0
 76
     1
 77
     6
 78
     2
 67
     7
 79
     3
170
     0
171
     0
290
     0
174
     0
 93
        1
 44
0.0
173
     0
291
     0
 45
0.0
1001
ACAD
1000
AcDbSavedByObjectVersion
1070
     0
1000
AcDbSavedByObjectVersion
1070
     0
1000
AcDbSavedByObjectVersion
1070
     0
1000
AcDbSavedByObjectVersion
1070
     0
  0
VISUALSTYLE
  5
A30
102
{ACAD_REACTORS
330
A25
102
}
330
A25
100
AcDbVisualStyle
  2
Dim
 70
    11
 71
     2
 72
     2
 73
     0
 90
        0
 40
-0.6
 41
-30.0
 62
     5
 63
     7
421
 16777215
 74
     1
 91
        4
 64
     7
 65
   257
 75
     1
175
     1
 42
1.0
 92
        8
 66
     7
 43
1.0
 76
     1
 77
     6
 78
     2
 67
     7
 79
     5
170
     0
171
     0
290
     0
174
     0
 93
        1
 44
-50.0
173
     0
291
     1
 45
0.0
1001
ACAD
1000
AcDbSavedByObjectVersion
1070
     0
1000
AcDbSavedByObjectVersion
1070
     0
1000
AcDbSavedByObjectVersion
1070
     0
1000
AcDbSavedByObjectVersion
1070
     0
  0
VISUALSTYLE
  5
A34
102
{ACAD_REACTORS
330
A25
102
}
330
A25
100
AcDbVisualStyle
  2
Facepattern
 70
    15
 71
     2
 72
     2
 73
     0
 90
        0
 40
-0.6
 41
-30.0
 62
     5
 63
     7
421
 16777215
 74
     1
 91
        4
 64
     7
 65
   257
 75
     1
175
     1
 42
1.0
 92
        8
 66
     7
 43
1.0
 76
     1
 77
     6
 78
     2
 67
     7
 79
     5
170
     0
171
     0
290
     0
174
     0
 93
        1
 44
0.0
173
     0
291
     1
 45
0.0
1001
ACAD
1000
AcDbSavedByObjectVersion
1070
     0
1000
AcDbSavedByObjectVersion
1070
     0
1000
AcDbSavedByObjectVersion
1070
     0
1000
AcDbSavedByObjectVersion
1070
     0
  0
VISUALSTYLE
  5
A26
102
{ACAD_REACTORS
330
A25
102
}
330
A25
100
AcDbVisualStyle
  2
Flat
 70
     0
 71
     2
 72
     1
 73
     1
 90
        2
 40
-0.6
 41
30.0
 62
     5
 63
     7
421
 16777215
 74
     0
 91
        4
 64
     7
 65
   257
 75
     1
175
     1
 42
1.0
 92
        8
 66
     7
 43
1.0
 76
     1
 77
     6
 78
     2
 67
     7
 79
     5
170
     0
171
     0
290
     0
174
     0
 93
       13
 44
0.0
173
     0
291
     1
 45
0.0
1001
ACAD
1000
AcDbSavedByObjectVersion
1070
     0
1000
AcDbSavedByObjectVersion
1070
     0
1000
AcDbSavedByObjectVersion
1070
     0
1000
AcDbSavedByObjectVersion
1070
     0
  0
VISUALSTYLE
  5
A27
102
{ACAD_REACTORS
330
A25
102
}
330
A25
100
AcDbVisualStyle
  2
FlatWithEdges
 70
     1
 71
     2
 72
     1
 73
     1
 90
        2
 40
-0.6
 41
30.0
 62
     5
 63
     7
421
 16777215
 74
     1
 91
        4
 64
     7
 65
   257
 75
     1
175
     1
 42
1.0
 92
        0
 66
   257
 43
1.0
 76
     1
 77
     6
 78
     2
 67
     7
 79
     5
170
     0
171
     0
290
     0
174
     0
 93
       13
 44
0.0
173
     0
291
     1
 45
0.0
1001
ACAD
1000
AcDbSavedByObjectVersion
1070
     0
1000
AcDbSavedByObjectVersion
1070
     0
1000
AcDbSavedByObjectVersion
1070
     0
1000
AcDbSavedByObjectVersion
1070
     0
  0
VISUALSTYLE
  5
A28
102
{ACAD_REACTORS
330
A25
102
}
330
A25
100
AcDbVisualStyle
  2
Gouraud
 70
     2
 71
     2
 72
     2
 73
     1
 90
        2
 40
-0.6
 41
30.0
 62
     5
 63
     7
421
 16777215
 74
     0
 91
        4
 64
     7
 65
   257
 75
     1
175
     1
 42
1.0
 92
        0
 66
     7
 43
1.0
 76
     1
 77
     6
 78
     2
 67
     7
 79
     5
170
     0
171
     0
290
     0
174
     0
 93
       13
 44
0.0
173
     0
291
     1
 45
0.0
1001
ACAD
1000
AcDbSavedByObjectVersion
1070
     0
1000
AcDbSavedByObjectVersion
1070
     0
1000
AcDbSavedByObjectVersion
1070
     0
1000
AcDbSavedByObjectVersion
1070
     0
  0
VISUALSTYLE
  5
A29
102
{ACAD_REACTORS
330
A25
102
}
330
A25
100
AcDbVisualStyle
  2
GouraudWithEdges
 70
     3
 71
     2
 72
     2
 73
     1
 90
        2
 40
-0.6
 41
30.0
 62
     5
 63
     7
421
 16777215
 74
     1
 91
        4
 64
     7
 65
   257
 75
     1
175
     1
 42
1.0
 92
        0
 66
   257
 43
1.0
 76
     1
 77
     6
 78
     2
 67
     7
 79
     5
170
     0
171
     0
290
     0
174
     0
 93
       13
 44
0.0
173
     0
291
     1
 45
0.0
1001
ACAD
1000
AcDbSavedByObjectVersion
1070
     0
1000
AcDbSavedByObjectVersion
1070
     0
1000
AcDbSavedByObjectVersion
1070
     0
1000
AcDbSavedByObjectVersion
1070
     0
  0
VISUALSTYLE
  5
A33
102
{ACAD_REACTORS
330
A25
102
}
330
A25
100
AcDbVisualStyle
  2
Linepattern
 70
    14
 71
     2
 72
     2
 73
     0
 90
        0
 40
-0.6
 41
-30.0
 62
     5
 63
     7
421
 16777215
 74
     1
 91
        4
 64
     7
 65
   257
 75
     7
175
     7
 42
1.0
 92
        8
 66
     7
 43
1.0
 76
     1
 77
     6
 78
     2
 67
     7
 79
     5
170
     0
171
     0
290
     0
174
     0
 93
        1
 44
0.0
173
     0
291
     1
 45
0.0
1001
ACAD
1000
AcDbSavedByObjectVersion
1070
     0
1000
AcDbSavedByObjectVersion
1070
     0
1000
AcDbSavedByObjectVersion
1070
     0
1000
AcDbSavedByObjectVersion
1070
     0
  0
VISUALSTYLE
  5
A2F
102
{ACAD_REACTORS
330
A25
102
}
330
A25
100
AcDbVisualStyle
  2
Realistic
 70
     8
 71
     2
 72
     2
 73
     0
 90
        0
 40
-0.6
 41
-30.0
 62
     5
 63
     7
421
 16777215
 74
     1
 91
        0
 64
     7
 65
   257
 75
     1
175
     1
 42
1.0
 92
        8
 66
     8
424
  7895160
 43
1.0
 76
     1
 77
     6
 78
     2
 67
     7
 79
     5
170
     0
171
     0
290
     0
174
     0
 93
       13
 44
0.0
173
     0
291
     0
 45
0.0
1001
ACAD
1000
AcDbSavedByObjectVersion
1070
     0
1000
AcDbSavedByObjectVersion
1070
     0
1000
AcDbSavedByObjectVersion
1070
     0
1000
AcDbSavedByObjectVersion
1070
     0
  0
VISUALSTYLE
  5
A32
102
{ACAD_REACTORS
330
A25
102
}
330
A25
100
AcDbVisualStyle
  2
Thicken
 70
    13
 71
     2
 72
     2
 73
     0
 90
        0
 40
-0.6
 41
-30.0
 62
     5
 63
     7
421
 16777215
 74
     1
 91
        4
 64
     7
 65
   257
 75
     1
175
     1
 42
1.0
 92
       12
 66
     7
 43
1.0
 76
     1
 77
     6
 78
     2
 67
     7
 79
     5
170
     0
171
     0
290
     0
174
     0
 93
        1
 44
0.0
173
     0
291
     1
 45
0.0
1001
ACAD
1000
AcDbSavedByObjectVersion
1070
     0
1000
AcDbSavedByObjectVersion
1070
     0
1000
AcDbSavedByObjectVersion
1070
     0
1000
AcDbSavedByObjectVersion
1070
     0
  0
DICTIONARYVAR
  5
115C
102
{ACAD_REACTORS
330
98A
102
}
330
98A
100
DictionaryVariables
280
     0
  1
1:1
  0
DICTIONARYVAR
  5
115B
102
{ACAD_REACTORS
330
98A
102
}
330
98A
100
DictionaryVariables
280
     0
  1
STANDARD
  0
DICTIONARYVAR
  5
98B
102
{ACAD_REACTORS
330
98A
102
}
330
98A
100
DictionaryVariables
280
     0
  1
STANDARD
  0
DICTIONARYVAR
  5
98C
102
{ACAD_REACTORS
330
98A
102
}
330
98A
100
DictionaryVariables
280
     0
  1
1
  0
DICTIONARYVAR
  5
98D
102
{ACAD_REACTORS
330
98A
102
}
330
98A
100
DictionaryVariables
280
     0
  1

  0
DICTIONARY
  5
AC1
102
{ACAD_REACTORS
330
AB6
102
}
330
AB6
100
AcDbDictionary
281
     1
  0
XRECORD
  5
AD6
102
{ACAD_REACTORS
330
AB6
102
}
330
AB6
100
AcDbXrecord
280
     1
 90
-1023410169
  0
XRECORD
  5
134F
102
{ACAD_REACTORS
330
134E
102
}
330
134E
100
AcDbXrecord
280
     1
330
10ED
330
1564
330
166C
  0
DICTIONARY
  5
A16
330
A15
100
AcDbDictionary
280
     1
281
     1
  3
ACAD_XREC_ROUNDTRIP
360
1164
  3
BUMPTILE
360
A18
  3
DIFFUSETILE
360
A17
  3
OPACITYTILE
360
A1B
  3
REFLECTIONTILE
360
A1A
  3
REFRACTIONTILE
360
A1C
  3
SPECULARTILE
360
A19
  0
DICTIONARY
  5
A0E
330
A0D
100
AcDbDictionary
280
     1
281
     1
  3
ACAD_XREC_ROUNDTRIP
360
1163
  3
BUMPTILE
360
A10
  3
DIFFUSETILE
360
A0F
  3
OPACITYTILE
360
A13
  3
REFLECTIONTILE
360
A12
  3
REFRACTIONTILE
360
A14
  3
SPECULARTILE
360
A11
  0
DICTIONARY
  5
A1E
330
A1D
100
AcDbDictionary
280
     1
281
     1
  3
ACAD_XREC_ROUNDTRIP
360
1165
  3
BUMPTILE
360
A20
  3
DIFFUSETILE
360
A1F
  3
OPACITYTILE
360
A23
  3
REFLECTIONTILE
360
A22
  3
REFRACTIONTILE
360
A24
  3
SPECULARTILE
360
A21
  0
DICTIONARY
  5
115D
330
1D
100
AcDbDictionary
280
     1
281
     1
  3
ACAD_ROUNDTRIP_2008_TABLESTYLE_CELLSTYLEMAP
360
18FC
  3
ACAD_XREC_ROUNDTRIP
360
18FF
  0
XRECORD
  5
1164
102
{ACAD_REACTORS
330
A16
102
}
330
A16
100
AcDbXrecord
280
     1
102
MATERIAL
148
0.0
149
0.0
149
0.0
 93
        0
 94
      127
282
     0
 72
     0
 77
     0
171
     0
175
     0
179
     0
273
     0
  0
XRECORD
  5
A18
102
{ACAD_REACTORS
330
A16
102
}
330
A16
100
AcDbXrecord
280
     1
270
     1
271
     1
  0
XRECORD
  5
A17
102
{ACAD_REACTORS
330
A16
102
}
330
A16
100
AcDbXrecord
280
     1
270
     1
271
     1
  0
XRECORD
  5
A1B
102
{ACAD_REACTORS
330
A16
102
}
330
A16
100
AcDbXrecord
280
     1
270
     1
271
     1
  0
XRECORD
  5
A1A
102
{ACAD_REACTORS
330
A16
102
}
330
A16
100
AcDbXrecord
280
     1
270
     1
271
     1
  0
XRECORD
  5
A1C
102
{ACAD_REACTORS
330
A16
102
}
330
A16
100
AcDbXrecord
280
     1
270
     1
271
     1
  0
XRECORD
  5
A19
102
{ACAD_REACTORS
330
A16
102
}
330
A16
100
AcDbXrecord
280
     1
270
     1
271
     1
  0
XRECORD
  5
1163
102
{ACAD_REACTORS
330
A0E
102
}
330
A0E
100
AcDbXrecord
280
     1
102
MATERIAL
148
0.0
149
0.0
149
0.0
 93
        0
 94
      127
282
     0
 72
     0
 77
     0
171
     0
175
     0
179
     0
273
     0
  0
XRECORD
  5
A10
102
{ACAD_REACTORS
330
A0E
102
}
330
A0E
100
AcDbXrecord
280
     1
270
     1
271
     1
  0
XRECORD
  5
A0F
102
{ACAD_REACTORS
330
A0E
102
}
330
A0E
100
AcDbXrecord
280
     1
270
     1
271
     1
  0
XRECORD
  5
A13
102
{ACAD_REACTORS
330
A0E
102
}
330
A0E
100
AcDbXrecord
280
     1
270
     1
271
     1
  0
XRECORD
  5
A12
102
{ACAD_REACTORS
330
A0E
102
}
330
A0E
100
AcDbXrecord
280
     1
270
     1
271
     1
  0
XRECORD
  5
A14
102
{ACAD_REACTORS
330
A0E
102
}
330
A0E
100
AcDbXrecord
280
     1
270
     1
271
     1
  0
XRECORD
  5
A11
102
{ACAD_REACTORS
330
A0E
102
}
330
A0E
100
AcDbXrecord
280
     1
270
     1
271
     1
  0
XRECORD
  5
1165
102
{ACAD_REACTORS
330
A1E
102
}
330
A1E
100
AcDbXrecord
280
     1
102
MATERIAL
148
0.0
149
0.0
149
0.0
 93
        0
 94
      127
282
     0
 72
     0
 77
     0
171
     0
175
     0
179
     0
273
     0
  0
XRECORD
  5
A20
102
{ACAD_REACTORS
330
A1E
102
}
330
A1E
100
AcDbXrecord
280
     1
270
     1
271
     1
  0
XRECORD
  5
A1F
102
{ACAD_REACTORS
330
A1E
102
}
330
A1E
100
AcDbXrecord
280
     1
270
     1
271
     1
  0
XRECORD
  5
A23
102
{ACAD_REACTORS
330
A1E
102
}
330
A1E
100
AcDbXrecord
280
     1
270
     1
271
     1
  0
XRECORD
  5
A22
102
{ACAD_REACTORS
330
A1E
102
}
330
A1E
100
AcDbXrecord
280
     1
270
     1
271
     1
  0
XRECORD
  5
A24
102
{ACAD_REACTORS
330
A1E
102
}
330
A1E
100
AcDbXrecord
280
     1
270
     1
271
     1
  0
XRECORD
  5
A21
102
{ACAD_REACTORS
330
A1E
102
}
330
A1E
100
AcDbXrecord
280
     1
270
     1
271
     1
  0
CELLSTYLEMAP
  5
18FC
102
{ACAD_REACTORS
330
115D
102
}
330
115D
100
AcDbCellStyleMap
 90
        3
300
CELLSTYLE
  1
TABLEFORMAT_BEGIN
 90
        5
170
     1
 91
        0
 92
    32768
 62
   257
 93
        1
300
CONTENTFORMAT
  1
CONTENTFORMAT_BEGIN
 90
        0
 91
        0
 92
        4
 93
        0
300

 40
0.0
140
1.0
 94
        5
 62
     0
340
11
144
0.25
309
CONTENTFORMAT_END
171
     1
301
MARGIN
  1
CELLMARGIN_BEGIN
 40
0.06
 40
0.06
 40
0.06
 40
0.06
 40
0.18
 40
0.18
309
CELLMARGIN_END
 94
        6
 95
        1
302
GRIDFORMAT
  1
GRIDFORMAT_BEGIN
 90
        0
 91
        1
 62
     0
 92
       -2
340
0
 93
        0
 40
0.045
309
GRIDFORMAT_END
 95
        2
302
GRIDFORMAT
  1
GRIDFORMAT_BEGIN
 90
        0
 91
        1
 62
     0
 92
       -2
340
0
 93
        0
 40
0.045
309
GRIDFORMAT_END
 95
        4
302
GRIDFORMAT
  1
GRIDFORMAT_BEGIN
 90
        0
 91
        1
 62
     0
 92
       -2
340
0
 93
        0
 40
0.045
309
GRIDFORMAT_END
 95
        8
302
GRIDFORMAT
  1
GRIDFORMAT_BEGIN
 90
        0
 91
        1
 62
     0
 92
       -2
340
0
 93
        0
 40
0.045
309
GRIDFORMAT_END
 95
       16
302
GRIDFORMAT
  1
GRIDFORMAT_BEGIN
 90
        0
 91
        1
 62
     0
 92
       -2
340
0
 93
        0
 40
0.045
309
GRIDFORMAT_END
 95
       32
302
GRIDFORMAT
  1
GRIDFORMAT_BEGIN
 90
        0
 91
        1
 62
     0
 92
       -2
340
0
 93
        0
 40
0.045
309
GRIDFORMAT_END
309
TABLEFORMAT_END
  1
CELLSTYLE_BEGIN
 90
        1
 91
        1
300
_TITLE
309
CELLSTYLE_END
300
CELLSTYLE
  1
TABLEFORMAT_BEGIN
 90
        5
170
     1
 91
        0
 92
        0
 62
   257
 93
        1
300
CONTENTFORMAT
  1
CONTENTFORMAT_BEGIN
 90
        0
 91
        0
 92
        4
 93
        0
300

 40
0.0
140
1.0
 94
        5
 62
     0
340
11
144
0.18
309
CONTENTFORMAT_END
171
     1
301
MARGIN
  1
CELLMARGIN_BEGIN
 40
0.06
 40
0.06
 40
0.06
 40
0.06
 40
0.18
 40
0.18
309
CELLMARGIN_END
 94
        6
 95
        1
302
GRIDFORMAT
  1
GRIDFORMAT_BEGIN
 90
        0
 91
        1
 62
     0
 92
       -2
340
0
 93
        0
 40
0.045
309
GRIDFORMAT_END
 95
        2
302
GRIDFORMAT
  1
GRIDFORMAT_BEGIN
 90
        0
 91
        1
 62
     0
 92
       -2
340
0
 93
        0
 40
0.045
309
GRIDFORMAT_END
 95
        4
302
GRIDFORMAT
  1
GRIDFORMAT_BEGIN
 90
        0
 91
        1
 62
     0
 92
       -2
340
0
 93
        0
 40
0.045
309
GRIDFORMAT_END
 95
        8
302
GRIDFORMAT
  1
GRIDFORMAT_BEGIN
 90
        0
 91
        1
 62
     0
 92
       -2
340
0
 93
        0
 40
0.045
309
GRIDFORMAT_END
 95
       16
302
GRIDFORMAT
  1
GRIDFORMAT_BEGIN
 90
        0
 91
        1
 62
     0
 92
       -2
340
0
 93
        0
 40
0.045
309
GRIDFORMAT_END
 95
       32
302
GRIDFORMAT
  1
GRIDFORMAT_BEGIN
 90
        0
 91
        1
 62
     0
 92
       -2
340
0
 93
        0
 40
0.045
309
GRIDFORMAT_END
309
TABLEFORMAT_END
  1
CELLSTYLE_BEGIN
 90
        2
 91
        1
300
_HEADER
309
CELLSTYLE_END
300
CELLSTYLE
  1
TABLEFORMAT_BEGIN
 90
        5
170
     1
 91
        0
 92
        0
 62
   257
 93
        1
300
CONTENTFORMAT
  1
CONTENTFORMAT_BEGIN
 90
        0
 91
        0
 92
        4
 93
        0
300

 40
0.0
140
1.0
 94
        2
 62
     0
340
11
144
0.18
309
CONTENTFORMAT_END
171
     1
301
MARGIN
  1
CELLMARGIN_BEGIN
 40
0.06
 40
0.06
 40
0.06
 40
0.06
 40
0.18
 40
0.18
309
CELLMARGIN_END
 94
        6
 95
        1
302
GRIDFORMAT
  1
GRIDFORMAT_BEGIN
 90
        0
 91
        1
 62
     0
 92
       -2
340
0
 93
        0
 40
0.045
309
GRIDFORMAT_END
 95
        2
302
GRIDFORMAT
  1
GRIDFORMAT_BEGIN
 90
        0
 91
        1
 62
     0
 92
       -2
340
0
 93
        0
 40
0.045
309
GRIDFORMAT_END
 95
        4
302
GRIDFORMAT
  1
GRIDFORMAT_BEGIN
 90
        0
 91
        1
 62
     0
 92
       -2
340
0
 93
        0
 40
0.045
309
GRIDFORMAT_END
 95
        8
302
GRIDFORMAT
  1
GRIDFORMAT_BEGIN
 90
        0
 91
        1
 62
     0
 92
       -2
340
0
 93
        0
 40
0.045
309
GRIDFORMAT_END
 95
       16
302
GRIDFORMAT
  1
GRIDFORMAT_BEGIN
 90
        0
 91
        1
 62
     0
 92
       -2
340
0
 93
        0
 40
0.045
309
GRIDFORMAT_END
 95
       32
302
GRIDFORMAT
  1
GRIDFORMAT_BEGIN
 90
        0
 91
        1
 62
     0
 92
       -2
340
0
 93
        0
 40
0.045
309
GRIDFORMAT_END
309
TABLEFORMAT_END
  1
CELLSTYLE_BEGIN
 90
        3
 91
        2
300
_DATA
309
CELLSTYLE_END
  0
XRECORD
  5
18FF
102
{ACAD_REACTORS
330
115D
102
}
330
115D
100
AcDbXrecord
280
     1
102
ACAD_ROUNDTRIP_PRE2007_TABLESTYLE
 90
        4
 91
        0
  1

 92
        4
 93
        0
  2

 94
        4
 95
        0
  3

  0
ENDSEC
  0
EOF
