  0
SECTION
  2
HEADER
  9
$ACADVER
  1
AC1018
  9
$ACADMAINTVER
 70
   104
  9
$DWGCODEPAGE
  3
ANSI_1252
  9
$LASTSAVEDBY
  1
guzb562
  9
$INSBASE
 10
0.0
 20
0.0
 30
0.0
  9
$EXTMIN
 10
1521.161768186883
 20
-691.734394294124
 30
-0.0015258207003583
  9
$EXTMAX
 10
1695.676352979907
 20
-45.92022611088668
 30
0.0000000349246037
  9
$LIMMIN
 10
0.0
 20
0.0
  9
$LIMMAX
 10
410.0
 20
287.0
  9
$ORTHOMODE
 70
     0
  9
$REGENMODE
 70
     1
  9
$FILLMODE
 70
     1
  9
$QTEXTMODE
 70
     0
  9
$MIRRTEXT
 70
     0
  9
$LTSCALE
 40
1.0
  9
$ATTMODE
 70
     1
  9
$TEXTSIZE
 40
3.5
  9
$TRACEWID
 40
1.0
  9
$TEXTSTYLE
  7
STANDARD
  9
$CLAYER
  8
AM_3
  9
$CELTYPE
  6
ByLayer
  9
$CECOLOR
 62
   256
  9
$CELTSCALE
 40
1.0
  9
$DISPSILH
 70
     0
  9
$DIMSCALE
 40
1.0
  9
$DIMASZ
 40
5.0
  9
$DIMEXO
 40
1.0
  9
$DIMDLI
 40
10.0
  9
$DIMRND
 40
0.0
  9
$DIMDLE
 40
0.0
  9
$DIMEXE
 40
1.0
  9
$DIMTP
 40
0.1
  9
$DIMTM
 40
0.1
  9
$DIMTXT
 40
5.0
  9
$DIMCEN
 40
0.0
  9
$DIMTSZ
 40
0.0
  9
$DIMTOL
 70
     0
  9
$DIMLIM
 70
     0
  9
$DIMTIH
 70
     0
  9
$DIMTOH
 70
     0
  9
$DIMSE1
 70
     0
  9
$DIMSE2
 70
     0
  9
$DIMTAD
 70
     1
  9
$DIMZIN
 70
     8
  9
$DIMBLK
  1

  9
$DIMASO
 70
     1
  9
$DIMSHO
 70
     1
  9
$DIMPOST
  1

  9
$DIMAPOST
  1
"
  9
$DIMALT
 70
     0
  9
$DIMALTD
 70
     2
  9
$DIMALTF
 40
0.0393701
  9
$DIMLFAC
 40
1.0
  9
$DIMTOFL
 70
     1
  9
$DIMTVP
 40
0.0
  9
$DIMTIX
 70
     0
  9
$DIMSOXD
 70
     0
  9
$DIMSAH
 70
     0
  9
$DIMBLK1
  1

  9
$DIMBLK2
  1

  9
$DIMSTYLE
  2
AM_DIN
  9
$DIMCLRD
 70
   256
  9
$DIMCLRE
 70
   256
  9
$DIMCLRT
 70
     2
  9
$DIMTFAC
 40
0.71
  9
$DIMGAP
 40
1.5
  9
$DIMJUST
 70
     0
  9
$DIMSD1
 70
     0
  9
$DIMSD2
 70
     0
  9
$DIMTOLJ
 70
     0
  9
$DIMTZIN
 70
     8
  9
$DIMALTZ
 70
     0
  9
$DIMALTTZ
 70
     0
  9
$DIMUPT
 70
     0
  9
$DIMDEC
 70
     2
  9
$DIMTDEC
 70
     2
  9
$DIMALTU
 70
     2
  9
$DIMALTTD
 70
     2
  9
$DIMTXSTY
  7
AUDIT_I_060331094926-0
  9
$DIMAUNIT
 70
     0
  9
$DIMADEC
 70
     0
  9
$DIMALTRND
 40
0.0
  9
$DIMAZIN
 70
     2
  9
$DIMDSEP
 70
    46
  9
$DIMATFIT
 70
     3
  9
$DIMFRAC
 70
     0
  9
$DIMLDRBLK
  1

  9
$DIMLUNIT
 70
     2
  9
$DIMLWD
 70
    -1
  9
$DIMLWE
 70
    -1
  9
$DIMTMOVE
 70
     0
  9
$LUNITS
 70
     2
  9
$LUPREC
 70
     2
  9
$SKETCHINC
 40
1.0
  9
$FILLETRAD
 40
2.5
  9
$AUNITS
 70
     0
  9
$AUPREC
 70
     0
  9
$MENU
  1
ACAD
  9
$ELEVATION
 40
0.0
  9
$PELEVATION
 40
0.0
  9
$THICKNESS
 40
0.0
  9
$LIMCHECK
 70
     0
  9
$CHAMFERA
 40
2.5
  9
$CHAMFERB
 40
2.5
  9
$CHAMFERC
 40
0.0
  9
$CHAMFERD
 40
0.0
  9
$SKPOLY
 70
     0
  9
$TDCREATE
 40
2448793.749559954
  9
$TDUCREATE
 40
2448793.666226620
  9
$TDUPDATE
 40
2454747.439475243
  9
$TDUUPDATE
 40
2454747.356141909
  9
$TDINDWG
 40
0.0138791551
  9
$TDUSRTIMER
 40
0.0138771759
  9
$USRTIMER
 70
     1
  9
$ANGBASE
 50
0.0
  9
$ANGDIR
 70
     0
  9
$PDMODE
 70
     0
  9
$PDSIZE
 40
0.0
  9
$PLINEWID
 40
0.0
  9
$SPLFRAME
 70
     0
  9
$SPLINETYPE
 70
     6
  9
$SPLINESEGS
 70
     8
  9
$HANDSEED
  5
13CB
  9
$SURFTAB1
 70
     6
  9
$SURFTAB2
 70
     6
  9
$SURFTYPE
 70
     6
  9
$SURFU
 70
     6
  9
$SURFV
 70
     6
  9
$UCSBASE
  2

  9
$UCSNAME
  2

  9
$UCSORG
 10
0.0
 20
0.0
 30
0.0
  9
$UCSXDIR
 10
1.0
 20
0.0
 30
0.0
  9
$UCSYDIR
 10
0.0
 20
1.0
 30
0.0
  9
$UCSORTHOREF
  2

  9
$UCSORTHOVIEW
 70
     0
  9
$UCSORGTOP
 10
0.0
 20
0.0
 30
0.0
  9
$UCSORGBOTTOM
 10
0.0
 20
0.0
 30
0.0
  9
$UCSORGLEFT
 10
0.0
 20
0.0
 30
0.0
  9
$UCSORGRIGHT
 10
0.0
 20
0.0
 30
0.0
  9
$UCSORGFRONT
 10
0.0
 20
0.0
 30
0.0
  9
$UCSORGBACK
 10
0.0
 20
0.0
 30
0.0
  9
$PUCSBASE
  2

  9
$PUCSNAME
  2

  9
$PUCSORG
 10
0.0
 20
0.0
 30
0.0
  9
$PUCSXDIR
 10
1.0
 20
0.0
 30
0.0
  9
$PUCSYDIR
 10
0.0
 20
1.0
 30
0.0
  9
$PUCSORTHOREF
  2

  9
$PUCSORTHOVIEW
 70
     0
  9
$PUCSORGTOP
 10
0.0
 20
0.0
 30
0.0
  9
$PUCSORGBOTTOM
 10
0.0
 20
0.0
 30
0.0
  9
$PUCSORGLEFT
 10
0.0
 20
0.0
 30
0.0
  9
$PUCSORGRIGHT
 10
0.0
 20
0.0
 30
0.0
  9
$PUCSORGFRONT
 10
0.0
 20
0.0
 30
0.0
  9
$PUCSORGBACK
 10
0.0
 20
0.0
 30
0.0
  9
$USERI1
 70
     0
  9
$USERI2
 70
     0
  9
$USERI3
 70
     0
  9
$USERI4
 70
     0
  9
$USERI5
 70
     0
  9
$USERR1
 40
0.0
  9
$USERR2
 40
0.0
  9
$USERR3
 40
0.0
  9
$USERR4
 40
0.0
  9
$USERR5
 40
0.0
  9
$WORLDVIEW
 70
     1
  9
$SHADEDGE
 70
     3
  9
$SHADEDIF
 70
    70
  9
$TILEMODE
 70
     1
  9
$MAXACTVP
 70
    64
  9
$PINSBASE
 10
0.0
 20
0.0
 30
0.0
  9
$PLIMCHECK
 70
     0
  9
$PEXTMIN
 10
1.000000000000000E+20
 20
1.000000000000000E+20
 30
1.000000000000000E+20
  9
$PEXTMAX
 10
-1.000000000000000E+20
 20
-1.000000000000000E+20
 30
-1.000000000000000E+20
  9
$PLIMMIN
 10
0.0
 20
0.0
  9
$PLIMMAX
 10
12.0
 20
9.0
  9
$UNITMODE
 70
     0
  9
$VISRETAIN
 70
     1
  9
$PLINEGEN
 70
     0
  9
$PSLTSCALE
 70
     1
  9
$TREEDEPTH
 70
  3020
  9
$CMLSTYLE
  2
Standard
  9
$CMLJUST
 70
     0
  9
$CMLSCALE
 40
1.0
  9
$PROXYGRAPHICS
 70
     1
  9
$MEASUREMENT
 70
     0
  9
$CELWEIGHT
370
    -1
  9
$ENDCAPS
280
     0
  9
$JOINSTYLE
280
     0
  9
$LWDISPLAY
290
     0
  9
$INSUNITS
 70
     0
  9
$HYPERLINKBASE
  1

  9
$STYLESHEET
  1

  9
$XEDIT
290
     1
  9
$CEPSNTYPE
380
     0
  9
$PSTYLEMODE
290
     1
  9
$FINGERPRINTGUID
  2
{058D1A67-C83A-47C2-9ACB-B02E208D7C6E}
  9
$VERSIONGUID
  2
{852C28C1-6608-4E14-BA2D-20EAB36E2194}
  9
$EXTNAMES
290
     1
  9
$PSVPSCALE
 40
0.0
  9
$OLESTARTUP
290
     0
  9
$SORTENTS
280
   127
  9
$INDEXCTL
280
     0
  9
$HIDETEXT
280
     0
  9
$XCLIPFRAME
290
     0
  9
$HALOGAP
280
     0
  9
$OBSCOLOR
 70
   257
  9
$OBSLTYPE
280
     0
  9
$INTERSECTIONDISPLAY
280
     0
  9
$INTERSECTIONCOLOR
 70
   257
  9
$DIMASSOC
280
     2
  9
$PROJECTNAME
  1

  0
ENDSEC
  0
SECTION
  2
CLASSES
  0
CLASS
  1
ACDBDICTIONARYWDFLT
  2
AcDbDictionaryWithDefault
  3
ObjectDBX Classes
 90
        0
 91
        1
280
     0
281
     0
  0
CLASS
  1
TABLESTYLE
  2
AcDbTableStyle
  3
ObjectDBX Classes
 90
     4095
 91
        1
280
     0
281
     0
  0
CLASS
  1
DICTIONARYVAR
  2
AcDbDictionaryVar
  3
ObjectDBX Classes
 90
        0
 91
        5
280
     0
281
     0
  0
CLASS
  1
MATERIAL
  2
AcDbMaterial
  3
ObjectDBX Classes
 90
     1153
 91
        3
280
     0
281
     0
  0
CLASS
  1
VISUALSTYLE
  2
AcDbVisualStyle
  3
ObjectDBX Classes
 90
     4095
 91
       16
280
     0
281
     0
  0
CLASS
  1
SCALE
  2
AcDbScale
  3
ObjectDBX Classes
 90
     1153
 91
       33
280
     0
281
     0
  0
CLASS
  1
MLEADERSTYLE
  2
AcDbMLeaderStyle
  3
ACDB_MLEADERSTYLE_CLASS
 90
     4095
 91
        1
280
     0
281
     0
  0
CLASS
  1
AMGSETTINGSOBJ
  2
AmgSettingsObj
  3
"AcadM|Product Description: AutoCAD Mechanical|Company: Autodesk, Inc."
 90
     1024
 91
        5
280
     0
281
     0
  0
CLASS
  1
ACME_DOCUMENT
  2
AcMeDbDoc
  3
AcMeServices
 90
     1024
 91
        1
280
     0
281
     0
  0
CLASS
  1
ACMESCOPE
  2
AcMeScope
  3
AcMeServices
 90
     1024
 91
        1
280
     0
281
     0
  0
CLASS
  1
ACMECOMMANDHISTORY
  2
AcMeCommandHistory
  3
AcMeServices
 90
     1024
 91
        1
280
     0
281
     0
  0
CLASS
  1
ACIMSYSVARMAN
  2
AcImSysVarManager
  3
AcMeServices
 90
     1024
 91
        5
280
     0
281
     0
  0
CLASS
  1
ACIMINTSYSVAR
  2
AcImIntSysVar
  3
AcMeServices
 90
     1024
 91
       27
280
     0
281
     0
  0
CLASS
  1
ACMEDRAWINGMAN
  2
AcMeDrawingMan
  3
AcMeServices
 90
     1024
 91
        1
280
     0
281
     0
  0
CLASS
  1
ACMEVIEW
  2
AcMeView
  3
AcMeServices
 90
     1024
 91
        1
280
     0
281
     0
  0
CLASS
  1
ACDBENTITYCACHE
  2
AcMeEntityCache
  3
AcMeServices
 90
     1024
 91
        1
280
     0
281
     0
  0
CLASS
  1
GSMANAGER
  2
AcMeGSManager
  3
AcMeServices
 90
     1024
 91
        1
280
     0
281
     0
  0
CLASS
  1
AMDTINTERNALREACTOR
  2
AmdtInternalReactor
  3
AcMeServices
 90
     1024
 91
        2
280
     0
281
     0
  0
CLASS
  1
ACMESTATEMGR
  2
AcMeStateMgr
  3
AcMeServices
 90
     1024
 91
        1
280
     0
281
     0
  0
CLASS
  1
ACGREFMASTER
  2
AcGrefMaster
  3
AcAttribServices
 90
     1024
 91
        1
280
     0
281
     0
  0
CLASS
  1
AM_DRAWING_MGR
  2
AcDmDwgMgr
  3
AcMechDwgViewMgmt
 90
     1024
 91
        1
280
     0
281
     0
  0
CLASS
  1
AM_DWG_DOCUMENT
  2
AcDmDwgDocument
  3
AcMechDwgViewMgmt
 90
     1024
 91
        1
280
     0
281
     0
  0
CLASS
  1
AM_DWG_SHEET
  2
AcDmSheet
  3
AcMechDwgViewMgmt
 90
     1024
 91
        1
280
     0
281
     0
  0
CLASS
  1
AM_VIEWDIMPARMAP
  2
AcDmViewDimParMap
  3
AcMechDwgViewMgmt
 90
     1024
 91
        1
280
     0
281
     0
  0
CLASS
  1
ACIMREALSYSVAR
  2
AcImRealSysVar
  3
AcMeServices
 90
     1024
 91
        1
280
     0
281
     0
  0
CLASS
  1
AM_DWGMGR_NAME
  2
AcDmDwgMgrName
  3
AcMechDwgViewMgmt
 90
     1024
 91
        1
280
     0
281
     0
  0
CLASS
  1
ACME_DATABASE
  2
AcMeDbDatabase
  3
AcMeServices
 90
     1024
 91
        1
280
     0
281
     0
  0
CLASS
  1
ACRFINSADJUSTERMGR
  2
AcRfInsAdjusterMgr
  3
AcMeServices
 90
     1024
 91
        1
280
     0
281
     0
  0
CLASS
  1
ACGREFACADMASTER
  2
AcGrefacadMaster
  3
AcGrefServices
 90
     1024
 91
        1
280
     0
281
     0
  0
CLASS
  1
AMDTMENUSTATEMGR
  2
AmdtMenuStateMgr
  3
McadcomServices
 90
     1024
 91
        1
280
     0
281
     0
  0
CLASS
  1
AMDTMCOMMENUSTATE
  2
AmdtMcomMenuState
  3
McadcomServices
 90
     1024
 91
        1
280
     0
281
     0
  0
CLASS
  1
AMIMASTER
  2
AmiMaster
  3
AmiServices
 90
     1024
 91
        1
280
     0
281
     0
  0
CLASS
  1
MAPIAMMOUDLE
  2
MApiAmModule
  3
MApiAmServices
 90
     1024
 91
        1
280
     0
281
     0
  0
CLASS
  1
ACIMSTRSYSVAR
  2
AcImStrSysVar
  3
AcMeServices
 90
     1024
 91
        5
280
     0
281
     0
  0
CLASS
  1
AMDTADMENUSTATE
  2
AmdtAdMenuState
  3
DesignerServices
 90
     1024
 91
        1
280
     0
281
     0
  0
CLASS
  1
ADAPPL
  2
AcAdAppl
  3
DesignerServices
 90
     1024
 91
        1
280
     0
281
     0
  0
CLASS
  1
DEPMGR
  2
AcAdDepMgr
  3
DesignerServices
 90
     1024
 91
        1
280
     0
281
     0
  0
CLASS
  1
PARAMMGR
  2
AcAdParamMgr
  3
DesignerServices
 90
     1024
 91
        1
280
     0
281
     0
  0
CLASS
  1
PARAMSCOPE
  2
AcAdParamScope
  3
DesignerServices
 90
     1024
 91
        1
280
     0
281
     0
  0
CLASS
  1
NAMEDAPPL
  2
AcAdNamedAppl
  3
DesignerServices
 90
     1024
 91
        1
280
     0
281
     0
  0
CLASS
  1
AMDTDMMENUSTATE
  2
AmdtDmMenuState
  3
AcMechDwgViewMgmt
 90
     1024
 91
        1
280
     0
281
     0
  0
CLASS
  1
AMDTAMMENUSTATE
  2
AmdtAmMenuState
  3
DesignerAssemblies
 90
     1024
 91
        1
280
     0
281
     0
  0
CLASS
  1
ACAMPROJECT
  2
AcAmProject
  3
DesignerAssemblies
 90
     1024
 91
        1
280
     0
281
     0
  0
CLASS
  1
ACAMGRCOMPDEF
  2
AcAmGrCompDef
  3
DesignerAssemblies
 90
     1024
 91
        1
280
     0
281
     0
  0
CLASS
  1
ACCMCONTEXT
  2
AcCmContext
  3
DesignerAssemblies
 90
     1024
 91
        1
280
     0
281
     0
  0
CLASS
  1
ACAMCOMPDEF
  2
AcAmCompDef
  3
DesignerAssemblies
 90
     1024
 91
        1
280
     0
281
     0
  0
CLASS
  1
ACAMCOMPDEFMGR
  2
AcAmCompDefMgr
  3
DesignerAssemblies
 90
     1024
 91
        1
280
     0
281
     0
  0
CLASS
  1
AMCONTEXTMGR
  2
AcAmContextMgr
  3
DesignerAssemblies
 90
     1024
 91
        1
280
     0
281
     0
  0
CLASS
  1
ACAMCONTEXTMODELER
  2
AcAmContextModeler
  3
DesignerAssemblies
 90
     1024
 91
        1
280
     0
281
     0
  0
CLASS
  1
ACMDATADICTIONARY
  2
AcmDataDictionary
  3
"AcmSymBB|Product Description: AutoCAD Mechanical|Company: Autodesk, Inc."
 90
     1024
 91
        1
280
     0
281
     0
  0
CLASS
  1
CATALOGSTATE
  2
AcAmCatalogState
  3
DesignerAssemblies
 90
     1024
 91
        1
280
     0
281
     0
  0
CLASS
  1
ACAMGRCOMPDEFSET
  2
AcAmGrCompDefSet
  3
DesignerAssemblies
 90
     1024
 91
        1
280
     0
281
     0
  0
CLASS
  1
AMDTBROWSERDBTAB
  2
AmdtBrowserDbTab
  3
McadcomServices
 90
     1024
 91
        1
280
     0
281
     0
  0
CLASS
  1
CBROWSERAPPOBJECT
  2
CBrowserAppObject
  3
McadcomServices
 90
     1024
 91
        3
280
     0
281
     0
  0
CLASS
  1
DM_PLACEHOLDER
  2
AcDmSelsetPlaceholder
  3
AcMechDwgViewMgmt
 90
     1024
 91
        1
280
     0
281
     0
  0
CLASS
  1
ACMSTANDARDANSI
  2
AcmStandardANSI
  3
"Amdt_StdImp|Product Description: AutoCAD Mechanical|Company: Autodesk, Inc."
 90
     1024
 91
        2
280
     0
281
     0
  0
CLASS
  1
AMGOBJPROPCFG
  2
AmgObjPropCfg
  3
"AmgLay|Product Description: AutoCAD Mechanical|Company: Autodesk, Inc."
 90
     1025
 91
        2
280
     0
281
     0
  0
CLASS
  1
ACMSURFSTANDARDANSI
  2
AcmSurfTextStdANSI
  3
"Amdt_StdImp|Product Description: AutoCAD Mechanical|Company: Autodesk, Inc."
 90
     1024
 91
        2
280
     0
281
     0
  0
CLASS
  1
ACMFCFSTANDARDANSI
  2
AcmFCFStdANSI
  3
"Amdt_StdImp|Product Description: AutoCAD Mechanical|Company: Autodesk, Inc."
 90
     1024
 91
        2
280
     0
281
     0
  0
CLASS
  1
ACMWELDSTANDARDANSI
  2
AcmWeldingStdANSI
  3
"Amdt_StdImp|Product Description: AutoCAD Mechanical|Company: Autodesk, Inc."
 90
     1024
 91
        2
280
     0
281
     0
  0
CLASS
  1
ACMIDSTANDARDANSI
  2
AcmIdStdANSI
  3
"Amdt_StdImp|Product Description: AutoCAD Mechanical|Company: Autodesk, Inc."
 90
     1024
 91
        2
280
     0
281
     0
  0
CLASS
  1
ACMDATUMSTANDARDANSI
  2
AcmDatumStdANSI
  3
"Amdt_StdImp|Product Description: AutoCAD Mechanical|Company: Autodesk, Inc."
 90
     1024
 91
        2
280
     0
281
     0
  0
CLASS
  1
ACMBOMSTANDARDANSI
  2
AcmBOMStdANSI
  3
"Amdt_StdImp|Product Description: AutoCAD Mechanical|Company: Autodesk, Inc."
 90
     1024
 91
        2
280
     0
281
     0
  0
CLASS
  1
ACMDETAILSTANDARDANSI
  2
AmdtDetailSymStdANSI
  3
"Amdt_StdImp|Product Description: AutoCAD Mechanical|Company: Autodesk, Inc."
 90
     1024
 91
        2
280
     0
281
     0
  0
CLASS
  1
ACMSECTIONSTANDARDANSI
  2
AmdtSectionSymStdANSI
  3
"Amdt_StdImp|Product Description: AutoCAD Mechanical|Company: Autodesk, Inc."
 90
     1024
 91
        2
280
     0
281
     0
  0
CLASS
  1
ACMCENTERLINESTANDARDANSI
  2
AmdtCenterLineStdANSI
  3
"Amdt_StdImp|Product Description: AutoCAD Mechanical|Company: Autodesk, Inc."
 90
     1024
 91
        2
280
     0
281
     0
  0
CLASS
  1
ACMTHREADLINESTANDARDANSI
  2
AmdtThreadLineStdANSI
  3
"Amdt_StdImp|Product Description: AutoCAD Mechanical|Company: Autodesk, Inc."
 90
     1024
 91
        2
280
     0
281
     0
  0
CLASS
  1
ACMNOTESTANDARDANSI
  2
AmdtNoteStdANSI
  3
"Amdt_StdImp|Product Description: AutoCAD Mechanical|Company: Autodesk, Inc."
 90
     1024
 91
        2
280
     0
281
     0
  0
CLASS
  1
ACMTAPERSTANDARDANSI
  2
AcmTaperStdANSI
  3
"Amdt_StdImp|Product Description: AutoCAD Mechanical|Company: Autodesk, Inc."
 90
     1024
 91
        2
280
     0
281
     0
  0
CLASS
  1
ACMANOOTATIONVIEWSTANDARDANSI
  2
AmdtAnViewStdANSI
  3
"Amdt_StdImp|Product Description: AutoCAD Mechanical|Company: Autodesk, Inc."
 90
     1024
 91
        2
280
     0
281
     0
  0
CLASS
  1
AMDTNOTETEMPLATEDB
  2
AmdtNoteTemplateDB
  3
AcmSymBB|Product Description: AutoCAD Mechanical|Company: Autodesk, Inc.
 90
     1024
 91
       24
280
     0
281
     0
  0
CLASS
  1
ACAMGLAYSTD
  2
AcAmgLayStd
  3
"AmgLay|Product Description: AutoCAD Mechanical|Company: Autodesk, Inc."
 90
     1024
 91
        4
280
     0
281
     0
  0
CLASS
  1
ACAMGDIMSTD
  2
AcAmgDimStd
  3
"AmgDim|Product Description: AutoCAD Mechanical|Company: Autodesk, Inc."
 90
     1024
 91
        4
280
     0
281
     0
  0
CLASS
  1
ACAMGHOLECHARTSTDANSI
  2
AcAmgHoleChartStdANSI
  3
AmgDim|Product Description: AutoCAD Mechanical|Company: Autodesk, Inc.
 90
     1024
 91
        2
280
     0
281
     0
  0
CLASS
  1
ACAMGTITLESTD
  2
AcAmgTitleStd
  3
"AmgTitle|Product Description: AutoCAD Mechanical|Company: Autodesk, Inc."
 90
     4095
 91
        4
280
     0
281
     0
  0
CLASS
  1
ACMSTANDARDDIN
  2
AcmStandardDIN
  3
"Amdt_StdImp|Product Description: AutoCAD Mechanical|Company: Autodesk, Inc."
 90
     1024
 91
        1
280
     0
281
     0
  0
CLASS
  1
AMDTEDGESTANDARDDIN13715
  2
AmdtEdgeStdDIN13715
  3
"Amdt_StdImp|Product Description: AutoCAD Mechanical|Company: Autodesk, Inc."
 90
     1024
 91
        1
280
     0
281
     0
  0
CLASS
  1
ACMSURFSTANDARDDIN2002
  2
AcmSurfTextStdDIN2002
  3
"Amdt_StdImp|Product Description: AutoCAD Mechanical|Company: Autodesk, Inc."
 90
     1024
 91
        1
280
     0
281
     0
  0
CLASS
  1
ACMFCFSTANDARDDIN
  2
AcmFCFStdDIN
  3
"Amdt_StdImp|Product Description: AutoCAD Mechanical|Company: Autodesk, Inc."
 90
     1024
 91
        1
280
     0
281
     0
  0
CLASS
  1
ACMWELDSTANDARDDIN
  2
AcmWeldingStdDIN
  3
"Amdt_StdImp|Product Description: AutoCAD Mechanical|Company: Autodesk, Inc."
 90
     1024
 91
        1
280
     0
281
     0
  0
CLASS
  1
ACMIDSTANDARDDIN
  2
AcmIdStdDIN
  3
"Amdt_StdImp|Product Description: AutoCAD Mechanical|Company: Autodesk, Inc."
 90
     1024
 91
        1
280
     0
281
     0
  0
CLASS
  1
ACMDATUMSTANDARDDIN
  2
AcmDatumStdDIN
  3
"Amdt_StdImp|Product Description: AutoCAD Mechanical|Company: Autodesk, Inc."
 90
     1024
 91
        1
280
     0
281
     0
  0
CLASS
  1
ACMBOMSTANDARDDIN
  2
AcmBOMStdDIN
  3
"Amdt_StdImp|Product Description: AutoCAD Mechanical|Company: Autodesk, Inc."
 90
     1024
 91
        1
280
     0
281
     0
  0
CLASS
  1
ACMDETAILSTANDARDDIN
  2
AmdtDetailSymStdDIN
  3
"Amdt_StdImp|Product Description: AutoCAD Mechanical|Company: Autodesk, Inc."
 90
     1024
 91
        1
280
     0
281
     0
  0
CLASS
  1
ACMSECTIONSTANDARDDIN
  2
AmdtSectionSymStdDIN
  3
"Amdt_StdImp|Product Description: AutoCAD Mechanical|Company: Autodesk, Inc."
 90
     1024
 91
        1
280
     0
281
     0
  0
CLASS
  1
ACMCENTERLINESTANDARDDIN
  2
AmdtCenterLineStdDIN
  3
"Amdt_StdImp|Product Description: AutoCAD Mechanical|Company: Autodesk, Inc."
 90
     1024
 91
        1
280
     0
281
     0
  0
CLASS
  1
ACMTHREADLINESTANDARDDIN
  2
AmdtThreadLineStdDIN
  3
"Amdt_StdImp|Product Description: AutoCAD Mechanical|Company: Autodesk, Inc."
 90
     1024
 91
        1
280
     0
281
     0
  0
CLASS
  1
ACMNOTESTANDARDDIN
  2
AmdtNoteStdDIN
  3
"Amdt_StdImp|Product Description: AutoCAD Mechanical|Company: Autodesk, Inc."
 90
     1024
 91
        1
280
     0
281
     0
  0
CLASS
  1
ACMTAPERSTANDARDDIN
  2
AcmTaperStdDIN
  3
"Amdt_StdImp|Product Description: AutoCAD Mechanical|Company: Autodesk, Inc."
 90
     1024
 91
        1
280
     0
281
     0
  0
CLASS
  1
ACMANOOTATIONVIEWSTANDARDDIN
  2
AmdtAnViewStdDIN
  3
"Amdt_StdImp|Product Description: AutoCAD Mechanical|Company: Autodesk, Inc."
 90
     1024
 91
        1
280
     0
281
     0
  0
CLASS
  1
ACAMGHOLECHARTSTDDIN
  2
AcAmgHoleChartStdDIN
  3
AmgDim|Product Description: AutoCAD Mechanical|Company: Autodesk, Inc.
 90
     1024
 91
        1
280
     0
281
     0
  0
CLASS
  1
ACMSTANDARDISO
  2
AcmStandardISO
  3
"Amdt_StdImp|Product Description: AutoCAD Mechanical|Company: Autodesk, Inc."
 90
     1024
 91
        1
280
     0
281
     0
  0
CLASS
  1
AMDTEDGESTANDARDISO
  2
AmdtEdgeStdISO
  3
"Amdt_StdImp|Product Description: AutoCAD Mechanical|Company: Autodesk, Inc."
 90
     1024
 91
        1
280
     0
281
     0
  0
CLASS
  1
ACMSURFSTANDARDISO2002
  2
AcmSurfTextStdISO2002
  3
"Amdt_StdImp|Product Description: AutoCAD Mechanical|Company: Autodesk, Inc."
 90
     1024
 91
        1
280
     0
281
     0
  0
CLASS
  1
ACMFCFSTANDARDISO
  2
AcmFCFStdISO
  3
"Amdt_StdImp|Product Description: AutoCAD Mechanical|Company: Autodesk, Inc."
 90
     1024
 91
        1
280
     0
281
     0
  0
CLASS
  1
ACMWELDSTANDARDISO
  2
AcmWeldingStdISO
  3
"Amdt_StdImp|Product Description: AutoCAD Mechanical|Company: Autodesk, Inc."
 90
     1024
 91
        1
280
     0
281
     0
  0
CLASS
  1
ACMIDSTANDARDISO
  2
AcmIdStdISO
  3
"Amdt_StdImp|Product Description: AutoCAD Mechanical|Company: Autodesk, Inc."
 90
     1024
 91
        1
280
     0
281
     0
  0
CLASS
  1
ACMDATUMSTANDARDISO
  2
AcmDatumStdISO
  3
"Amdt_StdImp|Product Description: AutoCAD Mechanical|Company: Autodesk, Inc."
 90
     1024
 91
        1
280
     0
281
     0
  0
CLASS
  1
ACMBOMSTANDARDISO
  2
AcmBOMStdISO
  3
"Amdt_StdImp|Product Description: AutoCAD Mechanical|Company: Autodesk, Inc."
 90
     1024
 91
        1
280
     0
281
     0
  0
CLASS
  1
ACMDETAILSTANDARDISO
  2
AmdtDetailSymStdISO
  3
"Amdt_StdImp|Product Description: AutoCAD Mechanical|Company: Autodesk, Inc."
 90
     1024
 91
        1
280
     0
281
     0
  0
CLASS
  1
ACMSECTIONSTANDARDISO2001
  2
AmdtSectionSymStdISO2001
  3
"Amdt_StdImp|Product Description: AutoCAD Mechanical|Company: Autodesk, Inc."
 90
     1024
 91
        1
280
     0
281
     0
  0
CLASS
  1
ACMCENTERLINESTANDARDISO
  2
AmdtCenterLineStdISO
  3
"Amdt_StdImp|Product Description: AutoCAD Mechanical|Company: Autodesk, Inc."
 90
     1024
 91
        1
280
     0
281
     0
  0
CLASS
  1
ACMNOTESTANDARDISO
  2
AmdtNoteStdISO
  3
"Amdt_StdImp|Product Description: AutoCAD Mechanical|Company: Autodesk, Inc."
 90
     1024
 91
        1
280
     0
281
     0
  0
CLASS
  1
ACAMGHOLECHARTSTDISO
  2
AcAmgHoleChartStdISO
  3
AmgDim|Product Description: AutoCAD Mechanical|Company: Autodesk, Inc.
 90
     1024
 91
        1
280
     0
281
     0
  0
CLASS
  1
ACMTHREADLINESTANDARDISO
  2
AmdtThreadLineStdISO
  3
"Amdt_StdImp|Product Description: AutoCAD Mechanical|Company: Autodesk, Inc."
 90
     1024
 91
        1
280
     0
281
     0
  0
CLASS
  1
ACMTAPERSTANDARDISO
  2
AcmTaperStdISO
  3
"Amdt_StdImp|Product Description: AutoCAD Mechanical|Company: Autodesk, Inc."
 90
     1024
 91
        1
280
     0
281
     0
  0
CLASS
  1
ACMANOOTATIONVIEWSTANDARDISO
  2
AmdtAnViewStdISO
  3
"Amdt_StdImp|Product Description: AutoCAD Mechanical|Company: Autodesk, Inc."
 90
     1024
 91
        1
280
     0
281
     0
  0
CLASS
  1
ACAMGFILTERDAT
  2
AcAmgFilterDat
  3
"AcadM|Product Description: AutoCAD Mechanical|Company: Autodesk, Inc."
 90
     1024
 91
        0
280
     0
281
     0
  0
CLASS
  1
SORTENTSTABLE
  2
AcDbSortentsTable
  3
ObjectDBX Classes
 90
        0
 91
        1
280
     0
281
     0
  0
CLASS
  1
DIMASSOC
  2
AcDbDimAssoc
  3
"AcDbDimAssoc|Product Desc:     AcDim ARX App For Dimension|Company:          Autodesk, Inc.|WEB Address:      www.autodesk.com"
 90
        0
 91
        6
280
     0
281
     0
  0
CLASS
  1
CELLSTYLEMAP
  2
AcDbCellStyleMap
  3
ObjectDBX Classes
 90
     1152
 91
        2
280
     0
281
     0
  0
CLASS
  1
ACMDATAENTRYPART
  2
AcmDataEntryPart
  3
AcmSymBB|Product Description: AutoCAD Mechanical|Company: Autodesk, Inc.
 90
     1024
 91
        0
280
     0
281
     0
  0
CLASS
  1
ACMPARTREF
  2
AcmPartRef
  3
"AcmSymBB|Product Description: AutoCAD Mechanical|Company: Autodesk, Inc."
 90
     4095
 91
        0
280
     0
281
     1
  0
CLASS
  1
ACDBLINERES
  2
AcDbLineRes
  3
AcGrefServices
 90
     1024
 91
        0
280
     0
281
     0
  0
ENDSEC
  0
SECTION
  2
TABLES
  0
TABLE
  2
VPORT
  5
8
330
0
100
AcDbSymbolTable
 70
     1
  0
VPORT
  5
9C0
330
8
100
AcDbSymbolTableRecord
100
AcDbViewportTableRecord
  2
*Active
 70
     0
 10
0.0
 20
0.0
 11
1.0
 21
1.0
 12
1608.419060583395
 22
-368.8273102025054
 13
0.0
 23
0.0
 14
0.125
 24
0.125
 15
1.0
 25
1.0
 16
0.0
 26
0.0
 36
1.0
 17
0.0
 27
0.0
 37
0.0
 40
650.5224124227263
 41
1.453771289537712
 42
50.0
 43
0.0
 44
0.0
 50
0.0
 51
0.0
 71
     0
 72
   100
 73
     1
 74
     1
 75
     0
 76
     0
 77
     0
 78
     0
281
     0
 65
     1
110
0.0
120
0.0
130
0.0
111
1.0
121
0.0
131
0.0
112
0.0
122
1.0
132
0.0
 79
     0
146
0.0
  0
ENDTAB
  0
TABLE
  2
LTYPE
  5
5
330
0
100
AcDbSymbolTable
 70
    70
  0
LTYPE
  5
13
330
5
100
AcDbSymbolTableRecord
100
AcDbLinetypeTableRecord
  2
ByBlock
 70
     0
  3

 72
    65
 73
     0
 40
0.0
  0
LTYPE
  5
14
330
5
100
AcDbSymbolTableRecord
100
AcDbLinetypeTableRecord
  2
ByLayer
 70
     0
  3

 72
    65
 73
     0
 40
0.0
  0
LTYPE
  5
15
330
5
100
AcDbSymbolTableRecord
100
AcDbLinetypeTableRecord
  2
CONTINUOUS
 70
     0
  3
Solid line
 72
    65
 73
     0
 40
0.0
  0
LTYPE
  5
26
330
5
100
AcDbSymbolTableRecord
100
AcDbLinetypeTableRecord
  2
DASHED
 70
     0
  3
Dashed line
 72
    65
 73
     2
 40
0.75
 49
0.5
 74
     0
 49
-0.25
 74
     0
  0
LTYPE
  5
27
330
5
100
AcDbSymbolTableRecord
100
AcDbLinetypeTableRecord
  2
CENTER
 70
     0
  3
Center line
 72
    65
 73
     4
 40
2.0
 49
1.25
 74
     0
 49
-0.25
 74
     0
 49
0.25
 74
     0
 49
-0.25
 74
     0
  0
LTYPE
  5
A4B
330
5
100
AcDbSymbolTableRecord
100
AcDbLinetypeTableRecord
  2
HIDDEN
 70
     0
  3
Verdeckt
 72
    65
 73
     2
 40
0.375
 49
0.25
 74
     0
 49
-0.125
 74
     0
  0
LTYPE
  5
A4C
330
5
100
AcDbSymbolTableRecord
100
AcDbLinetypeTableRecord
  2
PHANTOM2
 70
     0
  3
Phantom (.5x) ___ _ _ ___ _ _ ___ _ _ ___ _ _
 72
    65
 73
     6
 40
1.25
 49
0.625
 74
     0
 49
-0.125
 74
     0
 49
0.125
 74
     0
 49
-0.125
 74
     0
 49
0.125
 74
     0
 49
-0.125
 74
     0
  0
LTYPE
  5
A90
330
5
100
AcDbSymbolTableRecord
100
AcDbLinetypeTableRecord
  2
ACANSTGB
 70
     0
  3
__ . . __ . .
 72
    65
 73
     6
 40
0.35433070866
 49
0.15748031496
 74
     0
 49
-0.03937007874
 74
     0
 49
0.03937007874
 74
     0
 49
-0.03937007874
 74
     0
 49
0.03937007874
 74
     0
 49
-0.03937007874
 74
     0
  0
LTYPE
  5
A91
330
5
100
AcDbSymbolTableRecord
100
AcDbLinetypeTableRecord
  2
ACANSTGL
 70
     0
  3
_ _ _ _ _
 72
    65
 73
     2
 40
0.11811023622
 49
0.07874015748
 74
     0
 49
-0.03937007874
 74
     0
  0
LTYPE
  5
AFD
330
5
100
AcDbSymbolTableRecord
100
AcDbLinetypeTableRecord
  2
AM_ISO02W050
 70
     0
  3
__ __ __ __ __ __ __ __ __ __ __ __ __ __ __
 72
    65
 73
     2
 40
7.5
 49
6.0
 74
     0
 49
-1.5
 74
     0
  0
LTYPE
  5
AFE
330
5
100
AcDbSymbolTableRecord
100
AcDbLinetypeTableRecord
  2
AM_ISO08W050
 70
     0
  3
____ . ____ . ____ . ____ . ____ . ____ . ____
 72
    65
 73
     4
 40
18.0
 49
12.0
 74
     0
 49
-1.5
 74
     0
 49
3.0
 74
     0
 49
-1.5
 74
     0
  0
LTYPE
  5
AFF
330
5
100
AcDbSymbolTableRecord
100
AcDbLinetypeTableRecord
  2
AM_ISO09W050
 70
     0
  3
_____ . . _____ . . _____ . . ____ .. ____
 72
    65
 73
     6
 40
22.5
 49
12.0
 74
     0
 49
-1.5
 74
     0
 49
3.0
 74
     0
 49
-1.5
 74
     0
 49
3.0
 74
     0
 49
-1.5
 74
     0
  0
LTYPE
  5
B00
330
5
100
AcDbSymbolTableRecord
100
AcDbLinetypeTableRecord
  2
Amconstr
 70
     0
  3
_______________________
 72
    65
 73
     2
 40
9999.0
 49
9999.0
 74
     0
 49
0.0
 74
     0
  0
LTYPE
  5
B01
330
5
100
AcDbSymbolTableRecord
100
AcDbLinetypeTableRecord
  2
AM_ISO08W050x2
 70
     0
  3
__ . __ . __ . __ . __ . __
 72
    65
 73
     4
 40
9.0
 49
6.0
 74
     0
 49
-0.75
 74
     0
 49
1.5
 74
     0
 49
-0.75
 74
     0
  0
LTYPE
  5
B02
330
5
100
AcDbSymbolTableRecord
100
AcDbLinetypeTableRecord
  2
AM_ISO02W050x2
 70
     0
  3
 _ _ _ _ _ _ _ _ _ _ _ _
 72
    65
 73
     2
 40
3.75
 49
3.0
 74
     0
 49
-0.75
 74
     0
  0
LTYPE
  5
B03
330
5
100
AcDbSymbolTableRecord
100
AcDbLinetypeTableRecord
  2
Amzigzag
 70
     0
  3
/\/-/\/-/\/-/\/-/\/-/\/
 72
    65
 73
     2
 40
11.0001
 49
0.0001
 74
     4
 75
   136
340
B04
 46
0.04
 50
0.0
 44
0.0
 45
0.0
 49
-11.0
 74
     0
  0
LTYPE
  5
B1B
330
5
100
AcDbSymbolTableRecord
100
AcDbLinetypeTableRecord
  2
ACDINWELD
 70
     0
  3
_ _ _ _ _
 72
    65
 73
     2
 40
2.0
 49
2.0
 74
     0
 49
-1.0
 74
     0
  0
LTYPE
  5
B1E
330
5
100
AcDbSymbolTableRecord
100
AcDbLinetypeTableRecord
  2
ACDINTGB
 70
     0
  3
__ . . __ . .
 72
    65
 73
     6
 40
9.0
 49
4.0
 74
     0
 49
-1.0
 74
     0
 49
1.0
 74
     0
 49
-1.0
 74
     0
 49
1.0
 74
     0
 49
-1.0
 74
     0
  0
LTYPE
  5
B1F
330
5
100
AcDbSymbolTableRecord
100
AcDbLinetypeTableRecord
  2
ACDINTGL
 70
     0
  3
_ _ _ _ _
 72
    65
 73
     2
 40
3.0
 49
2.0
 74
     0
 49
-1.0
 74
     0
  0
LTYPE
  5
B30
330
5
100
AcDbSymbolTableRecord
100
AcDbLinetypeTableRecord
  2
CENTER2
 70
     0
  3
Center (.5x) ___ _ ___ _ ___ _ ___ _ ___ _ ___
 72
    65
 73
     4
 40
1.125
 49
0.75
 74
     0
 49
-0.125
 74
     0
 49
0.125
 74
     0
 49
-0.125
 74
     0
  0
LTYPE
  5
B31
330
5
100
AcDbSymbolTableRecord
100
AcDbLinetypeTableRecord
  2
HIDDEN2
 70
     0
  3
Hidden (.5x) _ _ _ _ _ _ _ _ _ _ _ _ _ _ _ _ _
 72
    65
 73
     2
 40
0.1875
 49
0.125
 74
     0
 49
-0.0625
 74
     0
  0
LTYPE
  5
B45
330
5
100
AcDbSymbolTableRecord
100
AcDbLinetypeTableRecord
  2
ACISOWELD
 70
     0
  3
_ _ _ _ _
 72
    65
 73
     2
 40
2.0
 49
2.0
 74
     0
 49
-1.0
 74
     0
  0
LTYPE
  5
B48
330
5
100
AcDbSymbolTableRecord
100
AcDbLinetypeTableRecord
  2
ACISOTGB
 70
     0
  3
__ . . __ . .
 72
    65
 73
     6
 40
9.0
 49
4.0
 74
     0
 49
-1.0
 74
     0
 49
1.0
 74
     0
 49
-1.0
 74
     0
 49
1.0
 74
     0
 49
-1.0
 74
     0
  0
LTYPE
  5
B49
330
5
100
AcDbSymbolTableRecord
100
AcDbLinetypeTableRecord
  2
ACISOTGL
 70
     0
  3
_ _ _ _ _
 72
    65
 73
     2
 40
3.0
 49
2.0
 74
     0
 49
-1.0
 74
     0
  0
LTYPE
  5
1303
330
5
100
AcDbSymbolTableRecord
100
AcDbLinetypeTableRecord
  2
BORDER
 70
     0
  3
Border __ __ . __ __ . __ __ . __ __ . __ __ .
 72
    65
 73
     6
 40
1.75
 49
0.5
 74
     0
 49
-0.25
 74
     0
 49
0.5
 74
     0
 49
-0.25
 74
     0
 49
0.0
 74
     0
 49
-0.25
 74
     0
  0
LTYPE
  5
1304
330
5
100
AcDbSymbolTableRecord
100
AcDbLinetypeTableRecord
  2
BORDER2
 70
     0
  3
Border (.5x) __.__.__.__.__.__.__.__.__.__.__.
 72
    65
 73
     6
 40
0.875
 49
0.25
 74
     0
 49
-0.125
 74
     0
 49
0.25
 74
     0
 49
-0.125
 74
     0
 49
0.0
 74
     0
 49
-0.125
 74
     0
  0
LTYPE
  5
1305
330
5
100
AcDbSymbolTableRecord
100
AcDbLinetypeTableRecord
  2
BORDERX2
 70
     0
  3
Border (2x) ____  ____  .  ____  ____  .  ___
 72
    65
 73
     6
 40
3.5
 49
1.0
 74
     0
 49
-0.5
 74
     0
 49
1.0
 74
     0
 49
-0.5
 74
     0
 49
0.0
 74
     0
 49
-0.5
 74
     0
  0
LTYPE
  5
1306
330
5
100
AcDbSymbolTableRecord
100
AcDbLinetypeTableRecord
  2
CENTERX2
 70
     0
  3
Center (2x) ________  __  ________  __  _____
 72
    65
 73
     4
 40
4.0
 49
2.5
 74
     0
 49
-0.5
 74
     0
 49
0.5
 74
     0
 49
-0.5
 74
     0
  0
LTYPE
  5
1307
330
5
100
AcDbSymbolTableRecord
100
AcDbLinetypeTableRecord
  2
DASHDOT
 70
     0
  3
Dash dot __ . __ . __ . __ . __ . __ . __ . __
 72
    65
 73
     4
 40
1.0
 49
0.5
 74
     0
 49
-0.25
 74
     0
 49
0.0
 74
     0
 49
-0.25
 74
     0
  0
LTYPE
  5
1308
330
5
100
AcDbSymbolTableRecord
100
AcDbLinetypeTableRecord
  2
DASHDOT2
 70
     0
  3
Dash dot (.5x) _._._._._._._._._._._._._._._.
 72
    65
 73
     4
 40
0.5
 49
0.25
 74
     0
 49
-0.125
 74
     0
 49
0.0
 74
     0
 49
-0.125
 74
     0
  0
LTYPE
  5
1309
330
5
100
AcDbSymbolTableRecord
100
AcDbLinetypeTableRecord
  2
DASHDOTX2
 70
     0
  3
Dash dot (2x) ____  .  ____  .  ____  .  ___
 72
    65
 73
     4
 40
2.0
 49
1.0
 74
     0
 49
-0.5
 74
     0
 49
0.0
 74
     0
 49
-0.5
 74
     0
  0
LTYPE
  5
130A
330
5
100
AcDbSymbolTableRecord
100
AcDbLinetypeTableRecord
  2
DASHED2
 70
     0
  3
Dashed (.5x) _ _ _ _ _ _ _ _ _ _ _ _ _ _ _ _ _
 72
    65
 73
     2
 40
0.375
 49
0.25
 74
     0
 49
-0.125
 74
     0
  0
LTYPE
  5
130B
330
5
100
AcDbSymbolTableRecord
100
AcDbLinetypeTableRecord
  2
DASHEDX2
 70
     0
  3
Dashed (2x) ____  ____  ____  ____  ____  ___
 72
    65
 73
     2
 40
1.5
 49
1.0
 74
     0
 49
-0.5
 74
     0
  0
LTYPE
  5
130C
330
5
100
AcDbSymbolTableRecord
100
AcDbLinetypeTableRecord
  2
DIVIDE
 70
     0
  3
Divide ____ . . ____ . . ____ . . ____ . . ____
 72
    65
 73
     6
 40
1.25
 49
0.5
 74
     0
 49
-0.25
 74
     0
 49
0.0
 74
     0
 49
-0.25
 74
     0
 49
0.0
 74
     0
 49
-0.25
 74
     0
  0
LTYPE
  5
130D
330
5
100
AcDbSymbolTableRecord
100
AcDbLinetypeTableRecord
  2
DIVIDE2
 70
     0
  3
Divide (.5x) __..__..__..__..__..__..__..__.._
 72
    65
 73
     6
 40
0.625
 49
0.25
 74
     0
 49
-0.125
 74
     0
 49
0.0
 74
     0
 49
-0.125
 74
     0
 49
0.0
 74
     0
 49
-0.125
 74
     0
  0
LTYPE
  5
130E
330
5
100
AcDbSymbolTableRecord
100
AcDbLinetypeTableRecord
  2
DIVIDEX2
 70
     0
  3
Divide (2x) ________  .  .  ________  .  .  _
 72
    65
 73
     6
 40
2.5
 49
1.0
 74
     0
 49
-0.5
 74
     0
 49
0.0
 74
     0
 49
-0.5
 74
     0
 49
0.0
 74
     0
 49
-0.5
 74
     0
  0
LTYPE
  5
130F
330
5
100
AcDbSymbolTableRecord
100
AcDbLinetypeTableRecord
  2
DOT
 70
     0
  3
Dot . . . . . . . . . . . . . . . . . . . . . .
 72
    65
 73
     2
 40
0.25
 49
0.0
 74
     0
 49
-0.25
 74
     0
  0
LTYPE
  5
1310
330
5
100
AcDbSymbolTableRecord
100
AcDbLinetypeTableRecord
  2
DOT2
 70
     0
  3
Dot (.5x) .....................................
 72
    65
 73
     2
 40
0.125
 49
0.0
 74
     0
 49
-0.125
 74
     0
  0
LTYPE
  5
1311
330
5
100
AcDbSymbolTableRecord
100
AcDbLinetypeTableRecord
  2
DOTX2
 70
     0
  3
Dot (2x) .  .  .  .  .  .  .  .  .  .  .  .  . 
 72
    65
 73
     2
 40
0.5
 49
0.0
 74
     0
 49
-0.5
 74
     0
  0
LTYPE
  5
1312
330
5
100
AcDbSymbolTableRecord
100
AcDbLinetypeTableRecord
  2
GAS_LINE
 70
     0
  3
Gas line ----GAS----GAS----GAS----GAS----GAS---
 72
    65
 73
     3
 40
0.95
 49
0.5
 74
     0
 49
-0.2
 74
     2
 75
     0
340
9A2
 46
0.1
 50
0.0
 44
-0.1
 45
-0.05
  9
GAS
 49
-0.25
 74
     0
  0
LTYPE
  5
1313
330
5
100
AcDbSymbolTableRecord
100
AcDbLinetypeTableRecord
  2
HIDDENX2
 70
     0
  3
Hidden (2x) ____ ____ ____ ____ ____ ____ ____
 72
    65
 73
     2
 40
0.75
 49
0.5
 74
     0
 49
-0.25
 74
     0
  0
LTYPE
  5
1314
330
5
100
AcDbSymbolTableRecord
100
AcDbLinetypeTableRecord
  2
PHANTOM
 70
     0
  3
Phantom ______  __  __  ______  __  __  ______
 72
    65
 73
     6
 40
2.5
 49
1.25
 74
     0
 49
-0.25
 74
     0
 49
0.25
 74
     0
 49
-0.25
 74
     0
 49
0.25
 74
     0
 49
-0.25
 74
     0
  0
LTYPE
  5
1315
330
5
100
AcDbSymbolTableRecord
100
AcDbLinetypeTableRecord
  2
PHANTOMX2
 70
     0
  3
Phantom (2x) ____________    ____    ____   _
 72
    65
 73
     6
 40
5.0
 49
2.5
 74
     0
 49
-0.5
 74
     0
 49
0.5
 74
     0
 49
-0.5
 74
     0
 49
0.5
 74
     0
 49
-0.5
 74
     0
  0
LTYPE
  5
1316
330
5
100
AcDbSymbolTableRecord
100
AcDbLinetypeTableRecord
  2
ZIGZAG
 70
     0
  3
Zig zag /\/\/\/\/\/\/\/\/\/\/\/\/\/\/\/\/\/\/\/
 72
    65
 73
     4
 40
0.8001000000000001
 49
0.0001
 74
     0
 49
-0.2
 74
     4
 75
   131
340
1337
 46
0.2
 50
0.0
 44
-0.2
 45
0.0
 49
-0.4
 74
     4
 75
   131
340
1337
 46
0.2
 50
180.0
 44
0.2
 45
0.0
 49
-0.2
 74
     0
  0
LTYPE
  5
1317
330
5
100
AcDbSymbolTableRecord
100
AcDbLinetypeTableRecord
  2
CPFLEX
 70
     0
  3
CP flex /\/\/\/\/\/\/\/\/\/\/\/\/\/\/\/\/\/\/\/
 72
    65
 73
     4
 40
0.8001000000000001
 49
0.0001
 74
     0
 49
-0.2
 74
     4
 75
   131
340
1337
 46
0.2
 50
0.0
 44
-0.2
 45
0.0
 49
-0.4
 74
     4
 75
   131
340
1337
 46
0.2
 50
180.0
 44
0.2
 45
0.0
 49
-0.2
 74
     0
  0
LTYPE
  5
1318
330
5
100
AcDbSymbolTableRecord
100
AcDbLinetypeTableRecord
  2
CIRC
 70
     0
  3
 ----- ~ ----- ~ ---- ~ -----
 72
    65
 73
     3
 40
9.0
 49
7.0
 74
     0
 49
-1.0
 74
     2
 75
     0
340
9A2
 46
1.0
 50
0.0
 44
-0.3
 45
-0.6
  9
~
 49
-1.0
 74
     0
  0
LTYPE
  5
1319
330
5
100
AcDbSymbolTableRecord
100
AcDbLinetypeTableRecord
  2
BATTING
 70
     0
  3
Batting SSSSSSSSSSSSSSSSSSSSSSSSSSSSSSSSSSSSSSS
 72
    65
 73
     4
 40
0.4001000000000001
 49
0.0001
 74
     0
 49
-0.1
 74
     4
 75
   134
340
1337
 46
0.1
 50
0.0
 44
-0.1
 45
0.0
 49
-0.2
 74
     4
 75
   134
340
1337
 46
0.1
 50
180.0
 44
0.1
 45
0.0
 49
-0.1
 74
     0
  0
LTYPE
  5
131A
330
5
100
AcDbSymbolTableRecord
100
AcDbLinetypeTableRecord
  2
FENCELINE1
 70
     0
  3
Fenceline circle ----0-----0----0-----0----0---
 72
    65
 73
     4
 40
1.45
 49
0.25
 74
     0
 49
-0.1
 74
     4
 75
   133
340
1337
 46
0.1
 50
0.0
 44
-0.1
 45
0.0
 49
-0.1
 74
     0
 49
1.0
 74
     0
  0
LTYPE
  5
131B
330
5
100
AcDbSymbolTableRecord
100
AcDbLinetypeTableRecord
  2
FENCELINE2
 70
     0
  3
Fenceline square ----[]-----[]----[]-----[]----
 72
    65
 73
     4
 40
1.45
 49
0.25
 74
     0
 49
-0.1
 74
     4
 75
   132
340
1337
 46
0.1
 50
0.0
 44
-0.1
 45
0.0
 49
-0.1
 74
     0
 49
1.0
 74
     0
  0
LTYPE
  5
131C
330
5
100
AcDbSymbolTableRecord
100
AcDbLinetypeTableRecord
  2
GETRENNT
 70
     0
  3
Getrennt ____ . . ____ . . ____ . . ____ . . __
 72
    65
 73
     6
 40
1.25
 49
0.5
 74
     0
 49
-0.25
 74
     0
 49
0.0
 74
     0
 49
-0.25
 74
     0
 49
0.0
 74
     0
 49
-0.25
 74
     0
  0
LTYPE
  5
131D
330
5
100
AcDbSymbolTableRecord
100
AcDbLinetypeTableRecord
  2
GETRENNT2
 70
     0
  3
Getrennt (.5x) __..__..__..__..__..__..__..__..
 72
    65
 73
     6
 40
0.625
 49
0.25
 74
     0
 49
-0.125
 74
     0
 49
0.0
 74
     0
 49
-0.125
 74
     0
 49
0.0
 74
     0
 49
-0.125
 74
     0
  0
LTYPE
  5
131E
330
5
100
AcDbSymbolTableRecord
100
AcDbLinetypeTableRecord
  2
GETRENNTX2
 70
     0
  3
Getrennt (2x) ________  .  .  ________  .  .  _
 72
    65
 73
     6
 40
2.5
 49
1.0
 74
     0
 49
-0.5
 74
     0
 49
0.0
 74
     0
 49
-0.5
 74
     0
 49
0.0
 74
     0
 49
-0.5
 74
     0
  0
LTYPE
  5
131F
330
5
100
AcDbSymbolTableRecord
100
AcDbLinetypeTableRecord
  2
HOT_WATER_SUPPLY
 70
     0
  3
Hot water supply ---- HW ---- HW ---- HW ----
 72
    65
 73
     3
 40
0.9
 49
0.5
 74
     0
 49
-0.2
 74
     2
 75
     0
340
9A2
 46
0.1
 50
0.0
 44
-0.1
 45
-0.05
  9
HW
 49
-0.2
 74
     0
  0
LTYPE
  5
1320
330
5
100
AcDbSymbolTableRecord
100
AcDbLinetypeTableRecord
  2
MITTE
 70
     0
  3
Mitte ____ _ ____ _ ____ _ ____ _ ____ _ ____
 72
    65
 73
     4
 40
2.0
 49
1.25
 74
     0
 49
-0.25
 74
     0
 49
0.25
 74
     0
 49
-0.25
 74
     0
  0
LTYPE
  5
1321
330
5
100
AcDbSymbolTableRecord
100
AcDbLinetypeTableRecord
  2
MITTE2
 70
     0
  3
Mitte (.5x) ___ _ ___ _ ___ _ ___ _ ___ _ ___
 72
    65
 73
     4
 40
1.125
 49
0.75
 74
     0
 49
-0.125
 74
     0
 49
0.125
 74
     0
 49
-0.125
 74
     0
  0
LTYPE
  5
1322
330
5
100
AcDbSymbolTableRecord
100
AcDbLinetypeTableRecord
  2
MITTEX2
 70
     0
  3
Mitte (2x) ________  __  ________  __  _____
 72
    65
 73
     4
 40
4.0
 49
2.5
 74
     0
 49
-0.5
 74
     0
 49
0.5
 74
     0
 49
-0.5
 74
     0
  0
LTYPE
  5
1323
330
5
100
AcDbSymbolTableRecord
100
AcDbLinetypeTableRecord
  2
PUNKT
 70
     0
  3
Punkt . . . . . . . . . . . . . . . . . . . . .
 72
    65
 73
     2
 40
0.25
 49
0.0
 74
     0
 49
-0.25
 74
     0
  0
LTYPE
  5
1324
330
5
100
AcDbSymbolTableRecord
100
AcDbLinetypeTableRecord
  2
PUNKT2
 70
     0
  3
Punkt (.5x) ...................................
 72
    65
 73
     2
 40
0.125
 49
0.0
 74
     0
 49
-0.125
 74
     0
  0
LTYPE
  5
1325
330
5
100
AcDbSymbolTableRecord
100
AcDbLinetypeTableRecord
  2
PUNKTX2
 70
     0
  3
Punkt (2x) .  .  .  .  .  .  .  .  .  .  .  .  
 72
    65
 73
     2
 40
0.5
 49
0.0
 74
     0
 49
-0.5
 74
     0
  0
LTYPE
  5
1326
330
5
100
AcDbSymbolTableRecord
100
AcDbLinetypeTableRecord
  2
RAND
 70
     0
  3
Rand __ __ . __ __ . __ __ . __ __ . __ __ .
 72
    65
 73
     6
 40
1.75
 49
0.5
 74
     0
 49
-0.25
 74
     0
 49
0.5
 74
     0
 49
-0.25
 74
     0
 49
0.0
 74
     0
 49
-0.25
 74
     0
  0
LTYPE
  5
1327
330
5
100
AcDbSymbolTableRecord
100
AcDbLinetypeTableRecord
  2
RAND2
 70
     0
  3
Rand (.5x) __.__.__.__.__.__.__.__.__.__.__.
 72
    65
 73
     6
 40
0.875
 49
0.25
 74
     0
 49
-0.125
 74
     0
 49
0.25
 74
     0
 49
-0.125
 74
     0
 49
0.0
 74
     0
 49
-0.125
 74
     0
  0
LTYPE
  5
1328
330
5
100
AcDbSymbolTableRecord
100
AcDbLinetypeTableRecord
  2
RANDX2
 70
     0
  3
Rand (2x) ____  ____  .  ____  ____  .  ___
 72
    65
 73
     6
 40
3.5
 49
1.0
 74
     0
 49
-0.5
 74
     0
 49
1.0
 74
     0
 49
-0.5
 74
     0
 49
0.0
 74
     0
 49
-0.5
 74
     0
  0
LTYPE
  5
1329
330
5
100
AcDbSymbolTableRecord
100
AcDbLinetypeTableRecord
  2
STRICHPUNKT
 70
     0
  3
Strichpunkt __ . __ . __ . __ . __ . __ . __ . 
 72
    65
 73
     4
 40
1.0
 49
0.5
 74
     0
 49
-0.25
 74
     0
 49
0.0
 74
     0
 49
-0.25
 74
     0
  0
LTYPE
  5
132A
330
5
100
AcDbSymbolTableRecord
100
AcDbLinetypeTableRecord
  2
STRICHPUNKT2
 70
     0
  3
Strichpunkt (.5x) _._._._._._._._._._._._._._._
 72
    65
 73
     4
 40
0.5
 49
0.25
 74
     0
 49
-0.125
 74
     0
 49
0.0
 74
     0
 49
-0.125
 74
     0
  0
LTYPE
  5
132B
330
5
100
AcDbSymbolTableRecord
100
AcDbLinetypeTableRecord
  2
STRICHPUNKTX2
 70
     0
  3
Strichpunkt (2x) ____  .  ____  .  ____  .  ___
 72
    65
 73
     4
 40
2.0
 49
1.0
 74
     0
 49
-0.5
 74
     0
 49
0.0
 74
     0
 49
-0.5
 74
     0
  0
LTYPE
  5
132C
330
5
100
AcDbSymbolTableRecord
100
AcDbLinetypeTableRecord
  2
TRACKS
 70
     0
  3
Tracks -|-|-|-|-|-|-|-|-|-|-|-|-|-|-|-|-|-|-|-|
 72
    65
 73
     2
 40
0.3
 49
0.15
 74
     4
 75
   130
340
1337
 46
0.25
 50
0.0
 44
0.0
 45
0.0
 49
0.15
 74
     0
  0
LTYPE
  5
132D
330
5
100
AcDbSymbolTableRecord
100
AcDbLinetypeTableRecord
  2
VERDECKT
 70
     0
  3
Verdeckt __ __ __ __ __ __ __ __ __ __ __ __ __
 72
    65
 73
     2
 40
0.375
 49
0.25
 74
     0
 49
-0.125
 74
     0
  0
LTYPE
  5
132E
330
5
100
AcDbSymbolTableRecord
100
AcDbLinetypeTableRecord
  2
VERDECKT2
 70
     0
  3
Verdeckt (.5x) _ _ _ _ _ _ _ _ _ _ _ _ _ _ _ _ 
 72
    65
 73
     2
 40
0.1875
 49
0.125
 74
     0
 49
-0.0625
 74
     0
  0
LTYPE
  5
132F
330
5
100
AcDbSymbolTableRecord
100
AcDbLinetypeTableRecord
  2
VERDECKTX2
 70
     0
  3
Verdeckt (2x) ____ ____ ____ ____ ____ ____ ___
 72
    65
 73
     2
 40
0.75
 49
0.5
 74
     0
 49
-0.25
 74
     0
  0
LTYPE
  5
1330
330
5
100
AcDbSymbolTableRecord
100
AcDbLinetypeTableRecord
  2
STRICHLINIE
 70
     0
  3
Strichlinie __ __ __ __ __ __ __ __ __ __ __ __
 72
    65
 73
     2
 40
0.75
 49
0.5
 74
     0
 49
-0.25
 74
     0
  0
LTYPE
  5
1331
330
5
100
AcDbSymbolTableRecord
100
AcDbLinetypeTableRecord
  2
STRICHLINIE2
 70
     0
  3
Strichlinie (.5x) _ _ _ _ _ _ _ _ _ _ _ _ _ _ _
 72
    65
 73
     2
 40
0.375
 49
0.25
 74
     0
 49
-0.125
 74
     0
  0
LTYPE
  5
1332
330
5
100
AcDbSymbolTableRecord
100
AcDbLinetypeTableRecord
  2
STRICHLINIEX2
 70
     0
  3
Strichlinie (2x) ____  ____  ____  ____  ____  
 72
    65
 73
     2
 40
1.5
 49
1.0
 74
     0
 49
-0.5
 74
     0
  0
ENDTAB
  0
TABLE
  2
LAYER
  5
2
102
{ACAD_XDICTIONARY
360
C9C
102
}
330
0
100
AcDbSymbolTable
 70
    13
  0
LAYER
  5
10
102
{ACAD_XDICTIONARY
360
F68
102
}
330
2
100
AcDbSymbolTableRecord
100
AcDbLayerTableRecord
  2
0
 70
     0
 62
     7
  6
CONTINUOUS
370
    -3
390
F
  0
LAYER
  5
28
330
2
100
AcDbSymbolTableRecord
100
AcDbLayerTableRecord
  2
DEFPOINTS
 70
     0
 62
    -7
  6
CONTINUOUS
290
     0
370
    -3
390
F
  0
LAYER
  5
B6E
102
{ACAD_XDICTIONARY
360
B6F
102
}
330
2
100
AcDbSymbolTableRecord
100
AcDbLayerTableRecord
  2
AM_2 ( Kontur 0.25)
 70
     0
 62
     5
  6
CONTINUOUS
370
    25
390
F
1001
AcAecLayerStandard
1000

1000

  0
LAYER
  5
C9B
102
{ACAD_XDICTIONARY
360
F7E
102
}
330
2
100
AcDbSymbolTableRecord
100
AcDbLayerTableRecord
  2
AM_0 ( Kontur 0.5 )
 70
     0
 62
     7
  6
CONTINUOUS
370
    50
390
F
1001
AcAecLayerStandard
1000

1000

  0
LAYER
  5
CC3
102
{ACAD_XDICTIONARY
360
F80
102
}
330
2
100
AcDbSymbolTableRecord
100
AcDbLayerTableRecord
  2
AM_7 (Mittellinie)
 70
     0
 62
     4
  6
AM_ISO08W050
370
    25
390
F
1001
AcAecLayerStandard
1000

1000

  0
LAYER
  5
CC6
102
{ACAD_XDICTIONARY
360
F82
102
}
330
2
100
AcDbSymbolTableRecord
100
AcDbLayerTableRecord
  2
AM_3 ( Verdeckt )
 70
     0
 62
     6
  6
AM_ISO02W050
370
    25
390
F
1001
AcAecLayerStandard
1000

1000

  0
LAYER
  5
CC9
102
{ACAD_XDICTIONARY
360
F84
102
}
330
2
100
AcDbSymbolTableRecord
100
AcDbLayerTableRecord
  2
AM_5 ( Bemassung)
 70
     0
 62
     3
  6
CONTINUOUS
370
    25
390
F
1001
AcAecLayerStandard
1000

1000

  0
LAYER
  5
1016
330
2
100
AcDbSymbolTableRecord
100
AcDbLayerTableRecord
  2
AM_3
 70
     0
 62
     6
  6
HIDDEN
370
    15
390
F
1001
AcAecLayerStandard
1000

1000

  0
LAYER
  5
125D
330
2
100
AcDbSymbolTableRecord
100
AcDbLayerTableRecord
  2
AM_12 ( Teile Referenz)
 70
     0
 62
     7
  6
CONTINUOUS
290
     0
370
    50
390
F
1001
AcAecLayerStandard
1000

1000

  0
LAYER
  5
125E
330
2
100
AcDbSymbolTableRecord
100
AcDbLayerTableRecord
  2
AM_PAREF ( Teilereferenz)
 70
     0
 62
     4
  6
CONTINUOUS
290
     0
370
    25
390
F
1001
AcAecLayerStandard
1000

1000

  0
LAYER
  5
1333
330
2
100
AcDbSymbolTableRecord
100
AcDbLayerTableRecord
  2
CP_TEXTNORM
 70
     0
 62
    53
  6
CONTINUOUS
370
    -3
390
F
  0
LAYER
  5
1334
330
2
100
AcDbSymbolTableRecord
100
AcDbLayerTableRecord
  2
CP_DIM
 70
     0
 62
   173
  6
CONTINUOUS
370
    -3
390
F
  0
LAYER
  5
1335
330
2
100
AcDbSymbolTableRecord
100
AcDbLayerTableRecord
  2
CP_TEXTBOLD
 70
     0
 62
   175
  6
CONTINUOUS
370
    -3
390
F
  0
ENDTAB
  0
TABLE
  2
STYLE
  5
3
330
0
100
AcDbSymbolTable
 70
    15
  0
STYLE
  5
11
330
3
100
AcDbSymbolTableRecord
100
AcDbTextStyleTableRecord
  2
AUDIT_I_060331094926-0
 70
     0
 40
0.0
 41
1.0
 50
0.0
 71
     0
 42
0.0
  3
@Arial Unicode MS
  4

  0
STYLE
  5
9A2
330
3
100
AcDbSymbolTableRecord
100
AcDbTextStyleTableRecord
  2
STANDARD
 70
     0
 40
0.0
 41
1.0
 50
0.0
 71
     0
 42
3.5
  3
ARIAL.TTF
  4

1001
ACAD
1000
Arial
1071
       34
  0
STYLE
  5
A81
330
3
100
AcDbSymbolTableRecord
100
AcDbTextStyleTableRecord
  2
ACANSTS
 70
     0
 40
1.0
 41
1.0
 50
0.0
 71
     0
 42
3.5
  3
romans.shx
  4

  0
STYLE
  5
A8F
330
3
100
AcDbSymbolTableRecord
100
AcDbTextStyleTableRecord
  2
ACANSGDT
 70
     0
 40
0.0
 41
1.0
 50
0.0
 71
     0
 42
3.5
  3
amgdt.shx
  4

  0
STYLE
  5
B04
330
3
100
AcDbSymbolTableRecord
100
AcDbTextStyleTableRecord
  2

 70
     1
 40
0.0
 41
1.0
 50
0.0
 71
     0
 42
2.5
  3
genltshp.shx
  4

  0
STYLE
  5
B15
330
3
100
AcDbSymbolTableRecord
100
AcDbTextStyleTableRecord
  2
ACDINTS
 70
     0
 40
1.0
 41
1.0
 50
0.0
 71
     0
 42
3.5
  3
isocp.shx
  4

  0
STYLE
  5
B19
330
3
100
AcDbSymbolTableRecord
100
AcDbTextStyleTableRecord
  2
ACDINGDT
 70
     0
 40
0.0
 41
1.0
 50
0.0
 71
     0
 42
3.5
  3
amgdt.shx
  4

  0
STYLE
  5
B3F
330
3
100
AcDbSymbolTableRecord
100
AcDbTextStyleTableRecord
  2
ACISOTS
 70
     0
 40
1.0
 41
1.0
 50
0.0
 71
     0
 42
2.5
  3
ARIALN.TTF
  4

1001
ACAD
1000
Arial Narrow
1071
       34
  0
STYLE
  5
B43
330
3
100
AcDbSymbolTableRecord
100
AcDbTextStyleTableRecord
  2
ACISOGDT
 70
     0
 40
0.0
 41
1.0
 50
0.0
 71
     0
 42
2.5
  3
amgdt.shx
  4

  0
STYLE
  5
1336
330
3
100
AcDbSymbolTableRecord
100
AcDbTextStyleTableRecord
  2
CP_TXT
 70
     0
 40
0.0
 41
1.0
 50
0.0
 71
     0
 42
2.5
  3
ROMANS.SHX
  4

  0
STYLE
  5
1337
330
3
100
AcDbSymbolTableRecord
100
AcDbTextStyleTableRecord
  2

 70
     1
 40
0.0
 41
1.0
 50
0.0
 71
     0
 42
2.5
  3
LTYPESHP.SHX
  4

  0
STYLE
  5
1338
330
3
100
AcDbSymbolTableRecord
100
AcDbTextStyleTableRecord
  2
CP_ATTR
 70
     0
 40
0.0
 41
1.0
 50
0.0
 71
     0
 42
0.2
  3
ROMANS.SHX
  4

  0
STYLE
  5
1339
330
3
100
AcDbSymbolTableRecord
100
AcDbTextStyleTableRecord
  2
CP_TXT_IT
 70
     0
 40
0.0
 41
1.0
 50
15.0
 71
     0
 42
2.5
  3
ROMANS.SHX
  4

  0
STYLE
  5
133A
330
3
100
AcDbSymbolTableRecord
100
AcDbTextStyleTableRecord
  2
CP_TXTCON
 70
     0
 40
0.0
 41
0.8
 50
0.0
 71
     0
 42
2.5
  3
ROMANS.SHX
  4

  0
STYLE
  5
133B
330
3
100
AcDbSymbolTableRecord
100
AcDbTextStyleTableRecord
  2
CP_TXTCON_IT
 70
     0
 40
0.0
 41
0.8
 50
15.0
 71
     0
 42
2.5
  3
ROMANS.SHX
  4

  0
ENDTAB
  0
TABLE
  2
VIEW
  5
6
330
0
100
AcDbSymbolTable
 70
     0
  0
ENDTAB
  0
TABLE
  2
UCS
  5
7
330
0
100
AcDbSymbolTable
 70
     0
  0
ENDTAB
  0
TABLE
  2
APPID
  5
9
330
0
100
AcDbSymbolTable
 70
    66
  0
APPID
  5
12
330
9
100
AcDbSymbolTableRecord
100
AcDbRegAppTableRecord
  2
ACAD
 70
     0
  0
APPID
  5
A15
330
9
100
AcDbSymbolTableRecord
100
AcDbRegAppTableRecord
  2
ACAD_MLEADERVER
 70
     0
  0
APPID
  5
A1E
330
9
100
AcDbSymbolTableRecord
100
AcDbRegAppTableRecord
  2
MCAD_NO_VIS
 70
     0
  0
APPID
  5
A1F
330
9
100
AcDbSymbolTableRecord
100
AcDbRegAppTableRecord
  2
ACAD_TEMP_GRAPHIC
 70
     0
  0
APPID
  5
A4E
330
9
100
AcDbSymbolTableRecord
100
AcDbRegAppTableRecord
  2
AD_DRAW
 70
     0
  0
APPID
  5
A51
330
9
100
AcDbSymbolTableRecord
100
AcDbRegAppTableRecord
  2
ACATTRIBSERVICES
 70
     0
  0
APPID
  5
A72
330
9
100
AcDbSymbolTableRecord
100
AcDbRegAppTableRecord
  2
DESIGNERASSEMBLIES
 70
     0
  0
APPID
  5
A78
330
9
100
AcDbSymbolTableRecord
100
AcDbRegAppTableRecord
  2
ACADM_DIM_EDIT
 70
     0
  0
APPID
  5
A79
330
9
100
AcDbSymbolTableRecord
100
AcDbRegAppTableRecord
  2
AMDT_DM_ADJ
 70
     0
  0
APPID
  5
AA8
330
9
100
AcDbSymbolTableRecord
100
AcDbRegAppTableRecord
  2
AcadAnnotative
 70
     0
  0
APPID
  5
AA9
330
9
100
AcDbSymbolTableRecord
100
AcDbRegAppTableRecord
  2
ACAD_DSTYLE_DIMARC_LENGTH_SYMBOL
 70
     0
  0
APPID
  5
AAA
330
9
100
AcDbSymbolTableRecord
100
AcDbRegAppTableRecord
  2
AcAecLayerStandard
 70
     0
  0
APPID
  5
AAB
330
9
100
AcDbSymbolTableRecord
100
AcDbRegAppTableRecord
  2
ACAD_DSTYLE_DIMJOGGED_JOGANGLE_SYMBOL
 70
     0
  0
APPID
  5
AAC
330
9
100
AcDbSymbolTableRecord
100
AcDbRegAppTableRecord
  2
AcadAnnoPO
 70
     0
  0
APPID
  5
AAD
330
9
100
AcDbSymbolTableRecord
100
AcDbRegAppTableRecord
  2
ACAD_EXEMPT_FROM_CAD_STANDARDS
 70
     0
  0
APPID
  5
AAE
330
9
100
AcDbSymbolTableRecord
100
AcDbRegAppTableRecord
  2
GENIUS_GENODEF_13
 70
     0
  0
APPID
  5
AAF
330
9
100
AcDbSymbolTableRecord
100
AcDbRegAppTableRecord
  2
GENIUS_GENOBJ-N-CRS_13
 70
     0
  0
APPID
  5
AB0
330
9
100
AcDbSymbolTableRecord
100
AcDbRegAppTableRecord
  2
GENIUS_GENOENT_13
 70
     0
  0
APPID
  5
AB1
330
9
100
AcDbSymbolTableRecord
100
AcDbRegAppTableRecord
  2
GENIUS_GENOLIS_13
 70
     0
  0
APPID
  5
AB2
330
9
100
AcDbSymbolTableRecord
100
AcDbRegAppTableRecord
  2
GENIUS_GENOREF_13
 70
     0
  0
APPID
  5
AB3
330
9
100
AcDbSymbolTableRecord
100
AcDbRegAppTableRecord
  2
GEVID1190879659
 70
     0
  0
APPID
  5
AB4
330
9
100
AcDbSymbolTableRecord
100
AcDbRegAppTableRecord
  2
GEVDC
 70
     0
  0
APPID
  5
AB5
330
9
100
AcDbSymbolTableRecord
100
AcDbRegAppTableRecord
  2
GENIUS_GENBH_13
 70
     0
  0
APPID
  5
AB6
330
9
100
AcDbSymbolTableRecord
100
AcDbRegAppTableRecord
  2
GENIUS_GENOBJ-NBEHI-BHF_13
 70
     0
  0
APPID
  5
AB7
330
9
100
AcDbSymbolTableRecord
100
AcDbRegAppTableRecord
  2
GENIUS_GENOBJ-NBEHI-BHB_13
 70
     0
  0
APPID
  5
AB8
330
9
100
AcDbSymbolTableRecord
100
AcDbRegAppTableRecord
  2
GEVID1190879660
 70
     0
  0
APPID
  5
AB9
330
9
100
AcDbSymbolTableRecord
100
AcDbRegAppTableRecord
  2
GEVID1190879661
 70
     0
  0
APPID
  5
ABA
330
9
100
AcDbSymbolTableRecord
100
AcDbRegAppTableRecord
  2
ACAD_DSTYLE_DIMRADIAL_EXTENSION
 70
     0
  0
APPID
  5
ABB
330
9
100
AcDbSymbolTableRecord
100
AcDbRegAppTableRecord
  2
GEVID1190879662
 70
     0
  0
APPID
  5
ABC
330
9
100
AcDbSymbolTableRecord
100
AcDbRegAppTableRecord
  2
GEVID1190879663
 70
     0
  0
APPID
  5
ABD
330
9
100
AcDbSymbolTableRecord
100
AcDbRegAppTableRecord
  2
GEVID1190879664
 70
     0
  0
APPID
  5
ABE
330
9
100
AcDbSymbolTableRecord
100
AcDbRegAppTableRecord
  2
GEVID1190879665
 70
     0
  0
APPID
  5
ABF
330
9
100
AcDbSymbolTableRecord
100
AcDbRegAppTableRecord
  2
GEVID1190879666
 70
     0
  0
APPID
  5
AC0
330
9
100
AcDbSymbolTableRecord
100
AcDbRegAppTableRecord
  2
GENIUS_GENOBJ-N-CEN_13
 70
     0
  0
APPID
  5
AC1
330
9
100
AcDbSymbolTableRecord
100
AcDbRegAppTableRecord
  2
GENIUS_GENCEN_19
 70
     0
  0
APPID
  5
AC2
330
9
100
AcDbSymbolTableRecord
100
AcDbRegAppTableRecord
  2
GEVID1190879667
 70
     0
  0
APPID
  5
AC3
330
9
100
AcDbSymbolTableRecord
100
AcDbRegAppTableRecord
  2
GENIUS_GENOBJ-N-CRC_13
 70
     0
  0
APPID
  5
AC4
330
9
100
AcDbSymbolTableRecord
100
AcDbRegAppTableRecord
  2
GENIUS_GENCRC_14
 70
     0
  0
APPID
  5
AC5
330
9
100
AcDbSymbolTableRecord
100
AcDbRegAppTableRecord
  2
ACAD_PSEXT
 70
     0
  0
APPID
  5
AC6
330
9
100
AcDbSymbolTableRecord
100
AcDbRegAppTableRecord
  2
GEVID1190888456
 70
     0
  0
APPID
  5
AC7
330
9
100
AcDbSymbolTableRecord
100
AcDbRegAppTableRecord
  2
GEVID1190888457
 70
     0
  0
APPID
  5
AC8
330
9
100
AcDbSymbolTableRecord
100
AcDbRegAppTableRecord
  2
GEVID1190888458
 70
     0
  0
APPID
  5
AC9
330
9
100
AcDbSymbolTableRecord
100
AcDbRegAppTableRecord
  2
GEVID1190888459
 70
     0
  0
APPID
  5
ACA
330
9
100
AcDbSymbolTableRecord
100
AcDbRegAppTableRecord
  2
GEVID1190888460
 70
     0
  0
APPID
  5
ACB
330
9
100
AcDbSymbolTableRecord
100
AcDbRegAppTableRecord
  2
GEVID1190888461
 70
     0
  0
APPID
  5
ACC
330
9
100
AcDbSymbolTableRecord
100
AcDbRegAppTableRecord
  2
GEVID1190888462
 70
     0
  0
APPID
  5
ACD
330
9
100
AcDbSymbolTableRecord
100
AcDbRegAppTableRecord
  2
ACAD_DSTYLE_DIMJAG
 70
     0
  0
APPID
  5
ACE
330
9
100
AcDbSymbolTableRecord
100
AcDbRegAppTableRecord
  2
ACAD_DSTYLE_DIMTALN
 70
     0
  0
APPID
  5
ACF
330
9
100
AcDbSymbolTableRecord
100
AcDbRegAppTableRecord
  2
GENIUS_GENBLLY_14
 70
     0
  0
APPID
  5
AD0
330
9
100
AcDbSymbolTableRecord
100
AcDbRegAppTableRecord
  2
DCO15
 70
     0
  0
APPID
  5
AD1
330
9
100
AcDbSymbolTableRecord
100
AcDbRegAppTableRecord
  2
GENIUS_GENREC_14
 70
     0
  0
APPID
  5
AD2
330
9
100
AcDbSymbolTableRecord
100
AcDbRegAppTableRecord
  2
GENIUS_GENOBJ-N-REC_13
 70
     0
  0
APPID
  5
AD3
330
9
100
AcDbSymbolTableRecord
100
AcDbRegAppTableRecord
  2
GENIUS_GENOBJ-N-TIT_13
 70
     0
  0
APPID
  5
AD4
330
9
100
AcDbSymbolTableRecord
100
AcDbRegAppTableRecord
  2
GENIUS_GENTITLE_13
 70
     0
  0
APPID
  5
AD5
330
9
100
AcDbSymbolTableRecord
100
AcDbRegAppTableRecord
  2
GENIUS_GENSCREG_15
 70
     0
  0
APPID
  5
AD6
330
9
100
AcDbSymbolTableRecord
100
AcDbRegAppTableRecord
  2
GENIUS_GENOBJ-N-SDF_13
 70
     0
  0
APPID
  5
AD7
330
9
100
AcDbSymbolTableRecord
100
AcDbRegAppTableRecord
  2
ACAD_DSTYLE_DIMINSPECT
 70
     0
  0
APPID
  5
AD8
330
9
100
AcDbSymbolTableRecord
100
AcDbRegAppTableRecord
  2
GENIUS_GENDIMSH_14
 70
     0
  0
APPID
  5
AD9
330
9
100
AcDbSymbolTableRecord
100
AcDbRegAppTableRecord
  2
GENIUS_GENOBJ-N-HTC_13
 70
     0
  0
APPID
  5
ADA
330
9
100
AcDbSymbolTableRecord
100
AcDbRegAppTableRecord
  2
GENIUS_GENHATCH_13
 70
     0
  0
APPID
  5
ADB
330
9
100
AcDbSymbolTableRecord
100
AcDbRegAppTableRecord
  2
ACAUTHENVIRON
 70
     0
  0
APPID
  5
ADC
330
9
100
AcDbSymbolTableRecord
100
AcDbRegAppTableRecord
  2
AcDbDynamicBlockTrueName
 70
     0
  0
APPID
  5
ADD
330
9
100
AcDbSymbolTableRecord
100
AcDbRegAppTableRecord
  2
AcDbDynamicBlockGUID
 70
     0
  0
APPID
  5
ADE
330
9
100
AcDbSymbolTableRecord
100
AcDbRegAppTableRecord
  2
ACDBBLOCKREPETAG
 70
     0
  0
APPID
  5
B71
330
9
100
AcDbSymbolTableRecord
100
AcDbRegAppTableRecord
  2
GENIUS_GENTRA_14
 70
     0
  0
APPID
  5
DA2
330
9
100
AcDbSymbolTableRecord
100
AcDbRegAppTableRecord
  2
GENIUS_GENDTOL_13
 70
     0
  0
ENDTAB
  0
TABLE
  2
DIMSTYLE
  5
A
330
0
100
AcDbSymbolTable
 70
    31
100
AcDbDimStyleTable
 71
     3
340
B33
340
A9C
340
730
  0
DIMSTYLE
105
730
330
A
100
AcDbSymbolTableRecord
100
AcDbDimStyleTableRecord
  2
Standard
 70
     0
340
11
  0
DIMSTYLE
105
A9C
330
A
100
AcDbSymbolTableRecord
100
AcDbDimStyleTableRecord
  2
AM_ANSI
 70
     0
  4
mm
 41
0.1
 42
0.05
 43
0.5
 44
0.1
 47
0.1
 48
0.1
 78
     7
 79
     2
140
0.12
141
0.0
146
0.71
147
0.06
176
   256
177
   256
178
     2
274
     4
284
     7
340
11
371
    -1
372
    -1
1001
ACAD_DSTYLE_DIMARC_LENGTH_SYMBOL
1070
   379
1070
     1
  0
DIMSTYLE
105
A9D
330
A
100
AcDbSymbolTableRecord
100
AcDbDimStyleTableRecord
  2
AM_ANSI$3
 70
     0
  4
mm
 41
0.1
 42
0.05
 43
0.5
 44
0.1
 47
0.1
 48
0.1
 78
     7
 79
     2
140
0.12
141
0.0
146
0.71
147
0.06
176
   256
177
   256
178
     2
274
     4
284
     7
288
     1
289
     0
340
11
371
    -1
372
    -1
1001
ACAD_DSTYLE_DIMARC_LENGTH_SYMBOL
1070
   379
1070
     1
  0
DIMSTYLE
105
A9E
330
A
100
AcDbSymbolTableRecord
100
AcDbDimStyleTableRecord
  2
AM_ANSI$4
 70
     0
  4
mm
 41
0.1
 42
0.05
 43
0.5
 44
0.1
 47
0.1
 48
0.1
 78
     7
 79
     2
140
0.12
141
0.0
146
0.71
147
0.06
176
   256
177
   256
178
     2
274
     4
284
     7
288
     1
289
     0
340
11
371
    -1
372
    -1
1001
ACAD_DSTYLE_DIMARC_LENGTH_SYMBOL
1070
   379
1070
     1
  0
DIMSTYLE
105
A9F
330
A
100
AcDbSymbolTableRecord
100
AcDbDimStyleTableRecord
  2
AM_ANSI$7
 70
     0
  4
mm
 41
0.1
 42
0.05
 43
0.5
 44
0.1
 47
0.1
 48
0.1
 78
     7
 79
     2
140
0.24
141
0.0
146
0.71
147
0.06
176
   256
177
   256
178
     2
274
     4
284
     7
340
11
371
    -1
372
    -1
1001
ACAD_DSTYLE_DIMARC_LENGTH_SYMBOL
1070
   379
1070
     1
  0
DIMSTYLE
105
AA0
330
A
100
AcDbSymbolTableRecord
100
AcDbDimStyleTableRecord
  2
AM_ANSI$SF
 70
     0
  4
mm
 41
0.1
 42
0.05
 43
0.5
 44
0.1
 47
0.1
 48
0.1
 75
     1
 76
     1
 78
     7
 79
     2
140
0.12
141
0.0
146
0.71
147
0.06
176
   256
177
   256
178
     2
274
     4
284
     7
340
11
371
    -1
372
    -1
1001
ACAD_DSTYLE_DIMARC_LENGTH_SYMBOL
1070
   379
1070
     1
  0
DIMSTYLE
105
AA5
330
A
100
AcDbSymbolTableRecord
100
AcDbDimStyleTableRecord
  2
AM_ANSI$SH
 70
     0
  4
mm
 41
0.1
 42
0.05
 43
0.5
 44
0.1
 47
0.1
 48
0.1
 75
     1
 76
     1
 78
     7
 79
     2
140
0.12
141
0.0
146
0.71
147
0.06
173
     1
176
   256
177
   256
178
     2
274
     4
284
     7
340
11
343
AA1
371
    -1
372
    -1
1001
ACAD_DSTYLE_DIMARC_LENGTH_SYMBOL
1070
   379
1070
     1
  0
DIMSTYLE
105
B33
330
A
100
AcDbSymbolTableRecord
100
AcDbDimStyleTableRecord
  2
AM_DIN
 70
     0
  4
"
 41
5.0
 42
1.0
 43
10.0
 44
1.0
 47
0.1
 48
0.1
 73
     0
 74
     0
 77
     1
 78
     8
 79
     2
140
5.0
141
0.0
143
0.0393701
146
0.71
147
1.5
172
     1
176
   256
177
   256
178
     2
271
     2
272
     2
283
     0
284
     8
340
11
371
    -1
372
    -1
1001
ACAD_DSTYLE_DIMJOGGED_JOGANGLE_SYMBOL
1070
   384
1040
1.570796326794896
  0
DIMSTYLE
105
B34
102
{ACAD_REACTORS
330
71B
330
71D
330
D69
330
EC4
330
71A
330
1034
330
CCB
102
}
330
A
100
AcDbSymbolTableRecord
100
AcDbDimStyleTableRecord
  2
AM_DIN$0
 70
     0
  4
"
 41
4.0
 42
0.0
 43
10.0
 44
1.0
 47
0.1
 48
0.1
 73
     0
 74
     0
 77
     1
 78
     8
 79
     2
140
3.5
141
0.0
143
0.0393701
146
0.71
147
1.5
172
     1
176
   256
177
   256
178
     2
271
     2
272
     2
283
     0
284
     8
340
11
371
    -1
372
    -1
1001
ACAD_DSTYLE_DIMJOGGED_JOGANGLE_SYMBOL
1070
   384
1040
1.570796326794896
  0
DIMSTYLE
105
B35
102
{ACAD_REACTORS
330
E32
330
DF6
102
}
330
A
100
AcDbSymbolTableRecord
100
AcDbDimStyleTableRecord
  2
AM_DIN$2
 70
     0
  4
"
 41
4.0
 42
0.0
 43
10.0
 44
1.0
 47
0.1
 48
0.1
 73
     0
 74
     0
 77
     1
 78
     8
 79
     2
140
3.5
141
0.0
143
0.0393701
146
0.71
147
1.5
172
     1
176
   256
177
   256
178
     2
271
     2
272
     2
283
     0
284
     8
340
11
371
    -1
372
    -1
1001
ACAD_DSTYLE_DIMJOGGED_JOGANGLE_SYMBOL
1070
   384
1040
1.570796326794896
  0
DIMSTYLE
105
B36
330
A
100
AcDbSymbolTableRecord
100
AcDbDimStyleTableRecord
  2
AM_DIN$3
 70
     0
  4
"
 41
3.5
 42
1.0
 43
10.0
 44
1.0
 47
0.1
 48
0.1
 73
     0
 77
     1
 78
     8
 79
     2
140
3.5
141
0.0
143
0.0393701
146
0.71
147
1.5
176
   256
177
   256
178
     2
271
     2
272
     2
283
     0
284
     8
288
     1
289
     0
340
11
371
    -1
372
    -1
1001
ACAD_DSTYLE_DIMJOGGED_JOGANGLE_SYMBOL
1070
   384
1040
1.570796326794896
  0
DIMSTYLE
105
B37
330
A
100
AcDbSymbolTableRecord
100
AcDbDimStyleTableRecord
  2
AM_DIN$4
 70
     0
  4
"
 41
4.0
 42
1.0
 43
10.0
 44
1.0
 47
0.1
 48
0.1
 73
     0
 77
     1
 78
     8
 79
     2
140
3.5
141
0.0
143
0.0393701
146
0.71
147
1.5
176
   256
177
   256
178
     2
271
     2
272
     2
283
     0
284
     8
288
     1
289
     0
340
11
371
    -1
372
    -1
1001
ACAD_DSTYLE_DIMJOGGED_JOGANGLE_SYMBOL
1070
   384
1040
1.570796326794896
  0
DIMSTYLE
105
B38
330
A
100
AcDbSymbolTableRecord
100
AcDbDimStyleTableRecord
  2
AM_DIN$6
 70
     0
  4
"
 41
4.0
 42
0.0
 43
10.0
 44
1.0
 47
0.1
 48
0.1
 73
     0
 74
     0
 78
     8
 79
     2
140
3.5
141
0.0
143
0.0393701
146
0.71
147
1.5
172
     1
176
   256
177
   256
178
     2
271
     2
272
     2
283
     0
284
     8
340
11
371
    -1
372
    -1
1001
ACAD_DSTYLE_DIMJOGGED_JOGANGLE_SYMBOL
1070
   384
1040
1.570796326794896
  0
DIMSTYLE
105
B39
330
A
100
AcDbSymbolTableRecord
100
AcDbDimStyleTableRecord
  2
AM_DIN$7
 70
     0
  4
"
 41
5.0
 42
1.0
 43
10.0
 44
1.0
 47
0.1
 48
0.1
 73
     0
 74
     0
 77
     1
 78
     8
 79
     2
140
5.0
141
0.0
143
0.0393701
146
0.71
147
1.5
172
     1
176
   256
177
   256
178
     2
271
     2
272
     2
283
     0
284
     8
340
11
371
    -1
372
    -1
1001
ACAD_DSTYLE_DIMJOGGED_JOGANGLE_SYMBOL
1070
   384
1040
1.570796326794896
  0
DIMSTYLE
105
B3A
330
A
100
AcDbSymbolTableRecord
100
AcDbDimStyleTableRecord
  2
AM_DIN$SF
 70
     0
  4
"
 41
4.0
 42
1.0
 43
10.0
 44
1.0
 47
0.1
 48
0.1
 73
     0
 74
     0
 75
     1
 76
     1
 77
     1
 78
     8
 79
     2
140
3.5
141
0.0
143
0.0393701
146
0.71
147
1.5
172
     1
176
   256
177
   256
178
     2
271
     2
272
     2
283
     0
284
     8
340
11
371
    -1
372
    -1
1001
ACAD_DSTYLE_DIMJOGGED_JOGANGLE_SYMBOL
1070
   384
1040
1.570796326794896
  0
DIMSTYLE
105
B3B
330
A
100
AcDbSymbolTableRecord
100
AcDbDimStyleTableRecord
  2
AM_DIN$SH
 70
     0
  4
"
 41
4.0
 42
1.0
 43
10.0
 44
1.0
 47
0.1
 48
0.1
 73
     0
 74
     0
 75
     1
 76
     1
 77
     1
 78
     8
 79
     2
140
3.5
141
0.0
143
0.0393701
144
2.0
146
0.71
147
1.5
172
     1
173
     1
176
   256
177
   256
178
     2
271
     2
272
     2
283
     0
284
     8
340
11
343
AA1
371
    -1
372
    -1
1001
ACAD_DSTYLE_DIMJOGGED_JOGANGLE_SYMBOL
1070
   384
1040
1.570796326794896
  0
DIMSTYLE
105
B57
330
A
100
AcDbSymbolTableRecord
100
AcDbDimStyleTableRecord
  2
AM_ISO
 70
     0
  4
"
 41
2.5
 42
1.0
 43
10.0
 44
1.0
 47
0.1
 48
0.1
 73
     0
 74
     0
 77
     1
 78
     8
 79
     2
140
3.5
141
0.0
143
0.0393701
146
0.71
147
1.5
172
     1
176
   256
177
   256
178
     2
271
     2
272
     3
274
     4
283
     0
284
     8
340
11
371
    -1
372
    -1
1001
ACAD_DSTYLE_DIMJOGGED_JOGANGLE_SYMBOL
1070
   384
1040
0.7853981633974483
1001
ACAD_DSTYLE_DIMARC_LENGTH_SYMBOL
1070
   379
1070
     1
  0
DIMSTYLE
105
B58
330
A
100
AcDbSymbolTableRecord
100
AcDbDimStyleTableRecord
  2
AM_ISO$3
 70
     0
  4
"
 41
2.5
 42
1.0
 43
10.0
 44
1.0
 47
0.1
 48
0.1
 73
     0
 77
     1
 78
     8
 79
     2
140
3.5
141
0.0
143
0.0393701
146
0.71
147
1.5
176
   256
177
   256
178
     2
271
     2
272
     3
274
     4
283
     0
284
     8
288
     1
289
     0
340
11
371
    -1
372
    -1
1001
ACAD_DSTYLE_DIMJOGGED_JOGANGLE_SYMBOL
1070
   384
1040
0.7853981633974483
1001
ACAD_DSTYLE_DIMARC_LENGTH_SYMBOL
1070
   379
1070
     1
  0
DIMSTYLE
105
B59
330
A
100
AcDbSymbolTableRecord
100
AcDbDimStyleTableRecord
  2
AM_ISO$4
 70
     0
  4
"
 41
2.5
 42
1.0
 43
10.0
 44
1.0
 47
0.1
 48
0.1
 73
     0
 77
     1
 78
     8
 79
     2
140
3.5
141
0.0
143
0.0393701
146
0.71
147
1.5
176
   256
177
   256
178
     2
271
     2
272
     3
274
     4
283
     0
284
     8
288
     1
289
     0
340
11
371
    -1
372
    -1
1001
ACAD_DSTYLE_DIMJOGGED_JOGANGLE_SYMBOL
1070
   384
1040
0.7853981633974483
1001
ACAD_DSTYLE_DIMARC_LENGTH_SYMBOL
1070
   379
1070
     1
  0
DIMSTYLE
105
B5A
330
A
100
AcDbSymbolTableRecord
100
AcDbDimStyleTableRecord
  2
AM_ISO$6
 70
     0
  4
"
 41
2.5
 42
1.0
 43
10.0
 44
1.0
 47
0.1
 48
0.1
 73
     0
 74
     0
 78
     8
 79
     2
140
3.5
141
0.0
143
0.0393701
146
0.71
147
1.5
172
     1
176
   256
177
   256
178
     2
271
     2
272
     3
274
     4
283
     0
284
     8
340
11
371
    -1
372
    -1
1001
ACAD_DSTYLE_DIMJOGGED_JOGANGLE_SYMBOL
1070
   384
1040
0.7853981633974483
1001
ACAD_DSTYLE_DIMARC_LENGTH_SYMBOL
1070
   379
1070
     1
  0
DIMSTYLE
105
B5B
330
A
100
AcDbSymbolTableRecord
100
AcDbDimStyleTableRecord
  2
AM_ISO$7
 70
     0
  4
"
 41
2.5
 42
1.0
 43
10.0
 44
1.0
 47
0.1
 48
0.1
 73
     0
 74
     0
 77
     1
 78
     8
 79
     2
140
5.0
141
0.0
143
0.0393701
146
0.71
147
1.5
172
     1
176
   256
177
   256
178
     2
271
     2
272
     3
274
     4
283
     0
284
     8
340
11
371
    -1
372
    -1
1001
ACAD_DSTYLE_DIMJOGGED_JOGANGLE_SYMBOL
1070
   384
1040
0.7853981633974483
1001
ACAD_DSTYLE_DIMARC_LENGTH_SYMBOL
1070
   379
1070
     1
  0
DIMSTYLE
105
B5C
330
A
100
AcDbSymbolTableRecord
100
AcDbDimStyleTableRecord
  2
AM_ISO$SF
 70
     0
  4
"
 41
2.5
 42
1.0
 43
10.0
 44
1.0
 47
0.1
 48
0.1
 73
     0
 74
     0
 75
     1
 76
     1
 77
     1
 78
     8
 79
     2
140
3.5
141
0.0
143
0.0393701
146
0.71
147
1.5
172
     1
176
   256
177
   256
178
     2
271
     2
272
     3
274
     4
283
     0
284
     8
340
11
371
    -1
372
    -1
1001
ACAD_DSTYLE_DIMJOGGED_JOGANGLE_SYMBOL
1070
   384
1040
0.7853981633974483
1001
ACAD_DSTYLE_DIMARC_LENGTH_SYMBOL
1070
   379
1070
     1
  0
DIMSTYLE
105
B5D
330
A
100
AcDbSymbolTableRecord
100
AcDbDimStyleTableRecord
  2
AM_ISO$SH
 70
     0
  4
"
 41
2.5
 42
1.0
 43
10.0
 44
1.0
 47
0.1
 48
0.1
 73
     0
 74
     0
 75
     1
 76
     1
 77
     1
 78
     8
 79
     2
140
3.5
141
0.0
143
0.0393701
144
2.0
146
0.71
147
1.5
172
     1
173
     1
176
   256
177
   256
178
     2
271
     2
272
     3
274
     4
283
     0
284
     8
340
11
343
AA1
371
    -1
372
    -1
1001
ACAD_DSTYLE_DIMJOGGED_JOGANGLE_SYMBOL
1070
   384
1040
0.7853981633974483
1001
ACAD_DSTYLE_DIMARC_LENGTH_SYMBOL
1070
   379
1070
     1
  0
DIMSTYLE
105
1032
330
A
100
AcDbSymbolTableRecord
100
AcDbDimStyleTableRecord
  2
AM_ANSI$0
 70
     0
  4
mm
 41
0.1
 42
0.05
 43
0.5
 44
0.1
 47
0.1
 48
0.1
 78
     7
 79
     2
140
0.12
141
0.0
146
0.71
147
0.06
176
   256
177
   256
178
     2
274
     4
284
     7
340
11
371
    -1
372
    -1
1001
ACAD_DSTYLE_DIMARC_LENGTH_SYMBOL
1070
   379
1070
     1
  0
DIMSTYLE
105
133C
330
A
100
AcDbSymbolTableRecord
100
AcDbDimStyleTableRecord
  2
ISO-25
 70
     0
 41
2.5
 42
0.625
 43
3.75
 44
1.25
 73
     0
 74
     0
 77
     1
 78
     8
140
2.5
141
2.5
143
0.03937007874016
147
0.625
171
     3
172
     1
271
     2
272
     2
274
     3
283
     0
284
     8
340
9A2
  0
DIMSTYLE
105
133D
330
A
100
AcDbSymbolTableRecord
100
AcDbDimStyleTableRecord
  2
CP_DIM_CM_100
 70
     0
 41
0.25
 42
0.625
 43
0.0
 44
1.25
 73
     0
 74
     0
 75
     1
 76
     1
 77
     1
140
15.0
141
2.5
143
0.03937007874016
147
5.0
172
     1
174
     1
178
    44
271
     1
272
     1
279
     2
283
     0
284
     8
340
133A
342
12FE
  0
DIMSTYLE
105
133E
330
A
100
AcDbSymbolTableRecord
100
AcDbDimStyleTableRecord
  2
CP_DIM_M_100
 70
     0
 41
0.0025
 42
0.625
 43
0.0
 44
1.25
 73
     0
 74
     0
 75
     1
 76
     1
 77
     1
140
0.15
141
2.5
143
0.03937007874016
147
0.05
172
     1
174
     1
178
    44
271
     2
272
     2
279
     2
283
     0
284
     8
340
133A
342
12FE
  0
DIMSTYLE
105
133F
330
A
100
AcDbSymbolTableRecord
100
AcDbDimStyleTableRecord
  2
CP_DIM_MM_100
 70
     0
 41
2.0
 42
0.625
 43
0.0
 44
1.25
 73
     0
 74
     0
 75
     1
 76
     1
 77
     1
140
150.0
141
2.5
143
0.03937007874016
147
50.0
172
     1
174
     1
178
    44
271
     0
272
     0
279
     2
283
     0
284
     8
340
133A
342
12FE
  0
DIMSTYLE
105
1340
330
A
100
AcDbSymbolTableRecord
100
AcDbDimStyleTableRecord
  2
CP_DIM_CM_50
 70
     0
 41
0.125
 42
0.625
 43
0.0
 44
1.25
 73
     0
 74
     0
 75
     1
 76
     1
 77
     1
140
7.5
141
2.5
143
0.03937007874016
147
2.5
172
     1
174
     1
178
    44
271
     1
272
     1
279
     2
283
     0
284
     8
340
133A
342
12FE
  0
DIMSTYLE
105
1341
330
A
100
AcDbSymbolTableRecord
100
AcDbDimStyleTableRecord
  2
CP_DIM_M_50
 70
     0
 41
0.00125
 42
0.625
 43
0.0
 44
1.25
 73
     0
 74
     0
 75
     1
 76
     1
 77
     1
140
0.075
141
2.5
143
0.03937007874016
147
0.025
172
     1
174
     1
178
    44
271
     2
272
     2
279
     2
283
     0
284
     8
340
133A
342
12FE
  0
DIMSTYLE
105
1342
330
A
100
AcDbSymbolTableRecord
100
AcDbDimStyleTableRecord
  2
CP_DIM_MM_50
 70
     0
 41
1.0
 42
0.625
 43
0.0
 44
1.25
 73
     0
 74
     0
 75
     1
 76
     1
 77
     1
140
75.0
141
2.5
143
0.03937007874016
147
25.0
172
     1
174
     1
178
    44
271
     0
272
     0
279
     2
283
     0
284
     8
340
133A
342
12FE
  0
ENDTAB
  0
TABLE
  2
BLOCK_RECORD
  5
1
330
0
100
AcDbSymbolTable
 70
    14
  0
BLOCK_RECORD
  5
22
102
{ACAD_XDICTIONARY
360
BAE
102
}
330
1
100
AcDbSymbolTableRecord
100
AcDbBlockTableRecord
  2
*Model_Space
340
25
  0
BLOCK_RECORD
  5
1E
330
1
100
AcDbSymbolTableRecord
100
AcDbBlockTableRecord
  2
*Paper_Space
340
21
  0
BLOCK_RECORD
  5
792
330
1
100
AcDbSymbolTableRecord
100
AcDbBlockTableRecord
  2
*D0
340
0
  0
BLOCK_RECORD
  5
79E
330
1
100
AcDbSymbolTableRecord
100
AcDbBlockTableRecord
  2
*D1
340
0
  0
BLOCK_RECORD
  5
7B6
330
1
100
AcDbSymbolTableRecord
100
AcDbBlockTableRecord
  2
*D2
340
0
  0
BLOCK_RECORD
  5
AA1
330
1
100
AcDbSymbolTableRecord
100
AcDbBlockTableRecord
  2
GENAXEH
340
0
310
2800000020000000200000000100080000000000000400000000000000000000000000000000000000000000000080000080000000808000800000008000800080800000C0C0C000C0DCC000F0CAA6000020400000206000002080000020A0000020C0000020E00000400000004020000040400000406000004080000040A0
310
000040C0000040E00000600000006020000060400000606000006080000060A0000060C0000060E00000800000008020000080400000806000008080000080A0000080C0000080E00000A0000000A0200000A0400000A0600000A0800000A0A00000A0C00000A0E00000C0000000C0200000C0400000C0600000C0800000C0
310
A00000C0C00000C0E00000E0000000E0200000E0400000E0600000E0800000E0A00000E0C00000E0E00040000000400020004000400040006000400080004000A0004000C0004000E00040200000402020004020400040206000402080004020A0004020C0004020E000404000004040200040404000404060004040800040
310
40A0004040C0004040E00040600000406020004060400040606000406080004060A0004060C0004060E00040800000408020004080400040806000408080004080A0004080C0004080E00040A0000040A0200040A0400040A0600040A0800040A0A00040A0C00040A0E00040C0000040C0200040C0400040C0600040C08000
310
40C0A00040C0C00040C0E00040E0000040E0200040E0400040E0600040E0800040E0A00040E0C00040E0E00080000000800020008000400080006000800080008000A0008000C0008000E00080200000802020008020400080206000802080008020A0008020C0008020E00080400000804020008040400080406000804080
310
008040A0008040C0008040E00080600000806020008060400080606000806080008060A0008060C0008060E00080800000808020008080400080806000808080008080A0008080C0008080E00080A0000080A0200080A0400080A0600080A0800080A0A00080A0C00080A0E00080C0000080C0200080C0400080C0600080C0
310
800080C0A00080C0C00080C0E00080E0000080E0200080E0400080E0600080E0800080E0A00080E0C00080E0E000C0000000C0002000C0004000C0006000C0008000C000A000C000C000C000E000C0200000C0202000C0204000C0206000C0208000C020A000C020C000C020E000C0400000C0402000C0404000C0406000C0
310
408000C040A000C040C000C040E000C0600000C0602000C0604000C0606000C0608000C060A000C060C000C060E000C0800000C0802000C0804000C0806000C0808000C080A000C080C000C080E000C0A00000C0A02000C0A04000C0A06000C0A08000C0A0A000C0A0C000C0A0E000C0C00000C0C02000C0C04000C0C06000
310
C0C08000C0C0A000F0FBFF00A4A0A000808080000000FF0000FF000000FFFF00FF000000FF00FF00FFFF0000FFFFFF0000000000000000000000000000000000000000000000000000000000000000000000000000000000000000000000000000000000000000000000000000000000000000000000000000000000000000
310
00000000000000000000000000000000000000000000000000000000000000000000000000000000000000000000000000000000000000000000000000000000000000000000000000000000000000000000000000000000000000000000000000000000000000000000000000000000000000000000000000000000000000
310
00000000000000000000000000000000000000000000000000000000000000000000000000000000000000000000000000000000000000000000000000000000000000000000000000000000000000000000000000000000000000000000000000000000000000000000000000000000000000000000000000000000000000
310
00000000000000000000000000000000000000000000000000000000000000000000000000000000000000000000000000000000000000000000000000000000000000000000000000000000000000000000000000000000000000000000000000000000000000000000000000000000000000000000000000000000000000
310
0000000000000000000000000000000000000000000000000000000000000000000000000000000000000000000000000000000000FFFFFFFFFFFFFFFFFFFFFFFFFFFFFFFFFFFFFFFFFFFFFFFFFFFFFFFFFFFF0000000000000000000000000000000000000000000000000000000000000000000000000000000000000000
310
00000000000000000000000000000000000000000000000000000000000000000000000000000000000000000000000000000000000000000000000000000000000000000000000000000000000000000000000000000000000000000000000000000000000000000000000000000000000000000000000000000000000000
310
00000000000000000000000000000000000000000000000000000000000000000000000000000000000000000000000000000000000000000000000000000000000000000000000000000000000000000000000000000000000000000000000000000000000000000000000000000000000000000000000000000000000000
310
00000000000000000000000000000000000000000000000000000000000000000000000000000000000000000000000000000000000000000000000000000000000000000000000000000000000000000000000000000000000000000000000000000000000000000000000000000000000000000000000000000000000000
310
0000000000000000000000000000000000000000000000000000000000000000000000000000000000000000000000000000000000000000
  0
BLOCK_RECORD
  5
CCC
330
1
100
AcDbSymbolTableRecord
100
AcDbBlockTableRecord
  2
*D4
340
0
  0
BLOCK_RECORD
  5
D6A
330
1
100
AcDbSymbolTableRecord
100
AcDbBlockTableRecord
  2
*D5
340
0
  0
BLOCK_RECORD
  5
DF7
330
1
100
AcDbSymbolTableRecord
100
AcDbBlockTableRecord
  2
*D6
340
0
  0
BLOCK_RECORD
  5
E33
330
1
100
AcDbSymbolTableRecord
100
AcDbBlockTableRecord
  2
*D7
340
0
  0
BLOCK_RECORD
  5
EC5
330
1
100
AcDbSymbolTableRecord
100
AcDbBlockTableRecord
  2
*D8
340
0
  0
BLOCK_RECORD
  5
1035
330
1
100
AcDbSymbolTableRecord
100
AcDbBlockTableRecord
  2
*D9
340
0
  0
BLOCK_RECORD
  5
1265
330
1
100
AcDbSymbolTableRecord
100
AcDbBlockTableRecord
  2
*S5910
340
0
102
{BLKREFS
331
1260
102
}
  0
BLOCK_RECORD
  5
126C
330
1
100
AcDbSymbolTableRecord
100
AcDbBlockTableRecord
  2
*S6011
340
0
102
{BLKREFS
331
1263
102
}
  0
BLOCK_RECORD
  5
12FE
330
1
100
AcDbSymbolTableRecord
100
AcDbBlockTableRecord
  2
dimarch
340
0
  0
ENDTAB
  0
ENDSEC
  0
SECTION
  2
BLOCKS
  0
BLOCK
  5
23
330
22
100
AcDbEntity
  8
0
100
AcDbBlockBegin
  2
*Model_Space
 70
     0
 10
0.0
 20
0.0
 30
0.0
  3
*Model_Space
  1

  0
ENDBLK
  5
24
330
22
100
AcDbEntity
  8
0
100
AcDbBlockEnd
  0
BLOCK
  5
1F
330
1E
100
AcDbEntity
 67
     1
  8
0
100
AcDbBlockBegin
  2
*Paper_Space
 70
     0
 10
0.0
 20
0.0
 30
0.0
  3
*Paper_Space
  1

  0
ENDBLK
  5
20
330
1E
100
AcDbEntity
 67
     1
  8
0
100
AcDbBlockEnd
  0
BLOCK
  5
79C
330
792
100
AcDbEntity
  8
0
100
AcDbBlockBegin
  2
*D0
 70
     1
 10
0.0
 20
0.0
 30
0.0
  3
*D0
  1

  0
LINE
  5
1207
330
792
100
AcDbEntity
  8
AM_5 ( Bemassung)
100
AcDbLine
 10
1641.82018828611
 20
-174.488486950365
 30
0.0
 11
1680.51411261101
 21
-174.488486950365
 31
0.0
  0
LINE
  5
1208
330
792
100
AcDbEntity
  8
AM_5 ( Bemassung)
100
AcDbLine
 10
1685.60416581955
 20
-204.488486499811
 30
0.0
 11
1676.51411261101
 21
-204.488486499811
 31
0.0
  0
LINE
  5
1209
330
792
100
AcDbEntity
  8
AM_5 ( Bemassung)
100
AcDbLine
 10
1678.51411261101
 20
-184.488486950365
 30
0.0
 11
1678.51411261101
 21
-194.488486499811
 31
0.0
  0
SOLID
  5
120A
330
792
100
AcDbEntity
  8
AM_5 ( Bemassung)
100
AcDbTrace
 10
1676.847445944343
 20
-184.488486950365
 30
0.0
 11
1680.180779277676
 21
-184.488486950365
 31
0.0
 12
1678.51411261101
 22
-174.488486950365
 32
0.0
 13
1678.51411261101
 23
-174.488486950365
 33
0.0
  0
SOLID
  5
120B
330
792
100
AcDbEntity
  8
AM_5 ( Bemassung)
100
AcDbTrace
 10
1676.847445944343
 20
-194.488486499811
 30
0.0
 11
1680.180779277676
 21
-194.488486499811
 31
0.0
 12
1678.51411261101
 22
-204.488486499811
 32
0.0
 13
1678.51411261101
 23
-204.488486499811
 33
0.0
  0
MTEXT
  5
120C
330
792
100
AcDbEntity
  8
AM_5 ( Bemassung)
 62
     2
100
AcDbMText
 10
1671.404972092592
 20
-189.4884867250877
 30
0.0
 40
10.0
 41
0.0
 71
     5
 72
     1
  1
30
 11
0.0000000000000001
 21
1.0
 31
0.0
 73
     1
 44
1.0
  0
POINT
  5
120D
330
792
100
AcDbEntity
  8
DEFPOINTS
 62
     0
100
AcDbPoint
 10
1641.82018828611
 20
-174.488486950365
 30
0.0
  0
POINT
  5
120E
330
792
100
AcDbEntity
  8
DEFPOINTS
 62
     0
100
AcDbPoint
 10
1685.60416581955
 20
-204.488486499811
 30
0.0
  0
POINT
  5
120F
330
792
100
AcDbEntity
  8
DEFPOINTS
 62
     0
100
AcDbPoint
 10
1678.51411261101
 20
-204.488486499811
 30
0.0
  0
ENDBLK
  5
79D
330
792
100
AcDbEntity
  8
0
100
AcDbBlockEnd
  0
BLOCK
  5
7A8
330
79E
100
AcDbEntity
  8
0
100
AcDbBlockBegin
  2
*D1
 70
     1
 10
0.0
 20
0.0
 30
0.0
  3
*D1
  1

  0
LINE
  5
1210
330
79E
100
AcDbEntity
  8
AM_5 ( Bemassung)
100
AcDbLine
 10
1641.82018828611
 20
-174.488486950365
 30
0.0
 11
1695.62460267563
 21
-174.488486950365
 31
0.0
  0
LINE
  5
1211
330
79E
100
AcDbEntity
  8
AM_5 ( Bemassung)
100
AcDbLine
 10
1655.32018848886
 20
-470.9884914033477
 30
0.0
 11
1695.62460267563
 21
-470.9884914033477
 31
0.0
  0
LINE
  5
1212
330
79E
100
AcDbEntity
  8
AM_5 ( Bemassung)
100
AcDbLine
 10
1693.62460267563
 20
-184.488486950365
 30
0.0
 11
1693.62460267563
 21
-460.9884914033478
 31
0.0
  0
SOLID
  5
1213
330
79E
100
AcDbEntity
  8
AM_5 ( Bemassung)
100
AcDbTrace
 10
1691.957936008963
 20
-184.488486950365
 30
0.0
 11
1695.291269342297
 21
-184.488486950365
 31
0.0
 12
1693.62460267563
 22
-174.488486950365
 32
0.0
 13
1693.62460267563
 23
-174.488486950365
 33
0.0
  0
SOLID
  5
1214
330
79E
100
AcDbEntity
  8
AM_5 ( Bemassung)
100
AcDbTrace
 10
1691.957936008963
 20
-460.9884914033478
 30
0.0
 11
1695.291269342297
 21
-460.9884914033478
 31
0.0
 12
1693.62460267563
 22
-470.9884914033477
 32
0.0
 13
1693.62460267563
 23
-470.9884914033477
 33
0.0
  0
MTEXT
  5
1215
330
79E
100
AcDbEntity
  8
AM_5 ( Bemassung)
 62
     2
100
AcDbMText
 10
1686.515462157213
 20
-322.7384891768561
 30
0.0
 40
10.0
 41
0.0
 71
     5
 72
     1
  1
{\fArial|b0|i0|c0|p34;2}97
 11
0.0000000000000001
 21
1.0
 31
0.0
 73
     1
 44
1.0
  0
POINT
  5
1216
330
79E
100
AcDbEntity
  8
DEFPOINTS
 62
     0
100
AcDbPoint
 10
1641.82018828611
 20
-174.488486950365
 30
0.0
  0
POINT
  5
1217
330
79E
100
AcDbEntity
  8
DEFPOINTS
 62
     0
100
AcDbPoint
 10
1655.32018848886
 20
-470.9884914033477
 30
0.0
  0
POINT
  5
1218
330
79E
100
AcDbEntity
  8
DEFPOINTS
 62
     0
100
AcDbPoint
 10
1693.62460267563
 20
-470.9884914033477
 30
0.0
  0
ENDBLK
  5
7A9
330
79E
100
AcDbEntity
  8
0
100
AcDbBlockEnd
  0
BLOCK
  5
7C0
330
7B6
100
AcDbEntity
  8
0
100
AcDbBlockBegin
  2
*D2
 70
     1
 10
0.0
 20
0.0
 30
0.0
  3
*D2
  1

  0
LINE
  5
1219
330
7B6
100
AcDbEntity
  8
AM_5 ( Bemassung)
100
AcDbLine
 10
1655.32018848886
 20
-459.9884912381448
 30
0.0
 11
1655.32018848886
 21
-517.563221101082
 31
0.0
  0
LINE
  5
121A
330
7B6
100
AcDbEntity
  8
AM_5 ( Bemassung)
100
AcDbLine
 10
1528.32018658151
 20
-459.9884912381448
 30
0.0
 11
1528.32018658151
 21
-517.563221101082
 31
0.0
  0
LINE
  5
121B
330
7B6
100
AcDbEntity
  8
AM_5 ( Bemassung)
100
AcDbLine
 10
1645.32018848886
 20
-515.563221101082
 30
0.0
 11
1538.32018658151
 21
-515.563221101082
 31
0.0
  0
SOLID
  5
121C
330
7B6
100
AcDbEntity
  8
AM_5 ( Bemassung)
100
AcDbTrace
 10
1645.32018848886
 20
-513.8965544344154
 30
0.0
 11
1645.32018848886
 21
-517.2298877677486
 31
0.0
 12
1655.32018848886
 22
-515.563221101082
 32
0.0
 13
1655.32018848886
 23
-515.563221101082
 33
0.0
  0
SOLID
  5
121D
330
7B6
100
AcDbEntity
  8
AM_5 ( Bemassung)
100
AcDbTrace
 10
1538.32018658151
 20
-513.8965544344154
 30
0.0
 11
1538.32018658151
 21
-517.2298877677486
 31
0.0
 12
1528.32018658151
 22
-515.563221101082
 32
0.0
 13
1528.32018658151
 23
-515.563221101082
 33
0.0
  0
MTEXT
  5
121E
330
7B6
100
AcDbEntity
  8
AM_5 ( Bemassung)
 62
     2
100
AcDbMText
 10
1592.544505186603
 20
-508.3790464762525
 30
0.0
 40
10.0
 41
0.0
 71
     5
 72
     1
  1
%%c 127
 73
     1
 44
1.0
  0
POINT
  5
121F
330
7B6
100
AcDbEntity
  8
DEFPOINTS
 62
     0
100
AcDbPoint
 10
1655.32018848886
 20
-459.9884912381448
 30
0.0
  0
POINT
  5
1220
330
7B6
100
AcDbEntity
  8
DEFPOINTS
 62
     0
100
AcDbPoint
 10
1528.32018658151
 20
-459.9884912381448
 30
0.0
  0
POINT
  5
1221
330
7B6
100
AcDbEntity
  8
DEFPOINTS
 62
     0
100
AcDbPoint
 10
1528.32018658151
 20
-515.563221101082
 30
0.0
  0
ENDBLK
  5
7C1
330
7B6
100
AcDbEntity
  8
0
100
AcDbBlockEnd
  0
BLOCK
  5
1373
330
AA1
100
AcDbEntity
  8
0
100
AcDbBlockBegin
  2
GENAXEH
 70
     0
 10
0.0
 20
0.0
 30
0.0
  3
GENAXEH
  1

  0
LINE
  5
1374
330
AA1
100
AcDbEntity
  8
0
100
AcDbLine
 10
-1.0
 20
0.0
 30
0.0
 11
1.0
 21
0.0
 31
0.0
  0
ENDBLK
  5
1375
330
AA1
100
AcDbEntity
  8
0
100
AcDbBlockEnd
  0
BLOCK
  5
CCD
330
CCC
100
AcDbEntity
  8
0
100
AcDbBlockBegin
  2
*D4
 70
     1
 10
0.0
 20
0.0
 30
0.0
  3
*D4
  1

  0
LINE
  5
1222
330
CCC
100
AcDbEntity
  8
AM_5 ( Bemassung)
100
AcDbLine
 10
1539.82018675422
 20
-177.2064760114097
 30
0.0
 11
1539.82018675422
 21
-84.00410405576984
 31
0.0
  0
LINE
  5
1223
330
CCC
100
AcDbEntity
  8
AM_5 ( Bemassung)
100
AcDbLine
 10
1643.82018831614
 20
-185.488487115569
 30
0.0
 11
1643.82018831614
 21
-84.00410405576984
 31
0.0
  0
LINE
  5
1224
330
CCC
100
AcDbEntity
  8
AM_5 ( Bemassung)
100
AcDbLine
 10
1549.82018675422
 20
-86.00410405576985
 30
0.0
 11
1633.82018831614
 21
-86.00410405576985
 31
0.0
  0
SOLID
  5
1225
330
CCC
100
AcDbEntity
  8
AM_5 ( Bemassung)
100
AcDbTrace
 10
1549.82018675422
 20
-84.33743738910317
 30
0.0
 11
1549.82018675422
 21
-87.67077072243653
 31
0.0
 12
1539.82018675422
 22
-86.00410405576985
 32
0.0
 13
1539.82018675422
 23
-86.00410405576985
 33
0.0
  0
SOLID
  5
1226
330
CCC
100
AcDbEntity
  8
AM_5 ( Bemassung)
100
AcDbTrace
 10
1633.82018831614
 20
-84.33743738910317
 30
0.0
 11
1633.82018831614
 21
-87.67077072243653
 31
0.0
 12
1643.82018831614
 22
-86.00410405576985
 32
0.0
 13
1643.82018831614
 23
-86.00410405576985
 33
0.0
  0
MTEXT
  5
1227
330
CCC
100
AcDbEntity
  8
AM_5 ( Bemassung)
 62
     2
100
AcDbMText
 10
1594.042025811256
 20
-78.81992943094037
 30
0.0
 40
10.0
 41
0.0
 71
     5
 72
     1
  1
%%c 104
 73
     1
 44
1.0
  0
POINT
  5
1228
330
CCC
100
AcDbEntity
  8
DEFPOINTS
 62
     0
100
AcDbPoint
 10
1539.82018675422
 20
-177.2064760114097
 30
0.0
  0
POINT
  5
1229
330
CCC
100
AcDbEntity
  8
DEFPOINTS
 62
     0
100
AcDbPoint
 10
1643.82018831614
 20
-185.488487115569
 30
0.0
  0
POINT
  5
122A
330
CCC
100
AcDbEntity
  8
DEFPOINTS
 62
     0
100
AcDbPoint
 10
1643.82018831614
 20
-86.00410405576985
 30
0.0
  0
ENDBLK
  5
CCE
330
CCC
100
AcDbEntity
  8
0
100
AcDbBlockEnd
  0
BLOCK
  5
D6B
330
D6A
100
AcDbEntity
  8
0
100
AcDbBlockBegin
  2
*D5
 70
     1
 10
0.0
 20
0.0
 30
0.0
  3
*D5
  1

  0
LINE
  5
122B
330
D6A
100
AcDbEntity
  8
AM_5 ( Bemassung)
100
AcDbLine
 10
1562.01318708753
 20
-463.9884912982188
 30
0.0
 11
1562.01318708753
 21
-497.6524067685833
 31
0.0
  0
LINE
  5
122C
330
D6A
100
AcDbEntity
  8
AM_5 ( Bemassung)
100
AcDbLine
 10
1621.62718798284
 20
-463.9884912982188
 30
0.0
 11
1621.62718798284
 21
-497.6524067685833
 31
0.0
  0
LINE
  5
122D
330
D6A
100
AcDbEntity
  8
AM_5 ( Bemassung)
100
AcDbLine
 10
1572.01318708753
 20
-495.6524067685831
 30
0.0
 11
1611.62718798284
 21
-495.6524067685831
 31
0.0
  0
SOLID
  5
122E
330
D6A
100
AcDbEntity
  8
AM_5 ( Bemassung)
100
AcDbTrace
 10
1572.01318708753
 20
-493.9857401019166
 30
0.0
 11
1572.01318708753
 21
-497.31907343525
 31
0.0
 12
1562.01318708753
 22
-495.6524067685831
 32
0.0
 13
1562.01318708753
 23
-495.6524067685831
 33
0.0
  0
SOLID
  5
122F
330
D6A
100
AcDbEntity
  8
AM_5 ( Bemassung)
100
AcDbTrace
 10
1611.62718798284
 20
-493.9857401019166
 30
0.0
 11
1611.62718798284
 21
-497.31907343525
 31
0.0
 12
1621.62718798284
 22
-495.6524067685831
 32
0.0
 13
1621.62718798284
 23
-495.6524067685831
 33
0.0
  0
MTEXT
  5
1230
330
D6A
100
AcDbEntity
  8
AM_5 ( Bemassung)
 62
     2
100
AcDbMText
 10
1592.432996704116
 20
-488.4818747085558
 30
0.0
 40
10.0
 41
0.0
 71
     5
 72
     1
  1
G2
 73
     1
 44
1.0
  0
POINT
  5
1231
330
D6A
100
AcDbEntity
  8
DEFPOINTS
 62
     0
100
AcDbPoint
 10
1562.01318708753
 20
-463.9884912982188
 30
0.0
  0
POINT
  5
1232
330
D6A
100
AcDbEntity
  8
DEFPOINTS
 62
     0
100
AcDbPoint
 10
1621.62718798284
 20
-463.9884912982188
 30
0.0
  0
POINT
  5
1233
330
D6A
100
AcDbEntity
  8
DEFPOINTS
 62
     0
100
AcDbPoint
 10
1621.62718798284
 20
-495.6524067685831
 30
0.0
  0
ENDBLK
  5
D6C
330
D6A
100
AcDbEntity
  8
0
100
AcDbBlockEnd
  0
BLOCK
  5
DF8
330
DF7
100
AcDbEntity
  8
0
100
AcDbBlockBegin
  2
*D6
 70
     1
 10
0.0
 20
0.0
 30
0.0
  3
*D6
  1

  0
LINE
  5
1234
330
DF7
100
AcDbEntity
  8
AM_5 ( Bemassung)
100
AcDbLine
 10
1613.75169065649
 20
-197.734144863891
 30
0.0
 11
1619.702752737352
 21
-129.7131940226777
 31
0.0
  0
LINE
  5
1235
330
DF7
100
AcDbEntity
  8
AM_5 ( Bemassung)
100
AcDbLine
 10
1591.82018753518
 20
-172.68762135417
 30
0.0
 11
1591.82018753518
 21
-128.4958149352424
 31
0.0
  0
ARC
  5
1236
330
DF7
100
AcDbEntity
  8
AM_5 ( Bemassung)
100
AcDbCircle
 10
1591.82018753518
 20
-448.4123726185384
 30
0.0
 40
317.916557683296
100
AcDbArc
 50
86.80230127747377
 51
88.19769872252427
  0
SOLID
  5
1237
330
DF7
100
AcDbEntity
  8
AM_5 ( Bemassung)
100
AcDbTrace
 10
1609.673148088264
 20
-129.328405588449
 30
0.0
 11
1609.434890044
 21
-132.6532129836908
 31
0.0
 12
1619.528441251857
 22
-131.7055834188612
 32
0.0
 13
1619.528441251857
 23
-131.7055834188612
 33
0.0
  0
SOLID
  5
1238
330
DF7
100
AcDbEntity
  8
AM_5 ( Bemassung)
100
AcDbTrace
 10
1601.792738374793
 20
-132.3195494359632
 30
0.0
 11
1601.845163032345
 21
-128.9866283798337
 31
0.0
 12
1591.82018753518
 22
-130.4958149352424
 32
0.0
 13
1591.82018753518
 23
-130.4958149352424
 33
0.0
  0
MTEXT
  5
1239
330
DF7
100
AcDbEntity
  8
AM_5 ( Bemassung)
 62
     2
100
AcDbMText
 10
1602.990225682633
 20
-123.6025580119572
 30
0.0
 40
10.0
 41
0.0
 71
     5
 72
     1
  1
5°
 11
0.9994092060637239
 21
-0.0343691552860537
 31
0.0
 73
     1
 44
1.0
  0
POINT
  5
123A
330
DF7
100
AcDbEntity
  8
DEFPOINTS
 62
     0
100
AcDbPoint
 10
1610.30539138949
 20
-131.0336794337861
 30
0.0
  0
POINT
  5
123B
330
DF7
100
AcDbEntity
  8
DEFPOINTS
 62
     0
100
AcDbPoint
 10
1591.82018753518
 20
-447.8049288358108
 30
0.0
  0
POINT
  5
123C
330
DF7
100
AcDbEntity
  8
DEFPOINTS
 62
     0
100
AcDbPoint
 10
1591.82018753518
 20
-448.4123726185388
 30
0.0
  0
POINT
  5
123D
330
DF7
100
AcDbEntity
  8
DEFPOINTS
 62
     0
100
AcDbPoint
 10
1613.75169065649
 20
-197.734144863891
 30
0.0
  0
POINT
  5
123E
330
DF7
100
AcDbEntity
  8
DEFPOINTS
 62
     0
100
AcDbPoint
 10
1591.82018753518
 20
-172.68762135417
 30
0.0
  0
ENDBLK
  5
DF9
330
DF7
100
AcDbEntity
  8
0
100
AcDbBlockEnd
  0
BLOCK
  5
E34
330
E33
100
AcDbEntity
  8
0
100
AcDbBlockBegin
  2
*D7
 70
     1
 10
0.0
 20
0.0
 30
0.0
  3
*D7
  1

  0
LINE
  5
123F
330
E33
100
AcDbEntity
  8
AM_5 ( Bemassung)
100
AcDbLine
 10
1591.82018753518
 20
-172.6876213541699
 30
0.0
 11
1591.82018753518
 21
-128.2498297227364
 31
0.0
  0
LINE
  5
1240
330
E33
100
AcDbEntity
  8
AM_5 ( Bemassung)
100
AcDbLine
 10
1569.95144610761
 20
-198.4515143058319
 30
0.0
 11
1563.916183309119
 21
-129.4681448581692
 31
0.0
  0
ARC
  5
1241
330
E33
100
AcDbEntity
  8
AM_5 ( Bemassung)
100
AcDbCircle
 10
1591.82018753518
 20
-448.412372618539
 30
0.0
 40
318.1625428958027
100
AcDbArc
 50
91.80090772568792
 51
93.1990922743118
  0
SOLID
  5
1242
330
E33
100
AcDbEntity
  8
AM_5 ( Bemassung)
100
AcDbTrace
 10
1581.795230392025
 20
-128.7405212533764
 30
0.0
 11
1581.847614517809
 21
-132.0734429467976
 31
0.0
 12
1591.82018753518
 22
-130.2498297227364
 32
0.0
 13
1591.82018753518
 23
-130.2498297227364
 33
0.0
  0
SOLID
  5
1243
330
E33
100
AcDbEntity
  8
AM_5 ( Bemassung)
100
AcDbTrace
 10
1574.18405752588
 20
-132.4080410710982
 30
0.0
 11
1573.94575904854
 21
-129.0832365735663
 31
0.0
 12
1564.090494794614
 22
-131.4605342543527
 32
0.0
 13
1564.090494794614
 23
-131.4605342543527
 33
0.0
  0
MTEXT
  5
1244
330
E33
100
AcDbEntity
  8
AM_5 ( Bemassung)
 62
     2
100
AcDbMText
 10
1579.191965779532
 20
-123.4098107419678
 30
0.0
 40
10.0
 41
0.0
 71
     5
 72
     1
  1
5°
 11
0.9992459686352537
 21
0.0388264621900278
 31
0.0
 73
     1
 44
1.0
  0
POINT
  5
1245
330
E33
100
AcDbEntity
  8
DEFPOINTS
 62
     0
100
AcDbPoint
 10
1573.320680912783
 20
-130.7881103893268
 30
0.0
  0
POINT
  5
1246
330
E33
100
AcDbEntity
  8
DEFPOINTS
 62
     0
100
AcDbPoint
 10
1591.82018753518
 20
-448.412372618539
 30
0.0
  0
POINT
  5
1247
330
E33
100
AcDbEntity
  8
DEFPOINTS
 62
     0
100
AcDbPoint
 10
1591.82018753518
 20
-447.804928835811
 30
0.0
  0
POINT
  5
1248
330
E33
100
AcDbEntity
  8
DEFPOINTS
 62
     0
100
AcDbPoint
 10
1591.82018753518
 20
-172.6876213541699
 30
0.0
  0
POINT
  5
1249
330
E33
100
AcDbEntity
  8
DEFPOINTS
 62
     0
100
AcDbPoint
 10
1569.95144610761
 20
-198.4515143058319
 30
0.0
  0
ENDBLK
  5
E35
330
E33
100
AcDbEntity
  8
0
100
AcDbBlockEnd
  0
BLOCK
  5
EC6
330
EC5
100
AcDbEntity
  8
0
100
AcDbBlockBegin
  2
*D8
 70
     1
 10
0.0
 20
0.0
 30
0.0
  3
*D8
  1

  0
LINE
  5
124A
330
EC5
100
AcDbEntity
  8
AM_5 ( Bemassung)
100
AcDbLine
 10
1529.32018659653
 20
-331.5526810693966
 30
0.0
 11
1529.32018659653
 21
-61.20226918062964
 31
0.0
  0
LINE
  5
124B
330
EC5
100
AcDbEntity
  8
AM_5 ( Bemassung)
100
AcDbLine
 10
1654.32018847384
 20
-333.288489335302
 30
0.0
 11
1654.32018847384
 21
-61.20226918062964
 31
0.0
  0
LINE
  5
124C
330
EC5
100
AcDbEntity
  8
AM_5 ( Bemassung)
100
AcDbLine
 10
1539.32018659653
 20
-63.20226918062964
 30
0.0
 11
1644.32018847384
 21
-63.20226918062964
 31
0.0
  0
SOLID
  5
124D
330
EC5
100
AcDbEntity
  8
AM_5 ( Bemassung)
100
AcDbTrace
 10
1539.32018659653
 20
-61.53560251396296
 30
0.0
 11
1539.32018659653
 21
-64.8689358472963
 31
0.0
 12
1529.32018659653
 22
-63.20226918062964
 32
0.0
 13
1529.32018659653
 23
-63.20226918062964
 33
0.0
  0
SOLID
  5
124E
330
EC5
100
AcDbEntity
  8
AM_5 ( Bemassung)
100
AcDbTrace
 10
1644.32018847384
 20
-61.53560251396296
 30
0.0
 11
1644.32018847384
 21
-64.8689358472963
 31
0.0
 12
1654.32018847384
 22
-63.20226918062964
 32
0.0
 13
1654.32018847384
 23
-63.20226918062964
 33
0.0
  0
MTEXT
  5
124F
330
EC5
100
AcDbEntity
  8
AM_5 ( Bemassung)
 62
     2
100
AcDbMText
 10
1593.329181011548
 20
-56.01809455580017
 30
0.0
 40
10.0
 41
0.0
 71
     5
 72
     1
  1
%%c 125
 73
     1
 44
1.0
  0
POINT
  5
1250
330
EC5
100
AcDbEntity
  8
DEFPOINTS
 62
     0
100
AcDbPoint
 10
1529.32018659653
 20
-331.5526810693966
 30
0.0
  0
POINT
  5
1251
330
EC5
100
AcDbEntity
  8
DEFPOINTS
 62
     0
100
AcDbPoint
 10
1654.32018847384
 20
-333.288489335302
 30
0.0
  0
POINT
  5
1252
330
EC5
100
AcDbEntity
  8
DEFPOINTS
 62
     0
100
AcDbPoint
 10
1654.32018847384
 20
-63.20226918062964
 30
0.0
  0
ENDBLK
  5
EC7
330
EC5
100
AcDbEntity
  8
0
100
AcDbBlockEnd
  0
BLOCK
  5
1036
330
1035
100
AcDbEntity
  8
0
100
AcDbBlockBegin
  2
*D9
 70
     1
 10
0.0
 20
0.0
 30
0.0
  3
*D9
  1

  0
LINE
  5
1253
330
1035
100
AcDbEntity
  8
AM_5 ( Bemassung)
100
AcDbLine
 10
1543.32018753518
 20
-174.488486950365
 30
0.0
 11
1543.32018753518
 21
-104.8464063628616
 31
0.0
  0
LINE
  5
1254
330
1035
100
AcDbEntity
  8
AM_5 ( Bemassung)
100
AcDbLine
 10
1640.32018753518
 20
-174.488486950365
 30
0.0
 11
1640.32018753518
 21
-104.8464063628616
 31
0.0
  0
LINE
  5
1255
330
1035
100
AcDbEntity
  8
AM_5 ( Bemassung)
100
AcDbLine
 10
1553.32018753518
 20
-106.8464063628616
 30
0.0
 11
1630.32018753518
 21
-106.8464063628616
 31
0.0
  0
SOLID
  5
1256
330
1035
100
AcDbEntity
  8
AM_5 ( Bemassung)
100
AcDbTrace
 10
1553.32018753518
 20
-105.1797396961949
 30
0.0
 11
1553.32018753518
 21
-108.5130730295283
 31
0.0
 12
1543.32018753518
 22
-106.8464063628616
 32
0.0
 13
1543.32018753518
 23
-106.8464063628616
 33
0.0
  0
SOLID
  5
1257
330
1035
100
AcDbEntity
  8
AM_5 ( Bemassung)
100
AcDbTrace
 10
1630.32018753518
 20
-105.1797396961949
 30
0.0
 11
1630.32018753518
 21
-108.5130730295283
 31
0.0
 12
1640.32018753518
 22
-106.8464063628616
 32
0.0
 13
1640.32018753518
 23
-106.8464063628616
 33
0.0
  0
MTEXT
  5
1258
330
1035
100
AcDbEntity
  8
AM_5 ( Bemassung)
 62
     2
100
AcDbMText
 10
1592.438120259064
 20
-99.66223173803214
 30
0.0
 40
10.0
 41
0.0
 71
     5
 72
     1
  1
%%c 97
 73
     1
 44
1.0
  0
POINT
  5
1259
330
1035
100
AcDbEntity
  8
DEFPOINTS
 62
     0
100
AcDbPoint
 10
1543.32018753518
 20
-174.488486950365
 30
0.0
  0
POINT
  5
125A
330
1035
100
AcDbEntity
  8
DEFPOINTS
 62
     0
100
AcDbPoint
 10
1640.32018753518
 20
-174.488486950365
 30
0.0
  0
POINT
  5
125B
330
1035
100
AcDbEntity
  8
DEFPOINTS
 62
     0
100
AcDbPoint
 10
1640.32018753518
 20
-106.8464063628616
 30
0.0
  0
ENDBLK
  5
1037
330
1035
100
AcDbEntity
  8
0
100
AcDbBlockEnd
  0
BLOCK
  5
1269
330
1265
100
AcDbEntity
  8
0
100
AcDbBlockBegin
  2
*S5910
 70
     1
 10
0.0
 20
0.0
 30
0.0
  3
*S5910
  1

  0
CIRCLE
  5
1266
330
1265
100
AcDbEntity
  8
AM_12 ( Teile Referenz)
 62
     4
100
AcDbCircle
 10
1569.19995415143
 20
-326.6318677516121
 30
0.0
 40
2.5
  0
LINE
  5
1267
330
1265
100
AcDbEntity
  8
AM_12 ( Teile Referenz)
 62
     4
100
AcDbLine
 10
1566.69995415143
 20
-329.1318677516122
 30
0.0
 11
1571.69995415143
 21
-324.1318677516122
 31
0.0
  0
LINE
  5
1268
330
1265
100
AcDbEntity
  8
AM_12 ( Teile Referenz)
 62
     4
100
AcDbLine
 10
1566.69995415143
 20
-324.1318677516122
 30
0.0
 11
1571.69995415143
 21
-329.1318677516122
 31
0.0
  0
ENDBLK
  5
126A
330
1265
100
AcDbEntity
  8
0
100
AcDbBlockEnd
  0
BLOCK
  5
1270
330
126C
100
AcDbEntity
  8
0
100
AcDbBlockBegin
  2
*S6011
 70
     1
 10
0.0
 20
0.0
 30
0.0
  3
*S6011
  1

  0
CIRCLE
  5
126D
330
126C
100
AcDbEntity
  8
AM_12 ( Teile Referenz)
 62
     4
100
AcDbCircle
 10
1569.066631692806
 20
-619.4981716215501
 30
0.0
 40
2.5
  0
LINE
  5
126E
330
126C
100
AcDbEntity
  8
AM_12 ( Teile Referenz)
 62
     4
100
AcDbLine
 10
1566.566631692806
 20
-621.99817162155
 30
0.0
 11
1571.566631692807
 21
-616.9981716215501
 31
0.0
  0
LINE
  5
126F
330
126C
100
AcDbEntity
  8
AM_12 ( Teile Referenz)
 62
     4
100
AcDbLine
 10
1566.566631692806
 20
-616.9981716215501
 30
0.0
 11
1571.566631692807
 21
-621.99817162155
 31
0.0
  0
ENDBLK
  5
1271
330
126C
100
AcDbEntity
  8
0
100
AcDbBlockEnd
  0
BLOCK
  5
12FF
330
12FE
100
AcDbEntity
  8
0
100
AcDbBlockBegin
  2
dimarch
 70
     0
 10
0.0
 20
0.0
 30
0.0
  3
dimarch
  1

  0
LINE
  5
1300
330
12FE
100
AcDbEntity
  8
0
100
AcDbLine
 10
14.0
 20
14.0
 30
0.0
 11
-14.0
 21
-14.0
 31
0.0
  0
LINE
  5
1301
330
12FE
100
AcDbEntity
  8
0
100
AcDbLine
 10
0.0
 20
-20.0
 30
0.0
 11
0.0
 21
20.0
 31
0.0
  0
ENDBLK
  5
1302
330
12FE
100
AcDbEntity
  8
0
100
AcDbBlockEnd
  0
ENDSEC
  0
SECTION
  2
ENTITIES
  0
DIMENSION
  5
71A
330
22
100
AcDbEntity
  8
AM_5 ( Bemassung)
100
AcDbDimension
  2
*D0
 10
1678.51411261101
 20
-204.488486499811
 30
0.0
 11
1671.404972092592
 21
-189.4884867250877
 31
0.0
 70
    32
 71
     5
 42
29.99999954944599
  3
AM_DIN$0
100
AcDbAlignedDimension
 13
1641.82018828611
 23
-174.488486950365
 33
0.0
 14
1685.60416581955
 24
-204.488486499811
 34
0.0
 50
90.0
100
AcDbRotatedDimension
1001
ACAD
1000
DSTYLE
1002
{
1070
    40
1040
20.0
1070
    41
1040
0.5
1070
    44
1040
0.1
1070
   140
1040
0.5
1070
   147
1040
0.1
1070
   271
1070
     0
1002
}
  0
DIMENSION
  5
71B
330
22
100
AcDbEntity
  8
AM_5 ( Bemassung)
100
AcDbDimension
  2
*D1
 10
1693.62460267563
 20
-470.9884914033477
 30
0.0
 11
1686.515462157213
 21
-322.7384891768561
 31
0.0
 70
    32
  1
{\fArial|b0|i0|c0|p34;2}97
 71
     5
 42
296.5000044529828
  3
AM_DIN$0
100
AcDbAlignedDimension
 13
1641.82018828611
 23
-174.488486950365
 33
0.0
 14
1655.32018848886
 24
-470.9884914033477
 34
0.0
 50
90.0
100
AcDbRotatedDimension
1001
ACAD
1000
DSTYLE
1002
{
1070
    40
1040
20.0
1070
    41
1040
0.5
1070
    44
1040
0.1
1070
   140
1040
0.5
1070
   147
1040
0.1
1070
   271
1070
     0
1002
}
  0
DIMENSION
  5
71D
330
22
100
AcDbEntity
  8
AM_5 ( Bemassung)
100
AcDbDimension
  2
*D2
 10
1528.32018658151
 20
-515.563221101082
 30
0.0
 11
1592.544505186603
 21
-515.563221101082
 31
0.0
 70
   160
  1
%%c <>
 71
     5
 42
127.00000190735
  3
AM_DIN$0
100
AcDbAlignedDimension
 13
1655.32018848886
 23
-459.9884912381448
 33
0.0
 14
1528.32018658151
 24
-459.9884912381448
 34
0.0
100
AcDbRotatedDimension
1001
ACAD
1000
DSTYLE
1002
{
1070
    40
1040
20.0
1070
    41
1040
0.5
1070
    44
1040
0.1
1070
   140
1040
0.5
1070
   147
1040
0.1
1070
   271
1070
     0
1002
}
1001
ACAD_DSTYLE_DIMINSPECT
1070
   396
1000
100%
1070
   395
1000

1070
   394
1070
    33
1070
   393
1070
     0
  0
CIRCLE
  5
B72
330
22
100
AcDbEntity
  8
AM_0 ( Kontur 0.5 )
100
AcDbCircle
 10
1591.82018753518
 20
-622.263792594971
 30
0.0
 40
47.5
  0
CIRCLE
  5
B73
330
22
100
AcDbEntity
  8
AM_0 ( Kontur 0.5 )
100
AcDbCircle
 10
1591.82018753518
 20
-622.263792594971
 30
0.0
 40
39.6885626872958
  0
CIRCLE
  5
B74
330
22
100
AcDbEntity
  8
AM_0 ( Kontur 0.5 )
100
AcDbCircle
 10
1591.82018753518
 20
-622.263792594971
 30
0.0
 40
10.0
  0
CIRCLE
  5
B75
330
22
100
AcDbEntity
  8
AM_0 ( Kontur 0.5 )
100
AcDbCircle
 10
1591.82018753518
 20
-622.263792594971
 30
0.0
 40
15.0
  0
ARC
  5
B76
330
22
100
AcDbEntity
  8
AM_0 ( Kontur 0.5 )
100
AcDbCircle
 10
1591.82018753518
 20
-622.263792594971
 30
0.0
 40
31.0
100
AcDbArc
 50
11.1599368721855
 51
48.8400631278147
  0
LINE
  5
B77
330
22
100
AcDbEntity
  8
AM_7 (Mittellinie)
  6
AM_ISO08W050x2
100
AcDbLine
 10
1591.82018753518
 20
-691.7045288808918
 30
0.0
 11
1591.82018753518
 21
-554.1714218221499
 31
0.0
  0
CIRCLE
  5
B78
330
22
100
AcDbEntity
  8
AM_7 (Mittellinie)
  6
AM_ISO08W050x2
100
AcDbCircle
 10
1591.82018753518
 20
-622.263792594971
 30
0.0
 40
52.5000000000001
  0
LINE
  5
B79
330
22
100
AcDbEntity
  8
AM_7 (Mittellinie)
  6
AM_ISO08W050x2
100
AcDbLine
 10
1521.16916357082
 20
-622.263792594971
 30
0.0
 11
1660.636632191569
 21
-622.263792594971
 31
0.0
  0
LINE
  5
B7A
330
22
100
AcDbEntity
  8
AM_0 ( Kontur 0.5 )
100
AcDbLine
 10
1577.40013487011
 20
-585.2875287312447
 30
0.0
 11
1584.02175891485
 21
-596.756518005355
 31
0.0
  0
LINE
  5
B7B
330
22
100
AcDbEntity
  8
AM_0 ( Kontur 0.5 )
100
AcDbLine
 10
1567.0078300247
 20
-591.2875287312439
 30
0.0
 11
1573.62945406944
 21
-602.7565180053548
 31
0.0
  0
LINE
  5
B7C
330
22
100
AcDbEntity
  8
AM_0 ( Kontur 0.5 )
100
AcDbLine
 10
1573.62945406944
 20
-602.7565180053548
 30
0.0
 11
1584.02175891485
 21
-596.756518005355
 31
0.0
  0
LINE
  5
B7D
330
22
100
AcDbEntity
  8
AM_0 ( Kontur 0.5 )
100
AcDbLine
 10
1616.632545045669
 20
-591.2875287312447
 30
0.0
 11
1610.01092100093
 21
-602.7565180053548
 31
0.0
  0
LINE
  5
B7E
330
22
100
AcDbEntity
  8
AM_0 ( Kontur 0.5 )
100
AcDbLine
 10
1606.24024020026
 20
-585.2875287312439
 30
0.0
 11
1599.61861615552
 21
-596.756518005355
 31
0.0
  0
LINE
  5
B7F
330
22
100
AcDbEntity
  8
AM_0 ( Kontur 0.5 )
100
AcDbLine
 10
1599.61861615552
 20
-596.756518005355
 30
0.0
 11
1610.01092100093
 21
-602.7565180053548
 31
0.0
  0
LINE
  5
B80
330
22
100
AcDbEntity
  8
AM_0 ( Kontur 0.5 )
100
AcDbLine
 10
1631.05259771075
 20
-628.263792594971
 30
0.0
 11
1617.80934962126
 21
-628.263792594971
 31
0.0
  0
LINE
  5
B81
330
22
100
AcDbEntity
  8
AM_0 ( Kontur 0.5 )
100
AcDbLine
 10
1631.05259771075
 20
-616.263792594971
 30
0.0
 11
1617.80934962126
 21
-616.263792594971
 31
0.0
  0
LINE
  5
B82
330
22
100
AcDbEntity
  8
AM_0 ( Kontur 0.5 )
100
AcDbLine
 10
1617.80934962126
 20
-616.263792594971
 30
0.0
 11
1617.80934962126
 21
-628.263792594971
 31
0.0
  0
LINE
  5
B83
330
22
100
AcDbEntity
  8
AM_0 ( Kontur 0.5 )
100
AcDbLine
 10
1606.24024020026
 20
-659.2400564586977
 30
0.0
 11
1599.61861615552
 21
-647.7710671845867
 31
0.0
  0
LINE
  5
B84
330
22
100
AcDbEntity
  8
AM_0 ( Kontur 0.5 )
100
AcDbLine
 10
1616.632545045669
 20
-653.2400564586977
 30
0.0
 11
1610.01092100093
 21
-641.771067184587
 31
0.0
  0
LINE
  5
B85
330
22
100
AcDbEntity
  8
AM_0 ( Kontur 0.5 )
100
AcDbLine
 10
1610.01092100093
 20
-641.771067184587
 30
0.0
 11
1599.61861615552
 21
-647.7710671845867
 31
0.0
  0
LINE
  5
B86
330
22
100
AcDbEntity
  8
AM_0 ( Kontur 0.5 )
100
AcDbLine
 10
1567.0078300247
 20
-653.2400564586969
 30
0.0
 11
1573.62945406944
 21
-641.771067184587
 31
0.0
  0
LINE
  5
B87
330
22
100
AcDbEntity
  8
AM_0 ( Kontur 0.5 )
100
AcDbLine
 10
1577.40013487011
 20
-659.2400564586977
 30
0.0
 11
1584.02175891485
 21
-647.7710671845867
 31
0.0
  0
LINE
  5
B88
330
22
100
AcDbEntity
  8
AM_0 ( Kontur 0.5 )
100
AcDbLine
 10
1584.02175891485
 20
-647.7710671845867
 30
0.0
 11
1573.62945406944
 21
-641.771067184587
 31
0.0
  0
LINE
  5
B89
330
22
100
AcDbEntity
  8
AM_0 ( Kontur 0.5 )
100
AcDbLine
 10
1565.8310254491
 20
-628.263792594971
 30
0.0
 11
1565.8310254491
 21
-616.263792594971
 31
0.0
  0
LINE
  5
B8A
330
22
100
AcDbEntity
  8
AM_0 ( Kontur 0.5 )
100
AcDbLine
 10
1552.58777735962
 20
-628.263792594971
 30
0.0
 11
1565.8310254491
 21
-628.263792594971
 31
0.0
  0
LINE
  5
B8B
330
22
100
AcDbEntity
  8
AM_0 ( Kontur 0.5 )
100
AcDbLine
 10
1552.58777735962
 20
-616.263792594971
 30
0.0
 11
1565.8310254491
 21
-616.263792594971
 31
0.0
  0
LINE
  5
B8C
330
22
100
AcDbEntity
  8
AM_0 ( Kontur 0.5 )
100
AcDbLine
 10
1563.4701871447
 20
-573.1601515240619
 30
0.0
 11
1561.1201871447
 21
-577.230470921849
 31
0.0
  0
LINE
  5
B8D
330
22
100
AcDbEntity
  8
AM_0 ( Kontur 0.5 )
100
AcDbLine
 10
1561.1201871447
 20
-577.230470921849
 30
0.0
 11
1563.4701871447
 21
-581.3007903196347
 31
0.0
  0
LINE
  5
B8E
330
22
100
AcDbEntity
  8
AM_0 ( Kontur 0.5 )
100
AcDbLine
 10
1568.1701871447
 20
-573.1601515240619
 30
0.0
 11
1563.4701871447
 21
-573.1601515240619
 31
0.0
  0
LINE
  5
B8F
330
22
100
AcDbEntity
  8
AM_0 ( Kontur 0.5 )
100
AcDbLine
 10
1572.02167824582
 20
-587.9717685916597
 30
0.0
 11
1559.79844940884
 21
-566.8005152134809
 31
0.0
  0
CIRCLE
  5
B90
330
22
100
AcDbEntity
  8
AM_0 ( Kontur 0.5 )
100
AcDbCircle
 10
1565.8201871447
 20
-577.230470921848
 30
0.0
 40
8.0
  0
LINE
  5
B91
330
22
100
AcDbEntity
  8
AM_7 (Mittellinie)
  6
AM_ISO08W050x2
100
AcDbLine
 10
1576.7949912856
 20
-570.894164796799
 30
0.0
 11
1555.31239594597
 21
-583.2971469990227
 31
0.0
  0
LINE
  5
B92
330
22
100
AcDbEntity
  8
AM_0 ( Kontur 0.5 )
100
AcDbLine
 10
1563.4701871447
 20
-671.367433665881
 30
0.0
 11
1568.1701871447
 21
-671.367433665881
 31
0.0
  0
LINE
  5
B93
330
22
100
AcDbEntity
  8
AM_0 ( Kontur 0.5 )
100
AcDbLine
 10
1568.1701871447
 20
-671.367433665881
 30
0.0
 11
1570.5201871447
 21
-667.297114268094
 31
0.0
  0
LINE
  5
B94
330
22
100
AcDbEntity
  8
AM_0 ( Kontur 0.5 )
100
AcDbLine
 10
1570.5201871447
 20
-667.297114268094
 30
0.0
 11
1568.1701871447
 21
-663.226794870307
 31
0.0
  0
LINE
  5
B95
330
22
100
AcDbEntity
  8
AM_0 ( Kontur 0.5 )
100
AcDbLine
 10
1568.1701871447
 20
-663.226794870307
 30
0.0
 11
1563.4701871447
 21
-663.226794870307
 31
0.0
  0
LINE
  5
B96
330
22
100
AcDbEntity
  8
AM_0 ( Kontur 0.5 )
100
AcDbLine
 10
1563.4701871447
 20
-663.226794870307
 30
0.0
 11
1561.1201871447
 21
-667.297114268094
 31
0.0
  0
LINE
  5
B97
330
22
100
AcDbEntity
  8
AM_0 ( Kontur 0.5 )
100
AcDbLine
 10
1561.1201871447
 20
-667.297114268094
 30
0.0
 11
1563.4701871447
 21
-671.367433665881
 31
0.0
  0
LINE
  5
B98
330
22
100
AcDbEntity
  8
AM_0 ( Kontur 0.5 )
100
AcDbLine
 10
1572.02167824582
 20
-656.555816598282
 30
0.0
 11
1559.79844940884
 21
-677.7270699764621
 31
0.0
  0
CIRCLE
  5
B99
330
22
100
AcDbEntity
  8
AM_0 ( Kontur 0.5 )
100
AcDbCircle
 10
1565.8201871447
 20
-667.297114268094
 30
0.0
 40
8.0
  0
LINE
  5
B9A
330
22
100
AcDbEntity
  8
AM_7 (Mittellinie)
  6
AM_ISO08W050x2
100
AcDbLine
 10
1554.84538300381
 20
-660.9608081430449
 30
0.0
 11
1576.32797834343
 21
-673.3637903452687
 31
0.0
  0
CIRCLE
  5
B9B
330
22
100
AcDbEntity
  8
AM_0 ( Kontur 0.5 )
100
AcDbCircle
 10
1643.82018831614
 20
-622.263792594971
 30
0.0
 40
8.0
  0
LINE
  5
B9C
330
22
100
AcDbEntity
  8
AM_0 ( Kontur 0.5 )
100
AcDbLine
 10
1631.41720611392
 20
-622.263792594971
 30
0.0
 11
1655.86366378787
 21
-622.263792594971
 31
0.0
  0
LINE
  5
B9D
330
22
100
AcDbEntity
  8
AM_0 ( Kontur 0.5 )
100
AcDbLine
 10
1646.17018831614
 20
-626.334111992758
 30
0.0
 11
1648.52018831614
 21
-622.263792594971
 31
0.0
  0
LINE
  5
B9E
330
22
100
AcDbEntity
  8
AM_0 ( Kontur 0.5 )
100
AcDbLine
 10
1641.47018831614
 20
-626.334111992758
 30
0.0
 11
1646.17018831614
 21
-626.334111992758
 31
0.0
  0
LINE
  5
B9F
330
22
100
AcDbEntity
  8
AM_0 ( Kontur 0.5 )
100
AcDbLine
 10
1639.12018831614
 20
-622.263792594971
 30
0.0
 11
1641.47018831614
 21
-626.334111992758
 31
0.0
  0
LINE
  5
BA0
330
22
100
AcDbEntity
  8
AM_0 ( Kontur 0.5 )
100
AcDbLine
 10
1641.47018831614
 20
-618.1934731971836
 30
0.0
 11
1639.12018831614
 21
-622.263792594971
 31
0.0
  0
LINE
  5
BA1
330
22
100
AcDbEntity
  8
AM_0 ( Kontur 0.5 )
100
AcDbLine
 10
1646.17018831614
 20
-618.1934731971836
 30
0.0
 11
1641.47018831614
 21
-618.1934731971836
 31
0.0
  0
LINE
  5
BA2
330
22
100
AcDbEntity
  8
AM_0 ( Kontur 0.5 )
100
AcDbLine
 10
1648.52018831614
 20
-622.263792594971
 30
0.0
 11
1646.17018831614
 21
-618.1934731971836
 31
0.0
  0
LINE
  5
BA3
330
22
100
AcDbEntity
  8
AM_7 (Mittellinie)
  6
AM_ISO08W050x2
100
AcDbLine
 10
1643.82018831614
 20
-634.936404845069
 30
0.0
 11
1643.82018831614
 21
-610.130440440622
 31
0.0
  0
LINE
  5
BA4
330
22
100
AcDbEntity
  8
AM_0 ( Kontur 0.5 )
100
AcDbLine
 10
1570.5201871447
 20
-577.230470921849
 30
0.0
 11
1568.1701871447
 21
-573.1601515240619
 31
0.0
  0
LINE
  5
BA5
330
22
100
AcDbEntity
  8
AM_0 ( Kontur 0.5 )
100
AcDbLine
 10
1568.1701871447
 20
-581.3007903196347
 30
0.0
 11
1570.5201871447
 21
-577.230470921849
 31
0.0
  0
LINE
  5
BA6
330
22
100
AcDbEntity
  8
AM_0 ( Kontur 0.5 )
100
AcDbLine
 10
1563.4701871447
 20
-581.3007903196347
 30
0.0
 11
1568.1701871447
 21
-581.3007903196347
 31
0.0
  0
ARC
  5
BA7
330
22
100
AcDbEntity
  8
AM_0 ( Kontur 0.5 )
100
AcDbCircle
 10
1591.82018753518
 20
-622.263792594971
 30
0.0
 40
31.0
100
AcDbArc
 50
311.159936872185
 51
348.840063127814
  0
ARC
  5
BA8
330
22
100
AcDbEntity
  8
AM_0 ( Kontur 0.5 )
100
AcDbCircle
 10
1591.82018753518
 20
-622.263792594971
 30
0.0
 40
31.0
100
AcDbArc
 50
251.159936872185
 51
288.840063127814
  0
ARC
  5
BA9
330
22
100
AcDbEntity
  8
AM_0 ( Kontur 0.5 )
100
AcDbCircle
 10
1591.82018753518
 20
-622.263792594971
 30
0.0
 40
31.0
100
AcDbArc
 50
191.159936872185
 51
228.840063127815
  0
ARC
  5
BAA
330
22
100
AcDbEntity
  8
AM_0 ( Kontur 0.5 )
100
AcDbCircle
 10
1591.82018753518
 20
-622.263792594971
 30
0.0
 40
31.0
100
AcDbArc
 50
131.159936872186
 51
168.840063127815
  0
ARC
  5
BAB
330
22
100
AcDbEntity
  8
AM_0 ( Kontur 0.5 )
100
AcDbCircle
 10
1591.82018753518
 20
-622.263792594971
 30
0.0
 40
31.0
100
AcDbArc
 50
71.1599368721854
 51
108.840063127814
  0
CIRCLE
  5
BAC
330
22
100
AcDbEntity
  8
AM_0 ( Kontur 0.5 )
100
AcDbCircle
 10
1591.82018753518
 20
-622.263792594971
 30
0.0
 40
61.91421449223138
  0
CIRCLE
  5
BAD
330
22
100
AcDbEntity
  8
AM_0 ( Kontur 0.5 )
100
AcDbCircle
 10
1591.82018753518
 20
-622.263792594971
 30
0.0
 40
64.0000009611836
  0
LINE
  5
BB0
330
22
100
AcDbEntity
  8
AM_2 ( Kontur 0.25)
100
AcDbLine
 10
1630.170322489069
 20
-220.514010444276
 30
0.0
 11
1643.95042484891
 21
-220.514010444276
 31
0.0
  0
LINE
  5
BB1
330
22
100
AcDbEntity
  8
AM_2 ( Kontur 0.25)
100
AcDbLine
 10
1610.60321658601
 20
-212.514010444276
 30
0.0
 11
1665.88348800168
 21
-212.514010444276
 31
0.0
  0
LINE
  5
BB2
330
22
100
AcDbEntity
  8
AM_2 ( Kontur 0.25)
100
AcDbLine
 10
1621.25002420973
 20
-216.514010444276
 30
0.0
 11
1656.41965900282
 21
-216.514010444276
 31
0.0
  0
LINE
  5
BB3
330
22
100
AcDbEntity
  8
AM_2 ( Kontur 0.25)
100
AcDbLine
 10
1605.40046379106
 20
-208.514010444276
 30
0.0
 11
1671.1278778745
 21
-208.514010444276
 31
0.0
  0
LINE
  5
BB4
330
22
100
AcDbEntity
  8
AM_2 ( Kontur 0.25)
100
AcDbLine
 10
1647.90003581615
 20
-470.988491163052
 30
0.0
 11
1647.90003581615
 21
-473.568338430265
 31
0.0
  0
LINE
  5
BB5
330
22
100
AcDbEntity
  8
AM_3 ( Verdeckt )
  6
AM_ISO02W050x2
100
AcDbLine
 10
1648.43899046966
 20
-434.4884909302638
 30
0.0
 11
1639.20138616263
 21
-434.4884909302638
 31
0.0
  0
LINE
  5
BB6
330
22
100
AcDbEntity
  8
AM_3 ( Verdeckt )
  6
AM_ISO02W050x2
100
AcDbLine
 10
1648.43899046966
 20
-429.4884909302647
 30
0.0
 11
1648.43899046966
 21
-434.4884909302638
 31
0.0
  0
LINE
  5
BB7
330
22
100
AcDbEntity
  8
AM_0 ( Kontur 0.5 )
100
AcDbLine
 10
1570.82018792566
 20
-473.568338430265
 30
0.0
 11
1560.82018792566
 21
-473.568338430265
 31
0.0
  0
LINE
  5
BB8
330
22
100
AcDbEntity
  8
AM_3 ( Verdeckt )
  6
AM_ISO02W050x2
100
AcDbLine
 10
1570.43899007918
 20
-429.4884909302647
 30
0.0
 11
1570.43899007918
 21
-434.4884909302638
 31
0.0
  0
LINE
  5
BB9
330
22
100
AcDbEntity
  8
AM_0 ( Kontur 0.5 )
100
AcDbLine
 10
1639.74034081614
 20
-474.4884909302649
 30
0.0
 11
1638.82018831614
 21
-473.568338430265
 31
0.0
  0
LINE
  5
BBA
330
22
100
AcDbEntity
  8
AM_0 ( Kontur 0.5 )
100
AcDbLine
 10
1638.82018831614
 20
-473.568338430265
 30
0.0
 11
1648.82018831615
 21
-473.568338430265
 31
0.0
  0
LINE
  5
BBB
330
22
100
AcDbEntity
  8
AM_0 ( Kontur 0.5 )
100
AcDbLine
 10
1560.82018792566
 20
-470.988491163052
 30
0.0
 11
1560.82018792566
 21
-473.568338430265
 31
0.0
  0
LINE
  5
BBC
330
22
100
AcDbEntity
  8
AM_2 ( Kontur 0.25)
100
AcDbLine
 10
1561.74034042566
 20
-473.568338430265
 30
0.0
 11
1561.74034042566
 21
-474.4884909302649
 31
0.0
  0
LINE
  5
BBD
330
22
100
AcDbEntity
  8
AM_0 ( Kontur 0.5 )
100
AcDbLine
 10
1570.82018792566
 20
-446.4884910353939
 30
0.0
 11
1570.82018792566
 21
-457.9884912081078
 31
0.0
  0
LINE
  5
BBE
330
22
100
AcDbEntity
  8
AM_2 ( Kontur 0.25)
100
AcDbLine
 10
1569.90003542566
 20
-473.568338430265
 30
0.0
 11
1569.90003542566
 21
-474.4884909302649
 31
0.0
  0
LINE
  5
BBF
330
22
100
AcDbEntity
  8
AM_2 ( Kontur 0.25)
100
AcDbLine
 10
1639.74034081614
 20
-473.568338430265
 30
0.0
 11
1639.74034081614
 21
-474.4884909302649
 31
0.0
  0
LINE
  5
BC0
330
22
100
AcDbEntity
  8
AM_2 ( Kontur 0.25)
100
AcDbLine
 10
1647.90003581615
 20
-473.568338430265
 30
0.0
 11
1647.90003581615
 21
-474.4884909302649
 31
0.0
  0
LINE
  5
BC1
330
22
100
AcDbEntity
  8
AM_0 ( Kontur 0.5 )
100
AcDbLine
 10
1648.82018831615
 20
-473.568338430265
 30
0.0
 11
1638.82018831614
 21
-473.568338430265
 31
0.0
  0
LINE
  5
BC2
330
22
100
AcDbEntity
  8
AM_3 ( Verdeckt )
  6
AM_ISO02W050x2
100
AcDbLine
 10
1570.43899007918
 20
-434.4884909302638
 30
0.0
 11
1561.20138577215
 21
-434.4884909302638
 31
0.0
  0
LINE
  5
BC3
330
22
100
AcDbEntity
  8
AM_3 ( Verdeckt )
  6
AM_ISO02W050x2
100
AcDbLine
 10
1561.20138577215
 20
-429.4884909302647
 30
0.0
 11
1561.20138577215
 21
-434.4884909302638
 31
0.0
  0
LINE
  5
BC4
330
22
100
AcDbEntity
  8
AM_0 ( Kontur 0.5 )
100
AcDbLine
 10
1648.82018831615
 20
-473.568338430265
 30
0.0
 11
1647.90003581615
 21
-474.4884909302649
 31
0.0
  0
LINE
  5
BC5
330
22
100
AcDbEntity
  8
AM_0 ( Kontur 0.5 )
100
AcDbLine
 10
1647.90003581615
 20
-474.4884909302649
 30
0.0
 11
1639.74034081614
 21
-474.4884909302649
 31
0.0
  0
LINE
  5
BC6
330
22
100
AcDbEntity
  8
AM_3 ( Verdeckt )
  6
AM_ISO02W050x2
100
AcDbLine
 10
1563.51078684891
 20
-429.4884909302647
 30
0.0
 11
1563.51078684891
 21
-434.4884909302638
 31
0.0
  0
ARC
  5
BC7
330
22
100
AcDbEntity
  8
AM_3 ( Verdeckt )
  6
AM_ISO02W050x2
100
AcDbCircle
 10
1562.35608631053
 20
-428.720541737833
 30
0.0
 40
1.386751345948129
100
AcDbArc
 50
213.626429135973
 51
326.373570864027
  0
LINE
  5
BC8
330
22
100
AcDbEntity
  8
AM_7 (Mittellinie)
  6
AM_ISO08W050x2
100
AcDbLine
 10
1643.82018831614
 20
-428.305016533382
 30
0.0
 11
1643.82018831614
 21
-477.5643689334978
 31
0.0
  0
ARC
  5
BC9
330
22
100
AcDbEntity
  8
AM_3 ( Verdeckt )
  6
AM_ISO02W050x2
100
AcDbCircle
 10
1565.82018792566
 20
-425.4884909302647
 30
0.0
 40
4.618802153517009
100
AcDbArc
 50
240.0
 51
299.999999999999
  0
LINE
  5
BCA
330
22
100
AcDbEntity
  8
AM_3 ( Verdeckt )
  6
AM_ISO02W050x2
100
AcDbLine
 10
1568.12958900242
 20
-429.4884909302647
 30
0.0
 11
1568.12958900242
 21
-434.4884909302638
 31
0.0
  0
ARC
  5
BCB
330
22
100
AcDbEntity
  8
AM_3 ( Verdeckt )
  6
AM_ISO02W050x2
100
AcDbCircle
 10
1569.2842895408
 20
-428.720541737833
 30
0.0
 40
1.386751345948129
100
AcDbArc
 50
213.626429135973
 51
326.373570864027
  0
LINE
  5
BCC
330
22
100
AcDbEntity
  8
AM_0 ( Kontur 0.5 )
100
AcDbLine
 10
1530.32018661155
 20
-457.9884912081078
 30
0.0
 11
1591.82018753518
 21
-457.9884912081078
 31
0.0
  0
LINE
  5
BCD
330
22
100
AcDbEntity
  8
AM_3 ( Verdeckt )
  6
AM_ISO02W050x2
100
AcDbLine
 10
1641.51078723939
 20
-429.4884909302647
 30
0.0
 11
1641.51078723939
 21
-434.4884909302638
 31
0.0
  0
LINE
  5
BCE
330
22
100
AcDbEntity
  8
AM_3 ( Verdeckt )
  6
AM_ISO02W050x2
100
AcDbLine
 10
1646.1295893929
 20
-429.4884909302647
 30
0.0
 11
1646.1295893929
 21
-434.4884909302638
 31
0.0
  0
ARC
  5
BCF
330
22
100
AcDbEntity
  8
AM_3 ( Verdeckt )
  6
AM_ISO02W050x2
100
AcDbCircle
 10
1647.28428993128
 20
-428.720541737833
 30
0.0
 40
1.386751345948129
100
AcDbArc
 50
213.626429135973
 51
326.373570864027
  0
ARC
  5
BD0
330
22
100
AcDbEntity
  8
AM_3 ( Verdeckt )
  6
AM_ISO02W050x2
100
AcDbCircle
 10
1643.82018831614
 20
-425.4884909302647
 30
0.0
 40
4.618802153517009
100
AcDbArc
 50
240.0
 51
299.999999999999
  0
ARC
  5
BD1
330
22
100
AcDbEntity
  8
AM_3 ( Verdeckt )
  6
AM_ISO02W050x2
100
AcDbCircle
 10
1640.35608670101
 20
-428.720541737833
 30
0.0
 40
1.386751345948129
100
AcDbArc
 50
213.626429135973
 51
326.373570864027
  0
LINE
  5
BD2
330
22
100
AcDbEntity
  8
AM_3 ( Verdeckt )
  6
AM_ISO02W050x2
100
AcDbLine
 10
1639.20138616263
 20
-429.4884909302647
 30
0.0
 11
1639.20138616263
 21
-434.4884909302638
 31
0.0
  0
LINE
  5
BD3
330
22
100
AcDbEntity
  8
AM_2 ( Kontur 0.25)
100
AcDbLine
 10
1569.90003542566
 20
-470.988491163052
 30
0.0
 11
1569.90003542566
 21
-473.568338430265
 31
0.0
  0
LINE
  5
BD4
330
22
100
AcDbEntity
  8
AM_2 ( Kontur 0.25)
100
AcDbLine
 10
1561.74034042566
 20
-446.4884910353939
 30
0.0
 11
1561.74034042566
 21
-457.9884912081078
 31
0.0
  0
LINE
  5
BD5
330
22
100
AcDbEntity
  8
AM_0 ( Kontur 0.5 )
100
AcDbLine
 10
1561.74034042566
 20
-474.4884909302649
 30
0.0
 11
1560.82018792566
 21
-473.568338430265
 31
0.0
  0
LINE
  5
BD6
330
22
100
AcDbEntity
  8
AM_3 ( Verdeckt )
  6
AM_ISO02W050x2
100
AcDbLine
 10
1560.54661309779
 20
-422.868244187255
 30
0.0
 11
1559.72177590227
 21
-446.4884910353939
 31
0.0
  0
LINE
  5
BD7
330
22
100
AcDbEntity
  8
AM_0 ( Kontur 0.5 )
100
AcDbLine
 10
1570.82018792566
 20
-473.568338430265
 30
0.0
 11
1569.90003542566
 21
-474.4884909302649
 31
0.0
  0
LINE
  5
BD8
330
22
100
AcDbEntity
  8
AM_2 ( Kontur 0.25)
100
AcDbLine
 10
1569.90003542566
 20
-446.4884910353939
 30
0.0
 11
1569.90003542566
 21
-457.9884912081078
 31
0.0
  0
LINE
  5
BD9
330
22
100
AcDbEntity
  8
AM_2 ( Kontur 0.25)
100
AcDbLine
 10
1561.74034042566
 20
-470.988491163052
 30
0.0
 11
1561.74034042566
 21
-473.568338430265
 31
0.0
  0
LINE
  5
BDA
330
22
100
AcDbEntity
  8
AM_0 ( Kontur 0.5 )
100
AcDbLine
 10
1569.90003542566
 20
-474.4884909302649
 30
0.0
 11
1561.74034042566
 21
-474.4884909302649
 31
0.0
  0
ARC
  5
BDB
330
22
100
AcDbEntity
  8
AM_0 ( Kontur 0.5 )
100
AcDbCircle
 10
1572.82018792566
 20
-430.4884909302638
 30
0.0
 40
1.0
100
AcDbArc
 50
0.0000000000001908
 51
89.9999999999996
  0
ARC
  5
BDC
330
22
100
AcDbEntity
  8
AM_0 ( Kontur 0.5 )
100
AcDbCircle
 10
1558.82018792566
 20
-430.4884909302638
 30
0.0
 40
1.0
100
AcDbArc
 50
89.9999999999996
 51
180.0
  0
LINE
  5
BDD
330
22
100
AcDbEntity
  8
AM_0 ( Kontur 0.5 )
100
AcDbLine
 10
1572.82018792566
 20
-429.4884909302647
 30
0.0
 11
1558.82018792566
 21
-429.4884909302647
 31
0.0
  0
LINE
  5
BDE
330
22
100
AcDbEntity
  8
AM_0 ( Kontur 0.5 )
100
AcDbLine
 10
1573.82018792566
 20
-439.4884909302649
 30
0.0
 11
1573.82018792566
 21
-430.4884909302638
 31
0.0
  0
LINE
  5
BDF
330
22
100
AcDbEntity
  8
AM_0 ( Kontur 0.5 )
100
AcDbLine
 10
1557.82018792566
 20
-430.4884909302638
 30
0.0
 11
1557.82018792566
 21
-439.4884909302649
 31
0.0
  0
LINE
  5
BE0
330
22
100
AcDbEntity
  8
AM_0 ( Kontur 0.5 )
100
AcDbLine
 10
1560.82018792566
 20
-446.4884910353939
 30
0.0
 11
1560.82018792566
 21
-457.9884912081078
 31
0.0
  0
LINE
  5
BE1
330
22
100
AcDbEntity
  8
AM_7 (Mittellinie)
  6
AM_ISO08W050x2
100
AcDbLine
 10
1565.82018792566
 20
-426.969102626507
 30
0.0
 11
1565.82018792566
 21
-476.303879062148
 31
0.0
  0
LINE
  5
BE2
330
22
100
AcDbEntity
  8
AM_0 ( Kontur 0.5 )
100
AcDbLine
 10
1638.82018831614
 20
-446.4884910353939
 30
0.0
 11
1638.82018831614
 21
-457.9884912081078
 31
0.0
  0
LINE
  5
BE3
330
22
100
AcDbEntity
  8
AM_0 ( Kontur 0.5 )
100
AcDbLine
 10
1648.82018831615
 20
-446.4884910353939
 30
0.0
 11
1648.82018831615
 21
-457.9884912081078
 31
0.0
  0
ARC
  5
BE4
330
22
100
AcDbEntity
  8
AM_0 ( Kontur 0.5 )
100
AcDbCircle
 10
1650.820188316149
 20
-430.4884909302638
 30
0.0
 40
1.0
100
AcDbArc
 50
0.0000000000001908
 51
89.9999999999996
  0
ARC
  5
BE5
330
22
100
AcDbEntity
  8
AM_0 ( Kontur 0.5 )
100
AcDbCircle
 10
1636.82018831614
 20
-430.4884909302638
 30
0.0
 40
1.0
100
AcDbArc
 50
89.9999999999996
 51
180.0
  0
LINE
  5
BE6
330
22
100
AcDbEntity
  8
AM_0 ( Kontur 0.5 )
100
AcDbLine
 10
1560.82018792566
 20
-473.568338430265
 30
0.0
 11
1570.82018792566
 21
-473.568338430265
 31
0.0
  0
LINE
  5
BE7
330
22
100
AcDbEntity
  8
AM_3 ( Verdeckt )
  6
AM_ISO02W050x2
100
AcDbLine
 10
1623.09376197258
 20
-422.868244187256
 30
0.0
 11
1623.9185991681
 21
-446.4884910353939
 31
0.0
  0
LINE
  5
BE8
330
22
100
AcDbEntity
  8
AM_3 ( Verdeckt )
  6
AM_ISO02W050x2
100
AcDbLine
 10
1616.82018791065
 20
-417.988490607368
 30
0.0
 11
1566.82018715972
 21
-417.988490607368
 31
0.0
  0
LINE
  5
BE9
102
{ACAD_REACTORS
330
D79
102
}
330
22
100
AcDbEntity
  8
AM_3 ( Verdeckt )
  6
AM_ISO02W050x2
100
AcDbLine
 10
1621.62718798284
 20
-463.9884912982188
 30
0.0
 11
1621.62718798284
 21
-445.988491027886
 31
0.0
  0
LINE
  5
BEA
102
{ACAD_REACTORS
330
D79
102
}
330
22
100
AcDbEntity
  8
AM_3 ( Verdeckt )
  6
AM_ISO02W050x2
100
AcDbLine
 10
1562.01318708753
 20
-463.9884912982188
 30
0.0
 11
1562.01318708753
 21
-445.988491027886
 31
0.0
  0
LINE
  5
BEB
330
22
100
AcDbEntity
  8
AM_3 ( Verdeckt )
  6
AM_ISO02W050x2
100
AcDbLine
 10
1620.14818796063
 20
-462.509491276006
 30
0.0
 11
1620.14818796063
 21
-440.988490952793
 31
0.0
  0
LINE
  5
BEC
330
22
100
AcDbEntity
  8
AM_3 ( Verdeckt )
  6
AM_ISO02W050x2
100
AcDbLine
 10
1563.49218710974
 20
-462.509491276006
 30
0.0
 11
1563.49218710974
 21
-440.988490952793
 31
0.0
  0
LINE
  5
BED
330
22
100
AcDbEntity
  8
AM_3 ( Verdeckt )
  6
AM_ISO02W050x2
100
AcDbLine
 10
1562.01318708753
 20
-445.988491027886
 30
0.0
 11
1621.62718798284
 21
-445.988491027886
 31
0.0
  0
LINE
  5
BEE
330
22
100
AcDbEntity
  8
AM_3 ( Verdeckt )
  6
AM_ISO02W050x2
100
AcDbLine
 10
1621.62718798284
 20
-463.9884912982188
 30
0.0
 11
1620.14818796063
 21
-462.509491276006
 31
0.0
  0
LINE
  5
BEF
330
22
100
AcDbEntity
  8
AM_3 ( Verdeckt )
  6
AM_ISO02W050x2
100
AcDbLine
 10
1620.14818796063
 20
-462.509491276006
 30
0.0
 11
1563.49218710974
 21
-462.509491276006
 31
0.0
  0
LINE
  5
BF0
330
22
100
AcDbEntity
  8
AM_3 ( Verdeckt )
  6
AM_ISO02W050x2
100
AcDbLine
 10
1563.49218710974
 20
-462.509491276006
 30
0.0
 11
1562.01318708753
 21
-463.9884912982188
 31
0.0
  0
LINE
  5
BF1
330
22
100
AcDbEntity
  8
AM_3 ( Verdeckt )
  6
AM_ISO02W050x2
100
AcDbLine
 10
1553.82018696448
 20
-463.9884912982188
 30
0.0
 11
1629.82018810589
 21
-463.9884912982188
 31
0.0
  0
LINE
  5
BF2
330
22
100
AcDbEntity
  8
AM_3 ( Verdeckt )
  6
AM_ISO02W050x2
100
AcDbLine
 10
1568.82018718976
 20
-429.98849078759
 30
0.0
 11
1568.82018718976
 21
-418.488490614877
 31
0.0
  0
LINE
  5
BF3
330
22
100
AcDbEntity
  8
AM_3 ( Verdeckt )
  6
AM_ISO02W050x2
100
AcDbLine
 10
1614.82018788061
 20
-429.98849078759
 30
0.0
 11
1614.82018788061
 21
-418.488490614877
 31
0.0
  0
LINE
  5
BF4
330
22
100
AcDbEntity
  8
AM_3 ( Verdeckt )
  6
AM_ISO02W050x2
100
AcDbLine
 10
1563.62018711166
 20
-440.988490952793
 30
0.0
 11
1563.62018711166
 21
-435.188490865686
 31
0.0
  0
LINE
  5
BF5
330
22
100
AcDbEntity
  8
AM_3 ( Verdeckt )
  6
AM_ISO02W050x2
100
AcDbLine
 10
1620.02018795871
 20
-440.988490952793
 30
0.0
 11
1620.02018795871
 21
-435.188490865686
 31
0.0
  0
LINE
  5
BF6
330
22
100
AcDbEntity
  8
AM_3 ( Verdeckt )
  6
AM_ISO02W050x2
100
AcDbLine
 10
1620.14818796063
 20
-440.988490952793
 30
0.0
 11
1563.49218710974
 21
-440.988490952793
 31
0.0
  0
LINE
  5
BF7
330
22
100
AcDbEntity
  8
AM_3 ( Verdeckt )
  6
AM_ISO02W050x2
100
AcDbLine
 10
1568.82018718976
 20
-429.98849078759
 30
0.0
 11
1614.82018788061
 21
-429.98849078759
 31
0.0
  0
LINE
  5
BF8
330
22
100
AcDbEntity
  8
AM_3 ( Verdeckt )
  6
AM_ISO02W050x2
100
AcDbLine
 10
1568.82018718976
 20
-429.98849078759
 30
0.0
 11
1563.62018711166
 21
-435.188490865686
 31
0.0
  0
LINE
  5
BF9
330
22
100
AcDbEntity
  8
AM_3 ( Verdeckt )
  6
AM_ISO02W050x2
100
AcDbLine
 10
1614.82018788061
 20
-429.98849078759
 30
0.0
 11
1620.02018795871
 21
-435.188490865686
 31
0.0
  0
LINE
  5
BFA
330
22
100
AcDbEntity
  8
AM_3 ( Verdeckt )
  6
AM_ISO02W050x2
100
AcDbLine
 10
1620.02018795871
 20
-435.188490865686
 30
0.0
 11
1563.62018711166
 21
-435.188490865686
 31
0.0
  0
LINE
  5
BFB
330
22
100
AcDbEntity
  8
AM_3 ( Verdeckt )
  6
AM_ISO02W050x2
100
AcDbLine
 10
1629.82018810589
 20
-463.9884912982188
 30
0.0
 11
1630.345453015709
 21
-469.992296690296
 31
0.0
  0
LINE
  5
BFC
330
22
100
AcDbEntity
  8
AM_3 ( Verdeckt )
  6
AM_ISO02W050x2
100
AcDbLine
 10
1553.82018696448
 20
-463.9884912982188
 30
0.0
 11
1553.29492205466
 21
-469.992296690296
 31
0.0
  0
LINE
  5
BFD
330
22
100
AcDbEntity
  8
AM_3 ( Verdeckt )
  6
AM_ISO02W050x2
100
AcDbLine
 10
1553.29492205466
 20
-469.992296690296
 30
0.0
 11
1552.10770342646
 21
-470.9884914033477
 31
0.0
  0
LINE
  5
BFE
330
22
100
AcDbEntity
  8
AM_3 ( Verdeckt )
  6
AM_ISO02W050x2
100
AcDbLine
 10
1630.345453015709
 20
-469.992296690296
 30
0.0
 11
1631.53267164391
 21
-470.9884914033477
 31
0.0
  0
LINE
  5
BFF
330
22
100
AcDbEntity
  8
AM_3 ( Verdeckt )
  6
AM_ISO02W050x2
100
AcDbLine
 10
1553.29492205466
 20
-469.992296690296
 30
0.0
 11
1630.345453015709
 21
-469.992296690296
 31
0.0
  0
LINE
  5
C00
330
22
100
AcDbEntity
  8
AM_3 ( Verdeckt )
  6
AM_ISO02W050x2
100
AcDbLine
 10
1614.82018788061
 20
-418.488490614877
 30
0.0
 11
1615.320187888119
 21
-417.988490607368
 31
0.0
  0
LINE
  5
C01
330
22
100
AcDbEntity
  8
AM_3 ( Verdeckt )
  6
AM_ISO02W050x2
100
AcDbLine
 10
1568.82018718976
 20
-418.488490614877
 30
0.0
 11
1568.32018718225
 21
-417.988490607368
 31
0.0
  0
LINE
  5
C02
330
22
100
AcDbEntity
  8
AM_3 ( Verdeckt )
  6
AM_ISO02W050x2
100
AcDbLine
 10
1614.82018788061
 20
-418.488490614877
 30
0.0
 11
1568.82018718976
 21
-418.488490614877
 31
0.0
  0
ARC
  5
C03
330
22
100
AcDbEntity
  8
AM_3 ( Verdeckt )
  6
AM_ISO02W050x2
100
AcDbCircle
 10
-1591.82018753518
 20
-456.6019603398999
 30
0.0
 40
46.0000006908507
210
0.0
220
0.0
230
-1.0
100
AcDbArc
 50
47.16727235783522
 51
57.0792654719114
  0
ARC
  5
C04
330
22
100
AcDbEntity
  8
AM_3 ( Verdeckt )
  6
AM_ISO02W050x2
100
AcDbCircle
 10
1591.82018753518
 20
-456.6019603398999
 30
0.0
 40
46.0000006908507
100
AcDbArc
 50
47.1672723578346
 51
57.0792654719114
  0
LINE
  5
C05
330
22
100
AcDbEntity
  8
AM_0 ( Kontur 0.5 )
100
AcDbLine
 10
1559.46821924453
 20
-335.288489365339
 30
0.0
 11
1542.98044083953
 21
-335.288489365339
 31
0.0
  0
LINE
  5
C06
330
22
100
AcDbEntity
  8
AM_0 ( Kontur 0.5 )
100
AcDbLine
 10
1530.32018661155
 20
-329.288489275228
 30
0.0
 11
1591.82018753518
 21
-329.288489275228
 31
0.0
  0
LINE
  5
C07
330
22
100
AcDbEntity
  8
AM_0 ( Kontur 0.5 )
100
AcDbLine
 10
1588.64081040583
 20
-241.82459271478
 30
0.0
 11
1594.53262521056
 21
-241.82459271478
 31
0.0
  0
LINE
  5
C08
330
22
100
AcDbEntity
  8
AM_0 ( Kontur 0.5 )
100
AcDbLine
 10
1595.19929186722
 20
-243.824592684743
 30
0.0
 11
1596.63803443428
 21
-248.140820385936
 31
0.0
  0
LINE
  5
C09
330
22
100
AcDbEntity
  8
AM_0 ( Kontur 0.5 )
100
AcDbLine
 10
1577.82018732493
 20
-335.288489365339
 30
0.0
 11
1570.18847239532
 21
-335.288489365339
 31
0.0
  0
LINE
  5
C0A
330
22
100
AcDbEntity
  8
AM_0 ( Kontur 0.5 )
100
AcDbLine
 10
1640.65993423084
 20
-335.288489365339
 30
0.0
 11
1617.41810152771
 21
-375.544524468167
 31
0.0
  0
LINE
  5
C0B
330
22
100
AcDbEntity
  8
AM_0 ( Kontur 0.5 )
100
AcDbLine
 10
1563.66625529034
 20
-335.288489365339
 30
0.0
 11
1580.87842329724
 21
-387.78849015381
 31
0.0
  0
LINE
  5
C0C
330
22
100
AcDbEntity
  8
AM_0 ( Kontur 0.5 )
100
AcDbLine
 10
1598.53540100189
 20
-247.508364863402
 30
0.0
 11
1592.53540146601
 21
-229.508366255783
 31
0.0
  0
LINE
  5
C0D
330
22
100
AcDbEntity
  8
AM_0 ( Kontur 0.5 )
100
AcDbLine
 10
1561.07018707336
 20
-387.788490153809
 30
0.0
 11
1622.570187997
 21
-387.788490153809
 31
0.0
  0
LINE
  5
C0E
330
22
100
AcDbEntity
  8
AM_0 ( Kontur 0.5 )
100
AcDbLine
 10
1599.95248699071
 20
-376.463972534429
 30
0.0
 11
1602.76195177312
 21
-387.788490153809
 31
0.0
  0
ARC
  5
C0F
330
22
100
AcDbEntity
  8
AM_0 ( Kontur 0.5 )
100
AcDbCircle
 10
1595.78160355267
 20
-293.929618725112
 30
0.0
 40
0.9999999849815079
100
AcDbArc
 50
270.0
 51
89.99999999999978
  0
ARC
  5
C10
330
22
100
AcDbEntity
  8
AM_0 ( Kontur 0.5 )
100
AcDbCircle
 10
1593.78160358271
 20
-301.929618604964
 30
0.0
 40
0.9999999849815079
100
AcDbArc
 50
269.9999664574504
 51
90.0000335425495
  0
ARC
  5
C11
330
22
100
AcDbEntity
  8
AM_0 ( Kontur 0.5 )
100
AcDbCircle
 10
1595.78160355267
 20
-311.929618454779
 30
0.0
 40
0.9999999849815079
100
AcDbArc
 50
270.0
 51
89.99999999999978
  0
LINE
  5
C12
330
22
100
AcDbEntity
  8
AM_0 ( Kontur 0.5 )
100
AcDbLine
 10
1588.7816036578
 20
-310.929618469796
 30
0.0
 11
1588.7816036578
 21
-302.929618589944
 31
0.0
  0
LINE
  5
C13
330
22
100
AcDbEntity
  8
AM_0 ( Kontur 0.5 )
100
AcDbLine
 10
1585.54821358523
 20
-210.825342376423
 30
0.0
 11
1585.54821358523
 21
-202.825334866536
 31
0.0
  0
LINE
  5
C14
330
22
100
AcDbEntity
  8
AM_0 ( Kontur 0.5 )
100
AcDbLine
 10
1597.54821340501
 20
-210.825342376423
 30
0.0
 11
1597.54821340501
 21
-202.825334866536
 31
0.0
  0
ARC
  5
C15
330
22
100
AcDbEntity
  8
AM_0 ( Kontur 0.5 )
100
AcDbCircle
 10
1591.54821349512
 20
-202.825334866536
 30
0.0
 40
5.999999909889048
100
AcDbArc
 50
0.0
 51
180.0
  0
ARC
  5
C16
330
22
100
AcDbEntity
  8
AM_0 ( Kontur 0.5 )
100
AcDbCircle
 10
1591.54821349512
 20
-210.825334746388
 30
0.0
 40
5.999999909889048
100
AcDbArc
 50
179.999927138534
 51
0.0000000000002036
  0
LINE
  5
C17
330
22
100
AcDbEntity
  8
AM_0 ( Kontur 0.5 )
100
AcDbLine
 10
1595.54821343505
 20
-210.825342376423
 30
0.0
 11
1595.54821343505
 21
-202.825334866536
 31
0.0
  0
LINE
  5
C18
330
22
100
AcDbEntity
  8
AM_0 ( Kontur 0.5 )
100
AcDbLine
 10
1587.5482135552
 20
-210.825342376423
 30
0.0
 11
1587.5482135552
 21
-202.825334866536
 31
0.0
  0
ARC
  5
C19
330
22
100
AcDbEntity
  8
AM_0 ( Kontur 0.5 )
100
AcDbCircle
 10
1591.54821349512
 20
-202.825334866536
 30
0.0
 40
3.99999993992603
100
AcDbArc
 50
0.0
 51
180.0
  0
ARC
  5
C1A
330
22
100
AcDbEntity
  8
AM_0 ( Kontur 0.5 )
100
AcDbCircle
 10
1591.54821349512
 20
-210.825334746388
 30
0.0
 40
3.99999993992603
100
AcDbArc
 50
179.999890707802
 51
0.0000000000002036
  0
LINE
  5
C1B
330
22
100
AcDbEntity
  8
AM_0 ( Kontur 0.5 )
100
AcDbLine
 10
1529.32018659653
 20
-330.288489290246
 30
0.0
 11
1530.32018661155
 21
-329.288489275228
 31
0.0
  0
LINE
  5
C1C
330
22
100
AcDbEntity
  8
AM_0 ( Kontur 0.5 )
100
AcDbLine
 10
1649.32018839875
 20
-335.288489365339
 30
0.0
 11
1649.32018839875
 21
-340.2884894404309
 31
0.0
  0
LINE
  5
C1D
330
22
100
AcDbEntity
  8
AM_0 ( Kontur 0.5 )
100
AcDbLine
 10
1587.97414374917
 20
-243.824592684743
 30
0.0
 11
1595.19929186722
 21
-243.824592684743
 31
0.0
  0
LINE
  5
C1E
330
22
100
AcDbEntity
  8
AM_0 ( Kontur 0.5 )
100
AcDbLine
 10
1654.32018847384
 20
-330.288489290246
 30
0.0
 11
1653.32018845882
 21
-329.288489275228
 31
0.0
  0
LINE
  5
C1F
330
22
100
AcDbEntity
  8
AM_0 ( Kontur 0.5 )
100
AcDbLine
 10
1655.32018848886
 20
-470.9884914033477
 30
0.0
 11
1655.32018848886
 21
-459.9884912381448
 31
0.0
  0
LINE
  5
C20
330
22
100
AcDbEntity
  8
AM_7 (Mittellinie)
  6
AM_ISO08W050x2
100
AcDbLine
 10
1591.82018753518
 20
-472.4792752498577
 30
0.0
 11
1591.82018753518
 21
-423.2096669044087
 31
0.0
  0
LINE
  5
C21
330
22
100
AcDbEntity
  8
AM_0 ( Kontur 0.5 )
100
AcDbLine
 10
1528.32018658151
 20
-470.9884914033477
 30
0.0
 11
1528.32018658151
 21
-459.9884912381448
 31
0.0
  0
LINE
  5
C22
330
22
100
AcDbEntity
  8
AM_0 ( Kontur 0.5 )
100
AcDbLine
 10
1528.32018658151
 20
-470.9884914033477
 30
0.0
 11
1655.32018848886
 21
-470.9884914033477
 31
0.0
  0
ARC
  5
C23
330
22
100
AcDbEntity
  8
AM_0 ( Kontur 0.5 )
100
AcDbCircle
 10
1633.82018816596
 20
-436.9884908927178
 30
0.0
 40
2.50000003754623
100
AcDbArc
 50
180.0
 51
270.0
  0
LINE
  5
C24
330
22
100
AcDbEntity
  8
AM_0 ( Kontur 0.5 )
100
AcDbLine
 10
1591.82018753518
 20
-457.9884912081078
 30
0.0
 11
1643.82018831614
 21
-457.9884912081078
 31
0.0
  0
ARC
  5
C25
330
22
100
AcDbEntity
  8
AM_0 ( Kontur 0.5 )
100
AcDbCircle
 10
1541.82018678426
 20
-176.488486980402
 30
0.0
 40
2.00000003003698
100
AcDbArc
 50
89.9999999999996
 51
180.0
  0
ARC
  5
C26
330
22
100
AcDbEntity
  8
AM_0 ( Kontur 0.5 )
100
AcDbCircle
 10
1592.89214204637
 20
-265.429619153139
 30
0.0
 40
2.499999962453768
100
AcDbArc
 50
25.3769311591051
 51
90.00000000000019
  0
LINE
  5
C27
330
22
100
AcDbEntity
  8
AM_0 ( Kontur 0.5 )
100
AcDbLine
 10
1591.82018753518
 20
-446.4884910353939
 30
0.0
 11
1655.82018849637
 21
-446.4884910353939
 31
0.0
  0
LINE
  5
C28
330
22
100
AcDbEntity
  8
AM_0 ( Kontur 0.5 )
100
AcDbLine
 10
1586.78160368784
 20
-312.929618439759
 30
0.0
 11
1586.78160368784
 21
-292.929618740129
 31
0.0
  0
LINE
  5
C29
330
22
100
AcDbEntity
  8
AM_0 ( Kontur 0.5 )
100
AcDbLine
 10
1534.32018667162
 20
-340.2884894404309
 30
0.0
 11
1561.14742713522
 21
-386.7546329502559
 31
0.0
  0
LINE
  5
C2A
330
22
100
AcDbEntity
  8
AM_0 ( Kontur 0.5 )
100
AcDbLine
 10
1649.32018839875
 20
-340.2884894404309
 30
0.0
 11
1622.49294793515
 21
-386.7546329502559
 31
0.0
  0
LINE
  5
C2B
330
22
100
AcDbEntity
  8
AM_0 ( Kontur 0.5 )
100
AcDbLine
 10
1591.5867178082
 20
-232.986870507678
 30
0.0
 11
1588.64081040583
 21
-241.82459271478
 31
0.0
  0
LINE
  5
C2C
330
22
100
AcDbEntity
  8
AM_0 ( Kontur 0.5 )
100
AcDbLine
 10
1559.46821924453
 20
-335.288489365339
 30
0.0
 11
1559.46821924453
 21
-340.2884894404309
 31
0.0
  0
ARC
  5
C2D
330
22
100
AcDbEntity
  8
AM_0 ( Kontur 0.5 )
100
AcDbCircle
 10
-1653.32018845882
 20
-459.9884912381448
 30
0.0
 40
2.00000003003698
210
0.0
220
0.0
230
-1.0
100
AcDbArc
 50
90.0
 51
180.0
  0
ARC
  5
C2E
330
22
100
AcDbEntity
  8
AM_0 ( Kontur 0.5 )
100
AcDbCircle
 10
-1530.32018661155
 20
-459.9884912381448
 30
0.0
 40
2.00000003003698
210
0.0
220
0.0
230
-1.0
100
AcDbArc
 50
0.0
 51
90.0
  0
LINE
  5
C2F
330
22
100
AcDbEntity
  8
AM_0 ( Kontur 0.5 )
100
AcDbLine
 10
1542.98044083953
 20
-335.288489365339
 30
0.0
 11
1566.22227354265
 21
-375.544524468167
 31
0.0
  0
LINE
  5
C30
330
22
100
AcDbEntity
  8
AM_0 ( Kontur 0.5 )
100
AcDbLine
 10
1531.32018662657
 20
-335.288489365339
 30
0.0
 11
1591.82018753518
 21
-335.288489365339
 31
0.0
  0
LINE
  5
C31
330
22
100
AcDbEntity
  8
AM_0 ( Kontur 0.5 )
100
AcDbLine
 10
1624.17215582584
 20
-335.288489365339
 30
0.0
 11
1640.65993423084
 21
-335.288489365339
 31
0.0
  0
ARC
  5
C32
330
22
100
AcDbEntity
  8
AM_0 ( Kontur 0.5 )
100
AcDbCircle
 10
1641.82018828611
 20
-176.488486980402
 30
0.0
 40
2.00000003003698
100
AcDbArc
 50
0.0000000000001908
 51
89.9999999999996
  0
LINE
  5
C33
330
22
100
AcDbEntity
  8
AM_0 ( Kontur 0.5 )
100
AcDbLine
 10
1591.82018753518
 20
-417.488490599858
 30
0.0
 11
1628.82018809087
 21
-417.488490599858
 31
0.0
  0
LINE
  5
C34
330
22
100
AcDbEntity
  8
AM_0 ( Kontur 0.5 )
100
AcDbLine
 10
1613.45190267505
 20
-335.288489365339
 30
0.0
 11
1599.95248699071
 21
-376.463972534429
 31
0.0
  0
ARC
  5
C35
330
22
100
AcDbEntity
  8
AM_0 ( Kontur 0.5 )
100
AcDbCircle
 10
1608.32018778299
 20
-349.385728879311
 30
0.0
 40
2.50000003754623
100
AcDbArc
 50
180.0
 51
204.356391252796
  0
LINE
  5
C36
330
22
100
AcDbEntity
  8
AM_0 ( Kontur 0.5 )
100
AcDbLine
 10
1653.32018845882
 20
-329.288489275228
 30
0.0
 11
1591.82018753518
 21
-329.288489275228
 31
0.0
  0
LINE
  5
C37
330
22
100
AcDbEntity
  8
AM_0 ( Kontur 0.5 )
100
AcDbLine
 10
1539.82018675422
 20
-185.488487115569
 30
0.0
 11
1591.82018753518
 21
-185.488487115569
 31
0.0
  0
ARC
  5
C38
330
22
100
AcDbEntity
  8
AM_0 ( Kontur 0.5 )
100
AcDbCircle
 10
1589.89214209142
 20
-276.429618987935
 30
0.0
 40
4.499999932416788
100
AcDbArc
 50
205.376933525152
 51
270.0
  0
ARC
  5
C39
330
22
100
AcDbEntity
  8
AM_0 ( Kontur 0.5 )
100
AcDbCircle
 10
-1652.3201884438
 20
-333.288489335302
 30
0.0
 40
2.00000003003698
210
0.0
220
0.0
230
-1.0
100
AcDbArc
 50
180.0
 51
270.0
  0
LINE
  5
C3A
330
22
100
AcDbEntity
  8
AM_0 ( Kontur 0.5 )
100
AcDbLine
 10
1624.17215582584
 20
-335.288489365339
 30
0.0
 11
1624.17215582584
 21
-340.2884894404309
 31
0.0
  0
ARC
  5
C3B
330
22
100
AcDbEntity
  8
AM_0 ( Kontur 0.5 )
100
AcDbCircle
 10
-1557.38880946846
 20
-455.9884911780708
 30
0.0
 40
2.00000003003698
210
0.0
220
0.0
230
-1.0
100
AcDbArc
 50
182.0
 51
270.0
  0
LINE
  5
C3C
102
{ACAD_REACTORS
330
ED4
102
}
330
22
100
AcDbEntity
  8
AM_0 ( Kontur 0.5 )
100
AcDbLine
 10
1654.32018847384
 20
-330.288489290246
 30
0.0
 11
1654.32018847384
 21
-333.288489335302
 31
0.0
  0
LINE
  5
C3D
330
22
100
AcDbEntity
  8
AM_0 ( Kontur 0.5 )
100
AcDbLine
 10
1623.9185991681
 20
-446.4884910353939
 30
0.0
 11
1624.25278391785
 21
-456.058290172524
 31
0.0
  0
ARC
  5
C3E
330
22
100
AcDbEntity
  8
AM_0 ( Kontur 0.5 )
100
AcDbCircle
 10
1589.89214209142
 20
-276.429618987935
 30
0.0
 40
2.499999962453768
100
AcDbArc
 50
205.376931159105
 51
270.0
  0
ARC
  5
C3F
330
22
100
AcDbEntity
  8
AM_0 ( Kontur 0.5 )
100
AcDbCircle
 10
1531.32018662657
 20
-333.288489335302
 30
0.0
 40
2.00000003003698
100
AcDbArc
 50
180.0
 51
270.0
  0
LINE
  5
C40
330
22
100
AcDbEntity
  8
AM_0 ( Kontur 0.5 )
100
AcDbLine
 10
1586.78160368784
 20
-292.929618740129
 30
0.0
 11
1595.78160355267
 21
-292.929618740129
 31
0.0
  0
LINE
  5
C41
330
22
100
AcDbEntity
  8
AM_0 ( Kontur 0.5 )
100
AcDbLine
 10
1591.5867178082
 20
-232.986870507678
 30
0.0
 11
1594.53262521056
 21
-241.82459271478
 31
0.0
  0
LINE
  5
C42
330
22
100
AcDbEntity
  8
AM_0 ( Kontur 0.5 )
100
AcDbLine
 10
1605.82018774544
 20
-335.288489365339
 30
0.0
 11
1613.45190267505
 21
-335.288489365339
 31
0.0
  0
LINE
  5
C43
330
22
100
AcDbEntity
  8
AM_0 ( Kontur 0.5 )
100
AcDbLine
 10
1624.17215582584
 20
-340.2884894404309
 30
0.0
 11
1608.59924191483
 21
-387.788490153809
 31
0.0
  0
LINE
  5
C44
330
22
100
AcDbEntity
  8
AM_0 ( Kontur 0.5 )
100
AcDbLine
 10
1570.18847239532
 20
-335.288489365339
 30
0.0
 11
1583.68788807966
 21
-376.463972534431
 31
0.0
  0
ARC
  5
C45
330
22
100
AcDbEntity
  8
AM_0 ( Kontur 0.5 )
100
AcDbCircle
 10
1563.57018711091
 20
-387.464776141775
 30
0.0
 40
2.50000003754623
100
AcDbArc
 50
155.643608747204
 51
180.0
  0
ARC
  5
C46
330
22
100
AcDbEntity
  8
AM_0 ( Kontur 0.5 )
100
AcDbCircle
 10
1626.25156560191
 20
-455.9884911780708
 30
0.0
 40
2.00000003003698
100
AcDbArc
 50
182.0
 51
270.0
  0
LINE
  5
C47
330
22
100
AcDbEntity
  8
AM_0 ( Kontur 0.5 )
100
AcDbLine
 10
1650.820188316149
 20
-429.4884909302647
 30
0.0
 11
1636.82018831614
 21
-429.4884909302647
 31
0.0
  0
LINE
  5
C48
330
22
100
AcDbEntity
  8
AM_0 ( Kontur 0.5 )
100
AcDbLine
 10
1589.89214209142
 20
-260.929619220722
 30
0.0
 11
1592.89214204637
 21
-260.929619220722
 31
0.0
  0
LINE
  5
C49
330
22
100
AcDbEntity
  8
AM_0 ( Kontur 0.5 )
100
AcDbLine
 10
1559.72177590227
 20
-446.4884910353939
 30
0.0
 11
1559.38759115252
 21
-456.058290172524
 31
0.0
  0
ARC
  5
C4A
330
22
100
AcDbEntity
  8
AM_0 ( Kontur 0.5 )
100
AcDbCircle
 10
1628.82018809087
 20
-419.988490637404
 30
0.0
 40
2.50000003754623
100
AcDbArc
 50
0.0000000000001908
 51
89.9999999999996
  0
ARC
  5
C4B
330
22
100
AcDbEntity
  8
AM_0 ( Kontur 0.5 )
100
AcDbCircle
 10
1554.8201869795
 20
-419.988490637404
 30
0.0
 40
2.50000003754623
100
AcDbArc
 50
89.9999999999996
 51
180.0
  0
ARC
  5
C4C
330
22
100
AcDbEntity
  8
AM_0 ( Kontur 0.5 )
100
AcDbCircle
 10
1575.32018728738
 20
-349.385728879311
 30
0.0
 40
2.50000003754623
100
AcDbArc
 50
335.6436087472042
 51
0.0000000000002036
  0
ARC
  5
C4D
330
22
100
AcDbEntity
  8
AM_0 ( Kontur 0.5 )
100
AcDbCircle
 10
1592.89214204637
 20
-276.429618987935
 30
0.0
 40
4.499999932416788
100
AcDbArc
 50
270.0
 51
53.13010959866542
  0
LINE
  5
C4E
330
22
100
AcDbEntity
  8
AM_0 ( Kontur 0.5 )
100
AcDbLine
 10
1591.82018753518
 20
-439.4884909302649
 30
0.0
 11
1530.32018661155
 21
-439.4884909302649
 31
0.0
  0
LINE
  5
C4F
330
22
100
AcDbEntity
  8
AM_0 ( Kontur 0.5 )
100
AcDbLine
 10
1588.7816036578
 20
-294.929618710093
 30
0.0
 11
1595.78160355267
 21
-294.929618710093
 31
0.0
  0
ARC
  5
C50
330
22
100
AcDbEntity
  8
AM_0 ( Kontur 0.5 )
100
AcDbCircle
 10
1549.82018690441
 20
-436.9884908927178
 30
0.0
 40
2.50000003754623
100
AcDbArc
 50
270.0
 51
0.0000000000002036
  0
ARC
  5
C51
330
22
100
AcDbEntity
  8
AM_0 ( Kontur 0.5 )
100
AcDbCircle
 10
1620.07018795946
 20
-387.464776141775
 30
0.0
 40
2.50000003754623
100
AcDbArc
 50
0.0000000000001908
 51
24.35639125279581
  0
LINE
  5
C52
330
22
100
AcDbEntity
  8
AM_0 ( Kontur 0.5 )
100
AcDbLine
 10
1586.78160368784
 20
-312.929618439759
 30
0.0
 11
1595.78160355267
 21
-312.929618439759
 31
0.0
  0
ARC
  5
C53
330
22
100
AcDbEntity
  8
AM_0 ( Kontur 0.5 )
100
AcDbCircle
 10
1592.89214204637
 20
-265.429619153139
 30
0.0
 40
4.499999932416788
100
AcDbArc
 50
25.3769335251523
 51
90.00000000000019
  0
LINE
  5
C54
330
22
100
AcDbEntity
  8
AM_0 ( Kontur 0.5 )
100
AcDbLine
 10
1561.07018707336
 20
-387.464776141775
 30
0.0
 11
1561.07018707336
 21
-414.9884905623117
 31
0.0
  0
LINE
  5
C55
330
22
100
AcDbEntity
  8
AM_0 ( Kontur 0.5 )
100
AcDbLine
 10
1559.46821924453
 20
-340.2884894404309
 30
0.0
 11
1575.04113315553
 21
-387.788490153809
 31
0.0
  0
LINE
  5
C56
330
22
100
AcDbEntity
  8
AM_0 ( Kontur 0.5 )
100
AcDbLine
 10
1552.32018694195
 20
-419.988490637404
 30
0.0
 11
1552.32018694195
 21
-436.9884908927178
 31
0.0
  0
LINE
  5
C57
330
22
100
AcDbEntity
  8
AM_2 ( Kontur 0.25)
100
AcDbLine
 10
1639.74034081614
 20
-470.988491163052
 30
0.0
 11
1639.74034081614
 21
-473.568338430265
 31
0.0
  0
LINE
  5
C58
330
22
100
AcDbEntity
  8
AM_0 ( Kontur 0.5 )
100
AcDbLine
 10
1651.82018831614
 20
-439.4884909302649
 30
0.0
 11
1651.82018831614
 21
-430.4884909302638
 31
0.0
  0
LINE
  5
C59
330
22
100
AcDbEntity
  8
AM_0 ( Kontur 0.5 )
100
AcDbLine
 10
1635.82018831614
 20
-430.4884909302638
 30
0.0
 11
1635.82018831614
 21
-439.4884909302649
 31
0.0
  0
LINE
  5
C5A
330
22
100
AcDbEntity
  8
AM_0 ( Kontur 0.5 )
100
AcDbLine
 10
1589.89214209142
 20
-280.929618920352
 30
0.0
 11
1592.89214204637
 21
-280.929618920352
 31
0.0
  0
LINE
  5
C5B
330
22
100
AcDbEntity
  8
AM_0 ( Kontur 0.5 )
100
AcDbLine
 10
1589.89214209142
 20
-262.929619190685
 30
0.0
 11
1592.89214204637
 21
-262.929619190685
 31
0.0
  0
LINE
  5
C5C
330
22
100
AcDbEntity
  8
AM_0 ( Kontur 0.5 )
100
AcDbLine
 10
1589.89214209142
 20
-278.929618950389
 30
0.0
 11
1592.89214204637
 21
-278.929618950389
 31
0.0
  0
ARC
  5
C5D
330
22
100
AcDbEntity
  8
AM_0 ( Kontur 0.5 )
100
AcDbCircle
 10
1589.89214209142
 20
-265.429619153139
 30
0.0
 40
2.499999962453768
100
AcDbArc
 50
90.00000000000019
 51
233.130102354156
  0
ARC
  5
C5E
330
22
100
AcDbEntity
  8
AM_0 ( Kontur 0.5 )
100
AcDbCircle
 10
1592.89214204637
 20
-276.429618987935
 30
0.0
 40
2.499999962453768
100
AcDbArc
 50
270.0
 51
53.130164173972
  0
LINE
  5
C5F
330
22
100
AcDbEntity
  8
AM_0 ( Kontur 0.5 )
100
AcDbLine
 10
1638.82018831614
 20
-470.988491163052
 30
0.0
 11
1638.82018831614
 21
-473.568338430265
 31
0.0
  0
LINE
  5
C60
330
22
100
AcDbEntity
  8
AM_0 ( Kontur 0.5 )
100
AcDbLine
 10
1648.82018831615
 20
-470.988491163052
 30
0.0
 11
1648.82018831615
 21
-473.568338430265
 31
0.0
  0
LINE
  5
C61
330
22
100
AcDbEntity
  8
AM_2 ( Kontur 0.25)
100
AcDbLine
 10
1639.74034081614
 20
-446.4884910353939
 30
0.0
 11
1639.74034081614
 21
-457.9884912081078
 31
0.0
  0
LINE
  5
C62
330
22
100
AcDbEntity
  8
AM_2 ( Kontur 0.25)
100
AcDbLine
 10
1647.90003581615
 20
-446.4884910353939
 30
0.0
 11
1647.90003581615
 21
-457.9884912081078
 31
0.0
  0
LINE
  5
C63
330
22
100
AcDbEntity
  8
AM_0 ( Kontur 0.5 )
100
AcDbLine
 10
1605.82018774544
 20
-331.988489315777
 30
0.0
 11
1605.82018774544
 21
-335.288489365339
 31
0.0
  0
ARC
  5
C64
330
22
100
AcDbEntity
  8
AM_0 ( Kontur 0.5 )
100
AcDbCircle
 10
1596.05441965904
 20
-263.929619175666
 30
0.0
 40
0.9999999849815079
100
AcDbArc
 50
205.376927610035
 51
25.376933525152
  0
ARC
  5
C65
330
22
100
AcDbEntity
  8
AM_0 ( Kontur 0.5 )
100
AcDbCircle
 10
1579.82018735496
 20
-331.988489315777
 30
0.0
 40
2.00000003003698
100
AcDbArc
 50
89.9999999999996
 51
180.0
  0
LINE
  5
C66
330
22
100
AcDbEntity
  8
AM_0 ( Kontur 0.5 )
100
AcDbLine
 10
1619.97411978003
 20
-335.288489365339
 30
0.0
 11
1602.76195177312
 21
-387.788490153809
 31
0.0
  0
LINE
  5
C67
330
22
100
AcDbEntity
  8
AM_0 ( Kontur 0.5 )
100
AcDbLine
 10
1583.68788807966
 20
-376.463972534431
 30
0.0
 11
1580.87842329724
 21
-387.78849015381
 31
0.0
  0
ARC
  5
C68
330
22
100
AcDbEntity
  8
AM_0 ( Kontur 0.5 )
100
AcDbCircle
 10
1586.72986447875
 20
-277.929618965408
 30
0.0
 40
0.9999999849815079
100
AcDbArc
 50
25.3769276100352
 51
205.376933525152
  0
ARC
  5
C69
330
22
100
AcDbEntity
  8
AM_0 ( Kontur 0.5 )
100
AcDbCircle
 10
1585.58671789831
 20
-247.824592624669
 30
0.0
 40
0.9999999849815079
100
AcDbArc
 50
161.565051177076
 51
341.565360238422
  0
LINE
  5
C6A
330
22
100
AcDbEntity
  8
AM_0 ( Kontur 0.5 )
100
AcDbLine
 10
1605.82018774544
 20
-335.288489365339
 30
0.0
 11
1605.82018774544
 21
-349.385728879311
 31
0.0
  0
LINE
  5
C6B
330
22
100
AcDbEntity
  8
AM_0 ( Kontur 0.5 )
100
AcDbLine
 10
1584.6380346145
 20
-247.508364863402
 30
0.0
 11
1590.63803410504
 21
-229.508366391802
 31
0.0
  0
ARC
  5
C6C
330
22
100
AcDbEntity
  8
AM_0 ( Kontur 0.5 )
100
AcDbCircle
 10
1603.82018771541
 20
-331.988489315777
 30
0.0
 40
2.00000003003698
100
AcDbArc
 50
0.0000000000001908
 51
89.9999999999996
  0
LINE
  5
C6D
330
22
100
AcDbEntity
  8
AM_0 ( Kontur 0.5 )
100
AcDbLine
 10
1576.17709050287
 20
-353.554779541116
 30
0.0
 11
1577.59768186528
 21
-350.416756830119
 31
0.0
  0
LINE
  5
C6E
330
22
100
AcDbEntity
  8
AM_0 ( Kontur 0.5 )
100
AcDbLine
 10
1607.4632845675
 20
-353.554779541118
 30
0.0
 11
1606.04269320508
 21
-350.416756830119
 31
0.0
  0
LINE
  5
C6F
330
22
100
AcDbEntity
  8
AM_0 ( Kontur 0.5 )
100
AcDbLine
 10
1622.34768253736
 20
-386.433748190967
 30
0.0
 11
1614.63150841518
 21
-369.389065055399
 31
0.0
  0
LINE
  5
C70
330
22
100
AcDbEntity
  8
AM_0 ( Kontur 0.5 )
100
AcDbLine
 10
1614.63150841518
 20
-369.389065055399
 30
0.0
 11
1607.4632845675
 21
-353.554779541118
 31
0.0
  0
LINE
  5
C71
330
22
100
AcDbEntity
  8
AM_0 ( Kontur 0.5 )
100
AcDbLine
 10
1569.00886665519
 20
-369.389065055398
 30
0.0
 11
1576.17709050287
 21
-353.554779541116
 31
0.0
  0
LINE
  5
C72
330
22
100
AcDbEntity
  8
AM_0 ( Kontur 0.5 )
100
AcDbLine
 10
1577.82018732493
 20
-349.385728879311
 30
0.0
 11
1605.82018774544
 21
-349.385728879311
 31
0.0
  0
LINE
  5
C73
330
22
100
AcDbEntity
  8
AM_0 ( Kontur 0.5 )
100
AcDbLine
 10
1570.82018792566
 20
-470.988491163052
 30
0.0
 11
1570.82018792566
 21
-473.568338430265
 31
0.0
  0
LINE
  5
C74
330
22
100
AcDbEntity
  8
AM_0 ( Kontur 0.5 )
100
AcDbLine
 10
1591.82018753518
 20
-439.4884909302649
 30
0.0
 11
1653.32018845882
 21
-439.4884909302649
 31
0.0
  0
ARC
  5
C75
330
22
100
AcDbEntity
  8
AM_0 ( Kontur 0.5 )
100
AcDbCircle
 10
1597.58671771808
 20
-247.824592624669
 30
0.0
 40
0.9999999849815079
100
AcDbArc
 50
198.434641464407
 51
18.4349488229215
  0
ARC
  5
C76
330
22
100
AcDbEntity
  8
AM_0 ( Kontur 0.5 )
100
AcDbCircle
 10
1589.89214209142
 20
-265.429619153139
 30
0.0
 40
4.499999932416788
100
AcDbArc
 50
90.00000000000019
 51
233.130102354156
  0
LINE
  5
C77
330
22
100
AcDbEntity
  8
AM_0 ( Kontur 0.5 )
100
AcDbLine
 10
1588.39214211395
 20
-267.429619123102
 30
0.0
 11
1595.59214200582
 21
-272.829619042002
 31
0.0
  0
LINE
  5
C78
330
22
100
AcDbEntity
  8
AM_0 ( Kontur 0.5 )
100
AcDbLine
 10
1643.82018831614
 20
-457.9884912081078
 30
0.0
 11
1653.32018845882
 21
-457.9884912081078
 31
0.0
  0
ARC
  5
C79
330
22
100
AcDbEntity
  8
AM_0 ( Kontur 0.5 )
100
AcDbCircle
 10
1591.5867178082
 20
-229.824592895001
 30
0.0
 40
0.999999984981501
100
AcDbArc
 50
18.4348810567411
 51
161.565127158135
  0
ARC
  5
C7A
330
22
100
AcDbEntity
  8
AM_0 ( Kontur 0.5 )
100
AcDbCircle
 10
1530.32018661155
 20
-441.9884909678109
 30
0.0
 40
2.50000003754623
100
AcDbArc
 50
89.9999999999996
 51
180.0
  0
LINE
  5
C7B
330
22
100
AcDbEntity
  8
AM_0 ( Kontur 0.5 )
100
AcDbLine
 10
1591.82018753518
 20
-417.488490599858
 30
0.0
 11
1554.8201869795
 21
-417.488490599858
 31
0.0
  0
LINE
  5
C7C
102
{ACAD_REACTORS
330
E08
330
E44
102
}
330
22
100
AcDbEntity
  8
AM_7 (Mittellinie)
  6
AM_ISO08W050x2
100
AcDbLine
 10
1591.82018753518
 20
-447.804928835811
 30
0.0
 11
1591.82018753518
 21
-172.68762135417
 31
0.0
  0
LINE
  5
C7D
330
22
100
AcDbEntity
  8
AM_0 ( Kontur 0.5 )
100
AcDbLine
 10
1652.3201884438
 20
-335.288489365339
 30
0.0
 11
1591.82018753518
 21
-335.288489365339
 31
0.0
  0
LINE
  5
C7E
330
22
100
AcDbEntity
  8
AM_0 ( Kontur 0.5 )
100
AcDbLine
 10
1588.7816036578
 20
-300.929618619981
 30
0.0
 11
1588.7816036578
 21
-294.929618710093
 31
0.0
  0
ARC
  5
C7F
330
22
100
AcDbEntity
  8
AM_0 ( Kontur 0.5 )
100
AcDbCircle
 10
1625.07018803455
 20
-414.9884905623117
 30
0.0
 40
2.50000003754623
100
AcDbArc
 50
180.0
 51
270.0
  0
ARC
  5
C80
330
22
100
AcDbEntity
  8
AM_0 ( Kontur 0.5 )
100
AcDbCircle
 10
1558.57018703582
 20
-414.9884905623117
 30
0.0
 40
2.50000003754623
100
AcDbArc
 50
270.0
 51
0.0000000000002036
  0
LINE
  5
C81
330
22
100
AcDbEntity
  8
AM_0 ( Kontur 0.5 )
100
AcDbLine
 10
1655.82018849637
 20
-441.9884909678109
 30
0.0
 11
1655.82018849637
 21
-446.4884910353939
 31
0.0
  0
LINE
  5
C82
330
22
100
AcDbEntity
  8
AM_0 ( Kontur 0.5 )
100
AcDbLine
 10
1588.7816036578
 20
-310.929618469796
 30
0.0
 11
1595.78160355267
 21
-310.929618469796
 31
0.0
  0
LINE
  5
C83
330
22
100
AcDbEntity
  8
AM_0 ( Kontur 0.5 )
100
AcDbLine
 10
1527.820186574
 20
-441.9884909678109
 30
0.0
 11
1527.820186574
 21
-446.4884910353939
 31
0.0
  0
LINE
  5
C84
330
22
100
AcDbEntity
  8
AM_0 ( Kontur 0.5 )
100
AcDbLine
 10
1587.97414374917
 20
-243.824592684743
 30
0.0
 11
1586.53540118211
 21
-248.140820385936
 31
0.0
  0
ARC
  5
C85
330
22
100
AcDbEntity
  8
AM_0 ( Kontur 0.5 )
100
AcDbCircle
 10
-1287.20596127176
 20
-239.799679863514
 30
0.0
 40
260.000003904808
210
0.0
220
0.0
230
-1.0
100
AcDbArc
 50
167.942735539445
 51
200.1322192726341
  0
LINE
  5
C86
330
22
100
AcDbEntity
  8
AM_0 ( Kontur 0.5 )
100
AcDbLine
 10
1529.32018659653
 20
-330.288489290246
 30
0.0
 11
1529.32018659653
 21
-333.288489335302
 31
0.0
  0
LINE
  5
C87
330
22
100
AcDbEntity
  8
AM_0 ( Kontur 0.5 )
100
AcDbLine
 10
1534.32018667162
 20
-335.288489365339
 30
0.0
 11
1534.32018667162
 21
-340.2884894404309
 31
0.0
  0
LINE
  5
C88
330
22
100
AcDbEntity
  8
AM_0 ( Kontur 0.5 )
100
AcDbLine
 10
1588.7816036578
 20
-302.929618589944
 30
0.0
 11
1593.78160416814
 21
-302.929618589944
 31
0.0
  0
LINE
  5
C89
330
22
100
AcDbEntity
  8
AM_0 ( Kontur 0.5 )
100
AcDbLine
 10
1588.7816036578
 20
-300.929618619981
 30
0.0
 11
1593.78160416814
 21
-300.929618619981
 31
0.0
  0
LINE
  5
C8A
330
22
100
AcDbEntity
  8
AM_0 ( Kontur 0.5 )
100
AcDbLine
 10
1591.82018753518
 20
-185.488487115569
 30
0.0
 11
1643.82018831614
 21
-185.488487115569
 31
0.0
  0
ARC
  5
C8B
330
22
100
AcDbEntity
  8
AM_0 ( Kontur 0.5 )
100
AcDbCircle
 10
1896.4344137986
 20
-239.799679863514
 30
0.0
 40
260.000003904808
100
AcDbArc
 50
167.942735539445
 51
200.132219272633
  0
LINE
  5
C8C
330
22
100
AcDbEntity
  8
AM_0 ( Kontur 0.5 )
100
AcDbLine
 10
1539.82018675422
 20
-176.488486980402
 30
0.0
 11
1539.82018675422
 21
-185.488487115569
 31
0.0
  0
LINE
  5
C8D
102
{ACAD_REACTORS
330
CDB
102
}
330
22
100
AcDbEntity
  8
AM_0 ( Kontur 0.5 )
100
AcDbLine
 10
1643.82018831614
 20
-176.488486980402
 30
0.0
 11
1643.82018831614
 21
-185.488487115569
 31
0.0
  0
LINE
  5
C8E
330
22
100
AcDbEntity
  8
AM_0 ( Kontur 0.5 )
100
AcDbLine
 10
1541.82018678426
 20
-174.488486950365
 30
0.0
 11
1641.82018828611
 21
-174.488486950365
 31
0.0
  0
LINE
  5
C8F
330
22
100
AcDbEntity
  8
AM_0 ( Kontur 0.5 )
100
AcDbLine
 10
1577.82018732493
 20
-331.988489315777
 30
0.0
 11
1577.82018732493
 21
-335.288489365339
 31
0.0
  0
LINE
  5
C90
330
22
100
AcDbEntity
  8
AM_0 ( Kontur 0.5 )
100
AcDbLine
 10
1527.820186574
 20
-446.4884910353939
 30
0.0
 11
1591.82018753518
 21
-446.4884910353939
 31
0.0
  0
LINE
  5
C91
330
22
100
AcDbEntity
  8
AM_0 ( Kontur 0.5 )
100
AcDbLine
 10
1579.82018735496
 20
-329.98848928574
 30
0.0
 11
1603.82018771541
 21
-329.98848928574
 31
0.0
  0
LINE
  5
C92
330
22
100
AcDbEntity
  8
AM_0 ( Kontur 0.5 )
100
AcDbLine
 10
1631.32018812841
 20
-419.988490637404
 30
0.0
 11
1631.32018812841
 21
-436.9884908927178
 31
0.0
  0
LINE
  5
C93
330
22
100
AcDbEntity
  8
AM_0 ( Kontur 0.5 )
100
AcDbLine
 10
1622.570187997
 20
-387.464776141775
 30
0.0
 11
1622.570187997
 21
-414.9884905623117
 31
0.0
  0
LINE
  5
C94
330
22
100
AcDbEntity
  8
AM_0 ( Kontur 0.5 )
100
AcDbLine
 10
1561.29269253301
 20
-386.433748190967
 30
0.0
 11
1569.00886665519
 21
-369.389065055398
 31
0.0
  0
LINE
  5
C95
330
22
100
AcDbEntity
  8
AM_0 ( Kontur 0.5 )
100
AcDbLine
 10
1594.39214202384
 20
-274.429619017972
 30
0.0
 11
1587.19214213197
 21
-269.029619099072
 31
0.0
  0
LINE
  5
C96
330
22
100
AcDbEntity
  8
AM_0 ( Kontur 0.5 )
100
AcDbLine
 10
1577.82018732493
 20
-335.288489365339
 30
0.0
 11
1577.82018732493
 21
-349.385728879311
 31
0.0
  0
ARC
  5
C97
330
22
100
AcDbEntity
  8
AM_0 ( Kontur 0.5 )
100
AcDbCircle
 10
1653.32018845882
 20
-441.9884909678109
 30
0.0
 40
2.50000003754623
100
AcDbArc
 50
0.0000000000001908
 51
90.00000000000019
  0
LINE
  5
C98
102
{ACAD_REACTORS
330
E08
102
}
330
22
100
AcDbEntity
  8
AM_7 (Mittellinie)
  6
AM_ISO08W050x2
100
AcDbLine
 10
1591.82018753518
 20
-448.412372618539
 30
0.0
 11
1613.75169065649
 21
-197.734144863891
 31
0.0
  0
LINE
  5
C99
102
{ACAD_REACTORS
330
E44
102
}
330
22
100
AcDbEntity
  8
AM_7 (Mittellinie)
  6
AM_ISO08W050x2
100
AcDbLine
 10
1591.82018753518
 20
-448.412372618539
 30
0.0
 11
1569.95144610761
 21
-198.451514305832
 31
0.0
  0
LINE
  5
C9A
330
22
100
AcDbEntity
  8
AM_2 ( Kontur 0.25)
100
AcDbLine
 10
1531.65634646887
 20
-204.488486499811
 30
0.0
 11
1685.60416581955
 21
-204.488486499811
 31
0.0
  0
DIMENSION
  5
CCB
102
{ACAD_XDICTIONARY
360
CDA
102
}
102
{ACAD_REACTORS
330
CDB
102
}
330
22
100
AcDbEntity
  8
AM_5 ( Bemassung)
100
AcDbDimension
  2
*D4
 10
1643.82018831614
 20
-86.00410405576985
 30
0.0
 11
1594.042025811256
 21
-86.00410405576985
 31
0.0
 70
   160
  1
%%c <>
 71
     5
 42
104.00000156192
  3
AM_DIN$0
100
AcDbAlignedDimension
 13
1539.82018675422
 23
-177.2064760114097
 33
0.0
 14
1643.82018831614
 24
-185.488487115569
 34
0.0
 50
0.0000000000000114
100
AcDbRotatedDimension
1001
ACAD_DSTYLE_DIMINSPECT
1070
   396
1000
100%
1070
   395
1000

1070
   394
1070
    33
1070
   393
1070
     0
1001
ACAD
1000
DSTYLE
1002
{
1070
    40
1040
20.0
1070
    41
1040
0.5
1070
    44
1040
0.1
1070
   140
1040
0.5
1070
   147
1040
0.1
1070
   271
1070
     0
1002
}
  0
DIMENSION
  5
D69
102
{ACAD_XDICTIONARY
360
D78
102
}
102
{ACAD_REACTORS
330
D79
102
}
330
22
100
AcDbEntity
  8
AM_5 ( Bemassung)
100
AcDbDimension
  2
*D5
 10
1621.62718798284
 20
-495.6524067685831
 30
0.0
 11
1592.432996704116
 21
-495.6524067685831
 31
0.0
 70
   160
  1
G2
 71
     5
 42
59.6140008953098
  3
AM_DIN$0
100
AcDbAlignedDimension
 13
1562.01318708753
 23
-463.9884912982188
 33
0.0
 14
1621.62718798284
 24
-463.9884912982188
 34
0.0
 50
0.0000000000001132
100
AcDbRotatedDimension
1001
ACAD
1000
DSTYLE
1002
{
1070
    40
1040
20.0
1070
    41
1040
0.5
1070
    44
1040
0.1
1070
   140
1040
0.5
1070
   147
1040
0.1
1070
   271
1070
     0
1002
}
1001
ACAD_DSTYLE_DIMINSPECT
1070
   396
1000
100%
1070
   395
1000

1070
   394
1070
    33
1070
   393
1070
     0
  0
DIMENSION
  5
DF6
102
{ACAD_XDICTIONARY
360
E07
102
}
102
{ACAD_REACTORS
330
E08
102
}
330
22
100
AcDbEntity
  8
AM_5 ( Bemassung)
100
AcDbDimension
  2
*D6
 10
1591.82018753518
 20
-172.68762135417
 30
0.0
 11
1602.746711074205
 21
-130.6836381097634
 31
0.0
 70
   162
 71
     5
 42
0.087266462599751
  3
AM_DIN$2
100
AcDb2LineAngularDimension
 13
1591.82018753518
 23
-448.412372618539
 33
0.0
 14
1613.75169065649
 24
-197.734144863891
 34
0.0
 15
1591.82018753518
 25
-447.804928835811
 35
0.0
 16
1610.30539138949
 26
-131.0336794337861
 36
0.0
1001
ACAD_DSTYLE_DIMINSPECT
1070
   396
1000
100%
1070
   395
1000

1070
   394
1070
    33
1070
   393
1070
     0
1001
ACAD
1000
DSTYLE
1002
{
1070
    40
1040
20.0
1070
    41
1040
0.5
1070
    44
1040
0.1
1070
   140
1040
0.5
1070
   147
1040
0.1
1070
   271
1070
     0
1002
}
  0
DIMENSION
  5
E32
102
{ACAD_XDICTIONARY
360
E43
102
}
102
{ACAD_REACTORS
330
E44
102
}
330
22
100
AcDbEntity
  8
AM_5 ( Bemassung)
100
AcDbDimension
  2
*D7
 10
1569.95144610761
 20
-198.451514305832
 30
0.0
 11
1579.467061593153
 21
-130.4897342591673
 31
0.0
 70
   162
 71
     5
 42
0.087266462599712
  3
AM_DIN$2
100
AcDb2LineAngularDimension
 13
1591.82018753518
 23
-447.804928835811
 33
0.0
 14
1591.82018753518
 24
-172.68762135417
 34
0.0
 15
1591.82018753518
 25
-448.412372618539
 35
0.0
 16
1573.320680912783
 26
-130.7881103893268
 36
0.0
1001
ACAD_DSTYLE_DIMINSPECT
1070
   396
1000
100%
1070
   395
1000

1070
   394
1070
    33
1070
   393
1070
     0
1001
ACAD
1000
DSTYLE
1002
{
1070
    40
1040
20.0
1070
    41
1040
0.5
1070
    44
1040
0.1
1070
   140
1040
0.5
1070
   147
1040
0.1
1070
   271
1070
     0
1002
}
  0
DIMENSION
  5
EC4
102
{ACAD_XDICTIONARY
360
ED3
102
}
102
{ACAD_REACTORS
330
ED4
102
}
330
22
100
AcDbEntity
  8
AM_5 ( Bemassung)
100
AcDbDimension
  2
*D8
 10
1654.32018847384
 20
-63.20226918062964
 30
0.0
 11
1593.329181011548
 21
-63.20226918062964
 31
0.0
 70
   160
  1
%%c <>
 71
     5
 42
125.0000018773098
  3
AM_DIN$0
100
AcDbAlignedDimension
 13
1529.32018659653
 23
-331.5526810693966
 33
0.0
 14
1654.32018847384
 24
-333.288489335302
 34
0.0
100
AcDbRotatedDimension
1001
ACAD
1000
DSTYLE
1002
{
1070
    40
1040
20.0
1070
    41
1040
0.5
1070
    44
1040
0.1
1070
   140
1040
0.5
1070
   147
1040
0.1
1070
   271
1070
     0
1002
}
1001
ACAD_DSTYLE_DIMINSPECT
1070
   396
1000
100%
1070
   395
1000

1070
   394
1070
    33
1070
   393
1070
     0
  0
LINE
  5
101D
102
{ACAD_REACTORS
330
1043
102
}
330
22
100
AcDbEntity
  8
AM_3 ( Verdeckt )
  6
AM_ISO02W050x2
100
AcDbLine
 10
1543.32018753518
 20
-174.488486950365
 30
0.0
 11
1543.32018753518
 21
-185.488487115569
 31
0.0
  0
LINE
  5
101E
102
{ACAD_REACTORS
330
1043
102
}
330
22
100
AcDbEntity
  8
AM_3 ( Verdeckt )
  6
AM_ISO02W050x2
100
AcDbLine
 10
1640.32018753518
 20
-174.488486950365
 30
0.0
 11
1640.32018753518
 21
-185.488487115569
 31
0.0
  0
DIMENSION
  5
1034
102
{ACAD_XDICTIONARY
360
1042
102
}
102
{ACAD_REACTORS
330
1043
102
}
330
22
100
AcDbEntity
  8
AM_5 ( Bemassung)
100
AcDbDimension
  2
*D9
 10
1640.32018753518
 20
-106.8464063628616
 30
0.0
 11
1592.438120259064
 21
-106.8464063628616
 31
0.0
 70
   160
  1
%%c <>
 71
     5
 42
97.0
  3
AM_DIN$0
100
AcDbAlignedDimension
 13
1543.32018753518
 23
-174.488486950365
 33
0.0
 14
1640.32018753518
 24
-174.488486950365
 34
0.0
100
AcDbRotatedDimension
1001
ACAD
1000
DSTYLE
1002
{
1070
    40
1040
20.0
1070
    41
1040
0.5
1070
    44
1040
0.1
1070
   140
1040
0.5
1070
   147
1040
0.1
1070
   271
1070
     0
1002
}
1001
ACAD_DSTYLE_DIMINSPECT
1070
   396
1000
100%
1070
   395
1000

1070
   394
1070
    33
1070
   393
1070
     0
  0
INSERT
  5
1260
330
22
100
AcDbEntity
  8
AM_12 ( Teile Referenz)
100
AcDbBlockReference
  2
*S5910
 10
0.0
 20
0.0
 30
0.0
  0
INSERT
  5
1263
330
22
100
AcDbEntity
  8
AM_12 ( Teile Referenz)
100
AcDbBlockReference
  2
*S6011
 10
0.0
 20
0.0
 30
0.0
  0
ENDSEC
  0
SECTION
  2
OBJECTS
  0
DICTIONARY
  5
C
330
0
100
AcDbDictionary
281
     1
  3
ACAD_2007HEADERVARS_RT
350
13C8
  3
ACAD_COLOR
350
1B
  3
ACAD_GROUP
350
D
  3
ACAD_LAYOUT
350
19
  3
ACAD_MATERIAL
350
1A
  3
ACAD_MLEADERSTYLE
350
A13
  3
ACAD_MLINESTYLE
350
16
  3
ACAD_PLOTSETTINGS
350
18
  3
ACAD_PLOTSTYLENAME
350
E
  3
ACAD_SCALELIST
350
9F1
  3
ACAD_TABLESTYLE
350
1C
  3
ACAD_VISUALSTYLE
350
9E0
  3
ACDB_RECOMPOSE_DATA
350
F8A
  3
AcDbVariableDictionary
350
98A
  3
AcmDictionary
350
A73
  3
AMG
350
A19
  3
AMGSNAPSETTINGS
350
B63
  3
ASE_INDEX_DICTIONARY
350
10AA
  0
DICTIONARY
  5
C9C
330
2
100
AcDbDictionary
280
     1
281
     1
  3
AMLAYER_GROUPCOLORS
360
C9D
  0
DICTIONARY
  5
F68
330
10
100
AcDbDictionary
280
     1
281
     1
  3
ADSK_XREC_LAYER_RECONCILED
360
F69
  0
DICTIONARY
  5
B6F
330
B6E
100
AcDbDictionary
280
     1
281
     1
  3
ADSK_XREC_LAYER_RECONCILED
360
B70
  0
DICTIONARY
  5
F7E
330
C9B
100
AcDbDictionary
280
     1
281
     1
  3
ADSK_XREC_LAYER_RECONCILED
360
F7F
  0
DICTIONARY
  5
F80
330
CC3
100
AcDbDictionary
280
     1
281
     1
  3
ADSK_XREC_LAYER_RECONCILED
360
F81
  0
DICTIONARY
  5
F82
330
CC6
100
AcDbDictionary
280
     1
281
     1
  3
ADSK_XREC_LAYER_RECONCILED
360
F83
  0
DICTIONARY
  5
F84
330
CC9
100
AcDbDictionary
280
     1
281
     1
  3
ADSK_XREC_LAYER_RECONCILED
360
F85
  0
DICTIONARY
  5
BAE
330
22
100
AcDbDictionary
280
     1
281
     1
  3
ACAD_SORTENTS
360
BAF
  0
DICTIONARY
  5
CDA
330
CCB
100
AcDbDictionary
280
     1
281
     1
  3
ACAD_DIMASSOC
360
CDB
  0
DICTIONARY
  5
D78
330
D69
100
AcDbDictionary
280
     1
281
     1
  3
ACAD_DIMASSOC
360
D79
  0
DICTIONARY
  5
E07
330
DF6
100
AcDbDictionary
280
     1
281
     1
  3
ACAD_DIMASSOC
360
E08
  0
DICTIONARY
  5
E43
330
E32
100
AcDbDictionary
280
     1
281
     1
  3
ACAD_DIMASSOC
360
E44
  0
DICTIONARY
  5
ED3
330
EC4
100
AcDbDictionary
280
     1
281
     1
  3
ACAD_DIMASSOC
360
ED4
  0
DICTIONARY
  5
1042
330
1034
100
AcDbDictionary
280
     1
281
     1
  3
ACAD_DIMASSOC
360
1043
  0
DICTIONARY
  5
13C8
102
{ACAD_REACTORS
330
C
102
}
330
C
100
AcDbDictionary
281
     1
  3
DIMJOGANG
350
13C9
  0
DICTIONARY
  5
1B
102
{ACAD_REACTORS
330
C
102
}
330
C
100
AcDbDictionary
281
     1
  0
DICTIONARY
  5
D
102
{ACAD_REACTORS
330
C
102
}
330
C
100
AcDbDictionary
281
     1
  0
DICTIONARY
  5
19
102
{ACAD_REACTORS
330
C
102
}
330
C
100
AcDbDictionary
281
     1
  3
Layout1
350
21
  3
Model
350
25
  0
DICTIONARY
  5
1A
102
{ACAD_REACTORS
330
C
102
}
330
C
100
AcDbDictionary
281
     1
  3
ByBlock
350
9D0
  3
ByLayer
350
9C8
  3
Global
350
9D8
  0
DICTIONARY
  5
A13
102
{ACAD_REACTORS
330
C
102
}
330
C
100
AcDbDictionary
281
     1
  3
Standard
350
A14
  0
DICTIONARY
  5
16
102
{ACAD_REACTORS
330
C
102
}
330
C
100
AcDbDictionary
281
     1
  3
Standard
350
17
  0
DICTIONARY
  5
18
102
{ACAD_REACTORS
330
C
102
}
330
C
100
AcDbDictionary
281
     1
  0
ACDBDICTIONARYWDFLT
  5
E
102
{ACAD_REACTORS
330
C
102
}
330
C
100
AcDbDictionary
281
     1
  3
Normal
350
F
100
AcDbDictionaryWithDefault
340
F
  0
DICTIONARY
  5
9F1
102
{ACAD_REACTORS
330
C
102
}
330
C
100
AcDbDictionary
281
     1
  3
A0
350
9F2
  3
A1
350
9F3
  3
A2
350
9F4
  3
A3
350
9F5
  3
A4
350
9F6
  3
A5
350
9F7
  3
A6
350
9F8
  3
A7
350
9F9
  3
A8
350
9FA
  3
A9
350
9FB
  3
B0
350
9FC
  3
B1
350
9FD
  3
B2
350
9FE
  3
B3
350
9FF
  3
B4
350
A00
  3
B5
350
A01
  3
B6
350
A02
  3
B7
350
A03
  3
B8
350
A04
  3
B9
350
A05
  3
C0
350
A06
  3
C1
350
A07
  3
C2
350
A08
  3
C3
350
A09
  3
C4
350
A0A
  3
C5
350
A0B
  3
C6
350
A0C
  3
C7
350
A0D
  3
C8
350
A0E
  3
C9
350
A0F
  3
D0
350
A10
  3
D1
350
A11
  3
D2
350
A12
  0
DICTIONARY
  5
1C
102
{ACAD_REACTORS
330
C
102
}
330
C
100
AcDbDictionary
281
     1
  3
Standard
350
1D
  0
DICTIONARY
  5
9E0
102
{ACAD_REACTORS
330
C
102
}
330
C
100
AcDbDictionary
281
     1
  3
2dWireframe
350
9E6
  3
3D Hidden
350
9E8
  3
3dWireframe
350
9E7
  3
Basic
350
9E5
  3
Brighten
350
9EC
  3
ColorChange
350
9F0
  3
Conceptual
350
9E9
  3
Dim
350
9EB
  3
Facepattern
350
9EF
  3
Flat
350
9E1
  3
FlatWithEdges
350
9E2
  3
Gouraud
350
9E3
  3
GouraudWithEdges
350
9E4
  3
Linepattern
350
9EE
  3
Realistic
350
9EA
  3
Thicken
350
9ED
  0
XRECORD
  5
F8A
102
{ACAD_REACTORS
330
C
102
}
330
C
100
AcDbXrecord
280
     1
 90
        1
330
1D
  0
DICTIONARY
  5
98A
102
{ACAD_REACTORS
330
C
102
}
330
C
100
AcDbDictionary
281
     1
  3
CANNOSCALE
350
F87
  3
CMLEADERSTYLE
350
F86
  3
CTABLESTYLE
350
98B
  3
DIMASSOC
350
98C
  3
PROJECTNAME
350
98D
  0
DICTIONARY
  5
A73
102
{ACAD_REACTORS
330
C
102
}
330
C
100
AcDbDictionary
281
     1
  3
AcmStdDictionary
350
A7E
  3
AMDTSECTSYM_ARROWCOLOR
350
A93
  0
DICTIONARY
  5
A19
102
{ACAD_REACTORS
330
C
102
}
330
C
100
AcDbDictionary
281
     1
  0
DICTIONARY
  5
B63
102
{ACAD_REACTORS
330
C
102
}
330
C
100
AcDbDictionary
281
     1
  0
DICTIONARY
  5
10AA
102
{ACAD_REACTORS
330
C
102
}
330
C
100
AcDbDictionary
281
     1
  3
ASEBlockHierarchyIndexRecord
350
10AB
1001
DCO15
1040
1631426960.615
  0
DICTIONARY
  5
C9D
102
{ACAD_REACTORS
330
C9C
102
}
330
C9C
100
AcDbDictionary
280
     1
281
     1
  0
XRECORD
  5
F69
102
{ACAD_REACTORS
330
F68
102
}
330
F68
100
AcDbXrecord
280
     1
290
     1
  0
XRECORD
  5
B70
102
{ACAD_REACTORS
330
B6F
102
}
330
B6F
100
AcDbXrecord
280
     1
290
     1
  0
XRECORD
  5
F7F
102
{ACAD_REACTORS
330
F7E
102
}
330
F7E
100
AcDbXrecord
280
     1
290
     1
  0
XRECORD
  5
F81
102
{ACAD_REACTORS
330
F80
102
}
330
F80
100
AcDbXrecord
280
     1
290
     1
  0
XRECORD
  5
F83
102
{ACAD_REACTORS
330
F82
102
}
330
F82
100
AcDbXrecord
280
     1
290
     1
  0
XRECORD
  5
F85
102
{ACAD_REACTORS
330
F84
102
}
330
F84
100
AcDbXrecord
280
     1
290
     1
  0
SORTENTSTABLE
  5
BAF
102
{ACAD_REACTORS
330
BAE
102
}
330
BAE
100
AcDbSortentsTable
330
22
331
BA8
  5
C95
331
C32
  5
BF6
331
C61
  5
C25
331
BC4
  5
B86
331
BF3
  5
BB7
331
B7D
  5
C6A
331
C3A
  5
BFE
331
C69
  5
C2D
331
B85
  5
C72
331
BCC
  5
B8E
331
BFB
  5
BBF
331
C90
  5
C54
331
C03
  5
BC7
331
B8D
  5
C7A
331
BD4
  5
B96
331
C71
  5
C35
331
C79
  5
C3D
331
BDC
  5
B9E
331
C0B
  5
BCF
331
B95
  5
C82
331
C42
  5
C06
331
B75
  5
C62
331
BE4
  5
BA6
331
C13
  5
BD7
331
B9D
  5
C8A
331
C4A
  5
C0E
331
C52
  5
C16
331
BA5
  5
C92
331
BEC
  5
BB0
331
C1B
  5
BDF
331
C23
  5
BE7
331
BB5
  5
B77
331
C5A
  5
C1E
331
C81
  5
C45
331
C89
  5
C4D
331
C2B
  5
BEF
331
BBD
  5
B7F
331
BA9
  5
C96
331
BF4
  5
BB8
331
C33
  5
BF7
331
B7E
  5
C6B
331
BC5
  5
B87
331
C62
  5
C26
331
C6A
  5
C2E
331
C91
  5
C55
331
BCD
  5
B8F
331
BFC
  5
BC0
331
B86
  5
C73
331
C3B
  5
BFF
331
C72
  5
C36
331
BD5
  5
B97
331
C04
  5
BC8
331
B8E
  5
C7B
331
C43
  5
C07
331
C7A
  5
C3E
331
B96
  5
C83
331
BDD
  5
B9F
331
C0C
  5
BD0
331
B76
  5
C63
331
C14
  5
BD8
331
C4B
  5
C0F
331
B9E
  5
C8B
331
BE5
  5
BA7
331
BED
  5
BB1
331
C1C
  5
BE0
331
BA6
  5
C93
331
C53
  5
C17
331
C82
  5
C46
331
C24
  5
BE8
331
BB6
  5
B78
331
C5B
  5
C1F
331
C8A
  5
C4E
331
BBE
  5
B80
331
C2C
  5
BF0
331
BAA
  5
C97
331
C34
  5
BF8
331
C63
  5
C27
331
B7F
  5
C6C
331
BC6
  5
B88
331
BF5
  5
BB9
331
C92
  5
C56
331
C3C
  5
C00
331
C6B
  5
C2F
331
B87
  5
C74
331
BCE
  5
B90
331
BFD
  5
BC1
331
C05
  5
BC9
331
B8F
  5
C7C
331
BD6
  5
B98
331
C73
  5
C37
331
C7B
  5
C3F
331
BDE
  5
BA0
331
C0D
  5
BD1
331
B97
  5
C84
331
C44
  5
C08
331
B77
  5
C64
331
C4C
  5
C10
331
BE6
  5
BA8
331
C15
  5
BD9
331
B9F
  5
C8C
331
C54
  5
C18
331
BA7
  5
C94
331
BEE
  5
BB2
331
C1D
  5
BE1
331
C25
  5
BE9
331
BB7
  5
B79
331
C5C
  5
C20
331
C83
  5
C47
331
C8B
  5
C4F
331
C2D
  5
BF1
331
BBF
  5
B81
331
BAB
  5
C98
331
B78
  5
C65
331
BF6
  5
BBA
331
C35
  5
BF9
331
B80
  5
C6D
331
BC7
  5
B89
331
C64
  5
C28
331
C6C
  5
C30
331
C93
  5
C57
331
BCF
  5
B91
331
BFE
  5
BC2
331
B88
  5
C75
331
C3D
  5
C01
331
C74
  5
C38
331
B90
  5
C7D
331
BD7
  5
B99
331
C06
  5
BCA
331
C45
  5
C09
331
C7C
  5
C40
331
BDF
  5
BA1
331
C0E
  5
BD2
331
B98
  5
C85
331
C16
  5
BDA
331
C4D
  5
C11
331
BA0
  5
C8D
331
BE7
  5
BA9
331
BEF
  5
BB3
331
C1E
  5
BE2
331
BB0
  5
B72
331
C55
  5
C19
331
C5D
  5
C21
331
C84
  5
C48
331
C26
  5
BEA
331
BB8
  5
B7A
331
C8C
  5
C50
331
C2E
  5
BF2
331
BAC
  5
C99
331
BC0
  5
B82
331
B79
  5
C66
331
C36
  5
BFA
331
C65
  5
C29
331
B81
  5
C6E
331
BC8
  5
B8A
331
BF7
  5
BBB
331
C94
  5
C58
331
BFF
  5
BC3
331
C3E
  5
C02
331
B89
  5
C76
331
BD0
  5
B92
331
C6D
  5
C31
331
C07
  5
BCB
331
B91
  5
C7E
331
BD8
  5
B9A
331
C75
  5
C39
331
C7D
  5
C41
331
C0F
  5
BD3
331
C46
  5
C0A
331
71A
  5
71A
331
BE0
  5
BA2
331
B99
  5
C86
331
C4E
  5
C12
331
BA1
  5
C8E
331
BE8
  5
BAA
331
C17
  5
BDB
331
C56
  5
C1A
331
BB1
  5
B73
331
C1F
  5
BE3
331
C27
  5
BEB
331
BB9
  5
B7B
331
C5E
  5
C22
331
C85
  5
C49
331
C8D
  5
C51
331
C2F
  5
BF3
331
BAD
  5
C9A
331
C98
  5
C5C
331
BF0
  5
BB4
331
B7A
  5
C67
331
BC1
  5
B83
331
C66
  5
C2A
331
BF8
  5
BBC
331
C37
  5
BFB
331
B82
  5
C6F
331
BC9
  5
B8B
331
C6E
  5
C32
331
C95
  5
C59
331
BD1
  5
B93
331
C00
  5
BC4
331
B8A
  5
C77
331
C3F
  5
C03
331
C76
  5
C3A
331
B92
  5
C7F
331
BD9
  5
B9B
331
C08
  5
BCC
331
C47
  5
C0B
331
C7E
  5
C42
331
71B
  5
71B
331
B72
  5
C5F
331
C10
  5
BD4
331
B9A
  5
C87
331
BE1
  5
BA3
331
C18
  5
BDC
331
C4F
  5
C13
331
BA2
  5
C8F
331
BE9
  5
BAB
331
C20
  5
BE4
331
BB2
  5
B74
331
C57
  5
C1B
331
C5F
  5
C23
331
C86
  5
C4A
331
BBA
  5
B7C
331
C28
  5
BEC
331
C8E
  5
C52
331
C99
  5
C5D
331
BC2
  5
B84
331
BF1
  5
BB5
331
B7B
  5
C68
331
C30
  5
BF4
331
C38
  5
BFC
331
C67
  5
C2B
331
B83
  5
C70
331
BCA
  5
B8C
331
BF9
  5
BBD
331
C96
  5
C5A
331
C01
  5
BC5
331
B8B
  5
C78
331
BD2
  5
B94
331
C6F
  5
C33
331
C77
  5
C3B
331
C09
  5
BCD
331
C40
  5
C04
331
B93
  5
C80
331
BDA
  5
B9C
331
C7F
  5
C43
331
B73
  5
C60
331
BE2
  5
BA4
331
C11
  5
BD5
331
B9B
  5
C88
331
C48
  5
C0C
331
C50
  5
C14
331
BA3
  5
C90
331
BEA
  5
BAC
331
C19
  5
BDD
331
C21
  5
BE5
331
BB3
  5
B75
331
C58
  5
C1C
331
C29
  5
BED
331
BBB
  5
B7D
331
C87
  5
C4B
331
C8F
  5
C53
331
C9A
  5
C5E
331
BF2
  5
BB6
331
C31
  5
BF5
331
B7C
  5
C69
331
BC3
  5
B85
331
C60
  5
C24
331
C68
  5
C2C
331
BCB
  5
B8D
331
BFA
  5
BBE
331
B84
  5
C71
331
C39
  5
BFD
331
C70
  5
C34
331
BD3
  5
B95
331
C02
  5
BC6
331
C97
  5
C5B
331
B8C
  5
C79
331
C41
  5
C05
331
C78
  5
C3C
331
B94
  5
C81
331
BDB
  5
B9D
331
C0A
  5
BCE
331
71D
  5
71D
331
B74
  5
C61
331
C12
  5
BD6
331
C49
  5
C0D
331
B9C
  5
C89
331
BE3
  5
BA5
331
C1A
  5
BDE
331
C51
  5
C15
331
BA4
  5
C91
331
BEB
  5
BAD
331
C80
  5
C44
331
C22
  5
BE6
331
BB4
  5
B76
331
C59
  5
C1D
331
C88
  5
C4C
331
BBC
  5
B7E
331
C2A
  5
BEE
  0
DIMASSOC
  5
CDB
102
{ACAD_REACTORS
330
CDA
102
}
330
CDA
100
AcDbDimAssoc
330
CCB
 90
        2
 70
     0
 71
     0
  1
AcDbOsnapPointRef
 72
     1
331
C8D
 73
     0
 91
        0
 40
0.0
 10
0.0
 20
0.0
 30
2.000000000000000E+50
 75
     0
  0
DIMASSOC
  5
D79
102
{ACAD_REACTORS
330
D78
102
}
330
D78
100
AcDbDimAssoc
330
D69
 90
        3
 70
     0
 71
     0
  1
AcDbOsnapPointRef
 72
    13
331
BEA
 73
     0
 91
        0
 40
0.0
 10
0.0
 20
0.0
 30
2.000000000000000E+50
 75
     0
  1
AcDbOsnapPointRef
 72
    13
331
BE9
 73
     0
 91
        0
 40
0.0
 10
0.0
 20
0.0
 30
2.000000000000000E+50
 75
     0
  0
DIMASSOC
  5
E08
102
{ACAD_REACTORS
330
E07
102
}
330
E07
100
AcDbDimAssoc
330
DF6
 90
       15
 70
     0
 71
     0
  1
AcDbOsnapPointRef
 72
    13
331
C98
 73
     2
 91
        0
 40
0.0
 10
0.0
 20
0.0
 30
2.000000000000000E+50
 75
     0
  1
AcDbOsnapPointRef
 72
     1
331
C98
 73
     2
 91
        0
 40
0.0
 10
0.0
 20
0.0
 30
2.000000000000000E+50
 75
     0
  1
AcDbOsnapPointRef
 72
    13
331
C7C
 73
     2
 91
        0
 40
0.0
 10
0.0
 20
0.0
 30
2.000000000000000E+50
 75
     0
  1
AcDbOsnapPointRef
 72
     1
331
C7C
 73
     2
 91
        0
 40
0.0
 10
0.0
 20
0.0
 30
2.000000000000000E+50
 75
     0
  0
DIMASSOC
  5
E44
102
{ACAD_REACTORS
330
E43
102
}
330
E43
100
AcDbDimAssoc
330
E32
 90
       15
 70
     0
 71
     0
  1
AcDbOsnapPointRef
 72
    13
331
C7C
 73
     2
 91
        0
 40
0.0
 10
0.0
 20
0.0
 30
2.000000000000000E+50
 75
     0
  1
AcDbOsnapPointRef
 72
     1
331
C7C
 73
     2
 91
        0
 40
0.0
 10
0.0
 20
0.0
 30
2.000000000000000E+50
 75
     0
  1
AcDbOsnapPointRef
 72
    13
331
C99
 73
     2
 91
        0
 40
0.0
 10
0.0
 20
0.0
 30
2.000000000000000E+50
 75
     0
  1
AcDbOsnapPointRef
 72
     1
331
C99
 73
     2
 91
        0
 40
0.0
 10
0.0
 20
0.0
 30
2.000000000000000E+50
 75
     0
  0
DIMASSOC
  5
ED4
102
{ACAD_REACTORS
330
ED3
102
}
330
ED3
100
AcDbDimAssoc
330
EC4
 90
        2
 70
     0
 71
     0
  1
AcDbOsnapPointRef
 72
     1
331
C3C
 73
     0
 91
        0
 40
0.0
 10
0.0
 20
0.0
 30
2.000000000000000E+50
 75
     0
  0
DIMASSOC
  5
1043
102
{ACAD_REACTORS
330
1042
102
}
330
1042
100
AcDbDimAssoc
330
1034
 90
        3
 70
     0
 71
     0
  1
AcDbOsnapPointRef
 72
    13
331
101D
 73
     0
 91
        0
 40
0.0
 10
0.0
 20
0.0
 30
2.000000000000000E+50
 75
     0
  1
AcDbOsnapPointRef
 72
    13
331
101E
 73
     0
 91
        0
 40
0.0
 10
0.0
 20
0.0
 30
2.000000000000000E+50
 75
     0
  0
XRECORD
  5
13C9
102
{ACAD_REACTORS
330
13C8
102
}
330
13C8
100
AcDbXrecord
280
     1
 40
1.570796326794896
  0
LAYOUT
  5
21
102
{ACAD_REACTORS
330
19
102
}
330
19
100
AcDbPlotSettings
  1

  2
\\OASE42\HP DesignJet 500 42+HPGL2 Card
  4

  6

 40
0.0
 41
0.0
 42
0.0
 43
0.0
 44
0.0
 45
0.0
 46
0.0
 47
0.0
 48
0.0
 49
0.0
140
0.0
141
0.0
142
1.0
143
1.0
 70
   688
 72
     0
 73
     0
 74
     5
  7
Kein
 75
    16
147
1.0
 76
     0
 77
     2
 78
   300
148
0.0
149
0.0
100
AcDbLayout
  1
Layout1
 70
     1
 71
     1
 10
0.0
 20
0.0
 11
12.0
 21
9.0
 12
0.0
 22
0.0
 32
0.0
 14
1.000000000000000E+20
 24
1.000000000000000E+20
 34
1.000000000000000E+20
 15
-1.000000000000000E+20
 25
-1.000000000000000E+20
 35
-1.000000000000000E+20
146
0.0
 13
0.0
 23
0.0
 33
0.0
 16
1.0
 26
0.0
 36
0.0
 17
0.0
 27
1.0
 37
0.0
 76
     0
330
1E
  0
LAYOUT
  5
25
102
{ACAD_REACTORS
330
19
102
}
330
19
100
AcDbPlotSettings
  1

  2
\\OASE42\HP DesignJet 500 42+HPGL2 Card
  4

  6

 40
0.0
 41
0.0
 42
0.0
 43
0.0
 44
0.0
 45
0.0
 46
0.0
 47
0.0
 48
0.0
 49
0.0
140
0.0
141
0.0
142
1.0
143
1.0
 70
  1712
 72
     0
 73
     0
 74
     0
  7
Kein
 75
     0
147
1.0
 76
     0
 77
     2
 78
   300
148
0.0
149
0.0
100
AcDbLayout
  1
Model
 70
     1
 71
     0
 10
0.0
 20
0.0
 11
12.0
 21
9.0
 12
0.0
 22
0.0
 32
0.0
 14
0.0
 24
0.0
 34
0.0
 15
0.0
 25
0.0
 35
0.0
146
0.0
 13
0.0
 23
0.0
 33
0.0
 16
1.0
 26
0.0
 36
0.0
 17
0.0
 27
1.0
 37
0.0
 76
     0
330
22
331
9C0
  0
MATERIAL
  5
9D0
102
{ACAD_XDICTIONARY
360
9D1
102
}
102
{ACAD_REACTORS
330
1A
102
}
330
1A
100
AcDbMaterial
  1
ByBlock
 72
     0
 43
0.0208333333333333
 43
0.0
 43
0.0
 43
0.0
 43
0.0
 43
0.0208333333333333
 43
0.0
 43
0.0
 43
0.0
 43
0.0
 43
1.0
 43
0.0
 43
0.0
 43
0.0
 43
0.0
 43
1.0
 77
     0
 47
0.0208333333333333
 47
0.0
 47
0.0
 47
0.0
 47
0.0
 47
0.0208333333333333
 47
0.0
 47
0.0
 47
0.0
 47
0.0
 47
1.0
 47
0.0
 47
0.0
 47
0.0
 47
0.0
 47
1.0
171
     0
 49
0.0208333333333333
 49
0.0
 49
0.0
 49
0.0
 49
0.0
 49
0.0208333333333333
 49
0.0
 49
0.0
 49
0.0
 49
0.0
 49
1.0
 49
0.0
 49
0.0
 49
0.0
 49
0.0
 49
1.0
175
     0
142
0.0208333333333333
142
0.0
142
0.0
142
0.0
142
0.0
142
0.0208333333333333
142
0.0
142
0.0
142
0.0
142
0.0
142
1.0
142
0.0
142
0.0
142
0.0
142
0.0
142
1.0
179
     0
144
0.0208333333333333
144
0.0
144
0.0
144
0.0
144
0.0
144
0.0208333333333333
144
0.0
144
0.0
144
0.0
144
0.0
144
1.0
144
0.0
144
0.0
144
0.0
144
0.0
144
1.0
147
0.0208333333333333
147
0.0
147
0.0
147
0.0
147
0.0
147
0.0208333333333333
147
0.0
147
0.0
147
0.0
147
0.0
147
1.0
147
0.0
147
0.0
147
0.0
147
0.0
147
1.0
  0
MATERIAL
  5
9C8
102
{ACAD_XDICTIONARY
360
9C9
102
}
102
{ACAD_REACTORS
330
1A
102
}
330
1A
100
AcDbMaterial
  1
ByLayer
 72
     0
 43
0.0208333333333333
 43
0.0
 43
0.0
 43
0.0
 43
0.0
 43
0.0208333333333333
 43
0.0
 43
0.0
 43
0.0
 43
0.0
 43
1.0
 43
0.0
 43
0.0
 43
0.0
 43
0.0
 43
1.0
 77
     0
 47
0.0208333333333333
 47
0.0
 47
0.0
 47
0.0
 47
0.0
 47
0.0208333333333333
 47
0.0
 47
0.0
 47
0.0
 47
0.0
 47
1.0
 47
0.0
 47
0.0
 47
0.0
 47
0.0
 47
1.0
171
     0
 49
0.0208333333333333
 49
0.0
 49
0.0
 49
0.0
 49
0.0
 49
0.0208333333333333
 49
0.0
 49
0.0
 49
0.0
 49
0.0
 49
1.0
 49
0.0
 49
0.0
 49
0.0
 49
0.0
 49
1.0
175
     0
142
0.0208333333333333
142
0.0
142
0.0
142
0.0
142
0.0
142
0.0208333333333333
142
0.0
142
0.0
142
0.0
142
0.0
142
1.0
142
0.0
142
0.0
142
0.0
142
0.0
142
1.0
179
     0
144
0.0208333333333333
144
0.0
144
0.0
144
0.0
144
0.0
144
0.0208333333333333
144
0.0
144
0.0
144
0.0
144
0.0
144
1.0
144
0.0
144
0.0
144
0.0
144
0.0
144
1.0
147
0.0208333333333333
147
0.0
147
0.0
147
0.0
147
0.0
147
0.0208333333333333
147
0.0
147
0.0
147
0.0
147
0.0
147
1.0
147
0.0
147
0.0
147
0.0
147
0.0
147
1.0
  0
MATERIAL
  5
9D8
102
{ACAD_XDICTIONARY
360
9D9
102
}
102
{ACAD_REACTORS
330
1A
102
}
330
1A
100
AcDbMaterial
  1
Global
 72
     0
 43
0.0208333333333333
 43
0.0
 43
0.0
 43
0.0
 43
0.0
 43
0.0208333333333333
 43
0.0
 43
0.0
 43
0.0
 43
0.0
 43
1.0
 43
0.0
 43
0.0
 43
0.0
 43
0.0
 43
1.0
 77
     0
 47
0.0208333333333333
 47
0.0
 47
0.0
 47
0.0
 47
0.0
 47
0.0208333333333333
 47
0.0
 47
0.0
 47
0.0
 47
0.0
 47
1.0
 47
0.0
 47
0.0
 47
0.0
 47
0.0
 47
1.0
171
     0
 49
0.0208333333333333
 49
0.0
 49
0.0
 49
0.0
 49
0.0
 49
0.0208333333333333
 49
0.0
 49
0.0
 49
0.0
 49
0.0
 49
1.0
 49
0.0
 49
0.0
 49
0.0
 49
0.0
 49
1.0
175
     0
142
0.0208333333333333
142
0.0
142
0.0
142
0.0
142
0.0
142
0.0208333333333333
142
0.0
142
0.0
142
0.0
142
0.0
142
1.0
142
0.0
142
0.0
142
0.0
142
0.0
142
1.0
179
     0
144
0.0208333333333333
144
0.0
144
0.0
144
0.0
144
0.0
144
0.0208333333333333
144
0.0
144
0.0
144
0.0
144
0.0
144
1.0
144
0.0
144
0.0
144
0.0
144
0.0
144
1.0
147
0.0208333333333333
147
0.0
147
0.0
147
0.0
147
0.0
147
0.0208333333333333
147
0.0
147
0.0
147
0.0
147
0.0
147
1.0
147
0.0
147
0.0
147
0.0
147
0.0
147
1.0
  0
MLEADERSTYLE
  5
A14
102
{ACAD_REACTORS
330
A13
102
}
330
A13
100
AcDbMLeaderStyle
170
     2
171
     1
172
     0
 90
        2
 40
0.0
 41
0.0
173
     1
 91
-1056964608
340
13
 92
       -2
290
     1
 42
0.09
291
     1
 43
0.36
  3
Standard
 44
0.18
300

342
11
174
     1
178
     6
175
     1
176
     0
 93
-1056964608
 45
0.18
292
     0
297
     0
 46
0.18
 94
-1056964608
 47
1.0
 49
1.0
140
1.0
293
     1
141
0.0
294
     1
177
     0
142
1.0
295
     0
296
     0
143
0.125
1001
ACAD_MLEADERVER
1070
     2
  0
MLINESTYLE
  5
17
102
{ACAD_REACTORS
330
16
102
}
330
16
100
AcDbMlineStyle
  2
STANDARD
 70
     0
  3

 62
   256
 51
90.0
 52
90.0
 71
     2
 49
0.5
 62
   256
  6
BYLAYER
 49
-0.5
 62
   256
  6
BYLAYER
  0
ACDBPLACEHOLDER
  5
F
102
{ACAD_REACTORS
330
E
102
}
330
E
  0
SCALE
  5
9F2
102
{ACAD_REACTORS
330
9F1
102
}
330
9F1
100
AcDbScale
 70
     0
300
1:1
140
1.0
141
1.0
290
     1
  0
SCALE
  5
9F3
102
{ACAD_REACTORS
330
9F1
102
}
330
9F1
100
AcDbScale
 70
     0
300
1:2
140
1.0
141
2.0
290
     0
  0
SCALE
  5
9F4
102
{ACAD_REACTORS
330
9F1
102
}
330
9F1
100
AcDbScale
 70
     0
300
1:4
140
1.0
141
4.0
290
     0
  0
SCALE
  5
9F5
102
{ACAD_REACTORS
330
9F1
102
}
330
9F1
100
AcDbScale
 70
     0
300
1:5
140
1.0
141
5.0
290
     0
  0
SCALE
  5
9F6
102
{ACAD_REACTORS
330
9F1
102
}
330
9F1
100
AcDbScale
 70
     0
300
1:8
140
1.0
141
8.0
290
     0
  0
SCALE
  5
9F7
102
{ACAD_REACTORS
330
9F1
102
}
330
9F1
100
AcDbScale
 70
     0
300
1:10
140
1.0
141
10.0
290
     0
  0
SCALE
  5
9F8
102
{ACAD_REACTORS
330
9F1
102
}
330
9F1
100
AcDbScale
 70
     0
300
1:16
140
1.0
141
16.0
290
     0
  0
SCALE
  5
9F9
102
{ACAD_REACTORS
330
9F1
102
}
330
9F1
100
AcDbScale
 70
     0
300
1:20
140
1.0
141
20.0
290
     0
  0
SCALE
  5
9FA
102
{ACAD_REACTORS
330
9F1
102
}
330
9F1
100
AcDbScale
 70
     0
300
1:30
140
1.0
141
30.0
290
     0
  0
SCALE
  5
9FB
102
{ACAD_REACTORS
330
9F1
102
}
330
9F1
100
AcDbScale
 70
     0
300
1:40
140
1.0
141
40.0
290
     0
  0
SCALE
  5
9FC
102
{ACAD_REACTORS
330
9F1
102
}
330
9F1
100
AcDbScale
 70
     0
300
1:50
140
1.0
141
50.0
290
     0
  0
SCALE
  5
9FD
102
{ACAD_REACTORS
330
9F1
102
}
330
9F1
100
AcDbScale
 70
     0
300
1:100
140
1.0
141
100.0
290
     0
  0
SCALE
  5
9FE
102
{ACAD_REACTORS
330
9F1
102
}
330
9F1
100
AcDbScale
 70
     0
300
2:1
140
2.0
141
1.0
290
     0
  0
SCALE
  5
9FF
102
{ACAD_REACTORS
330
9F1
102
}
330
9F1
100
AcDbScale
 70
     0
300
4:1
140
4.0
141
1.0
290
     0
  0
SCALE
  5
A00
102
{ACAD_REACTORS
330
9F1
102
}
330
9F1
100
AcDbScale
 70
     0
300
8:1
140
8.0
141
1.0
290
     0
  0
SCALE
  5
A01
102
{ACAD_REACTORS
330
9F1
102
}
330
9F1
100
AcDbScale
 70
     0
300
10:1
140
10.0
141
1.0
290
     0
  0
SCALE
  5
A02
102
{ACAD_REACTORS
330
9F1
102
}
330
9F1
100
AcDbScale
 70
     0
300
100:1
140
100.0
141
1.0
290
     0
  0
SCALE
  5
A03
102
{ACAD_REACTORS
330
9F1
102
}
330
9F1
100
AcDbScale
 70
     0
300
1/128" = 1'-0"
140
0.0078125
141
12.0
290
     0
  0
SCALE
  5
A04
102
{ACAD_REACTORS
330
9F1
102
}
330
9F1
100
AcDbScale
 70
     0
300
1/64" = 1'-0"
140
0.015625
141
12.0
290
     0
  0
SCALE
  5
A05
102
{ACAD_REACTORS
330
9F1
102
}
330
9F1
100
AcDbScale
 70
     0
300
1/32" = 1'-0"
140
0.03125
141
12.0
290
     0
  0
SCALE
  5
A06
102
{ACAD_REACTORS
330
9F1
102
}
330
9F1
100
AcDbScale
 70
     0
300
1/16" = 1'-0"
140
0.0625
141
12.0
290
     0
  0
SCALE
  5
A07
102
{ACAD_REACTORS
330
9F1
102
}
330
9F1
100
AcDbScale
 70
     0
300
3/32" = 1'-0"
140
0.09375
141
12.0
290
     0
  0
SCALE
  5
A08
102
{ACAD_REACTORS
330
9F1
102
}
330
9F1
100
AcDbScale
 70
     0
300
1/8" = 1'-0"
140
0.125
141
12.0
290
     0
  0
SCALE
  5
A09
102
{ACAD_REACTORS
330
9F1
102
}
330
9F1
100
AcDbScale
 70
     0
300
3/16" = 1'-0"
140
0.1875
141
12.0
290
     0
  0
SCALE
  5
A0A
102
{ACAD_REACTORS
330
9F1
102
}
330
9F1
100
AcDbScale
 70
     0
300
1/4" = 1'-0"
140
0.25
141
12.0
290
     0
  0
SCALE
  5
A0B
102
{ACAD_REACTORS
330
9F1
102
}
330
9F1
100
AcDbScale
 70
     0
300
3/8" = 1'-0"
140
0.375
141
12.0
290
     0
  0
SCALE
  5
A0C
102
{ACAD_REACTORS
330
9F1
102
}
330
9F1
100
AcDbScale
 70
     0
300
1/2" = 1'-0"
140
0.5
141
12.0
290
     0
  0
SCALE
  5
A0D
102
{ACAD_REACTORS
330
9F1
102
}
330
9F1
100
AcDbScale
 70
     0
300
3/4" = 1'-0"
140
0.75
141
12.0
290
     0
  0
SCALE
  5
A0E
102
{ACAD_REACTORS
330
9F1
102
}
330
9F1
100
AcDbScale
 70
     0
300
1" = 1'-0"
140
1.0
141
12.0
290
     0
  0
SCALE
  5
A0F
102
{ACAD_REACTORS
330
9F1
102
}
330
9F1
100
AcDbScale
 70
     0
300
1-1/2" = 1'-0"
140
1.5
141
12.0
290
     0
  0
SCALE
  5
A10
102
{ACAD_REACTORS
330
9F1
102
}
330
9F1
100
AcDbScale
 70
     0
300
3" = 1'-0"
140
3.0
141
12.0
290
     0
  0
SCALE
  5
A11
102
{ACAD_REACTORS
330
9F1
102
}
330
9F1
100
AcDbScale
 70
     0
300
6" = 1'-0"
140
6.0
141
12.0
290
     0
  0
SCALE
  5
A12
102
{ACAD_REACTORS
330
9F1
102
}
330
9F1
100
AcDbScale
 70
     0
300
1'-0" = 1'-0"
140
12.0
141
12.0
290
     0
  0
TABLESTYLE
  5
1D
102
{ACAD_XDICTIONARY
360
F88
102
}
102
{ACAD_REACTORS
330
1C
102
}
330
1C
100
AcDbTableStyle
  3
Standard
 70
     0
 71
     0
 40
0.06
 41
0.06
280
     0
281
     0
  7
AUDIT_I_060331094926-0
140
0.18
170
     2
 62
     0
 63
     7
283
     0
274
    -2
284
     1
 64
     0
275
    -2
285
     1
 65
     0
276
    -2
286
     1
 66
     0
277
    -2
287
     1
 67
     0
278
    -2
288
     1
 68
     0
279
    -2
289
     1
 69
     0
  7
AUDIT_I_060331094926-0
140
0.25
170
     5
 62
     0
 63
     7
283
     0
274
    -2
284
     1
 64
     0
275
    -2
285
     1
 65
     0
276
    -2
286
     1
 66
     0
277
    -2
287
     1
 67
     0
278
    -2
288
     1
 68
     0
279
    -2
289
     1
 69
     0
  7
AUDIT_I_060331094926-0
140
0.18
170
     5
 62
     0
 63
     7
283
     0
274
    -2
284
     1
 64
     0
275
    -2
285
     1
 65
     0
276
    -2
286
     1
 66
     0
277
    -2
287
     1
 67
     0
278
    -2
288
     1
 68
     0
279
    -2
289
     1
 69
     0
  0
VISUALSTYLE
  5
9E6
102
{ACAD_REACTORS
330
9E0
102
}
330
9E0
100
AcDbVisualStyle
  2
2dWireframe
 70
     4
 71
     0
 72
     2
 73
     0
 90
        0
 40
-0.6
 41
-30.0
 62
     5
 63
     7
421
 16777215
 74
     1
 91
        4
 64
     7
 65
   257
 75
     1
175
     1
 42
1.0
 92
        0
 66
   257
 43
1.0
 76
     1
 77
     6
 78
     2
 67
     7
 79
     5
170
     0
171
     0
290
     0
174
     0
 93
        1
 44
0.0
173
     0
291
     0
 45
0.0
1001
ACAD
1000
AcDbSavedByObjectVersion
1070
     0
1000
AcDbSavedByObjectVersion
1070
     0
1000
AcDbSavedByObjectVersion
1070
     0
1000
AcDbSavedByObjectVersion
1070
     0
  0
VISUALSTYLE
  5
9E8
102
{ACAD_REACTORS
330
9E0
102
}
330
9E0
100
AcDbVisualStyle
  2
3D Hidden
 70
     6
 71
     1
 72
     2
 73
     2
 90
        0
 40
-0.6
 41
-30.0
 62
     5
 63
     7
421
 16777215
 74
     2
 91
        2
 64
     7
 65
   257
 75
     2
175
     1
 42
40.0
 92
        0
 66
   257
 43
1.0
 76
     1
 77
     6
 78
     2
 67
     7
 79
     3
170
     0
171
     0
290
     0
174
     0
 93
        1
 44
0.0
173
     0
291
     0
 45
0.0
1001
ACAD
1000
AcDbSavedByObjectVersion
1070
     0
1000
AcDbSavedByObjectVersion
1070
     0
1000
AcDbSavedByObjectVersion
1070
     0
1000
AcDbSavedByObjectVersion
1070
     0
  0
VISUALSTYLE
  5
9E7
102
{ACAD_REACTORS
330
9E0
102
}
330
9E0
100
AcDbVisualStyle
  2
3dWireframe
 70
     5
 71
     0
 72
     2
 73
     0
 90
        0
 40
-0.6
 41
-30.0
 62
     5
 63
     7
421
 16777215
 74
     1
 91
        4
 64
     7
 65
   257
 75
     1
175
     1
 42
1.0
 92
        0
 66
   257
 43
1.0
 76
     1
 77
     6
 78
     2
 67
     7
 79
     5
170
     0
171
     0
290
     0
174
     0
 93
        1
 44
0.0
173
     0
291
     0
 45
0.0
1001
ACAD
1000
AcDbSavedByObjectVersion
1070
     0
1000
AcDbSavedByObjectVersion
1070
     0
1000
AcDbSavedByObjectVersion
1070
     0
1000
AcDbSavedByObjectVersion
1070
     0
  0
VISUALSTYLE
  5
9E5
102
{ACAD_REACTORS
330
9E0
102
}
330
9E0
100
AcDbVisualStyle
  2
Basic
 70
     7
 71
     1
 72
     0
 73
     1
 90
        0
 40
-0.6
 41
-30.0
 62
     5
 63
     7
421
 16777215
 74
     0
 91
        4
 64
     7
 65
   257
 75
     1
175
     1
 42
1.0
 92
        8
 66
     7
 43
1.0
 76
     1
 77
     6
 78
     2
 67
     7
 79
     5
170
     0
171
     0
290
     0
174
     0
 93
        1
 44
0.0
173
     0
291
     1
 45
0.0
1001
ACAD
1000
AcDbSavedByObjectVersion
1070
     0
1000
AcDbSavedByObjectVersion
1070
     0
1000
AcDbSavedByObjectVersion
1070
     0
1000
AcDbSavedByObjectVersion
1070
     0
  0
VISUALSTYLE
  5
9EC
102
{ACAD_REACTORS
330
9E0
102
}
330
9E0
100
AcDbVisualStyle
  2
Brighten
 70
    12
 71
     2
 72
     2
 73
     0
 90
        0
 40
-0.6
 41
-30.0
 62
     5
 63
     7
421
 16777215
 74
     1
 91
        4
 64
     7
 65
   257
 75
     1
175
     1
 42
1.0
 92
        8
 66
     7
 43
1.0
 76
     1
 77
     6
 78
     2
 67
     7
 79
     5
170
     0
171
     0
290
     0
174
     0
 93
        1
 44
50.0
173
     0
291
     1
 45
0.0
1001
ACAD
1000
AcDbSavedByObjectVersion
1070
     0
1000
AcDbSavedByObjectVersion
1070
     0
1000
AcDbSavedByObjectVersion
1070
     0
1000
AcDbSavedByObjectVersion
1070
     0
  0
VISUALSTYLE
  5
9F0
102
{ACAD_REACTORS
330
9E0
102
}
330
9E0
100
AcDbVisualStyle
  2
ColorChange
 70
    16
 71
     2
 72
     2
 73
     3
 90
        0
 40
-0.6
 41
-30.0
 62
     5
 63
     8
421
  8421504
 74
     1
 91
        4
 64
     7
 65
   257
 75
     1
175
     1
 42
1.0
 92
        8
 66
     8
424
  8421504
 43
1.0
 76
     1
 77
     6
 78
     2
 67
     7
 79
     5
170
     0
171
     0
290
     0
174
     0
 93
        1
 44
0.0
173
     0
291
     1
 45
0.0
1001
ACAD
1000
AcDbSavedByObjectVersion
1070
     0
1000
AcDbSavedByObjectVersion
1070
     0
1000
AcDbSavedByObjectVersion
1070
     0
1000
AcDbSavedByObjectVersion
1070
     0
  0
VISUALSTYLE
  5
9E9
102
{ACAD_REACTORS
330
9E0
102
}
330
9E0
100
AcDbVisualStyle
  2
Conceptual
 70
     9
 71
     3
 72
     2
 73
     0
 90
        0
 40
-0.6
 41
-30.0
 62
     5
 63
     7
421
 16777215
 74
     2
 91
        2
 64
     7
 65
   257
 75
     1
175
     1
 42
40.0
 92
        8
 66
     7
 43
1.0
 76
     1
 77
     6
 78
     2
 67
     7
 79
     3
170
     0
171
     0
290
     0
174
     0
 93
        1
 44
0.0
173
     0
291
     0
 45
0.0
1001
ACAD
1000
AcDbSavedByObjectVersion
1070
     0
1000
AcDbSavedByObjectVersion
1070
     0
1000
AcDbSavedByObjectVersion
1070
     0
1000
AcDbSavedByObjectVersion
1070
     0
  0
VISUALSTYLE
  5
9EB
102
{ACAD_REACTORS
330
9E0
102
}
330
9E0
100
AcDbVisualStyle
  2
Dim
 70
    11
 71
     2
 72
     2
 73
     0
 90
        0
 40
-0.6
 41
-30.0
 62
     5
 63
     7
421
 16777215
 74
     1
 91
        4
 64
     7
 65
   257
 75
     1
175
     1
 42
1.0
 92
        8
 66
     7
 43
1.0
 76
     1
 77
     6
 78
     2
 67
     7
 79
     5
170
     0
171
     0
290
     0
174
     0
 93
        1
 44
-50.0
173
     0
291
     1
 45
0.0
1001
ACAD
1000
AcDbSavedByObjectVersion
1070
     0
1000
AcDbSavedByObjectVersion
1070
     0
1000
AcDbSavedByObjectVersion
1070
     0
1000
AcDbSavedByObjectVersion
1070
     0
  0
VISUALSTYLE
  5
9EF
102
{ACAD_REACTORS
330
9E0
102
}
330
9E0
100
AcDbVisualStyle
  2
Facepattern
 70
    15
 71
     2
 72
     2
 73
     0
 90
        0
 40
-0.6
 41
-30.0
 62
     5
 63
     7
421
 16777215
 74
     1
 91
        4
 64
     7
 65
   257
 75
     1
175
     1
 42
1.0
 92
        8
 66
     7
 43
1.0
 76
     1
 77
     6
 78
     2
 67
     7
 79
     5
170
     0
171
     0
290
     0
174
     0
 93
        1
 44
0.0
173
     0
291
     1
 45
0.0
1001
ACAD
1000
AcDbSavedByObjectVersion
1070
     0
1000
AcDbSavedByObjectVersion
1070
     0
1000
AcDbSavedByObjectVersion
1070
     0
1000
AcDbSavedByObjectVersion
1070
     0
  0
VISUALSTYLE
  5
9E1
102
{ACAD_REACTORS
330
9E0
102
}
330
9E0
100
AcDbVisualStyle
  2
Flat
 70
     0
 71
     2
 72
     1
 73
     1
 90
        2
 40
-0.6
 41
30.0
 62
     5
 63
     7
421
 16777215
 74
     0
 91
        4
 64
     7
 65
   257
 75
     1
175
     1
 42
1.0
 92
        8
 66
     7
 43
1.0
 76
     1
 77
     6
 78
     2
 67
     7
 79
     5
170
     0
171
     0
290
     0
174
     0
 93
       13
 44
0.0
173
     0
291
     1
 45
0.0
1001
ACAD
1000
AcDbSavedByObjectVersion
1070
     0
1000
AcDbSavedByObjectVersion
1070
     0
1000
AcDbSavedByObjectVersion
1070
     0
1000
AcDbSavedByObjectVersion
1070
     0
  0
VISUALSTYLE
  5
9E2
102
{ACAD_REACTORS
330
9E0
102
}
330
9E0
100
AcDbVisualStyle
  2
FlatWithEdges
 70
     1
 71
     2
 72
     1
 73
     1
 90
        2
 40
-0.6
 41
30.0
 62
     5
 63
     7
421
 16777215
 74
     1
 91
        4
 64
     7
 65
   257
 75
     1
175
     1
 42
1.0
 92
        0
 66
   257
 43
1.0
 76
     1
 77
     6
 78
     2
 67
     7
 79
     5
170
     0
171
     0
290
     0
174
     0
 93
       13
 44
0.0
173
     0
291
     1
 45
0.0
1001
ACAD
1000
AcDbSavedByObjectVersion
1070
     0
1000
AcDbSavedByObjectVersion
1070
     0
1000
AcDbSavedByObjectVersion
1070
     0
1000
AcDbSavedByObjectVersion
1070
     0
  0
VISUALSTYLE
  5
9E3
102
{ACAD_REACTORS
330
9E0
102
}
330
9E0
100
AcDbVisualStyle
  2
Gouraud
 70
     2
 71
     2
 72
     2
 73
     1
 90
        2
 40
-0.6
 41
30.0
 62
     5
 63
     7
421
 16777215
 74
     0
 91
        4
 64
     7
 65
   257
 75
     1
175
     1
 42
1.0
 92
        0
 66
     7
 43
1.0
 76
     1
 77
     6
 78
     2
 67
     7
 79
     5
170
     0
171
     0
290
     0
174
     0
 93
       13
 44
0.0
173
     0
291
     1
 45
0.0
1001
ACAD
1000
AcDbSavedByObjectVersion
1070
     0
1000
AcDbSavedByObjectVersion
1070
     0
1000
AcDbSavedByObjectVersion
1070
     0
1000
AcDbSavedByObjectVersion
1070
     0
  0
VISUALSTYLE
  5
9E4
102
{ACAD_REACTORS
330
9E0
102
}
330
9E0
100
AcDbVisualStyle
  2
GouraudWithEdges
 70
     3
 71
     2
 72
     2
 73
     1
 90
        2
 40
-0.6
 41
30.0
 62
     5
 63
     7
421
 16777215
 74
     1
 91
        4
 64
     7
 65
   257
 75
     1
175
     1
 42
1.0
 92
        0
 66
   257
 43
1.0
 76
     1
 77
     6
 78
     2
 67
     7
 79
     5
170
     0
171
     0
290
     0
174
     0
 93
       13
 44
0.0
173
     0
291
     1
 45
0.0
1001
ACAD
1000
AcDbSavedByObjectVersion
1070
     0
1000
AcDbSavedByObjectVersion
1070
     0
1000
AcDbSavedByObjectVersion
1070
     0
1000
AcDbSavedByObjectVersion
1070
     0
  0
VISUALSTYLE
  5
9EE
102
{ACAD_REACTORS
330
9E0
102
}
330
9E0
100
AcDbVisualStyle
  2
Linepattern
 70
    14
 71
     2
 72
     2
 73
     0
 90
        0
 40
-0.6
 41
-30.0
 62
     5
 63
     7
421
 16777215
 74
     1
 91
        4
 64
     7
 65
   257
 75
     7
175
     7
 42
1.0
 92
        8
 66
     7
 43
1.0
 76
     1
 77
     6
 78
     2
 67
     7
 79
     5
170
     0
171
     0
290
     0
174
     0
 93
        1
 44
0.0
173
     0
291
     1
 45
0.0
1001
ACAD
1000
AcDbSavedByObjectVersion
1070
     0
1000
AcDbSavedByObjectVersion
1070
     0
1000
AcDbSavedByObjectVersion
1070
     0
1000
AcDbSavedByObjectVersion
1070
     0
  0
VISUALSTYLE
  5
9EA
102
{ACAD_REACTORS
330
9E0
102
}
330
9E0
100
AcDbVisualStyle
  2
Realistic
 70
     8
 71
     2
 72
     2
 73
     0
 90
        0
 40
-0.6
 41
-30.0
 62
     5
 63
     7
421
 16777215
 74
     1
 91
        0
 64
     7
 65
   257
 75
     1
175
     1
 42
1.0
 92
        8
 66
     8
424
  7895160
 43
1.0
 76
     1
 77
     6
 78
     2
 67
     7
 79
     5
170
     0
171
     0
290
     0
174
     0
 93
       13
 44
0.0
173
     0
291
     0
 45
0.0
1001
ACAD
1000
AcDbSavedByObjectVersion
1070
     0
1000
AcDbSavedByObjectVersion
1070
     0
1000
AcDbSavedByObjectVersion
1070
     0
1000
AcDbSavedByObjectVersion
1070
     0
  0
VISUALSTYLE
  5
9ED
102
{ACAD_REACTORS
330
9E0
102
}
330
9E0
100
AcDbVisualStyle
  2
Thicken
 70
    13
 71
     2
 72
     2
 73
     0
 90
        0
 40
-0.6
 41
-30.0
 62
     5
 63
     7
421
 16777215
 74
     1
 91
        4
 64
     7
 65
   257
 75
     1
175
     1
 42
1.0
 92
       12
 66
     7
 43
1.0
 76
     1
 77
     6
 78
     2
 67
     7
 79
     5
170
     0
171
     0
290
     0
174
     0
 93
        1
 44
0.0
173
     0
291
     1
 45
0.0
1001
ACAD
1000
AcDbSavedByObjectVersion
1070
     0
1000
AcDbSavedByObjectVersion
1070
     0
1000
AcDbSavedByObjectVersion
1070
     0
1000
AcDbSavedByObjectVersion
1070
     0
  0
DICTIONARYVAR
  5
F87
102
{ACAD_REACTORS
330
98A
102
}
330
98A
100
DictionaryVariables
280
     0
  1
1:1
  0
DICTIONARYVAR
  5
F86
102
{ACAD_REACTORS
330
98A
102
}
330
98A
100
DictionaryVariables
280
     0
  1
STANDARD
  0
DICTIONARYVAR
  5
98B
102
{ACAD_REACTORS
330
98A
102
}
330
98A
100
DictionaryVariables
280
     0
  1
STANDARD
  0
DICTIONARYVAR
  5
98C
102
{ACAD_REACTORS
330
98A
102
}
330
98A
100
DictionaryVariables
280
     0
  1
1
  0
DICTIONARYVAR
  5
98D
102
{ACAD_REACTORS
330
98A
102
}
330
98A
100
DictionaryVariables
280
     0
  1

  0
DICTIONARY
  5
A7E
102
{ACAD_REACTORS
330
A73
102
}
330
A73
100
AcDbDictionary
281
     1
  0
XRECORD
  5
A93
102
{ACAD_REACTORS
330
A73
102
}
330
A73
100
AcDbXrecord
280
     1
 90
-1023410169
  0
XRECORD
  5
10AB
102
{ACAD_REACTORS
330
10AA
102
}
330
10AA
100
AcDbXrecord
280
     1
  0
DICTIONARY
  5
9D1
330
9D0
100
AcDbDictionary
280
     1
281
     1
  3
ACAD_XREC_ROUNDTRIP
360
F8F
  3
BUMPTILE
360
9D3
  3
DIFFUSETILE
360
9D2
  3
OPACITYTILE
360
9D6
  3
REFLECTIONTILE
360
9D5
  3
REFRACTIONTILE
360
9D7
  3
SPECULARTILE
360
9D4
  0
DICTIONARY
  5
9C9
330
9C8
100
AcDbDictionary
280
     1
281
     1
  3
ACAD_XREC_ROUNDTRIP
360
F8E
  3
BUMPTILE
360
9CB
  3
DIFFUSETILE
360
9CA
  3
OPACITYTILE
360
9CE
  3
REFLECTIONTILE
360
9CD
  3
REFRACTIONTILE
360
9CF
  3
SPECULARTILE
360
9CC
  0
DICTIONARY
  5
9D9
330
9D8
100
AcDbDictionary
280
     1
281
     1
  3
ACAD_XREC_ROUNDTRIP
360
F90
  3
BUMPTILE
360
9DB
  3
DIFFUSETILE
360
9DA
  3
OPACITYTILE
360
9DE
  3
REFLECTIONTILE
360
9DD
  3
REFRACTIONTILE
360
9DF
  3
SPECULARTILE
360
9DC
  0
DICTIONARY
  5
F88
330
1D
100
AcDbDictionary
280
     1
281
     1
  3
ACAD_ROUNDTRIP_2008_TABLESTYLE_CELLSTYLEMAP
360
13C7
  3
ACAD_XREC_ROUNDTRIP
360
13CA
  0
XRECORD
  5
F8F
102
{ACAD_REACTORS
330
9D1
102
}
330
9D1
100
AcDbXrecord
280
     1
102
MATERIAL
148
0.0
149
0.0
149
0.0
 93
        0
 94
      127
282
     0
 72
     0
 77
     0
171
     0
175
     0
179
     0
273
     0
  0
XRECORD
  5
9D3
102
{ACAD_REACTORS
330
9D1
102
}
330
9D1
100
AcDbXrecord
280
     1
270
     1
271
     1
  0
XRECORD
  5
9D2
102
{ACAD_REACTORS
330
9D1
102
}
330
9D1
100
AcDbXrecord
280
     1
270
     1
271
     1
  0
XRECORD
  5
9D6
102
{ACAD_REACTORS
330
9D1
102
}
330
9D1
100
AcDbXrecord
280
     1
270
     1
271
     1
  0
XRECORD
  5
9D5
102
{ACAD_REACTORS
330
9D1
102
}
330
9D1
100
AcDbXrecord
280
     1
270
     1
271
     1
  0
XRECORD
  5
9D7
102
{ACAD_REACTORS
330
9D1
102
}
330
9D1
100
AcDbXrecord
280
     1
270
     1
271
     1
  0
XRECORD
  5
9D4
102
{ACAD_REACTORS
330
9D1
102
}
330
9D1
100
AcDbXrecord
280
     1
270
     1
271
     1
  0
XRECORD
  5
F8E
102
{ACAD_REACTORS
330
9C9
102
}
330
9C9
100
AcDbXrecord
280
     1
102
MATERIAL
148
0.0
149
0.0
149
0.0
 93
        0
 94
      127
282
     0
 72
     0
 77
     0
171
     0
175
     0
179
     0
273
     0
  0
XRECORD
  5
9CB
102
{ACAD_REACTORS
330
9C9
102
}
330
9C9
100
AcDbXrecord
280
     1
270
     1
271
     1
  0
XRECORD
  5
9CA
102
{ACAD_REACTORS
330
9C9
102
}
330
9C9
100
AcDbXrecord
280
     1
270
     1
271
     1
  0
XRECORD
  5
9CE
102
{ACAD_REACTORS
330
9C9
102
}
330
9C9
100
AcDbXrecord
280
     1
270
     1
271
     1
  0
XRECORD
  5
9CD
102
{ACAD_REACTORS
330
9C9
102
}
330
9C9
100
AcDbXrecord
280
     1
270
     1
271
     1
  0
XRECORD
  5
9CF
102
{ACAD_REACTORS
330
9C9
102
}
330
9C9
100
AcDbXrecord
280
     1
270
     1
271
     1
  0
XRECORD
  5
9CC
102
{ACAD_REACTORS
330
9C9
102
}
330
9C9
100
AcDbXrecord
280
     1
270
     1
271
     1
  0
XRECORD
  5
F90
102
{ACAD_REACTORS
330
9D9
102
}
330
9D9
100
AcDbXrecord
280
     1
102
MATERIAL
148
0.0
149
0.0
149
0.0
 93
        0
 94
      127
282
     0
 72
     0
 77
     0
171
     0
175
     0
179
     0
273
     0
  0
XRECORD
  5
9DB
102
{ACAD_REACTORS
330
9D9
102
}
330
9D9
100
AcDbXrecord
280
     1
270
     1
271
     1
  0
XRECORD
  5
9DA
102
{ACAD_REACTORS
330
9D9
102
}
330
9D9
100
AcDbXrecord
280
     1
270
     1
271
     1
  0
XRECORD
  5
9DE
102
{ACAD_REACTORS
330
9D9
102
}
330
9D9
100
AcDbXrecord
280
     1
270
     1
271
     1
  0
XRECORD
  5
9DD
102
{ACAD_REACTORS
330
9D9
102
}
330
9D9
100
AcDbXrecord
280
     1
270
     1
271
     1
  0
XRECORD
  5
9DF
102
{ACAD_REACTORS
330
9D9
102
}
330
9D9
100
AcDbXrecord
280
     1
270
     1
271
     1
  0
XRECORD
  5
9DC
102
{ACAD_REACTORS
330
9D9
102
}
330
9D9
100
AcDbXrecord
280
     1
270
     1
271
     1
  0
CELLSTYLEMAP
  5
13C7
102
{ACAD_REACTORS
330
F88
102
}
330
F88
100
AcDbCellStyleMap
 90
        3
300
CELLSTYLE
  1
TABLEFORMAT_BEGIN
 90
        5
170
     1
 91
        0
 92
    32768
 62
   257
 93
        1
300
CONTENTFORMAT
  1
CONTENTFORMAT_BEGIN
 90
        0
 91
        0
 92
        4
 93
        0
300

 40
0.0
140
1.0
 94
        5
 62
     0
340
11
144
0.25
309
CONTENTFORMAT_END
171
     1
301
MARGIN
  1
CELLMARGIN_BEGIN
 40
0.06
 40
0.06
 40
0.06
 40
0.06
 40
0.18
 40
0.18
309
CELLMARGIN_END
 94
        6
 95
        1
302
GRIDFORMAT
  1
GRIDFORMAT_BEGIN
 90
        0
 91
        1
 62
     0
 92
       -2
340
0
 93
        0
 40
0.045
309
GRIDFORMAT_END
 95
        2
302
GRIDFORMAT
  1
GRIDFORMAT_BEGIN
 90
        0
 91
        1
 62
     0
 92
       -2
340
0
 93
        0
 40
0.045
309
GRIDFORMAT_END
 95
        4
302
GRIDFORMAT
  1
GRIDFORMAT_BEGIN
 90
        0
 91
        1
 62
     0
 92
       -2
340
0
 93
        0
 40
0.045
309
GRIDFORMAT_END
 95
        8
302
GRIDFORMAT
  1
GRIDFORMAT_BEGIN
 90
        0
 91
        1
 62
     0
 92
       -2
340
0
 93
        0
 40
0.045
309
GRIDFORMAT_END
 95
       16
302
GRIDFORMAT
  1
GRIDFORMAT_BEGIN
 90
        0
 91
        1
 62
     0
 92
       -2
340
0
 93
        0
 40
0.045
309
GRIDFORMAT_END
 95
       32
302
GRIDFORMAT
  1
GRIDFORMAT_BEGIN
 90
        0
 91
        1
 62
     0
 92
       -2
340
0
 93
        0
 40
0.045
309
GRIDFORMAT_END
309
TABLEFORMAT_END
  1
CELLSTYLE_BEGIN
 90
        1
 91
        1
300
_TITLE
309
CELLSTYLE_END
300
CELLSTYLE
  1
TABLEFORMAT_BEGIN
 90
        5
170
     1
 91
        0
 92
        0
 62
   257
 93
        1
300
CONTENTFORMAT
  1
CONTENTFORMAT_BEGIN
 90
        0
 91
        0
 92
        4
 93
        0
300

 40
0.0
140
1.0
 94
        5
 62
     0
340
11
144
0.18
309
CONTENTFORMAT_END
171
     1
301
MARGIN
  1
CELLMARGIN_BEGIN
 40
0.06
 40
0.06
 40
0.06
 40
0.06
 40
0.18
 40
0.18
309
CELLMARGIN_END
 94
        6
 95
        1
302
GRIDFORMAT
  1
GRIDFORMAT_BEGIN
 90
        0
 91
        1
 62
     0
 92
       -2
340
0
 93
        0
 40
0.045
309
GRIDFORMAT_END
 95
        2
302
GRIDFORMAT
  1
GRIDFORMAT_BEGIN
 90
        0
 91
        1
 62
     0
 92
       -2
340
0
 93
        0
 40
0.045
309
GRIDFORMAT_END
 95
        4
302
GRIDFORMAT
  1
GRIDFORMAT_BEGIN
 90
        0
 91
        1
 62
     0
 92
       -2
340
0
 93
        0
 40
0.045
309
GRIDFORMAT_END
 95
        8
302
GRIDFORMAT
  1
GRIDFORMAT_BEGIN
 90
        0
 91
        1
 62
     0
 92
       -2
340
0
 93
        0
 40
0.045
309
GRIDFORMAT_END
 95
       16
302
GRIDFORMAT
  1
GRIDFORMAT_BEGIN
 90
        0
 91
        1
 62
     0
 92
       -2
340
0
 93
        0
 40
0.045
309
GRIDFORMAT_END
 95
       32
302
GRIDFORMAT
  1
GRIDFORMAT_BEGIN
 90
        0
 91
        1
 62
     0
 92
       -2
340
0
 93
        0
 40
0.045
309
GRIDFORMAT_END
309
TABLEFORMAT_END
  1
CELLSTYLE_BEGIN
 90
        2
 91
        1
300
_HEADER
309
CELLSTYLE_END
300
CELLSTYLE
  1
TABLEFORMAT_BEGIN
 90
        5
170
     1
 91
        0
 92
        0
 62
   257
 93
        1
300
CONTENTFORMAT
  1
CONTENTFORMAT_BEGIN
 90
        0
 91
        0
 92
        4
 93
        0
300

 40
0.0
140
1.0
 94
        2
 62
     0
340
11
144
0.18
309
CONTENTFORMAT_END
171
     1
301
MARGIN
  1
CELLMARGIN_BEGIN
 40
0.06
 40
0.06
 40
0.06
 40
0.06
 40
0.18
 40
0.18
309
CELLMARGIN_END
 94
        6
 95
        1
302
GRIDFORMAT
  1
GRIDFORMAT_BEGIN
 90
        0
 91
        1
 62
     0
 92
       -2
340
0
 93
        0
 40
0.045
309
GRIDFORMAT_END
 95
        2
302
GRIDFORMAT
  1
GRIDFORMAT_BEGIN
 90
        0
 91
        1
 62
     0
 92
       -2
340
0
 93
        0
 40
0.045
309
GRIDFORMAT_END
 95
        4
302
GRIDFORMAT
  1
GRIDFORMAT_BEGIN
 90
        0
 91
        1
 62
     0
 92
       -2
340
0
 93
        0
 40
0.045
309
GRIDFORMAT_END
 95
        8
302
GRIDFORMAT
  1
GRIDFORMAT_BEGIN
 90
        0
 91
        1
 62
     0
 92
       -2
340
0
 93
        0
 40
0.045
309
GRIDFORMAT_END
 95
       16
302
GRIDFORMAT
  1
GRIDFORMAT_BEGIN
 90
        0
 91
        1
 62
     0
 92
       -2
340
0
 93
        0
 40
0.045
309
GRIDFORMAT_END
 95
       32
302
GRIDFORMAT
  1
GRIDFORMAT_BEGIN
 90
        0
 91
        1
 62
     0
 92
       -2
340
0
 93
        0
 40
0.045
309
GRIDFORMAT_END
309
TABLEFORMAT_END
  1
CELLSTYLE_BEGIN
 90
        3
 91
        2
300
_DATA
309
CELLSTYLE_END
  0
XRECORD
  5
13CA
102
{ACAD_REACTORS
330
F88
102
}
330
F88
100
AcDbXrecord
280
     1
102
ACAD_ROUNDTRIP_PRE2007_TABLESTYLE
 90
        4
 91
        0
  1

 92
        4
 93
        0
  2

 94
        4
 95
        0
  3

  0
ENDSEC
  0
EOF
