  0
SECTION
  2
HEADER
  9
$ACADVER
  1
AC1015
  9
$ACADMAINTVER
 70
    20
  9
$DWGCODEPAGE
  3
ANSI_1252
  9
$INSBASE
 10
0.0
 20
0.0
 30
0.0
  9
$EXTMIN
 10
1721.93654192148
 20
-718.1187037611898
 30
0.0
  9
$EXTMAX
 10
1926.50832974884
 20
-35.22559113000454
 30
0.0
  9
$LIMMIN
 10
0.0
 20
0.0
  9
$LIMMAX
 10
410.0
 20
287.0
  9
$ORTHOMODE
 70
     0
  9
$REGENMODE
 70
     1
  9
$FILLMODE
 70
     1
  9
$QTEXTMODE
 70
     0
  9
$MIRRTEXT
 70
     0
  9
$LTSCALE
 40
1.0
  9
$ATTMODE
 70
     1
  9
$TEXTSIZE
 40
0.0
  9
$TRACEWID
 40
1.0
  9
$TEXTSTYLE
  7
AUDIT_I_060331094926-0
  9
$CLAYER
  8
AM_3
  9
$CELTYPE
  6
ByLayer
  9
$CECOLOR
 62
   256
  9
$CELTSCALE
 40
1.0
  9
$DISPSILH
 70
     0
  9
$DIMSCALE
 40
1.0
  9
$DIMASZ
 40
5.0
  9
$DIMEXO
 40
1.0
  9
$DIMDLI
 40
10.0
  9
$DIMRND
 40
0.0
  9
$DIMDLE
 40
0.0
  9
$DIMEXE
 40
1.0
  9
$DIMTP
 40
0.1
  9
$DIMTM
 40
0.1
  9
$DIMTXT
 40
5.0
  9
$DIMCEN
 40
0.0
  9
$DIMTSZ
 40
0.0
  9
$DIMTOL
 70
     0
  9
$DIMLIM
 70
     0
  9
$DIMTIH
 70
     0
  9
$DIMTOH
 70
     0
  9
$DIMSE1
 70
     0
  9
$DIMSE2
 70
     0
  9
$DIMTAD
 70
     1
  9
$DIMZIN
 70
     8
  9
$DIMBLK
  1

  9
$DIMASO
 70
     1
  9
$DIMSHO
 70
     1
  9
$DIMPOST
  1

  9
$DIMAPOST
  1
"
  9
$DIMALT
 70
     0
  9
$DIMALTD
 70
     2
  9
$DIMALTF
 40
0.0393701
  9
$DIMLFAC
 40
1.0
  9
$DIMTOFL
 70
     1
  9
$DIMTVP
 40
0.0
  9
$DIMTIX
 70
     0
  9
$DIMSOXD
 70
     0
  9
$DIMSAH
 70
     0
  9
$DIMBLK1
  1

  9
$DIMBLK2
  1

  9
$DIMSTYLE
  2
AM_DIN
  9
$DIMCLRD
 70
   256
  9
$DIMCLRE
 70
   256
  9
$DIMCLRT
 70
     2
  9
$DIMTFAC
 40
0.71
  9
$DIMGAP
 40
1.5
  9
$DIMJUST
 70
     0
  9
$DIMSD1
 70
     0
  9
$DIMSD2
 70
     0
  9
$DIMTOLJ
 70
     0
  9
$DIMTZIN
 70
     8
  9
$DIMALTZ
 70
     0
  9
$DIMALTTZ
 70
     0
  9
$DIMUPT
 70
     0
  9
$DIMDEC
 70
     2
  9
$DIMTDEC
 70
     2
  9
$DIMALTU
 70
     2
  9
$DIMALTTD
 70
     2
  9
$DIMTXSTY
  7
AUDIT_I_060331094926-0
  9
$DIMAUNIT
 70
     0
  9
$DIMADEC
 70
     0
  9
$DIMALTRND
 40
0.0
  9
$DIMAZIN
 70
     2
  9
$DIMDSEP
 70
    46
  9
$DIMATFIT
 70
     3
  9
$DIMFRAC
 70
     0
  9
$DIMLDRBLK
  1

  9
$DIMLUNIT
 70
     2
  9
$DIMLWD
 70
    -1
  9
$DIMLWE
 70
    -1
  9
$DIMTMOVE
 70
     0
  9
$LUNITS
 70
     2
  9
$LUPREC
 70
     2
  9
$SKETCHINC
 40
1.0
  9
$FILLETRAD
 40
2.5
  9
$AUNITS
 70
     0
  9
$AUPREC
 70
     0
  9
$MENU
  1
ACAD
  9
$ELEVATION
 40
0.0
  9
$PELEVATION
 40
0.0
  9
$THICKNESS
 40
0.0
  9
$LIMCHECK
 70
     0
  9
$CHAMFERA
 40
2.5
  9
$CHAMFERB
 40
2.5
  9
$CHAMFERC
 40
0.0
  9
$CHAMFERD
 40
0.0
  9
$SKPOLY
 70
     0
  9
$TDCREATE
 40
2448793.749559954
  9
$TDUCREATE
 40
2448793.666226620
  9
$TDUPDATE
 40
2456913.427211933
  9
$TDUUPDATE
 40
2456913.343878599
  9
$TDINDWG
 40
0.0128389352
  9
$TDUSRTIMER
 40
0.0128376620
  9
$USRTIMER
 70
     1
  9
$ANGBASE
 50
0.0
  9
$ANGDIR
 70
     0
  9
$PDMODE
 70
     0
  9
$PDSIZE
 40
0.0
  9
$PLINEWID
 40
0.0
  9
$SPLFRAME
 70
     0
  9
$SPLINETYPE
 70
     6
  9
$SPLINESEGS
 70
     8
  9
$HANDSEED
  5
13E9
  9
$SURFTAB1
 70
     6
  9
$SURFTAB2
 70
     6
  9
$SURFTYPE
 70
     6
  9
$SURFU
 70
     6
  9
$SURFV
 70
     6
  9
$UCSBASE
  2

  9
$UCSNAME
  2

  9
$UCSORG
 10
0.0
 20
0.0
 30
0.0
  9
$UCSXDIR
 10
1.0
 20
0.0
 30
0.0
  9
$UCSYDIR
 10
0.0
 20
1.0
 30
0.0
  9
$UCSORTHOREF
  2

  9
$UCSORTHOVIEW
 70
     0
  9
$UCSORGTOP
 10
0.0
 20
0.0
 30
0.0
  9
$UCSORGBOTTOM
 10
0.0
 20
0.0
 30
0.0
  9
$UCSORGLEFT
 10
0.0
 20
0.0
 30
0.0
  9
$UCSORGRIGHT
 10
0.0
 20
0.0
 30
0.0
  9
$UCSORGFRONT
 10
0.0
 20
0.0
 30
0.0
  9
$UCSORGBACK
 10
0.0
 20
0.0
 30
0.0
  9
$PUCSBASE
  2

  9
$PUCSNAME
  2

  9
$PUCSORG
 10
0.0
 20
0.0
 30
0.0
  9
$PUCSXDIR
 10
1.0
 20
0.0
 30
0.0
  9
$PUCSYDIR
 10
0.0
 20
1.0
 30
0.0
  9
$PUCSORTHOREF
  2

  9
$PUCSORTHOVIEW
 70
     0
  9
$PUCSORGTOP
 10
0.0
 20
0.0
 30
0.0
  9
$PUCSORGBOTTOM
 10
0.0
 20
0.0
 30
0.0
  9
$PUCSORGLEFT
 10
0.0
 20
0.0
 30
0.0
  9
$PUCSORGRIGHT
 10
0.0
 20
0.0
 30
0.0
  9
$PUCSORGFRONT
 10
0.0
 20
0.0
 30
0.0
  9
$PUCSORGBACK
 10
0.0
 20
0.0
 30
0.0
  9
$USERI1
 70
     0
  9
$USERI2
 70
     0
  9
$USERI3
 70
     0
  9
$USERI4
 70
     0
  9
$USERI5
 70
     0
  9
$USERR1
 40
0.0
  9
$USERR2
 40
0.0
  9
$USERR3
 40
0.0
  9
$USERR4
 40
0.0
  9
$USERR5
 40
0.0
  9
$WORLDVIEW
 70
     1
  9
$SHADEDGE
 70
     3
  9
$SHADEDIF
 70
    70
  9
$TILEMODE
 70
     1
  9
$MAXACTVP
 70
    64
  9
$PINSBASE
 10
0.0
 20
0.0
 30
0.0
  9
$PLIMCHECK
 70
     0
  9
$PEXTMIN
 10
1.000000000000000E+20
 20
1.000000000000000E+20
 30
1.000000000000000E+20
  9
$PEXTMAX
 10
-1.000000000000000E+20
 20
-1.000000000000000E+20
 30
-1.000000000000000E+20
  9
$PLIMMIN
 10
0.0
 20
0.0
  9
$PLIMMAX
 10
12.0
 20
9.0
  9
$UNITMODE
 70
     0
  9
$VISRETAIN
 70
     1
  9
$PLINEGEN
 70
     0
  9
$PSLTSCALE
 70
     1
  9
$TREEDEPTH
 70
  3020
  9
$CMLSTYLE
  2
Standard
  9
$CMLJUST
 70
     0
  9
$CMLSCALE
 40
1.0
  9
$PROXYGRAPHICS
 70
     1
  9
$MEASUREMENT
 70
     0
  9
$CELWEIGHT
370
    -1
  9
$ENDCAPS
280
     0
  9
$JOINSTYLE
280
     0
  9
$LWDISPLAY
290
     0
  9
$INSUNITS
 70
     0
  9
$HYPERLINKBASE
  1

  9
$STYLESHEET
  1

  9
$XEDIT
290
     1
  9
$CEPSNTYPE
380
     0
  9
$PSTYLEMODE
290
     1
  9
$FINGERPRINTGUID
  2
{058D1A67-C83A-47C2-9ACB-B02E208D7C6E}
  9
$VERSIONGUID
  2
{6DA77182-0B77-4077-BDCB-E9116F37F039}
  9
$EXTNAMES
290
     1
  9
$PSVPSCALE
 40
0.0
  9
$OLESTARTUP
290
     0
  0
ENDSEC
  0
SECTION
  2
CLASSES
  0
CLASS
  1
ACDBDICTIONARYWDFLT
  2
AcDbDictionaryWithDefault
  3
ObjectDBX Classes
 90
        0
280
     0
281
     0
  0
CLASS
  1
TABLESTYLE
  2
AcDbTableStyle
  3
ObjectDBX Classes
 90
     4095
280
     0
281
     0
  0
CLASS
  1
DICTIONARYVAR
  2
AcDbDictionaryVar
  3
ObjectDBX Classes
 90
        0
280
     0
281
     0
  0
CLASS
  1
MATERIAL
  2
AcDbMaterial
  3
ObjectDBX Classes
 90
     1153
280
     0
281
     0
  0
CLASS
  1
VISUALSTYLE
  2
AcDbVisualStyle
  3
ObjectDBX Classes
 90
     4095
280
     0
281
     0
  0
CLASS
  1
SCALE
  2
AcDbScale
  3
ObjectDBX Classes
 90
     1153
280
     0
281
     0
  0
CLASS
  1
MLEADERSTYLE
  2
AcDbMLeaderStyle
  3
ACDB_MLEADERSTYLE_CLASS
 90
     4095
280
     0
281
     0
  0
CLASS
  1
AMGSETTINGSOBJ
  2
AmgSettingsObj
  3
"AcadM|Product Description: AutoCAD Mechanical|Company: Autodesk, Inc."
 90
     1024
280
     0
281
     0
  0
CLASS
  1
ACME_DOCUMENT
  2
AcMeDbDoc
  3
AcMeServices
 90
     1024
280
     0
281
     0
  0
CLASS
  1
ACMESCOPE
  2
AcMeScope
  3
AcMeServices
 90
     1024
280
     0
281
     0
  0
CLASS
  1
ACMECOMMANDHISTORY
  2
AcMeCommandHistory
  3
AcMeServices
 90
     1024
280
     0
281
     0
  0
CLASS
  1
ACIMSYSVARMAN
  2
AcImSysVarManager
  3
AcMeServices
 90
     1024
280
     0
281
     0
  0
CLASS
  1
ACIMINTSYSVAR
  2
AcImIntSysVar
  3
AcMeServices
 90
     1024
280
     0
281
     0
  0
CLASS
  1
ACMEDRAWINGMAN
  2
AcMeDrawingMan
  3
AcMeServices
 90
    33792
280
     0
281
     0
  0
CLASS
  1
ACMEVIEW
  2
AcMeView
  3
AcMeServices
 90
    33792
280
     0
281
     0
  0
CLASS
  1
ACDBENTITYCACHE
  2
AcMeEntityCache
  3
AcMeServices
 90
     1024
280
     0
281
     0
  0
CLASS
  1
GSMANAGER
  2
AcMeGSManager
  3
AcMeServices
 90
    33792
280
     0
281
     0
  0
CLASS
  1
AMDTINTERNALREACTOR
  2
AmdtInternalReactor
  3
AcMeServices
 90
     1024
280
     0
281
     0
  0
CLASS
  1
ACMESTATEMGR
  2
AcMeStateMgr
  3
AcMeServices
 90
     1024
280
     0
281
     0
  0
CLASS
  1
ACGREFMASTER
  2
AcGrefMaster
  3
AcAttribServices
 90
     1024
280
     0
281
     0
  0
CLASS
  1
AM_DRAWING_MGR
  2
AcDmDwgMgr
  3
AcMechDwgViewMgmt
 90
     1024
280
     0
281
     0
  0
CLASS
  1
AM_DWG_DOCUMENT
  2
AcDmDwgDocument
  3
AcMechDwgViewMgmt
 90
     1024
280
     0
281
     0
  0
CLASS
  1
AM_DWG_SHEET
  2
AcDmSheet
  3
AcMechDwgViewMgmt
 90
     1024
280
     0
281
     0
  0
CLASS
  1
AM_VIEWDIMPARMAP
  2
AcDmViewDimParMap
  3
AcMechDwgViewMgmt
 90
     1024
280
     0
281
     0
  0
CLASS
  1
ACIMREALSYSVAR
  2
AcImRealSysVar
  3
AcMeServices
 90
     1024
280
     0
281
     0
  0
CLASS
  1
AM_DWGMGR_NAME
  2
AcDmDwgMgrName
  3
AcMechDwgViewMgmt
 90
     1024
280
     0
281
     0
  0
CLASS
  1
ACME_DATABASE
  2
AcMeDbDatabase
  3
AcMeServices
 90
     1024
280
     0
281
     0
  0
CLASS
  1
ACRFINSADJUSTERMGR
  2
AcRfInsAdjusterMgr
  3
AcMeServices
 90
     1024
280
     0
281
     0
  0
CLASS
  1
ACGREFACADMASTER
  2
AcGrefacadMaster
  3
AcGrefServices
 90
     1024
280
     0
281
     0
  0
CLASS
  1
AMDTMENUSTATEMGR
  2
AmdtMenuStateMgr
  3
McadcomServices
 90
     1024
280
     0
281
     0
  0
CLASS
  1
AMDTMCOMMENUSTATE
  2
AmdtMcomMenuState
  3
McadcomServices
 90
     1024
280
     0
281
     0
  0
CLASS
  1
AMIMASTER
  2
AmiMaster
  3
AmiServices
 90
     1024
280
     0
281
     0
  0
CLASS
  1
MAPIAMMOUDLE
  2
MApiAmModule
  3
MApiAmServices
 90
     1024
280
     0
281
     0
  0
CLASS
  1
ACIMSTRSYSVAR
  2
AcImStrSysVar
  3
AcMeServices
 90
     1024
280
     0
281
     0
  0
CLASS
  1
AMDTADMENUSTATE
  2
AmdtAdMenuState
  3
DesignerServices
 90
    33792
280
     0
281
     0
  0
CLASS
  1
ADAPPL
  2
AcAdAppl
  3
DesignerAssemblies
 90
    33792
280
     0
281
     0
  0
CLASS
  1
DEPMGR
  2
AcAdDepMgr
  3
DesignerAssemblies
 90
    33792
280
     0
281
     0
  0
CLASS
  1
PARAMMGR
  2
AcAdParamMgr
  3
DesignerAssemblies
 90
    33792
280
     0
281
     0
  0
CLASS
  1
PARAMSCOPE
  2
AcAdParamScope
  3
DesignerAssemblies
 90
    33792
280
     0
281
     0
  0
CLASS
  1
NAMEDAPPL
  2
AcAdNamedAppl
  3
DesignerAssemblies
 90
    33792
280
     0
281
     0
  0
CLASS
  1
AMDTDMMENUSTATE
  2
AmdtDmMenuState
  3
AcMechDwgViewMgmt
 90
    33792
280
     0
281
     0
  0
CLASS
  1
AMDTAMMENUSTATE
  2
AmdtAmMenuState
  3
DesignerAssemblies
 90
     1024
280
     0
281
     0
  0
CLASS
  1
ACAMPROJECT
  2
AcAmProject
  3
DesignerAssemblies
 90
     1024
280
     0
281
     0
  0
CLASS
  1
ACAMGRCOMPDEF
  2
AcAmGrCompDef
  3
DesignerAssemblies
 90
     1024
280
     0
281
     0
  0
CLASS
  1
ACCMCONTEXT
  2
AcCmContext
  3
DesignerAssemblies
 90
     1024
280
     0
281
     0
  0
CLASS
  1
ACAMCOMPDEF
  2
AcAmCompDef
  3
DesignerAssemblies
 90
     1024
280
     0
281
     0
  0
CLASS
  1
ACAMCOMPDEFMGR
  2
AcAmCompDefMgr
  3
DesignerAssemblies
 90
     1024
280
     0
281
     0
  0
CLASS
  1
AMCONTEXTMGR
  2
AcAmContextMgr
  3
DesignerAssemblies
 90
     1024
280
     0
281
     0
  0
CLASS
  1
ACAMCONTEXTMODELER
  2
AcAmContextModeler
  3
DesignerAssemblies
 90
     1024
280
     0
281
     0
  0
CLASS
  1
ACMDATADICTIONARY
  2
AcmDataDictionary
  3
"AcmSymBB|Product Description: AutoCAD Mechanical|Company: Autodesk, Inc."
 90
     1024
280
     0
281
     0
  0
CLASS
  1
CATALOGSTATE
  2
AcAmCatalogState
  3
DesignerAssemblies
 90
    33792
280
     0
281
     0
  0
CLASS
  1
ACAMGRCOMPDEFSET
  2
AcAmGrCompDefSet
  3
DesignerAssemblies
 90
     1024
280
     0
281
     0
  0
CLASS
  1
AMDTBROWSERDBTAB
  2
AmdtBrowserDbTab
  3
McadcomServices
 90
     1024
280
     0
281
     0
  0
CLASS
  1
CBROWSERAPPOBJECT
  2
CBrowserAppObject
  3
McadcomServices
 90
     1024
280
     0
281
     0
  0
CLASS
  1
DM_PLACEHOLDER
  2
AcDmSelsetPlaceholder
  3
McadcomServices
 90
     1024
280
     0
281
     0
  0
CLASS
  1
ACMSTANDARDANSI
  2
AcmStandardANSI
  3
"Amdt_StdImp|Product Description: AutoCAD Mechanical|Company: Autodesk, Inc."
 90
     1024
280
     0
281
     0
  0
CLASS
  1
AMGOBJPROPCFG
  2
AmgObjPropCfg
  3
"AmgLay|Product Description: AutoCAD Mechanical|Company: Autodesk, Inc."
 90
     1025
280
     0
281
     0
  0
CLASS
  1
ACMSURFSTANDARDANSI
  2
AcmSurfTextStdANSI
  3
"Amdt_StdImp|Product Description: AutoCAD Mechanical|Company: Autodesk, Inc."
 90
     1024
280
     0
281
     0
  0
CLASS
  1
ACMFCFSTANDARDANSI
  2
AcmFCFStdANSI
  3
"Amdt_StdImp|Product Description: AutoCAD Mechanical|Company: Autodesk, Inc."
 90
     1024
280
     0
281
     0
  0
CLASS
  1
ACMWELDSTANDARDANSI
  2
AcmWeldingStdANSI
  3
"Amdt_StdImp|Product Description: AutoCAD Mechanical|Company: Autodesk, Inc."
 90
     1024
280
     0
281
     0
  0
CLASS
  1
ACMIDSTANDARDANSI
  2
AcmIdStdANSI
  3
"Amdt_StdImp|Product Description: AutoCAD Mechanical|Company: Autodesk, Inc."
 90
     1024
280
     0
281
     0
  0
CLASS
  1
ACMDATUMSTANDARDANSI
  2
AcmDatumStdANSI
  3
"Amdt_StdImp|Product Description: AutoCAD Mechanical|Company: Autodesk, Inc."
 90
     1024
280
     0
281
     0
  0
CLASS
  1
ACMBOMSTANDARDANSI
  2
AcmBOMStdANSI
  3
"Amdt_StdImp|Product Description: AutoCAD Mechanical|Company: Autodesk, Inc."
 90
     1024
280
     0
281
     0
  0
CLASS
  1
ACMDETAILSTANDARDANSI
  2
AmdtDetailSymStdANSI
  3
"Amdt_StdImp|Product Description: AutoCAD Mechanical|Company: Autodesk, Inc."
 90
     1024
280
     0
281
     0
  0
CLASS
  1
ACMSECTIONSTANDARDANSI
  2
AmdtSectionSymStdANSI
  3
"Amdt_StdImp|Product Description: AutoCAD Mechanical|Company: Autodesk, Inc."
 90
     1024
280
     0
281
     0
  0
CLASS
  1
ACMCENTERLINESTANDARDANSI
  2
AmdtCenterLineStdANSI
  3
"Amdt_StdImp|Product Description: AutoCAD Mechanical|Company: Autodesk, Inc."
 90
     1024
280
     0
281
     0
  0
CLASS
  1
ACMTHREADLINESTANDARDANSI
  2
AmdtThreadLineStdANSI
  3
"Amdt_StdImp|Product Description: AutoCAD Mechanical|Company: Autodesk, Inc."
 90
     1024
280
     0
281
     0
  0
CLASS
  1
ACMNOTESTANDARDANSI
  2
AmdtNoteStdANSI
  3
"Amdt_StdImp|Product Description: AutoCAD Mechanical|Company: Autodesk, Inc."
 90
     1024
280
     0
281
     0
  0
CLASS
  1
ACMTAPERSTANDARDANSI
  2
AcmTaperStdANSI
  3
"Amdt_StdImp|Product Description: AutoCAD Mechanical|Company: Autodesk, Inc."
 90
     1024
280
     0
281
     0
  0
CLASS
  1
ACMANOOTATIONVIEWSTANDARDANSI
  2
AmdtAnViewStdANSI
  3
"Amdt_StdImp|Product Description: AutoCAD Mechanical|Company: Autodesk, Inc."
 90
     1024
280
     0
281
     0
  0
CLASS
  1
AMDTNOTETEMPLATEDB
  2
AmdtNoteTemplateDB
  3
AcmSymBB|Product Description: AutoCAD Mechanical|Company: Autodesk, Inc.
 90
     1024
280
     0
281
     0
  0
CLASS
  1
ACAMGLAYSTD
  2
AcAmgLayStd
  3
"AmgLay|Product Description: AutoCAD Mechanical|Company: Autodesk, Inc."
 90
     1024
280
     0
281
     0
  0
CLASS
  1
ACAMGDIMSTD
  2
AcAmgDimStd
  3
"AmgDim|Product Description: AutoCAD Mechanical|Company: Autodesk, Inc."
 90
     1024
280
     0
281
     0
  0
CLASS
  1
ACAMGHOLECHARTSTDANSI
  2
AcAmgHoleChartStdANSI
  3
AmgDim|Product Description: AutoCAD Mechanical|Company: Autodesk, Inc.
 90
     1024
280
     0
281
     0
  0
CLASS
  1
ACAMGTITLESTD
  2
AcAmgTitleStd
  3
"AmgTitle|Product Description: AutoCAD Mechanical|Company: Autodesk, Inc."
 90
     4095
280
     0
281
     0
  0
CLASS
  1
ACAMGFILTERDAT
  2
AcAmgFilterDat
  3
"AcadM|Product Description: AutoCAD Mechanical|Company: Autodesk, Inc."
 90
    33792
280
     0
281
     0
  0
CLASS
  1
SORTENTSTABLE
  2
AcDbSortentsTable
  3
ObjectDBX Classes
 90
        0
280
     0
281
     0
  0
CLASS
  1
ACMSTANDARDDIN
  2
AcmStandardDIN
  3
"Amdt_StdImp|Product Description: AutoCAD Mechanical|Company: Autodesk, Inc."
 90
    33792
280
     0
281
     0
  0
CLASS
  1
AMDTEDGESTANDARDDIN13715
  2
AmdtEdgeStdDIN13715
  3
"Amdt_StdImp|Product Description: AutoCAD Mechanical|Company: Autodesk, Inc."
 90
    33792
280
     0
281
     0
  0
CLASS
  1
ACMSURFSTANDARDDIN2002
  2
AcmSurfTextStdDIN2002
  3
"Amdt_StdImp|Product Description: AutoCAD Mechanical|Company: Autodesk, Inc."
 90
    33792
280
     0
281
     0
  0
CLASS
  1
ACMFCFSTANDARDDIN
  2
AcmFCFStdDIN
  3
"Amdt_StdImp|Product Description: AutoCAD Mechanical|Company: Autodesk, Inc."
 90
    33792
280
     0
281
     0
  0
CLASS
  1
ACMWELDSTANDARDDIN
  2
AcmWeldingStdDIN
  3
"Amdt_StdImp|Product Description: AutoCAD Mechanical|Company: Autodesk, Inc."
 90
    33792
280
     0
281
     0
  0
CLASS
  1
ACMIDSTANDARDDIN
  2
AcmIdStdDIN
  3
"Amdt_StdImp|Product Description: AutoCAD Mechanical|Company: Autodesk, Inc."
 90
    33792
280
     0
281
     0
  0
CLASS
  1
ACMDATUMSTANDARDDIN
  2
AcmDatumStdDIN
  3
"Amdt_StdImp|Product Description: AutoCAD Mechanical|Company: Autodesk, Inc."
 90
    33792
280
     0
281
     0
  0
CLASS
  1
ACMBOMSTANDARDDIN
  2
AcmBOMStdDIN
  3
"Amdt_StdImp|Product Description: AutoCAD Mechanical|Company: Autodesk, Inc."
 90
    33792
280
     0
281
     0
  0
CLASS
  1
ACMDETAILSTANDARDDIN
  2
AmdtDetailSymStdDIN
  3
"Amdt_StdImp|Product Description: AutoCAD Mechanical|Company: Autodesk, Inc."
 90
    33792
280
     0
281
     0
  0
CLASS
  1
ACMSECTIONSTANDARDDIN
  2
AmdtSectionSymStdDIN
  3
"Amdt_StdImp|Product Description: AutoCAD Mechanical|Company: Autodesk, Inc."
 90
    33792
280
     0
281
     0
  0
CLASS
  1
ACMCENTERLINESTANDARDDIN
  2
AmdtCenterLineStdDIN
  3
"Amdt_StdImp|Product Description: AutoCAD Mechanical|Company: Autodesk, Inc."
 90
    33792
280
     0
281
     0
  0
CLASS
  1
ACMTHREADLINESTANDARDDIN
  2
AmdtThreadLineStdDIN
  3
"Amdt_StdImp|Product Description: AutoCAD Mechanical|Company: Autodesk, Inc."
 90
    33792
280
     0
281
     0
  0
CLASS
  1
ACMNOTESTANDARDDIN
  2
AmdtNoteStdDIN
  3
"Amdt_StdImp|Product Description: AutoCAD Mechanical|Company: Autodesk, Inc."
 90
    33792
280
     0
281
     0
  0
CLASS
  1
ACMTAPERSTANDARDDIN
  2
AcmTaperStdDIN
  3
"Amdt_StdImp|Product Description: AutoCAD Mechanical|Company: Autodesk, Inc."
 90
    33792
280
     0
281
     0
  0
CLASS
  1
ACMANOOTATIONVIEWSTANDARDDIN
  2
AmdtAnViewStdDIN
  3
"Amdt_StdImp|Product Description: AutoCAD Mechanical|Company: Autodesk, Inc."
 90
    33792
280
     0
281
     0
  0
CLASS
  1
ACAMGHOLECHARTSTDDIN
  2
AcAmgHoleChartStdDIN
  3
AmgDim|Product Description: AutoCAD Mechanical|Company: Autodesk, Inc.
 90
    33792
280
     0
281
     0
  0
CLASS
  1
ACMSTANDARDISO
  2
AcmStandardISO
  3
"Amdt_StdImp|Product Description: AutoCAD Mechanical|Company: Autodesk, Inc."
 90
    33792
280
     0
281
     0
  0
CLASS
  1
AMDTEDGESTANDARDISO
  2
AmdtEdgeStdISO
  3
"Amdt_StdImp|Product Description: AutoCAD Mechanical|Company: Autodesk, Inc."
 90
    33792
280
     0
281
     0
  0
CLASS
  1
ACMSURFSTANDARDISO2002
  2
AcmSurfTextStdISO2002
  3
"Amdt_StdImp|Product Description: AutoCAD Mechanical|Company: Autodesk, Inc."
 90
    33792
280
     0
281
     0
  0
CLASS
  1
ACMFCFSTANDARDISO
  2
AcmFCFStdISO
  3
"Amdt_StdImp|Product Description: AutoCAD Mechanical|Company: Autodesk, Inc."
 90
    33792
280
     0
281
     0
  0
CLASS
  1
ACMWELDSTANDARDISO
  2
AcmWeldingStdISO
  3
"Amdt_StdImp|Product Description: AutoCAD Mechanical|Company: Autodesk, Inc."
 90
    33792
280
     0
281
     0
  0
CLASS
  1
ACMIDSTANDARDISO
  2
AcmIdStdISO
  3
"Amdt_StdImp|Product Description: AutoCAD Mechanical|Company: Autodesk, Inc."
 90
    33792
280
     0
281
     0
  0
CLASS
  1
ACMDATUMSTANDARDISO
  2
AcmDatumStdISO
  3
"Amdt_StdImp|Product Description: AutoCAD Mechanical|Company: Autodesk, Inc."
 90
    33792
280
     0
281
     0
  0
CLASS
  1
ACMBOMSTANDARDISO
  2
AcmBOMStdISO
  3
"Amdt_StdImp|Product Description: AutoCAD Mechanical|Company: Autodesk, Inc."
 90
    33792
280
     0
281
     0
  0
CLASS
  1
ACMDETAILSTANDARDISO
  2
AmdtDetailSymStdISO
  3
"Amdt_StdImp|Product Description: AutoCAD Mechanical|Company: Autodesk, Inc."
 90
    33792
280
     0
281
     0
  0
CLASS
  1
ACMSECTIONSTANDARDISO2001
  2
AmdtSectionSymStdISO2001
  3
"Amdt_StdImp|Product Description: AutoCAD Mechanical|Company: Autodesk, Inc."
 90
    33792
280
     0
281
     0
  0
CLASS
  1
ACMCENTERLINESTANDARDISO
  2
AmdtCenterLineStdISO
  3
"Amdt_StdImp|Product Description: AutoCAD Mechanical|Company: Autodesk, Inc."
 90
    33792
280
     0
281
     0
  0
CLASS
  1
ACMNOTESTANDARDISO
  2
AmdtNoteStdISO
  3
"Amdt_StdImp|Product Description: AutoCAD Mechanical|Company: Autodesk, Inc."
 90
    33792
280
     0
281
     0
  0
CLASS
  1
ACAMGHOLECHARTSTDISO
  2
AcAmgHoleChartStdISO
  3
AmgDim|Product Description: AutoCAD Mechanical|Company: Autodesk, Inc.
 90
    33792
280
     0
281
     0
  0
CLASS
  1
ACMTHREADLINESTANDARDISO
  2
AmdtThreadLineStdISO
  3
"Amdt_StdImp|Product Description: AutoCAD Mechanical|Company: Autodesk, Inc."
 90
    33792
280
     0
281
     0
  0
CLASS
  1
ACMTAPERSTANDARDISO
  2
AcmTaperStdISO
  3
"Amdt_StdImp|Product Description: AutoCAD Mechanical|Company: Autodesk, Inc."
 90
    33792
280
     0
281
     0
  0
CLASS
  1
ACMANOOTATIONVIEWSTANDARDISO
  2
AmdtAnViewStdISO
  3
"Amdt_StdImp|Product Description: AutoCAD Mechanical|Company: Autodesk, Inc."
 90
    33792
280
     0
281
     0
  0
CLASS
  1
DIMASSOC
  2
AcDbDimAssoc
  3
"AcDbDimAssoc|Product Desc:     AcDim ARX App For Dimension|Company:          Autodesk, Inc.|WEB Address:      www.autodesk.com"
 90
        0
280
     0
281
     0
  0
CLASS
  1
CELLSTYLEMAP
  2
AcDbCellStyleMap
  3
ObjectDBX Classes
 90
     1152
280
     0
281
     0
  0
CLASS
  1
ACMDATAENTRYPART
  2
AcmDataEntryPart
  3
AcmSymBB|Product Description: AutoCAD Mechanical|Company: Autodesk, Inc.
 90
    33792
280
     0
281
     0
  0
CLASS
  1
ACMPARTREF
  2
AcmPartRef
  3
"AcmSymBB|Product Description: AutoCAD Mechanical|Company: Autodesk, Inc."
 90
    36863
280
     0
281
     1
  0
CLASS
  1
ACDBLINERES
  2
AcDbLineRes
  3
AcGrefServices
 90
    33792
280
     0
281
     0
  0
CLASS
  1
ACMDATAENTRYBLOCK
  2
AcmDataEntryBlock
  3
AcmSymBB|Product Description: AutoCAD Mechanical|Company: Autodesk, Inc.
 90
     1024
280
     0
281
     0
  0
CLASS
  1
ACMBOM
  2
AcmBom
  3
"AcmSymBB|Product Description: AutoCAD Mechanical|Company: Autodesk, Inc."
 90
     1024
280
     0
281
     0
  0
CLASS
  1
AMDTFORMULAUPDATEDISPATCHER
  2
AmdtFormulaUpdateDispatcher
  3
AcMeServices
 90
     1024
280
     0
281
     0
  0
CLASS
  1
CAMSSTRUCTBTNSTATE
  2
StructBtnState
  3
DesignerAssemblies
 90
     1024
280
     0
281
     0
  0
CLASS
  1
ACRFATTGENMGR
  2
AcRfAttGeneralMgr
  3
AcAttribServices
 90
     1024
280
     0
281
     0
  0
CLASS
  1
ACRFOBJATTMGR
  2
AcRfObjAttGroupMgr
  3
AcAttribServices
 90
     1024
280
     0
281
     0
  0
CLASS
  1
ACRFMCADAPIATTHOLDER
  2
AcRfMCADAPIAttHolder
  3
AcAttribServices
 90
     1024
280
     0
281
     0
  0
CLASS
  1
AMDTSYSATTR
  2
AmdtSystemAttribute
  3
AcAttribServices
 90
     1024
280
     0
281
     0
  0
CLASS
  1
ACDBPLACEHOLDER
  2
AcDbPlaceHolder
  3
ObjectDBX Classes
 90
        0
280
     0
281
     0
  0
CLASS
  1
LAYOUT
  2
AcDbLayout
  3
ObjectDBX Classes
 90
        0
280
     0
281
     0
  0
ENDSEC
  0
SECTION
  2
TABLES
  0
TABLE
  2
VPORT
  5
8
330
0
100
AcDbSymbolTable
 70
     1
  0
VPORT
  5
9E8
330
8
100
AcDbSymbolTableRecord
100
AcDbViewportTableRecord
  2
*Active
 70
     0
 10
0.0
 20
0.0
 11
1.0
 21
1.0
 12
1933.088700556724
 22
-328.2937924961392
 13
0.0
 23
0.0
 14
0.125
 24
0.125
 15
1.0
 25
1.0
 16
0.0
 26
0.0
 36
1.0
 17
0.0
 27
0.0
 37
0.0
 40
794.0108870688674
 41
1.821222606689734
 42
50.0
 43
0.0
 44
0.0
 50
0.0
 51
0.0
 71
     0
 72
   100
 73
     1
 74
     1
 75
     0
 76
     0
 77
     0
 78
     0
281
     0
 65
     1
110
0.0
120
0.0
130
0.0
111
1.0
121
0.0
131
0.0
112
0.0
122
1.0
132
0.0
 79
     0
146
0.0
1001
ACAD_NAV_VCDISPLAY
1070
     3
  0
ENDTAB
  0
TABLE
  2
LTYPE
  5
5
330
0
100
AcDbSymbolTable
 70
    22
  0
LTYPE
  5
13
330
5
100
AcDbSymbolTableRecord
100
AcDbLinetypeTableRecord
  2
ByBlock
 70
     0
  3

 72
    65
 73
     0
 40
0.0
  0
LTYPE
  5
14
330
5
100
AcDbSymbolTableRecord
100
AcDbLinetypeTableRecord
  2
ByLayer
 70
     0
  3

 72
    65
 73
     0
 40
0.0
  0
LTYPE
  5
15
330
5
100
AcDbSymbolTableRecord
100
AcDbLinetypeTableRecord
  2
CONTINUOUS
 70
     0
  3
Solid line
 72
    65
 73
     0
 40
0.0
  0
LTYPE
  5
26
330
5
100
AcDbSymbolTableRecord
100
AcDbLinetypeTableRecord
  2
DASHED
 70
     0
  3
Dashed line
 72
    65
 73
     2
 40
0.75
 49
0.5
 74
     0
 49
-0.25
 74
     0
  0
LTYPE
  5
27
330
5
100
AcDbSymbolTableRecord
100
AcDbLinetypeTableRecord
  2
CENTER
 70
     0
  3
Center line
 72
    65
 73
     4
 40
2.0
 49
1.25
 74
     0
 49
-0.25
 74
     0
 49
0.25
 74
     0
 49
-0.25
 74
     0
  0
LTYPE
  5
A73
330
5
100
AcDbSymbolTableRecord
100
AcDbLinetypeTableRecord
  2
HIDDEN
 70
     0
  3
Verdeckt
 72
    65
 73
     2
 40
0.375
 49
0.25
 74
     0
 49
-0.125
 74
     0
  0
LTYPE
  5
A74
330
5
100
AcDbSymbolTableRecord
100
AcDbLinetypeTableRecord
  2
PHANTOM2
 70
     0
  3
Phantom (.5x) ___ _ _ ___ _ _ ___ _ _ ___ _ _
 72
    65
 73
     6
 40
1.25
 49
0.625
 74
     0
 49
-0.125
 74
     0
 49
0.125
 74
     0
 49
-0.125
 74
     0
 49
0.125
 74
     0
 49
-0.125
 74
     0
  0
LTYPE
  5
AB8
330
5
100
AcDbSymbolTableRecord
100
AcDbLinetypeTableRecord
  2
ACANSTGB
 70
     0
  3
__ . . __ . .
 72
    65
 73
     6
 40
0.35433070866
 49
0.15748031496
 74
     0
 49
-0.03937007874
 74
     0
 49
0.03937007874
 74
     0
 49
-0.03937007874
 74
     0
 49
0.03937007874
 74
     0
 49
-0.03937007874
 74
     0
  0
LTYPE
  5
AB9
330
5
100
AcDbSymbolTableRecord
100
AcDbLinetypeTableRecord
  2
ACANSTGL
 70
     0
  3
_ _ _ _ _
 72
    65
 73
     2
 40
0.11811023622
 49
0.07874015748
 74
     0
 49
-0.03937007874
 74
     0
  0
LTYPE
  5
C55
330
5
100
AcDbSymbolTableRecord
100
AcDbLinetypeTableRecord
  2
AM_ISO02W050
 70
     0
  3
__ __ __ __ __ __ __ __ __ __ __ __ __ __ __
 72
    65
 73
     2
 40
7.5
 49
6.0
 74
     0
 49
-1.5
 74
     0
  0
LTYPE
  5
C56
330
5
100
AcDbSymbolTableRecord
100
AcDbLinetypeTableRecord
  2
AM_ISO08W050
 70
     0
  3
____ . ____ . ____ . ____ . ____ . ____ . ____
 72
    65
 73
     4
 40
18.0
 49
12.0
 74
     0
 49
-1.5
 74
     0
 49
3.0
 74
     0
 49
-1.5
 74
     0
  0
LTYPE
  5
C57
330
5
100
AcDbSymbolTableRecord
100
AcDbLinetypeTableRecord
  2
AM_ISO09W050
 70
     0
  3
_____ . . _____ . . _____ . . ____ .. ____
 72
    65
 73
     6
 40
22.5
 49
12.0
 74
     0
 49
-1.5
 74
     0
 49
3.0
 74
     0
 49
-1.5
 74
     0
 49
3.0
 74
     0
 49
-1.5
 74
     0
  0
LTYPE
  5
C58
330
5
100
AcDbSymbolTableRecord
100
AcDbLinetypeTableRecord
  2
Amconstr
 70
     0
  3
_______________________
 72
    65
 73
     2
 40
9999.0
 49
9999.0
 74
     0
 49
0.0
 74
     0
  0
LTYPE
  5
C59
330
5
100
AcDbSymbolTableRecord
100
AcDbLinetypeTableRecord
  2
AM_ISO08W050x2
 70
     0
  3
__ . __ . __ . __ . __ . __
 72
    65
 73
     4
 40
9.0
 49
6.0
 74
     0
 49
-0.75
 74
     0
 49
1.5
 74
     0
 49
-0.75
 74
     0
  0
LTYPE
  5
C5A
330
5
100
AcDbSymbolTableRecord
100
AcDbLinetypeTableRecord
  2
AM_ISO02W050x2
 70
     0
  3
 _ _ _ _ _ _ _ _ _ _ _ _
 72
    65
 73
     2
 40
3.75
 49
3.0
 74
     0
 49
-0.75
 74
     0
  0
LTYPE
  5
C5B
330
5
100
AcDbSymbolTableRecord
100
AcDbLinetypeTableRecord
  2
Amzigzag
 70
     0
  3
/\/-/\/-/\/-/\/-/\/-/\/
 72
    65
 73
     2
 40
11.0001
 49
0.0001
 74
     4
 75
   136
340
C5C
 46
0.04
 50
0.0
 44
0.0
 45
0.0
 49
-11.0
 74
     0
  0
LTYPE
  5
C73
330
5
100
AcDbSymbolTableRecord
100
AcDbLinetypeTableRecord
  2
ACDINWELD
 70
     0
  3
_ _ _ _ _
 72
    65
 73
     2
 40
2.0
 49
2.0
 74
     0
 49
-1.0
 74
     0
  0
LTYPE
  5
C76
330
5
100
AcDbSymbolTableRecord
100
AcDbLinetypeTableRecord
  2
ACDINTGB
 70
     0
  3
__ . . __ . .
 72
    65
 73
     6
 40
9.0
 49
4.0
 74
     0
 49
-1.0
 74
     0
 49
1.0
 74
     0
 49
-1.0
 74
     0
 49
1.0
 74
     0
 49
-1.0
 74
     0
  0
LTYPE
  5
C77
330
5
100
AcDbSymbolTableRecord
100
AcDbLinetypeTableRecord
  2
ACDINTGL
 70
     0
  3
_ _ _ _ _
 72
    65
 73
     2
 40
3.0
 49
2.0
 74
     0
 49
-1.0
 74
     0
  0
LTYPE
  5
C88
330
5
100
AcDbSymbolTableRecord
100
AcDbLinetypeTableRecord
  2
CENTER2
 70
     0
  3
Center (.5x) ___ _ ___ _ ___ _ ___ _ ___ _ ___
 72
    65
 73
     4
 40
1.125
 49
0.75
 74
     0
 49
-0.125
 74
     0
 49
0.125
 74
     0
 49
-0.125
 74
     0
  0
LTYPE
  5
C89
330
5
100
AcDbSymbolTableRecord
100
AcDbLinetypeTableRecord
  2
HIDDEN2
 70
     0
  3
Hidden (.5x) _ _ _ _ _ _ _ _ _ _ _ _ _ _ _ _ _
 72
    65
 73
     2
 40
0.1875
 49
0.125
 74
     0
 49
-0.0625
 74
     0
  0
LTYPE
  5
C9D
330
5
100
AcDbSymbolTableRecord
100
AcDbLinetypeTableRecord
  2
ACISOWELD
 70
     0
  3
_ _ _ _ _
 72
    65
 73
     2
 40
2.0
 49
2.0
 74
     0
 49
-1.0
 74
     0
  0
LTYPE
  5
CA0
330
5
100
AcDbSymbolTableRecord
100
AcDbLinetypeTableRecord
  2
ACISOTGB
 70
     0
  3
__ . . __ . .
 72
    65
 73
     6
 40
9.0
 49
4.0
 74
     0
 49
-1.0
 74
     0
 49
1.0
 74
     0
 49
-1.0
 74
     0
 49
1.0
 74
     0
 49
-1.0
 74
     0
  0
LTYPE
  5
CA1
330
5
100
AcDbSymbolTableRecord
100
AcDbLinetypeTableRecord
  2
ACISOTGL
 70
     0
  3
_ _ _ _ _
 72
    65
 73
     2
 40
3.0
 49
2.0
 74
     0
 49
-1.0
 74
     0
  0
ENDTAB
  0
TABLE
  2
LAYER
  5
2
102
{ACAD_XDICTIONARY
360
1226
102
}
330
0
100
AcDbSymbolTable
 70
     9
  0
LAYER
  5
10
102
{ACAD_XDICTIONARY
360
F0E
102
}
330
2
100
AcDbSymbolTableRecord
100
AcDbLayerTableRecord
  2
0
 70
     0
 62
     7
  6
CONTINUOUS
370
    -3
390
F
  0
LAYER
  5
28
330
2
100
AcDbSymbolTableRecord
100
AcDbLayerTableRecord
  2
DEFPOINTS
 70
     0
 62
    -7
  6
CONTINUOUS
290
     0
370
    -3
390
F
  0
LAYER
  5
CBF
102
{ACAD_XDICTIONARY
360
CC0
102
}
330
2
100
AcDbSymbolTableRecord
100
AcDbLayerTableRecord
  2
AM_2 ( Kontur 0.25)
 70
     0
 62
     5
  6
CONTINUOUS
370
    25
390
F
1001
AcAecLayerStandard
1000

1000

  0
LAYER
  5
CC5
102
{ACAD_XDICTIONARY
360
F24
102
}
330
2
100
AcDbSymbolTableRecord
100
AcDbLayerTableRecord
  2
AM_3 ( Verdeckt )
 70
     0
 62
     6
  6
AM_ISO02W050
370
    25
390
F
1001
AcAecLayerStandard
1000

1000

  0
LAYER
  5
CC7
102
{ACAD_XDICTIONARY
360
F26
102
}
330
2
100
AcDbSymbolTableRecord
100
AcDbLayerTableRecord
  2
AM_7 (Mittellinie)
 70
     0
 62
     4
  6
AM_ISO08W050
370
    25
390
F
1001
AcAecLayerStandard
1000

1000

  0
LAYER
  5
D03
102
{ACAD_XDICTIONARY
360
F2A
102
}
330
2
100
AcDbSymbolTableRecord
100
AcDbLayerTableRecord
  2
AM_5 ( Bemassung)
 70
     0
 62
     3
  6
CONTINUOUS
370
    25
390
F
1001
AcAecLayerStandard
1000

1000

  0
LAYER
  5
105F
330
2
100
AcDbSymbolTableRecord
100
AcDbLayerTableRecord
  2
AM_3
 70
     0
 62
     6
  6
HIDDEN
370
    15
390
F
1001
AcAecLayerStandard
1000

1000

  0
LAYER
  5
1229
330
2
100
AcDbSymbolTableRecord
100
AcDbLayerTableRecord
  2
AM_12 ( Teile Referenz)
 70
     0
 62
     7
  6
CONTINUOUS
290
     0
370
    50
390
F
1001
AcAecLayerStandard
1000

1000

  0
LAYER
  5
122A
330
2
100
AcDbSymbolTableRecord
100
AcDbLayerTableRecord
  2
AM_PAREF ( Teilereferenz)
 70
     0
 62
     4
  6
CONTINUOUS
290
     0
370
    25
390
F
1001
AcAecLayerStandard
1000

1000

  0
ENDTAB
  0
TABLE
  2
STYLE
  5
3
330
0
100
AcDbSymbolTable
 70
     9
  0
STYLE
  5
11
330
3
100
AcDbSymbolTableRecord
100
AcDbTextStyleTableRecord
  2
AUDIT_I_060331094926-0
 70
     0
 40
0.0
 41
1.0
 50
0.0
 71
     0
 42
0.0
  3
@Arial Unicode MS
  4

  0
STYLE
  5
9A8
330
3
100
AcDbSymbolTableRecord
100
AcDbTextStyleTableRecord
  2
STANDARD
 70
     0
 40
0.0
 41
1.0
 50
0.0
 71
     0
 42
3.5
  3
ARIAL.TTF
  4

1001
ACAD
1000
Arial
1071
       34
  0
STYLE
  5
AA9
330
3
100
AcDbSymbolTableRecord
100
AcDbTextStyleTableRecord
  2
ACANSTS
 70
     0
 40
1.0
 41
1.0
 50
0.0
 71
     0
 42
3.5
  3
romans.shx
  4

  0
STYLE
  5
AB7
330
3
100
AcDbSymbolTableRecord
100
AcDbTextStyleTableRecord
  2
ACANSGDT
 70
     0
 40
0.0
 41
1.0
 50
0.0
 71
     0
 42
3.5
  3
amgdt.shx
  4

  0
STYLE
  5
C5C
330
3
100
AcDbSymbolTableRecord
100
AcDbTextStyleTableRecord
  2

 70
     1
 40
0.0
 41
1.0
 50
0.0
 71
     0
 42
2.5
  3
genltshp.shx
  4

  0
STYLE
  5
C6D
330
3
100
AcDbSymbolTableRecord
100
AcDbTextStyleTableRecord
  2
ACDINTS
 70
     0
 40
1.0
 41
1.0
 50
0.0
 71
     0
 42
3.5
  3
isocp.shx
  4

  0
STYLE
  5
C71
330
3
100
AcDbSymbolTableRecord
100
AcDbTextStyleTableRecord
  2
ACDINGDT
 70
     0
 40
0.0
 41
1.0
 50
0.0
 71
     0
 42
3.5
  3
amgdt.shx
  4

  0
STYLE
  5
C97
330
3
100
AcDbSymbolTableRecord
100
AcDbTextStyleTableRecord
  2
ACISOTS
 70
     0
 40
1.0
 41
1.0
 50
0.0
 71
     0
 42
2.5
  3
ARIALN.TTF
  4

1001
ACAD
1000
Arial Narrow
1071
       34
  0
STYLE
  5
C9B
330
3
100
AcDbSymbolTableRecord
100
AcDbTextStyleTableRecord
  2
ACISOGDT
 70
     0
 40
0.0
 41
1.0
 50
0.0
 71
     0
 42
2.5
  3
amgdt.shx
  4

  0
ENDTAB
  0
TABLE
  2
VIEW
  5
6
330
0
100
AcDbSymbolTable
 70
     0
  0
ENDTAB
  0
TABLE
  2
UCS
  5
7
330
0
100
AcDbSymbolTable
 70
     0
  0
ENDTAB
  0
TABLE
  2
APPID
  5
9
330
0
100
AcDbSymbolTable
 70
    68
  0
APPID
  5
12
330
9
100
AcDbSymbolTableRecord
100
AcDbRegAppTableRecord
  2
ACAD
 70
     0
  0
APPID
  5
A3D
330
9
100
AcDbSymbolTableRecord
100
AcDbRegAppTableRecord
  2
ACAD_MLEADERVER
 70
     0
  0
APPID
  5
A46
330
9
100
AcDbSymbolTableRecord
100
AcDbRegAppTableRecord
  2
MCAD_NO_VIS
 70
     0
  0
APPID
  5
A47
330
9
100
AcDbSymbolTableRecord
100
AcDbRegAppTableRecord
  2
ACAD_TEMP_GRAPHIC
 70
     0
  0
APPID
  5
A76
330
9
100
AcDbSymbolTableRecord
100
AcDbRegAppTableRecord
  2
AD_DRAW
 70
     0
  0
APPID
  5
A79
330
9
100
AcDbSymbolTableRecord
100
AcDbRegAppTableRecord
  2
ACATTRIBSERVICES
 70
     0
  0
APPID
  5
A9A
330
9
100
AcDbSymbolTableRecord
100
AcDbRegAppTableRecord
  2
DESIGNERASSEMBLIES
 70
     0
  0
APPID
  5
AA0
330
9
100
AcDbSymbolTableRecord
100
AcDbRegAppTableRecord
  2
ACADM_DIM_EDIT
 70
     0
  0
APPID
  5
AA1
330
9
100
AcDbSymbolTableRecord
100
AcDbRegAppTableRecord
  2
AMDT_DM_ADJ
 70
     0
  0
APPID
  5
C00
330
9
100
AcDbSymbolTableRecord
100
AcDbRegAppTableRecord
  2
AcadAnnotative
 70
     0
  0
APPID
  5
C01
330
9
100
AcDbSymbolTableRecord
100
AcDbRegAppTableRecord
  2
ACAD_DSTYLE_DIMARC_LENGTH_SYMBOL
 70
     0
  0
APPID
  5
C02
330
9
100
AcDbSymbolTableRecord
100
AcDbRegAppTableRecord
  2
AcAecLayerStandard
 70
     0
  0
APPID
  5
C03
330
9
100
AcDbSymbolTableRecord
100
AcDbRegAppTableRecord
  2
ACAD_DSTYLE_DIMJOGGED_JOGANGLE_SYMBOL
 70
     0
  0
APPID
  5
C04
330
9
100
AcDbSymbolTableRecord
100
AcDbRegAppTableRecord
  2
AcadAnnoPO
 70
     0
  0
APPID
  5
C05
330
9
100
AcDbSymbolTableRecord
100
AcDbRegAppTableRecord
  2
ACAD_EXEMPT_FROM_CAD_STANDARDS
 70
     0
  0
APPID
  5
C06
330
9
100
AcDbSymbolTableRecord
100
AcDbRegAppTableRecord
  2
GENIUS_GENODEF_13
 70
     0
  0
APPID
  5
C07
330
9
100
AcDbSymbolTableRecord
100
AcDbRegAppTableRecord
  2
GENIUS_GENOBJ-N-CRS_13
 70
     0
  0
APPID
  5
C08
330
9
100
AcDbSymbolTableRecord
100
AcDbRegAppTableRecord
  2
GENIUS_GENOENT_13
 70
     0
  0
APPID
  5
C09
330
9
100
AcDbSymbolTableRecord
100
AcDbRegAppTableRecord
  2
GENIUS_GENOLIS_13
 70
     0
  0
APPID
  5
C0A
330
9
100
AcDbSymbolTableRecord
100
AcDbRegAppTableRecord
  2
GENIUS_GENOREF_13
 70
     0
  0
APPID
  5
C0B
330
9
100
AcDbSymbolTableRecord
100
AcDbRegAppTableRecord
  2
GEVID1190879659
 70
     0
  0
APPID
  5
C0C
330
9
100
AcDbSymbolTableRecord
100
AcDbRegAppTableRecord
  2
GEVDC
 70
     0
  0
APPID
  5
C0D
330
9
100
AcDbSymbolTableRecord
100
AcDbRegAppTableRecord
  2
GENIUS_GENBH_13
 70
     0
  0
APPID
  5
C0E
330
9
100
AcDbSymbolTableRecord
100
AcDbRegAppTableRecord
  2
GENIUS_GENOBJ-NBEHI-BHF_13
 70
     0
  0
APPID
  5
C0F
330
9
100
AcDbSymbolTableRecord
100
AcDbRegAppTableRecord
  2
GENIUS_GENOBJ-NBEHI-BHB_13
 70
     0
  0
APPID
  5
C10
330
9
100
AcDbSymbolTableRecord
100
AcDbRegAppTableRecord
  2
GEVID1190879660
 70
     0
  0
APPID
  5
C11
330
9
100
AcDbSymbolTableRecord
100
AcDbRegAppTableRecord
  2
GEVID1190879661
 70
     0
  0
APPID
  5
C12
330
9
100
AcDbSymbolTableRecord
100
AcDbRegAppTableRecord
  2
ACAD_DSTYLE_DIMRADIAL_EXTENSION
 70
     0
  0
APPID
  5
C13
330
9
100
AcDbSymbolTableRecord
100
AcDbRegAppTableRecord
  2
GEVID1190879662
 70
     0
  0
APPID
  5
C14
330
9
100
AcDbSymbolTableRecord
100
AcDbRegAppTableRecord
  2
GEVID1190879663
 70
     0
  0
APPID
  5
C15
330
9
100
AcDbSymbolTableRecord
100
AcDbRegAppTableRecord
  2
GEVID1190879664
 70
     0
  0
APPID
  5
C16
330
9
100
AcDbSymbolTableRecord
100
AcDbRegAppTableRecord
  2
GEVID1190879665
 70
     0
  0
APPID
  5
C17
330
9
100
AcDbSymbolTableRecord
100
AcDbRegAppTableRecord
  2
GEVID1190879666
 70
     0
  0
APPID
  5
C18
330
9
100
AcDbSymbolTableRecord
100
AcDbRegAppTableRecord
  2
GENIUS_GENOBJ-N-CEN_13
 70
     0
  0
APPID
  5
C19
330
9
100
AcDbSymbolTableRecord
100
AcDbRegAppTableRecord
  2
GENIUS_GENCEN_19
 70
     0
  0
APPID
  5
C1A
330
9
100
AcDbSymbolTableRecord
100
AcDbRegAppTableRecord
  2
GEVID1190879667
 70
     0
  0
APPID
  5
C1B
330
9
100
AcDbSymbolTableRecord
100
AcDbRegAppTableRecord
  2
GENIUS_GENOBJ-N-CRC_13
 70
     0
  0
APPID
  5
C1C
330
9
100
AcDbSymbolTableRecord
100
AcDbRegAppTableRecord
  2
GENIUS_GENCRC_14
 70
     0
  0
APPID
  5
C1D
330
9
100
AcDbSymbolTableRecord
100
AcDbRegAppTableRecord
  2
ACAD_PSEXT
 70
     0
  0
APPID
  5
C1E
330
9
100
AcDbSymbolTableRecord
100
AcDbRegAppTableRecord
  2
GEVID1190888456
 70
     0
  0
APPID
  5
C1F
330
9
100
AcDbSymbolTableRecord
100
AcDbRegAppTableRecord
  2
GEVID1190888457
 70
     0
  0
APPID
  5
C20
330
9
100
AcDbSymbolTableRecord
100
AcDbRegAppTableRecord
  2
GEVID1190888458
 70
     0
  0
APPID
  5
C21
330
9
100
AcDbSymbolTableRecord
100
AcDbRegAppTableRecord
  2
GEVID1190888459
 70
     0
  0
APPID
  5
C22
330
9
100
AcDbSymbolTableRecord
100
AcDbRegAppTableRecord
  2
GEVID1190888460
 70
     0
  0
APPID
  5
C23
330
9
100
AcDbSymbolTableRecord
100
AcDbRegAppTableRecord
  2
GEVID1190888461
 70
     0
  0
APPID
  5
C24
330
9
100
AcDbSymbolTableRecord
100
AcDbRegAppTableRecord
  2
GEVID1190888462
 70
     0
  0
APPID
  5
C25
330
9
100
AcDbSymbolTableRecord
100
AcDbRegAppTableRecord
  2
ACAD_DSTYLE_DIMJAG
 70
     0
  0
APPID
  5
C26
330
9
100
AcDbSymbolTableRecord
100
AcDbRegAppTableRecord
  2
ACAD_DSTYLE_DIMTALN
 70
     0
  0
APPID
  5
C27
330
9
100
AcDbSymbolTableRecord
100
AcDbRegAppTableRecord
  2
GENIUS_GENBLLY_14
 70
     0
  0
APPID
  5
C28
330
9
100
AcDbSymbolTableRecord
100
AcDbRegAppTableRecord
  2
DCO15
 70
     0
  0
APPID
  5
C29
330
9
100
AcDbSymbolTableRecord
100
AcDbRegAppTableRecord
  2
GENIUS_GENREC_14
 70
     0
  0
APPID
  5
C2A
330
9
100
AcDbSymbolTableRecord
100
AcDbRegAppTableRecord
  2
GENIUS_GENOBJ-N-REC_13
 70
     0
  0
APPID
  5
C2B
330
9
100
AcDbSymbolTableRecord
100
AcDbRegAppTableRecord
  2
GENIUS_GENOBJ-N-TIT_13
 70
     0
  0
APPID
  5
C2C
330
9
100
AcDbSymbolTableRecord
100
AcDbRegAppTableRecord
  2
GENIUS_GENTITLE_13
 70
     0
  0
APPID
  5
C2D
330
9
100
AcDbSymbolTableRecord
100
AcDbRegAppTableRecord
  2
GENIUS_GENSCREG_15
 70
     0
  0
APPID
  5
C2E
330
9
100
AcDbSymbolTableRecord
100
AcDbRegAppTableRecord
  2
GENIUS_GENOBJ-N-SDF_13
 70
     0
  0
APPID
  5
C2F
330
9
100
AcDbSymbolTableRecord
100
AcDbRegAppTableRecord
  2
ACAD_DSTYLE_DIMINSPECT
 70
     0
  0
APPID
  5
C30
330
9
100
AcDbSymbolTableRecord
100
AcDbRegAppTableRecord
  2
GENIUS_GENDIMSH_14
 70
     0
  0
APPID
  5
C31
330
9
100
AcDbSymbolTableRecord
100
AcDbRegAppTableRecord
  2
GENIUS_GENOBJ-N-HTC_13
 70
     0
  0
APPID
  5
C32
330
9
100
AcDbSymbolTableRecord
100
AcDbRegAppTableRecord
  2
GENIUS_GENHATCH_13
 70
     0
  0
APPID
  5
C33
330
9
100
AcDbSymbolTableRecord
100
AcDbRegAppTableRecord
  2
ACAUTHENVIRON
 70
     0
  0
APPID
  5
C34
330
9
100
AcDbSymbolTableRecord
100
AcDbRegAppTableRecord
  2
AcDbDynamicBlockTrueName
 70
     0
  0
APPID
  5
C35
330
9
100
AcDbSymbolTableRecord
100
AcDbRegAppTableRecord
  2
AcDbDynamicBlockGUID
 70
     0
  0
APPID
  5
C36
330
9
100
AcDbSymbolTableRecord
100
AcDbRegAppTableRecord
  2
ACDBBLOCKREPETAG
 70
     0
  0
APPID
  5
CC2
330
9
100
AcDbSymbolTableRecord
100
AcDbRegAppTableRecord
  2
GENIUS_GENTRA_14
 70
     0
  0
APPID
  5
EAB
330
9
100
AcDbSymbolTableRecord
100
AcDbRegAppTableRecord
  2
GENIUS_GENDTOL_13
 70
     0
  0
APPID
  5
1324
330
9
100
AcDbSymbolTableRecord
100
AcDbRegAppTableRecord
  2
EAR3_SAP_ACAD
 70
     0
  0
APPID
  5
1351
330
9
100
AcDbSymbolTableRecord
100
AcDbRegAppTableRecord
  2
ACAD_NAV_VCDISPLAY
 70
     0
  0
ENDTAB
  0
TABLE
  2
DIMSTYLE
  5
A
330
0
100
AcDbSymbolTable
 70
    24
100
AcDbDimStyleTable
 71
     3
340
C8B
340
AC4
340
730
  0
DIMSTYLE
105
730
330
A
100
AcDbSymbolTableRecord
100
AcDbDimStyleTableRecord
  2
Standard
 70
     0
340
11
  0
DIMSTYLE
105
AC4
330
A
100
AcDbSymbolTableRecord
100
AcDbDimStyleTableRecord
  2
AM_ANSI
 70
     0
  4
mm
 41
0.1
 42
0.05
 43
0.5
 44
0.1
 47
0.1
 48
0.1
 78
     7
 79
     2
140
0.12
141
0.0
146
0.71
147
0.06
176
   256
177
   256
178
     2
274
     4
284
     7
340
11
371
    -1
372
    -1
1001
ACAD_DSTYLE_DIMARC_LENGTH_SYMBOL
1070
   379
1070
     1
  0
DIMSTYLE
105
AC5
330
A
100
AcDbSymbolTableRecord
100
AcDbDimStyleTableRecord
  2
AM_ANSI$3
 70
     0
  4
mm
 41
0.1
 42
0.05
 43
0.5
 44
0.1
 47
0.1
 48
0.1
 78
     7
 79
     2
140
0.12
141
0.0
146
0.71
147
0.06
176
   256
177
   256
178
     2
274
     4
284
     7
288
     1
289
     0
340
11
371
    -1
372
    -1
1001
ACAD_DSTYLE_DIMARC_LENGTH_SYMBOL
1070
   379
1070
     1
  0
DIMSTYLE
105
AC6
330
A
100
AcDbSymbolTableRecord
100
AcDbDimStyleTableRecord
  2
AM_ANSI$4
 70
     0
  4
mm
 41
0.1
 42
0.05
 43
0.5
 44
0.1
 47
0.1
 48
0.1
 78
     7
 79
     2
140
0.12
141
0.0
146
0.71
147
0.06
176
   256
177
   256
178
     2
274
     4
284
     7
288
     1
289
     0
340
11
371
    -1
372
    -1
1001
ACAD_DSTYLE_DIMARC_LENGTH_SYMBOL
1070
   379
1070
     1
  0
DIMSTYLE
105
AC7
330
A
100
AcDbSymbolTableRecord
100
AcDbDimStyleTableRecord
  2
AM_ANSI$7
 70
     0
  4
mm
 41
0.1
 42
0.05
 43
0.5
 44
0.1
 47
0.1
 48
0.1
 78
     7
 79
     2
140
0.24
141
0.0
146
0.71
147
0.06
176
   256
177
   256
178
     2
274
     4
284
     7
340
11
371
    -1
372
    -1
1001
ACAD_DSTYLE_DIMARC_LENGTH_SYMBOL
1070
   379
1070
     1
  0
DIMSTYLE
105
AC8
330
A
100
AcDbSymbolTableRecord
100
AcDbDimStyleTableRecord
  2
AM_ANSI$SF
 70
     0
  4
mm
 41
0.1
 42
0.05
 43
0.5
 44
0.1
 47
0.1
 48
0.1
 75
     1
 76
     1
 78
     7
 79
     2
140
0.12
141
0.0
146
0.71
147
0.06
176
   256
177
   256
178
     2
274
     4
284
     7
340
11
371
    -1
372
    -1
1001
ACAD_DSTYLE_DIMARC_LENGTH_SYMBOL
1070
   379
1070
     1
  0
DIMSTYLE
105
ACD
330
A
100
AcDbSymbolTableRecord
100
AcDbDimStyleTableRecord
  2
AM_ANSI$SH
 70
     0
  4
mm
 41
0.1
 42
0.05
 43
0.5
 44
0.1
 47
0.1
 48
0.1
 75
     1
 76
     1
 78
     7
 79
     2
140
0.12
141
0.0
146
0.71
147
0.06
173
     1
176
   256
177
   256
178
     2
274
     4
284
     7
340
11
343
AC9
371
    -1
372
    -1
1001
ACAD_DSTYLE_DIMARC_LENGTH_SYMBOL
1070
   379
1070
     1
  0
DIMSTYLE
105
C8B
330
A
100
AcDbSymbolTableRecord
100
AcDbDimStyleTableRecord
  2
AM_DIN
 70
     0
  4
"
 41
5.0
 42
1.0
 43
10.0
 44
1.0
 47
0.1
 48
0.1
 73
     0
 74
     0
 77
     1
 78
     8
 79
     2
140
5.0
141
0.0
143
0.0393701
146
0.71
147
1.5
172
     1
176
   256
177
   256
178
     2
271
     2
272
     2
283
     0
284
     8
340
11
371
    -1
372
    -1
1001
ACAD_DSTYLE_DIMJOGGED_JOGANGLE_SYMBOL
1070
   384
1040
1.570796326794896
  0
DIMSTYLE
105
C8C
102
{ACAD_REACTORS
330
D05
330
71E
330
71F
330
721
330
E1D
330
E72
330
1074
102
}
330
A
100
AcDbSymbolTableRecord
100
AcDbDimStyleTableRecord
  2
AM_DIN$0
 70
     0
  4
"
 41
4.0
 42
0.0
 43
10.0
 44
1.0
 47
0.1
 48
0.1
 73
     0
 74
     0
 77
     1
 78
     8
 79
     2
140
3.5
141
0.0
143
0.0393701
146
0.71
147
1.5
172
     1
176
   256
177
   256
178
     2
271
     2
272
     2
283
     0
284
     8
340
11
371
    -1
372
    -1
1001
ACAD_DSTYLE_DIMJOGGED_JOGANGLE_SYMBOL
1070
   384
1040
1.570796326794896
  0
DIMSTYLE
105
C8D
102
{ACAD_REACTORS
330
9BD
330
9DA
102
}
330
A
100
AcDbSymbolTableRecord
100
AcDbDimStyleTableRecord
  2
AM_DIN$2
 70
     0
  4
"
 41
4.0
 42
0.0
 43
10.0
 44
1.0
 47
0.1
 48
0.1
 73
     0
 74
     0
 77
     1
 78
     8
 79
     2
140
3.5
141
0.0
143
0.0393701
146
0.71
147
1.5
172
     1
176
   256
177
   256
178
     2
271
     2
272
     2
283
     0
284
     8
340
11
371
    -1
372
    -1
1001
ACAD_DSTYLE_DIMJOGGED_JOGANGLE_SYMBOL
1070
   384
1040
1.570796326794896
  0
DIMSTYLE
105
C8E
330
A
100
AcDbSymbolTableRecord
100
AcDbDimStyleTableRecord
  2
AM_DIN$3
 70
     0
  4
"
 41
3.5
 42
1.0
 43
10.0
 44
1.0
 47
0.1
 48
0.1
 73
     0
 77
     1
 78
     8
 79
     2
140
3.5
141
0.0
143
0.0393701
146
0.71
147
1.5
176
   256
177
   256
178
     2
271
     2
272
     2
283
     0
284
     8
288
     1
289
     0
340
11
371
    -1
372
    -1
1001
ACAD_DSTYLE_DIMJOGGED_JOGANGLE_SYMBOL
1070
   384
1040
1.570796326794896
  0
DIMSTYLE
105
C8F
330
A
100
AcDbSymbolTableRecord
100
AcDbDimStyleTableRecord
  2
AM_DIN$4
 70
     0
  4
"
 41
4.0
 42
1.0
 43
10.0
 44
1.0
 47
0.1
 48
0.1
 73
     0
 77
     1
 78
     8
 79
     2
140
3.5
141
0.0
143
0.0393701
146
0.71
147
1.5
176
   256
177
   256
178
     2
271
     2
272
     2
283
     0
284
     8
288
     1
289
     0
340
11
371
    -1
372
    -1
1001
ACAD_DSTYLE_DIMJOGGED_JOGANGLE_SYMBOL
1070
   384
1040
1.570796326794896
  0
DIMSTYLE
105
C90
330
A
100
AcDbSymbolTableRecord
100
AcDbDimStyleTableRecord
  2
AM_DIN$6
 70
     0
  4
"
 41
4.0
 42
0.0
 43
10.0
 44
1.0
 47
0.1
 48
0.1
 73
     0
 74
     0
 78
     8
 79
     2
140
3.5
141
0.0
143
0.0393701
146
0.71
147
1.5
172
     1
176
   256
177
   256
178
     2
271
     2
272
     2
283
     0
284
     8
340
11
371
    -1
372
    -1
1001
ACAD_DSTYLE_DIMJOGGED_JOGANGLE_SYMBOL
1070
   384
1040
1.570796326794896
  0
DIMSTYLE
105
C91
330
A
100
AcDbSymbolTableRecord
100
AcDbDimStyleTableRecord
  2
AM_DIN$7
 70
     0
  4
"
 41
5.0
 42
1.0
 43
10.0
 44
1.0
 47
0.1
 48
0.1
 73
     0
 74
     0
 77
     1
 78
     8
 79
     2
140
5.0
141
0.0
143
0.0393701
146
0.71
147
1.5
172
     1
176
   256
177
   256
178
     2
271
     2
272
     2
283
     0
284
     8
340
11
371
    -1
372
    -1
1001
ACAD_DSTYLE_DIMJOGGED_JOGANGLE_SYMBOL
1070
   384
1040
1.570796326794896
  0
DIMSTYLE
105
C92
330
A
100
AcDbSymbolTableRecord
100
AcDbDimStyleTableRecord
  2
AM_DIN$SF
 70
     0
  4
"
 41
4.0
 42
1.0
 43
10.0
 44
1.0
 47
0.1
 48
0.1
 73
     0
 74
     0
 75
     1
 76
     1
 77
     1
 78
     8
 79
     2
140
3.5
141
0.0
143
0.0393701
146
0.71
147
1.5
172
     1
176
   256
177
   256
178
     2
271
     2
272
     2
283
     0
284
     8
340
11
371
    -1
372
    -1
1001
ACAD_DSTYLE_DIMJOGGED_JOGANGLE_SYMBOL
1070
   384
1040
1.570796326794896
  0
DIMSTYLE
105
C93
330
A
100
AcDbSymbolTableRecord
100
AcDbDimStyleTableRecord
  2
AM_DIN$SH
 70
     0
  4
"
 41
4.0
 42
1.0
 43
10.0
 44
1.0
 47
0.1
 48
0.1
 73
     0
 74
     0
 75
     1
 76
     1
 77
     1
 78
     8
 79
     2
140
3.5
141
0.0
143
0.0393701
144
2.0
146
0.71
147
1.5
172
     1
173
     1
176
   256
177
   256
178
     2
271
     2
272
     2
283
     0
284
     8
340
11
343
AC9
371
    -1
372
    -1
1001
ACAD_DSTYLE_DIMJOGGED_JOGANGLE_SYMBOL
1070
   384
1040
1.570796326794896
  0
DIMSTYLE
105
CAF
330
A
100
AcDbSymbolTableRecord
100
AcDbDimStyleTableRecord
  2
AM_ISO
 70
     0
  4
"
 41
2.5
 42
1.0
 43
10.0
 44
1.0
 47
0.1
 48
0.1
 73
     0
 74
     0
 77
     1
 78
     8
 79
     2
140
3.5
141
0.0
143
0.0393701
146
0.71
147
1.5
172
     1
176
   256
177
   256
178
     2
271
     2
272
     3
274
     4
283
     0
284
     8
340
11
371
    -1
372
    -1
1001
ACAD_DSTYLE_DIMJOGGED_JOGANGLE_SYMBOL
1070
   384
1040
0.7853981633974483
1001
ACAD_DSTYLE_DIMARC_LENGTH_SYMBOL
1070
   379
1070
     1
  0
DIMSTYLE
105
CB0
330
A
100
AcDbSymbolTableRecord
100
AcDbDimStyleTableRecord
  2
AM_ISO$3
 70
     0
  4
"
 41
2.5
 42
1.0
 43
10.0
 44
1.0
 47
0.1
 48
0.1
 73
     0
 77
     1
 78
     8
 79
     2
140
3.5
141
0.0
143
0.0393701
146
0.71
147
1.5
176
   256
177
   256
178
     2
271
     2
272
     3
274
     4
283
     0
284
     8
288
     1
289
     0
340
11
371
    -1
372
    -1
1001
ACAD_DSTYLE_DIMJOGGED_JOGANGLE_SYMBOL
1070
   384
1040
0.7853981633974483
1001
ACAD_DSTYLE_DIMARC_LENGTH_SYMBOL
1070
   379
1070
     1
  0
DIMSTYLE
105
CB1
330
A
100
AcDbSymbolTableRecord
100
AcDbDimStyleTableRecord
  2
AM_ISO$4
 70
     0
  4
"
 41
2.5
 42
1.0
 43
10.0
 44
1.0
 47
0.1
 48
0.1
 73
     0
 77
     1
 78
     8
 79
     2
140
3.5
141
0.0
143
0.0393701
146
0.71
147
1.5
176
   256
177
   256
178
     2
271
     2
272
     3
274
     4
283
     0
284
     8
288
     1
289
     0
340
11
371
    -1
372
    -1
1001
ACAD_DSTYLE_DIMJOGGED_JOGANGLE_SYMBOL
1070
   384
1040
0.7853981633974483
1001
ACAD_DSTYLE_DIMARC_LENGTH_SYMBOL
1070
   379
1070
     1
  0
DIMSTYLE
105
CB2
330
A
100
AcDbSymbolTableRecord
100
AcDbDimStyleTableRecord
  2
AM_ISO$6
 70
     0
  4
"
 41
2.5
 42
1.0
 43
10.0
 44
1.0
 47
0.1
 48
0.1
 73
     0
 74
     0
 78
     8
 79
     2
140
3.5
141
0.0
143
0.0393701
146
0.71
147
1.5
172
     1
176
   256
177
   256
178
     2
271
     2
272
     3
274
     4
283
     0
284
     8
340
11
371
    -1
372
    -1
1001
ACAD_DSTYLE_DIMJOGGED_JOGANGLE_SYMBOL
1070
   384
1040
0.7853981633974483
1001
ACAD_DSTYLE_DIMARC_LENGTH_SYMBOL
1070
   379
1070
     1
  0
DIMSTYLE
105
CB3
330
A
100
AcDbSymbolTableRecord
100
AcDbDimStyleTableRecord
  2
AM_ISO$7
 70
     0
  4
"
 41
2.5
 42
1.0
 43
10.0
 44
1.0
 47
0.1
 48
0.1
 73
     0
 74
     0
 77
     1
 78
     8
 79
     2
140
5.0
141
0.0
143
0.0393701
146
0.71
147
1.5
172
     1
176
   256
177
   256
178
     2
271
     2
272
     3
274
     4
283
     0
284
     8
340
11
371
    -1
372
    -1
1001
ACAD_DSTYLE_DIMJOGGED_JOGANGLE_SYMBOL
1070
   384
1040
0.7853981633974483
1001
ACAD_DSTYLE_DIMARC_LENGTH_SYMBOL
1070
   379
1070
     1
  0
DIMSTYLE
105
CB4
330
A
100
AcDbSymbolTableRecord
100
AcDbDimStyleTableRecord
  2
AM_ISO$SF
 70
     0
  4
"
 41
2.5
 42
1.0
 43
10.0
 44
1.0
 47
0.1
 48
0.1
 73
     0
 74
     0
 75
     1
 76
     1
 77
     1
 78
     8
 79
     2
140
3.5
141
0.0
143
0.0393701
146
0.71
147
1.5
172
     1
176
   256
177
   256
178
     2
271
     2
272
     3
274
     4
283
     0
284
     8
340
11
371
    -1
372
    -1
1001
ACAD_DSTYLE_DIMJOGGED_JOGANGLE_SYMBOL
1070
   384
1040
0.7853981633974483
1001
ACAD_DSTYLE_DIMARC_LENGTH_SYMBOL
1070
   379
1070
     1
  0
DIMSTYLE
105
CB5
330
A
100
AcDbSymbolTableRecord
100
AcDbDimStyleTableRecord
  2
AM_ISO$SH
 70
     0
  4
"
 41
2.5
 42
1.0
 43
10.0
 44
1.0
 47
0.1
 48
0.1
 73
     0
 74
     0
 75
     1
 76
     1
 77
     1
 78
     8
 79
     2
140
3.5
141
0.0
143
0.0393701
144
2.0
146
0.71
147
1.5
172
     1
173
     1
176
   256
177
   256
178
     2
271
     2
272
     3
274
     4
283
     0
284
     8
340
11
343
AC9
371
    -1
372
    -1
1001
ACAD_DSTYLE_DIMJOGGED_JOGANGLE_SYMBOL
1070
   384
1040
0.7853981633974483
1001
ACAD_DSTYLE_DIMARC_LENGTH_SYMBOL
1070
   379
1070
     1
  0
DIMSTYLE
105
FC1
330
A
100
AcDbSymbolTableRecord
100
AcDbDimStyleTableRecord
  2
AM_ANSI$0
 70
     0
  4
mm
 41
0.1
 42
0.05
 43
0.5
 44
0.1
 47
0.1
 48
0.1
 78
     7
 79
     2
140
0.12
141
0.0
146
0.71
147
0.06
176
   256
177
   256
178
     2
274
     4
284
     7
340
11
371
    -1
372
    -1
1001
ACAD_DSTYLE_DIMARC_LENGTH_SYMBOL
1070
   379
1070
     1
  0
ENDTAB
  0
TABLE
  2
BLOCK_RECORD
  5
1
330
0
100
AcDbSymbolTable
 70
    13
  0
BLOCK_RECORD
  5
22
102
{ACAD_XDICTIONARY
360
BC2
102
}
330
1
100
AcDbSymbolTableRecord
100
AcDbBlockTableRecord
  2
*Model_Space
340
25
  0
BLOCK_RECORD
  5
1E
330
1
100
AcDbSymbolTableRecord
100
AcDbBlockTableRecord
  2
*Paper_Space
340
21
  0
BLOCK_RECORD
  5
7C2
330
1
100
AcDbSymbolTableRecord
100
AcDbBlockTableRecord
  2
*D0
340
0
  0
BLOCK_RECORD
  5
7CE
330
1
100
AcDbSymbolTableRecord
100
AcDbBlockTableRecord
  2
*D1
340
0
  0
BLOCK_RECORD
  5
7E6
330
1
100
AcDbSymbolTableRecord
100
AcDbBlockTableRecord
  2
*D2
340
0
  0
BLOCK_RECORD
  5
9BE
330
1
100
AcDbSymbolTableRecord
100
AcDbBlockTableRecord
  2
*D3
340
0
  0
BLOCK_RECORD
  5
9DB
330
1
100
AcDbSymbolTableRecord
100
AcDbBlockTableRecord
  2
*D4
340
0
  0
BLOCK_RECORD
  5
AC9
330
1
100
AcDbSymbolTableRecord
100
AcDbBlockTableRecord
  2
GENAXEH
340
0
310
2800000020000000200000000100080000000000000400000000000000000000000000000000000000000000000080000080000000808000800000008000800080800000C0C0C000C0DCC000F0CAA6000020400000206000002080000020A0000020C0000020E00000400000004020000040400000406000004080000040A0
310
000040C0000040E00000600000006020000060400000606000006080000060A0000060C0000060E00000800000008020000080400000806000008080000080A0000080C0000080E00000A0000000A0200000A0400000A0600000A0800000A0A00000A0C00000A0E00000C0000000C0200000C0400000C0600000C0800000C0
310
A00000C0C00000C0E00000E0000000E0200000E0400000E0600000E0800000E0A00000E0C00000E0E00040000000400020004000400040006000400080004000A0004000C0004000E00040200000402020004020400040206000402080004020A0004020C0004020E000404000004040200040404000404060004040800040
310
40A0004040C0004040E00040600000406020004060400040606000406080004060A0004060C0004060E00040800000408020004080400040806000408080004080A0004080C0004080E00040A0000040A0200040A0400040A0600040A0800040A0A00040A0C00040A0E00040C0000040C0200040C0400040C0600040C08000
310
40C0A00040C0C00040C0E00040E0000040E0200040E0400040E0600040E0800040E0A00040E0C00040E0E00080000000800020008000400080006000800080008000A0008000C0008000E00080200000802020008020400080206000802080008020A0008020C0008020E00080400000804020008040400080406000804080
310
008040A0008040C0008040E00080600000806020008060400080606000806080008060A0008060C0008060E00080800000808020008080400080806000808080008080A0008080C0008080E00080A0000080A0200080A0400080A0600080A0800080A0A00080A0C00080A0E00080C0000080C0200080C0400080C0600080C0
310
800080C0A00080C0C00080C0E00080E0000080E0200080E0400080E0600080E0800080E0A00080E0C00080E0E000C0000000C0002000C0004000C0006000C0008000C000A000C000C000C000E000C0200000C0202000C0204000C0206000C0208000C020A000C020C000C020E000C0400000C0402000C0404000C0406000C0
310
408000C040A000C040C000C040E000C0600000C0602000C0604000C0606000C0608000C060A000C060C000C060E000C0800000C0802000C0804000C0806000C0808000C080A000C080C000C080E000C0A00000C0A02000C0A04000C0A06000C0A08000C0A0A000C0A0C000C0A0E000C0C00000C0C02000C0C04000C0C06000
310
C0C08000C0C0A000F0FBFF00A4A0A000808080000000FF0000FF000000FFFF00FF000000FF00FF00FFFF0000FFFFFF0000000000000000000000000000000000000000000000000000000000000000000000000000000000000000000000000000000000000000000000000000000000000000000000000000000000000000
310
00000000000000000000000000000000000000000000000000000000000000000000000000000000000000000000000000000000000000000000000000000000000000000000000000000000000000000000000000000000000000000000000000000000000000000000000000000000000000000000000000000000000000
310
00000000000000000000000000000000000000000000000000000000000000000000000000000000000000000000000000000000000000000000000000000000000000000000000000000000000000000000000000000000000000000000000000000000000000000000000000000000000000000000000000000000000000
310
00000000000000000000000000000000000000000000000000000000000000000000000000000000000000000000000000000000000000000000000000000000000000000000000000000000000000000000000000000000000000000000000000000000000000000000000000000000000000000000000000000000000000
310
0000000000000000000000000000000000000000000000000000000000000000000000000000000000000000000000000000000000FFFFFFFFFFFFFFFFFFFFFFFFFFFFFFFFFFFFFFFFFFFFFFFFFFFFFFFFFFFF0000000000000000000000000000000000000000000000000000000000000000000000000000000000000000
310
00000000000000000000000000000000000000000000000000000000000000000000000000000000000000000000000000000000000000000000000000000000000000000000000000000000000000000000000000000000000000000000000000000000000000000000000000000000000000000000000000000000000000
310
00000000000000000000000000000000000000000000000000000000000000000000000000000000000000000000000000000000000000000000000000000000000000000000000000000000000000000000000000000000000000000000000000000000000000000000000000000000000000000000000000000000000000
310
00000000000000000000000000000000000000000000000000000000000000000000000000000000000000000000000000000000000000000000000000000000000000000000000000000000000000000000000000000000000000000000000000000000000000000000000000000000000000000000000000000000000000
310
0000000000000000000000000000000000000000000000000000000000000000000000000000000000000000000000000000000000000000
  0
BLOCK_RECORD
  5
D06
330
1
100
AcDbSymbolTableRecord
100
AcDbBlockTableRecord
  2
*D6
340
0
  0
BLOCK_RECORD
  5
E1E
330
1
100
AcDbSymbolTableRecord
100
AcDbBlockTableRecord
  2
*D7
340
0
  0
BLOCK_RECORD
  5
E73
330
1
100
AcDbSymbolTableRecord
100
AcDbBlockTableRecord
  2
*D8
340
0
  0
BLOCK_RECORD
  5
1075
330
1
100
AcDbSymbolTableRecord
100
AcDbBlockTableRecord
  2
*D9
340
0
  0
BLOCK_RECORD
  5
1286
330
1
100
AcDbSymbolTableRecord
100
AcDbBlockTableRecord
  2
*S6110
340
0
102
{BLKREFS
331
122C
102
}
  0
BLOCK_RECORD
  5
128D
330
1
100
AcDbSymbolTableRecord
100
AcDbBlockTableRecord
  2
*S6211
340
0
102
{BLKREFS
331
122F
102
}
  0
ENDTAB
  0
ENDSEC
  0
SECTION
  2
BLOCKS
  0
BLOCK
  5
23
330
22
100
AcDbEntity
  8
0
100
AcDbBlockBegin
  2
*Model_Space
 70
     0
 10
0.0
 20
0.0
 30
0.0
  3
*Model_Space
  1

  0
ENDBLK
  5
24
330
22
100
AcDbEntity
  8
0
100
AcDbBlockEnd
  0
BLOCK
  5
1F
330
1E
100
AcDbEntity
 67
     1
  8
0
100
AcDbBlockBegin
  2
*Paper_Space
 70
     0
 10
0.0
 20
0.0
 30
0.0
  3
*Paper_Space
  1

  0
ENDBLK
  5
20
330
1E
100
AcDbEntity
 67
     1
  8
0
100
AcDbBlockEnd
  0
BLOCK
  5
7CC
330
7C2
100
AcDbEntity
  8
0
100
AcDbBlockBegin
  2
*D0
 70
     1
 10
0.0
 20
0.0
 30
0.0
  3
*D0
  1

  0
LINE
  5
1231
330
7C2
100
AcDbEntity
  8
AM_5 ( Bemassung)
100
AcDbLine
 10
1874.92679585286
 20
-137.454803850643
 30
0.0
 11
1915.9945945242
 21
-137.454803850643
 31
0.0
  0
LINE
  5
1232
330
7C2
100
AcDbEntity
  8
AM_5 ( Bemassung)
100
AcDbLine
 10
1909.06838758306
 20
-172.45480437629
 30
0.0
 11
1915.9945945242
 21
-172.45480437629
 31
0.0
  0
LINE
  5
1233
330
7C2
100
AcDbEntity
  8
AM_5 ( Bemassung)
100
AcDbLine
 10
1913.9945945242
 20
-147.454803850643
 30
0.0
 11
1913.9945945242
 21
-162.45480437629
 31
0.0
  0
SOLID
  5
1234
330
7C2
100
AcDbEntity
  8
AM_5 ( Bemassung)
100
AcDbTrace
 10
1912.327927857533
 20
-147.454803850643
 30
0.0
 11
1915.661261190867
 21
-147.454803850643
 31
0.0
 12
1913.9945945242
 22
-137.454803850643
 32
0.0
 13
1913.9945945242
 23
-137.454803850643
 33
0.0
  0
SOLID
  5
1235
330
7C2
100
AcDbEntity
  8
AM_5 ( Bemassung)
100
AcDbTrace
 10
1912.327927857533
 20
-162.45480437629
 30
0.0
 11
1915.661261190867
 21
-162.45480437629
 31
0.0
 12
1913.9945945242
 22
-172.45480437629
 32
0.0
 13
1913.9945945242
 23
-172.45480437629
 33
0.0
  0
MTEXT
  5
1236
330
7C2
100
AcDbEntity
  8
AM_5 ( Bemassung)
 62
     2
100
AcDbMText
 10
1906.885454005783
 20
-154.9548041134662
 30
0.0
 40
10.0
 41
0.0
 71
     5
 72
     1
  1
35
 11
0.0000000000000001
 21
1.0
 31
0.0
 73
     1
 44
1.0
1001
ACAD
1000
MTEXTBEGIN
1070
    73
1070
     1
1070
    44
1040
1.0
1070
    74
1070
     0
1000
MTEXTEND
  0
POINT
  5
1237
330
7C2
100
AcDbEntity
  8
DEFPOINTS
 62
     0
100
AcDbPoint
 10
1874.92679585286
 20
-137.454803850643
 30
0.0
  0
POINT
  5
1238
330
7C2
100
AcDbEntity
  8
DEFPOINTS
 62
     0
100
AcDbPoint
 10
1909.06838758306
 20
-172.45480437629
 30
0.0
  0
POINT
  5
1239
330
7C2
100
AcDbEntity
  8
DEFPOINTS
 62
     0
100
AcDbPoint
 10
1913.9945945242
 20
-172.45480437629
 30
0.0
  0
ENDBLK
  5
7CD
330
7C2
100
AcDbEntity
  8
0
100
AcDbBlockEnd
  0
BLOCK
  5
7D8
330
7CE
100
AcDbEntity
  8
0
100
AcDbBlockBegin
  2
*D1
 70
     1
 10
0.0
 20
0.0
 30
0.0
  3
*D1
  1

  0
LINE
  5
123A
330
7CE
100
AcDbEntity
  8
AM_5 ( Bemassung)
100
AcDbLine
 10
1874.92679585286
 20
-137.454803850643
 30
0.0
 11
1926.50832974884
 21
-137.454803850643
 31
0.0
  0
LINE
  5
123B
330
7CE
100
AcDbEntity
  8
AM_5 ( Bemassung)
100
AcDbLine
 10
1890.42679608564
 20
-485.454803850643
 30
0.0
 11
1926.50832974884
 21
-485.4548038506431
 31
0.0
  0
LINE
  5
123C
330
7CE
100
AcDbEntity
  8
AM_5 ( Bemassung)
100
AcDbLine
 10
1924.50832974884
 20
-147.454803850643
 30
0.0
 11
1924.50832974884
 21
-475.454803850643
 31
0.0
  0
SOLID
  5
123D
330
7CE
100
AcDbEntity
  8
AM_5 ( Bemassung)
100
AcDbTrace
 10
1922.841663082173
 20
-147.454803850643
 30
0.0
 11
1926.174996415506
 21
-147.454803850643
 31
0.0
 12
1924.50832974884
 22
-137.454803850643
 32
0.0
 13
1924.50832974884
 23
-137.454803850643
 33
0.0
  0
SOLID
  5
123E
330
7CE
100
AcDbEntity
  8
AM_5 ( Bemassung)
100
AcDbTrace
 10
1922.841663082173
 20
-475.454803850643
 30
0.0
 11
1926.174996415506
 21
-475.454803850643
 31
0.0
 12
1924.50832974884
 22
-485.4548038506431
 32
0.0
 13
1924.50832974884
 23
-485.4548038506431
 33
0.0
  0
MTEXT
  5
123F
330
7CE
100
AcDbEntity
  8
AM_5 ( Bemassung)
 62
     2
100
AcDbMText
 10
1917.395778589222
 20
-311.4548038506427
 30
0.0
 40
10.0
 41
0.0
 71
     5
 72
     1
  1
{\fArial|b0|i0|c0|p34;3}48\P
 11
0.0000000000000001
 21
1.0
 31
0.0
 73
     1
 44
1.0
1001
ACAD
1000
MTEXTBEGIN
1070
    73
1070
     1
1070
    44
1040
1.0
1070
    74
1070
     0
1000
MTEXTEND
  0
POINT
  5
1240
330
7CE
100
AcDbEntity
  8
DEFPOINTS
 62
     0
100
AcDbPoint
 10
1874.92679585286
 20
-137.454803850643
 30
0.0
  0
POINT
  5
1241
330
7CE
100
AcDbEntity
  8
DEFPOINTS
 62
     0
100
AcDbPoint
 10
1890.42679608564
 20
-485.454803850643
 30
0.0
  0
POINT
  5
1242
330
7CE
100
AcDbEntity
  8
DEFPOINTS
 62
     0
100
AcDbPoint
 10
1924.50832974884
 20
-485.4548038506431
 30
0.0
  0
ENDBLK
  5
7D9
330
7CE
100
AcDbEntity
  8
0
100
AcDbBlockEnd
  0
BLOCK
  5
7F0
330
7E6
100
AcDbEntity
  8
0
100
AcDbBlockBegin
  2
*D2
 70
     1
 10
0.0
 20
0.0
 30
0.0
  3
*D2
  1

  0
LINE
  5
1243
330
7E6
100
AcDbEntity
  8
AM_5 ( Bemassung)
100
AcDbLine
 10
1890.42679608564
 20
-485.1654871913869
 30
0.0
 11
1890.42679608564
 21
-531.6355317896368
 31
0.0
  0
LINE
  5
1244
330
7E6
100
AcDbEntity
  8
AM_5 ( Bemassung)
100
AcDbLine
 10
1735.42679375778
 20
-474.665487033693
 30
0.0
 11
1735.42679375778
 21
-531.6355317896368
 31
0.0
  0
LINE
  5
1245
330
7E6
100
AcDbEntity
  8
AM_5 ( Bemassung)
100
AcDbLine
 10
1880.42679608564
 20
-529.6355317896368
 30
0.0
 11
1745.42679375778
 21
-529.6355317896368
 31
0.0
  0
SOLID
  5
1246
330
7E6
100
AcDbEntity
  8
AM_5 ( Bemassung)
100
AcDbTrace
 10
1880.42679608564
 20
-527.9688651229702
 30
0.0
 11
1880.42679608564
 21
-531.3021984563033
 31
0.0
 12
1890.42679608564
 22
-529.6355317896368
 32
0.0
 13
1890.42679608564
 23
-529.6355317896368
 33
0.0
  0
SOLID
  5
1247
330
7E6
100
AcDbEntity
  8
AM_5 ( Bemassung)
100
AcDbTrace
 10
1745.42679375778
 20
-527.9688651229702
 30
0.0
 11
1745.42679375778
 21
-531.3021984563033
 31
0.0
 12
1735.42679375778
 22
-529.6355317896368
 32
0.0
 13
1735.42679375778
 23
-529.6355317896368
 33
0.0
  0
MTEXT
  5
1248
330
7E6
100
AcDbEntity
  8
AM_5 ( Bemassung)
 62
     2
100
AcDbMText
 10
1810.224588924741
 20
-522.4513571648072
 30
0.0
 40
10.0
 41
0.0
 71
     5
 72
     1
  1
%%c 155
 73
     1
 44
1.0
1001
ACAD
1000
MTEXTBEGIN
1070
    73
1070
     1
1070
    44
1040
1.0
1070
    74
1070
     0
1000
MTEXTEND
  0
POINT
  5
1249
330
7E6
100
AcDbEntity
  8
DEFPOINTS
 62
     0
100
AcDbPoint
 10
1890.42679608564
 20
-485.1654871913869
 30
0.0
  0
POINT
  5
124A
330
7E6
100
AcDbEntity
  8
DEFPOINTS
 62
     0
100
AcDbPoint
 10
1735.42679375778
 20
-474.665487033693
 30
0.0
  0
POINT
  5
124B
330
7E6
100
AcDbEntity
  8
DEFPOINTS
 62
     0
100
AcDbPoint
 10
1735.42679375778
 20
-529.6355317896368
 30
0.0
  0
ENDBLK
  5
7F1
330
7E6
100
AcDbEntity
  8
0
100
AcDbBlockEnd
  0
BLOCK
  5
9C9
330
9BE
100
AcDbEntity
  8
0
100
AcDbBlockBegin
  2
*D3
 70
     1
 10
0.0
 20
0.0
 30
0.0
  3
*D3
  1

  0
LINE
  5
124C
330
9BE
100
AcDbEntity
  8
AM_5 ( Bemassung)
100
AcDbLine
 10
1839.33633326911
 20
-160.516285682235
 30
0.0
 11
1842.852680071701
 21
-120.3242578139853
 31
0.0
  0
LINE
  5
124D
330
9BE
100
AcDbEntity
  8
AM_5 ( Bemassung)
100
AcDbLine
 10
1812.92679492171
 20
-128.978083476604
 30
0.0
 11
1812.92679492171
 21
-119.0176654509647
 31
0.0
  0
ARC
  5
124E
330
9BE
100
AcDbEntity
  8
AM_5 ( Bemassung)
100
AcDbCircle
 10
1812.92679492171
 20
-462.3786902847611
 30
0.0
 40
341.3610248337965
100
AcDbArc
 50
86.67851114412064
 51
88.32148885587864
  0
SOLID
  5
124F
330
9BE
100
AcDbEntity
  8
AM_5 ( Bemassung)
100
AcDbTrace
 10
1832.825649172945
 20
-119.9288243647005
 30
0.0
 11
1832.583799569726
 21
-123.2533724363238
 31
0.0
 12
1842.678368586206
 22
-122.3166472101688
 32
0.0
 13
1842.678368586206
 23
-122.3166472101688
 33
0.0
  0
SOLID
  5
1250
330
9BE
100
AcDbEntity
  8
AM_5 ( Bemassung)
100
AcDbTrace
 10
1822.901310072612
 20
-122.8306258151779
 30
0.0
 11
1822.950134236632
 21
-119.4976500708739
 31
0.0
 12
1812.92679492171
 22
-121.0176654509647
 32
0.0
 13
1812.92679492171
 23
-121.0176654509647
 33
0.0
  0
MTEXT
  5
1251
330
9BE
100
AcDbEntity
  8
AM_5 ( Bemassung)
 62
     2
100
AcDbMText
 10
1828.577204944863
 20
-114.2840447027669
 30
0.0
 40
10.0
 41
0.0
 71
     5
 72
     1
  1
5°
 11
0.9989908192710441
 21
-0.044914841780508
 31
0.0
 73
     1
 44
1.0
1001
ACAD
1000
MTEXTBEGIN
1070
    73
1070
     1
1070
    44
1040
1.0
1070
    74
1070
     0
1000
MTEXTEND
  0
POINT
  5
1252
330
9BE
100
AcDbEntity
  8
DEFPOINTS
 62
     0
100
AcDbPoint
 10
1822.855184318862
 20
-121.1620782044606
 30
0.0
  0
POINT
  5
1253
330
9BE
100
AcDbEntity
  8
DEFPOINTS
 62
     0
100
AcDbPoint
 10
1812.92679492171
 20
-462.3786902847609
 30
0.0
  0
POINT
  5
1254
330
9BE
100
AcDbEntity
  8
DEFPOINTS
 62
     0
100
AcDbPoint
 10
1812.92679492171
 20
-492.376475212638
 30
0.0
  0
POINT
  5
1255
330
9BE
100
AcDbEntity
  8
DEFPOINTS
 62
     0
100
AcDbPoint
 10
1812.92679492171
 20
-128.978083476604
 30
0.0
  0
POINT
  5
1256
330
9BE
100
AcDbEntity
  8
DEFPOINTS
 62
     0
100
AcDbPoint
 10
1839.33633326911
 20
-160.516285682235
 30
0.0
  0
ENDBLK
  5
9CA
330
9BE
100
AcDbEntity
  8
0
100
AcDbBlockEnd
  0
BLOCK
  5
9E6
330
9DB
100
AcDbEntity
  8
0
100
AcDbBlockBegin
  2
*D4
 70
     1
 10
0.0
 20
0.0
 30
0.0
  3
*D4
  1

  0
LINE
  5
1257
330
9DB
100
AcDbEntity
  8
AM_5 ( Bemassung)
100
AcDbLine
 10
1812.92679492171
 20
-128.9780834766039
 30
0.0
 11
1812.92679492171
 21
-119.3716978293609
 31
0.0
  0
LINE
  5
1258
330
9DB
100
AcDbEntity
  8
AM_5 ( Bemassung)
100
AcDbLine
 10
1786.95216961698
 20
-165.4873645070589
 30
0.0
 11
1783.031765726619
 21
-120.676942992296
 31
0.0
  0
ARC
  5
1259
330
9DB
100
AcDbEntity
  8
AM_5 ( Bemassung)
100
AcDbCircle
 10
1812.92679492171
 20
-462.3786902847618
 30
0.0
 40
341.0069924554012
100
AcDbArc
 50
91.68025389390527
 51
93.31974610609464
  0
SOLID
  5
125A
330
9DB
100
AcDbEntity
  8
AM_5 ( Bemassung)
100
AcDbTrace
 10
1802.903432491005
 20
-119.8518348880075
 30
0.0
 11
1802.952307344117
 21
-123.1848098893905
 31
0.0
 12
1812.92679492171
 22
-121.3716978293609
 32
0.0
 13
1812.92679492171
 23
-121.3716978293609
 33
0.0
  0
SOLID
  5
125B
330
9DB
100
AcDbEntity
  8
AM_5 ( Bemassung)
100
AcDbTrace
 10
1793.30063198137
 20
-123.6062111363749
 30
0.0
 11
1793.058832939107
 21
-120.281659387
 31
0.0
 12
1783.206077212115
 22
-122.6693323884795
 32
0.0
 13
1783.206077212115
 23
-122.6693323884795
 33
0.0
  0
MTEXT
  5
125C
330
9DB
100
AcDbEntity
  8
AM_5 ( Bemassung)
 62
     2
100
AcDbMText
 10
1797.929119487467
 20
-114.6096718989289
 30
0.0
 40
10.0
 41
0.0
 71
     5
 72
     1
  1
5°
 11
0.9990713953220675
 21
0.0430853461076661
 31
0.0
 73
     1
 44
1.0
1001
ACAD
1000
MTEXTBEGIN
1070
    73
1070
     1
1070
    44
1040
1.0
1070
    74
1070
     0
1000
MTEXTEND
  0
POINT
  5
125D
330
9DB
100
AcDbEntity
  8
DEFPOINTS
 62
     0
100
AcDbPoint
 10
1793.099001688115
 20
-121.9486276889862
 30
0.0
  0
POINT
  5
125E
330
9DB
100
AcDbEntity
  8
DEFPOINTS
 62
     0
100
AcDbPoint
 10
1812.92679492171
 20
-492.376475212638
 30
0.0
  0
POINT
  5
125F
330
9DB
100
AcDbEntity
  8
DEFPOINTS
 62
     0
100
AcDbPoint
 10
1812.92679492171
 20
-462.3786902847608
 30
0.0
  0
POINT
  5
1260
330
9DB
100
AcDbEntity
  8
DEFPOINTS
 62
     0
100
AcDbPoint
 10
1786.95216961698
 20
-165.4873645070589
 30
0.0
  0
POINT
  5
1261
330
9DB
100
AcDbEntity
  8
DEFPOINTS
 62
     0
100
AcDbPoint
 10
1812.92679492171
 20
-128.9780834766039
 30
0.0
  0
ENDBLK
  5
9E7
330
9DB
100
AcDbEntity
  8
0
100
AcDbBlockEnd
  0
BLOCK
  5
11D2
330
AC9
100
AcDbEntity
  8
0
100
AcDbBlockBegin
  2
GENAXEH
 70
     0
 10
0.0
 20
0.0
 30
0.0
  3
GENAXEH
  1

  0
LINE
  5
11D3
330
AC9
100
AcDbEntity
  8
0
100
AcDbLine
 10
-1.0
 20
0.0
 30
0.0
 11
1.0
 21
0.0
 31
0.0
  0
ENDBLK
  5
11D4
330
AC9
100
AcDbEntity
  8
0
100
AcDbBlockEnd
  0
BLOCK
  5
D07
330
D06
100
AcDbEntity
  8
0
100
AcDbBlockBegin
  2
*D6
 70
     1
 10
0.0
 20
0.0
 30
0.0
  3
*D6
  1

  0
LINE
  5
1262
330
D06
100
AcDbEntity
  8
AM_5 ( Bemassung)
100
AcDbLine
 10
1748.92679396053
 20
-139.45480388068
 30
0.0
 11
1748.92679396053
 21
-72.56220842190169
 31
0.0
  0
LINE
  5
1263
330
D06
100
AcDbEntity
  8
AM_5 ( Bemassung)
100
AcDbLine
 10
1876.92679588289
 20
-139.45480388068
 30
0.0
 11
1876.92679588289
 21
-72.56220842190169
 31
0.0
  0
LINE
  5
1264
330
D06
100
AcDbEntity
  8
AM_5 ( Bemassung)
100
AcDbLine
 10
1758.92679396053
 20
-74.56220842190169
 30
0.0
 11
1866.926795882889
 21
-74.56220842190169
 31
0.0
  0
SOLID
  5
1265
330
D06
100
AcDbEntity
  8
AM_5 ( Bemassung)
100
AcDbTrace
 10
1758.92679396053
 20
-72.89554175523502
 30
0.0
 11
1758.92679396053
 21
-76.22887508856836
 31
0.0
 12
1748.92679396053
 22
-74.56220842190169
 32
0.0
 13
1748.92679396053
 23
-74.56220842190169
 33
0.0
  0
SOLID
  5
1266
330
D06
100
AcDbEntity
  8
AM_5 ( Bemassung)
100
AcDbTrace
 10
1866.926795882889
 20
-72.89554175523502
 30
0.0
 11
1866.926795882889
 21
-76.22887508856836
 31
0.0
 12
1876.92679588289
 22
-74.56220842190169
 32
0.0
 13
1876.92679588289
 23
-74.56220842190169
 33
0.0
  0
MTEXT
  5
1267
330
D06
100
AcDbEntity
  8
AM_5 ( Bemassung)
 62
     2
100
AcDbMText
 10
1812.00107726658
 20
-67.37803379707222
 30
0.0
 40
10.0
 41
0.0
 71
     5
 72
     1
  1
%%c 128
 73
     1
 44
1.0
1001
ACAD
1000
MTEXTBEGIN
1070
    73
1070
     1
1070
    44
1040
1.0
1070
    74
1070
     0
1000
MTEXTEND
  0
POINT
  5
1268
330
D06
100
AcDbEntity
  8
DEFPOINTS
 62
     0
100
AcDbPoint
 10
1748.92679396053
 20
-139.45480388068
 30
0.0
  0
POINT
  5
1269
330
D06
100
AcDbEntity
  8
DEFPOINTS
 62
     0
100
AcDbPoint
 10
1876.92679588289
 20
-139.45480388068
 30
0.0
  0
POINT
  5
126A
330
D06
100
AcDbEntity
  8
DEFPOINTS
 62
     0
100
AcDbPoint
 10
1876.92679588289
 20
-74.56220842190169
 30
0.0
  0
ENDBLK
  5
D08
330
D06
100
AcDbEntity
  8
0
100
AcDbBlockEnd
  0
BLOCK
  5
E1F
330
E1E
100
AcDbEntity
  8
0
100
AcDbBlockBegin
  2
*D7
 70
     1
 10
0.0
 20
0.0
 30
0.0
  3
*D7
  1

  0
LINE
  5
126B
330
E1E
100
AcDbEntity
  8
AM_5 ( Bemassung)
100
AcDbLine
 10
1737.92679379533
 20
-316.454806538952
 30
0.0
 11
1737.92679379533
 21
-50.47115729644382
 31
0.0
  0
LINE
  5
126C
330
E1E
100
AcDbEntity
  8
AM_5 ( Bemassung)
100
AcDbLine
 10
1887.9267960481
 20
-316.454806538952
 30
0.0
 11
1887.9267960481
 21
-50.47115729644382
 31
0.0
  0
LINE
  5
126D
330
E1E
100
AcDbEntity
  8
AM_5 ( Bemassung)
100
AcDbLine
 10
1747.92679379533
 20
-52.47115729644383
 30
0.0
 11
1877.9267960481
 21
-52.47115729644383
 31
0.0
  0
SOLID
  5
126E
330
E1E
100
AcDbEntity
  8
AM_5 ( Bemassung)
100
AcDbTrace
 10
1747.92679379533
 20
-50.80449062977717
 30
0.0
 11
1747.92679379533
 21
-54.13782396311049
 31
0.0
 12
1737.92679379533
 22
-52.47115729644383
 32
0.0
 13
1737.92679379533
 23
-52.47115729644383
 33
0.0
  0
SOLID
  5
126F
330
E1E
100
AcDbEntity
  8
AM_5 ( Bemassung)
100
AcDbTrace
 10
1877.9267960481
 20
-50.80449062977717
 30
0.0
 11
1877.9267960481
 21
-54.13782396311049
 31
0.0
 12
1887.9267960481
 22
-52.47115729644383
 32
0.0
 13
1887.9267960481
 23
-52.47115729644383
 33
0.0
  0
MTEXT
  5
1270
330
E1E
100
AcDbEntity
  8
AM_5 ( Bemassung)
 62
     2
100
AcDbMText
 10
1810.317265638323
 20
-45.28698267161436
 30
0.0
 40
10.0
 41
0.0
 71
     5
 72
     1
  1
%%c 150
 73
     1
 44
1.0
1001
ACAD
1000
MTEXTBEGIN
1070
    73
1070
     1
1070
    44
1040
1.0
1070
    74
1070
     0
1000
MTEXTEND
  0
POINT
  5
1271
330
E1E
100
AcDbEntity
  8
DEFPOINTS
 62
     0
100
AcDbPoint
 10
1737.92679379533
 20
-316.454806538952
 30
0.0
  0
POINT
  5
1272
330
E1E
100
AcDbEntity
  8
DEFPOINTS
 62
     0
100
AcDbPoint
 10
1887.9267960481
 20
-316.454806538952
 30
0.0
  0
POINT
  5
1273
330
E1E
100
AcDbEntity
  8
DEFPOINTS
 62
     0
100
AcDbPoint
 10
1887.9267960481
 20
-52.47115729644383
 30
0.0
  0
ENDBLK
  5
E20
330
E1E
100
AcDbEntity
  8
0
100
AcDbBlockEnd
  0
BLOCK
  5
E74
330
E73
100
AcDbEntity
  8
0
100
AcDbBlockBegin
  2
*D8
 70
     1
 10
0.0
 20
0.0
 30
0.0
  3
*D8
  1

  0
LINE
  5
1274
330
E73
100
AcDbEntity
  8
AM_5 ( Bemassung)
100
AcDbLine
 10
1775.33479435714
 20
-482.9548038281151
 30
0.0
 11
1775.33479435714
 21
-510.9689363303501
 31
0.0
  0
LINE
  5
1275
330
E73
100
AcDbEntity
  8
AM_5 ( Bemassung)
100
AcDbLine
 10
1850.51879548629
 20
-483.9548038281151
 30
0.0
 11
1850.51879548629
 21
-510.9689363303501
 31
0.0
  0
LINE
  5
1276
330
E73
100
AcDbEntity
  8
AM_5 ( Bemassung)
100
AcDbLine
 10
1785.33479435714
 20
-508.96893633035
 30
0.0
 11
1840.51879548629
 21
-508.96893633035
 31
0.0
  0
SOLID
  5
1277
330
E73
100
AcDbEntity
  8
AM_5 ( Bemassung)
100
AcDbTrace
 10
1785.33479435714
 20
-507.3022696636833
 30
0.0
 11
1785.33479435714
 21
-510.6356029970168
 31
0.0
 12
1775.33479435714
 22
-508.96893633035
 32
0.0
 13
1775.33479435714
 23
-508.96893633035
 33
0.0
  0
SOLID
  5
1278
330
E73
100
AcDbEntity
  8
AM_5 ( Bemassung)
100
AcDbTrace
 10
1840.51879548629
 20
-507.3022696636833
 30
0.0
 11
1840.51879548629
 21
-510.6356029970168
 31
0.0
 12
1850.51879548629
 22
-508.96893633035
 32
0.0
 13
1850.51879548629
 23
-508.96893633035
 33
0.0
  0
MTEXT
  5
1279
330
E73
100
AcDbEntity
  8
AM_5 ( Bemassung)
 62
     2
100
AcDbMText
 10
1812.470946544619
 20
-501.7165488815097
 30
0.0
 40
10.0
 41
0.0
 71
     5
 72
     1
  1
G2 1/2
 73
     1
 44
1.0
1001
ACAD
1000
MTEXTBEGIN
1070
    73
1070
     1
1070
    44
1040
1.0
1070
    74
1070
     0
1000
MTEXTEND
  0
POINT
  5
127A
330
E73
100
AcDbEntity
  8
DEFPOINTS
 62
     0
100
AcDbPoint
 10
1775.33479435714
 20
-482.9548038281151
 30
0.0
  0
POINT
  5
127B
330
E73
100
AcDbEntity
  8
DEFPOINTS
 62
     0
100
AcDbPoint
 10
1850.51879548629
 20
-483.9548038281151
 30
0.0
  0
POINT
  5
127C
330
E73
100
AcDbEntity
  8
DEFPOINTS
 62
     0
100
AcDbPoint
 10
1850.51879548629
 20
-508.96893633035
 30
0.0
  0
ENDBLK
  5
E75
330
E73
100
AcDbEntity
  8
0
100
AcDbBlockEnd
  0
BLOCK
  5
1076
330
1075
100
AcDbEntity
  8
0
100
AcDbBlockBegin
  2
*D9
 70
     1
 10
0.0
 20
0.0
 30
0.0
  3
*D9
  1

  0
LINE
  5
127D
330
1075
100
AcDbEntity
  8
AM_5 ( Bemassung)
100
AcDbLine
 10
1754.42679492171
 20
-137.454803850643
 30
0.0
 11
1754.42679492171
 21
-96.54677906166376
 31
0.0
  0
LINE
  5
127E
330
1075
100
AcDbEntity
  8
AM_5 ( Bemassung)
100
AcDbLine
 10
1871.42679492171
 20
-137.454803850643
 30
0.0
 11
1871.42679492171
 21
-96.54677906166376
 31
0.0
  0
LINE
  5
127F
330
1075
100
AcDbEntity
  8
AM_5 ( Bemassung)
100
AcDbLine
 10
1764.42679492171
 20
-98.54677906166376
 30
0.0
 11
1861.42679492171
 21
-98.54677906166376
 31
0.0
  0
SOLID
  5
1280
330
1075
100
AcDbEntity
  8
AM_5 ( Bemassung)
100
AcDbTrace
 10
1764.42679492171
 20
-96.88011239499708
 30
0.0
 11
1764.42679492171
 21
-100.2134457283304
 31
0.0
 12
1754.42679492171
 22
-98.54677906166376
 32
0.0
 13
1754.42679492171
 23
-98.54677906166376
 33
0.0
  0
SOLID
  5
1281
330
1075
100
AcDbEntity
  8
AM_5 ( Bemassung)
100
AcDbTrace
 10
1861.42679492171
 20
-96.88011239499708
 30
0.0
 11
1861.42679492171
 21
-100.2134457283304
 31
0.0
 12
1871.42679492171
 22
-98.54677906166376
 32
0.0
 13
1871.42679492171
 23
-98.54677906166376
 33
0.0
  0
MTEXT
  5
1282
330
1075
100
AcDbEntity
  8
AM_5 ( Bemassung)
 62
     2
100
AcDbMText
 10
1812.632507238982
 20
-91.36260443683427
 30
0.0
 40
10.0
 41
0.0
 71
     5
 72
     1
  1
%%c 117
 73
     1
 44
1.0
1001
ACAD
1000
MTEXTBEGIN
1070
    73
1070
     1
1070
    44
1040
1.0
1070
    74
1070
     0
1000
MTEXTEND
  0
POINT
  5
1283
330
1075
100
AcDbEntity
  8
DEFPOINTS
 62
     0
100
AcDbPoint
 10
1754.42679492171
 20
-137.454803850643
 30
0.0
  0
POINT
  5
1284
330
1075
100
AcDbEntity
  8
DEFPOINTS
 62
     0
100
AcDbPoint
 10
1871.42679492171
 20
-137.454803850643
 30
0.0
  0
POINT
  5
1285
330
1075
100
AcDbEntity
  8
DEFPOINTS
 62
     0
100
AcDbPoint
 10
1871.42679492171
 20
-98.54677906166376
 30
0.0
  0
ENDBLK
  5
1077
330
1075
100
AcDbEntity
  8
0
100
AcDbBlockEnd
  0
BLOCK
  5
128A
330
1286
100
AcDbEntity
  8
0
100
AcDbBlockBegin
  2
*S6110
 70
     1
 10
0.0
 20
0.0
 30
0.0
  3
*S6110
  1

  0
CIRCLE
  5
1287
330
1286
100
AcDbEntity
  8
AM_12 ( Teile Referenz)
 62
     4
100
AcDbCircle
 10
1768.240096939801
 20
-317.5021738566254
 30
0.0
 40
2.5
  0
LINE
  5
1288
330
1286
100
AcDbEntity
  8
AM_12 ( Teile Referenz)
 62
     4
100
AcDbLine
 10
1765.740096939801
 20
-320.0021738566253
 30
0.0
 11
1770.740096939801
 21
-315.0021738566254
 31
0.0
  0
LINE
  5
1289
330
1286
100
AcDbEntity
  8
AM_12 ( Teile Referenz)
 62
     4
100
AcDbLine
 10
1765.740096939801
 20
-315.0021738566254
 30
0.0
 11
1770.740096939801
 21
-320.0021738566253
 31
0.0
  0
ENDBLK
  5
128B
330
1286
100
AcDbEntity
  8
0
100
AcDbBlockEnd
  0
BLOCK
  5
1291
330
128D
100
AcDbEntity
  8
0
100
AcDbBlockBegin
  2
*S6211
 70
     1
 10
0.0
 20
0.0
 30
0.0
  3
*S6211
  1

  0
CIRCLE
  5
128E
330
128D
100
AcDbEntity
  8
AM_12 ( Teile Referenz)
 62
     4
100
AcDbCircle
 10
1807.008206037196
 20
-620.6710412137091
 30
0.0
 40
2.5
  0
LINE
  5
128F
330
128D
100
AcDbEntity
  8
AM_12 ( Teile Referenz)
 62
     4
100
AcDbLine
 10
1804.508206037196
 20
-623.1710412137091
 30
0.0
 11
1809.508206037196
 21
-618.1710412137091
 31
0.0
  0
LINE
  5
1290
330
128D
100
AcDbEntity
  8
AM_12 ( Teile Referenz)
 62
     4
100
AcDbLine
 10
1804.508206037196
 20
-618.1710412137091
 30
0.0
 11
1809.508206037196
 21
-623.1710412137091
 31
0.0
  0
ENDBLK
  5
1292
330
128D
100
AcDbEntity
  8
0
100
AcDbBlockEnd
  0
ENDSEC
  0
SECTION
  2
ENTITIES
  0
DIMENSION
  5
71E
330
22
100
AcDbEntity
  8
AM_5 ( Bemassung)
100
AcDbDimension
  2
*D0
 10
1913.9945945242
 20
-172.45480437629
 30
0.0
 11
1906.885454005783
 21
-154.9548041134662
 31
0.0
 70
    32
 71
     5
 42
35.00000052564698
  3
AM_DIN$0
100
AcDbAlignedDimension
 13
1874.92679585286
 23
-137.454803850643
 33
0.0
 14
1909.06838758306
 24
-172.45480437629
 34
0.0
 50
90.0
100
AcDbRotatedDimension
1001
ACAD
1000
DSTYLE
1002
{
1070
    40
1040
20.0
1070
    41
1040
0.5
1070
    44
1040
0.1
1070
   140
1040
0.5
1070
   147
1040
0.1
1070
   271
1070
     0
1002
}
  0
DIMENSION
  5
71F
330
22
100
AcDbEntity
  8
AM_5 ( Bemassung)
100
AcDbDimension
  2
*D1
 10
1924.50832974884
 20
-485.4548038506431
 30
0.0
 11
1917.395778589222
 21
-311.4548038506427
 31
0.0
 70
    32
  1
{\fArial|b0|i0|c0|p34;3}48\P
 71
     5
 42
348.0
  3
AM_DIN$0
100
AcDbAlignedDimension
 13
1874.92679585286
 23
-137.454803850643
 33
0.0
 14
1890.42679608564
 24
-485.454803850643
 34
0.0
 50
90.0
100
AcDbRotatedDimension
1001
ACAD
1000
DSTYLE
1002
{
1070
    40
1040
20.0
1070
    41
1040
0.5
1070
    44
1040
0.1
1070
   140
1040
0.5
1070
   147
1040
0.1
1070
   271
1070
     0
1002
}
1001
ACAD_DSTYLE_DIMINSPECT
1070
   396
1000
100%
1070
   395
1000

1070
   394
1070
    33
1070
   393
1070
     0
  0
DIMENSION
  5
721
330
22
100
AcDbEntity
  8
AM_5 ( Bemassung)
100
AcDbDimension
  2
*D2
 10
1735.42679375778
 20
-529.6355317896368
 30
0.0
 11
1810.224588924741
 21
-529.6355317896368
 31
0.0
 70
   160
  1
%%c <>
 71
     5
 42
155.0000023278599
  3
AM_DIN$0
100
AcDbAlignedDimension
 13
1890.42679608564
 23
-485.1654871913869
 33
0.0
 14
1735.42679375778
 24
-474.665487033693
 34
0.0
100
AcDbRotatedDimension
1001
ACAD
1000
DSTYLE
1002
{
1070
    40
1040
20.0
1070
    41
1040
0.5
1070
    44
1040
0.1
1070
   140
1040
0.5
1070
   147
1040
0.1
1070
   271
1070
     0
1002
}
1001
ACAD_DSTYLE_DIMINSPECT
1070
   396
1000
100%
1070
   395
1000

1070
   394
1070
    33
1070
   393
1070
     0
  0
DIMENSION
  5
9BD
330
22
100
AcDbEntity
  8
AM_5 ( Bemassung)
100
AcDbDimension
  2
*D3
 10
1839.33633326911
 20
-160.516285682235
 30
0.0
 11
1828.258971342152
 21
-121.3621604188436
 31
0.0
 70
   162
 71
     5
 42
0.0872664625997288
  3
AM_DIN$2
100
AcDb2LineAngularDimension
 13
1812.92679492171
 23
-492.376475212638
 33
0.0
 14
1812.92679492171
 24
-128.978083476604
 34
0.0
 15
1812.92679492171
 25
-462.3786902847609
 35
0.0
 16
1822.855184318862
 26
-121.1620782044606
 36
0.0
1001
ACAD
1000
DSTYLE
1002
{
1070
    40
1040
20.0
1070
    41
1040
0.5
1070
    44
1040
0.1
1070
   140
1040
0.5
1070
   147
1040
0.1
1070
   271
1070
     0
1002
}
  0
DIMENSION
  5
9DA
330
22
100
AcDbEntity
  8
AM_5 ( Bemassung)
100
AcDbDimension
  2
*D4
 10
1812.92679492171
 20
-128.978083476604
 30
0.0
 11
1798.234390626635
 21
-121.6883585177626
 31
0.0
 70
   162
 71
     5
 42
0.0872664625997148
  3
AM_DIN$2
100
AcDb2LineAngularDimension
 13
1812.92679492171
 23
-462.3786902847609
 33
0.0
 14
1786.95216961698
 24
-165.487364507059
 34
0.0
 15
1812.92679492171
 25
-492.376475212638
 35
0.0
 16
1793.099001688115
 26
-121.9486276889862
 36
0.0
1001
ACAD
1000
DSTYLE
1002
{
1070
    40
1040
20.0
1070
    41
1040
0.5
1070
    44
1040
0.1
1070
   140
1040
0.5
1070
   147
1040
0.1
1070
   271
1070
     0
1002
}
  0
LINE
  5
AD7
330
22
100
AcDbEntity
  8
AM_7 (Mittellinie)
  6
AM_ISO08W050x2
100
AcDbLine
 10
1812.92679492171
 20
-492.376475212638
 30
0.0
 11
1812.92679492171
 21
-128.978083476604
 31
0.0
  0
LINE
  5
AD8
330
22
100
AcDbEntity
  8
0
100
AcDbLine
 10
1887.9267960481
 20
-329.454806734192
 30
0.0
 11
1887.9267960481
 21
-316.454806538952
 31
0.0
  0
LINE
  5
AD9
330
22
100
AcDbEntity
  8
AM_2 ( Kontur 0.25)
100
AcDbLine
 10
1849.44421894202
 20
-184.942457297066
 30
0.0
 11
1884.6138537351
 21
-184.942457297066
 31
0.0
  0
LINE
  5
ADA
330
22
100
AcDbEntity
  8
AM_2 ( Kontur 0.25)
100
AcDbLine
 10
1858.36451722136
 20
-188.942457297066
 30
0.0
 11
1872.14461958119
 21
-188.942457297066
 31
0.0
  0
LINE
  5
ADB
330
22
100
AcDbEntity
  8
AM_2 ( Kontur 0.25)
100
AcDbLine
 10
1838.7974113183
 20
-180.942457297066
 30
0.0
 11
1894.07768273397
 21
-180.942457297066
 31
0.0
  0
LINE
  5
ADC
330
22
100
AcDbEntity
  8
0
100
AcDbLine
 10
1794.97017887185
 20
-356.4486179552929
 30
0.0
 11
1830.88341097158
 21
-356.4486179552929
 31
0.0
  0
LINE
  5
ADD
330
22
100
AcDbEntity
  8
0
100
AcDbLine
 10
1777.92679439606
 20
-394.636733049306
 30
0.0
 11
1847.92679544736
 21
-394.636733049304
 31
0.0
  0
LINE
  5
ADE
330
22
100
AcDbEntity
  8
0
100
AcDbLine
 10
1766.92679423086
 20
-422.4548081309118
 30
0.0
 11
1812.92679492171
 21
-422.4548081309118
 31
0.0
  0
LINE
  5
ADF
330
22
100
AcDbEntity
  8
0
100
AcDbLine
 10
1840.2473034828
 20
-486.7441257663702
 30
0.0
 11
1841.24730348281
 21
-487.7441257663702
 31
0.0
  0
LINE
  5
AE0
330
22
100
AcDbEntity
  8
0
100
AcDbLine
 10
1850.24730348281
 20
-486.7441257663702
 30
0.0
 11
1849.24730348281
 21
-487.7441257663702
 31
0.0
  0
LINE
  5
AE1
330
22
100
AcDbEntity
  8
0
100
AcDbLine
 10
1840.2473034828
 20
-486.7441257663702
 30
0.0
 11
1850.24730348281
 21
-486.7441257663702
 31
0.0
  0
LINE
  5
AE2
330
22
100
AcDbEntity
  8
0
100
AcDbLine
 10
1841.24730348281
 20
-487.7441257663702
 30
0.0
 11
1849.24730348281
 21
-487.7441257663702
 31
0.0
  0
LINE
  5
AE3
330
22
100
AcDbEntity
  8
0
100
AcDbLine
 10
1840.99730361046
 20
-485.9852907158118
 30
0.0
 11
1849.49730361046
 21
-485.9852907158118
 31
0.0
  0
LINE
  5
AE4
330
22
100
AcDbEntity
  8
0
100
AcDbLine
 10
1850.24730348281
 20
-486.7441257663702
 30
0.0
 11
1850.24730348281
 21
-485.9852907158118
 31
0.0
  0
LINE
  5
AE5
330
22
100
AcDbEntity
  8
AM_2 ( Kontur 0.25)
100
AcDbLine
 10
1849.24730348281
 20
-487.7441257663702
 30
0.0
 11
1849.24730348281
 21
-485.9852907158118
 31
0.0
  0
LINE
  5
AE6
330
22
100
AcDbEntity
  8
AM_2 ( Kontur 0.25)
100
AcDbLine
 10
1841.24730348281
 20
-487.7441257663702
 30
0.0
 11
1841.24730348281
 21
-485.9852907158118
 31
0.0
  0
LINE
  5
AE7
330
22
100
AcDbEntity
  8
0
100
AcDbLine
 10
1840.2473034828
 20
-486.7441257663702
 30
0.0
 11
1840.2473034828
 21
-485.9852907158118
 31
0.0
  0
LINE
  5
AE8
330
22
100
AcDbEntity
  8
AM_2 ( Kontur 0.25)
100
AcDbLine
 10
1841.24730348281
 20
-473.165487011165
 30
0.0
 11
1841.24730348281
 21
-460.4548087016159
 31
0.0
  0
LINE
  5
AE9
330
22
100
AcDbEntity
  8
0
100
AcDbLine
 10
1850.24730348281
 20
-473.165487011165
 30
0.0
 11
1850.24730348281
 21
-460.4548087016159
 31
0.0
  0
LINE
  5
AEA
330
22
100
AcDbEntity
  8
0
100
AcDbLine
 10
1840.2473034828
 20
-473.165487011165
 30
0.0
 11
1840.2473034828
 21
-460.4548087016159
 31
0.0
  0
LINE
  5
AEB
330
22
100
AcDbEntity
  8
AM_2 ( Kontur 0.25)
100
AcDbLine
 10
1849.24730348281
 20
-473.165487011165
 30
0.0
 11
1849.24730348281
 21
-460.4548087016159
 31
0.0
  0
LINE
  5
AEC
330
22
100
AcDbEntity
  8
0
100
AcDbLine
 10
1853.24730348281
 20
-452.454808581467
 30
0.0
 11
1853.24730348281
 21
-443.454808581466
 31
0.0
  0
LINE
  5
AED
330
22
100
AcDbEntity
  8
0
100
AcDbLine
 10
1837.24730348281
 20
-452.454808581467
 30
0.0
 11
1837.24730348281
 21
-443.454808581466
 31
0.0
  0
LINE
  5
AEE
330
22
100
AcDbEntity
  8
AM_7 (Mittellinie)
  6
AM_ISO08W050x2
100
AcDbLine
 10
1845.24730348281
 20
-489.7332883626528
 30
0.0
 11
1845.24730348281
 21
-440.8128188404571
 31
0.0
  0
ARC
  5
AEF
330
22
100
AcDbEntity
  8
AM_3 ( Verdeckt )
  6
AM_ISO02W050x2
100
AcDbCircle
 10
1848.71140509794
 20
-445.4156797044118
 30
0.0
 40
2.34336935001174
100
AcDbArc
 50
240.4783594097219
 51
299.521640590284
  0
ARC
  5
AF0
330
22
100
AcDbEntity
  8
AM_3 ( Verdeckt )
  6
AM_ISO02W050x2
100
AcDbCircle
 10
1845.24730348281
 20
-443.490308892526
 30
0.0
 40
4.58809231783236
100
AcDbArc
 50
239.778336732556
 51
300.221663267444
  0
ARC
  5
AF1
330
22
100
AcDbEntity
  8
AM_3 ( Verdeckt )
  6
AM_ISO02W050x2
100
AcDbCircle
 10
1841.78320186767
 20
-444.765588301941
 30
0.0
 40
2.926642965095648
100
AcDbArc
 50
246.762225611301
 51
293.237774388695
  0
ARC
  5
AF2
330
22
100
AcDbEntity
  8
0
100
AcDbCircle
 10
1852.24730348281
 20
-443.454808581466
 30
0.0
 40
0.9999999999999987
100
AcDbArc
 50
0.0000000000001908
 51
90.00000000000019
  0
ARC
  5
AF3
330
22
100
AcDbEntity
  8
0
100
AcDbCircle
 10
1838.2473034828
 20
-443.454808581466
 30
0.0
 40
0.9999999999999987
100
AcDbArc
 50
90.00000000000019
 51
180.0
  0
LINE
  5
AF4
330
22
100
AcDbEntity
  8
AM_3 ( Verdeckt )
  6
AM_ISO02W050x2
100
AcDbLine
 10
1849.86610563632
 20
-447.4548085814658
 30
0.0
 11
1845.24730348281
 21
-450.121475248134
 31
0.0
  0
LINE
  5
AF5
330
22
100
AcDbEntity
  8
AM_3 ( Verdeckt )
  6
AM_ISO02W050x2
100
AcDbLine
 10
1840.628501329289
 20
-447.4548085814658
 30
0.0
 11
1845.24730348281
 21
-450.121475248134
 31
0.0
  0
LINE
  5
AF6
330
22
100
AcDbEntity
  8
AM_3 ( Verdeckt )
  6
AM_ISO02W050x2
100
AcDbLine
 10
1849.86610563632
 20
-447.4548085814658
 30
0.0
 11
1849.86610563632
 21
-442.4548085814669
 31
0.0
  0
LINE
  5
AF7
330
22
100
AcDbEntity
  8
AM_3 ( Verdeckt )
  6
AM_ISO02W050x2
100
AcDbLine
 10
1847.55670455956
 20
-447.4548085814658
 30
0.0
 11
1847.55670455956
 21
-442.4548085814669
 31
0.0
  0
LINE
  5
AF8
330
22
100
AcDbEntity
  8
AM_3 ( Verdeckt )
  6
AM_ISO02W050x2
100
AcDbLine
 10
1842.93790240605
 20
-447.4548085814658
 30
0.0
 11
1842.93790240605
 21
-442.4548085814669
 31
0.0
  0
LINE
  5
AF9
330
22
100
AcDbEntity
  8
AM_3 ( Verdeckt )
  6
AM_ISO02W050x2
100
AcDbLine
 10
1840.628501329289
 20
-447.4548085814658
 30
0.0
 11
1840.628501329289
 21
-442.4548085814669
 31
0.0
  0
LINE
  5
AFA
330
22
100
AcDbEntity
  8
0
100
AcDbLine
 10
1838.2473034828
 20
-442.4548085814669
 30
0.0
 11
1852.24730348281
 21
-442.4548085814669
 31
0.0
  0
LINE
  5
AFB
330
22
100
AcDbEntity
  8
AM_3 ( Verdeckt )
  6
AM_ISO02W050x2
100
AcDbLine
 10
1745.61739286875
 20
-447.4548085814658
 30
0.0
 11
1745.61739286875
 21
-442.4548085814669
 31
0.0
  0
LINE
  5
AFC
330
22
100
AcDbEntity
  8
AM_3 ( Verdeckt )
  6
AM_ISO02W050x2
100
AcDbLine
 10
1750.23619502227
 20
-447.4548085814658
 30
0.0
 11
1750.23619502227
 21
-442.4548085814669
 31
0.0
  0
LINE
  5
AFD
330
22
100
AcDbEntity
  8
AM_3 ( Verdeckt )
  6
AM_ISO02W050x2
100
AcDbLine
 10
1752.54559609903
 20
-447.4548085814658
 30
0.0
 11
1752.54559609903
 21
-442.4548085814669
 31
0.0
  0
LINE
  5
AFE
330
22
100
AcDbEntity
  8
AM_3 ( Verdeckt )
  6
AM_ISO02W050x2
100
AcDbLine
 10
1743.30799179199
 20
-447.4548085814658
 30
0.0
 11
1747.92679394551
 21
-450.121475248134
 31
0.0
  0
LINE
  5
AFF
330
22
100
AcDbEntity
  8
AM_3 ( Verdeckt )
  6
AM_ISO02W050x2
100
AcDbLine
 10
1752.54559609903
 20
-447.4548085814658
 30
0.0
 11
1747.92679394551
 21
-450.121475248134
 31
0.0
  0
ARC
  5
B00
330
22
100
AcDbEntity
  8
0
100
AcDbCircle
 10
1740.92679394551
 20
-443.454808581466
 30
0.0
 40
0.9999999999999987
100
AcDbArc
 50
90.00000000000019
 51
180.0
  0
ARC
  5
B01
330
22
100
AcDbEntity
  8
0
100
AcDbCircle
 10
1754.92679394551
 20
-443.454808581466
 30
0.0
 40
0.9999999999999987
100
AcDbArc
 50
0.0000000000001908
 51
90.00000000000019
  0
ARC
  5
B02
330
22
100
AcDbEntity
  8
AM_3 ( Verdeckt )
  6
AM_ISO02W050x2
100
AcDbCircle
 10
1744.46269233037
 20
-444.765588301941
 30
0.0
 40
2.926642965095648
100
AcDbArc
 50
246.762225611301
 51
293.237774388695
  0
ARC
  5
B03
330
22
100
AcDbEntity
  8
AM_3 ( Verdeckt )
  6
AM_ISO02W050x2
100
AcDbCircle
 10
1747.92679394551
 20
-443.490308892526
 30
0.0
 40
4.58809231783236
100
AcDbArc
 50
239.778336732556
 51
300.221663267444
  0
ARC
  5
B04
330
22
100
AcDbEntity
  8
AM_3 ( Verdeckt )
  6
AM_ISO02W050x2
100
AcDbCircle
 10
1751.39089556065
 20
-445.4156797044118
 30
0.0
 40
2.34336935001174
100
AcDbArc
 50
240.4783594097219
 51
299.521640590284
  0
LINE
  5
B05
330
22
100
AcDbEntity
  8
AM_7 (Mittellinie)
  6
AM_ISO08W050x2
100
AcDbLine
 10
1747.92679394551
 20
-489.7332883626528
 30
0.0
 11
1747.92679394551
 21
-440.8128188404571
 31
0.0
  0
LINE
  5
B06
330
22
100
AcDbEntity
  8
0
100
AcDbLine
 10
1739.92679394551
 20
-452.454808581467
 30
0.0
 11
1739.92679394551
 21
-443.454808581466
 31
0.0
  0
LINE
  5
B07
330
22
100
AcDbEntity
  8
0
100
AcDbLine
 10
1755.92679394551
 20
-452.454808581467
 30
0.0
 11
1755.92679394551
 21
-443.454808581466
 31
0.0
  0
LINE
  5
B08
330
22
100
AcDbEntity
  8
AM_2 ( Kontur 0.25)
100
AcDbLine
 10
1751.92679394551
 20
-473.165487011165
 30
0.0
 11
1751.92679394551
 21
-460.4548087016159
 31
0.0
  0
LINE
  5
B09
330
22
100
AcDbEntity
  8
0
100
AcDbLine
 10
1742.92679394551
 20
-473.165487011165
 30
0.0
 11
1742.92679394551
 21
-460.4548087016159
 31
0.0
  0
LINE
  5
B0A
330
22
100
AcDbEntity
  8
0
100
AcDbLine
 10
1752.92679394551
 20
-473.165487011165
 30
0.0
 11
1752.92679394551
 21
-460.4548087016159
 31
0.0
  0
LINE
  5
B0B
330
22
100
AcDbEntity
  8
AM_2 ( Kontur 0.25)
100
AcDbLine
 10
1743.92679394551
 20
-473.165487011165
 30
0.0
 11
1743.92679394551
 21
-460.4548087016159
 31
0.0
  0
LINE
  5
B0C
330
22
100
AcDbEntity
  8
0
100
AcDbLine
 10
1742.92679394551
 20
-486.7441257663702
 30
0.0
 11
1742.92679394551
 21
-485.9852907158118
 31
0.0
  0
LINE
  5
B0D
330
22
100
AcDbEntity
  8
AM_2 ( Kontur 0.25)
100
AcDbLine
 10
1743.92679394551
 20
-487.7441257663702
 30
0.0
 11
1743.92679394551
 21
-485.9852907158118
 31
0.0
  0
LINE
  5
B0E
330
22
100
AcDbEntity
  8
AM_2 ( Kontur 0.25)
100
AcDbLine
 10
1751.92679394551
 20
-487.7441257663702
 30
0.0
 11
1751.92679394551
 21
-485.9852907158118
 31
0.0
  0
LINE
  5
B0F
330
22
100
AcDbEntity
  8
0
100
AcDbLine
 10
1752.92679394551
 20
-486.7441257663702
 30
0.0
 11
1752.92679394551
 21
-485.9852907158118
 31
0.0
  0
LINE
  5
B10
330
22
100
AcDbEntity
  8
0
100
AcDbLine
 10
1743.67679407317
 20
-485.9852907158118
 30
0.0
 11
1752.17679407317
 21
-485.9852907158118
 31
0.0
  0
LINE
  5
B11
330
22
100
AcDbEntity
  8
0
100
AcDbLine
 10
1743.92679394551
 20
-487.7441257663702
 30
0.0
 11
1751.92679394551
 21
-487.7441257663702
 31
0.0
  0
LINE
  5
B12
330
22
100
AcDbEntity
  8
0
100
AcDbLine
 10
1742.92679394551
 20
-486.7441257663702
 30
0.0
 11
1752.92679394551
 21
-486.7441257663702
 31
0.0
  0
LINE
  5
B13
330
22
100
AcDbEntity
  8
0
100
AcDbLine
 10
1752.92679394551
 20
-486.7441257663702
 30
0.0
 11
1751.92679394551
 21
-487.7441257663702
 31
0.0
  0
LINE
  5
B14
330
22
100
AcDbEntity
  8
0
100
AcDbLine
 10
1742.92679394551
 20
-486.7441257663702
 30
0.0
 11
1743.92679394551
 21
-487.7441257663702
 31
0.0
  0
ARC
  5
B15
330
22
100
AcDbEntity
  8
0
100
AcDbCircle
 10
1752.17679407317
 20
-476.1852907158131
 30
0.0
 40
9.8
100
AcDbArc
 50
251.0617116433341
 51
288.938288356666
  0
ARC
  5
B16
330
22
100
AcDbEntity
  8
0
100
AcDbCircle
 10
-1743.67679407317
 20
-476.1852907158131
 30
0.0
 40
9.8
210
0.0
220
0.0
230
-1.0
100
AcDbArc
 50
251.0617116433341
 51
288.938288356666
  0
LINE
  5
B17
330
22
100
AcDbEntity
  8
0
100
AcDbLine
 10
1740.92679394551
 20
-442.4548085814669
 30
0.0
 11
1754.92679394551
 21
-442.4548085814669
 31
0.0
  0
LINE
  5
B18
330
22
100
AcDbEntity
  8
AM_3 ( Verdeckt )
  6
AM_ISO02W050x2
100
AcDbLine
 10
1743.30799179199
 20
-447.4548085814658
 30
0.0
 11
1743.30799179199
 21
-442.4548085814669
 31
0.0
  0
LINE
  5
B19
330
22
100
AcDbEntity
  8
0
100
AcDbLine
 10
1806.96853248364
 20
-303.3769401411
 30
0.0
 11
1818.21853265259
 21
-303.3769401411
 31
0.0
  0
LINE
  5
B1A
330
22
100
AcDbEntity
  8
0
100
AcDbLine
 10
1809.46853252118
 20
-280.876939803184
 30
0.0
 11
1818.21853265259
 21
-280.876939803184
 31
0.0
  0
LINE
  5
B1B
330
22
100
AcDbEntity
  8
0
100
AcDbLine
 10
1809.46853252118
 20
-288.376939915823
 30
0.0
 11
1809.46853252118
 21
-280.876939803184
 31
0.0
  0
LINE
  5
B1C
330
22
100
AcDbEntity
  8
0
100
AcDbLine
 10
1809.46853252118
 20
-300.876940103554
 30
0.0
 11
1818.21853265259
 21
-300.876940103554
 31
0.0
  0
LINE
  5
B1D
330
22
100
AcDbEntity
  8
0
100
AcDbLine
 10
1809.46853252118
 20
-290.876939953369
 30
0.0
 11
1815.71853334683
 21
-290.876939953369
 31
0.0
  0
LINE
  5
B1E
330
22
100
AcDbEntity
  8
0
100
AcDbLine
 10
1809.46853252118
 20
-288.376939915823
 30
0.0
 11
1815.71853334683
 21
-288.376939915823
 31
0.0
  0
ARC
  5
B1F
330
22
100
AcDbEntity
  8
0
100
AcDbCircle
 10
1818.21853265259
 20
-279.626939784411
 30
0.0
 40
1.250000018773119
100
AcDbArc
 50
270.0
 51
89.99999999999978
  0
ARC
  5
B20
330
22
100
AcDbEntity
  8
0
100
AcDbCircle
 10
1815.71853261505
 20
-289.626939934596
 30
0.0
 40
1.250000018773119
100
AcDbArc
 50
269.9999664574504
 51
90.0000335425495
  0
ARC
  5
B21
330
22
100
AcDbEntity
  8
0
100
AcDbCircle
 10
1818.21853265259
 20
-302.126940122327
 30
0.0
 40
1.250000018773119
100
AcDbArc
 50
270.0
 51
89.99999999999978
  0
LINE
  5
B22
330
22
100
AcDbEntity
  8
0
100
AcDbLine
 10
1809.46853252118
 20
-300.876940103554
 30
0.0
 11
1809.46853252118
 21
-290.876939953369
 31
0.0
  0
LINE
  5
B23
330
22
100
AcDbEntity
  8
0
100
AcDbLine
 10
1805.42679480907
 20
-176.496591239561
 30
0.0
 11
1805.42679480907
 21
-166.496581551832
 31
0.0
  0
LINE
  5
B24
330
22
100
AcDbEntity
  8
0
100
AcDbLine
 10
1820.42679503435
 20
-176.496591239561
 30
0.0
 11
1820.42679503435
 21
-166.496581551832
 31
0.0
  0
ARC
  5
B25
330
22
100
AcDbEntity
  8
0
100
AcDbCircle
 10
1812.92679492171
 20
-166.496581551832
 30
0.0
 40
7.50000011263869
100
AcDbArc
 50
0.0
 51
180.0
  0
ARC
  5
B26
330
22
100
AcDbEntity
  8
0
100
AcDbCircle
 10
1812.92679492171
 20
-176.496581702016
 30
0.0
 40
7.50000011263869
100
AcDbArc
 50
179.999927138534
 51
0.0000000000002036
  0
LINE
  5
B27
330
22
100
AcDbEntity
  8
0
100
AcDbLine
 10
1817.9267949968
 20
-176.496591239561
 30
0.0
 11
1817.9267949968
 21
-166.496581551832
 31
0.0
  0
LINE
  5
B28
330
22
100
AcDbEntity
  8
0
100
AcDbLine
 10
1807.92679484662
 20
-176.496591239561
 30
0.0
 11
1807.92679484662
 21
-166.496581551832
 31
0.0
  0
ARC
  5
B29
330
22
100
AcDbEntity
  8
0
100
AcDbCircle
 10
1812.92679492171
 20
-166.496581551832
 30
0.0
 40
5.00000007509246
100
AcDbArc
 50
0.0
 51
180.0
  0
ARC
  5
B2A
330
22
100
AcDbEntity
  8
0
100
AcDbCircle
 10
1812.92679492171
 20
-176.496581702016
 30
0.0
 40
5.00000007509246
100
AcDbArc
 50
179.999890707802
 51
0.0000000000002036
  0
LINE
  5
B2B
330
22
100
AcDbEntity
  8
AM_3 ( Verdeckt )
  6
AM_ISO02W050x2
100
AcDbLine
 10
1776.81379437935
 20
-484.186487146647
 30
0.0
 11
1775.33479435714
 21
-485.665487168859
 31
0.0
  0
LINE
  5
B2C
330
22
100
AcDbEntity
  8
0
100
AcDbLine
 10
1757.35477580027
 20
-331.454806764229
 30
0.0
 11
1784.88556613887
 21
-378.397480962369
 31
0.0
  0
ARC
  5
B2D
330
22
100
AcDbEntity
  8
0
100
AcDbCircle
 10
1828.92679516201
 20
-324.954806666609
 30
0.0
 40
1.500000022527735
100
AcDbArc
 50
0.0000000000001908
 51
90.00000000000019
  0
LINE
  5
B2E
330
22
100
AcDbEntity
  8
AM_3 ( Verdeckt )
  6
AM_ISO02W050x2
100
AcDbLine
 10
1849.03979546407
 20
-446.1654865906458
 30
0.0
 11
1849.03979546407
 21
-484.186487146647
 31
0.0
  0
LINE
  5
B2F
330
22
100
AcDbEntity
  8
0
100
AcDbLine
 10
1793.016452507
 20
-331.454806764229
 30
0.0
 11
1795.42679465889
 21
-331.454806764229
 31
0.0
  0
LINE
  5
B30
330
22
100
AcDbEntity
  8
0
100
AcDbLine
 10
1812.92679492171
 20
-331.454806764229
 30
0.0
 11
1885.92679601806
 21
-331.454806764229
 31
0.0
  0
LINE
  5
B31
330
22
100
AcDbEntity
  8
0
100
AcDbLine
 10
1737.92679379533
 20
-329.454806734192
 30
0.0
 11
1737.92679379533
 21
-316.454806538952
 31
0.0
  0
LINE
  5
B32
102
{ACAD_REACTORS
330
E2D
102
}
330
22
100
AcDbEntity
  8
0
100
AcDbLine
 10
1812.92679492171
 20
-316.454806538952
 30
0.0
 11
1737.92679379533
 21
-316.454806538952
 31
0.0
  0
LINE
  5
B33
330
22
100
AcDbEntity
  8
0
100
AcDbLine
 10
1812.92679492171
 20
-144.454803955772
 30
0.0
 11
1748.92679396053
 21
-144.454803955772
 31
0.0
  0
LINE
  5
B34
330
22
100
AcDbEntity
  8
0
100
AcDbLine
 10
1746.92679393049
 20
-337.56481527725
 30
0.0
 11
1746.92679393049
 21
-331.454806764229
 31
0.0
  0
LINE
  5
B35
330
22
100
AcDbEntity
  8
0
100
AcDbLine
 10
1868.49881404316
 20
-331.454806764229
 30
0.0
 11
1851.80284235112
 21
-331.454806764229
 31
0.0
  0
ARC
  5
B36
330
22
100
AcDbEntity
  8
0
100
AcDbCircle
 10
1414.00727515546
 20
-208.960629472805
 30
0.0
 40
343.193075722884
100
AcDbArc
 50
341.9283363660594
 51
10.6257474612805
  0
LINE
  5
B37
330
22
100
AcDbEntity
  8
0
100
AcDbLine
 10
1736.92679378031
 20
-473.165487011165
 30
0.0
 11
1747.92679394551
 21
-473.165487011165
 31
0.0
  0
LINE
  5
B38
330
22
100
AcDbEntity
  8
0
100
AcDbLine
 10
1890.42679608564
 20
-474.665487033693
 30
0.0
 11
1890.42679608564
 21
-485.454803850643
 31
0.0
  0
LINE
  5
B39
330
22
100
AcDbEntity
  8
0
100
AcDbLine
 10
1735.42679375778
 20
-474.665487033693
 30
0.0
 11
1735.42679375778
 21
-485.454803850643
 31
0.0
  0
ARC
  5
B3A
330
22
100
AcDbEntity
  8
0
100
AcDbCircle
 10
1805.47492520186
 20
-222.495655435296
 30
0.0
 40
1.250000018773119
100
AcDbArc
 50
161.565051177076
 51
341.565360238422
  0
LINE
  5
B3B
330
22
100
AcDbEntity
  8
0
100
AcDbLine
 10
1849.03979546407
 20
-452.454808581467
 30
0.0
 11
1888.92679606312
 21
-452.454808581467
 31
0.0
  0
ARC
  5
B3C
330
22
100
AcDbEntity
  8
0
100
AcDbCircle
 10
1739.92679382536
 20
-329.454806734192
 30
0.0
 40
2.00000003003698
100
AcDbArc
 50
180.0
 51
270.0
  0
LINE
  5
B3D
330
22
100
AcDbEntity
  8
0
100
AcDbLine
 10
1878.92679591293
 20
-337.56481527725
 30
0.0
 11
1878.92679591293
 21
-331.454806764229
 31
0.0
  0
LINE
  5
B3E
330
22
100
AcDbEntity
  8
0
100
AcDbLine
 10
1851.80284235112
 20
-335.471726059031
 30
0.0
 11
1835.880169024539
 21
-367.323914894086
 31
0.0
  0
LINE
  5
B3F
330
22
100
AcDbEntity
  8
0
100
AcDbLine
 10
1832.83713733642
 20
-331.454806764229
 30
0.0
 11
1830.42679518453
 21
-336.190794293292
 31
0.0
  0
LINE
  5
B40
330
22
100
AcDbEntity
  8
0
100
AcDbLine
 10
1757.35477580027
 20
-331.454806764229
 30
0.0
 11
1774.0507474923
 21
-331.454806764229
 31
0.0
  0
ARC
  5
B41
330
22
100
AcDbEntity
  8
0
100
AcDbCircle
 10
1888.92679606312
 20
-474.665487033693
 30
0.0
 40
1.500000022527735
100
AcDbArc
 50
0.0000000000001908
 51
89.9999999999996
  0
ARC
  5
B42
330
22
100
AcDbEntity
  8
0
100
AcDbCircle
 10
1736.92679378031
 20
-474.665487033693
 30
0.0
 40
1.500000022527735
100
AcDbArc
 50
89.9999999999996
 51
180.0
  0
LINE
  5
B43
330
22
100
AcDbEntity
  8
AM_3 ( Verdeckt )
  6
AM_ISO02W050x2
100
AcDbLine
 10
1849.03979546407
 20
-484.186487146647
 30
0.0
 11
1776.81379437935
 21
-484.186487146647
 31
0.0
  0
LINE
  5
B44
330
22
100
AcDbEntity
  8
0
100
AcDbLine
 10
1750.92679399056
 20
-137.454803850643
 30
0.0
 11
1874.92679585286
 21
-137.454803850643
 31
0.0
  0
LINE
  5
B45
330
22
100
AcDbEntity
  8
AM_3 ( Verdeckt )
  6
AM_ISO02W050x2
100
AcDbLine
 10
1849.03979546407
 20
-484.186487146647
 30
0.0
 11
1850.51879548629
 21
-485.665487168859
 31
0.0
  0
LINE
  5
B46
330
22
100
AcDbEntity
  8
AM_3 ( Verdeckt )
  6
AM_ISO02W050x2
100
AcDbLine
 10
1780.92679444112
 20
-430.665486372878
 30
0.0
 11
1780.42679443361
 21
-430.1654863653689
 31
0.0
  0
LINE
  5
B47
330
22
100
AcDbEntity
  8
AM_3 ( Verdeckt )
  6
AM_ISO02W050x2
100
AcDbLine
 10
1849.03979546407
 20
-445.1654865906458
 30
0.0
 11
1844.9267954023
 21
-441.0524865288746
 31
0.0
  0
LINE
  5
B48
102
{ACAD_REACTORS
330
E2D
102
}
330
22
100
AcDbEntity
  8
0
100
AcDbLine
 10
1812.92679492171
 20
-316.454806538952
 30
0.0
 11
1887.9267960481
 21
-316.454806538952
 31
0.0
  0
LINE
  5
B49
330
22
100
AcDbEntity
  8
AM_3 ( Verdeckt )
  6
AM_ISO02W050x2
100
AcDbLine
 10
1844.9267954023
 20
-430.665486372878
 30
0.0
 11
1844.9267954023
 21
-441.0524865288746
 31
0.0
  0
LINE
  5
B4A
330
22
100
AcDbEntity
  8
AM_3 ( Verdeckt )
  6
AM_ISO02W050x2
100
AcDbLine
 10
1853.37183533747
 20
-460.4548087016159
 30
0.0
 11
1852.32042591633
 21
-436.3735738243899
 31
0.0
  0
LINE
  5
B4B
330
22
100
AcDbEntity
  8
AM_3 ( Verdeckt )
  6
AM_ISO02W050x2
100
AcDbLine
 10
1779.8813711417
 20
-430.1654863653689
 30
0.0
 11
1845.97221870172
 21
-430.1654863653689
 31
0.0
  0
ARC
  5
B4C
330
22
100
AcDbEntity
  8
AM_3 ( Verdeckt )
  6
AM_ISO02W050x2
100
AcDbCircle
 10
1845.97221870172
 20
-431.665486387897
 30
0.0
 40
1.500000022527735
100
AcDbArc
 50
47.05090099559678
 51
89.9999999999996
  0
LINE
  5
B4D
330
22
100
AcDbEntity
  8
AM_3 ( Verdeckt )
  6
AM_ISO02W050x2
100
AcDbLine
 10
1780.92679444112
 20
-430.665486372878
 30
0.0
 11
1780.92679444112
 21
-441.0524865288746
 31
0.0
  0
ARC
  5
B4E
330
22
100
AcDbEntity
  8
0
100
AcDbCircle
 10
1887.00882799644
 20
-314.954806516424
 30
0.0
 40
1.500000022527735
100
AcDbArc
 50
198.024302198111
 51
270.0
  0
LINE
  5
B4F
330
22
100
AcDbEntity
  8
AM_3 ( Verdeckt )
  6
AM_ISO02W050x2
100
AcDbLine
 10
1775.33479435714
 20
-456.665486763359
 30
0.0
 11
1850.51879548629
 21
-456.665486763359
 31
0.0
  0
ARC
  5
B50
330
22
100
AcDbEntity
  8
0
100
AcDbCircle
 10
1874.92679585286
 20
-139.45480388068
 30
0.0
 40
2.00000003003698
100
AcDbArc
 50
0.0000000000001908
 51
89.9999999999996
  0
LINE
  5
B51
330
22
100
AcDbEntity
  8
0
100
AcDbLine
 10
1736.92679378031
 20
-452.454808581467
 30
0.0
 11
1849.03979546407
 21
-452.454808581467
 31
0.0
  0
LINE
  5
B52
330
22
100
AcDbEntity
  8
0
100
AcDbLine
 10
1771.98942902588
 20
-471.730916070668
 30
0.0
 11
1772.48175450595
 21
-460.4548087016159
 31
0.0
  0
ARC
  5
B53
330
22
100
AcDbEntity
  8
0
100
AcDbCircle
 10
1750.92679399056
 20
-139.45480388068
 30
0.0
 40
2.00000003003698
100
AcDbArc
 50
89.9999999999996
 51
180.0
  0
ARC
  5
B54
330
22
100
AcDbEntity
  8
0
100
AcDbCircle
 10
1887.00882799644
 20
-314.954806516424
 30
0.0
 40
1.500000022527735
100
AcDbArc
 50
198.024302198111
 51
270.0
  0
LINE
  5
B55
330
22
100
AcDbEntity
  8
0
100
AcDbLine
 10
1847.92679544736
 20
-419.4548080858568
 30
0.0
 11
1847.92679544736
 21
-394.636733049304
 31
0.0
  0
LINE
  5
B56
330
22
100
AcDbEntity
  8
0
100
AcDbLine
 10
1739.92679382536
 20
-331.454806764229
 30
0.0
 11
1812.92679492171
 21
-331.454806764229
 31
0.0
  0
ARC
  5
B57
330
22
100
AcDbEntity
  8
0
100
AcDbCircle
 10
-2211.84631468796
 20
-208.960629472805
 30
0.0
 40
343.193075722884
210
0.0
220
0.0
230
-1.0
100
AcDbArc
 50
341.928336366059
 51
10.6257474612811
  0
LINE
  5
B58
330
22
100
AcDbEntity
  8
0
100
AcDbLine
 10
1774.0507474923
 20
-331.454806764229
 30
0.0
 11
1774.0507474923
 21
-335.471726059031
 31
0.0
  0
LINE
  5
B59
330
22
100
AcDbEntity
  8
AM_3 ( Verdeckt )
  6
AM_ISO02W050x2
100
AcDbLine
 10
1845.42679540981
 20
-430.1654863653689
 30
0.0
 11
1844.9267954023
 21
-430.665486372878
 31
0.0
  0
LINE
  5
B5A
330
22
100
AcDbEntity
  8
AM_3 ( Verdeckt )
  6
AM_ISO02W050x2
100
AcDbLine
 10
1776.81379437935
 20
-446.1654865906458
 30
0.0
 11
1776.81379437935
 21
-484.186487146647
 31
0.0
  0
LINE
  5
B5B
330
22
100
AcDbEntity
  8
AM_3 ( Verdeckt )
  6
AM_ISO02W050x2
100
AcDbLine
 10
1844.9267954023
 20
-430.665486372878
 30
0.0
 11
1780.92679444112
 21
-430.665486372878
 31
0.0
  0
LINE
  5
B5C
330
22
100
AcDbEntity
  8
AM_3 ( Verdeckt )
  6
AM_ISO02W050x2
100
AcDbLine
 10
1844.9267954023
 20
-441.0524865288746
 30
0.0
 11
1780.92679444112
 21
-441.0524865288746
 31
0.0
  0
LINE
  5
B5D
330
22
100
AcDbEntity
  8
AM_3 ( Verdeckt )
  6
AM_ISO02W050x2
100
AcDbLine
 10
1772.48175450595
 20
-460.4548087016159
 30
0.0
 11
1773.5331639271
 21
-436.3735738243899
 31
0.0
  0
ARC
  5
B5E
330
22
100
AcDbEntity
  8
AM_3 ( Verdeckt )
  6
AM_ISO02W050x2
100
AcDbCircle
 10
1812.92679492171
 20
-467.165486921054
 30
0.0
 40
50.00000075092461
100
AcDbArc
 50
38.0128545002355
 51
47.05085771942647
  0
LINE
  5
B5F
330
22
100
AcDbEntity
  8
AM_3 ( Verdeckt )
  6
AM_ISO02W050x2
100
AcDbLine
 10
1775.33479435714
 20
-456.665486763359
 30
0.0
 11
1775.33479435714
 21
-483.665487168859
 31
0.0
  0
ARC
  5
B60
330
22
100
AcDbEntity
  8
0
100
AcDbCircle
 10
1774.92679435101
 20
-419.4548080858568
 30
0.0
 40
3.000000045055478
100
AcDbArc
 50
270.0
 51
0.0000000000002036
  0
LINE
  5
B61
330
22
100
AcDbEntity
  8
0
100
AcDbLine
 10
1868.49881404315
 20
-331.454806764229
 30
0.0
 11
1840.96802370456
 21
-378.397480962369
 31
0.0
  0
ARC
  5
B62
330
22
100
AcDbEntity
  8
0
100
AcDbCircle
 10
1850.92679549241
 20
-419.4548080858568
 30
0.0
 40
3.000000045055478
100
AcDbArc
 50
180.0
 51
270.0
  0
LINE
  5
B63
330
22
100
AcDbEntity
  8
0
100
AcDbLine
 10
1876.01239154242
 20
-144.454803955772
 30
0.0
 11
1876.92679588289
 21
-144.454803955772
 31
0.0
  0
ARC
  5
B64
330
22
100
AcDbEntity
  8
0
100
AcDbCircle
 10
1885.92679601806
 20
-329.454806734192
 30
0.0
 40
2.00000003003698
100
AcDbArc
 50
270.0
 51
0.0000000000002036
  0
LINE
  5
B65
330
22
100
AcDbEntity
  8
AM_3 ( Verdeckt )
  6
AM_ISO02W050x2
100
AcDbLine
 10
1776.81379437935
 20
-445.1654865906458
 30
0.0
 11
1849.03979546407
 21
-445.1654865906458
 31
0.0
  0
ARC
  5
B66
330
22
100
AcDbEntity
  8
0
100
AcDbCircle
 10
1770.49085667101
 20
-471.665486988637
 30
0.0
 40
1.500000022527735
100
AcDbArc
 50
270.0
 51
357.5
  0
ARC
  5
B67
330
22
100
AcDbEntity
  8
0
100
AcDbCircle
 10
1855.36273317242
 20
-471.665486988637
 30
0.0
 40
1.500000022527735
100
AcDbArc
 50
182.499999999999
 51
270.0
  0
ARC
  5
B68
330
22
100
AcDbEntity
  8
0
100
AcDbCircle
 10
1842.92679537227
 20
-394.636733049304
 30
0.0
 40
5.00000007509246
100
AcDbArc
 50
0.0000000000001908
 51
24.6768631703368
  0
LINE
  5
B69
330
22
100
AcDbEntity
  8
0
100
AcDbLine
 10
1853.86416081754
 20
-471.730916070668
 30
0.0
 11
1853.37183533747
 21
-460.4548087016159
 31
0.0
  0
LINE
  5
B6A
330
22
100
AcDbEntity
  8
0
100
AcDbLine
 10
1878.92679591293
 20
-337.56481527725
 30
0.0
 11
1847.10138740219
 21
-391.774183777208
 31
0.0
  0
ARC
  5
B6B
330
22
100
AcDbEntity
  8
0
100
AcDbCircle
 10
1782.92679447116
 20
-394.636733049306
 30
0.0
 40
5.00000007509246
100
AcDbArc
 50
155.323136829663
 51
180.0
  0
LINE
  5
B6C
330
22
100
AcDbEntity
  8
0
100
AcDbLine
 10
1812.92679492171
 20
-144.454803955772
 30
0.0
 11
1876.92679588289
 21
-144.454803955772
 31
0.0
  0
LINE
  5
B6D
330
22
100
AcDbEntity
  8
0
100
AcDbLine
 10
1830.42679518453
 20
-331.454806764229
 30
0.0
 11
1830.42679518453
 21
-324.954806666609
 31
0.0
  0
LINE
  5
B6E
330
22
100
AcDbEntity
  8
0
100
AcDbLine
 10
1832.83713733642
 20
-331.454806764229
 30
0.0
 11
1830.42679518453
 21
-331.454806764229
 31
0.0
  0
ARC
  5
B6F
330
22
100
AcDbEntity
  8
0
100
AcDbCircle
 10
1814.60670566123
 20
-244.251939253132
 30
0.0
 40
3.12500004693279
100
AcDbArc
 50
25.3769311591051
 51
90.00000000000019
  0
LINE
  5
B70
330
22
100
AcDbEntity
  8
0
100
AcDbLine
 10
1816.48170568939
 20
-255.50193942209
 30
0.0
 11
1807.48170555422
 21
-248.751939320715
 31
0.0
  0
LINE
  5
B71
330
22
100
AcDbEntity
  8
0
100
AcDbLine
 10
1808.98170557675
 20
-246.751939290678
 30
0.0
 11
1817.98170571191
 21
-253.501939392053
 31
0.0
  0
LINE
  5
B72
330
22
100
AcDbEntity
  8
0
100
AcDbLine
 10
1739.92679394551
 20
-452.454808581467
 30
0.0
 11
1755.92679394551
 21
-452.454808581467
 31
0.0
  0
ARC
  5
B73
330
22
100
AcDbEntity
  8
0
100
AcDbCircle
 10
1810.85670560491
 20
-244.251939253132
 30
0.0
 40
5.625000084479018
100
AcDbArc
 50
90.00000000000019
 51
233.130102354156
  0
ARC
  5
B74
330
22
100
AcDbEntity
  8
0
100
AcDbCircle
 10
1814.60670566123
 20
-258.001939459636
 30
0.0
 40
5.625000084479018
100
AcDbArc
 50
270.0
 51
53.13010959866542
  0
ARC
  5
B75
330
22
100
AcDbEntity
  8
0
100
AcDbCircle
 10
1814.60670566123
 20
-258.001939459636
 30
0.0
 40
3.12500004693279
100
AcDbArc
 50
270.0
 51
53.130164173972
  0
ARC
  5
B76
330
22
100
AcDbEntity
  8
0
100
AcDbCircle
 10
1810.85670560491
 20
-244.251939253132
 30
0.0
 40
3.12500004693279
100
AcDbArc
 50
90.00000000000019
 51
233.130102354156
  0
LINE
  5
B77
330
22
100
AcDbEntity
  8
0
100
AcDbLine
 10
1810.85670560491
 20
-261.126939506569
 30
0.0
 11
1814.60670566123
 21
-261.126939506569
 31
0.0
  0
LINE
  5
B78
330
22
100
AcDbEntity
  8
0
100
AcDbLine
 10
1810.85670560491
 20
-241.126939206199
 30
0.0
 11
1814.60670566123
 21
-241.126939206199
 31
0.0
  0
LINE
  5
B79
330
22
100
AcDbEntity
  8
0
100
AcDbLine
 10
1810.85670560491
 20
-263.626939544115
 30
0.0
 11
1814.60670566123
 21
-263.626939544115
 31
0.0
  0
LINE
  5
B7A
330
22
100
AcDbEntity
  8
0
100
AcDbLine
 10
1810.85670560491
 20
-238.626939168653
 30
0.0
 11
1814.60670566123
 21
-238.626939168653
 31
0.0
  0
ARC
  5
B7B
330
22
100
AcDbEntity
  8
AM_3 ( Verdeckt )
  6
AM_ISO02W050x2
100
AcDbCircle
 10
1812.92679492171
 20
-467.165486921054
 30
0.0
 40
50.00000075092461
100
AcDbArc
 50
132.94914495745
 51
141.987145499764
  0
ARC
  5
B7C
330
22
100
AcDbEntity
  8
0
100
AcDbCircle
 10
1812.9749253145
 20
-199.995655097381
 30
0.0
 40
1.250000018773109
100
AcDbArc
 50
18.4348810567411
 51
161.565127158135
  0
LINE
  5
B7D
330
22
100
AcDbEntity
  8
0
100
AcDbLine
 10
1812.9749253145
 20
-203.948502231957
 30
0.0
 11
1816.65730967807
 21
-214.995655322658
 31
0.0
  0
LINE
  5
B7E
330
22
100
AcDbEntity
  8
0
100
AcDbLine
 10
1812.9749253145
 20
-203.948502231957
 30
0.0
 11
1809.29254095093
 21
-214.995655322658
 31
0.0
  0
LINE
  5
B7F
330
22
100
AcDbEntity
  8
0
100
AcDbLine
 10
1809.29254095093
 20
-214.995655322658
 30
0.0
 11
1816.65730967807
 21
-214.995655322658
 31
0.0
  0
LINE
  5
B80
330
22
100
AcDbEntity
  8
0
100
AcDbLine
 10
1808.45920760508
 20
-217.495655360205
 30
0.0
 11
1817.49064302391
 21
-217.495655360205
 31
0.0
  0
ARC
  5
B81
330
22
100
AcDbEntity
  8
0
100
AcDbCircle
 10
1806.90385847033
 20
-259.876939487796
 30
0.0
 40
1.250000018773119
100
AcDbArc
 50
25.3769276100352
 51
205.376933525152
  0
LINE
  5
B82
330
22
100
AcDbEntity
  8
AM_3 ( Verdeckt )
  6
AM_ISO02W050x2
100
AcDbLine
 10
1850.51879548629
 20
-456.665486763359
 30
0.0
 11
1850.51879548629
 21
-484.665487168859
 31
0.0
  0
ARC
  5
B83
330
22
100
AcDbEntity
  8
0
100
AcDbCircle
 10
1810.85670560491
 20
-258.001939459636
 30
0.0
 40
5.625000084479018
100
AcDbArc
 50
205.376933525152
 51
270.0
  0
ARC
  5
B84
330
22
100
AcDbEntity
  8
0
100
AcDbCircle
 10
1810.85670560491
 20
-258.001939459636
 30
0.0
 40
3.12500004693279
100
AcDbArc
 50
205.376931159105
 51
270.0
  0
ARC
  5
B85
330
22
100
AcDbEntity
  8
0
100
AcDbCircle
 10
1814.60670566123
 20
-244.251939253132
 30
0.0
 40
5.625000084479018
100
AcDbArc
 50
25.3769335251523
 51
90.00000000000019
  0
LINE
  5
B86
330
22
100
AcDbEntity
  8
AM_3 ( Verdeckt )
  6
AM_ISO02W050x2
100
AcDbLine
 10
1739.42679381785
 20
-483.9548038281151
 30
0.0
 11
1739.42679381785
 21
-485.4548038506428
 31
0.0
  0
LINE
  5
B87
330
22
100
AcDbEntity
  8
AM_3 ( Verdeckt )
  6
AM_ISO02W050x2
100
AcDbLine
 10
1776.81379437935
 20
-445.1654865906458
 30
0.0
 11
1780.92679444112
 21
-441.0524865288746
 31
0.0
  0
LINE
  5
B88
330
22
100
AcDbEntity
  8
0
100
AcDbLine
 10
1806.96853248364
 20
-278.376939765638
 30
0.0
 11
1818.21853265259
 21
-278.376939765638
 31
0.0
  0
LINE
  5
B89
330
22
100
AcDbEntity
  8
AM_3 ( Verdeckt )
  6
AM_ISO02W050x2
100
AcDbLine
 10
1886.42679602557
 20
-483.9548038281151
 30
0.0
 11
1886.42679602557
 21
-485.4548038506428
 31
0.0
  0
LINE
  5
B8A
330
22
100
AcDbEntity
  8
0
100
AcDbLine
 10
1821.66077956751
 20
-222.10037072184
 30
0.0
 11
1814.16077992239
 21
-199.600371786484
 31
0.0
  0
LINE
  5
B8B
330
22
100
AcDbEntity
  8
0
100
AcDbLine
 10
1806.96853248364
 20
-303.3769401411
 30
0.0
 11
1806.96853248364
 21
-278.376939765638
 31
0.0
  0
LINE
  5
B8C
330
22
100
AcDbEntity
  8
0
100
AcDbLine
 10
1735.42679375778
 20
-485.4548038506428
 30
0.0
 11
1747.92679394551
 21
-485.4548038506428
 31
0.0
  0
ARC
  5
B8D
330
22
100
AcDbEntity
  8
AM_3 ( Verdeckt )
  6
AM_ISO02W050x2
100
AcDbCircle
 10
1779.8813711417
 20
-431.665486387897
 30
0.0
 40
1.500000022527735
100
AcDbArc
 50
89.9999999999996
 51
132.94918823362
  0
LINE
  5
B8E
330
22
100
AcDbEntity
  8
0
100
AcDbLine
 10
1747.92679394551
 20
-460.4548087016159
 30
0.0
 11
1849.03979546407
 21
-460.4548087016159
 31
0.0
  0
LINE
  5
B8F
330
22
100
AcDbEntity
  8
0
100
AcDbLine
 10
1812.92679492171
 20
-473.165487011165
 30
0.0
 11
1888.92679606312
 21
-473.165487011165
 31
0.0
  0
LINE
  5
B90
330
22
100
AcDbEntity
  8
0
100
AcDbLine
 10
1747.92679394551
 20
-485.4548038506428
 30
0.0
 11
1890.42679608564
 21
-485.4548038506428
 31
0.0
  0
LINE
  5
B91
330
22
100
AcDbEntity
  8
0
100
AcDbLine
 10
1817.49064302391
 20
-217.495655360205
 30
0.0
 11
1819.28907128676
 21
-222.890940148755
 31
0.0
  0
LINE
  5
B92
330
22
100
AcDbEntity
  8
0
100
AcDbLine
 10
1808.45920760508
 20
-217.495655360205
 30
0.0
 11
1806.66077934223
 21
-222.890940148755
 31
0.0
  0
LINE
  5
B93
330
22
100
AcDbEntity
  8
0
100
AcDbLine
 10
1804.28907106149
 20
-222.10037072184
 30
0.0
 11
1811.78907064993
 21
-199.600371956508
 31
0.0
  0
ARC
  5
B94
330
22
100
AcDbEntity
  8
0
100
AcDbCircle
 10
1820.47492542714
 20
-222.495655435296
 30
0.0
 40
1.250000018773119
100
AcDbArc
 50
198.434641464407
 51
18.4349488229215
  0
LINE
  5
B95
330
22
100
AcDbEntity
  8
0
100
AcDbLine
 10
1747.92679394551
 20
-473.165487011165
 30
0.0
 11
1812.92679492171
 21
-473.165487011165
 31
0.0
  0
LINE
  5
B96
330
22
100
AcDbEntity
  8
0
100
AcDbLine
 10
1830.88341097158
 20
-356.4486179552929
 30
0.0
 11
1847.47017966032
 21
-392.549232160199
 31
0.0
  0
ARC
  5
B97
330
22
100
AcDbEntity
  8
0
100
AcDbCircle
 10
1749.841198301
 20
-145.9548039783
 30
0.0
 40
1.500000022527735
100
AcDbArc
 50
10.6257474612805
 51
89.9999999999996
  0
LINE
  5
B98
330
22
100
AcDbEntity
  8
0
100
AcDbLine
 10
1796.92679468142
 20
-323.454806644081
 30
0.0
 11
1828.92679516201
 21
-323.454806644081
 31
0.0
  0
LINE
  5
B99
330
22
100
AcDbEntity
  8
0
100
AcDbLine
 10
1795.42679465889
 20
-331.454806764229
 30
0.0
 11
1795.42679465889
 21
-324.954806666609
 31
0.0
  0
LINE
  5
B9A
330
22
100
AcDbEntity
  8
0
100
AcDbLine
 10
1779.053652800689
 20
-331.454806764229
 30
0.0
 11
1793.28788589742
 21
-360.110079134916
 31
0.0
  0
ARC
  5
B9B
330
22
100
AcDbEntity
  8
0
100
AcDbCircle
 10
1835.42679525963
 20
-354.361117066187
 30
0.0
 40
5.00000007509246
100
AcDbArc
 50
180.0
 51
204.676863170337
  0
LINE
  5
B9C
330
22
100
AcDbEntity
  8
0
100
AcDbLine
 10
1746.92679393049
 20
-337.56481527725
 30
0.0
 11
1778.75220244123
 21
-391.774183777208
 31
0.0
  0
ARC
  5
B9D
330
22
100
AcDbEntity
  8
0
100
AcDbCircle
 10
1790.42679458379
 20
-354.361117066187
 30
0.0
 40
5.00000007509246
100
AcDbArc
 50
335.323136829663
 51
0.0000000000002036
  0
LINE
  5
B9E
330
22
100
AcDbEntity
  8
0
100
AcDbLine
 10
1795.42679465889
 20
-354.361117066187
 30
0.0
 11
1795.42679465889
 21
-331.454806764229
 31
0.0
  0
LINE
  5
B9F
330
22
100
AcDbEntity
  8
0
100
AcDbLine
 10
1812.92679492171
 20
-422.4548081309118
 30
0.0
 11
1858.92679561256
 21
-422.4548081309118
 31
0.0
  0
ARC
  5
BA0
330
22
100
AcDbEntity
  8
0
100
AcDbCircle
 10
1849.49730361046
 20
-476.1852907158131
 30
0.0
 40
9.8
100
AcDbArc
 50
251.0617116433341
 51
288.938288356666
  0
LINE
  5
BA1
330
22
100
AcDbEntity
  8
0
100
AcDbLine
 10
1861.92679565762
 20
-449.454808536411
 30
0.0
 11
1861.92679565762
 21
-425.454808175968
 31
0.0
  0
LINE
  5
BA2
330
22
100
AcDbEntity
  8
0
100
AcDbLine
 10
1763.92679418581
 20
-449.454808536411
 30
0.0
 11
1763.92679418581
 21
-425.454808175968
 31
0.0
  0
ARC
  5
BA3
330
22
100
AcDbEntity
  8
0
100
AcDbCircle
 10
1818.5595527958
 20
-242.376939224972
 30
0.0
 40
1.250000018773119
100
AcDbArc
 50
205.376927610035
 51
25.376933525152
  0
LINE
  5
BA4
330
22
100
AcDbEntity
  8
0
100
AcDbLine
 10
1849.03979546407
 20
-460.4548087016159
 30
0.0
 11
1888.92679606312
 21
-460.4548087016159
 31
0.0
  0
LINE
  5
BA5
330
22
100
AcDbEntity
  8
0
100
AcDbLine
 10
1778.3834101831
 20
-392.5492321602011
 30
0.0
 11
1794.97017887185
 21
-356.4486179552929
 31
0.0
  0
LINE
  5
BA6
330
22
100
AcDbEntity
  8
0
100
AcDbLine
 10
1890.42679608564
 20
-458.9548086790879
 30
0.0
 11
1890.42679608564
 21
-453.954808603995
 31
0.0
  0
LINE
  5
BA7
330
22
100
AcDbEntity
  8
0
100
AcDbLine
 10
1735.42679375778
 20
-458.9548086790879
 30
0.0
 11
1735.42679375778
 21
-453.954808603995
 31
0.0
  0
LINE
  5
BA8
330
22
100
AcDbEntity
  8
0
100
AcDbLine
 10
1777.92679439606
 20
-419.4548080858568
 30
0.0
 11
1777.92679439606
 21
-394.636733049306
 31
0.0
  0
ARC
  5
BA9
330
22
100
AcDbEntity
  8
0
100
AcDbCircle
 10
-1840.99730361046
 20
-476.1852907158131
 30
0.0
 40
9.8
210
0.0
220
0.0
230
-1.0
100
AcDbArc
 50
251.0617116433341
 51
288.938288356666
  0
LINE
  5
BAA
330
22
100
AcDbEntity
  8
0
100
AcDbLine
 10
1851.80284235112
 20
-331.454806764229
 30
0.0
 11
1851.80284235112
 21
-335.471726059031
 31
0.0
  0
ARC
  5
BAB
330
22
100
AcDbEntity
  8
0
100
AcDbCircle
 10
-1738.84476184699
 20
-314.954806516424
 30
0.0
 40
1.500000022527735
210
0.0
220
0.0
230
-1.0
100
AcDbArc
 50
198.024302198111
 51
270.0
  0
LINE
  5
BAC
330
22
100
AcDbEntity
  8
0
100
AcDbLine
 10
1736.92679378031
 20
-460.4548087016159
 30
0.0
 11
1747.92679394551
 21
-460.4548087016159
 31
0.0
  0
LINE
  5
BAD
330
22
100
AcDbEntity
  8
AM_3 ( Verdeckt )
  6
AM_ISO02W050x2
100
AcDbLine
 10
1739.42679381785
 20
-483.9548038281151
 30
0.0
 11
1886.42679602557
 21
-483.9548038281151
 31
0.0
  0
LINE
  5
BAE
102
{ACAD_REACTORS
330
D15
102
}
330
22
100
AcDbEntity
  8
0
100
AcDbLine
 10
1876.92679588289
 20
-144.454803955772
 30
0.0
 11
1876.92679588289
 21
-139.45480388068
 31
0.0
  0
LINE
  5
BAF
102
{ACAD_REACTORS
330
D15
102
}
330
22
100
AcDbEntity
  8
0
100
AcDbLine
 10
1748.92679396053
 20
-144.454803955772
 30
0.0
 11
1748.92679396053
 21
-139.45480388068
 31
0.0
  0
LINE
  5
BB0
330
22
100
AcDbEntity
  8
0
100
AcDbLine
 10
1830.42679518453
 20
-354.361117066187
 30
0.0
 11
1830.42679518453
 21
-331.454806764229
 31
0.0
  0
LINE
  5
BB1
330
22
100
AcDbEntity
  8
0
100
AcDbLine
 10
1846.79993704273
 20
-331.454806764229
 30
0.0
 11
1832.565703946
 21
-360.110079134916
 31
0.0
  0
ARC
  5
BB2
330
22
100
AcDbEntity
  8
0
100
AcDbCircle
 10
1760.92679414075
 20
-449.454808536411
 30
0.0
 40
3.000000045055478
100
AcDbArc
 50
270.0
 51
0.0000000000002036
  0
ARC
  5
BB3
330
22
100
AcDbEntity
  8
0
100
AcDbCircle
 10
1766.92679423086
 20
-425.454808175968
 30
0.0
 40
3.000000045055478
100
AcDbArc
 50
90.00000000000019
 51
180.0
  0
ARC
  5
BB4
330
22
100
AcDbEntity
  8
0
100
AcDbCircle
 10
1858.92679561256
 20
-425.454808175968
 30
0.0
 40
3.000000045055478
100
AcDbArc
 50
0.0000000000001908
 51
90.00000000000019
  0
ARC
  5
BB5
330
22
100
AcDbEntity
  8
0
100
AcDbCircle
 10
1864.92679570267
 20
-449.454808536411
 30
0.0
 40
3.000000045055478
100
AcDbArc
 50
180.0
 51
270.0
  0
ARC
  5
BB6
330
22
100
AcDbEntity
  8
0
100
AcDbCircle
 10
1888.92679606312
 20
-458.9548086790879
 30
0.0
 40
1.500000022527735
100
AcDbArc
 50
270.0
 51
0.0000000000002036
  0
ARC
  5
BB7
330
22
100
AcDbEntity
  8
0
100
AcDbCircle
 10
1888.92679606312
 20
-453.954808603995
 30
0.0
 40
1.500000022527735
100
AcDbArc
 50
0.0000000000001908
 51
90.00000000000019
  0
ARC
  5
BB8
330
22
100
AcDbEntity
  8
0
100
AcDbCircle
 10
1736.92679378031
 20
-453.954808603995
 30
0.0
 40
1.500000022527735
100
AcDbArc
 50
90.00000000000019
 51
180.0
  0
ARC
  5
BB9
330
22
100
AcDbEntity
  8
0
100
AcDbCircle
 10
1736.92679378031
 20
-458.9548086790879
 30
0.0
 40
1.500000022527735
100
AcDbArc
 50
180.0
 51
270.0
  0
LINE
  5
BBA
330
22
100
AcDbEntity
  8
0
100
AcDbLine
 10
1774.0507474923
 20
-335.471726059031
 30
0.0
 11
1789.97342081889
 21
-367.323914894086
 31
0.0
  0
LINE
  5
BBB
330
22
100
AcDbEntity
  8
0
100
AcDbLine
 10
1793.016452507
 20
-331.454806764229
 30
0.0
 11
1795.42679465889
 21
-336.190794293292
 31
0.0
  0
ARC
  5
BBC
330
22
100
AcDbEntity
  8
0
100
AcDbCircle
 10
1796.92679468142
 20
-324.954806666609
 30
0.0
 40
1.500000022527735
100
AcDbArc
 50
90.00000000000019
 51
180.0
  0
ARC
  5
BBD
330
22
100
AcDbEntity
  8
0
100
AcDbCircle
 10
-1876.01239154242
 20
-145.9548039783
 30
0.0
 40
1.500000022527735
210
0.0
220
0.0
230
-1.0
100
AcDbArc
 50
10.625747461281
 51
90.0
  0
LINE
  5
BBE
330
22
100
AcDbEntity
  8
AM_2 ( Kontur 0.25)
100
AcDbLine
 10
1833.59465852334
 20
-176.942457297066
 30
0.0
 11
1899.32207260679
 21
-176.942457297066
 31
0.0
  0
LINE
  5
BBF
330
22
100
AcDbEntity
  8
AM_2 ( Kontur 0.25)
100
AcDbLine
 10
1747.66862266562
 20
-172.45480437629
 30
0.0
 11
1909.06838758306
 21
-172.45480437629
 31
0.0
  0
LINE
  5
BC0
330
22
100
AcDbEntity
  8
AM_7 (Mittellinie)
  6
AM_ISO08W050x2
100
AcDbLine
 10
1812.92679492171
 20
-462.3786902847609
 30
0.0
 11
1839.33633326911
 21
-160.516285682235
 31
0.0
  0
LINE
  5
BC1
330
22
100
AcDbEntity
  8
AM_7 (Mittellinie)
  6
AM_ISO08W050x2
100
AcDbLine
 10
1812.92679492171
 20
-462.3786902847609
 30
0.0
 11
1786.95216961698
 21
-165.487364507059
 31
0.0
  0
LINE
  5
BC4
330
22
100
AcDbEntity
  8
AM_3 ( Verdeckt )
  6
AM_ISO02W050x2
100
AcDbLine
 10
1745.57679394551
 20
-631.193993293823
 30
0.0
 11
1750.27679394551
 21
-631.193993293823
 31
0.0
  0
CIRCLE
  5
BC5
330
22
100
AcDbEntity
  8
0
100
AcDbCircle
 10
1812.92679492171
 20
-627.1236738960356
 30
0.0
 40
77.5000011639322
  0
LINE
  5
BC6
330
22
100
AcDbEntity
  8
AM_7 (Mittellinie)
  6
AM_ISO08W050x2
100
AcDbLine
 10
1851.62828651092
 20
-560.09072413482
 30
0.0
 11
1839.40505767395
 21
-581.261977513
 31
0.0
  0
CIRCLE
  5
BC7
330
22
100
AcDbEntity
  8
0
100
AcDbCircle
 10
1812.92679492171
 20
-627.1236738960356
 30
0.0
 40
75.00000112638601
  0
LINE
  5
BC8
330
22
100
AcDbEntity
  8
AM_3 ( Verdeckt )
  6
AM_ISO02W050x2
100
AcDbLine
 10
1840.72679540981
 20
-570.8320218046321
 30
0.0
 11
1843.07679540981
 21
-574.9023412024189
 31
0.0
  0
LINE
  5
BC9
330
22
100
AcDbEntity
  8
AM_7 (Mittellinie)
  6
AM_ISO08W050x2
100
AcDbLine
 10
1747.92679394551
 20
-639.796286146134
 30
0.0
 11
1747.92679394551
 21
-614.990321741687
 31
0.0
  0
LINE
  5
BCA
330
22
100
AcDbEntity
  8
AM_3 ( Verdeckt )
  6
AM_ISO02W050x2
100
AcDbLine
 10
1750.27679394551
 20
-631.193993293823
 30
0.0
 11
1752.62679394551
 21
-627.1236738960356
 31
0.0
  0
LINE
  5
BCB
330
22
100
AcDbEntity
  8
AM_3 ( Verdeckt )
  6
AM_ISO02W050x2
100
AcDbLine
 10
1752.62679394551
 20
-627.1236738960356
 30
0.0
 11
1750.27679394551
 21
-623.0533544982489
 31
0.0
  0
LINE
  5
BCC
330
22
100
AcDbEntity
  8
AM_7 (Mittellinie)
  6
AM_ISO08W050x2
100
AcDbLine
 10
1721.93654192148
 20
-627.1236738960356
 30
0.0
 11
1898.63004282336
 21
-627.1236738960356
 31
0.0
  0
LINE
  5
BCD
330
22
100
AcDbEntity
  8
0
100
AcDbLine
 10
1766.54813121933
 20
-634.6236738960357
 30
0.0
 11
1785.26201931246
 21
-634.6236738960357
 31
0.0
  0
ARC
  5
BCE
330
22
100
AcDbEntity
  8
0
100
AcDbCircle
 10
1812.92679492171
 20
-627.1236738960356
 30
0.0
 40
37.0
100
AcDbArc
 50
11.695050402584
 51
48.3049495974162
  0
LINE
  5
BCF
330
22
100
AcDbEntity
  8
0
100
AcDbLine
 10
1785.26201931246
 20
-634.6236738960357
 30
0.0
 11
1785.26201931246
 21
-619.6236738960357
 31
0.0
  0
LINE
  5
BD0
330
22
100
AcDbEntity
  8
0
100
AcDbLine
 10
1805.58959764547
 20
-654.832072363646
 30
0.0
 11
1792.5992165887
 21
-647.332072363646
 31
0.0
  0
LINE
  5
BD1
330
22
100
AcDbEntity
  8
0
100
AcDbLine
 10
1796.23265359891
 20
-671.038774855871
 30
0.0
 11
1805.58959764547
 21
-654.832072363646
 31
0.0
  0
LINE
  5
BD2
330
22
100
AcDbEntity
  8
0
100
AcDbLine
 10
1783.24227254214
 20
-663.5387748558708
 30
0.0
 11
1792.5992165887
 21
-647.332072363646
 31
0.0
  0
LINE
  5
BD3
330
22
100
AcDbEntity
  8
0
100
AcDbLine
 10
1833.25437325472
 20
-647.332072363646
 30
0.0
 11
1820.26399219795
 21
-654.832072363646
 31
0.0
  0
LINE
  5
BD4
330
22
100
AcDbEntity
  8
0
100
AcDbLine
 10
1842.61131730128
 20
-663.5387748558708
 30
0.0
 11
1833.25437325472
 21
-647.332072363646
 31
0.0
  0
LINE
  5
BD5
330
22
100
AcDbEntity
  8
0
100
AcDbLine
 10
1829.62093624452
 20
-671.038774855871
 30
0.0
 11
1820.26399219795
 21
-654.832072363646
 31
0.0
  0
LINE
  5
BD6
330
22
100
AcDbEntity
  8
0
100
AcDbLine
 10
1840.59157053097
 20
-619.6236738960357
 30
0.0
 11
1840.59157053097
 21
-634.6236738960357
 31
0.0
  0
LINE
  5
BD7
330
22
100
AcDbEntity
  8
0
100
AcDbLine
 10
1859.30545862409
 20
-619.6236738960357
 30
0.0
 11
1840.59157053097
 21
-619.6236738960357
 31
0.0
  0
LINE
  5
BD8
330
22
100
AcDbEntity
  8
0
100
AcDbLine
 10
1859.30545862409
 20
-634.6236738960357
 30
0.0
 11
1840.59157053097
 21
-634.6236738960357
 31
0.0
  0
LINE
  5
BD9
330
22
100
AcDbEntity
  8
0
100
AcDbLine
 10
1820.26399219795
 20
-599.4152754284259
 30
0.0
 11
1833.25437325472
 21
-606.9152754284259
 31
0.0
  0
LINE
  5
BDA
330
22
100
AcDbEntity
  8
0
100
AcDbLine
 10
1829.62093624452
 20
-583.208572936201
 30
0.0
 11
1820.26399219795
 21
-599.4152754284259
 31
0.0
  0
LINE
  5
BDB
330
22
100
AcDbEntity
  8
0
100
AcDbLine
 10
1842.61131730128
 20
-590.708572936201
 30
0.0
 11
1833.25437325472
 21
-606.9152754284259
 31
0.0
  0
LINE
  5
BDC
330
22
100
AcDbEntity
  8
0
100
AcDbLine
 10
1792.5992165887
 20
-606.9152754284259
 30
0.0
 11
1805.58959764547
 21
-599.4152754284259
 31
0.0
  0
LINE
  5
BDD
330
22
100
AcDbEntity
  8
0
100
AcDbLine
 10
1783.24227254214
 20
-590.708572936201
 30
0.0
 11
1792.5992165887
 21
-606.9152754284259
 31
0.0
  0
LINE
  5
BDE
330
22
100
AcDbEntity
  8
0
100
AcDbLine
 10
1796.23265359891
 20
-583.208572936201
 30
0.0
 11
1805.58959764547
 21
-599.4152754284259
 31
0.0
  0
CIRCLE
  5
BDF
330
22
100
AcDbEntity
  8
0
100
AcDbCircle
 10
1812.92679492171
 20
-627.1236738960356
 30
0.0
 40
46.9811711946217
  0
ARC
  5
BE0
330
22
100
AcDbEntity
  8
0
100
AcDbCircle
 10
1812.92679492171
 20
-627.1236738960356
 30
0.0
 40
37.0
100
AcDbArc
 50
71.6950504025842
 51
108.304949597416
  0
ARC
  5
BE1
330
22
100
AcDbEntity
  8
0
100
AcDbCircle
 10
1812.92679492171
 20
-627.1236738960356
 30
0.0
 40
37.0
100
AcDbArc
 50
131.695050402584
 51
168.304949597416
  0
ARC
  5
BE2
330
22
100
AcDbEntity
  8
0
100
AcDbCircle
 10
1812.92679492171
 20
-627.1236738960356
 30
0.0
 40
37.0
100
AcDbArc
 50
191.695050402584
 51
228.304949597416
  0
ARC
  5
BE3
330
22
100
AcDbEntity
  8
0
100
AcDbCircle
 10
1812.92679492171
 20
-627.1236738960356
 30
0.0
 40
37.0
100
AcDbArc
 50
251.695050402584
 51
288.304949597416
  0
ARC
  5
BE4
330
22
100
AcDbEntity
  8
0
100
AcDbCircle
 10
1812.92679492171
 20
-627.1236738960356
 30
0.0
 40
37.0
100
AcDbArc
 50
311.695050402584
 51
348.304949597416
  0
CIRCLE
  5
BE5
330
22
100
AcDbEntity
  8
0
100
AcDbCircle
 10
1812.92679492171
 20
-627.1236738960356
 30
0.0
 40
15.0
  0
CIRCLE
  5
BE6
330
22
100
AcDbEntity
  8
0
100
AcDbCircle
 10
1812.92679492171
 20
-627.1236738960356
 30
0.0
 40
7.5
  0
CIRCLE
  5
BE7
330
22
100
AcDbEntity
  8
0
100
AcDbCircle
 10
1812.92679492171
 20
-627.1236738960356
 30
0.0
 40
55.3199354076058
  0
CIRCLE
  5
BE8
330
22
100
AcDbEntity
  8
0
100
AcDbCircle
 10
1812.92679492171
 20
-627.1236738960356
 30
0.0
 40
65.5125366115735
  0
LINE
  5
BE9
330
22
100
AcDbEntity
  8
AM_3 ( Verdeckt )
  6
AM_ISO02W050x2
100
AcDbLine
 10
1750.27679394551
 20
-623.0533544982489
 30
0.0
 11
1745.57679394551
 21
-623.0533544982489
 31
0.0
  0
LINE
  5
BEA
330
22
100
AcDbEntity
  8
AM_3 ( Verdeckt )
  6
AM_ISO02W050x2
100
AcDbLine
 10
1745.57679394551
 20
-623.0533544982489
 30
0.0
 11
1743.22679394551
 21
-627.1236738960356
 31
0.0
  0
LINE
  5
BEB
330
22
100
AcDbEntity
  8
AM_3 ( Verdeckt )
  6
AM_ISO02W050x2
100
AcDbLine
 10
1743.22679394551
 20
-627.1236738960356
 30
0.0
 11
1745.57679394551
 21
-631.193993293823
 31
0.0
  0
LINE
  5
BEC
330
22
100
AcDbEntity
  8
AM_3 ( Verdeckt )
  6
AM_ISO02W050x2
100
AcDbLine
 10
1843.07679540981
 20
-566.7617024068447
 30
0.0
 11
1840.72679540981
 21
-570.8320218046321
 31
0.0
  0
LINE
  5
BED
330
22
100
AcDbEntity
  8
AM_7 (Mittellinie)
  6
AM_ISO08W050x2
100
AcDbLine
 10
1735.52381174329
 20
-627.1236738960356
 30
0.0
 11
1759.97026941723
 21
-627.1236738960356
 31
0.0
  0
CIRCLE
  5
BEE
330
22
100
AcDbEntity
  8
AM_3 ( Verdeckt )
  6
AM_ISO02W050x2
100
AcDbCircle
 10
1747.92679394551
 20
-627.1236738960356
 30
0.0
 40
8.0
  0
LINE
  5
BEF
330
22
100
AcDbEntity
  8
AM_7 (Mittellinie)
  6
AM_ISO08W050x2
100
AcDbLine
 10
1834.45199126892
 20
-564.495715679583
 30
0.0
 11
1855.93458660854
 21
-576.898697881807
 31
0.0
  0
CIRCLE
  5
BF0
330
22
100
AcDbEntity
  8
AM_3 ( Verdeckt )
  6
AM_ISO02W050x2
100
AcDbCircle
 10
1845.42679540981
 20
-570.8320218046321
 30
0.0
 40
8.0
  0
LINE
  5
BF1
330
22
100
AcDbEntity
  8
0
100
AcDbLine
 10
1766.54813121933
 20
-619.6236738960357
 30
0.0
 11
1785.26201931246
 21
-619.6236738960357
 31
0.0
  0
LINE
  5
BF2
330
22
100
AcDbEntity
  8
AM_3 ( Verdeckt )
  6
AM_ISO02W050x2
100
AcDbLine
 10
1843.07679540981
 20
-679.345006589653
 30
0.0
 11
1840.72679540981
 21
-683.41532598744
 31
0.0
  0
LINE
  5
BF3
330
22
100
AcDbEntity
  8
AM_3 ( Verdeckt )
  6
AM_ISO02W050x2
100
AcDbLine
 10
1840.72679540981
 20
-683.41532598744
 30
0.0
 11
1843.07679540981
 21
-687.485645385227
 31
0.0
  0
LINE
  5
BF4
330
22
100
AcDbEntity
  8
AM_3 ( Verdeckt )
  6
AM_ISO02W050x2
100
AcDbLine
 10
1843.07679540981
 20
-687.485645385227
 30
0.0
 11
1847.77679540981
 21
-687.485645385227
 31
0.0
  0
LINE
  5
BF5
330
22
100
AcDbEntity
  8
AM_3 ( Verdeckt )
  6
AM_ISO02W050x2
100
AcDbLine
 10
1847.77679540981
 20
-687.485645385227
 30
0.0
 11
1850.12679540981
 21
-683.41532598744
 31
0.0
  0
LINE
  5
BF6
330
22
100
AcDbEntity
  8
AM_3 ( Verdeckt )
  6
AM_ISO02W050x2
100
AcDbLine
 10
1850.12679540981
 20
-683.41532598744
 30
0.0
 11
1847.77679540981
 21
-679.345006589653
 31
0.0
  0
LINE
  5
BF7
330
22
100
AcDbEntity
  8
AM_3 ( Verdeckt )
  6
AM_ISO02W050x2
100
AcDbLine
 10
1847.77679540981
 20
-679.345006589653
 30
0.0
 11
1843.07679540981
 21
-679.345006589653
 31
0.0
  0
LINE
  5
BF8
330
22
100
AcDbEntity
  8
AM_7 (Mittellinie)
  6
AM_ISO08W050x2
100
AcDbLine
 10
1851.62828651092
 20
-694.1566236572517
 30
0.0
 11
1839.40505767395
 21
-672.9853702790721
 31
0.0
  0
CIRCLE
  5
BF9
330
22
100
AcDbEntity
  8
AM_3 ( Verdeckt )
  6
AM_ISO02W050x2
100
AcDbCircle
 10
1845.42679540981
 20
-683.41532598744
 30
0.0
 40
8.0
  0
LINE
  5
BFA
330
22
100
AcDbEntity
  8
AM_7 (Mittellinie)
  6
AM_ISO08W050x2
100
AcDbLine
 10
1856.40159955071
 20
-677.079019862391
 30
0.0
 11
1834.91900421108
 21
-689.482002064615
 31
0.0
  0
LINE
  5
BFB
330
22
100
AcDbEntity
  8
AM_3 ( Verdeckt )
  6
AM_ISO02W050x2
100
AcDbLine
 10
1843.07679540981
 20
-574.9023412024189
 30
0.0
 11
1847.77679540981
 21
-574.9023412024189
 31
0.0
  0
LINE
  5
BFC
330
22
100
AcDbEntity
  8
AM_3 ( Verdeckt )
  6
AM_ISO02W050x2
100
AcDbLine
 10
1847.77679540981
 20
-574.9023412024189
 30
0.0
 11
1850.12679540981
 21
-570.8320218046321
 31
0.0
  0
LINE
  5
BFD
330
22
100
AcDbEntity
  8
AM_3 ( Verdeckt )
  6
AM_ISO02W050x2
100
AcDbLine
 10
1850.12679540981
 20
-570.8320218046321
 30
0.0
 11
1847.77679540981
 21
-566.7617024068447
 31
0.0
  0
LINE
  5
BFE
330
22
100
AcDbEntity
  8
AM_3 ( Verdeckt )
  6
AM_ISO02W050x2
100
AcDbLine
 10
1847.77679540981
 20
-566.7617024068447
 30
0.0
 11
1843.07679540981
 21
-566.7617024068447
 31
0.0
  0
LINE
  5
BFF
330
22
100
AcDbEntity
  8
AM_7 (Mittellinie)
  6
AM_ISO08W050x2
100
AcDbLine
 10
1812.92679492171
 20
-718.1187037611898
 30
0.0
 11
1812.92679492171
 21
-537.692358251295
 31
0.0
  0
DIMENSION
  5
D05
102
{ACAD_XDICTIONARY
360
D14
102
}
102
{ACAD_REACTORS
330
D15
102
}
330
22
100
AcDbEntity
  8
AM_5 ( Bemassung)
100
AcDbDimension
  2
*D6
 10
1876.92679588289
 20
-74.56220842190169
 30
0.0
 11
1812.00107726658
 21
-74.56220842190169
 31
0.0
 70
   160
  1
%%c <>
 71
     5
 42
128.0000019223596
  3
AM_DIN$0
100
AcDbAlignedDimension
 13
1748.92679396053
 23
-139.45480388068
 33
0.0
 14
1876.92679588289
 24
-139.45480388068
 34
0.0
100
AcDbRotatedDimension
1001
ACAD
1000
DSTYLE
1002
{
1070
   271
1070
     0
1070
   178
1070
     2
1070
   147
1040
0.1
1070
   140
1040
0.5
1070
    44
1040
0.1
1070
    41
1040
0.5
1070
    40
1040
20.0
1002
}
1001
ACAD_DSTYLE_DIMINSPECT
1070
   396
1000
100%
1070
   395
1000

1070
   394
1070
    33
1070
   393
1070
     0
  0
DIMENSION
  5
E1D
102
{ACAD_XDICTIONARY
360
E2C
102
}
102
{ACAD_REACTORS
330
E2D
102
}
330
22
100
AcDbEntity
  8
AM_5 ( Bemassung)
100
AcDbDimension
  2
*D7
 10
1887.9267960481
 20
-52.47115729644383
 30
0.0
 11
1810.317265638323
 21
-52.47115729644383
 31
0.0
 70
   160
  1
%%c <>
 71
     5
 42
150.0000022527697
  3
AM_DIN$0
100
AcDbAlignedDimension
 13
1737.92679379533
 23
-316.454806538952
 33
0.0
 14
1887.9267960481
 24
-316.454806538952
 34
0.0
 50
0.0000000000000114
100
AcDbRotatedDimension
1001
ACAD
1000
DSTYLE
1002
{
1070
    40
1040
20.0
1070
    41
1040
0.5
1070
    44
1040
0.1
1070
   140
1040
0.5
1070
   147
1040
0.1
1070
   271
1070
     0
1002
}
1001
ACAD_DSTYLE_DIMINSPECT
1070
   396
1000
100%
1070
   395
1000

1070
   394
1070
    33
1070
   393
1070
     0
  0
DIMENSION
  5
E72
330
22
100
AcDbEntity
  8
AM_5 ( Bemassung)
100
AcDbDimension
  2
*D8
 10
1850.51879548629
 20
-508.96893633035
 30
0.0
 11
1812.470946544619
 21
-508.96893633035
 31
0.0
 70
   160
  1
G2 1/2
 71
     5
 42
75.18400112915014
  3
AM_DIN$0
100
AcDbAlignedDimension
 13
1775.33479435714
 23
-482.9548038281151
 33
0.0
 14
1850.51879548629
 24
-483.9548038281151
 34
0.0
 50
0.0000000000001145
100
AcDbRotatedDimension
1001
ACAD
1000
DSTYLE
1002
{
1070
    40
1040
20.0
1070
    41
1040
0.5
1070
    44
1040
0.1
1070
   140
1040
0.5
1070
   147
1040
0.1
1070
   271
1070
     0
1002
}
1001
ACAD_DSTYLE_DIMINSPECT
1070
   396
1000
100%
1070
   395
1000

1070
   394
1070
    33
1070
   393
1070
     0
  0
LINE
  5
1060
102
{ACAD_REACTORS
330
1083
102
}
330
22
100
AcDbEntity
  8
AM_3 ( Verdeckt )
  6
AM_ISO02W050x2
100
AcDbLine
 10
1754.42679492171
 20
-137.454803850643
 30
0.0
 11
1754.42679492171
 21
-144.454803955772
 31
0.0
  0
LINE
  5
1061
102
{ACAD_REACTORS
330
1083
102
}
330
22
100
AcDbEntity
  8
AM_3 ( Verdeckt )
  6
AM_ISO02W050x2
100
AcDbLine
 10
1871.42679492171
 20
-137.454803850643
 30
0.0
 11
1871.42679492171
 21
-144.454803955772
 31
0.0
  0
DIMENSION
  5
1074
102
{ACAD_XDICTIONARY
360
1082
102
}
102
{ACAD_REACTORS
330
1083
102
}
330
22
100
AcDbEntity
  8
AM_5 ( Bemassung)
100
AcDbDimension
  2
*D9
 10
1871.42679492171
 20
-98.54677906166376
 30
0.0
 11
1812.632507238982
 21
-98.54677906166376
 31
0.0
 70
   160
  1
%%c <>
 71
     5
 42
117.0000000000002
  3
AM_DIN$0
100
AcDbAlignedDimension
 13
1754.42679492171
 23
-137.454803850643
 33
0.0
 14
1871.42679492171
 24
-137.454803850643
 34
0.0
100
AcDbRotatedDimension
1001
ACAD
1000
DSTYLE
1002
{
1070
    40
1040
20.0
1070
    41
1040
0.5
1070
    44
1040
0.1
1070
   140
1040
0.5
1070
   147
1040
0.1
1070
   271
1070
     0
1002
}
1001
ACAD_DSTYLE_DIMINSPECT
1070
   396
1000
100%
1070
   395
1000

1070
   394
1070
    33
1070
   393
1070
     0
  0
INSERT
  5
122C
330
22
100
AcDbEntity
  8
AM_12 ( Teile Referenz)
100
AcDbBlockReference
  2
*S6110
 10
0.0
 20
0.0
 30
0.0
  0
INSERT
  5
122F
330
22
100
AcDbEntity
  8
AM_12 ( Teile Referenz)
100
AcDbBlockReference
  2
*S6211
 10
0.0
 20
0.0
 30
0.0
  0
ENDSEC
  0
SECTION
  2
OBJECTS
  0
DICTIONARY
  5
C
330
0
100
AcDbDictionary
281
     1
  3
ACAD_2007HEADERVARS_RT
350
13AE
  3
ACAD_CIP_PREVIOUS_PRODUCT_INFO
350
133D
  3
ACAD_COLOR
350
1B
  3
ACAD_GROUP
350
D
  3
ACAD_LAYOUT
350
19
  3
ACAD_MATERIAL
350
1A
  3
ACAD_MLEADERSTYLE
350
A3B
  3
ACAD_MLINESTYLE
350
16
  3
ACAD_PLOTSETTINGS
350
18
  3
ACAD_PLOTSTYLENAME
350
E
  3
ACAD_SCALELIST
350
A19
  3
ACAD_TABLESTYLE
350
1C
  3
ACAD_VISUALSTYLE
350
A08
  3
ACDB_RECOMPOSE_DATA
350
13AC
  3
AcDbVariableDictionary
350
98A
  3
AcmDictionary
350
A9B
  3
AMG
350
A41
  3
AMGSNAPSETTINGS
350
AD0
  3
ASE_INDEX_DICTIONARY
350
10C6
  3
DWGPROPS
350
13AD
  0
DICTIONARY
  5
1226
330
2
100
AcDbDictionary
280
     1
281
     1
  3
AMLAYER_GROUPCOLORS
360
1227
  0
DICTIONARY
  5
F0E
330
10
100
AcDbDictionary
280
     1
281
     1
  3
ADSK_XREC_LAYER_RECONCILED
360
F0F
  0
DICTIONARY
  5
CC0
330
CBF
100
AcDbDictionary
280
     1
281
     1
  3
ADSK_XREC_LAYER_RECONCILED
360
CC1
  0
DICTIONARY
  5
F24
330
CC5
100
AcDbDictionary
280
     1
281
     1
  3
ADSK_XREC_LAYER_RECONCILED
360
F25
  0
DICTIONARY
  5
F26
330
CC7
100
AcDbDictionary
280
     1
281
     1
  3
ADSK_XREC_LAYER_RECONCILED
360
F27
  0
DICTIONARY
  5
F2A
330
D03
100
AcDbDictionary
280
     1
281
     1
  3
ADSK_XREC_LAYER_RECONCILED
360
F2B
  0
DICTIONARY
  5
BC2
330
22
100
AcDbDictionary
280
     1
281
     1
  3
ACAD_SORTENTS
360
BC3
  0
DICTIONARY
  5
D14
330
D05
100
AcDbDictionary
280
     1
281
     1
  3
ACAD_DIMASSOC
360
D15
  0
DICTIONARY
  5
E2C
330
E1D
100
AcDbDictionary
280
     1
281
     1
  3
ACAD_DIMASSOC
360
E2D
  0
DICTIONARY
  5
1082
330
1074
100
AcDbDictionary
280
     1
281
     1
  3
ACAD_DIMASSOC
360
1083
  0
DICTIONARY
  5
13AE
102
{ACAD_REACTORS
330
C
102
}
330
C
100
AcDbDictionary
281
     1
  3
DIMARCSYM
350
13AF
  0
XRECORD
  5
133D
102
{ACAD_REACTORS
330
C
102
}
330
C
100
AcDbXrecord
280
     1
300
AMECH_PP
300
2012
300
PDSP_F_S
  0
DICTIONARY
  5
1B
102
{ACAD_REACTORS
330
C
102
}
330
C
100
AcDbDictionary
281
     1
  0
DICTIONARY
  5
D
102
{ACAD_REACTORS
330
C
102
}
330
C
100
AcDbDictionary
281
     1
  0
DICTIONARY
  5
19
102
{ACAD_REACTORS
330
C
102
}
330
C
100
AcDbDictionary
281
     1
  3
Layout1
350
21
  3
Model
350
25
  0
DICTIONARY
  5
1A
102
{ACAD_REACTORS
330
C
102
}
330
C
100
AcDbDictionary
281
     1
  3
ByBlock
350
9F8
  3
ByLayer
350
9F0
  3
Global
350
A00
  0
DICTIONARY
  5
A3B
102
{ACAD_REACTORS
330
C
102
}
330
C
100
AcDbDictionary
281
     1
  3
Standard
350
A3C
  0
DICTIONARY
  5
16
102
{ACAD_REACTORS
330
C
102
}
330
C
100
AcDbDictionary
281
     1
  3
Standard
350
17
  0
DICTIONARY
  5
18
102
{ACAD_REACTORS
330
C
102
}
330
C
100
AcDbDictionary
281
     1
  0
ACDBDICTIONARYWDFLT
  5
E
102
{ACAD_REACTORS
330
C
102
}
330
C
100
AcDbDictionary
281
     1
  3
Normal
350
F
100
AcDbDictionaryWithDefault
340
F
  0
DICTIONARY
  5
A19
102
{ACAD_REACTORS
330
C
102
}
330
C
100
AcDbDictionary
281
     1
  3
A0
350
A1A
  3
A1
350
A1B
  3
A2
350
A1C
  3
A3
350
A1D
  3
A4
350
A1E
  3
A5
350
A1F
  3
A6
350
A20
  3
A7
350
A21
  3
A8
350
A22
  3
A9
350
A23
  3
B0
350
A24
  3
B1
350
A25
  3
B2
350
A26
  3
B3
350
A27
  3
B4
350
A28
  3
B5
350
A29
  3
B6
350
A2A
  3
B7
350
A2B
  3
B8
350
A2C
  3
B9
350
A2D
  3
C0
350
A2E
  3
C1
350
A2F
  3
C2
350
A30
  3
C3
350
A31
  3
C4
350
A32
  3
C5
350
A33
  3
C6
350
A34
  3
C7
350
A35
  3
C8
350
A36
  3
C9
350
A37
  3
D0
350
A38
  3
D1
350
A39
  3
D2
350
A3A
  0
DICTIONARY
  5
1C
102
{ACAD_REACTORS
330
C
102
}
330
C
100
AcDbDictionary
281
     1
  3
Standard
350
1D
  0
DICTIONARY
  5
A08
102
{ACAD_REACTORS
330
C
102
}
330
C
100
AcDbDictionary
281
     1
  3
2dWireframe
350
A0E
  3
3D Hidden
350
A10
  3
3dWireframe
350
A0F
  3
Basic
350
A0D
  3
Brighten
350
A14
  3
ColorChange
350
A18
  3
Conceptual
350
A11
  3
Dim
350
A13
  3
EdgeColorOff
350
1333
  3
Facepattern
350
A17
  3
Flat
350
A09
  3
FlatWithEdges
350
A0A
  3
Gouraud
350
A0B
  3
GouraudWithEdges
350
A0C
  3
Hidden
350
132B
  3
JitterOff
350
1331
  3
Linepattern
350
A16
  3
OverhangOff
350
1332
  3
Realistic
350
A12
  3
Shaded
350
1330
  3
Shaded with edges
350
132F
  3
Shades of Gray
350
132C
  3
Sketchy
350
132D
  3
Thicken
350
A15
  3
Wireframe
350
132A
  3
X-Ray
350
132E
  0
XRECORD
  5
13AC
102
{ACAD_REACTORS
330
C
102
}
330
C
100
AcDbXrecord
280
     1
 90
        1
330
1D
  0
DICTIONARY
  5
98A
102
{ACAD_REACTORS
330
C
102
}
330
C
100
AcDbDictionary
281
     1
  3
CANNOSCALE
350
F2D
  3
CMLEADERSTYLE
350
F2C
  3
CTABLESTYLE
350
98B
  3
DIMASSOC
350
98C
  3
INDEXCTL
350
13A8
  3
LAYEREVAL
350
1388
  3
LAYERNOTIFY
350
1389
  3
LIGHTINGUNITS
350
1328
  3
MSLTSCALE
350
1327
  3
PROJECTNAME
350
98D
  3
SOLIDHIST
350
13AA
  3
SORTENTS
350
13A7
  3
XCLIPFRAME
350
13A9
  0
DICTIONARY
  5
A9B
102
{ACAD_REACTORS
330
C
102
}
330
C
100
AcDbDictionary
281
     1
  3
AcmBOM
350
1307
  3
AcmStdDictionary
350
AA6
  3
AMDTSECTSYM_ARROWCOLOR
350
ABB
  0
DICTIONARY
  5
A41
102
{ACAD_REACTORS
330
C
102
}
330
C
100
AcDbDictionary
281
     1
  0
DICTIONARY
  5
AD0
102
{ACAD_REACTORS
330
C
102
}
330
C
100
AcDbDictionary
281
     1
  0
DICTIONARY
  5
10C6
102
{ACAD_REACTORS
330
C
102
}
330
C
100
AcDbDictionary
281
     1
  3
ASEBlockHierarchyIndexRecord
350
10C7
1001
DCO15
1040
1631427482.006
  0
XRECORD
  5
13AD
102
{ACAD_REACTORS
330
C
102
}
330
C
100
AcDbXrecord
280
     1
  1
DWGPROPS COOKIE
  2

  3

  4

  6

  7

  8
sliw608
  9

300
=
301
=
302
=
303
=
304
=
305
=
306
=
307
=
308
=
309
=
 40
0.0128373148148148
 41
2448793.749559954
 42
2456913.427211933
  1

 90
        0
  0
DICTIONARY
  5
1227
102
{ACAD_REACTORS
330
1226
102
}
330
1226
100
AcDbDictionary
280
     1
281
     1
  0
XRECORD
  5
F0F
102
{ACAD_REACTORS
330
F0E
102
}
330
F0E
100
AcDbXrecord
280
     1
290
     1
  0
XRECORD
  5
CC1
102
{ACAD_REACTORS
330
CC0
102
}
330
CC0
100
AcDbXrecord
280
     1
290
     1
  0
XRECORD
  5
F25
102
{ACAD_REACTORS
330
F24
102
}
330
F24
100
AcDbXrecord
280
     1
290
     1
  0
XRECORD
  5
F27
102
{ACAD_REACTORS
330
F26
102
}
330
F26
100
AcDbXrecord
280
     1
290
     1
  0
XRECORD
  5
F2B
102
{ACAD_REACTORS
330
F2A
102
}
330
F2A
100
AcDbXrecord
280
     1
290
     1
  0
SORTENTSTABLE
  5
BC3
102
{ACAD_REACTORS
330
BC2
102
}
330
BC2
100
AcDbSortentsTable
330
22
331
71F
  5
71F
331
B2E
  5
B2B
331
B2A
  5
B27
331
BA4
  5
BA1
331
BDF
  5
BDD
331
BA0
  5
B9D
331
B26
  5
B23
331
B65
  5
B62
331
B22
  5
B1F
331
B61
  5
B5E
331
B9C
  5
B99
331
BDB
  5
BD9
331
B98
  5
B95
331
AED
  5
AEA
331
AE9
  5
AE6
331
BD7
  5
BD5
331
B1E
  5
B1B
331
B5D
  5
B5A
331
B1A
  5
B17
331
B59
  5
B56
331
B94
  5
B91
331
BD3
  5
BD1
331
BCF
  5
BCD
331
B90
  5
B8D
331
B16
  5
B13
331
B55
  5
B52
331
B12
  5
B0F
331
B51
  5
B4E
331
AE5
  5
AE2
331
B8C
  5
B89
331
BCB
  5
BC9
331
B88
  5
B85
331
AE1
  5
ADE
331
ADD
  5
ADA
331
AD9
  5
9DA
331
B0E
  5
B0B
331
B4D
  5
B4A
331
BC7
  5
BC5
331
B84
  5
B81
331
B0A
  5
B07
331
B49
  5
B46
331
B06
  5
B03
331
B45
  5
B42
331
BBF
  5
BBC
331
B80
  5
B7D
331
B7C
  5
B79
331
BBB
  5
BB8
331
B02
  5
AFF
331
B41
  5
B3E
331
B78
  5
B75
331
BFF
  5
BFD
331
BFB
  5
BF9
331
BF7
  5
BF5
331
BF3
  5
BF1
331
AFE
  5
AFB
331
B3D
  5
B3A
331
BB7
  5
BB4
331
B74
  5
B71
331
BB3
  5
BB0
331
AFA
  5
AF7
331
B39
  5
B36
331
B35
  5
B32
331
AF6
  5
AF3
331
B70
  5
B6D
331
BAF
  5
BAC
331
B31
  5
B2E
331
BAB
  5
BA8
331
B6C
  5
B69
331
AF2
  5
AEF
331
B68
  5
B65
331
BEF
  5
BED
331
BEB
  5
BE9
331
BE7
  5
BE5
331
BE3
  5
BE1
331
71E
  5
71E
331
B2D
  5
B2A
331
BA7
  5
BA4
331
BA3
  5
BA0
331
B29
  5
B26
331
B25
  5
B22
331
B64
  5
B61
331
B9F
  5
B9C
331
BDE
  5
BDC
331
B9B
  5
B98
331
BDA
  5
BD8
331
B21
  5
B1E
331
B60
  5
B5D
331
AEC
  5
AE9
331
AE8
  5
AE5
331
B1D
  5
B1A
331
B5C
  5
B59
331
B97
  5
B94
331
BD6
  5
BD4
331
B93
  5
B90
331
BD2
  5
BD0
331
B19
  5
B16
331
B58
  5
B55
331
B15
  5
B12
331
B54
  5
B51
331
B8F
  5
B8C
331
BCE
  5
BCC
331
B8B
  5
B88
331
BCA
  5
BC8
331
AE4
  5
AE1
331
B11
  5
B0E
331
B50
  5
B4D
331
AE0
  5
ADD
331
ADC
  5
AD9
331
AD8
  5
9BD
331
B0D
  5
B0A
331
B4C
  5
B49
331
B87
  5
B84
331
BC6
  5
BC4
331
B83
  5
B80
331
B09
  5
B06
331
B48
  5
B45
331
B05
  5
B02
331
B44
  5
B41
331
B7F
  5
B7C
331
BBE
  5
BBB
331
B7B
  5
B78
331
BBA
  5
BB7
331
B01
  5
AFE
331
B40
  5
B3D
331
BFE
  5
BFC
331
BFA
  5
BF8
331
BF6
  5
BF4
331
BF2
  5
BF0
331
AFD
  5
AFA
331
B3C
  5
B39
331
B77
  5
B74
331
BB6
  5
BB3
331
B73
  5
B70
331
BB2
  5
BAF
331
AF9
  5
AF6
331
B38
  5
B35
331
AF5
  5
AF2
331
B34
  5
B31
331
B6F
  5
B6C
331
BAE
  5
BAB
331
B6B
  5
B68
331
BAA
  5
BA7
331
AF1
  5
AEE
331
B30
  5
B2D
331
BEE
  5
BEC
331
BEA
  5
BE8
331
BE6
  5
BE4
331
BE2
  5
BE0
331
721
  5
721
331
B2C
  5
B29
331
BA6
  5
BA3
331
BA2
  5
B9F
331
B28
  5
B25
331
B67
  5
B64
331
B24
  5
B21
331
B63
  5
B60
331
B9E
  5
B9B
331
BDD
  5
BDB
331
B9A
  5
B97
331
BD9
  5
BD7
331
B20
  5
B1D
331
AEF
  5
AEC
331
AEB
  5
AE8
331
B5F
  5
B5C
331
B1C
  5
B19
331
B5B
  5
B58
331
B96
  5
B93
331
BD5
  5
BD3
331
B92
  5
B8F
331
BD1
  5
BCF
331
B18
  5
B15
331
B57
  5
B54
331
B14
  5
B11
331
B53
  5
B50
331
B8E
  5
B8B
331
BCD
  5
BCB
331
AE7
  5
AE4
331
B8A
  5
B87
331
BC9
  5
BC7
331
AE3
  5
AE0
331
B10
  5
B0D
331
ADF
  5
ADC
331
ADB
  5
AD8
331
B4F
  5
B4C
331
B0C
  5
B09
331
B4B
  5
B48
331
B86
  5
B83
331
BC5
  5
BC1
331
B82
  5
B7F
331
BC1
  5
BBE
331
B08
  5
B05
331
B47
  5
B44
331
B04
  5
B01
331
B43
  5
B40
331
AD7
  5
72E
331
B7E
  5
B7B
331
BBD
  5
BBA
331
9DA
  5
BFF
331
B7A
  5
B77
331
BB9
  5
BB6
331
B00
  5
AFD
331
BFD
  5
BFB
331
BF9
  5
BF7
331
BF5
  5
BF3
331
BF1
  5
BEF
331
B3F
  5
B3C
331
AFC
  5
AF9
331
B3B
  5
B38
331
B76
  5
B73
331
BB5
  5
BB2
331
B72
  5
B6F
331
BB1
  5
BAE
331
AF8
  5
AF5
331
B37
  5
B34
331
B33
  5
B30
331
AF4
  5
AF1
331
BAD
  5
BAA
331
B6E
  5
B6B
331
BA9
  5
BA6
331
B6A
  5
B67
331
AF0
  5
AED
331
BED
  5
BEB
331
BE9
  5
BE7
331
BE5
  5
BE3
331
BE1
  5
BDF
331
B2F
  5
B2C
331
B2B
  5
B28
331
BA5
  5
BA2
331
BA1
  5
B9E
331
B27
  5
B24
331
B66
  5
B63
331
B62
  5
B5F
331
B23
  5
B20
331
B9D
  5
B9A
331
BDC
  5
BDA
331
BD8
  5
BD6
331
B99
  5
B96
331
AEE
  5
AEB
331
AEA
  5
AE7
331
B1F
  5
B1C
331
B5E
  5
B5B
331
B1B
  5
B18
331
B5A
  5
B57
331
B95
  5
B92
331
BD4
  5
BD2
331
BD0
  5
BCE
331
B91
  5
B8E
331
B17
  5
B14
331
B56
  5
B53
331
B13
  5
B10
331
B52
  5
B4F
331
AE6
  5
AE3
331
B8D
  5
B8A
331
BCC
  5
BCA
331
BC8
  5
BC6
331
B89
  5
B86
331
AE2
  5
ADF
331
ADE
  5
ADB
331
ADA
  5
AD7
331
B0F
  5
B0C
331
B4E
  5
B4B
331
B0B
  5
B08
331
B4A
  5
B47
331
B85
  5
B82
331
BC4
  5
BC0
331
BC0
  5
BBD
331
B81
  5
B7E
331
B07
  5
B04
331
B46
  5
B43
331
B03
  5
B00
331
B42
  5
B3F
331
B7D
  5
B7A
331
BBC
  5
BB9
331
BB8
  5
BB5
331
B79
  5
B76
331
BFC
  5
BFA
331
BF8
  5
BF6
331
BF4
  5
BF2
331
BF0
  5
BEE
331
AFF
  5
AFC
331
B3E
  5
B3B
331
AFB
  5
AF8
331
B3A
  5
B37
331
B75
  5
B72
331
BB4
  5
BB1
331
BB0
  5
BAD
331
B71
  5
B6E
331
AF7
  5
AF4
331
B36
  5
B33
331
AF3
  5
AF0
331
B32
  5
B2F
331
9BD
  5
BFE
331
B6D
  5
B6A
331
BAC
  5
BA9
331
B69
  5
B66
331
BA8
  5
BA5
331
BEC
  5
BEA
331
BE8
  5
BE6
331
BE4
  5
BE2
331
BE0
  5
BDE
  0
DIMASSOC
  5
D15
102
{ACAD_REACTORS
330
D14
102
}
330
D14
100
AcDbDimAssoc
330
D05
 90
        3
 70
     0
 71
     0
  1
AcDbOsnapPointRef
 72
     1
331
BAF
 73
     0
 91
        0
 40
0.0
 10
0.0
 20
0.0
 30
2.000000000000000E+50
 75
     0
  1
AcDbOsnapPointRef
 72
     1
331
BAE
 73
     0
 91
        0
 40
0.0
 10
0.0
 20
0.0
 30
2.000000000000000E+50
 75
     0
  0
DIMASSOC
  5
E2D
102
{ACAD_REACTORS
330
E2C
102
}
330
E2C
100
AcDbDimAssoc
330
E1D
 90
        3
 70
     0
 71
     0
  1
AcDbOsnapPointRef
 72
     1
331
B32
 73
     0
 91
        0
 40
0.0
 10
0.0
 20
0.0
 30
2.000000000000000E+50
 75
     0
  1
AcDbOsnapPointRef
 72
     1
331
B48
 73
     0
 91
        0
 40
0.0
 10
0.0
 20
0.0
 30
2.000000000000000E+50
 75
     0
  0
DIMASSOC
  5
1083
102
{ACAD_REACTORS
330
1082
102
}
330
1082
100
AcDbDimAssoc
330
1074
 90
        3
 70
     0
 71
     0
  1
AcDbOsnapPointRef
 72
    13
331
1060
 73
     0
 91
        0
 40
0.0
 10
0.0
 20
0.0
 30
2.000000000000000E+50
 75
     0
  1
AcDbOsnapPointRef
 72
    13
331
1061
 73
     0
 91
        0
 40
0.0
 10
0.0
 20
0.0
 30
2.000000000000000E+50
 75
     0
  0
XRECORD
  5
13AF
102
{ACAD_REACTORS
330
13AE
102
}
330
13AE
100
AcDbXrecord
280
     1
 70
     1
  0
LAYOUT
  5
21
102
{ACAD_XDICTIONARY
360
13B1
102
}
102
{ACAD_REACTORS
330
19
102
}
330
19
100
AcDbPlotSettings
  1

  2
\\OASE42\HP DesignJet 500 42+HPGL2 Card
  4

  6

 40
0.0
 41
0.0
 42
0.0
 43
0.0
 44
0.0
 45
0.0
 46
0.0
 47
0.0
 48
0.0
 49
0.0
140
0.0
141
0.0
142
1.0
143
1.0
 70
   688
 72
     0
 73
     0
 74
     5
  7
Kein
 75
    16
147
1.0
148
0.0
149
0.0
100
AcDbLayout
  1
Layout1
 70
     1
 71
     1
 10
0.0
 20
0.0
 11
12.0
 21
9.0
 12
0.0
 22
0.0
 32
0.0
 14
1.000000000000000E+20
 24
1.000000000000000E+20
 34
1.000000000000000E+20
 15
-1.000000000000000E+20
 25
-1.000000000000000E+20
 35
-1.000000000000000E+20
146
0.0
 13
0.0
 23
0.0
 33
0.0
 16
1.0
 26
0.0
 36
0.0
 17
0.0
 27
1.0
 37
0.0
 76
     0
330
1E
  0
LAYOUT
  5
25
102
{ACAD_XDICTIONARY
360
13B3
102
}
102
{ACAD_REACTORS
330
19
102
}
330
19
100
AcDbPlotSettings
  1

  2
\\OASE42\HP DesignJet 500 42+HPGL2 Card
  4

  6

 40
0.0
 41
0.0
 42
0.0
 43
0.0
 44
0.0
 45
0.0
 46
0.0
 47
0.0
 48
0.0
 49
0.0
140
0.0
141
0.0
142
1.0
143
1.0
 70
  1712
 72
     0
 73
     0
 74
     0
  7
Kein
 75
     0
147
1.0
148
0.0
149
0.0
100
AcDbLayout
  1
Model
 70
     1
 71
     0
 10
0.0
 20
0.0
 11
12.0
 21
9.0
 12
0.0
 22
0.0
 32
0.0
 14
0.0
 24
0.0
 34
0.0
 15
0.0
 25
0.0
 35
0.0
146
0.0
 13
0.0
 23
0.0
 33
0.0
 16
1.0
 26
0.0
 36
0.0
 17
0.0
 27
1.0
 37
0.0
 76
     0
330
22
331
9E8
  0
MATERIAL
  5
9F8
102
{ACAD_XDICTIONARY
360
9F9
102
}
102
{ACAD_REACTORS
330
1A
102
}
330
1A
100
AcDbMaterial
  1
ByBlock
 72
     0
 43
0.0208333333333333
 43
0.0
 43
0.0
 43
0.0
 43
0.0
 43
0.0208333333333333
 43
0.0
 43
0.0
 43
0.0
 43
0.0
 43
1.0
 43
0.0
 43
0.0
 43
0.0
 43
0.0
 43
1.0
 77
     0
 47
0.0208333333333333
 47
0.0
 47
0.0
 47
0.0
 47
0.0
 47
0.0208333333333333
 47
0.0
 47
0.0
 47
0.0
 47
0.0
 47
1.0
 47
0.0
 47
0.0
 47
0.0
 47
0.0
 47
1.0
171
     0
 49
0.0208333333333333
 49
0.0
 49
0.0
 49
0.0
 49
0.0
 49
0.0208333333333333
 49
0.0
 49
0.0
 49
0.0
 49
0.0
 49
1.0
 49
0.0
 49
0.0
 49
0.0
 49
0.0
 49
1.0
175
     0
142
0.0208333333333333
142
0.0
142
0.0
142
0.0
142
0.0
142
0.0208333333333333
142
0.0
142
0.0
142
0.0
142
0.0
142
1.0
142
0.0
142
0.0
142
0.0
142
0.0
142
1.0
179
     0
144
0.0208333333333333
144
0.0
144
0.0
144
0.0
144
0.0
144
0.0208333333333333
144
0.0
144
0.0
144
0.0
144
0.0
144
1.0
144
0.0
144
0.0
144
0.0
144
0.0
144
1.0
147
0.0208333333333333
147
0.0
147
0.0
147
0.0
147
0.0
147
0.0208333333333333
147
0.0
147
0.0
147
0.0
147
0.0
147
1.0
147
0.0
147
0.0
147
0.0
147
0.0
147
1.0
  0
MATERIAL
  5
9F0
102
{ACAD_XDICTIONARY
360
9F1
102
}
102
{ACAD_REACTORS
330
1A
102
}
330
1A
100
AcDbMaterial
  1
ByLayer
 72
     0
 43
0.0208333333333333
 43
0.0
 43
0.0
 43
0.0
 43
0.0
 43
0.0208333333333333
 43
0.0
 43
0.0
 43
0.0
 43
0.0
 43
1.0
 43
0.0
 43
0.0
 43
0.0
 43
0.0
 43
1.0
 77
     0
 47
0.0208333333333333
 47
0.0
 47
0.0
 47
0.0
 47
0.0
 47
0.0208333333333333
 47
0.0
 47
0.0
 47
0.0
 47
0.0
 47
1.0
 47
0.0
 47
0.0
 47
0.0
 47
0.0
 47
1.0
171
     0
 49
0.0208333333333333
 49
0.0
 49
0.0
 49
0.0
 49
0.0
 49
0.0208333333333333
 49
0.0
 49
0.0
 49
0.0
 49
0.0
 49
1.0
 49
0.0
 49
0.0
 49
0.0
 49
0.0
 49
1.0
175
     0
142
0.0208333333333333
142
0.0
142
0.0
142
0.0
142
0.0
142
0.0208333333333333
142
0.0
142
0.0
142
0.0
142
0.0
142
1.0
142
0.0
142
0.0
142
0.0
142
0.0
142
1.0
179
     0
144
0.0208333333333333
144
0.0
144
0.0
144
0.0
144
0.0
144
0.0208333333333333
144
0.0
144
0.0
144
0.0
144
0.0
144
1.0
144
0.0
144
0.0
144
0.0
144
0.0
144
1.0
147
0.0208333333333333
147
0.0
147
0.0
147
0.0
147
0.0
147
0.0208333333333333
147
0.0
147
0.0
147
0.0
147
0.0
147
1.0
147
0.0
147
0.0
147
0.0
147
0.0
147
1.0
  0
MATERIAL
  5
A00
102
{ACAD_XDICTIONARY
360
A01
102
}
102
{ACAD_REACTORS
330
1A
102
}
330
1A
100
AcDbMaterial
  1
Global
 72
     0
 43
0.0208333333333333
 43
0.0
 43
0.0
 43
0.0
 43
0.0
 43
0.0208333333333333
 43
0.0
 43
0.0
 43
0.0
 43
0.0
 43
1.0
 43
0.0
 43
0.0
 43
0.0
 43
0.0
 43
1.0
 77
     0
 47
0.0208333333333333
 47
0.0
 47
0.0
 47
0.0
 47
0.0
 47
0.0208333333333333
 47
0.0
 47
0.0
 47
0.0
 47
0.0
 47
1.0
 47
0.0
 47
0.0
 47
0.0
 47
0.0
 47
1.0
171
     0
 49
0.0208333333333333
 49
0.0
 49
0.0
 49
0.0
 49
0.0
 49
0.0208333333333333
 49
0.0
 49
0.0
 49
0.0
 49
0.0
 49
1.0
 49
0.0
 49
0.0
 49
0.0
 49
0.0
 49
1.0
175
     0
142
0.0208333333333333
142
0.0
142
0.0
142
0.0
142
0.0
142
0.0208333333333333
142
0.0
142
0.0
142
0.0
142
0.0
142
1.0
142
0.0
142
0.0
142
0.0
142
0.0
142
1.0
179
     0
144
0.0208333333333333
144
0.0
144
0.0
144
0.0
144
0.0
144
0.0208333333333333
144
0.0
144
0.0
144
0.0
144
0.0
144
1.0
144
0.0
144
0.0
144
0.0
144
0.0
144
1.0
147
0.0208333333333333
147
0.0
147
0.0
147
0.0
147
0.0
147
0.0208333333333333
147
0.0
147
0.0
147
0.0
147
0.0
147
1.0
147
0.0
147
0.0
147
0.0
147
0.0
147
1.0
  0
MLEADERSTYLE
  5
A3C
102
{ACAD_REACTORS
330
A3B
102
}
330
A3B
100
AcDbMLeaderStyle
170
     2
171
     1
172
     0
 90
        2
 40
0.0
 41
0.0
173
     1
 91
-1056964608
340
13
 92
       -2
290
     1
 42
0.09
291
     1
 43
0.36
  3
Standard
 44
0.18
300

342
11
174
     1
178
     6
175
     1
176
     0
 93
-1056964608
 45
0.18
292
     0
297
     0
 46
0.18
 94
-1056964608
 47
1.0
 49
1.0
140
1.0
293
     1
141
0.0
294
     1
177
     0
142
1.0
295
     0
296
     0
143
0.125
1001
ACAD_MLEADERVER
1070
     2
  0
MLINESTYLE
  5
17
102
{ACAD_REACTORS
330
16
102
}
330
16
100
AcDbMlineStyle
  2
STANDARD
 70
     0
  3

 62
   256
 51
90.0
 52
90.0
 71
     2
 49
0.5
 62
   256
  6
BYLAYER
 49
-0.5
 62
   256
  6
BYLAYER
  0
ACDBPLACEHOLDER
  5
F
102
{ACAD_REACTORS
330
E
102
}
330
E
  0
SCALE
  5
A1A
102
{ACAD_REACTORS
330
A19
102
}
330
A19
100
AcDbScale
 70
     0
300
1:1
140
1.0
141
1.0
290
     1
  0
SCALE
  5
A1B
102
{ACAD_REACTORS
330
A19
102
}
330
A19
100
AcDbScale
 70
     0
300
1:2
140
1.0
141
2.0
290
     0
  0
SCALE
  5
A1C
102
{ACAD_REACTORS
330
A19
102
}
330
A19
100
AcDbScale
 70
     0
300
1:4
140
1.0
141
4.0
290
     0
  0
SCALE
  5
A1D
102
{ACAD_REACTORS
330
A19
102
}
330
A19
100
AcDbScale
 70
     0
300
1:5
140
1.0
141
5.0
290
     0
  0
SCALE
  5
A1E
102
{ACAD_REACTORS
330
A19
102
}
330
A19
100
AcDbScale
 70
     0
300
1:8
140
1.0
141
8.0
290
     0
  0
SCALE
  5
A1F
102
{ACAD_REACTORS
330
A19
102
}
330
A19
100
AcDbScale
 70
     0
300
1:10
140
1.0
141
10.0
290
     0
  0
SCALE
  5
A20
102
{ACAD_REACTORS
330
A19
102
}
330
A19
100
AcDbScale
 70
     0
300
1:16
140
1.0
141
16.0
290
     0
  0
SCALE
  5
A21
102
{ACAD_REACTORS
330
A19
102
}
330
A19
100
AcDbScale
 70
     0
300
1:20
140
1.0
141
20.0
290
     0
  0
SCALE
  5
A22
102
{ACAD_REACTORS
330
A19
102
}
330
A19
100
AcDbScale
 70
     0
300
1:30
140
1.0
141
30.0
290
     0
  0
SCALE
  5
A23
102
{ACAD_REACTORS
330
A19
102
}
330
A19
100
AcDbScale
 70
     0
300
1:40
140
1.0
141
40.0
290
     0
  0
SCALE
  5
A24
102
{ACAD_REACTORS
330
A19
102
}
330
A19
100
AcDbScale
 70
     0
300
1:50
140
1.0
141
50.0
290
     0
  0
SCALE
  5
A25
102
{ACAD_REACTORS
330
A19
102
}
330
A19
100
AcDbScale
 70
     0
300
1:100
140
1.0
141
100.0
290
     0
  0
SCALE
  5
A26
102
{ACAD_REACTORS
330
A19
102
}
330
A19
100
AcDbScale
 70
     0
300
2:1
140
2.0
141
1.0
290
     0
  0
SCALE
  5
A27
102
{ACAD_REACTORS
330
A19
102
}
330
A19
100
AcDbScale
 70
     0
300
4:1
140
4.0
141
1.0
290
     0
  0
SCALE
  5
A28
102
{ACAD_REACTORS
330
A19
102
}
330
A19
100
AcDbScale
 70
     0
300
8:1
140
8.0
141
1.0
290
     0
  0
SCALE
  5
A29
102
{ACAD_REACTORS
330
A19
102
}
330
A19
100
AcDbScale
 70
     0
300
10:1
140
10.0
141
1.0
290
     0
  0
SCALE
  5
A2A
102
{ACAD_REACTORS
330
A19
102
}
330
A19
100
AcDbScale
 70
     0
300
100:1
140
100.0
141
1.0
290
     0
  0
SCALE
  5
A2B
102
{ACAD_REACTORS
330
A19
102
}
330
A19
100
AcDbScale
 70
     0
300
1/128" = 1'-0"
140
0.0078125
141
12.0
290
     0
  0
SCALE
  5
A2C
102
{ACAD_REACTORS
330
A19
102
}
330
A19
100
AcDbScale
 70
     0
300
1/64" = 1'-0"
140
0.015625
141
12.0
290
     0
  0
SCALE
  5
A2D
102
{ACAD_REACTORS
330
A19
102
}
330
A19
100
AcDbScale
 70
     0
300
1/32" = 1'-0"
140
0.03125
141
12.0
290
     0
  0
SCALE
  5
A2E
102
{ACAD_REACTORS
330
A19
102
}
330
A19
100
AcDbScale
 70
     0
300
1/16" = 1'-0"
140
0.0625
141
12.0
290
     0
  0
SCALE
  5
A2F
102
{ACAD_REACTORS
330
A19
102
}
330
A19
100
AcDbScale
 70
     0
300
3/32" = 1'-0"
140
0.09375
141
12.0
290
     0
  0
SCALE
  5
A30
102
{ACAD_REACTORS
330
A19
102
}
330
A19
100
AcDbScale
 70
     0
300
1/8" = 1'-0"
140
0.125
141
12.0
290
     0
  0
SCALE
  5
A31
102
{ACAD_REACTORS
330
A19
102
}
330
A19
100
AcDbScale
 70
     0
300
3/16" = 1'-0"
140
0.1875
141
12.0
290
     0
  0
SCALE
  5
A32
102
{ACAD_REACTORS
330
A19
102
}
330
A19
100
AcDbScale
 70
     0
300
1/4" = 1'-0"
140
0.25
141
12.0
290
     0
  0
SCALE
  5
A33
102
{ACAD_REACTORS
330
A19
102
}
330
A19
100
AcDbScale
 70
     0
300
3/8" = 1'-0"
140
0.375
141
12.0
290
     0
  0
SCALE
  5
A34
102
{ACAD_REACTORS
330
A19
102
}
330
A19
100
AcDbScale
 70
     0
300
1/2" = 1'-0"
140
0.5
141
12.0
290
     0
  0
SCALE
  5
A35
102
{ACAD_REACTORS
330
A19
102
}
330
A19
100
AcDbScale
 70
     0
300
3/4" = 1'-0"
140
0.75
141
12.0
290
     0
  0
SCALE
  5
A36
102
{ACAD_REACTORS
330
A19
102
}
330
A19
100
AcDbScale
 70
     0
300
1" = 1'-0"
140
1.0
141
12.0
290
     0
  0
SCALE
  5
A37
102
{ACAD_REACTORS
330
A19
102
}
330
A19
100
AcDbScale
 70
     0
300
1-1/2" = 1'-0"
140
1.5
141
12.0
290
     0
  0
SCALE
  5
A38
102
{ACAD_REACTORS
330
A19
102
}
330
A19
100
AcDbScale
 70
     0
300
3" = 1'-0"
140
3.0
141
12.0
290
     0
  0
SCALE
  5
A39
102
{ACAD_REACTORS
330
A19
102
}
330
A19
100
AcDbScale
 70
     0
300
6" = 1'-0"
140
6.0
141
12.0
290
     0
  0
SCALE
  5
A3A
102
{ACAD_REACTORS
330
A19
102
}
330
A19
100
AcDbScale
 70
     0
300
1'-0" = 1'-0"
140
12.0
141
12.0
290
     0
  0
TABLESTYLE
  5
1D
102
{ACAD_XDICTIONARY
360
F2E
102
}
102
{ACAD_REACTORS
330
1C
102
}
330
1C
100
AcDbTableStyle
  3
Standard
 70
     0
 71
     0
 40
0.06
 41
0.06
280
     0
281
     0
  7
AUDIT_I_060331094926-0
140
0.18
170
     2
 62
     0
 63
     7
283
     0
274
    -2
284
     1
 64
     0
275
    -2
285
     1
 65
     0
276
    -2
286
     1
 66
     0
277
    -2
287
     1
 67
     0
278
    -2
288
     1
 68
     0
279
    -2
289
     1
 69
     0
  7
AUDIT_I_060331094926-0
140
0.25
170
     5
 62
     0
 63
     7
283
     0
274
    -2
284
     1
 64
     0
275
    -2
285
     1
 65
     0
276
    -2
286
     1
 66
     0
277
    -2
287
     1
 67
     0
278
    -2
288
     1
 68
     0
279
    -2
289
     1
 69
     0
  7
AUDIT_I_060331094926-0
140
0.18
170
     5
 62
     0
 63
     7
283
     0
274
    -2
284
     1
 64
     0
275
    -2
285
     1
 65
     0
276
    -2
286
     1
 66
     0
277
    -2
287
     1
 67
     0
278
    -2
288
     1
 68
     0
279
    -2
289
     1
 69
     0
  0
VISUALSTYLE
  5
A0E
102
{ACAD_XDICTIONARY
360
13BF
102
}
102
{ACAD_REACTORS
330
A08
102
}
330
A08
100
AcDbVisualStyle
  2
2dWireframe
 70
     4
 71
     0
 72
     2
 73
     0
 90
        0
 40
-0.6
 41
-30.0
 62
     5
 63
     7
 74
     1
 91
        4
 64
     7
 65
   257
 75
     1
175
     1
 42
1.0
 92
        0
 66
   257
 43
1.0
 76
     1
 77
     6
 78
     2
 67
     7
 79
     5
170
     0
171
     0
290
     0
174
     0
 93
        1
 44
0.0
173
     0
291
     0
 45
0.0
1001
ACAD
1000
AcDbSavedByObjectVersion
1070
     0
  0
VISUALSTYLE
  5
A10
102
{ACAD_XDICTIONARY
360
13C3
102
}
102
{ACAD_REACTORS
330
A08
102
}
330
A08
100
AcDbVisualStyle
  2
3D Hidden
 70
     6
 71
     1
 72
     2
 73
     2
 90
        0
 40
-0.6
 41
-30.0
 62
     5
 63
     7
 74
     2
 91
        2
 64
     7
 65
   257
 75
     2
175
     1
 42
40.0
 92
        0
 66
   257
 43
1.0
 76
     1
 77
     6
 78
     2
 67
     7
 79
     3
170
     0
171
     0
290
     0
174
     0
 93
        1
 44
0.0
173
     0
291
     0
 45
0.0
1001
ACAD
1000
AcDbSavedByObjectVersion
1070
     0
  0
VISUALSTYLE
  5
A0F
102
{ACAD_XDICTIONARY
360
13C1
102
}
102
{ACAD_REACTORS
330
A08
102
}
330
A08
100
AcDbVisualStyle
  2
3dWireframe
 70
     5
 71
     0
 72
     2
 73
     0
 90
        0
 40
-0.6
 41
-30.0
 62
     5
 63
     7
 74
     1
 91
        4
 64
     7
 65
   257
 75
     1
175
     1
 42
1.0
 92
        0
 66
   257
 43
1.0
 76
     1
 77
     6
 78
     2
 67
     7
 79
     5
170
     0
171
     0
290
     0
174
     0
 93
        1
 44
0.0
173
     0
291
     0
 45
0.0
1001
ACAD
1000
AcDbSavedByObjectVersion
1070
     0
  0
VISUALSTYLE
  5
A0D
102
{ACAD_XDICTIONARY
360
13BD
102
}
102
{ACAD_REACTORS
330
A08
102
}
330
A08
100
AcDbVisualStyle
  2
Basic
 70
     7
 71
     1
 72
     0
 73
     1
 90
        0
 40
-0.6
 41
-30.0
 62
     5
 63
     7
 74
     0
 91
        4
 64
     7
 65
   257
 75
     1
175
     1
 42
1.0
 92
        8
 66
     7
 43
1.0
 76
     1
 77
     6
 78
     2
 67
     7
 79
     5
170
     0
171
     0
290
     0
174
     0
 93
        1
 44
0.0
173
     0
291
     1
 45
0.0
1001
ACAD
1000
AcDbSavedByObjectVersion
1070
     0
  0
VISUALSTYLE
  5
A14
102
{ACAD_XDICTIONARY
360
13CB
102
}
102
{ACAD_REACTORS
330
A08
102
}
330
A08
100
AcDbVisualStyle
  2
Brighten
 70
    12
 71
     2
 72
     2
 73
     0
 90
        0
 40
-0.6
 41
-30.0
 62
     5
 63
     7
 74
     1
 91
        4
 64
     7
 65
   257
 75
     1
175
     1
 42
1.0
 92
        8
 66
     7
 43
1.0
 76
     1
 77
     6
 78
     2
 67
     7
 79
     5
170
     0
171
     0
290
     0
174
     0
 93
        1
 44
50.0
173
     0
291
     1
 45
0.0
1001
ACAD
1000
AcDbSavedByObjectVersion
1070
     0
  0
VISUALSTYLE
  5
A18
102
{ACAD_XDICTIONARY
360
13D3
102
}
102
{ACAD_REACTORS
330
A08
102
}
330
A08
100
AcDbVisualStyle
  2
ColorChange
 70
    16
 71
     2
 72
     2
 73
     3
 90
        0
 40
-0.6
 41
-30.0
 62
     5
 63
     8
 74
     1
 91
        4
 64
     7
 65
   257
 75
     1
175
     1
 42
1.0
 92
        8
 66
     8
 43
1.0
 76
     1
 77
     6
 78
     2
 67
     7
 79
     5
170
     0
171
     0
290
     0
174
     0
 93
        1
 44
0.0
173
     0
291
     1
 45
0.0
1001
ACAD
1000
AcDbSavedByObjectVersion
1070
     0
  0
VISUALSTYLE
  5
A11
102
{ACAD_XDICTIONARY
360
13C5
102
}
102
{ACAD_REACTORS
330
A08
102
}
330
A08
100
AcDbVisualStyle
  2
Conceptual
 70
     9
 71
     3
 72
     2
 73
     0
 90
        0
 40
-0.6
 41
-30.0
 62
     5
 63
     7
 74
     2
 91
        2
 64
     7
 65
   257
 75
     1
175
     1
 42
40.0
 92
        8
 66
     7
 43
1.0
 76
     1
 77
     6
 78
     2
 67
     7
 79
     3
170
     0
171
     0
290
     0
174
     0
 93
        1
 44
0.0
173
     0
291
     0
 45
0.0
1001
ACAD
1000
AcDbSavedByObjectVersion
1070
     0
  0
VISUALSTYLE
  5
A13
102
{ACAD_XDICTIONARY
360
13C9
102
}
102
{ACAD_REACTORS
330
A08
102
}
330
A08
100
AcDbVisualStyle
  2
Dim
 70
    11
 71
     2
 72
     2
 73
     0
 90
        0
 40
-0.6
 41
-30.0
 62
     5
 63
     7
 74
     1
 91
        4
 64
     7
 65
   257
 75
     1
175
     1
 42
1.0
 92
        8
 66
     7
 43
1.0
 76
     1
 77
     6
 78
     2
 67
     7
 79
     5
170
     0
171
     0
290
     0
174
     0
 93
        1
 44
-50.0
173
     0
291
     1
 45
0.0
1001
ACAD
1000
AcDbSavedByObjectVersion
1070
     0
  0
VISUALSTYLE
  5
1333
102
{ACAD_XDICTIONARY
360
13E7
102
}
102
{ACAD_REACTORS
330
A08
102
}
330
A08
100
AcDbVisualStyle
  2
EdgeColorOff
 70
    22
 71
     2
 72
     2
 73
     0
 90
        0
 40
-0.6
 41
-30.0
 62
     5
 63
     7
 74
     1
 91
        4
 64
     7
 65
   257
 75
     1
175
     1
 42
1.0
 92
        8
 66
     7
 43
1.0
 76
     1
 77
     6
 78
     2
 67
     7
 79
     5
170
     0
171
     0
290
     0
174
     0
 93
        1
 44
0.0
173
     0
291
     1
 45
0.0
1001
ACAD
1000
AcDbSavedByObjectVersion
1070
     0
  0
VISUALSTYLE
  5
A17
102
{ACAD_XDICTIONARY
360
13D1
102
}
102
{ACAD_REACTORS
330
A08
102
}
330
A08
100
AcDbVisualStyle
  2
Facepattern
 70
    15
 71
     2
 72
     2
 73
     0
 90
        0
 40
-0.6
 41
-30.0
 62
     5
 63
     7
 74
     1
 91
        4
 64
     7
 65
   257
 75
     1
175
     1
 42
1.0
 92
        8
 66
     7
 43
1.0
 76
     1
 77
     6
 78
     2
 67
     7
 79
     5
170
     0
171
     0
290
     0
174
     0
 93
        1
 44
0.0
173
     0
291
     1
 45
0.0
1001
ACAD
1000
AcDbSavedByObjectVersion
1070
     0
  0
VISUALSTYLE
  5
A09
102
{ACAD_XDICTIONARY
360
13B5
102
}
102
{ACAD_REACTORS
330
A08
102
}
330
A08
100
AcDbVisualStyle
  2
Flat
 70
     0
 71
     2
 72
     1
 73
     1
 90
        2
 40
-0.6
 41
30.0
 62
     5
 63
     7
 74
     0
 91
        4
 64
     7
 65
   257
 75
     1
175
     1
 42
1.0
 92
        8
 66
     7
 43
1.0
 76
     1
 77
     6
 78
     2
 67
     7
 79
     5
170
     0
171
     0
290
     0
174
     0
 93
       13
 44
0.0
173
     0
291
     1
 45
0.0
1001
ACAD
1000
AcDbSavedByObjectVersion
1070
     0
  0
VISUALSTYLE
  5
A0A
102
{ACAD_XDICTIONARY
360
13B7
102
}
102
{ACAD_REACTORS
330
A08
102
}
330
A08
100
AcDbVisualStyle
  2
FlatWithEdges
 70
     1
 71
     2
 72
     1
 73
     1
 90
        2
 40
-0.6
 41
30.0
 62
     5
 63
     7
 74
     1
 91
        4
 64
     7
 65
   257
 75
     1
175
     1
 42
1.0
 92
        0
 66
   257
 43
1.0
 76
     1
 77
     6
 78
     2
 67
     7
 79
     5
170
     0
171
     0
290
     0
174
     0
 93
       13
 44
0.0
173
     0
291
     1
 45
0.0
1001
ACAD
1000
AcDbSavedByObjectVersion
1070
     0
  0
VISUALSTYLE
  5
A0B
102
{ACAD_XDICTIONARY
360
13B9
102
}
102
{ACAD_REACTORS
330
A08
102
}
330
A08
100
AcDbVisualStyle
  2
Gouraud
 70
     2
 71
     2
 72
     2
 73
     1
 90
        2
 40
-0.6
 41
30.0
 62
     5
 63
     7
 74
     0
 91
        4
 64
     7
 65
   257
 75
     1
175
     1
 42
1.0
 92
        0
 66
     7
 43
1.0
 76
     1
 77
     6
 78
     2
 67
     7
 79
     5
170
     0
171
     0
290
     0
174
     0
 93
       13
 44
0.0
173
     0
291
     1
 45
0.0
1001
ACAD
1000
AcDbSavedByObjectVersion
1070
     0
  0
VISUALSTYLE
  5
A0C
102
{ACAD_XDICTIONARY
360
13BB
102
}
102
{ACAD_REACTORS
330
A08
102
}
330
A08
100
AcDbVisualStyle
  2
GouraudWithEdges
 70
     3
 71
     2
 72
     2
 73
     1
 90
        2
 40
-0.6
 41
30.0
 62
     5
 63
     7
 74
     1
 91
        4
 64
     7
 65
   257
 75
     1
175
     1
 42
1.0
 92
        0
 66
   257
 43
1.0
 76
     1
 77
     6
 78
     2
 67
     7
 79
     5
170
     0
171
     0
290
     0
174
     0
 93
       13
 44
0.0
173
     0
291
     1
 45
0.0
1001
ACAD
1000
AcDbSavedByObjectVersion
1070
     0
  0
VISUALSTYLE
  5
132B
102
{ACAD_XDICTIONARY
360
13D7
102
}
102
{ACAD_REACTORS
330
A08
102
}
330
A08
100
AcDbVisualStyle
  2
Hidden
 70
     6
 71
     1
 72
     2
 73
     2
 90
        0
 40
-0.6
 41
-30.0
 62
     5
 63
     7
 74
     2
 91
        2
 64
     7
 65
   257
 75
     2
175
     1
 42
40.0
 92
        0
 66
   257
 43
1.0
 76
     1
 77
     6
 78
     2
 67
     7
 79
     3
170
     0
171
     0
290
     0
174
     0
 93
        1
 44
0.0
173
     0
291
     0
 45
0.0
1001
ACAD
1000
AcDbSavedByObjectVersion
1070
     0
  0
VISUALSTYLE
  5
1331
102
{ACAD_XDICTIONARY
360
13E3
102
}
102
{ACAD_REACTORS
330
A08
102
}
330
A08
100
AcDbVisualStyle
  2
JitterOff
 70
    20
 71
     2
 72
     2
 73
     0
 90
        0
 40
-0.6
 41
-30.0
 62
     5
 63
     7
 74
     1
 91
        4
 64
     7
 65
   257
 75
     1
175
     1
 42
1.0
 92
       10
 66
     7
 43
1.0
 76
     1
 77
     6
 78
     2
 67
     7
 79
     5
170
     0
171
     0
290
     0
174
     0
 93
        1
 44
0.0
173
     0
291
     1
 45
0.0
1001
ACAD
1000
AcDbSavedByObjectVersion
1070
     0
  0
VISUALSTYLE
  5
A16
102
{ACAD_XDICTIONARY
360
13CF
102
}
102
{ACAD_REACTORS
330
A08
102
}
330
A08
100
AcDbVisualStyle
  2
Linepattern
 70
    14
 71
     2
 72
     2
 73
     0
 90
        0
 40
-0.6
 41
-30.0
 62
     5
 63
     7
 74
     1
 91
        4
 64
     7
 65
   257
 75
     7
175
     7
 42
1.0
 92
        8
 66
     7
 43
1.0
 76
     1
 77
     6
 78
     2
 67
     7
 79
     5
170
     0
171
     0
290
     0
174
     0
 93
        1
 44
0.0
173
     0
291
     1
 45
0.0
1001
ACAD
1000
AcDbSavedByObjectVersion
1070
     0
  0
VISUALSTYLE
  5
1332
102
{ACAD_XDICTIONARY
360
13E5
102
}
102
{ACAD_REACTORS
330
A08
102
}
330
A08
100
AcDbVisualStyle
  2
OverhangOff
 70
    21
 71
     2
 72
     2
 73
     0
 90
        0
 40
-0.6
 41
-30.0
 62
     5
 63
     7
 74
     1
 91
        4
 64
     7
 65
   257
 75
     1
175
     1
 42
1.0
 92
        9
 66
     7
 43
1.0
 76
     1
 77
     6
 78
     2
 67
     7
 79
     5
170
     0
171
     0
290
     0
174
     0
 93
        1
 44
0.0
173
     0
291
     1
 45
0.0
1001
ACAD
1000
AcDbSavedByObjectVersion
1070
     0
  0
VISUALSTYLE
  5
A12
102
{ACAD_XDICTIONARY
360
13C7
102
}
102
{ACAD_REACTORS
330
A08
102
}
330
A08
100
AcDbVisualStyle
  2
Realistic
 70
     8
 71
     2
 72
     2
 73
     0
 90
        0
 40
-0.6
 41
-30.0
 62
     5
 63
     7
 74
     1
 91
        0
 64
     7
 65
   257
 75
     1
175
     1
 42
1.0
 92
        8
 66
     8
 43
1.0
 76
     1
 77
     6
 78
     2
 67
     7
 79
     5
170
     0
171
     0
290
     0
174
     0
 93
       13
 44
0.0
173
     0
291
     0
 45
0.0
1001
ACAD
1000
AcDbSavedByObjectVersion
1070
     0
  0
VISUALSTYLE
  5
1330
102
{ACAD_XDICTIONARY
360
13E1
102
}
102
{ACAD_REACTORS
330
A08
102
}
330
A08
100
AcDbVisualStyle
  2
Shaded
 70
    27
 71
     2
 72
     2
 73
     1
 90
        2
 40
-0.6
 41
30.0
 62
     5
 63
     7
 74
     0
 91
        4
 64
     7
 65
   257
 75
     1
175
     1
 42
1.0
 92
        8
 66
   257
 43
1.0
 76
     1
 77
     6
 78
     2
 67
     8
 79
     3
170
     0
171
     0
290
     0
174
     0
 93
        5
 44
0.0
173
     0
291
     0
 45
0.0
1001
ACAD
1000
AcDbSavedByObjectVersion
1070
     0
  0
VISUALSTYLE
  5
132F
102
{ACAD_XDICTIONARY
360
13DF
102
}
102
{ACAD_REACTORS
330
A08
102
}
330
A08
100
AcDbVisualStyle
  2
Shaded with edges
 70
    26
 71
     2
 72
     2
 73
     1
 90
        2
 40
-0.6
 41
30.0
 62
     5
 63
     7
 74
     1
 91
       10
 64
     7
 65
   257
 75
     2
175
     1
 42
1.0
 92
        8
 66
   257
 43
1.0
 76
     1
 77
     6
 78
     2
 67
     7
 79
     3
170
     0
171
     0
290
     0
174
     0
 93
        5
 44
0.0
173
     0
291
     0
 45
0.0
1001
ACAD
1000
AcDbSavedByObjectVersion
1070
     0
  0
VISUALSTYLE
  5
132C
102
{ACAD_XDICTIONARY
360
13D9
102
}
102
{ACAD_REACTORS
330
A08
102
}
330
A08
100
AcDbVisualStyle
  2
Shades of Gray
 70
    23
 71
     2
 72
     2
 73
     3
 90
        0
 40
-0.6
 41
-30.0
 62
     5
 63
     7
 74
     2
 91
        2
 64
     7
 65
     7
 75
     1
175
     1
 42
40.0
 92
        8
 66
     7
 43
1.0
 76
     1
 77
     6
 78
     2
 67
     7
 79
     3
170
     0
171
     0
290
     0
174
     0
 93
        1
 44
0.0
173
     0
291
     0
 45
0.0
1001
ACAD
1000
AcDbSavedByObjectVersion
1070
     0
  0
VISUALSTYLE
  5
132D
102
{ACAD_XDICTIONARY
360
13DB
102
}
102
{ACAD_REACTORS
330
A08
102
}
330
A08
100
AcDbVisualStyle
  2
Sketchy
 70
    24
 71
     1
 72
     2
 73
     2
 90
        0
 40
-0.6
 41
-30.0
 62
     5
 63
     7
 74
     2
 91
        2
 64
     7
 65
     7
 75
     1
175
     1
 42
40.0
 92
       11
 66
     7
 43
1.0
 76
     1
 77
     6
 78
     2
 67
     7
 79
     6
170
     0
171
     0
290
     0
174
     0
 93
        1
 44
0.0
173
     0
291
     0
 45
0.0
1001
ACAD
1000
AcDbSavedByObjectVersion
1070
     0
  0
VISUALSTYLE
  5
A15
102
{ACAD_XDICTIONARY
360
13CD
102
}
102
{ACAD_REACTORS
330
A08
102
}
330
A08
100
AcDbVisualStyle
  2
Thicken
 70
    13
 71
     2
 72
     2
 73
     0
 90
        0
 40
-0.6
 41
-30.0
 62
     5
 63
     7
 74
     1
 91
        4
 64
     7
 65
   257
 75
     1
175
     1
 42
1.0
 92
       12
 66
     7
 43
1.0
 76
     1
 77
     6
 78
     2
 67
     7
 79
     5
170
     0
171
     0
290
     0
174
     0
 93
        1
 44
0.0
173
     0
291
     1
 45
0.0
1001
ACAD
1000
AcDbSavedByObjectVersion
1070
     0
  0
VISUALSTYLE
  5
132A
102
{ACAD_XDICTIONARY
360
13D5
102
}
102
{ACAD_REACTORS
330
A08
102
}
330
A08
100
AcDbVisualStyle
  2
Wireframe
 70
     5
 71
     0
 72
     2
 73
     0
 90
        0
 40
-0.6
 41
-30.0
 62
     5
 63
     7
 74
     1
 91
        4
 64
     7
 65
   257
 75
     1
175
     1
 42
1.0
 92
        0
 66
   257
 43
1.0
 76
     1
 77
     6
 78
     2
 67
     7
 79
     3
170
     0
171
     0
290
     0
174
     0
 93
        1
 44
0.0
173
     0
291
     0
 45
0.0
1001
ACAD
1000
AcDbSavedByObjectVersion
1070
     0
  0
VISUALSTYLE
  5
132E
102
{ACAD_XDICTIONARY
360
13DD
102
}
102
{ACAD_REACTORS
330
A08
102
}
330
A08
100
AcDbVisualStyle
  2
X-Ray
 70
    25
 71
     2
 72
     2
 73
     1
 90
        1
 40
0.5
 41
-30.0
 62
     5
 63
     7
 74
     1
 91
        0
 64
     7
 65
   257
 75
     1
175
     1
 42
1.0
 92
        8
 66
     7
 43
1.0
 76
     1
 77
     6
 78
     2
 67
     7
 79
     3
170
     0
171
     0
290
     0
174
     0
 93
       13
 44
0.0
173
     0
291
     0
 45
0.0
1001
ACAD
1000
AcDbSavedByObjectVersion
1070
     0
  0
DICTIONARYVAR
  5
F2D
102
{ACAD_REACTORS
330
98A
102
}
330
98A
100
DictionaryVariables
280
     0
  1
1:1
  0
DICTIONARYVAR
  5
F2C
102
{ACAD_REACTORS
330
98A
102
}
330
98A
100
DictionaryVariables
280
     0
  1
STANDARD
  0
DICTIONARYVAR
  5
98B
102
{ACAD_REACTORS
330
98A
102
}
330
98A
100
DictionaryVariables
280
     0
  1
STANDARD
  0
DICTIONARYVAR
  5
98C
102
{ACAD_REACTORS
330
98A
102
}
330
98A
100
DictionaryVariables
280
     0
  1
2
  0
DICTIONARYVAR
  5
13A8
102
{ACAD_REACTORS
330
98A
102
}
330
98A
100
DictionaryVariables
280
     0
  1
0
  0
DICTIONARYVAR
  5
1388
102
{ACAD_REACTORS
330
98A
102
}
330
98A
100
DictionaryVariables
280
     0
  1
1
  0
DICTIONARYVAR
  5
1389
102
{ACAD_REACTORS
330
98A
102
}
330
98A
100
DictionaryVariables
280
     0
  1
15
  0
DICTIONARYVAR
  5
1328
102
{ACAD_REACTORS
330
98A
102
}
330
98A
100
DictionaryVariables
280
     0
  1
0
  0
DICTIONARYVAR
  5
1327
102
{ACAD_REACTORS
330
98A
102
}
330
98A
100
DictionaryVariables
280
     0
  1
0
  0
DICTIONARYVAR
  5
98D
102
{ACAD_REACTORS
330
98A
102
}
330
98A
100
DictionaryVariables
280
     0
  1

  0
DICTIONARYVAR
  5
13AA
102
{ACAD_REACTORS
330
98A
102
}
330
98A
100
DictionaryVariables
280
     0
  1
1
  0
DICTIONARYVAR
  5
13A7
102
{ACAD_REACTORS
330
98A
102
}
330
98A
100
DictionaryVariables
280
     0
  1
127
  0
DICTIONARYVAR
  5
13A9
102
{ACAD_REACTORS
330
98A
102
}
330
98A
100
DictionaryVariables
280
     0
  1
0
  0
DICTIONARY
  5
1307
102
{ACAD_REACTORS
330
A9B
102
}
330
A9B
100
AcDbDictionary
281
     1
  0
DICTIONARY
  5
AA6
102
{ACAD_REACTORS
330
A9B
102
}
330
A9B
100
AcDbDictionary
281
     1
  0
XRECORD
  5
ABB
102
{ACAD_REACTORS
330
A9B
102
}
330
A9B
100
AcDbXrecord
280
     1
 90
-1023410169
  0
XRECORD
  5
10C7
102
{ACAD_REACTORS
330
10C6
102
}
330
10C6
100
AcDbXrecord
280
     1
  0
DICTIONARY
  5
13B1
330
21
100
AcDbDictionary
280
     1
281
     1
  3
ACAD_XREC_ROUNDTRIP
360
13B2
  0
DICTIONARY
  5
13B3
330
25
100
AcDbDictionary
280
     1
281
     1
  3
ACAD_XREC_ROUNDTRIP
360
13B4
  0
DICTIONARY
  5
9F9
330
9F8
100
AcDbDictionary
280
     1
281
     1
  3
ACAD_XREC_ROUNDTRIP
360
F35
  3
BUMPTILE
360
9FB
  3
DIFFUSETILE
360
9FA
  3
OPACITYTILE
360
9FE
  3
REFLECTIONTILE
360
9FD
  3
REFRACTIONTILE
360
9FF
  3
SPECULARTILE
360
9FC
  0
DICTIONARY
  5
9F1
330
9F0
100
AcDbDictionary
280
     1
281
     1
  3
ACAD_XREC_ROUNDTRIP
360
F34
  3
BUMPTILE
360
9F3
  3
DIFFUSETILE
360
9F2
  3
OPACITYTILE
360
9F6
  3
REFLECTIONTILE
360
9F5
  3
REFRACTIONTILE
360
9F7
  3
SPECULARTILE
360
9F4
  0
DICTIONARY
  5
A01
330
A00
100
AcDbDictionary
280
     1
281
     1
  3
ACAD_XREC_ROUNDTRIP
360
F36
  3
BUMPTILE
360
A03
  3
DIFFUSETILE
360
A02
  3
OPACITYTILE
360
A06
  3
REFLECTIONTILE
360
A05
  3
REFRACTIONTILE
360
A07
  3
SPECULARTILE
360
A04
  0
DICTIONARY
  5
F2E
330
1D
100
AcDbDictionary
280
     1
281
     1
  3
ACAD_ROUNDTRIP_2008_TABLESTYLE_CELLSTYLEMAP
360
13AB
  3
ACAD_XREC_ROUNDTRIP
360
13B0
  0
DICTIONARY
  5
13BF
330
A0E
100
AcDbDictionary
280
     1
281
     1
  3
ACAD_XREC_ROUNDTRIP
360
13C0
  0
DICTIONARY
  5
13C3
330
A10
100
AcDbDictionary
280
     1
281
     1
  3
ACAD_XREC_ROUNDTRIP
360
13C4
  0
DICTIONARY
  5
13C1
330
A0F
100
AcDbDictionary
280
     1
281
     1
  3
ACAD_XREC_ROUNDTRIP
360
13C2
  0
DICTIONARY
  5
13BD
330
A0D
100
AcDbDictionary
280
     1
281
     1
  3
ACAD_XREC_ROUNDTRIP
360
13BE
  0
DICTIONARY
  5
13CB
330
A14
100
AcDbDictionary
280
     1
281
     1
  3
ACAD_XREC_ROUNDTRIP
360
13CC
  0
DICTIONARY
  5
13D3
330
A18
100
AcDbDictionary
280
     1
281
     1
  3
ACAD_XREC_ROUNDTRIP
360
13D4
  0
DICTIONARY
  5
13C5
330
A11
100
AcDbDictionary
280
     1
281
     1
  3
ACAD_XREC_ROUNDTRIP
360
13C6
  0
DICTIONARY
  5
13C9
330
A13
100
AcDbDictionary
280
     1
281
     1
  3
ACAD_XREC_ROUNDTRIP
360
13CA
  0
DICTIONARY
  5
13E7
330
1333
100
AcDbDictionary
280
     1
281
     1
  3
ACAD_XREC_ROUNDTRIP
360
13E8
  0
DICTIONARY
  5
13D1
330
A17
100
AcDbDictionary
280
     1
281
     1
  3
ACAD_XREC_ROUNDTRIP
360
13D2
  0
DICTIONARY
  5
13B5
330
A09
100
AcDbDictionary
280
     1
281
     1
  3
ACAD_XREC_ROUNDTRIP
360
13B6
  0
DICTIONARY
  5
13B7
330
A0A
100
AcDbDictionary
280
     1
281
     1
  3
ACAD_XREC_ROUNDTRIP
360
13B8
  0
DICTIONARY
  5
13B9
330
A0B
100
AcDbDictionary
280
     1
281
     1
  3
ACAD_XREC_ROUNDTRIP
360
13BA
  0
DICTIONARY
  5
13BB
330
A0C
100
AcDbDictionary
280
     1
281
     1
  3
ACAD_XREC_ROUNDTRIP
360
13BC
  0
DICTIONARY
  5
13D7
330
132B
100
AcDbDictionary
280
     1
281
     1
  3
ACAD_XREC_ROUNDTRIP
360
13D8
  0
DICTIONARY
  5
13E3
330
1331
100
AcDbDictionary
280
     1
281
     1
  3
ACAD_XREC_ROUNDTRIP
360
13E4
  0
DICTIONARY
  5
13CF
330
A16
100
AcDbDictionary
280
     1
281
     1
  3
ACAD_XREC_ROUNDTRIP
360
13D0
  0
DICTIONARY
  5
13E5
330
1332
100
AcDbDictionary
280
     1
281
     1
  3
ACAD_XREC_ROUNDTRIP
360
13E6
  0
DICTIONARY
  5
13C7
330
A12
100
AcDbDictionary
280
     1
281
     1
  3
ACAD_XREC_ROUNDTRIP
360
13C8
  0
DICTIONARY
  5
13E1
330
1330
100
AcDbDictionary
280
     1
281
     1
  3
ACAD_XREC_ROUNDTRIP
360
13E2
  0
DICTIONARY
  5
13DF
330
132F
100
AcDbDictionary
280
     1
281
     1
  3
ACAD_XREC_ROUNDTRIP
360
13E0
  0
DICTIONARY
  5
13D9
330
132C
100
AcDbDictionary
280
     1
281
     1
  3
ACAD_XREC_ROUNDTRIP
360
13DA
  0
DICTIONARY
  5
13DB
330
132D
100
AcDbDictionary
280
     1
281
     1
  3
ACAD_XREC_ROUNDTRIP
360
13DC
  0
DICTIONARY
  5
13CD
330
A15
100
AcDbDictionary
280
     1
281
     1
  3
ACAD_XREC_ROUNDTRIP
360
13CE
  0
DICTIONARY
  5
13D5
330
132A
100
AcDbDictionary
280
     1
281
     1
  3
ACAD_XREC_ROUNDTRIP
360
13D6
  0
DICTIONARY
  5
13DD
330
132E
100
AcDbDictionary
280
     1
281
     1
  3
ACAD_XREC_ROUNDTRIP
360
13DE
  0
XRECORD
  5
13B2
102
{ACAD_REACTORS
330
13B1
102
}
330
13B1
100
AcDbXrecord
280
     1
102
SHADEPLOT
 70
     0
102
SHADEPLOTRESLEVEL
 70
     2
102
SHADEPLOTCUSTOMDPI
 70
   300
  0
XRECORD
  5
13B4
102
{ACAD_REACTORS
330
13B3
102
}
330
13B3
100
AcDbXrecord
280
     1
102
SHADEPLOT
 70
     0
102
SHADEPLOTRESLEVEL
 70
     2
102
SHADEPLOTCUSTOMDPI
 70
   300
  0
XRECORD
  5
F35
102
{ACAD_REACTORS
330
9F9
102
}
330
9F9
100
AcDbXrecord
280
     1
102
MATERIAL
148
0.0
149
0.0
149
0.0
 93
        0
 94
      127
282
     0
 72
     0
 77
     0
171
     0
175
     0
179
     0
273
     0
  0
XRECORD
  5
9FB
102
{ACAD_REACTORS
330
9F9
102
}
330
9F9
100
AcDbXrecord
280
     1
270
     1
271
     1
  0
XRECORD
  5
9FA
102
{ACAD_REACTORS
330
9F9
102
}
330
9F9
100
AcDbXrecord
280
     1
270
     1
271
     1
  0
XRECORD
  5
9FE
102
{ACAD_REACTORS
330
9F9
102
}
330
9F9
100
AcDbXrecord
280
     1
270
     1
271
     1
  0
XRECORD
  5
9FD
102
{ACAD_REACTORS
330
9F9
102
}
330
9F9
100
AcDbXrecord
280
     1
270
     1
271
     1
  0
XRECORD
  5
9FF
102
{ACAD_REACTORS
330
9F9
102
}
330
9F9
100
AcDbXrecord
280
     1
270
     1
271
     1
  0
XRECORD
  5
9FC
102
{ACAD_REACTORS
330
9F9
102
}
330
9F9
100
AcDbXrecord
280
     1
270
     1
271
     1
  0
XRECORD
  5
F34
102
{ACAD_REACTORS
330
9F1
102
}
330
9F1
100
AcDbXrecord
280
     1
102
MATERIAL
148
0.0
149
0.0
149
0.0
 93
        0
 94
      127
282
     0
 72
     0
 77
     0
171
     0
175
     0
179
     0
273
     0
  0
XRECORD
  5
9F3
102
{ACAD_REACTORS
330
9F1
102
}
330
9F1
100
AcDbXrecord
280
     1
270
     1
271
     1
  0
XRECORD
  5
9F2
102
{ACAD_REACTORS
330
9F1
102
}
330
9F1
100
AcDbXrecord
280
     1
270
     1
271
     1
  0
XRECORD
  5
9F6
102
{ACAD_REACTORS
330
9F1
102
}
330
9F1
100
AcDbXrecord
280
     1
270
     1
271
     1
  0
XRECORD
  5
9F5
102
{ACAD_REACTORS
330
9F1
102
}
330
9F1
100
AcDbXrecord
280
     1
270
     1
271
     1
  0
XRECORD
  5
9F7
102
{ACAD_REACTORS
330
9F1
102
}
330
9F1
100
AcDbXrecord
280
     1
270
     1
271
     1
  0
XRECORD
  5
9F4
102
{ACAD_REACTORS
330
9F1
102
}
330
9F1
100
AcDbXrecord
280
     1
270
     1
271
     1
  0
XRECORD
  5
F36
102
{ACAD_REACTORS
330
A01
102
}
330
A01
100
AcDbXrecord
280
     1
102
MATERIAL
148
0.0
149
0.0
149
0.0
 93
        0
 94
      127
282
     0
 72
     0
 77
     0
171
     0
175
     0
179
     0
273
     0
  0
XRECORD
  5
A03
102
{ACAD_REACTORS
330
A01
102
}
330
A01
100
AcDbXrecord
280
     1
270
     1
271
     1
  0
XRECORD
  5
A02
102
{ACAD_REACTORS
330
A01
102
}
330
A01
100
AcDbXrecord
280
     1
270
     1
271
     1
  0
XRECORD
  5
A06
102
{ACAD_REACTORS
330
A01
102
}
330
A01
100
AcDbXrecord
280
     1
270
     1
271
     1
  0
XRECORD
  5
A05
102
{ACAD_REACTORS
330
A01
102
}
330
A01
100
AcDbXrecord
280
     1
270
     1
271
     1
  0
XRECORD
  5
A07
102
{ACAD_REACTORS
330
A01
102
}
330
A01
100
AcDbXrecord
280
     1
270
     1
271
     1
  0
XRECORD
  5
A04
102
{ACAD_REACTORS
330
A01
102
}
330
A01
100
AcDbXrecord
280
     1
270
     1
271
     1
  0
CELLSTYLEMAP
  5
13AB
102
{ACAD_REACTORS
330
F2E
102
}
330
F2E
100
AcDbCellStyleMap
 90
        3
300
CELLSTYLE
  1
TABLEFORMAT_BEGIN
 90
        5
170
     1
 91
        0
 92
    32768
 62
   257
 93
        1
300
CONTENTFORMAT
  1
CONTENTFORMAT_BEGIN
 90
        0
 91
        0
 92
        4
 93
        0
300

 40
0.0
140
1.0
 94
        5
 62
     0
340
11
144
0.25
309
CONTENTFORMAT_END
171
     1
301
MARGIN
  1
CELLMARGIN_BEGIN
 40
0.06
 40
0.06
 40
0.06
 40
0.06
 40
0.18
 40
0.18
309
CELLMARGIN_END
 94
        6
 95
        1
302
GRIDFORMAT
  1
GRIDFORMAT_BEGIN
 90
        0
 91
        1
 62
     0
 92
       -2
340
0
 93
        0
 40
0.045
309
GRIDFORMAT_END
 95
        2
302
GRIDFORMAT
  1
GRIDFORMAT_BEGIN
 90
        0
 91
        1
 62
     0
 92
       -2
340
0
 93
        0
 40
0.045
309
GRIDFORMAT_END
 95
        4
302
GRIDFORMAT
  1
GRIDFORMAT_BEGIN
 90
        0
 91
        1
 62
     0
 92
       -2
340
0
 93
        0
 40
0.045
309
GRIDFORMAT_END
 95
        8
302
GRIDFORMAT
  1
GRIDFORMAT_BEGIN
 90
        0
 91
        1
 62
     0
 92
       -2
340
0
 93
        0
 40
0.045
309
GRIDFORMAT_END
 95
       16
302
GRIDFORMAT
  1
GRIDFORMAT_BEGIN
 90
        0
 91
        1
 62
     0
 92
       -2
340
0
 93
        0
 40
0.045
309
GRIDFORMAT_END
 95
       32
302
GRIDFORMAT
  1
GRIDFORMAT_BEGIN
 90
        0
 91
        1
 62
     0
 92
       -2
340
0
 93
        0
 40
0.045
309
GRIDFORMAT_END
309
TABLEFORMAT_END
  1
CELLSTYLE_BEGIN
 90
        1
 91
        1
300
_TITLE
309
CELLSTYLE_END
300
CELLSTYLE
  1
TABLEFORMAT_BEGIN
 90
        5
170
     1
 91
        0
 92
        0
 62
   257
 93
        1
300
CONTENTFORMAT
  1
CONTENTFORMAT_BEGIN
 90
        0
 91
        0
 92
        4
 93
        0
300

 40
0.0
140
1.0
 94
        5
 62
     0
340
11
144
0.18
309
CONTENTFORMAT_END
171
     1
301
MARGIN
  1
CELLMARGIN_BEGIN
 40
0.06
 40
0.06
 40
0.06
 40
0.06
 40
0.18
 40
0.18
309
CELLMARGIN_END
 94
        6
 95
        1
302
GRIDFORMAT
  1
GRIDFORMAT_BEGIN
 90
        0
 91
        1
 62
     0
 92
       -2
340
0
 93
        0
 40
0.045
309
GRIDFORMAT_END
 95
        2
302
GRIDFORMAT
  1
GRIDFORMAT_BEGIN
 90
        0
 91
        1
 62
     0
 92
       -2
340
0
 93
        0
 40
0.045
309
GRIDFORMAT_END
 95
        4
302
GRIDFORMAT
  1
GRIDFORMAT_BEGIN
 90
        0
 91
        1
 62
     0
 92
       -2
340
0
 93
        0
 40
0.045
309
GRIDFORMAT_END
 95
        8
302
GRIDFORMAT
  1
GRIDFORMAT_BEGIN
 90
        0
 91
        1
 62
     0
 92
       -2
340
0
 93
        0
 40
0.045
309
GRIDFORMAT_END
 95
       16
302
GRIDFORMAT
  1
GRIDFORMAT_BEGIN
 90
        0
 91
        1
 62
     0
 92
       -2
340
0
 93
        0
 40
0.045
309
GRIDFORMAT_END
 95
       32
302
GRIDFORMAT
  1
GRIDFORMAT_BEGIN
 90
        0
 91
        1
 62
     0
 92
       -2
340
0
 93
        0
 40
0.045
309
GRIDFORMAT_END
309
TABLEFORMAT_END
  1
CELLSTYLE_BEGIN
 90
        2
 91
        1
300
_HEADER
309
CELLSTYLE_END
300
CELLSTYLE
  1
TABLEFORMAT_BEGIN
 90
        5
170
     1
 91
        0
 92
        0
 62
   257
 93
        1
300
CONTENTFORMAT
  1
CONTENTFORMAT_BEGIN
 90
        0
 91
        0
 92
        4
 93
        0
300

 40
0.0
140
1.0
 94
        2
 62
     0
340
11
144
0.18
309
CONTENTFORMAT_END
171
     1
301
MARGIN
  1
CELLMARGIN_BEGIN
 40
0.06
 40
0.06
 40
0.06
 40
0.06
 40
0.18
 40
0.18
309
CELLMARGIN_END
 94
        6
 95
        1
302
GRIDFORMAT
  1
GRIDFORMAT_BEGIN
 90
        0
 91
        1
 62
     0
 92
       -2
340
0
 93
        0
 40
0.045
309
GRIDFORMAT_END
 95
        2
302
GRIDFORMAT
  1
GRIDFORMAT_BEGIN
 90
        0
 91
        1
 62
     0
 92
       -2
340
0
 93
        0
 40
0.045
309
GRIDFORMAT_END
 95
        4
302
GRIDFORMAT
  1
GRIDFORMAT_BEGIN
 90
        0
 91
        1
 62
     0
 92
       -2
340
0
 93
        0
 40
0.045
309
GRIDFORMAT_END
 95
        8
302
GRIDFORMAT
  1
GRIDFORMAT_BEGIN
 90
        0
 91
        1
 62
     0
 92
       -2
340
0
 93
        0
 40
0.045
309
GRIDFORMAT_END
 95
       16
302
GRIDFORMAT
  1
GRIDFORMAT_BEGIN
 90
        0
 91
        1
 62
     0
 92
       -2
340
0
 93
        0
 40
0.045
309
GRIDFORMAT_END
 95
       32
302
GRIDFORMAT
  1
GRIDFORMAT_BEGIN
 90
        0
 91
        1
 62
     0
 92
       -2
340
0
 93
        0
 40
0.045
309
GRIDFORMAT_END
309
TABLEFORMAT_END
  1
CELLSTYLE_BEGIN
 90
        3
 91
        2
300
_DATA
309
CELLSTYLE_END
  0
XRECORD
  5
13B0
102
{ACAD_REACTORS
330
F2E
102
}
330
F2E
100
AcDbXrecord
280
     1
102
ACAD_ROUNDTRIP_PRE2007_TABLESTYLE
 90
        4
 91
        0
  1

 92
        4
 93
        0
  2

 94
        4
 95
        0
  3

  0
XRECORD
  5
13C0
102
{ACAD_REACTORS
330
13BF
102
}
330
13BF
100
AcDbXrecord
280
     1
102
RTVSPropertyOp0
 70
     1
102
RTVSPropertyOp1
 70
     1
102
RTVSPropertyOp2
 70
     1
102
RTVSPropertyOp3
 70
     1
102
RTVSPropertyOp4
 70
     1
102
RTVSPropertyOp5
 70
     1
102
RTVSPropertyOp6
 70
     1
102
RTVSPropertyOp7
 70
     1
102
RTVSPropertyOp8
 70
     1
102
RTVSPropertyOp9
 70
     1
102
RTVSPropertyOp10
 70
     1
102
RTVSPropertyOp11
 70
     1
102
RTVSPropertyOp12
 70
     1
102
RTVSPropertyOp13
 70
     1
102
RTVSPropertyOp14
 70
     1
102
RTVSPropertyOp15
 70
     1
102
RTVSPropertyOp16
 70
     1
102
RTVSPropertyOp17
 70
     1
102
RTVSPropertyOp18
 70
     1
102
RTVSPropertyOp19
 70
     1
102
RTVSPropertyOp20
 70
     1
102
RTVSPropertyOp21
 70
     1
102
RTVSPropertyOp22
 70
     1
102
RTVSPropertyOp23
 70
     1
102
RTVSPropertyOp24
 70
     1
102
RTVSPropertyOp25
 70
     1
102
RTVSPropertyOp26
 70
     1
102
RTVSPropertyOp27
 70
     1
102
RTVSPropertyOp28
 70
     1
102
RTVSPropertyOp29
 70
     1
102
RTVSPropertyOp30
 70
     1
102
RTVSPropertyOp31
 70
     1
102
RTVSPropertyOp32
 70
     1
  0
XRECORD
  5
13C4
102
{ACAD_REACTORS
330
13C3
102
}
330
13C3
100
AcDbXrecord
280
     1
102
RTVSPropertyOp0
 70
     1
102
RTVSPropertyOp1
 70
     1
102
RTVSPropertyOp2
 70
     1
102
RTVSPropertyOp3
 70
     1
102
RTVSPropertyOp4
 70
     1
102
RTVSPropertyOp5
 70
     1
102
RTVSPropertyOp6
 70
     1
102
RTVSPropertyOp7
 70
     1
102
RTVSPropertyOp8
 70
     1
102
RTVSPropertyOp9
 70
     1
102
RTVSPropertyOp10
 70
     1
102
RTVSPropertyOp11
 70
     1
102
RTVSPropertyOp12
 70
     1
102
RTVSPropertyOp13
 70
     1
102
RTVSPropertyOp14
 70
     1
102
RTVSPropertyOp15
 70
     1
102
RTVSPropertyOp16
 70
     1
102
RTVSPropertyOp17
 70
     1
102
RTVSPropertyOp18
 70
     1
102
RTVSPropertyOp19
 70
     1
102
RTVSPropertyOp20
 70
     1
102
RTVSPropertyOp21
 70
     1
102
RTVSPropertyOp22
 70
     1
102
RTVSPropertyOp23
 70
     1
102
RTVSPropertyOp24
 70
     1
102
RTVSPropertyOp25
 70
     1
102
RTVSPropertyOp26
 70
     1
102
RTVSPropertyOp27
 70
     1
102
RTVSPropertyOp28
 70
     1
102
RTVSPropertyOp29
 70
     1
102
RTVSPropertyOp30
 70
     1
102
RTVSPropertyOp31
 70
     1
102
RTVSPropertyOp32
 70
     1
  0
XRECORD
  5
13C2
102
{ACAD_REACTORS
330
13C1
102
}
330
13C1
100
AcDbXrecord
280
     1
102
RTVSPropertyOp0
 70
     1
102
RTVSPropertyOp1
 70
     1
102
RTVSPropertyOp2
 70
     1
102
RTVSPropertyOp3
 70
     1
102
RTVSPropertyOp4
 70
     1
102
RTVSPropertyOp5
 70
     1
102
RTVSPropertyOp6
 70
     1
102
RTVSPropertyOp7
 70
     1
102
RTVSPropertyOp8
 70
     1
102
RTVSPropertyOp9
 70
     1
102
RTVSPropertyOp10
 70
     1
102
RTVSPropertyOp11
 70
     1
102
RTVSPropertyOp12
 70
     1
102
RTVSPropertyOp13
 70
     1
102
RTVSPropertyOp14
 70
     1
102
RTVSPropertyOp15
 70
     1
102
RTVSPropertyOp16
 70
     1
102
RTVSPropertyOp17
 70
     1
102
RTVSPropertyOp18
 70
     1
102
RTVSPropertyOp19
 70
     1
102
RTVSPropertyOp20
 70
     1
102
RTVSPropertyOp21
 70
     1
102
RTVSPropertyOp22
 70
     1
102
RTVSPropertyOp23
 70
     1
102
RTVSPropertyOp24
 70
     1
102
RTVSPropertyOp25
 70
     1
102
RTVSPropertyOp26
 70
     1
102
RTVSPropertyOp27
 70
     1
102
RTVSPropertyOp28
 70
     1
102
RTVSPropertyOp29
 70
     1
102
RTVSPropertyOp30
 70
     1
102
RTVSPropertyOp31
 70
     1
102
RTVSPropertyOp32
 70
     1
  0
XRECORD
  5
13BE
102
{ACAD_REACTORS
330
13BD
102
}
330
13BD
100
AcDbXrecord
280
     1
102
RTVSPropertyOp0
 70
     1
102
RTVSPropertyOp1
 70
     1
102
RTVSPropertyOp2
 70
     1
102
RTVSPropertyOp3
 70
     1
102
RTVSPropertyOp4
 70
     1
102
RTVSPropertyOp5
 70
     1
102
RTVSPropertyOp6
 70
     1
102
RTVSPropertyOp7
 70
     1
102
RTVSPropertyOp8
 70
     1
102
RTVSPropertyOp9
 70
     1
102
RTVSPropertyOp10
 70
     1
102
RTVSPropertyOp11
 70
     1
102
RTVSPropertyOp12
 70
     1
102
RTVSPropertyOp13
 70
     1
102
RTVSPropertyOp14
 70
     1
102
RTVSPropertyOp15
 70
     1
102
RTVSPropertyOp16
 70
     1
102
RTVSPropertyOp17
 70
     1
102
RTVSPropertyOp18
 70
     1
102
RTVSPropertyOp19
 70
     1
102
RTVSPropertyOp20
 70
     1
102
RTVSPropertyOp21
 70
     1
102
RTVSPropertyOp22
 70
     1
102
RTVSPropertyOp23
 70
     1
102
RTVSPropertyOp24
 70
     1
102
RTVSPropertyOp25
 70
     1
102
RTVSPropertyOp26
 70
     1
102
RTVSPropertyOp27
 70
     1
102
RTVSPropertyOp28
 70
     1
102
RTVSPropertyOp29
 70
     1
102
RTVSPropertyOp30
 70
     1
102
RTVSPropertyOp31
 70
     1
102
RTVSPropertyOp32
 70
     1
  0
XRECORD
  5
13CC
102
{ACAD_REACTORS
330
13CB
102
}
330
13CB
100
AcDbXrecord
280
     1
102
RTVSPropertyOp0
 70
     1
102
RTVSPropertyOp1
 70
     1
102
RTVSPropertyOp2
 70
     1
102
RTVSPropertyOp3
 70
     1
102
RTVSPropertyOp4
 70
     1
102
RTVSPropertyOp5
 70
     1
102
RTVSPropertyOp6
 70
     1
102
RTVSPropertyOp7
 70
     1
102
RTVSPropertyOp8
 70
     1
102
RTVSPropertyOp9
 70
     1
102
RTVSPropertyOp10
 70
     1
102
RTVSPropertyOp11
 70
     1
102
RTVSPropertyOp12
 70
     1
102
RTVSPropertyOp13
 70
     1
102
RTVSPropertyOp14
 70
     1
102
RTVSPropertyOp15
 70
     1
102
RTVSPropertyOp16
 70
     1
102
RTVSPropertyOp17
 70
     1
102
RTVSPropertyOp18
 70
     1
102
RTVSPropertyOp19
 70
     1
102
RTVSPropertyOp20
 70
     1
102
RTVSPropertyOp21
 70
     1
102
RTVSPropertyOp22
 70
     1
102
RTVSPropertyOp23
 70
     1
102
RTVSPropertyOp24
 70
     1
102
RTVSPropertyOp25
 70
     1
102
RTVSPropertyOp26
 70
     1
102
RTVSPropertyOp27
 70
     1
102
RTVSPropertyOp28
 70
     1
102
RTVSPropertyOp29
 70
     1
102
RTVSPropertyOp30
 70
     1
102
RTVSPropertyOp31
 70
     1
102
RTVSPropertyOp32
 70
     1
  0
XRECORD
  5
13D4
102
{ACAD_REACTORS
330
13D3
102
}
330
13D3
100
AcDbXrecord
280
     1
102
RTVSPropertyOp0
 70
     1
102
RTVSPropertyOp1
 70
     1
102
RTVSPropertyOp2
 70
     1
102
RTVSPropertyOp3
 70
     1
102
RTVSPropertyOp4
 70
     1
102
RTVSPropertyOp5
 70
     1
102
RTVSPropertyOp6
 70
     1
102
RTVSPropertyOp7
 70
     1
102
RTVSPropertyOp8
 70
     1
102
RTVSPropertyOp9
 70
     1
102
RTVSPropertyOp10
 70
     1
102
RTVSPropertyOp11
 70
     1
102
RTVSPropertyOp12
 70
     1
102
RTVSPropertyOp13
 70
     1
102
RTVSPropertyOp14
 70
     1
102
RTVSPropertyOp15
 70
     1
102
RTVSPropertyOp16
 70
     1
102
RTVSPropertyOp17
 70
     1
102
RTVSPropertyOp18
 70
     1
102
RTVSPropertyOp19
 70
     1
102
RTVSPropertyOp20
 70
     1
102
RTVSPropertyOp21
 70
     1
102
RTVSPropertyOp22
 70
     1
102
RTVSPropertyOp23
 70
     1
102
RTVSPropertyOp24
 70
     1
102
RTVSPropertyOp25
 70
     1
102
RTVSPropertyOp26
 70
     1
102
RTVSPropertyOp27
 70
     1
102
RTVSPropertyOp28
 70
     1
102
RTVSPropertyOp29
 70
     1
102
RTVSPropertyOp30
 70
     1
102
RTVSPropertyOp31
 70
     1
102
RTVSPropertyOp32
 70
     1
  0
XRECORD
  5
13C6
102
{ACAD_REACTORS
330
13C5
102
}
330
13C5
100
AcDbXrecord
280
     1
102
RTVSPropertyOp0
 70
     1
102
RTVSPropertyOp1
 70
     1
102
RTVSPropertyOp2
 70
     1
102
RTVSPropertyOp3
 70
     1
102
RTVSPropertyOp4
 70
     1
102
RTVSPropertyOp5
 70
     1
102
RTVSPropertyOp6
 70
     1
102
RTVSPropertyOp7
 70
     1
102
RTVSPropertyOp8
 70
     1
102
RTVSPropertyOp9
 70
     1
102
RTVSPropertyOp10
 70
     1
102
RTVSPropertyOp11
 70
     1
102
RTVSPropertyOp12
 70
     1
102
RTVSPropertyOp13
 70
     1
102
RTVSPropertyOp14
 70
     1
102
RTVSPropertyOp15
 70
     1
102
RTVSPropertyOp16
 70
     1
102
RTVSPropertyOp17
 70
     1
102
RTVSPropertyOp18
 70
     1
102
RTVSPropertyOp19
 70
     1
102
RTVSPropertyOp20
 70
     1
102
RTVSPropertyOp21
 70
     1
102
RTVSPropertyOp22
 70
     1
102
RTVSPropertyOp23
 70
     1
102
RTVSPropertyOp24
 70
     1
102
RTVSPropertyOp25
 70
     1
102
RTVSPropertyOp26
 70
     1
102
RTVSPropertyOp27
 70
     1
102
RTVSPropertyOp28
 70
     1
102
RTVSPropertyOp29
 70
     1
102
RTVSPropertyOp30
 70
     1
102
RTVSPropertyOp31
 70
     1
102
RTVSPropertyOp32
 70
     1
  0
XRECORD
  5
13CA
102
{ACAD_REACTORS
330
13C9
102
}
330
13C9
100
AcDbXrecord
280
     1
102
RTVSPropertyOp0
 70
     1
102
RTVSPropertyOp1
 70
     1
102
RTVSPropertyOp2
 70
     1
102
RTVSPropertyOp3
 70
     1
102
RTVSPropertyOp4
 70
     1
102
RTVSPropertyOp5
 70
     1
102
RTVSPropertyOp6
 70
     1
102
RTVSPropertyOp7
 70
     1
102
RTVSPropertyOp8
 70
     1
102
RTVSPropertyOp9
 70
     1
102
RTVSPropertyOp10
 70
     1
102
RTVSPropertyOp11
 70
     1
102
RTVSPropertyOp12
 70
     1
102
RTVSPropertyOp13
 70
     1
102
RTVSPropertyOp14
 70
     1
102
RTVSPropertyOp15
 70
     1
102
RTVSPropertyOp16
 70
     1
102
RTVSPropertyOp17
 70
     1
102
RTVSPropertyOp18
 70
     1
102
RTVSPropertyOp19
 70
     1
102
RTVSPropertyOp20
 70
     1
102
RTVSPropertyOp21
 70
     1
102
RTVSPropertyOp22
 70
     1
102
RTVSPropertyOp23
 70
     1
102
RTVSPropertyOp24
 70
     1
102
RTVSPropertyOp25
 70
     1
102
RTVSPropertyOp26
 70
     1
102
RTVSPropertyOp27
 70
     1
102
RTVSPropertyOp28
 70
     1
102
RTVSPropertyOp29
 70
     1
102
RTVSPropertyOp30
 70
     1
102
RTVSPropertyOp31
 70
     1
102
RTVSPropertyOp32
 70
     1
  0
XRECORD
  5
13E8
102
{ACAD_REACTORS
330
13E7
102
}
330
13E7
100
AcDbXrecord
280
     1
102
RTVSPropertyOp0
 70
     0
102
RTVSPropertyOp1
 70
     0
102
RTVSPropertyOp2
 70
     0
102
RTVSPropertyOp3
 70
     0
102
RTVSPropertyOp4
 70
     0
102
RTVSPropertyOp5
 70
     0
102
RTVSPropertyOp6
 70
     0
102
RTVSPropertyOp7
 70
     0
102
RTVSPropertyOp8
 70
     0
102
RTVSPropertyOp9
 70
     0
102
RTVSPropertyOp10
 70
     0
102
RTVSPropertyOp11
 70
     0
102
RTVSPropertyOp12
 70
     0
102
RTVSPropertyOp13
 70
     0
102
RTVSPropertyOp14
 70
     2
102
RTVSPropertyOp15
 70
     0
102
RTVSPropertyOp16
 70
     0
102
RTVSPropertyOp17
 70
     0
102
RTVSPropertyOp18
 70
     0
102
RTVSPropertyOp19
 70
     0
102
RTVSPropertyOp20
 70
     0
102
RTVSPropertyOp21
 70
     0
102
RTVSPropertyOp22
 70
     0
102
RTVSPropertyOp23
 70
     0
102
RTVSPropertyOp24
 70
     0
102
RTVSPropertyOp25
 70
     0
102
RTVSPropertyOp26
 70
     0
102
RTVSPropertyOp27
 70
     0
102
RTVSPropertyOp28
 70
     0
102
RTVSPropertyOp29
 70
     0
102
RTVSPropertyOp30
 70
     0
102
RTVSPropertyOp31
 70
     0
102
RTVSPropertyOp32
 70
     0
  0
XRECORD
  5
13D2
102
{ACAD_REACTORS
330
13D1
102
}
330
13D1
100
AcDbXrecord
280
     1
102
RTVSPropertyOp0
 70
     1
102
RTVSPropertyOp1
 70
     1
102
RTVSPropertyOp2
 70
     1
102
RTVSPropertyOp3
 70
     1
102
RTVSPropertyOp4
 70
     1
102
RTVSPropertyOp5
 70
     1
102
RTVSPropertyOp6
 70
     1
102
RTVSPropertyOp7
 70
     1
102
RTVSPropertyOp8
 70
     1
102
RTVSPropertyOp9
 70
     1
102
RTVSPropertyOp10
 70
     1
102
RTVSPropertyOp11
 70
     1
102
RTVSPropertyOp12
 70
     1
102
RTVSPropertyOp13
 70
     1
102
RTVSPropertyOp14
 70
     1
102
RTVSPropertyOp15
 70
     1
102
RTVSPropertyOp16
 70
     1
102
RTVSPropertyOp17
 70
     1
102
RTVSPropertyOp18
 70
     1
102
RTVSPropertyOp19
 70
     1
102
RTVSPropertyOp20
 70
     1
102
RTVSPropertyOp21
 70
     1
102
RTVSPropertyOp22
 70
     1
102
RTVSPropertyOp23
 70
     1
102
RTVSPropertyOp24
 70
     1
102
RTVSPropertyOp25
 70
     1
102
RTVSPropertyOp26
 70
     1
102
RTVSPropertyOp27
 70
     1
102
RTVSPropertyOp28
 70
     1
102
RTVSPropertyOp29
 70
     1
102
RTVSPropertyOp30
 70
     1
102
RTVSPropertyOp31
 70
     1
102
RTVSPropertyOp32
 70
     1
  0
XRECORD
  5
13B6
102
{ACAD_REACTORS
330
13B5
102
}
330
13B5
100
AcDbXrecord
280
     1
102
RTVSPropertyOp0
 70
     1
102
RTVSPropertyOp1
 70
     1
102
RTVSPropertyOp2
 70
     1
102
RTVSPropertyOp3
 70
     1
102
RTVSPropertyOp4
 70
     1
102
RTVSPropertyOp5
 70
     1
102
RTVSPropertyOp6
 70
     1
102
RTVSPropertyOp7
 70
     1
102
RTVSPropertyOp8
 70
     1
102
RTVSPropertyOp9
 70
     1
102
RTVSPropertyOp10
 70
     1
102
RTVSPropertyOp11
 70
     1
102
RTVSPropertyOp12
 70
     1
102
RTVSPropertyOp13
 70
     1
102
RTVSPropertyOp14
 70
     1
102
RTVSPropertyOp15
 70
     1
102
RTVSPropertyOp16
 70
     1
102
RTVSPropertyOp17
 70
     1
102
RTVSPropertyOp18
 70
     1
102
RTVSPropertyOp19
 70
     1
102
RTVSPropertyOp20
 70
     1
102
RTVSPropertyOp21
 70
     1
102
RTVSPropertyOp22
 70
     1
102
RTVSPropertyOp23
 70
     1
102
RTVSPropertyOp24
 70
     1
102
RTVSPropertyOp25
 70
     1
102
RTVSPropertyOp26
 70
     1
102
RTVSPropertyOp27
 70
     1
102
RTVSPropertyOp28
 70
     1
102
RTVSPropertyOp29
 70
     1
102
RTVSPropertyOp30
 70
     1
102
RTVSPropertyOp31
 70
     1
102
RTVSPropertyOp32
 70
     1
  0
XRECORD
  5
13B8
102
{ACAD_REACTORS
330
13B7
102
}
330
13B7
100
AcDbXrecord
280
     1
102
RTVSPropertyOp0
 70
     1
102
RTVSPropertyOp1
 70
     1
102
RTVSPropertyOp2
 70
     1
102
RTVSPropertyOp3
 70
     1
102
RTVSPropertyOp4
 70
     1
102
RTVSPropertyOp5
 70
     1
102
RTVSPropertyOp6
 70
     1
102
RTVSPropertyOp7
 70
     1
102
RTVSPropertyOp8
 70
     1
102
RTVSPropertyOp9
 70
     1
102
RTVSPropertyOp10
 70
     1
102
RTVSPropertyOp11
 70
     1
102
RTVSPropertyOp12
 70
     1
102
RTVSPropertyOp13
 70
     1
102
RTVSPropertyOp14
 70
     1
102
RTVSPropertyOp15
 70
     1
102
RTVSPropertyOp16
 70
     1
102
RTVSPropertyOp17
 70
     1
102
RTVSPropertyOp18
 70
     1
102
RTVSPropertyOp19
 70
     1
102
RTVSPropertyOp20
 70
     1
102
RTVSPropertyOp21
 70
     1
102
RTVSPropertyOp22
 70
     1
102
RTVSPropertyOp23
 70
     1
102
RTVSPropertyOp24
 70
     1
102
RTVSPropertyOp25
 70
     1
102
RTVSPropertyOp26
 70
     1
102
RTVSPropertyOp27
 70
     1
102
RTVSPropertyOp28
 70
     1
102
RTVSPropertyOp29
 70
     1
102
RTVSPropertyOp30
 70
     1
102
RTVSPropertyOp31
 70
     1
102
RTVSPropertyOp32
 70
     1
  0
XRECORD
  5
13BA
102
{ACAD_REACTORS
330
13B9
102
}
330
13B9
100
AcDbXrecord
280
     1
102
RTVSPropertyOp0
 70
     1
102
RTVSPropertyOp1
 70
     1
102
RTVSPropertyOp2
 70
     1
102
RTVSPropertyOp3
 70
     1
102
RTVSPropertyOp4
 70
     1
102
RTVSPropertyOp5
 70
     1
102
RTVSPropertyOp6
 70
     1
102
RTVSPropertyOp7
 70
     1
102
RTVSPropertyOp8
 70
     1
102
RTVSPropertyOp9
 70
     1
102
RTVSPropertyOp10
 70
     1
102
RTVSPropertyOp11
 70
     1
102
RTVSPropertyOp12
 70
     1
102
RTVSPropertyOp13
 70
     1
102
RTVSPropertyOp14
 70
     1
102
RTVSPropertyOp15
 70
     1
102
RTVSPropertyOp16
 70
     1
102
RTVSPropertyOp17
 70
     1
102
RTVSPropertyOp18
 70
     1
102
RTVSPropertyOp19
 70
     1
102
RTVSPropertyOp20
 70
     1
102
RTVSPropertyOp21
 70
     1
102
RTVSPropertyOp22
 70
     1
102
RTVSPropertyOp23
 70
     1
102
RTVSPropertyOp24
 70
     1
102
RTVSPropertyOp25
 70
     1
102
RTVSPropertyOp26
 70
     1
102
RTVSPropertyOp27
 70
     1
102
RTVSPropertyOp28
 70
     1
102
RTVSPropertyOp29
 70
     1
102
RTVSPropertyOp30
 70
     1
102
RTVSPropertyOp31
 70
     1
102
RTVSPropertyOp32
 70
     1
  0
XRECORD
  5
13BC
102
{ACAD_REACTORS
330
13BB
102
}
330
13BB
100
AcDbXrecord
280
     1
102
RTVSPropertyOp0
 70
     1
102
RTVSPropertyOp1
 70
     1
102
RTVSPropertyOp2
 70
     1
102
RTVSPropertyOp3
 70
     1
102
RTVSPropertyOp4
 70
     1
102
RTVSPropertyOp5
 70
     1
102
RTVSPropertyOp6
 70
     1
102
RTVSPropertyOp7
 70
     1
102
RTVSPropertyOp8
 70
     1
102
RTVSPropertyOp9
 70
     1
102
RTVSPropertyOp10
 70
     1
102
RTVSPropertyOp11
 70
     1
102
RTVSPropertyOp12
 70
     1
102
RTVSPropertyOp13
 70
     1
102
RTVSPropertyOp14
 70
     1
102
RTVSPropertyOp15
 70
     1
102
RTVSPropertyOp16
 70
     1
102
RTVSPropertyOp17
 70
     1
102
RTVSPropertyOp18
 70
     1
102
RTVSPropertyOp19
 70
     1
102
RTVSPropertyOp20
 70
     1
102
RTVSPropertyOp21
 70
     1
102
RTVSPropertyOp22
 70
     1
102
RTVSPropertyOp23
 70
     1
102
RTVSPropertyOp24
 70
     1
102
RTVSPropertyOp25
 70
     1
102
RTVSPropertyOp26
 70
     1
102
RTVSPropertyOp27
 70
     1
102
RTVSPropertyOp28
 70
     1
102
RTVSPropertyOp29
 70
     1
102
RTVSPropertyOp30
 70
     1
102
RTVSPropertyOp31
 70
     1
102
RTVSPropertyOp32
 70
     1
  0
XRECORD
  5
13D8
102
{ACAD_REACTORS
330
13D7
102
}
330
13D7
100
AcDbXrecord
280
     1
102
RTVSPropertyOp0
 70
     1
102
RTVSPropertyOp1
 70
     1
102
RTVSPropertyOp2
 70
     1
102
RTVSPropertyOp3
 70
     1
102
RTVSPropertyOp4
 70
     1
102
RTVSPropertyOp5
 70
     1
102
RTVSPropertyOp6
 70
     1
102
RTVSPropertyOp7
 70
     1
102
RTVSPropertyOp8
 70
     1
102
RTVSPropertyOp9
 70
     1
102
RTVSPropertyOp10
 70
     1
102
RTVSPropertyOp11
 70
     1
102
RTVSPropertyOp12
 70
     1
102
RTVSPropertyOp13
 70
     1
102
RTVSPropertyOp14
 70
     1
102
RTVSPropertyOp15
 70
     1
102
RTVSPropertyOp16
 70
     1
102
RTVSPropertyOp17
 70
     1
102
RTVSPropertyOp18
 70
     1
102
RTVSPropertyOp19
 70
     1
102
RTVSPropertyOp20
 70
     1
102
RTVSPropertyOp21
 70
     1
102
RTVSPropertyOp22
 70
     1
102
RTVSPropertyOp23
 70
     1
102
RTVSPropertyOp24
 70
     1
102
RTVSPropertyOp25
 70
     1
102
RTVSPropertyOp26
 70
     1
102
RTVSPropertyOp27
 70
     1
102
RTVSPropertyOp28
 70
     1
102
RTVSPropertyOp29
 70
     1
102
RTVSPropertyOp30
 70
     1
102
RTVSPropertyOp31
 70
     1
102
RTVSPropertyOp32
 70
     1
  0
XRECORD
  5
13E4
102
{ACAD_REACTORS
330
13E3
102
}
330
13E3
100
AcDbXrecord
280
     1
102
RTVSPropertyOp0
 70
     0
102
RTVSPropertyOp1
 70
     0
102
RTVSPropertyOp2
 70
     0
102
RTVSPropertyOp3
 70
     0
102
RTVSPropertyOp4
 70
     0
102
RTVSPropertyOp5
 70
     0
102
RTVSPropertyOp6
 70
     0
102
RTVSPropertyOp7
 70
     0
102
RTVSPropertyOp8
 70
     0
102
RTVSPropertyOp9
 70
     0
102
RTVSPropertyOp10
 70
     0
102
RTVSPropertyOp11
 70
     0
102
RTVSPropertyOp12
 70
     0
102
RTVSPropertyOp13
 70
     0
102
RTVSPropertyOp14
 70
     2
102
RTVSPropertyOp15
 70
     0
102
RTVSPropertyOp16
 70
     0
102
RTVSPropertyOp17
 70
     0
102
RTVSPropertyOp18
 70
     0
102
RTVSPropertyOp19
 70
     0
102
RTVSPropertyOp20
 70
     0
102
RTVSPropertyOp21
 70
     0
102
RTVSPropertyOp22
 70
     0
102
RTVSPropertyOp23
 70
     0
102
RTVSPropertyOp24
 70
     0
102
RTVSPropertyOp25
 70
     0
102
RTVSPropertyOp26
 70
     0
102
RTVSPropertyOp27
 70
     0
102
RTVSPropertyOp28
 70
     0
102
RTVSPropertyOp29
 70
     0
102
RTVSPropertyOp30
 70
     0
102
RTVSPropertyOp31
 70
     0
102
RTVSPropertyOp32
 70
     0
  0
XRECORD
  5
13D0
102
{ACAD_REACTORS
330
13CF
102
}
330
13CF
100
AcDbXrecord
280
     1
102
RTVSPropertyOp0
 70
     1
102
RTVSPropertyOp1
 70
     1
102
RTVSPropertyOp2
 70
     1
102
RTVSPropertyOp3
 70
     1
102
RTVSPropertyOp4
 70
     1
102
RTVSPropertyOp5
 70
     1
102
RTVSPropertyOp6
 70
     1
102
RTVSPropertyOp7
 70
     1
102
RTVSPropertyOp8
 70
     1
102
RTVSPropertyOp9
 70
     1
102
RTVSPropertyOp10
 70
     1
102
RTVSPropertyOp11
 70
     1
102
RTVSPropertyOp12
 70
     1
102
RTVSPropertyOp13
 70
     1
102
RTVSPropertyOp14
 70
     1
102
RTVSPropertyOp15
 70
     1
102
RTVSPropertyOp16
 70
     1
102
RTVSPropertyOp17
 70
     1
102
RTVSPropertyOp18
 70
     1
102
RTVSPropertyOp19
 70
     1
102
RTVSPropertyOp20
 70
     1
102
RTVSPropertyOp21
 70
     1
102
RTVSPropertyOp22
 70
     1
102
RTVSPropertyOp23
 70
     1
102
RTVSPropertyOp24
 70
     1
102
RTVSPropertyOp25
 70
     1
102
RTVSPropertyOp26
 70
     1
102
RTVSPropertyOp27
 70
     1
102
RTVSPropertyOp28
 70
     1
102
RTVSPropertyOp29
 70
     1
102
RTVSPropertyOp30
 70
     1
102
RTVSPropertyOp31
 70
     1
102
RTVSPropertyOp32
 70
     1
  0
XRECORD
  5
13E6
102
{ACAD_REACTORS
330
13E5
102
}
330
13E5
100
AcDbXrecord
280
     1
102
RTVSPropertyOp0
 70
     0
102
RTVSPropertyOp1
 70
     0
102
RTVSPropertyOp2
 70
     0
102
RTVSPropertyOp3
 70
     0
102
RTVSPropertyOp4
 70
     0
102
RTVSPropertyOp5
 70
     0
102
RTVSPropertyOp6
 70
     0
102
RTVSPropertyOp7
 70
     0
102
RTVSPropertyOp8
 70
     0
102
RTVSPropertyOp9
 70
     0
102
RTVSPropertyOp10
 70
     0
102
RTVSPropertyOp11
 70
     0
102
RTVSPropertyOp12
 70
     0
102
RTVSPropertyOp13
 70
     0
102
RTVSPropertyOp14
 70
     2
102
RTVSPropertyOp15
 70
     0
102
RTVSPropertyOp16
 70
     0
102
RTVSPropertyOp17
 70
     0
102
RTVSPropertyOp18
 70
     0
102
RTVSPropertyOp19
 70
     0
102
RTVSPropertyOp20
 70
     0
102
RTVSPropertyOp21
 70
     0
102
RTVSPropertyOp22
 70
     0
102
RTVSPropertyOp23
 70
     0
102
RTVSPropertyOp24
 70
     0
102
RTVSPropertyOp25
 70
     0
102
RTVSPropertyOp26
 70
     0
102
RTVSPropertyOp27
 70
     0
102
RTVSPropertyOp28
 70
     0
102
RTVSPropertyOp29
 70
     0
102
RTVSPropertyOp30
 70
     0
102
RTVSPropertyOp31
 70
     0
102
RTVSPropertyOp32
 70
     0
  0
XRECORD
  5
13C8
102
{ACAD_REACTORS
330
13C7
102
}
330
13C7
100
AcDbXrecord
280
     1
102
RTVSPropertyOp0
 70
     1
102
RTVSPropertyOp1
 70
     1
102
RTVSPropertyOp2
 70
     1
102
RTVSPropertyOp3
 70
     1
102
RTVSPropertyOp4
 70
     1
102
RTVSPropertyOp5
 70
     1
102
RTVSPropertyOp6
 70
     1
102
RTVSPropertyOp7
 70
     1
102
RTVSPropertyOp8
 70
     1
102
RTVSPropertyOp9
 70
     1
102
RTVSPropertyOp10
 70
     1
102
RTVSPropertyOp11
 70
     1
102
RTVSPropertyOp12
 70
     1
102
RTVSPropertyOp13
 70
     1
102
RTVSPropertyOp14
 70
     1
102
RTVSPropertyOp15
 70
     1
102
RTVSPropertyOp16
 70
     1
102
RTVSPropertyOp17
 70
     1
102
RTVSPropertyOp18
 70
     1
102
RTVSPropertyOp19
 70
     1
102
RTVSPropertyOp20
 70
     1
102
RTVSPropertyOp21
 70
     1
102
RTVSPropertyOp22
 70
     1
102
RTVSPropertyOp23
 70
     1
102
RTVSPropertyOp24
 70
     1
102
RTVSPropertyOp25
 70
     1
102
RTVSPropertyOp26
 70
     1
102
RTVSPropertyOp27
 70
     1
102
RTVSPropertyOp28
 70
     1
102
RTVSPropertyOp29
 70
     1
102
RTVSPropertyOp30
 70
     1
102
RTVSPropertyOp31
 70
     1
102
RTVSPropertyOp32
 70
     1
  0
XRECORD
  5
13E2
102
{ACAD_REACTORS
330
13E1
102
}
330
13E1
100
AcDbXrecord
280
     1
102
RTVSPropertyOp0
 70
     1
102
RTVSPropertyOp1
 70
     1
102
RTVSPropertyOp2
 70
     1
102
RTVSPropertyOp3
 70
     1
102
RTVSPropertyOp4
 70
     1
102
RTVSPropertyOp5
 70
     1
102
RTVSPropertyOp6
 70
     1
102
RTVSPropertyOp7
 70
     1
102
RTVSPropertyOp8
 70
     1
102
RTVSPropertyOp9
 70
     1
102
RTVSPropertyOp10
 70
     1
102
RTVSPropertyOp11
 70
     1
102
RTVSPropertyOp12
 70
     1
102
RTVSPropertyOp13
 70
     1
102
RTVSPropertyOp14
 70
     1
102
RTVSPropertyOp15
 70
     1
102
RTVSPropertyOp16
 70
     1
102
RTVSPropertyOp17
 70
     1
102
RTVSPropertyOp18
 70
     1
102
RTVSPropertyOp19
 70
     1
102
RTVSPropertyOp20
 70
     1
102
RTVSPropertyOp21
 70
     1
102
RTVSPropertyOp22
 70
     1
102
RTVSPropertyOp23
 70
     1
102
RTVSPropertyOp24
 70
     1
102
RTVSPropertyOp25
 70
     1
102
RTVSPropertyOp26
 70
     1
102
RTVSPropertyOp27
 70
     1
102
RTVSPropertyOp28
 70
     1
102
RTVSPropertyOp29
 70
     1
102
RTVSPropertyOp30
 70
     1
102
RTVSPropertyOp31
 70
     1
102
RTVSPropertyOp32
 70
     1
  0
XRECORD
  5
13E0
102
{ACAD_REACTORS
330
13DF
102
}
330
13DF
100
AcDbXrecord
280
     1
102
RTVSPropertyOp0
 70
     1
102
RTVSPropertyOp1
 70
     1
102
RTVSPropertyOp2
 70
     1
102
RTVSPropertyOp3
 70
     1
102
RTVSPropertyOp4
 70
     1
102
RTVSPropertyOp5
 70
     1
102
RTVSPropertyOp6
 70
     1
102
RTVSPropertyOp7
 70
     1
102
RTVSPropertyOp8
 70
     1
102
RTVSPropertyOp9
 70
     1
102
RTVSPropertyOp10
 70
     1
102
RTVSPropertyOp11
 70
     1
102
RTVSPropertyOp12
 70
     1
102
RTVSPropertyOp13
 70
     1
102
RTVSPropertyOp14
 70
     1
102
RTVSPropertyOp15
 70
     1
102
RTVSPropertyOp16
 70
     1
102
RTVSPropertyOp17
 70
     1
102
RTVSPropertyOp18
 70
     1
102
RTVSPropertyOp19
 70
     1
102
RTVSPropertyOp20
 70
     1
102
RTVSPropertyOp21
 70
     1
102
RTVSPropertyOp22
 70
     1
102
RTVSPropertyOp23
 70
     1
102
RTVSPropertyOp24
 70
     1
102
RTVSPropertyOp25
 70
     1
102
RTVSPropertyOp26
 70
     1
102
RTVSPropertyOp27
 70
     1
102
RTVSPropertyOp28
 70
     1
102
RTVSPropertyOp29
 70
     1
102
RTVSPropertyOp30
 70
     1
102
RTVSPropertyOp31
 70
     1
102
RTVSPropertyOp32
 70
     1
  0
XRECORD
  5
13DA
102
{ACAD_REACTORS
330
13D9
102
}
330
13D9
100
AcDbXrecord
280
     1
102
RTVSPropertyOp0
 70
     1
102
RTVSPropertyOp1
 70
     1
102
RTVSPropertyOp2
 70
     1
102
RTVSPropertyOp3
 70
     1
102
RTVSPropertyOp4
 70
     1
102
RTVSPropertyOp5
 70
     1
102
RTVSPropertyOp6
 70
     1
102
RTVSPropertyOp7
 70
     1
102
RTVSPropertyOp8
 70
     1
102
RTVSPropertyOp9
 70
     1
102
RTVSPropertyOp10
 70
     1
102
RTVSPropertyOp11
 70
     1
102
RTVSPropertyOp12
 70
     1
102
RTVSPropertyOp13
 70
     1
102
RTVSPropertyOp14
 70
     1
102
RTVSPropertyOp15
 70
     1
102
RTVSPropertyOp16
 70
     1
102
RTVSPropertyOp17
 70
     1
102
RTVSPropertyOp18
 70
     1
102
RTVSPropertyOp19
 70
     1
102
RTVSPropertyOp20
 70
     1
102
RTVSPropertyOp21
 70
     1
102
RTVSPropertyOp22
 70
     1
102
RTVSPropertyOp23
 70
     1
102
RTVSPropertyOp24
 70
     1
102
RTVSPropertyOp25
 70
     1
102
RTVSPropertyOp26
 70
     1
102
RTVSPropertyOp27
 70
     1
102
RTVSPropertyOp28
 70
     1
102
RTVSPropertyOp29
 70
     1
102
RTVSPropertyOp30
 70
     1
102
RTVSPropertyOp31
 70
     1
102
RTVSPropertyOp32
 70
     1
  0
XRECORD
  5
13DC
102
{ACAD_REACTORS
330
13DB
102
}
330
13DB
100
AcDbXrecord
280
     1
102
RTVSPropertyOp0
 70
     1
102
RTVSPropertyOp1
 70
     1
102
RTVSPropertyOp2
 70
     1
102
RTVSPropertyOp3
 70
     1
102
RTVSPropertyOp4
 70
     1
102
RTVSPropertyOp5
 70
     1
102
RTVSPropertyOp6
 70
     1
102
RTVSPropertyOp7
 70
     1
102
RTVSPropertyOp8
 70
     1
102
RTVSPropertyOp9
 70
     1
102
RTVSPropertyOp10
 70
     1
102
RTVSPropertyOp11
 70
     1
102
RTVSPropertyOp12
 70
     1
102
RTVSPropertyOp13
 70
     1
102
RTVSPropertyOp14
 70
     1
102
RTVSPropertyOp15
 70
     1
102
RTVSPropertyOp16
 70
     1
102
RTVSPropertyOp17
 70
     1
102
RTVSPropertyOp18
 70
     1
102
RTVSPropertyOp19
 70
     1
102
RTVSPropertyOp20
 70
     1
102
RTVSPropertyOp21
 70
     1
102
RTVSPropertyOp22
 70
     1
102
RTVSPropertyOp23
 70
     1
102
RTVSPropertyOp24
 70
     1
102
RTVSPropertyOp25
 70
     1
102
RTVSPropertyOp26
 70
     1
102
RTVSPropertyOp27
 70
     1
102
RTVSPropertyOp28
 70
     1
102
RTVSPropertyOp29
 70
     1
102
RTVSPropertyOp30
 70
     1
102
RTVSPropertyOp31
 70
     1
102
RTVSPropertyOp32
 70
     1
  0
XRECORD
  5
13CE
102
{ACAD_REACTORS
330
13CD
102
}
330
13CD
100
AcDbXrecord
280
     1
102
RTVSPropertyOp0
 70
     1
102
RTVSPropertyOp1
 70
     1
102
RTVSPropertyOp2
 70
     1
102
RTVSPropertyOp3
 70
     1
102
RTVSPropertyOp4
 70
     1
102
RTVSPropertyOp5
 70
     1
102
RTVSPropertyOp6
 70
     1
102
RTVSPropertyOp7
 70
     1
102
RTVSPropertyOp8
 70
     1
102
RTVSPropertyOp9
 70
     1
102
RTVSPropertyOp10
 70
     1
102
RTVSPropertyOp11
 70
     1
102
RTVSPropertyOp12
 70
     1
102
RTVSPropertyOp13
 70
     1
102
RTVSPropertyOp14
 70
     1
102
RTVSPropertyOp15
 70
     1
102
RTVSPropertyOp16
 70
     1
102
RTVSPropertyOp17
 70
     1
102
RTVSPropertyOp18
 70
     1
102
RTVSPropertyOp19
 70
     1
102
RTVSPropertyOp20
 70
     1
102
RTVSPropertyOp21
 70
     1
102
RTVSPropertyOp22
 70
     1
102
RTVSPropertyOp23
 70
     1
102
RTVSPropertyOp24
 70
     1
102
RTVSPropertyOp25
 70
     1
102
RTVSPropertyOp26
 70
     1
102
RTVSPropertyOp27
 70
     1
102
RTVSPropertyOp28
 70
     1
102
RTVSPropertyOp29
 70
     1
102
RTVSPropertyOp30
 70
     1
102
RTVSPropertyOp31
 70
     1
102
RTVSPropertyOp32
 70
     1
  0
XRECORD
  5
13D6
102
{ACAD_REACTORS
330
13D5
102
}
330
13D5
100
AcDbXrecord
280
     1
102
RTVSPropertyOp0
 70
     1
102
RTVSPropertyOp1
 70
     1
102
RTVSPropertyOp2
 70
     1
102
RTVSPropertyOp3
 70
     1
102
RTVSPropertyOp4
 70
     1
102
RTVSPropertyOp5
 70
     1
102
RTVSPropertyOp6
 70
     1
102
RTVSPropertyOp7
 70
     1
102
RTVSPropertyOp8
 70
     1
102
RTVSPropertyOp9
 70
     1
102
RTVSPropertyOp10
 70
     1
102
RTVSPropertyOp11
 70
     1
102
RTVSPropertyOp12
 70
     1
102
RTVSPropertyOp13
 70
     1
102
RTVSPropertyOp14
 70
     1
102
RTVSPropertyOp15
 70
     1
102
RTVSPropertyOp16
 70
     1
102
RTVSPropertyOp17
 70
     1
102
RTVSPropertyOp18
 70
     1
102
RTVSPropertyOp19
 70
     1
102
RTVSPropertyOp20
 70
     1
102
RTVSPropertyOp21
 70
     1
102
RTVSPropertyOp22
 70
     1
102
RTVSPropertyOp23
 70
     1
102
RTVSPropertyOp24
 70
     1
102
RTVSPropertyOp25
 70
     1
102
RTVSPropertyOp26
 70
     1
102
RTVSPropertyOp27
 70
     1
102
RTVSPropertyOp28
 70
     1
102
RTVSPropertyOp29
 70
     1
102
RTVSPropertyOp30
 70
     1
102
RTVSPropertyOp31
 70
     1
102
RTVSPropertyOp32
 70
     1
  0
XRECORD
  5
13DE
102
{ACAD_REACTORS
330
13DD
102
}
330
13DD
100
AcDbXrecord
280
     1
102
RTVSPropertyOp0
 70
     1
102
RTVSPropertyOp1
 70
     1
102
RTVSPropertyOp2
 70
     1
102
RTVSPropertyOp3
 70
     1
102
RTVSPropertyOp4
 70
     1
102
RTVSPropertyOp5
 70
     1
102
RTVSPropertyOp6
 70
     1
102
RTVSPropertyOp7
 70
     1
102
RTVSPropertyOp8
 70
     1
102
RTVSPropertyOp9
 70
     1
102
RTVSPropertyOp10
 70
     1
102
RTVSPropertyOp11
 70
     1
102
RTVSPropertyOp12
 70
     1
102
RTVSPropertyOp13
 70
     1
102
RTVSPropertyOp14
 70
     1
102
RTVSPropertyOp15
 70
     1
102
RTVSPropertyOp16
 70
     1
102
RTVSPropertyOp17
 70
     1
102
RTVSPropertyOp18
 70
     1
102
RTVSPropertyOp19
 70
     1
102
RTVSPropertyOp20
 70
     1
102
RTVSPropertyOp21
 70
     1
102
RTVSPropertyOp22
 70
     1
102
RTVSPropertyOp23
 70
     1
102
RTVSPropertyOp24
 70
     1
102
RTVSPropertyOp25
 70
     1
102
RTVSPropertyOp26
 70
     1
102
RTVSPropertyOp27
 70
     1
102
RTVSPropertyOp28
 70
     1
102
RTVSPropertyOp29
 70
     1
102
RTVSPropertyOp30
 70
     1
102
RTVSPropertyOp31
 70
     1
102
RTVSPropertyOp32
 70
     1
  0
ENDSEC
  0
EOF
