  0
SECTION
  2
HEADER
  9
$ACADVER
  1
AC1018
  9
$ACADMAINTVER
 70
   104
  9
$DWGCODEPAGE
  3
ANSI_1252
  9
$LASTSAVEDBY
  1
guzb562
  9
$INSBASE
 10
101.9179999999999
 20
207.0664999999999
 30
0.0
  9
$EXTMIN
 10
11.02922794093908
 20
226.0041900078392
 30
0.0
  9
$EXTMAX
 10
98.233448066362
 20
359.5842441181535
 30
0.0
  9
$LIMMIN
 10
0.0
 20
0.0
  9
$LIMMAX
 10
880.4448818258086
 20
665.987498695533
  9
$ORTHOMODE
 70
     1
  9
$REGENMODE
 70
     1
  9
$FILLMODE
 70
     1
  9
$QTEXTMODE
 70
     0
  9
$MIRRTEXT
 70
     0
  9
$LTSCALE
 40
1.0
  9
$ATTMODE
 70
     1
  9
$TEXTSIZE
 40
3.5
  9
$TRACEWID
 40
0.05
  9
$TEXTSTYLE
  7
STANDARD
  9
$CLAYER
  8
AM_0 ( Kontur 0.5 )
  9
$CELTYPE
  6
BYLAYER
  9
$CECOLOR
 62
   256
  9
$CELTSCALE
 40
1.0
  9
$DISPSILH
 70
     0
  9
$DIMSCALE
 40
1.0
  9
$DIMASZ
 40
5.0
  9
$DIMEXO
 40
1.0
  9
$DIMDLI
 40
10.0
  9
$DIMRND
 40
0.0
  9
$DIMDLE
 40
0.0
  9
$DIMEXE
 40
1.0
  9
$DIMTP
 40
0.1
  9
$DIMTM
 40
0.1
  9
$DIMTXT
 40
5.0
  9
$DIMCEN
 40
0.0
  9
$DIMTSZ
 40
0.0
  9
$DIMTOL
 70
     0
  9
$DIMLIM
 70
     0
  9
$DIMTIH
 70
     0
  9
$DIMTOH
 70
     0
  9
$DIMSE1
 70
     0
  9
$DIMSE2
 70
     0
  9
$DIMTAD
 70
     1
  9
$DIMZIN
 70
     8
  9
$DIMBLK
  1

  9
$DIMASO
 70
     1
  9
$DIMSHO
 70
     1
  9
$DIMPOST
  1

  9
$DIMAPOST
  1
"
  9
$DIMALT
 70
     0
  9
$DIMALTD
 70
     2
  9
$DIMALTF
 40
0.0393701
  9
$DIMLFAC
 40
1.0
  9
$DIMTOFL
 70
     1
  9
$DIMTVP
 40
0.0
  9
$DIMTIX
 70
     0
  9
$DIMSOXD
 70
     0
  9
$DIMSAH
 70
     0
  9
$DIMBLK1
  1

  9
$DIMBLK2
  1

  9
$DIMSTYLE
  2
AM_DIN
  9
$DIMCLRD
 70
   256
  9
$DIMCLRE
 70
   256
  9
$DIMCLRT
 70
     2
  9
$DIMTFAC
 40
0.71
  9
$DIMGAP
 40
1.5
  9
$DIMJUST
 70
     0
  9
$DIMSD1
 70
     0
  9
$DIMSD2
 70
     0
  9
$DIMTOLJ
 70
     0
  9
$DIMTZIN
 70
     8
  9
$DIMALTZ
 70
     0
  9
$DIMALTTZ
 70
     0
  9
$DIMUPT
 70
     0
  9
$DIMDEC
 70
     2
  9
$DIMTDEC
 70
     2
  9
$DIMALTU
 70
     2
  9
$DIMALTTD
 70
     2
  9
$DIMTXSTY
  7
STANDARD
  9
$DIMAUNIT
 70
     0
  9
$DIMADEC
 70
     0
  9
$DIMALTRND
 40
0.0
  9
$DIMAZIN
 70
     2
  9
$DIMDSEP
 70
    46
  9
$DIMATFIT
 70
     3
  9
$DIMFRAC
 70
     0
  9
$DIMLDRBLK
  1

  9
$DIMLUNIT
 70
     2
  9
$DIMLWD
 70
    -1
  9
$DIMLWE
 70
    -1
  9
$DIMTMOVE
 70
     0
  9
$LUNITS
 70
     2
  9
$LUPREC
 70
     2
  9
$SKETCHINC
 40
0.1
  9
$FILLETRAD
 40
2.5
  9
$AUNITS
 70
     0
  9
$AUPREC
 70
     0
  9
$MENU
  1
acad
  9
$ELEVATION
 40
0.0
  9
$PELEVATION
 40
0.0
  9
$THICKNESS
 40
0.0
  9
$LIMCHECK
 70
     0
  9
$CHAMFERA
 40
2.5
  9
$CHAMFERB
 40
2.5
  9
$CHAMFERC
 40
0.0
  9
$CHAMFERD
 40
0.0
  9
$SKPOLY
 70
     0
  9
$TDCREATE
 40
2450575.529601852
  9
$TDUCREATE
 40
2450575.446268519
  9
$TDUPDATE
 40
2454748.375796574
  9
$TDUUPDATE
 40
2454748.292463241
  9
$TDINDWG
 40
0.0415869676
  9
$TDUSRTIMER
 40
0.0415856944
  9
$USRTIMER
 70
     1
  9
$ANGBASE
 50
0.0
  9
$ANGDIR
 70
     0
  9
$PDMODE
 70
     0
  9
$PDSIZE
 40
0.0
  9
$PLINEWID
 40
0.0
  9
$SPLFRAME
 70
     0
  9
$SPLINETYPE
 70
     6
  9
$SPLINESEGS
 70
    10
  9
$HANDSEED
  5
11B9
  9
$SURFTAB1
 70
     6
  9
$SURFTAB2
 70
     6
  9
$SURFTYPE
 70
     6
  9
$SURFU
 70
     6
  9
$SURFV
 70
     6
  9
$UCSBASE
  2

  9
$UCSNAME
  2

  9
$UCSORG
 10
0.0
 20
0.0
 30
0.0
  9
$UCSXDIR
 10
1.0
 20
0.0
 30
0.0
  9
$UCSYDIR
 10
0.0
 20
1.0
 30
0.0
  9
$UCSORTHOREF
  2

  9
$UCSORTHOVIEW
 70
     0
  9
$UCSORGTOP
 10
0.0
 20
0.0
 30
0.0
  9
$UCSORGBOTTOM
 10
0.0
 20
0.0
 30
0.0
  9
$UCSORGLEFT
 10
0.0
 20
0.0
 30
0.0
  9
$UCSORGRIGHT
 10
0.0
 20
0.0
 30
0.0
  9
$UCSORGFRONT
 10
0.0
 20
0.0
 30
0.0
  9
$UCSORGBACK
 10
0.0
 20
0.0
 30
0.0
  9
$PUCSBASE
  2

  9
$PUCSNAME
  2

  9
$PUCSORG
 10
0.0
 20
0.0
 30
0.0
  9
$PUCSXDIR
 10
1.0
 20
0.0
 30
0.0
  9
$PUCSYDIR
 10
0.0
 20
1.0
 30
0.0
  9
$PUCSORTHOREF
  2

  9
$PUCSORTHOVIEW
 70
     0
  9
$PUCSORGTOP
 10
0.0
 20
0.0
 30
0.0
  9
$PUCSORGBOTTOM
 10
0.0
 20
0.0
 30
0.0
  9
$PUCSORGLEFT
 10
0.0
 20
0.0
 30
0.0
  9
$PUCSORGRIGHT
 10
0.0
 20
0.0
 30
0.0
  9
$PUCSORGFRONT
 10
0.0
 20
0.0
 30
0.0
  9
$PUCSORGBACK
 10
0.0
 20
0.0
 30
0.0
  9
$USERI1
 70
     0
  9
$USERI2
 70
     0
  9
$USERI3
 70
     0
  9
$USERI4
 70
     0
  9
$USERI5
 70
     0
  9
$USERR1
 40
0.0
  9
$USERR2
 40
0.0
  9
$USERR3
 40
0.0
  9
$USERR4
 40
0.0
  9
$USERR5
 40
0.0
  9
$WORLDVIEW
 70
     1
  9
$SHADEDGE
 70
     3
  9
$SHADEDIF
 70
    70
  9
$TILEMODE
 70
     1
  9
$MAXACTVP
 70
    16
  9
$PINSBASE
 10
0.0
 20
0.0
 30
0.0
  9
$PLIMCHECK
 70
     0
  9
$PEXTMIN
 10
1.000000000000000E+20
 20
1.000000000000000E+20
 30
1.000000000000000E+20
  9
$PEXTMAX
 10
-1.000000000000000E+20
 20
-1.000000000000000E+20
 30
-1.000000000000000E+20
  9
$PLIMMIN
 10
0.0
 20
0.0
  9
$PLIMMAX
 10
12.0
 20
9.0
  9
$UNITMODE
 70
     0
  9
$VISRETAIN
 70
     0
  9
$PLINEGEN
 70
     0
  9
$PSLTSCALE
 70
     0
  9
$TREEDEPTH
 70
  3020
  9
$CMLSTYLE
  2
STANDARD
  9
$CMLJUST
 70
     0
  9
$CMLSCALE
 40
1.0
  9
$PROXYGRAPHICS
 70
     1
  9
$MEASUREMENT
 70
     0
  9
$CELWEIGHT
370
    -1
  9
$ENDCAPS
280
     0
  9
$JOINSTYLE
280
     0
  9
$LWDISPLAY
290
     0
  9
$INSUNITS
 70
     0
  9
$HYPERLINKBASE
  1

  9
$STYLESHEET
  1

  9
$XEDIT
290
     1
  9
$CEPSNTYPE
380
     0
  9
$PSTYLEMODE
290
     1
  9
$FINGERPRINTGUID
  2
{B13DC722-E96A-11D5-A5E5-00B0D0796DB7}
  9
$VERSIONGUID
  2
{E9233A64-D097-406E-B506-E3961017B051}
  9
$EXTNAMES
290
     1
  9
$PSVPSCALE
 40
0.0
  9
$OLESTARTUP
290
     0
  9
$SORTENTS
280
   127
  9
$INDEXCTL
280
     0
  9
$HIDETEXT
280
     0
  9
$XCLIPFRAME
290
     0
  9
$HALOGAP
280
     0
  9
$OBSCOLOR
 70
   257
  9
$OBSLTYPE
280
     0
  9
$INTERSECTIONDISPLAY
280
     0
  9
$INTERSECTIONCOLOR
 70
   257
  9
$DIMASSOC
280
     2
  9
$PROJECTNAME
  1

  0
ENDSEC
  0
SECTION
  2
CLASSES
  0
CLASS
  1
DICTIONARYVAR
  2
AcDbDictionaryVar
  3
ObjectDBX Classes
 90
        0
 91
        5
280
     0
281
     0
  0
CLASS
  1
ACDBDICTIONARYWDFLT
  2
AcDbDictionaryWithDefault
  3
ObjectDBX Classes
 90
        0
 91
        1
280
     0
281
     0
  0
CLASS
  1
TABLESTYLE
  2
AcDbTableStyle
  3
ObjectDBX Classes
 90
     4095
 91
        1
280
     0
281
     0
  0
CLASS
  1
MATERIAL
  2
AcDbMaterial
  3
ObjectDBX Classes
 90
     1153
 91
        3
280
     0
281
     0
  0
CLASS
  1
VISUALSTYLE
  2
AcDbVisualStyle
  3
ObjectDBX Classes
 90
     4095
 91
       16
280
     0
281
     0
  0
CLASS
  1
SCALE
  2
AcDbScale
  3
ObjectDBX Classes
 90
     1153
 91
       34
280
     0
281
     0
  0
CLASS
  1
MLEADERSTYLE
  2
AcDbMLeaderStyle
  3
ACDB_MLEADERSTYLE_CLASS
 90
     4095
 91
        1
280
     0
281
     0
  0
CLASS
  1
AMGSETTINGSOBJ
  2
AmgSettingsObj
  3
"AcadM|Product Description: AutoCAD Mechanical|Company: Autodesk, Inc."
 90
     1024
 91
        5
280
     0
281
     0
  0
CLASS
  1
ACME_DOCUMENT
  2
AcMeDbDoc
  3
AcMeServices
 90
     1024
 91
        1
280
     0
281
     0
  0
CLASS
  1
ACMESCOPE
  2
AcMeScope
  3
AcMeServices
 90
     1024
 91
        1
280
     0
281
     0
  0
CLASS
  1
ACMECOMMANDHISTORY
  2
AcMeCommandHistory
  3
AcMeServices
 90
     1024
 91
        1
280
     0
281
     0
  0
CLASS
  1
ACIMSYSVARMAN
  2
AcImSysVarManager
  3
AcMeServices
 90
     1024
 91
        5
280
     0
281
     0
  0
CLASS
  1
ACIMINTSYSVAR
  2
AcImIntSysVar
  3
AcMeServices
 90
     1024
 91
       28
280
     0
281
     0
  0
CLASS
  1
ACMEDRAWINGMAN
  2
AcMeDrawingMan
  3
AcMeServices
 90
     1024
 91
        1
280
     0
281
     0
  0
CLASS
  1
ACMEVIEW
  2
AcMeView
  3
AcMeServices
 90
     1024
 91
        1
280
     0
281
     0
  0
CLASS
  1
ACDBENTITYCACHE
  2
AcMeEntityCache
  3
AcMeServices
 90
     1024
 91
        1
280
     0
281
     0
  0
CLASS
  1
GSMANAGER
  2
AcMeGSManager
  3
AcMeServices
 90
     1024
 91
        1
280
     0
281
     0
  0
CLASS
  1
AMDTINTERNALREACTOR
  2
AmdtInternalReactor
  3
AcMeServices
 90
     1024
 91
        4
280
     0
281
     0
  0
CLASS
  1
ACMESTATEMGR
  2
AcMeStateMgr
  3
AcMeServices
 90
     1024
 91
        1
280
     0
281
     0
  0
CLASS
  1
ACGREFMASTER
  2
AcGrefMaster
  3
AcAttribServices
 90
     1024
 91
        1
280
     0
281
     0
  0
CLASS
  1
AM_DRAWING_MGR
  2
AcDmDwgMgr
  3
AcMechDwgViewMgmt
 90
     1024
 91
        1
280
     0
281
     0
  0
CLASS
  1
AM_DWG_DOCUMENT
  2
AcDmDwgDocument
  3
AcMechDwgViewMgmt
 90
     1024
 91
        1
280
     0
281
     0
  0
CLASS
  1
AM_DWG_SHEET
  2
AcDmSheet
  3
AcMechDwgViewMgmt
 90
     1024
 91
        1
280
     0
281
     0
  0
CLASS
  1
AM_VIEWDIMPARMAP
  2
AcDmViewDimParMap
  3
AcMechDwgViewMgmt
 90
     1024
 91
        1
280
     0
281
     0
  0
CLASS
  1
ACIMREALSYSVAR
  2
AcImRealSysVar
  3
AcMeServices
 90
     1024
 91
        1
280
     0
281
     0
  0
CLASS
  1
AM_DWGMGR_NAME
  2
AcDmDwgMgrName
  3
AcMechDwgViewMgmt
 90
     1024
 91
        1
280
     0
281
     0
  0
CLASS
  1
ACME_DATABASE
  2
AcMeDbDatabase
  3
AcMeServices
 90
     1024
 91
        1
280
     0
281
     0
  0
CLASS
  1
ACRFINSADJUSTERMGR
  2
AcRfInsAdjusterMgr
  3
AcMeServices
 90
     1024
 91
        1
280
     0
281
     0
  0
CLASS
  1
ACGREFACADMASTER
  2
AcGrefacadMaster
  3
AcGrefServices
 90
     1024
 91
        1
280
     0
281
     0
  0
CLASS
  1
AMDTMENUSTATEMGR
  2
AmdtMenuStateMgr
  3
McadcomServices
 90
     1024
 91
        1
280
     0
281
     0
  0
CLASS
  1
AMDTMCOMMENUSTATE
  2
AmdtMcomMenuState
  3
McadcomServices
 90
     1024
 91
        1
280
     0
281
     0
  0
CLASS
  1
AMIMASTER
  2
AmiMaster
  3
AmiServices
 90
     1024
 91
        1
280
     0
281
     0
  0
CLASS
  1
MAPIAMMOUDLE
  2
MApiAmModule
  3
MApiAmServices
 90
     1024
 91
        1
280
     0
281
     0
  0
CLASS
  1
ACIMSTRSYSVAR
  2
AcImStrSysVar
  3
AcMeServices
 90
     1024
 91
        5
280
     0
281
     0
  0
CLASS
  1
AMDTADMENUSTATE
  2
AmdtAdMenuState
  3
DesignerServices
 90
     1024
 91
        1
280
     0
281
     0
  0
CLASS
  1
ADAPPL
  2
AcAdAppl
  3
DesignerServices
 90
     1024
 91
        1
280
     0
281
     0
  0
CLASS
  1
DEPMGR
  2
AcAdDepMgr
  3
DesignerServices
 90
     1024
 91
        1
280
     0
281
     0
  0
CLASS
  1
PARAMMGR
  2
AcAdParamMgr
  3
DesignerServices
 90
     1024
 91
        1
280
     0
281
     0
  0
CLASS
  1
PARAMSCOPE
  2
AcAdParamScope
  3
DesignerServices
 90
     1024
 91
        1
280
     0
281
     0
  0
CLASS
  1
NAMEDAPPL
  2
AcAdNamedAppl
  3
DesignerServices
 90
     1024
 91
        1
280
     0
281
     0
  0
CLASS
  1
AMDTDMMENUSTATE
  2
AmdtDmMenuState
  3
AcMechDwgViewMgmt
 90
     1024
 91
        1
280
     0
281
     0
  0
CLASS
  1
AMDTAMMENUSTATE
  2
AmdtAmMenuState
  3
DesignerAssemblies
 90
     1024
 91
        1
280
     0
281
     0
  0
CLASS
  1
ACAMPROJECT
  2
AcAmProject
  3
DesignerAssemblies
 90
     1024
 91
        1
280
     0
281
     0
  0
CLASS
  1
ACAMGRCOMPDEF
  2
AcAmGrCompDef
  3
DesignerAssemblies
 90
     1024
 91
        1
280
     0
281
     0
  0
CLASS
  1
ACCMCONTEXT
  2
AcCmContext
  3
DesignerAssemblies
 90
     1024
 91
        1
280
     0
281
     0
  0
CLASS
  1
ACAMCOMPDEF
  2
AcAmCompDef
  3
DesignerAssemblies
 90
     1024
 91
        1
280
     0
281
     0
  0
CLASS
  1
ACAMCOMPDEFMGR
  2
AcAmCompDefMgr
  3
DesignerAssemblies
 90
     1024
 91
        1
280
     0
281
     0
  0
CLASS
  1
AMCONTEXTMGR
  2
AcAmContextMgr
  3
DesignerAssemblies
 90
     1024
 91
        1
280
     0
281
     0
  0
CLASS
  1
ACAMCONTEXTMODELER
  2
AcAmContextModeler
  3
DesignerAssemblies
 90
     1024
 91
        1
280
     0
281
     0
  0
CLASS
  1
ACMDATADICTIONARY
  2
AcmDataDictionary
  3
"AcmSymBB|Product Description: AutoCAD Mechanical|Company: Autodesk, Inc."
 90
     1024
 91
        1
280
     0
281
     0
  0
CLASS
  1
CATALOGSTATE
  2
AcAmCatalogState
  3
DesignerAssemblies
 90
     1024
 91
        1
280
     0
281
     0
  0
CLASS
  1
ACAMGRCOMPDEFSET
  2
AcAmGrCompDefSet
  3
DesignerAssemblies
 90
     1024
 91
        1
280
     0
281
     0
  0
CLASS
  1
AMDTBROWSERDBTAB
  2
AmdtBrowserDbTab
  3
McadcomServices
 90
     1024
 91
        1
280
     0
281
     0
  0
CLASS
  1
CBROWSERAPPOBJECT
  2
CBrowserAppObject
  3
McadcomServices
 90
     1024
 91
        3
280
     0
281
     0
  0
CLASS
  1
DM_PLACEHOLDER
  2
AcDmSelsetPlaceholder
  3
AcMechDwgViewMgmt
 90
     1024
 91
        1
280
     0
281
     0
  0
CLASS
  1
ACMSTANDARDANSI
  2
AcmStandardANSI
  3
"Amdt_StdImp|Product Description: AutoCAD Mechanical|Company: Autodesk, Inc."
 90
     1024
 91
        2
280
     0
281
     0
  0
CLASS
  1
AMGOBJPROPCFG
  2
AmgObjPropCfg
  3
"AmgLay|Product Description: AutoCAD Mechanical|Company: Autodesk, Inc."
 90
     1025
 91
        2
280
     0
281
     0
  0
CLASS
  1
ACMSURFSTANDARDANSI
  2
AcmSurfTextStdANSI
  3
"Amdt_StdImp|Product Description: AutoCAD Mechanical|Company: Autodesk, Inc."
 90
     1024
 91
        2
280
     0
281
     0
  0
CLASS
  1
ACMFCFSTANDARDANSI
  2
AcmFCFStdANSI
  3
"Amdt_StdImp|Product Description: AutoCAD Mechanical|Company: Autodesk, Inc."
 90
     1024
 91
        2
280
     0
281
     0
  0
CLASS
  1
ACMWELDSTANDARDANSI
  2
AcmWeldingStdANSI
  3
"Amdt_StdImp|Product Description: AutoCAD Mechanical|Company: Autodesk, Inc."
 90
     1024
 91
        2
280
     0
281
     0
  0
CLASS
  1
ACMIDSTANDARDANSI
  2
AcmIdStdANSI
  3
"Amdt_StdImp|Product Description: AutoCAD Mechanical|Company: Autodesk, Inc."
 90
     1024
 91
        2
280
     0
281
     0
  0
CLASS
  1
ACMDATUMSTANDARDANSI
  2
AcmDatumStdANSI
  3
"Amdt_StdImp|Product Description: AutoCAD Mechanical|Company: Autodesk, Inc."
 90
     1024
 91
        2
280
     0
281
     0
  0
CLASS
  1
ACMBOMSTANDARDANSI
  2
AcmBOMStdANSI
  3
"Amdt_StdImp|Product Description: AutoCAD Mechanical|Company: Autodesk, Inc."
 90
     1024
 91
        2
280
     0
281
     0
  0
CLASS
  1
ACMDETAILSTANDARDANSI
  2
AmdtDetailSymStdANSI
  3
"Amdt_StdImp|Product Description: AutoCAD Mechanical|Company: Autodesk, Inc."
 90
     1024
 91
        2
280
     0
281
     0
  0
CLASS
  1
ACMSECTIONSTANDARDANSI
  2
AmdtSectionSymStdANSI
  3
"Amdt_StdImp|Product Description: AutoCAD Mechanical|Company: Autodesk, Inc."
 90
     1024
 91
        2
280
     0
281
     0
  0
CLASS
  1
ACMCENTERLINESTANDARDANSI
  2
AmdtCenterLineStdANSI
  3
"Amdt_StdImp|Product Description: AutoCAD Mechanical|Company: Autodesk, Inc."
 90
     1024
 91
        2
280
     0
281
     0
  0
CLASS
  1
ACMTHREADLINESTANDARDANSI
  2
AmdtThreadLineStdANSI
  3
"Amdt_StdImp|Product Description: AutoCAD Mechanical|Company: Autodesk, Inc."
 90
     1024
 91
        2
280
     0
281
     0
  0
CLASS
  1
ACMNOTESTANDARDANSI
  2
AmdtNoteStdANSI
  3
"Amdt_StdImp|Product Description: AutoCAD Mechanical|Company: Autodesk, Inc."
 90
     1024
 91
        2
280
     0
281
     0
  0
CLASS
  1
ACMTAPERSTANDARDANSI
  2
AcmTaperStdANSI
  3
"Amdt_StdImp|Product Description: AutoCAD Mechanical|Company: Autodesk, Inc."
 90
     1024
 91
        2
280
     0
281
     0
  0
CLASS
  1
ACMANOOTATIONVIEWSTANDARDANSI
  2
AmdtAnViewStdANSI
  3
"Amdt_StdImp|Product Description: AutoCAD Mechanical|Company: Autodesk, Inc."
 90
     1024
 91
        2
280
     0
281
     0
  0
CLASS
  1
AMDTNOTETEMPLATEDB
  2
AmdtNoteTemplateDB
  3
AcmSymBB|Product Description: AutoCAD Mechanical|Company: Autodesk, Inc.
 90
     1024
 91
       24
280
     0
281
     0
  0
CLASS
  1
ACAMGLAYSTD
  2
AcAmgLayStd
  3
"AmgLay|Product Description: AutoCAD Mechanical|Company: Autodesk, Inc."
 90
     1024
 91
        4
280
     0
281
     0
  0
CLASS
  1
ACAMGDIMSTD
  2
AcAmgDimStd
  3
"AmgDim|Product Description: AutoCAD Mechanical|Company: Autodesk, Inc."
 90
     1024
 91
        4
280
     0
281
     0
  0
CLASS
  1
ACAMGHOLECHARTSTDANSI
  2
AcAmgHoleChartStdANSI
  3
AmgDim|Product Description: AutoCAD Mechanical|Company: Autodesk, Inc.
 90
     1024
 91
        2
280
     0
281
     0
  0
CLASS
  1
ACAMGTITLESTD
  2
AcAmgTitleStd
  3
"AmgTitle|Product Description: AutoCAD Mechanical|Company: Autodesk, Inc."
 90
     4095
 91
        4
280
     0
281
     0
  0
CLASS
  1
ACAMGFILTERDAT
  2
AcAmgFilterDat
  3
"AcadM|Product Description: AutoCAD Mechanical|Company: Autodesk, Inc."
 90
     1024
 91
        0
280
     0
281
     0
  0
CLASS
  1
SORTENTSTABLE
  2
AcDbSortentsTable
  3
ObjectDBX Classes
 90
        0
 91
        2
280
     0
281
     0
  0
CLASS
  1
ACMSTANDARDDIN
  2
AcmStandardDIN
  3
"Amdt_StdImp|Product Description: AutoCAD Mechanical|Company: Autodesk, Inc."
 90
     1024
 91
        1
280
     0
281
     0
  0
CLASS
  1
AMDTEDGESTANDARDDIN13715
  2
AmdtEdgeStdDIN13715
  3
"Amdt_StdImp|Product Description: AutoCAD Mechanical|Company: Autodesk, Inc."
 90
     1024
 91
        1
280
     0
281
     0
  0
CLASS
  1
ACMSURFSTANDARDDIN2002
  2
AcmSurfTextStdDIN2002
  3
"Amdt_StdImp|Product Description: AutoCAD Mechanical|Company: Autodesk, Inc."
 90
     1024
 91
        1
280
     0
281
     0
  0
CLASS
  1
ACMFCFSTANDARDDIN
  2
AcmFCFStdDIN
  3
"Amdt_StdImp|Product Description: AutoCAD Mechanical|Company: Autodesk, Inc."
 90
     1024
 91
        1
280
     0
281
     0
  0
CLASS
  1
ACMWELDSTANDARDDIN
  2
AcmWeldingStdDIN
  3
"Amdt_StdImp|Product Description: AutoCAD Mechanical|Company: Autodesk, Inc."
 90
     1024
 91
        1
280
     0
281
     0
  0
CLASS
  1
ACMIDSTANDARDDIN
  2
AcmIdStdDIN
  3
"Amdt_StdImp|Product Description: AutoCAD Mechanical|Company: Autodesk, Inc."
 90
     1024
 91
        1
280
     0
281
     0
  0
CLASS
  1
ACMDATUMSTANDARDDIN
  2
AcmDatumStdDIN
  3
"Amdt_StdImp|Product Description: AutoCAD Mechanical|Company: Autodesk, Inc."
 90
     1024
 91
        1
280
     0
281
     0
  0
CLASS
  1
ACMBOMSTANDARDDIN
  2
AcmBOMStdDIN
  3
"Amdt_StdImp|Product Description: AutoCAD Mechanical|Company: Autodesk, Inc."
 90
     1024
 91
        1
280
     0
281
     0
  0
CLASS
  1
ACMDETAILSTANDARDDIN
  2
AmdtDetailSymStdDIN
  3
"Amdt_StdImp|Product Description: AutoCAD Mechanical|Company: Autodesk, Inc."
 90
     1024
 91
        1
280
     0
281
     0
  0
CLASS
  1
ACMSECTIONSTANDARDDIN
  2
AmdtSectionSymStdDIN
  3
"Amdt_StdImp|Product Description: AutoCAD Mechanical|Company: Autodesk, Inc."
 90
     1024
 91
        1
280
     0
281
     0
  0
CLASS
  1
ACMCENTERLINESTANDARDDIN
  2
AmdtCenterLineStdDIN
  3
"Amdt_StdImp|Product Description: AutoCAD Mechanical|Company: Autodesk, Inc."
 90
     1024
 91
        1
280
     0
281
     0
  0
CLASS
  1
ACMTHREADLINESTANDARDDIN
  2
AmdtThreadLineStdDIN
  3
"Amdt_StdImp|Product Description: AutoCAD Mechanical|Company: Autodesk, Inc."
 90
     1024
 91
        1
280
     0
281
     0
  0
CLASS
  1
ACMNOTESTANDARDDIN
  2
AmdtNoteStdDIN
  3
"Amdt_StdImp|Product Description: AutoCAD Mechanical|Company: Autodesk, Inc."
 90
     1024
 91
        1
280
     0
281
     0
  0
CLASS
  1
ACMTAPERSTANDARDDIN
  2
AcmTaperStdDIN
  3
"Amdt_StdImp|Product Description: AutoCAD Mechanical|Company: Autodesk, Inc."
 90
     1024
 91
        1
280
     0
281
     0
  0
CLASS
  1
ACMANOOTATIONVIEWSTANDARDDIN
  2
AmdtAnViewStdDIN
  3
"Amdt_StdImp|Product Description: AutoCAD Mechanical|Company: Autodesk, Inc."
 90
     1024
 91
        1
280
     0
281
     0
  0
CLASS
  1
ACAMGHOLECHARTSTDDIN
  2
AcAmgHoleChartStdDIN
  3
AmgDim|Product Description: AutoCAD Mechanical|Company: Autodesk, Inc.
 90
     1024
 91
        1
280
     0
281
     0
  0
CLASS
  1
ACMSTANDARDISO
  2
AcmStandardISO
  3
"Amdt_StdImp|Product Description: AutoCAD Mechanical|Company: Autodesk, Inc."
 90
     1024
 91
        1
280
     0
281
     0
  0
CLASS
  1
AMDTEDGESTANDARDISO
  2
AmdtEdgeStdISO
  3
"Amdt_StdImp|Product Description: AutoCAD Mechanical|Company: Autodesk, Inc."
 90
     1024
 91
        1
280
     0
281
     0
  0
CLASS
  1
ACMSURFSTANDARDISO2002
  2
AcmSurfTextStdISO2002
  3
"Amdt_StdImp|Product Description: AutoCAD Mechanical|Company: Autodesk, Inc."
 90
     1024
 91
        1
280
     0
281
     0
  0
CLASS
  1
ACMFCFSTANDARDISO
  2
AcmFCFStdISO
  3
"Amdt_StdImp|Product Description: AutoCAD Mechanical|Company: Autodesk, Inc."
 90
     1024
 91
        1
280
     0
281
     0
  0
CLASS
  1
ACMWELDSTANDARDISO
  2
AcmWeldingStdISO
  3
"Amdt_StdImp|Product Description: AutoCAD Mechanical|Company: Autodesk, Inc."
 90
     1024
 91
        1
280
     0
281
     0
  0
CLASS
  1
ACMIDSTANDARDISO
  2
AcmIdStdISO
  3
"Amdt_StdImp|Product Description: AutoCAD Mechanical|Company: Autodesk, Inc."
 90
     1024
 91
        1
280
     0
281
     0
  0
CLASS
  1
ACMDATUMSTANDARDISO
  2
AcmDatumStdISO
  3
"Amdt_StdImp|Product Description: AutoCAD Mechanical|Company: Autodesk, Inc."
 90
     1024
 91
        1
280
     0
281
     0
  0
CLASS
  1
ACMBOMSTANDARDISO
  2
AcmBOMStdISO
  3
"Amdt_StdImp|Product Description: AutoCAD Mechanical|Company: Autodesk, Inc."
 90
     1024
 91
        1
280
     0
281
     0
  0
CLASS
  1
ACMDETAILSTANDARDISO
  2
AmdtDetailSymStdISO
  3
"Amdt_StdImp|Product Description: AutoCAD Mechanical|Company: Autodesk, Inc."
 90
     1024
 91
        1
280
     0
281
     0
  0
CLASS
  1
ACMSECTIONSTANDARDISO2001
  2
AmdtSectionSymStdISO2001
  3
"Amdt_StdImp|Product Description: AutoCAD Mechanical|Company: Autodesk, Inc."
 90
     1024
 91
        1
280
     0
281
     0
  0
CLASS
  1
ACMCENTERLINESTANDARDISO
  2
AmdtCenterLineStdISO
  3
"Amdt_StdImp|Product Description: AutoCAD Mechanical|Company: Autodesk, Inc."
 90
     1024
 91
        1
280
     0
281
     0
  0
CLASS
  1
ACMNOTESTANDARDISO
  2
AmdtNoteStdISO
  3
"Amdt_StdImp|Product Description: AutoCAD Mechanical|Company: Autodesk, Inc."
 90
     1024
 91
        1
280
     0
281
     0
  0
CLASS
  1
ACAMGHOLECHARTSTDISO
  2
AcAmgHoleChartStdISO
  3
AmgDim|Product Description: AutoCAD Mechanical|Company: Autodesk, Inc.
 90
     1024
 91
        1
280
     0
281
     0
  0
CLASS
  1
ACMTHREADLINESTANDARDISO
  2
AmdtThreadLineStdISO
  3
"Amdt_StdImp|Product Description: AutoCAD Mechanical|Company: Autodesk, Inc."
 90
     1024
 91
        1
280
     0
281
     0
  0
CLASS
  1
ACMTAPERSTANDARDISO
  2
AcmTaperStdISO
  3
"Amdt_StdImp|Product Description: AutoCAD Mechanical|Company: Autodesk, Inc."
 90
     1024
 91
        1
280
     0
281
     0
  0
CLASS
  1
ACMANOOTATIONVIEWSTANDARDISO
  2
AmdtAnViewStdISO
  3
"Amdt_StdImp|Product Description: AutoCAD Mechanical|Company: Autodesk, Inc."
 90
     1024
 91
        1
280
     0
281
     0
  0
CLASS
  1
CELLSTYLEMAP
  2
AcDbCellStyleMap
  3
ObjectDBX Classes
 90
     1152
 91
        2
280
     0
281
     0
  0
CLASS
  1
DIMASSOC
  2
AcDbDimAssoc
  3
"AcDbDimAssoc|Product Desc:     AcDim ARX App For Dimension|Company:          Autodesk, Inc.|WEB Address:      www.autodesk.com"
 90
        0
 91
        8
280
     0
281
     0
  0
CLASS
  1
CAMSSTRUCTBTNSTATE
  2
StructBtnState
  3
DesignerAssemblies
 90
     1024
 91
        0
280
     0
281
     0
  0
CLASS
  1
ACMDATAENTRYPART
  2
AcmDataEntryPart
  3
AcmSymBB|Product Description: AutoCAD Mechanical|Company: Autodesk, Inc.
 90
     1024
 91
        2
280
     0
281
     0
  0
CLASS
  1
ACMPARTREF
  2
AcmPartRef
  3
"AcmSymBB|Product Description: AutoCAD Mechanical|Company: Autodesk, Inc."
 90
     4095
 91
        2
280
     0
281
     1
  0
CLASS
  1
ACDBLINERES
  2
AcDbLineRes
  3
AcGrefServices
 90
     1024
 91
        1
280
     0
281
     0
  0
CLASS
  1
ACDBCIRCARCRES
  2
AcDbCircArcRes
  3
AcGrefServices
 90
     1024
 91
        1
280
     0
281
     0
  0
ENDSEC
  0
SECTION
  2
TABLES
  0
TABLE
  2
VPORT
  5
12
330
0
100
AcDbSymbolTable
 70
     1
  0
VPORT
  5
AF
330
12
100
AcDbSymbolTableRecord
100
AcDbViewportTableRecord
  2
*Active
 70
     0
 10
0.0
 20
0.0
 11
1.0
 21
1.0
 12
24.8824276882147
 22
292.0002880014572
 13
0.0
 23
0.0
 14
0.125
 24
0.125
 15
1.0
 25
1.0
 16
0.0
 26
0.0
 36
1.0
 17
0.0
 27
0.0
 37
0.0
 40
166.4773394941631
 41
1.453771289537712
 42
50.0
 43
0.0
 44
0.0
 50
0.0
 51
0.0
 71
     0
 72
   100
 73
     1
 74
     0
 75
     0
 76
     0
 77
     0
 78
     0
281
     0
 65
     1
110
0.0
120
0.0
130
0.0
111
1.0
121
0.0
131
0.0
112
0.0
122
1.0
132
0.0
 79
     0
146
0.0
  0
ENDTAB
  0
TABLE
  2
LTYPE
  5
D
330
0
100
AcDbSymbolTable
 70
    71
  0
LTYPE
  5
E
330
D
100
AcDbSymbolTableRecord
100
AcDbLinetypeTableRecord
  2
BYBLOCK
 70
     0
  3

 72
    65
 73
     0
 40
0.0
  0
LTYPE
  5
F
330
D
100
AcDbSymbolTableRecord
100
AcDbLinetypeTableRecord
  2
BYLAYER
 70
     0
  3

 72
    65
 73
     0
 40
0.0
  0
LTYPE
  5
5
330
D
100
AcDbSymbolTableRecord
100
AcDbLinetypeTableRecord
  2
CONTINUOUS
 70
     0
  3
Solid line
 72
    65
 73
     0
 40
0.0
  0
LTYPE
  5
139
330
D
100
AcDbSymbolTableRecord
100
AcDbLinetypeTableRecord
  2
HIDDEN
 70
     0
  3
Verdeckt
 72
    65
 73
     2
 40
0.375
 49
0.25
 74
     0
 49
-0.125
 74
     0
  0
LTYPE
  5
13A
330
D
100
AcDbSymbolTableRecord
100
AcDbLinetypeTableRecord
  2
PHANTOM2
 70
     0
  3
Phantom (.5x) ___ _ _ ___ _ _ ___ _ _ ___ _ _
 72
    65
 73
     6
 40
1.25
 49
0.625
 74
     0
 49
-0.125
 74
     0
 49
0.125
 74
     0
 49
-0.125
 74
     0
 49
0.125
 74
     0
 49
-0.125
 74
     0
  0
LTYPE
  5
13B
330
D
100
AcDbSymbolTableRecord
100
AcDbLinetypeTableRecord
  2
CENTER
 70
     0
  3
Center line
 72
    65
 73
     4
 40
2.0
 49
1.25
 74
     0
 49
-0.25
 74
     0
 49
0.25
 74
     0
 49
-0.25
 74
     0
  0
LTYPE
  5
17F
330
D
100
AcDbSymbolTableRecord
100
AcDbLinetypeTableRecord
  2
ACANSTGB
 70
     0
  3
__ . . __ . .
 72
    65
 73
     6
 40
0.35433070866
 49
0.15748031496
 74
     0
 49
-0.03937007874
 74
     0
 49
0.03937007874
 74
     0
 49
-0.03937007874
 74
     0
 49
0.03937007874
 74
     0
 49
-0.03937007874
 74
     0
  0
LTYPE
  5
180
330
D
100
AcDbSymbolTableRecord
100
AcDbLinetypeTableRecord
  2
ACANSTGL
 70
     0
  3
_ _ _ _ _
 72
    65
 73
     2
 40
0.11811023622
 49
0.07874015748
 74
     0
 49
-0.03937007874
 74
     0
  0
LTYPE
  5
231
330
D
100
AcDbSymbolTableRecord
100
AcDbLinetypeTableRecord
  2
AM_ISO02W050
 70
     0
  3
__ __ __ __ __ __ __ __ __ __ __ __ __ __ __
 72
    65
 73
     2
 40
7.5
 49
6.0
 74
     0
 49
-1.5
 74
     0
  0
LTYPE
  5
232
330
D
100
AcDbSymbolTableRecord
100
AcDbLinetypeTableRecord
  2
AM_ISO08W050
 70
     0
  3
____ . ____ . ____ . ____ . ____ . ____ . ____
 72
    65
 73
     4
 40
18.0
 49
12.0
 74
     0
 49
-1.5
 74
     0
 49
3.0
 74
     0
 49
-1.5
 74
     0
  0
LTYPE
  5
233
330
D
100
AcDbSymbolTableRecord
100
AcDbLinetypeTableRecord
  2
AM_ISO09W050
 70
     0
  3
_____ . . _____ . . _____ . . ____ .. ____
 72
    65
 73
     6
 40
22.5
 49
12.0
 74
     0
 49
-1.5
 74
     0
 49
3.0
 74
     0
 49
-1.5
 74
     0
 49
3.0
 74
     0
 49
-1.5
 74
     0
  0
LTYPE
  5
234
330
D
100
AcDbSymbolTableRecord
100
AcDbLinetypeTableRecord
  2
Amconstr
 70
     0
  3
_______________________
 72
    65
 73
     2
 40
9999.0
 49
9999.0
 74
     0
 49
0.0
 74
     0
  0
LTYPE
  5
235
330
D
100
AcDbSymbolTableRecord
100
AcDbLinetypeTableRecord
  2
AM_ISO08W050x2
 70
     0
  3
__ . __ . __ . __ . __ . __
 72
    65
 73
     4
 40
9.0
 49
6.0
 74
     0
 49
-0.75
 74
     0
 49
1.5
 74
     0
 49
-0.75
 74
     0
  0
LTYPE
  5
236
330
D
100
AcDbSymbolTableRecord
100
AcDbLinetypeTableRecord
  2
AM_ISO02W050x2
 70
     0
  3
 _ _ _ _ _ _ _ _ _ _ _ _
 72
    65
 73
     2
 40
3.75
 49
3.0
 74
     0
 49
-0.75
 74
     0
  0
LTYPE
  5
237
330
D
100
AcDbSymbolTableRecord
100
AcDbLinetypeTableRecord
  2
Amzigzag
 70
     0
  3
/\/-/\/-/\/-/\/-/\/-/\/
 72
    65
 73
     2
 40
11.0001
 49
0.0001
 74
     4
 75
   136
340
238
 46
0.04
 50
0.0
 44
0.0
 45
0.0
 49
-11.0
 74
     0
  0
LTYPE
  5
24F
330
D
100
AcDbSymbolTableRecord
100
AcDbLinetypeTableRecord
  2
ACDINWELD
 70
     0
  3
_ _ _ _ _
 72
    65
 73
     2
 40
2.0
 49
2.0
 74
     0
 49
-1.0
 74
     0
  0
LTYPE
  5
252
330
D
100
AcDbSymbolTableRecord
100
AcDbLinetypeTableRecord
  2
ACDINTGB
 70
     0
  3
__ . . __ . .
 72
    65
 73
     6
 40
9.0
 49
4.0
 74
     0
 49
-1.0
 74
     0
 49
1.0
 74
     0
 49
-1.0
 74
     0
 49
1.0
 74
     0
 49
-1.0
 74
     0
  0
LTYPE
  5
253
330
D
100
AcDbSymbolTableRecord
100
AcDbLinetypeTableRecord
  2
ACDINTGL
 70
     0
  3
_ _ _ _ _
 72
    65
 73
     2
 40
3.0
 49
2.0
 74
     0
 49
-1.0
 74
     0
  0
LTYPE
  5
263
330
D
100
AcDbSymbolTableRecord
100
AcDbLinetypeTableRecord
  2
DASHED
 70
     0
  3
Dashed line
 72
    65
 73
     2
 40
0.75
 49
0.5
 74
     0
 49
-0.25
 74
     0
  0
LTYPE
  5
264
330
D
100
AcDbSymbolTableRecord
100
AcDbLinetypeTableRecord
  2
CENTER2
 70
     0
  3
Center (.5x) ___ _ ___ _ ___ _ ___ _ ___ _ ___
 72
    65
 73
     4
 40
1.125
 49
0.75
 74
     0
 49
-0.125
 74
     0
 49
0.125
 74
     0
 49
-0.125
 74
     0
  0
LTYPE
  5
265
330
D
100
AcDbSymbolTableRecord
100
AcDbLinetypeTableRecord
  2
HIDDEN2
 70
     0
  3
Hidden (.5x) _ _ _ _ _ _ _ _ _ _ _ _ _ _ _ _ _
 72
    65
 73
     2
 40
0.1875
 49
0.125
 74
     0
 49
-0.0625
 74
     0
  0
LTYPE
  5
279
330
D
100
AcDbSymbolTableRecord
100
AcDbLinetypeTableRecord
  2
ACISOWELD
 70
     0
  3
_ _ _ _ _
 72
    65
 73
     2
 40
2.0
 49
2.0
 74
     0
 49
-1.0
 74
     0
  0
LTYPE
  5
27C
330
D
100
AcDbSymbolTableRecord
100
AcDbLinetypeTableRecord
  2
ACISOTGB
 70
     0
  3
__ . . __ . .
 72
    65
 73
     6
 40
9.0
 49
4.0
 74
     0
 49
-1.0
 74
     0
 49
1.0
 74
     0
 49
-1.0
 74
     0
 49
1.0
 74
     0
 49
-1.0
 74
     0
  0
LTYPE
  5
27D
330
D
100
AcDbSymbolTableRecord
100
AcDbLinetypeTableRecord
  2
ACISOTGL
 70
     0
  3
_ _ _ _ _
 72
    65
 73
     2
 40
3.0
 49
2.0
 74
     0
 49
-1.0
 74
     0
  0
ENDTAB
  0
TABLE
  2
LAYER
  5
A
102
{ACAD_XDICTIONARY
360
29F
102
}
330
0
100
AcDbSymbolTable
 70
    26
  0
LAYER
  5
4
102
{ACAD_XDICTIONARY
360
2A5
102
}
330
A
100
AcDbSymbolTableRecord
100
AcDbLayerTableRecord
  2
0
 70
     0
 62
    -7
  6
CONTINUOUS
370
    -3
390
2F
  0
LAYER
  5
1DD
330
A
100
AcDbSymbolTableRecord
100
AcDbLayerTableRecord
  2
Defpoints
 70
     0
 62
     7
  6
CONTINUOUS
290
     0
370
    -3
390
2F
  0
LAYER
  5
29B
102
{ACAD_XDICTIONARY
360
29C
102
}
330
A
100
AcDbSymbolTableRecord
100
AcDbLayerTableRecord
  2
AM_2 ( Kontur 0.25)
 70
     0
 62
     5
  6
CONTINUOUS
370
    25
390
2F
1001
AcAecLayerStandard
1000

1000

  0
LAYER
  5
29E
102
{ACAD_XDICTIONARY
360
2AD
102
}
330
A
100
AcDbSymbolTableRecord
100
AcDbLayerTableRecord
  2
AM_0 ( Kontur 0.5 )
 70
     0
 62
     7
  6
CONTINUOUS
370
    50
390
2F
1001
AcAecLayerStandard
1000

1000

  0
LAYER
  5
2A2
102
{ACAD_XDICTIONARY
360
2AF
102
}
330
A
100
AcDbSymbolTableRecord
100
AcDbLayerTableRecord
  2
AM_7 (Mittellinie)
 70
     0
 62
     4
  6
AM_ISO08W050
370
    25
390
2F
1001
AcAecLayerStandard
1000

1000

  0
LAYER
  5
349
330
A
100
AcDbSymbolTableRecord
100
AcDbLayerTableRecord
  2
AM_3 ( Verdeckt )
 70
     0
 62
     6
  6
AM_ISO02W050
370
    25
390
2F
1001
AcAecLayerStandard
1000

1000

  0
LAYER
  5
51A
330
A
100
AcDbSymbolTableRecord
100
AcDbLayerTableRecord
  2
AM_5 ( Bemassung)
 70
     0
 62
     3
  6
CONTINUOUS
370
    25
390
2F
1001
AcAecLayerStandard
1000

1000

  0
LAYER
  5
1130
330
A
100
AcDbSymbolTableRecord
100
AcDbLayerTableRecord
  2
AM_12 ( Teile Referenz)
 70
     0
 62
     7
  6
CONTINUOUS
290
     0
370
    50
390
2F
1001
AcAecLayerStandard
1000

1000

  0
LAYER
  5
1131
330
A
100
AcDbSymbolTableRecord
100
AcDbLayerTableRecord
  2
AM_PAREF ( Teilereferenz)
 70
     0
 62
     4
  6
CONTINUOUS
290
     0
370
    25
390
2F
1001
AcAecLayerStandard
1000

1000

  0
ENDTAB
  0
TABLE
  2
STYLE
  5
B
330
0
100
AcDbSymbolTable
 70
    18
  0
STYLE
  5
C
330
B
100
AcDbSymbolTableRecord
100
AcDbTextStyleTableRecord
  2
STANDARD
 70
     0
 40
0.0
 41
1.0
 50
0.0
 71
     0
 42
3.5
  3
ARIAL.TTF
  4

1001
ACAD
1000
Arial
1071
       34
  0
STYLE
  5
170
330
B
100
AcDbSymbolTableRecord
100
AcDbTextStyleTableRecord
  2
ACANSTS
 70
     0
 40
1.0
 41
1.0
 50
0.0
 71
     0
 42
3.5
  3
romans.shx
  4

  0
STYLE
  5
17E
330
B
100
AcDbSymbolTableRecord
100
AcDbTextStyleTableRecord
  2
ACANSGDT
 70
     0
 40
0.0
 41
1.0
 50
0.0
 71
     0
 42
3.5
  3
amgdt.shx
  4

  0
STYLE
  5
238
330
B
100
AcDbSymbolTableRecord
100
AcDbTextStyleTableRecord
  2

 70
     1
 40
0.0
 41
1.0
 50
0.0
 71
     0
 42
2.5
  3
genltshp.shx
  4

  0
STYLE
  5
249
330
B
100
AcDbSymbolTableRecord
100
AcDbTextStyleTableRecord
  2
ACDINTS
 70
     0
 40
1.0
 41
1.0
 50
0.0
 71
     0
 42
3.5
  3
isocp.shx
  4

  0
STYLE
  5
24D
330
B
100
AcDbSymbolTableRecord
100
AcDbTextStyleTableRecord
  2
ACDINGDT
 70
     0
 40
0.0
 41
1.0
 50
0.0
 71
     0
 42
3.5
  3
amgdt.shx
  4

  0
STYLE
  5
273
330
B
100
AcDbSymbolTableRecord
100
AcDbTextStyleTableRecord
  2
ACISOTS
 70
     0
 40
1.0
 41
1.0
 50
0.0
 71
     0
 42
2.5
  3
ARIALN.TTF
  4

1001
ACAD
1000
Arial Narrow
1071
       34
  0
STYLE
  5
277
330
B
100
AcDbSymbolTableRecord
100
AcDbTextStyleTableRecord
  2
ACISOGDT
 70
     0
 40
0.0
 41
1.0
 50
0.0
 71
     0
 42
2.5
  3
amgdt.shx
  4

  0
ENDTAB
  0
TABLE
  2
VIEW
  5
10
330
0
100
AcDbSymbolTable
 70
     0
  0
ENDTAB
  0
TABLE
  2
UCS
  5
11
330
0
100
AcDbSymbolTable
 70
     0
  0
ENDTAB
  0
TABLE
  2
APPID
  5
14
330
0
100
AcDbSymbolTable
 70
    65
  0
APPID
  5
15
330
14
100
AcDbSymbolTableRecord
100
AcDbRegAppTableRecord
  2
ACAD
 70
     0
  0
APPID
  5
104
330
14
100
AcDbSymbolTableRecord
100
AcDbRegAppTableRecord
  2
ACAD_MLEADERVER
 70
     0
  0
APPID
  5
10C
330
14
100
AcDbSymbolTableRecord
100
AcDbRegAppTableRecord
  2
MCAD_NO_VIS
 70
     0
  0
APPID
  5
10D
330
14
100
AcDbSymbolTableRecord
100
AcDbRegAppTableRecord
  2
ACAD_TEMP_GRAPHIC
 70
     0
  0
APPID
  5
13D
330
14
100
AcDbSymbolTableRecord
100
AcDbRegAppTableRecord
  2
AD_DRAW
 70
     0
  0
APPID
  5
140
330
14
100
AcDbSymbolTableRecord
100
AcDbRegAppTableRecord
  2
ACATTRIBSERVICES
 70
     0
  0
APPID
  5
161
330
14
100
AcDbSymbolTableRecord
100
AcDbRegAppTableRecord
  2
DESIGNERASSEMBLIES
 70
     0
  0
APPID
  5
167
330
14
100
AcDbSymbolTableRecord
100
AcDbRegAppTableRecord
  2
ACADM_DIM_EDIT
 70
     0
  0
APPID
  5
168
330
14
100
AcDbSymbolTableRecord
100
AcDbRegAppTableRecord
  2
AMDT_DM_ADJ
 70
     0
  0
APPID
  5
1DE
330
14
100
AcDbSymbolTableRecord
100
AcDbRegAppTableRecord
  2
AcadAnnotative
 70
     0
  0
APPID
  5
1DF
330
14
100
AcDbSymbolTableRecord
100
AcDbRegAppTableRecord
  2
ACAD_DSTYLE_DIMARC_LENGTH_SYMBOL
 70
     0
  0
APPID
  5
1E0
330
14
100
AcDbSymbolTableRecord
100
AcDbRegAppTableRecord
  2
AcAecLayerStandard
 70
     0
  0
APPID
  5
1E1
330
14
100
AcDbSymbolTableRecord
100
AcDbRegAppTableRecord
  2
ACAD_DSTYLE_DIMJOGGED_JOGANGLE_SYMBOL
 70
     0
  0
APPID
  5
1E2
330
14
100
AcDbSymbolTableRecord
100
AcDbRegAppTableRecord
  2
AcadAnnoPO
 70
     0
  0
APPID
  5
1E3
330
14
100
AcDbSymbolTableRecord
100
AcDbRegAppTableRecord
  2
ACAD_EXEMPT_FROM_CAD_STANDARDS
 70
     0
  0
APPID
  5
1E4
330
14
100
AcDbSymbolTableRecord
100
AcDbRegAppTableRecord
  2
GENIUS_GENODEF_13
 70
     0
  0
APPID
  5
1E5
330
14
100
AcDbSymbolTableRecord
100
AcDbRegAppTableRecord
  2
GENIUS_GENOBJ-N-CRS_13
 70
     0
  0
APPID
  5
1E6
330
14
100
AcDbSymbolTableRecord
100
AcDbRegAppTableRecord
  2
GENIUS_GENOENT_13
 70
     0
  0
APPID
  5
1E7
330
14
100
AcDbSymbolTableRecord
100
AcDbRegAppTableRecord
  2
GENIUS_GENOLIS_13
 70
     0
  0
APPID
  5
1E8
330
14
100
AcDbSymbolTableRecord
100
AcDbRegAppTableRecord
  2
GENIUS_GENOREF_13
 70
     0
  0
APPID
  5
1E9
330
14
100
AcDbSymbolTableRecord
100
AcDbRegAppTableRecord
  2
GEVID1190879659
 70
     0
  0
APPID
  5
1EA
330
14
100
AcDbSymbolTableRecord
100
AcDbRegAppTableRecord
  2
GEVDC
 70
     0
  0
APPID
  5
1EB
330
14
100
AcDbSymbolTableRecord
100
AcDbRegAppTableRecord
  2
GENIUS_GENBH_13
 70
     0
  0
APPID
  5
1EC
330
14
100
AcDbSymbolTableRecord
100
AcDbRegAppTableRecord
  2
GENIUS_GENOBJ-NBEHI-BHF_13
 70
     0
  0
APPID
  5
1ED
330
14
100
AcDbSymbolTableRecord
100
AcDbRegAppTableRecord
  2
GENIUS_GENOBJ-NBEHI-BHB_13
 70
     0
  0
APPID
  5
1EE
330
14
100
AcDbSymbolTableRecord
100
AcDbRegAppTableRecord
  2
GEVID1190879660
 70
     0
  0
APPID
  5
1EF
330
14
100
AcDbSymbolTableRecord
100
AcDbRegAppTableRecord
  2
GEVID1190879661
 70
     0
  0
APPID
  5
1F0
330
14
100
AcDbSymbolTableRecord
100
AcDbRegAppTableRecord
  2
ACAD_DSTYLE_DIMRADIAL_EXTENSION
 70
     0
  0
APPID
  5
1F1
330
14
100
AcDbSymbolTableRecord
100
AcDbRegAppTableRecord
  2
GEVID1190879662
 70
     0
  0
APPID
  5
1F2
330
14
100
AcDbSymbolTableRecord
100
AcDbRegAppTableRecord
  2
GEVID1190879663
 70
     0
  0
APPID
  5
1F3
330
14
100
AcDbSymbolTableRecord
100
AcDbRegAppTableRecord
  2
GEVID1190879664
 70
     0
  0
APPID
  5
1F4
330
14
100
AcDbSymbolTableRecord
100
AcDbRegAppTableRecord
  2
GEVID1190879665
 70
     0
  0
APPID
  5
1F5
330
14
100
AcDbSymbolTableRecord
100
AcDbRegAppTableRecord
  2
GEVID1190879666
 70
     0
  0
APPID
  5
1F6
330
14
100
AcDbSymbolTableRecord
100
AcDbRegAppTableRecord
  2
GENIUS_GENOBJ-N-CEN_13
 70
     0
  0
APPID
  5
1F7
330
14
100
AcDbSymbolTableRecord
100
AcDbRegAppTableRecord
  2
GENIUS_GENCEN_19
 70
     0
  0
APPID
  5
1F8
330
14
100
AcDbSymbolTableRecord
100
AcDbRegAppTableRecord
  2
GEVID1190879667
 70
     0
  0
APPID
  5
1F9
330
14
100
AcDbSymbolTableRecord
100
AcDbRegAppTableRecord
  2
GENIUS_GENOBJ-N-CRC_13
 70
     0
  0
APPID
  5
1FA
330
14
100
AcDbSymbolTableRecord
100
AcDbRegAppTableRecord
  2
GENIUS_GENCRC_14
 70
     0
  0
APPID
  5
1FB
330
14
100
AcDbSymbolTableRecord
100
AcDbRegAppTableRecord
  2
ACAD_PSEXT
 70
     0
  0
APPID
  5
1FC
330
14
100
AcDbSymbolTableRecord
100
AcDbRegAppTableRecord
  2
GEVID1190888456
 70
     0
  0
APPID
  5
1FD
330
14
100
AcDbSymbolTableRecord
100
AcDbRegAppTableRecord
  2
GEVID1190888457
 70
     0
  0
APPID
  5
1FE
330
14
100
AcDbSymbolTableRecord
100
AcDbRegAppTableRecord
  2
GEVID1190888458
 70
     0
  0
APPID
  5
1FF
330
14
100
AcDbSymbolTableRecord
100
AcDbRegAppTableRecord
  2
GEVID1190888459
 70
     0
  0
APPID
  5
200
330
14
100
AcDbSymbolTableRecord
100
AcDbRegAppTableRecord
  2
GEVID1190888460
 70
     0
  0
APPID
  5
201
330
14
100
AcDbSymbolTableRecord
100
AcDbRegAppTableRecord
  2
GEVID1190888461
 70
     0
  0
APPID
  5
202
330
14
100
AcDbSymbolTableRecord
100
AcDbRegAppTableRecord
  2
GEVID1190888462
 70
     0
  0
APPID
  5
203
330
14
100
AcDbSymbolTableRecord
100
AcDbRegAppTableRecord
  2
ACAD_DSTYLE_DIMJAG
 70
     0
  0
APPID
  5
204
330
14
100
AcDbSymbolTableRecord
100
AcDbRegAppTableRecord
  2
ACAD_DSTYLE_DIMTALN
 70
     0
  0
APPID
  5
205
330
14
100
AcDbSymbolTableRecord
100
AcDbRegAppTableRecord
  2
GENIUS_GENBLLY_14
 70
     0
  0
APPID
  5
206
330
14
100
AcDbSymbolTableRecord
100
AcDbRegAppTableRecord
  2
DCO15
 70
     0
  0
APPID
  5
207
330
14
100
AcDbSymbolTableRecord
100
AcDbRegAppTableRecord
  2
GENIUS_GENREC_14
 70
     0
  0
APPID
  5
208
330
14
100
AcDbSymbolTableRecord
100
AcDbRegAppTableRecord
  2
GENIUS_GENOBJ-N-REC_13
 70
     0
  0
APPID
  5
209
330
14
100
AcDbSymbolTableRecord
100
AcDbRegAppTableRecord
  2
GENIUS_GENOBJ-N-TIT_13
 70
     0
  0
APPID
  5
20A
330
14
100
AcDbSymbolTableRecord
100
AcDbRegAppTableRecord
  2
GENIUS_GENTITLE_13
 70
     0
  0
APPID
  5
20B
330
14
100
AcDbSymbolTableRecord
100
AcDbRegAppTableRecord
  2
GENIUS_GENSCREG_15
 70
     0
  0
APPID
  5
20C
330
14
100
AcDbSymbolTableRecord
100
AcDbRegAppTableRecord
  2
GENIUS_GENOBJ-N-SDF_13
 70
     0
  0
APPID
  5
20D
330
14
100
AcDbSymbolTableRecord
100
AcDbRegAppTableRecord
  2
ACAD_DSTYLE_DIMINSPECT
 70
     0
  0
APPID
  5
20E
330
14
100
AcDbSymbolTableRecord
100
AcDbRegAppTableRecord
  2
GENIUS_GENDIMSH_14
 70
     0
  0
APPID
  5
20F
330
14
100
AcDbSymbolTableRecord
100
AcDbRegAppTableRecord
  2
GENIUS_GENOBJ-N-HTC_13
 70
     0
  0
APPID
  5
210
330
14
100
AcDbSymbolTableRecord
100
AcDbRegAppTableRecord
  2
GENIUS_GENHATCH_13
 70
     0
  0
APPID
  5
211
330
14
100
AcDbSymbolTableRecord
100
AcDbRegAppTableRecord
  2
ACAUTHENVIRON
 70
     0
  0
APPID
  5
212
330
14
100
AcDbSymbolTableRecord
100
AcDbRegAppTableRecord
  2
AcDbDynamicBlockTrueName
 70
     0
  0
APPID
  5
213
330
14
100
AcDbSymbolTableRecord
100
AcDbRegAppTableRecord
  2
AcDbDynamicBlockGUID
 70
     0
  0
APPID
  5
214
330
14
100
AcDbSymbolTableRecord
100
AcDbRegAppTableRecord
  2
ACDBBLOCKREPETAG
 70
     0
  0
APPID
  5
C3A
330
14
100
AcDbSymbolTableRecord
100
AcDbRegAppTableRecord
  2
GENIUS_GENDTOL_13
 70
     0
  0
ENDTAB
  0
TABLE
  2
DIMSTYLE
  5
16
330
0
100
AcDbSymbolTable
 70
    33
100
AcDbDimStyleTable
 71
     2
340
267
340
18B
  0
DIMSTYLE
105
18B
330
16
100
AcDbSymbolTableRecord
100
AcDbDimStyleTableRecord
  2
AM_ANSI
 70
     0
  4
mm
 41
0.1
 42
0.05
 43
0.5
 44
0.1
 47
0.1
 48
0.1
 78
     7
 79
     2
140
0.12
141
0.0
146
0.71
147
0.06
176
   256
177
   256
178
     2
274
     4
284
     7
340
C
371
    -1
372
    -1
1001
ACAD_DSTYLE_DIMARC_LENGTH_SYMBOL
1070
   379
1070
     1
  0
DIMSTYLE
105
18C
330
16
100
AcDbSymbolTableRecord
100
AcDbDimStyleTableRecord
  2
AM_ANSI$3
 70
     0
  4
mm
 41
0.1
 42
0.05
 43
0.5
 44
0.1
 47
0.1
 48
0.1
 78
     7
 79
     2
140
0.12
141
0.0
146
0.71
147
0.06
176
   256
177
   256
178
     2
274
     4
284
     7
288
     1
289
     0
340
C
371
    -1
372
    -1
1001
ACAD_DSTYLE_DIMARC_LENGTH_SYMBOL
1070
   379
1070
     1
  0
DIMSTYLE
105
18D
330
16
100
AcDbSymbolTableRecord
100
AcDbDimStyleTableRecord
  2
AM_ANSI$4
 70
     0
  4
mm
 41
0.1
 42
0.05
 43
0.5
 44
0.1
 47
0.1
 48
0.1
 78
     7
 79
     2
140
0.12
141
0.0
146
0.71
147
0.06
176
   256
177
   256
178
     2
274
     4
284
     7
288
     1
289
     0
340
C
371
    -1
372
    -1
1001
ACAD_DSTYLE_DIMARC_LENGTH_SYMBOL
1070
   379
1070
     1
  0
DIMSTYLE
105
18E
330
16
100
AcDbSymbolTableRecord
100
AcDbDimStyleTableRecord
  2
AM_ANSI$7
 70
     0
  4
mm
 41
0.1
 42
0.05
 43
0.5
 44
0.1
 47
0.1
 48
0.1
 78
     7
 79
     2
140
0.24
141
0.0
146
0.71
147
0.06
176
   256
177
   256
178
     2
274
     4
284
     7
340
C
371
    -1
372
    -1
1001
ACAD_DSTYLE_DIMARC_LENGTH_SYMBOL
1070
   379
1070
     1
  0
DIMSTYLE
105
18F
330
16
100
AcDbSymbolTableRecord
100
AcDbDimStyleTableRecord
  2
AM_ANSI$SF
 70
     0
  4
mm
 41
0.1
 42
0.05
 43
0.5
 44
0.1
 47
0.1
 48
0.1
 75
     1
 76
     1
 78
     7
 79
     2
140
0.12
141
0.0
146
0.71
147
0.06
176
   256
177
   256
178
     2
274
     4
284
     7
340
C
371
    -1
372
    -1
1001
ACAD_DSTYLE_DIMARC_LENGTH_SYMBOL
1070
   379
1070
     1
  0
DIMSTYLE
105
194
330
16
100
AcDbSymbolTableRecord
100
AcDbDimStyleTableRecord
  2
AM_ANSI$SH
 70
     0
  4
mm
 41
0.1
 42
0.05
 43
0.5
 44
0.1
 47
0.1
 48
0.1
 75
     1
 76
     1
 78
     7
 79
     2
140
0.12
141
0.0
146
0.71
147
0.06
173
     1
176
   256
177
   256
178
     2
274
     4
284
     7
340
C
343
190
371
    -1
372
    -1
1001
ACAD_DSTYLE_DIMARC_LENGTH_SYMBOL
1070
   379
1070
     1
  0
DIMSTYLE
105
267
330
16
100
AcDbSymbolTableRecord
100
AcDbDimStyleTableRecord
  2
AM_DIN
 70
     0
  4
"
 41
5.0
 42
1.0
 43
10.0
 44
1.0
 47
0.1
 48
0.1
 73
     0
 74
     0
 77
     1
 78
     8
 79
     2
140
5.0
141
0.0
143
0.0393701
146
0.71
147
1.5
172
     1
176
   256
177
   256
178
     2
271
     2
272
     2
283
     0
284
     8
340
C
371
    -1
372
    -1
1001
ACAD_DSTYLE_DIMJOGGED_JOGANGLE_SYMBOL
1070
   384
1040
1.570796326794896
  0
DIMSTYLE
105
268
102
{ACAD_REACTORS
330
624
330
662
330
B0F
330
C10
330
A87
330
A24
330
CB5
330
CFA
330
D38
330
F8F
102
}
330
16
100
AcDbSymbolTableRecord
100
AcDbDimStyleTableRecord
  2
AM_DIN$0
 70
     0
  4
"
 41
4.0
 42
0.0
 43
10.0
 44
1.0
 47
0.1
 48
0.1
 73
     0
 74
     0
 77
     1
 78
     8
 79
     2
140
3.5
141
0.0
143
0.0393701
146
0.71
147
1.5
172
     1
176
   256
177
   256
178
     2
271
     2
272
     2
283
     0
284
     8
340
C
371
    -1
372
    -1
1001
ACAD_DSTYLE_DIMJOGGED_JOGANGLE_SYMBOL
1070
   384
1040
1.570796326794896
  0
DIMSTYLE
105
269
102
{ACAD_REACTORS
330
5EC
102
}
330
16
100
AcDbSymbolTableRecord
100
AcDbDimStyleTableRecord
  2
AM_DIN$2
 70
     0
  4
"
 41
4.0
 42
0.0
 43
10.0
 44
1.0
 47
0.1
 48
0.1
 73
     0
 74
     0
 77
     1
 78
     8
 79
     2
140
3.5
141
0.0
143
0.0393701
146
0.71
147
1.5
172
     1
176
   256
177
   256
178
     2
271
     2
272
     2
283
     0
284
     8
340
C
371
    -1
372
    -1
1001
ACAD_DSTYLE_DIMJOGGED_JOGANGLE_SYMBOL
1070
   384
1040
1.570796326794896
  0
DIMSTYLE
105
26A
330
16
100
AcDbSymbolTableRecord
100
AcDbDimStyleTableRecord
  2
AM_DIN$3
 70
     0
  4
"
 41
3.5
 42
1.0
 43
10.0
 44
1.0
 47
0.1
 48
0.1
 73
     0
 77
     1
 78
     8
 79
     2
140
3.5
141
0.0
143
0.0393701
146
0.71
147
1.5
176
   256
177
   256
178
     2
271
     2
272
     2
283
     0
284
     8
288
     1
289
     0
340
C
371
    -1
372
    -1
1001
ACAD_DSTYLE_DIMJOGGED_JOGANGLE_SYMBOL
1070
   384
1040
1.570796326794896
  0
DIMSTYLE
105
26B
330
16
100
AcDbSymbolTableRecord
100
AcDbDimStyleTableRecord
  2
AM_DIN$4
 70
     0
  4
"
 41
4.0
 42
1.0
 43
10.0
 44
1.0
 47
0.1
 48
0.1
 73
     0
 77
     1
 78
     8
 79
     2
140
3.5
141
0.0
143
0.0393701
146
0.71
147
1.5
176
   256
177
   256
178
     2
271
     2
272
     2
283
     0
284
     8
288
     1
289
     0
340
C
371
    -1
372
    -1
1001
ACAD_DSTYLE_DIMJOGGED_JOGANGLE_SYMBOL
1070
   384
1040
1.570796326794896
  0
DIMSTYLE
105
26C
330
16
100
AcDbSymbolTableRecord
100
AcDbDimStyleTableRecord
  2
AM_DIN$6
 70
     0
  4
"
 41
4.0
 42
0.0
 43
10.0
 44
1.0
 47
0.1
 48
0.1
 73
     0
 74
     0
 78
     8
 79
     2
140
3.5
141
0.0
143
0.0393701
146
0.71
147
1.5
172
     1
176
   256
177
   256
178
     2
271
     2
272
     2
283
     0
284
     8
340
C
371
    -1
372
    -1
1001
ACAD_DSTYLE_DIMJOGGED_JOGANGLE_SYMBOL
1070
   384
1040
1.570796326794896
  0
DIMSTYLE
105
26D
330
16
100
AcDbSymbolTableRecord
100
AcDbDimStyleTableRecord
  2
AM_DIN$7
 70
     0
  4
"
 41
5.0
 42
1.0
 43
10.0
 44
1.0
 47
0.1
 48
0.1
 73
     0
 74
     0
 77
     1
 78
     8
 79
     2
140
5.0
141
0.0
143
0.0393701
146
0.71
147
1.5
172
     1
176
   256
177
   256
178
     2
271
     2
272
     2
283
     0
284
     8
340
C
371
    -1
372
    -1
1001
ACAD_DSTYLE_DIMJOGGED_JOGANGLE_SYMBOL
1070
   384
1040
1.570796326794896
  0
DIMSTYLE
105
26E
330
16
100
AcDbSymbolTableRecord
100
AcDbDimStyleTableRecord
  2
AM_DIN$SF
 70
     0
  4
"
 41
4.0
 42
1.0
 43
10.0
 44
1.0
 47
0.1
 48
0.1
 73
     0
 74
     0
 75
     1
 76
     1
 77
     1
 78
     8
 79
     2
140
3.5
141
0.0
143
0.0393701
146
0.71
147
1.5
172
     1
176
   256
177
   256
178
     2
271
     2
272
     2
283
     0
284
     8
340
C
371
    -1
372
    -1
1001
ACAD_DSTYLE_DIMJOGGED_JOGANGLE_SYMBOL
1070
   384
1040
1.570796326794896
  0
DIMSTYLE
105
26F
330
16
100
AcDbSymbolTableRecord
100
AcDbDimStyleTableRecord
  2
AM_DIN$SH
 70
     0
  4
"
 41
4.0
 42
1.0
 43
10.0
 44
1.0
 47
0.1
 48
0.1
 73
     0
 74
     0
 75
     1
 76
     1
 77
     1
 78
     8
 79
     2
140
3.5
141
0.0
143
0.0393701
144
2.0
146
0.71
147
1.5
172
     1
173
     1
176
   256
177
   256
178
     2
271
     2
272
     2
283
     0
284
     8
340
C
343
190
371
    -1
372
    -1
1001
ACAD_DSTYLE_DIMJOGGED_JOGANGLE_SYMBOL
1070
   384
1040
1.570796326794896
  0
DIMSTYLE
105
28B
330
16
100
AcDbSymbolTableRecord
100
AcDbDimStyleTableRecord
  2
AM_ISO
 70
     0
  4
"
 41
2.5
 42
1.0
 43
10.0
 44
1.0
 47
0.1
 48
0.1
 73
     0
 74
     0
 77
     1
 78
     8
 79
     2
140
3.5
141
0.0
143
0.0393701
146
0.71
147
1.5
172
     1
176
   256
177
   256
178
     2
271
     2
272
     3
274
     4
283
     0
284
     8
340
C
371
    -1
372
    -1
1001
ACAD_DSTYLE_DIMJOGGED_JOGANGLE_SYMBOL
1070
   384
1040
0.7853981633974483
1001
ACAD_DSTYLE_DIMARC_LENGTH_SYMBOL
1070
   379
1070
     1
  0
DIMSTYLE
105
28C
330
16
100
AcDbSymbolTableRecord
100
AcDbDimStyleTableRecord
  2
AM_ISO$3
 70
     0
  4
"
 41
2.5
 42
1.0
 43
10.0
 44
1.0
 47
0.1
 48
0.1
 73
     0
 77
     1
 78
     8
 79
     2
140
3.5
141
0.0
143
0.0393701
146
0.71
147
1.5
176
   256
177
   256
178
     2
271
     2
272
     3
274
     4
283
     0
284
     8
288
     1
289
     0
340
C
371
    -1
372
    -1
1001
ACAD_DSTYLE_DIMJOGGED_JOGANGLE_SYMBOL
1070
   384
1040
0.7853981633974483
1001
ACAD_DSTYLE_DIMARC_LENGTH_SYMBOL
1070
   379
1070
     1
  0
DIMSTYLE
105
28D
330
16
100
AcDbSymbolTableRecord
100
AcDbDimStyleTableRecord
  2
AM_ISO$4
 70
     0
  4
"
 41
2.5
 42
1.0
 43
10.0
 44
1.0
 47
0.1
 48
0.1
 73
     0
 77
     1
 78
     8
 79
     2
140
3.5
141
0.0
143
0.0393701
146
0.71
147
1.5
176
   256
177
   256
178
     2
271
     2
272
     3
274
     4
283
     0
284
     8
288
     1
289
     0
340
C
371
    -1
372
    -1
1001
ACAD_DSTYLE_DIMJOGGED_JOGANGLE_SYMBOL
1070
   384
1040
0.7853981633974483
1001
ACAD_DSTYLE_DIMARC_LENGTH_SYMBOL
1070
   379
1070
     1
  0
DIMSTYLE
105
28E
330
16
100
AcDbSymbolTableRecord
100
AcDbDimStyleTableRecord
  2
AM_ISO$6
 70
     0
  4
"
 41
2.5
 42
1.0
 43
10.0
 44
1.0
 47
0.1
 48
0.1
 73
     0
 74
     0
 78
     8
 79
     2
140
3.5
141
0.0
143
0.0393701
146
0.71
147
1.5
172
     1
176
   256
177
   256
178
     2
271
     2
272
     3
274
     4
283
     0
284
     8
340
C
371
    -1
372
    -1
1001
ACAD_DSTYLE_DIMJOGGED_JOGANGLE_SYMBOL
1070
   384
1040
0.7853981633974483
1001
ACAD_DSTYLE_DIMARC_LENGTH_SYMBOL
1070
   379
1070
     1
  0
DIMSTYLE
105
28F
330
16
100
AcDbSymbolTableRecord
100
AcDbDimStyleTableRecord
  2
AM_ISO$7
 70
     0
  4
"
 41
2.5
 42
1.0
 43
10.0
 44
1.0
 47
0.1
 48
0.1
 73
     0
 74
     0
 77
     1
 78
     8
 79
     2
140
5.0
141
0.0
143
0.0393701
146
0.71
147
1.5
172
     1
176
   256
177
   256
178
     2
271
     2
272
     3
274
     4
283
     0
284
     8
340
C
371
    -1
372
    -1
1001
ACAD_DSTYLE_DIMJOGGED_JOGANGLE_SYMBOL
1070
   384
1040
0.7853981633974483
1001
ACAD_DSTYLE_DIMARC_LENGTH_SYMBOL
1070
   379
1070
     1
  0
DIMSTYLE
105
290
330
16
100
AcDbSymbolTableRecord
100
AcDbDimStyleTableRecord
  2
AM_ISO$SF
 70
     0
  4
"
 41
2.5
 42
1.0
 43
10.0
 44
1.0
 47
0.1
 48
0.1
 73
     0
 74
     0
 75
     1
 76
     1
 77
     1
 78
     8
 79
     2
140
3.5
141
0.0
143
0.0393701
146
0.71
147
1.5
172
     1
176
   256
177
   256
178
     2
271
     2
272
     3
274
     4
283
     0
284
     8
340
C
371
    -1
372
    -1
1001
ACAD_DSTYLE_DIMJOGGED_JOGANGLE_SYMBOL
1070
   384
1040
0.7853981633974483
1001
ACAD_DSTYLE_DIMARC_LENGTH_SYMBOL
1070
   379
1070
     1
  0
DIMSTYLE
105
291
330
16
100
AcDbSymbolTableRecord
100
AcDbDimStyleTableRecord
  2
AM_ISO$SH
 70
     0
  4
"
 41
2.5
 42
1.0
 43
10.0
 44
1.0
 47
0.1
 48
0.1
 73
     0
 74
     0
 75
     1
 76
     1
 77
     1
 78
     8
 79
     2
140
3.5
141
0.0
143
0.0393701
144
2.0
146
0.71
147
1.5
172
     1
173
     1
176
   256
177
   256
178
     2
271
     2
272
     3
274
     4
283
     0
284
     8
340
C
343
190
371
    -1
372
    -1
1001
ACAD_DSTYLE_DIMJOGGED_JOGANGLE_SYMBOL
1070
   384
1040
0.7853981633974483
1001
ACAD_DSTYLE_DIMARC_LENGTH_SYMBOL
1070
   379
1070
     1
  0
DIMSTYLE
105
455
330
16
100
AcDbSymbolTableRecord
100
AcDbDimStyleTableRecord
  2
AM_ANSI$2
 70
     0
  4
mm
 41
0.1
 42
0.05
 43
0.5
 44
0.1
 47
0.1
 48
0.1
 78
     7
 79
     2
140
0.12
141
0.0
146
0.71
147
0.06
176
   256
177
   256
178
     2
274
     4
284
     7
340
C
371
    -1
372
    -1
1001
ACAD_DSTYLE_DIMARC_LENGTH_SYMBOL
1070
   379
1070
     1
  0
DIMSTYLE
105
F8D
330
16
100
AcDbSymbolTableRecord
100
AcDbDimStyleTableRecord
  2
AM_ANSI$0
 70
     0
  4
mm
 41
0.1
 42
0.05
 43
0.5
 44
0.1
 47
0.1
 48
0.1
 78
     7
 79
     2
140
0.12
141
0.0
146
0.71
147
0.06
176
   256
177
   256
178
     2
274
     4
284
     7
340
C
371
    -1
372
    -1
1001
ACAD_DSTYLE_DIMARC_LENGTH_SYMBOL
1070
   379
1070
     1
  0
ENDTAB
  0
TABLE
  2
BLOCK_RECORD
  5
1
330
0
100
AcDbSymbolTable
 70
    36
  0
BLOCK_RECORD
  5
2
102
{ACAD_XDICTIONARY
360
58
102
}
330
1
100
AcDbSymbolTableRecord
100
AcDbBlockTableRecord
  2
*MODEL_SPACE
340
62
  0
BLOCK_RECORD
  5
7
102
{ACAD_XDICTIONARY
360
5A
102
}
330
1
100
AcDbSymbolTableRecord
100
AcDbBlockTableRecord
  2
*PAPER_SPACE
340
63
  0
BLOCK_RECORD
  5
190
330
1
100
AcDbSymbolTableRecord
100
AcDbBlockTableRecord
  2
GENAXEH
340
0
310
2800000020000000200000000100080000000000000400000000000000000000000000000000000000000000000080000080000000808000800000008000800080800000C0C0C000C0DCC000F0CAA6000020400000206000002080000020A0000020C0000020E00000400000004020000040400000406000004080000040A0
310
000040C0000040E00000600000006020000060400000606000006080000060A0000060C0000060E00000800000008020000080400000806000008080000080A0000080C0000080E00000A0000000A0200000A0400000A0600000A0800000A0A00000A0C00000A0E00000C0000000C0200000C0400000C0600000C0800000C0
310
A00000C0C00000C0E00000E0000000E0200000E0400000E0600000E0800000E0A00000E0C00000E0E00040000000400020004000400040006000400080004000A0004000C0004000E00040200000402020004020400040206000402080004020A0004020C0004020E000404000004040200040404000404060004040800040
310
40A0004040C0004040E00040600000406020004060400040606000406080004060A0004060C0004060E00040800000408020004080400040806000408080004080A0004080C0004080E00040A0000040A0200040A0400040A0600040A0800040A0A00040A0C00040A0E00040C0000040C0200040C0400040C0600040C08000
310
40C0A00040C0C00040C0E00040E0000040E0200040E0400040E0600040E0800040E0A00040E0C00040E0E00080000000800020008000400080006000800080008000A0008000C0008000E00080200000802020008020400080206000802080008020A0008020C0008020E00080400000804020008040400080406000804080
310
008040A0008040C0008040E00080600000806020008060400080606000806080008060A0008060C0008060E00080800000808020008080400080806000808080008080A0008080C0008080E00080A0000080A0200080A0400080A0600080A0800080A0A00080A0C00080A0E00080C0000080C0200080C0400080C0600080C0
310
800080C0A00080C0C00080C0E00080E0000080E0200080E0400080E0600080E0800080E0A00080E0C00080E0E000C0000000C0002000C0004000C0006000C0008000C000A000C000C000C000E000C0200000C0202000C0204000C0206000C0208000C020A000C020C000C020E000C0400000C0402000C0404000C0406000C0
310
408000C040A000C040C000C040E000C0600000C0602000C0604000C0606000C0608000C060A000C060C000C060E000C0800000C0802000C0804000C0806000C0808000C080A000C080C000C080E000C0A00000C0A02000C0A04000C0A06000C0A08000C0A0A000C0A0C000C0A0E000C0C00000C0C02000C0C04000C0C06000
310
C0C08000C0C0A000F0FBFF00A4A0A000808080000000FF0000FF000000FFFF00FF000000FF00FF00FFFF0000FFFFFF0000000000000000000000000000000000000000000000000000000000000000000000000000000000000000000000000000000000000000000000000000000000000000000000000000000000000000
310
00000000000000000000000000000000000000000000000000000000000000000000000000000000000000000000000000000000000000000000000000000000000000000000000000000000000000000000000000000000000000000000000000000000000000000000000000000000000000000000000000000000000000
310
00000000000000000000000000000000000000000000000000000000000000000000000000000000000000000000000000000000000000000000000000000000000000000000000000000000000000000000000000000000000000000000000000000000000000000000000000000000000000000000000000000000000000
310
00000000000000000000000000000000000000000000000000000000000000000000000000000000000000000000000000000000000000000000000000000000000000000000000000000000000000000000000000000000000000000000000000000000000000000000000000000000000000000000000000000000000000
310
0000000000000000000000000000000000000000000000000000000000000000000000000000000000000000000000000000000000FFFFFFFFFFFFFFFFFFFFFFFFFFFFFFFFFFFFFFFFFFFFFFFFFFFFFFFFFFFF0000000000000000000000000000000000000000000000000000000000000000000000000000000000000000
310
00000000000000000000000000000000000000000000000000000000000000000000000000000000000000000000000000000000000000000000000000000000000000000000000000000000000000000000000000000000000000000000000000000000000000000000000000000000000000000000000000000000000000
310
00000000000000000000000000000000000000000000000000000000000000000000000000000000000000000000000000000000000000000000000000000000000000000000000000000000000000000000000000000000000000000000000000000000000000000000000000000000000000000000000000000000000000
310
00000000000000000000000000000000000000000000000000000000000000000000000000000000000000000000000000000000000000000000000000000000000000000000000000000000000000000000000000000000000000000000000000000000000000000000000000000000000000000000000000000000000000
310
0000000000000000000000000000000000000000000000000000000000000000000000000000000000000000000000000000000000000000
  0
BLOCK_RECORD
  5
5ED
330
1
100
AcDbSymbolTableRecord
100
AcDbBlockTableRecord
  2
*D5
340
0
  0
BLOCK_RECORD
  5
625
330
1
100
AcDbSymbolTableRecord
100
AcDbBlockTableRecord
  2
*D6
340
0
  0
BLOCK_RECORD
  5
663
330
1
100
AcDbSymbolTableRecord
100
AcDbBlockTableRecord
  2
*D7
340
0
  0
BLOCK_RECORD
  5
A25
330
1
100
AcDbSymbolTableRecord
100
AcDbBlockTableRecord
  2
*D19
340
0
  0
BLOCK_RECORD
  5
A88
330
1
100
AcDbSymbolTableRecord
100
AcDbBlockTableRecord
  2
*D22
340
0
  0
BLOCK_RECORD
  5
B10
330
1
100
AcDbSymbolTableRecord
100
AcDbBlockTableRecord
  2
*D25
340
0
  0
BLOCK_RECORD
  5
C11
330
1
100
AcDbSymbolTableRecord
100
AcDbBlockTableRecord
  2
*D26
340
0
  0
BLOCK_RECORD
  5
CB6
330
1
100
AcDbSymbolTableRecord
100
AcDbBlockTableRecord
  2
*D28
340
0
  0
BLOCK_RECORD
  5
CFB
330
1
100
AcDbSymbolTableRecord
100
AcDbBlockTableRecord
  2
*D29
340
0
  0
BLOCK_RECORD
  5
D39
330
1
100
AcDbSymbolTableRecord
100
AcDbBlockTableRecord
  2
*D30
340
0
  0
BLOCK_RECORD
  5
F90
330
1
100
AcDbSymbolTableRecord
100
AcDbBlockTableRecord
  2
*D31
340
0
  0
BLOCK_RECORD
  5
11A3
330
1
100
AcDbSymbolTableRecord
100
AcDbBlockTableRecord
  2
*S34
340
0
  0
BLOCK_RECORD
  5
11AA
330
1
100
AcDbSymbolTableRecord
100
AcDbBlockTableRecord
  2
*S35
340
0
  0
ENDTAB
  0
ENDSEC
  0
SECTION
  2
BLOCKS
  0
BLOCK
  5
3
330
2
100
AcDbEntity
  8
0
 62
     7
100
AcDbBlockBegin
  2
*MODEL_SPACE
 70
     0
 10
0.0
 20
0.0
 30
0.0
  3
*MODEL_SPACE
  1

  0
ENDBLK
  5
6
330
2
100
AcDbEntity
  8
0
 62
     7
100
AcDbBlockEnd
  0
BLOCK
  5
8
330
7
100
AcDbEntity
 67
     1
  8
0
 62
     7
100
AcDbBlockBegin
  2
*PAPER_SPACE
 70
     0
 10
0.0
 20
0.0
 30
0.0
  3
*PAPER_SPACE
  1

  0
ENDBLK
  5
9
330
7
100
AcDbEntity
 67
     1
  8
0
 62
     7
100
AcDbBlockEnd
  0
BLOCK
  5
10DA
330
190
100
AcDbEntity
  8
0
100
AcDbBlockBegin
  2
GENAXEH
 70
     0
 10
0.0
 20
0.0
 30
0.0
  3
GENAXEH
  1

  0
LINE
  5
10DB
330
190
100
AcDbEntity
  8
0
100
AcDbLine
 10
-1.0
 20
0.0
 30
0.0
 11
1.0
 21
0.0
 31
0.0
  0
ENDBLK
  5
10DC
330
190
100
AcDbEntity
  8
0
100
AcDbBlockEnd
  0
BLOCK
  5
5EE
330
5ED
100
AcDbEntity
  8
0
100
AcDbBlockBegin
  2
*D5
 70
     1
 10
0.0
 20
0.0
 30
0.0
  3
*D5
  1

  0
LINE
  5
113A
330
5ED
100
AcDbEntity
  8
AM_5 ( Bemassung)
100
AcDbLine
 10
34.95495679909137
 20
340.5292859715002
 30
0.0
 11
36.29471653135344
 21
345.529337362237
 31
0.0
  0
LINE
  5
113B
330
5ED
100
AcDbEntity
  8
AM_5 ( Bemassung)
100
AcDbLine
 10
27.19038544601575
 20
341.2240210150881
 30
0.0
 11
27.19038544601573
 21
346.7279452884842
 31
0.0
  0
ARC
  5
113C
330
5ED
100
AcDbEntity
  8
AM_5 ( Bemassung)
100
AcDbCircle
 10
27.19038544601575
 20
311.5515111828282
 30
0.0
 40
34.67643410565608
100
AcDbArc
 50
68.3898942651874
 51
71.69494713259367
  0
ARC
  5
113D
330
5ED
100
AcDbEntity
  8
AM_5 ( Bemassung)
100
AcDbCircle
 10
27.19038544601575
 20
311.5515111828282
 30
0.0
 40
34.67643410565608
100
AcDbArc
 50
93.30505286740628
 51
96.61010573481256
  0
ARC
  5
113E
330
5ED
100
AcDbEntity
  8
AM_5 ( Bemassung)
100
AcDbCircle
 10
27.19038544601575
 20
311.5515111828282
 30
0.0
 40
34.67643410565608
100
AcDbArc
 50
74.99999999999996
 51
90.0
  0
SOLID
  5
113F
330
5ED
100
AcDbEntity
  8
AM_5 ( Bemassung)
100
AcDbTrace
 10
37.98590527140816
 20
344.1538874310877
 30
0.0
 11
38.17694980359319
 21
344.7925942739872
 31
0.0
 12
36.16530700880217
 22
345.0463744490925
 32
0.0
 13
36.16530700880217
 23
345.0463744490925
 33
0.0
  0
SOLID
  5
1140
330
5ED
100
AcDbEntity
  8
AM_5 ( Bemassung)
100
AcDbTrace
 10
25.18160457467207
 20
346.503463930385
 30
0.0
 11
25.2008299271012
 21
345.8370745320087
 31
0.0
 12
27.19038544601573
 22
346.2279452884842
 32
0.0
 13
27.19038544601573
 23
346.2279452884842
 33
0.0
  0
MTEXT
  5
1141
330
5ED
100
AcDbEntity
  8
AM_5 ( Bemassung)
 62
     2
100
AcDbMText
 10
34.62003075378776
 20
347.4945325558296
 30
0.0
 40
2.5
 41
0.0
 71
     5
 72
     1
  1
15\U+00B0
 11
0.9792973881098097
 21
-0.2024268402196331
 31
0.0
 73
     1
 44
1.0
  0
POINT
  5
1142
330
5ED
100
AcDbEntity
  8
Defpoints
 62
     0
100
AcDbPoint
 10
30.21263581633443
 20
346.0959909876105
 30
0.0
  0
POINT
  5
1143
330
5ED
100
AcDbEntity
  8
Defpoints
 62
     0
100
AcDbPoint
 10
27.19038544601574
 20
279.7594253220581
 30
0.0
  0
POINT
  5
1144
330
5ED
100
AcDbEntity
  8
Defpoints
 62
     0
100
AcDbPoint
 10
27.19038544601575
 20
311.5515111828282
 30
0.0
  0
POINT
  5
1145
330
5ED
100
AcDbEntity
  8
Defpoints
 62
     0
100
AcDbPoint
 10
34.95495679909137
 20
340.5292859715002
 30
0.0
  0
POINT
  5
1146
330
5ED
100
AcDbEntity
  8
Defpoints
 62
     0
100
AcDbPoint
 10
27.19038544601575
 20
341.2240210150881
 30
0.0
  0
ENDBLK
  5
5EF
330
5ED
100
AcDbEntity
  8
0
100
AcDbBlockEnd
  0
BLOCK
  5
626
330
625
100
AcDbEntity
  8
0
100
AcDbBlockBegin
  2
*D6
 70
     1
 10
0.0
 20
0.0
 30
0.0
  3
*D6
  1

  0
LINE
  5
1147
330
625
100
AcDbEntity
  8
AM_5 ( Bemassung)
100
AcDbLine
 10
29.69038544601574
 20
338.1515107683179
 30
0.0
 11
29.69038544601574
 21
351.5612222900499
 31
0.0
  0
LINE
  5
1148
330
625
100
AcDbEntity
  8
AM_5 ( Bemassung)
100
AcDbLine
 10
24.69038544601574
 20
338.1515107683179
 30
0.0
 11
24.69038544601574
 21
351.5612222900499
 31
0.0
  0
LINE
  5
1149
330
625
100
AcDbEntity
  8
AM_5 ( Bemassung)
100
AcDbLine
 10
31.69038544601574
 20
351.0612222900499
 30
0.0
 11
33.69038544601574
 21
351.0612222900499
 31
0.0
  0
LINE
  5
114A
330
625
100
AcDbEntity
  8
AM_5 ( Bemassung)
100
AcDbLine
 10
22.69038544601574
 20
351.0612222900499
 30
0.0
 11
13.3148470305956
 21
351.0612222900499
 31
0.0
  0
LINE
  5
114B
330
625
100
AcDbEntity
  8
AM_5 ( Bemassung)
100
AcDbLine
 10
29.69038544601574
 20
351.0612222900499
 30
0.0
 11
24.69038544601574
 21
351.0612222900499
 31
0.0
  0
SOLID
  5
114C
330
625
100
AcDbEntity
  8
AM_5 ( Bemassung)
100
AcDbTrace
 10
31.69038544601574
 20
351.3945556233832
 30
0.0
 11
31.69038544601574
 21
350.7278889567166
 31
0.0
 12
29.69038544601574
 22
351.0612222900499
 32
0.0
 13
29.69038544601574
 23
351.0612222900499
 33
0.0
  0
SOLID
  5
114D
330
625
100
AcDbEntity
  8
AM_5 ( Bemassung)
100
AcDbTrace
 10
22.69038544601574
 20
351.3945556233832
 30
0.0
 11
22.69038544601574
 21
350.7278889567166
 31
0.0
 12
24.69038544601574
 22
351.0612222900499
 32
0.0
 13
24.69038544601574
 23
351.0612222900499
 33
0.0
  0
MTEXT
  5
114E
330
625
100
AcDbEntity
  8
AM_5 ( Bemassung)
 62
     2
100
AcDbMText
 10
16.73878973182343
 20
353.1575729039653
 30
0.0
 40
2.5
 41
0.0
 71
     5
 72
     1
  1
%%c 5
 73
     1
 44
1.0
  0
POINT
  5
114F
330
625
100
AcDbEntity
  8
Defpoints
 62
     0
100
AcDbPoint
 10
29.69038544601574
 20
338.1515107683179
 30
0.0
  0
POINT
  5
1150
330
625
100
AcDbEntity
  8
Defpoints
 62
     0
100
AcDbPoint
 10
24.69038544601574
 20
338.1515107683179
 30
0.0
  0
POINT
  5
1151
330
625
100
AcDbEntity
  8
Defpoints
 62
     0
100
AcDbPoint
 10
24.69038544601574
 20
351.0612222900499
 30
0.0
  0
ENDBLK
  5
627
330
625
100
AcDbEntity
  8
0
100
AcDbBlockEnd
  0
BLOCK
  5
664
330
663
100
AcDbEntity
  8
0
100
AcDbBlockBegin
  2
*D7
 70
     1
 10
0.0
 20
0.0
 30
0.0
  3
*D7
  1

  0
LINE
  5
1152
330
663
100
AcDbEntity
  8
AM_5 ( Bemassung)
100
AcDbLine
 10
27.19038544601574
 20
338.1515107683179
 30
0.0
 11
49.06954083786371
 21
338.1515107683179
 31
0.0
  0
LINE
  5
1153
330
663
100
AcDbEntity
  8
AM_5 ( Bemassung)
100
AcDbLine
 10
34.19038534088543
 20
279.675005939128
 30
0.0
 11
49.0695408378637
 21
279.675005939128
 31
0.0
  0
LINE
  5
1154
330
663
100
AcDbEntity
  8
AM_5 ( Bemassung)
100
AcDbLine
 10
48.56954083786371
 20
336.1515107683179
 30
0.0
 11
48.56954083786369
 21
281.675005939128
 31
0.0
  0
SOLID
  5
1155
330
663
100
AcDbEntity
  8
AM_5 ( Bemassung)
100
AcDbTrace
 10
48.23620750453038
 20
336.1515107683179
 30
0.0
 11
48.90287417119704
 21
336.1515107683179
 31
0.0
 12
48.56954083786371
 22
338.1515107683179
 32
0.0
 13
48.56954083786371
 23
338.1515107683179
 33
0.0
  0
SOLID
  5
1156
330
663
100
AcDbEntity
  8
AM_5 ( Bemassung)
100
AcDbTrace
 10
48.23620750453036
 20
281.675005939128
 30
0.0
 11
48.90287417119703
 21
281.675005939128
 31
0.0
 12
48.56954083786369
 22
279.675005939128
 32
0.0
 13
48.56954083786369
 23
279.675005939128
 33
0.0
  0
MTEXT
  5
1157
330
663
100
AcDbEntity
  8
AM_5 ( Bemassung)
 62
     2
100
AcDbMText
 10
46.54310836855942
 20
308.913258353723
 30
0.0
 40
2.5
 41
0.0
 71
     5
 72
     1
  1
58.5
 11
0.0000000000000001
 21
1.0
 31
0.0
 73
     1
 44
1.0
  0
POINT
  5
1158
330
663
100
AcDbEntity
  8
Defpoints
 62
     0
100
AcDbPoint
 10
27.19038544601574
 20
338.1515107683179
 30
0.0
  0
POINT
  5
1159
330
663
100
AcDbEntity
  8
Defpoints
 62
     0
100
AcDbPoint
 10
34.19038534088543
 20
279.675005939128
 30
0.0
  0
POINT
  5
115A
330
663
100
AcDbEntity
  8
Defpoints
 62
     0
100
AcDbPoint
 10
48.56954083786369
 20
279.675005939128
 30
0.0
  0
ENDBLK
  5
665
330
663
100
AcDbEntity
  8
0
100
AcDbBlockEnd
  0
BLOCK
  5
A26
330
A25
100
AcDbEntity
  8
0
100
AcDbBlockBegin
  2
*D19
 70
     1
 10
0.0
 20
0.0
 30
0.0
  3
*D19
  1

  0
LINE
  5
115B
330
A25
100
AcDbEntity
  8
AM_5 ( Bemassung)
100
AcDbLine
 10
36.69038530237989
 20
316.0920178265279
 30
0.0
 11
43.91352911719586
 21
316.0920178265279
 31
0.0
  0
LINE
  5
115C
330
A25
100
AcDbEntity
  8
AM_5 ( Bemassung)
100
AcDbLine
 10
27.19211642587822
 20
279.675005939128
 30
0.0
 11
43.91352911719585
 21
279.675005939128
 31
0.0
  0
LINE
  5
115D
330
A25
100
AcDbEntity
  8
AM_5 ( Bemassung)
100
AcDbLine
 10
43.41352911719586
 20
314.0920178265279
 30
0.0
 11
43.41352911719585
 21
281.675005939128
 31
0.0
  0
SOLID
  5
115E
330
A25
100
AcDbEntity
  8
AM_5 ( Bemassung)
100
AcDbTrace
 10
43.08019578386253
 20
314.0920178265279
 30
0.0
 11
43.74686245052919
 21
314.0920178265279
 31
0.0
 12
43.41352911719586
 22
316.0920178265279
 32
0.0
 13
43.41352911719586
 23
316.0920178265279
 33
0.0
  0
SOLID
  5
115F
330
A25
100
AcDbEntity
  8
AM_5 ( Bemassung)
100
AcDbTrace
 10
43.08019578386252
 20
281.675005939128
 30
0.0
 11
43.74686245052919
 21
281.675005939128
 31
0.0
 12
43.41352911719585
 22
279.675005939128
 32
0.0
 13
43.41352911719585
 23
279.675005939128
 33
0.0
  0
MTEXT
  5
1160
330
A25
100
AcDbEntity
  8
AM_5 ( Bemassung)
 62
     2
100
AcDbMText
 10
41.38624398759144
 20
297.883511882828
 30
0.0
 40
2.5
 41
0.0
 71
     5
 72
     1
  1
36.4
 11
0.0000000000000001
 21
1.0
 31
0.0
 73
     1
 44
1.0
  0
POINT
  5
1161
330
A25
100
AcDbEntity
  8
Defpoints
 62
     0
100
AcDbPoint
 10
36.69038530237989
 20
316.0920178265279
 30
0.0
  0
POINT
  5
1162
330
A25
100
AcDbEntity
  8
Defpoints
 62
     0
100
AcDbPoint
 10
27.19211642587822
 20
279.675005939128
 30
0.0
  0
POINT
  5
1163
330
A25
100
AcDbEntity
  8
Defpoints
 62
     0
100
AcDbPoint
 10
43.41352911719585
 20
279.675005939128
 30
0.0
  0
ENDBLK
  5
A27
330
A25
100
AcDbEntity
  8
0
100
AcDbBlockEnd
  0
BLOCK
  5
A89
330
A88
100
AcDbEntity
  8
0
100
AcDbBlockBegin
  2
*D22
 70
     1
 10
0.0
 20
0.0
 30
0.0
  3
*D22
  1

  0
LINE
  5
1164
330
A88
100
AcDbEntity
  8
AM_5 ( Bemassung)
100
AcDbLine
 10
27.19038544601574
 20
338.1515107683179
 30
0.0
 11
43.91352911719587
 21
338.1515107683179
 31
0.0
  0
LINE
  5
1165
330
A88
100
AcDbEntity
  8
AM_5 ( Bemassung)
100
AcDbLine
 10
36.69038530237989
 20
316.0920178265279
 30
0.0
 11
43.91352911719586
 21
316.0920178265279
 31
0.0
  0
LINE
  5
1166
330
A88
100
AcDbEntity
  8
AM_5 ( Bemassung)
100
AcDbLine
 10
43.41352911719587
 20
336.1515107683179
 30
0.0
 11
43.41352911719586
 21
318.0920178265278
 31
0.0
  0
SOLID
  5
1167
330
A88
100
AcDbEntity
  8
AM_5 ( Bemassung)
100
AcDbTrace
 10
43.08019578386253
 20
336.1515107683179
 30
0.0
 11
43.7468624505292
 21
336.1515107683179
 31
0.0
 12
43.41352911719587
 22
338.1515107683179
 32
0.0
 13
43.41352911719587
 23
338.1515107683179
 33
0.0
  0
SOLID
  5
1168
330
A88
100
AcDbEntity
  8
AM_5 ( Bemassung)
100
AcDbTrace
 10
43.08019578386253
 20
318.0920178265278
 30
0.0
 11
43.74686245052919
 21
318.0920178265278
 31
0.0
 12
43.41352911719586
 22
316.0920178265279
 32
0.0
 13
43.41352911719586
 23
316.0920178265279
 33
0.0
  0
MTEXT
  5
1169
330
A88
100
AcDbEntity
  8
AM_5 ( Bemassung)
 62
     2
100
AcDbMText
 10
41.40841315539499
 20
327.1217642974229
 30
0.0
 40
2.5
 41
0.0
 71
     5
 72
     1
  1
22.1
 11
0.0000000000000001
 21
1.0
 31
0.0
 73
     1
 44
1.0
  0
POINT
  5
116A
330
A88
100
AcDbEntity
  8
Defpoints
 62
     0
100
AcDbPoint
 10
27.19038544601574
 20
338.1515107683179
 30
0.0
  0
POINT
  5
116B
330
A88
100
AcDbEntity
  8
Defpoints
 62
     0
100
AcDbPoint
 10
36.69038530237989
 20
316.0920178265279
 30
0.0
  0
POINT
  5
116C
330
A88
100
AcDbEntity
  8
Defpoints
 62
     0
100
AcDbPoint
 10
43.41352911719586
 20
316.0920178265279
 30
0.0
  0
ENDBLK
  5
A8A
330
A88
100
AcDbEntity
  8
0
100
AcDbBlockEnd
  0
BLOCK
  5
B11
330
B10
100
AcDbEntity
  8
0
100
AcDbBlockBegin
  2
*D25
 70
     1
 10
0.0
 20
0.0
 30
0.0
  3
*D25
  1

  0
LINE
  5
116D
330
B10
100
AcDbEntity
  8
AM_5 ( Bemassung)
100
AcDbLine
 10
33.41050893322846
 20
289.4750060217281
 30
0.0
 11
40.49010040766733
 21
289.4750060217281
 31
0.0
  0
LINE
  5
116E
330
B10
100
AcDbEntity
  8
AM_5 ( Bemassung)
100
AcDbLine
 10
33.35630050009479
 20
280.475005939128
 30
0.0
 11
40.49010040766733
 21
280.475005939128
 31
0.0
  0
LINE
  5
116F
330
B10
100
AcDbEntity
  8
AM_5 ( Bemassung)
100
AcDbLine
 10
39.99010040766734
 20
287.4750060217281
 30
0.0
 11
39.99010040766734
 21
282.475005939128
 31
0.0
  0
SOLID
  5
1170
330
B10
100
AcDbEntity
  8
AM_5 ( Bemassung)
100
AcDbTrace
 10
39.65676707433401
 20
287.4750060217281
 30
0.0
 11
40.32343374100068
 21
287.4750060217281
 31
0.0
 12
39.99010040766734
 22
289.4750060217281
 32
0.0
 13
39.99010040766734
 23
289.4750060217281
 33
0.0
  0
SOLID
  5
1171
330
B10
100
AcDbEntity
  8
AM_5 ( Bemassung)
100
AcDbTrace
 10
39.65676707433401
 20
282.475005939128
 30
0.0
 11
40.32343374100068
 21
282.475005939128
 31
0.0
 12
39.99010040766734
 22
280.475005939128
 32
0.0
 13
39.99010040766734
 23
280.475005939128
 33
0.0
  0
MTEXT
  5
1172
330
B10
100
AcDbEntity
  8
AM_5 ( Bemassung)
 62
     2
100
AcDbMText
 10
37.96366793836306
 20
284.975005980428
 30
0.0
 40
2.5
 41
0.0
 71
     5
 72
     1
  1
9
 11
0.0000000000000001
 21
1.0
 31
0.0
 73
     1
 44
1.0
  0
POINT
  5
1173
330
B10
100
AcDbEntity
  8
Defpoints
 62
     0
100
AcDbPoint
 10
33.41050893322846
 20
289.4750060217281
 30
0.0
  0
POINT
  5
1174
330
B10
100
AcDbEntity
  8
Defpoints
 62
     0
100
AcDbPoint
 10
33.35630050009479
 20
280.475005939128
 30
0.0
  0
POINT
  5
1175
330
B10
100
AcDbEntity
  8
Defpoints
 62
     0
100
AcDbPoint
 10
39.99010040766734
 20
280.475005939128
 30
0.0
  0
ENDBLK
  5
B12
330
B10
100
AcDbEntity
  8
0
100
AcDbBlockEnd
  0
BLOCK
  5
C12
330
C11
100
AcDbEntity
  8
0
100
AcDbBlockBegin
  2
*D26
 70
     1
 10
0.0
 20
0.0
 30
0.0
  3
*D26
  1

  0
LINE
  5
1176
330
C11
100
AcDbEntity
  8
AM_5 ( Bemassung)
100
AcDbLine
 10
18.8603855711159
 20
284.0317029510242
 30
0.0
 11
18.8603855711159
 21
273.474984714314
 31
0.0
  0
LINE
  5
1177
330
C11
100
AcDbEntity
  8
AM_5 ( Bemassung)
100
AcDbLine
 10
35.52038532091558
 20
284.7855373892313
 30
0.0
 11
35.52038532091558
 21
273.474984714314
 31
0.0
  0
LINE
  5
1178
330
C11
100
AcDbEntity
  8
AM_5 ( Bemassung)
100
AcDbLine
 10
20.8603855711159
 20
273.974984714314
 30
0.0
 11
33.52038532091558
 21
273.974984714314
 31
0.0
  0
SOLID
  5
1179
330
C11
100
AcDbEntity
  8
AM_5 ( Bemassung)
100
AcDbTrace
 10
20.8603855711159
 20
274.3083180476473
 30
0.0
 11
20.8603855711159
 21
273.6416513809807
 31
0.0
 12
18.8603855711159
 22
273.974984714314
 32
0.0
 13
18.8603855711159
 23
273.974984714314
 33
0.0
  0
SOLID
  5
117A
330
C11
100
AcDbEntity
  8
AM_5 ( Bemassung)
100
AcDbTrace
 10
33.52038532091558
 20
274.3083180476473
 30
0.0
 11
33.52038532091558
 21
273.6416513809807
 31
0.0
 12
35.52038532091558
 22
273.974984714314
 32
0.0
 13
35.52038532091558
 23
273.974984714314
 33
0.0
  0
MTEXT
  5
117B
330
C11
100
AcDbEntity
  8
AM_5 ( Bemassung)
 62
     2
100
AcDbMText
 10
27.19038544601574
 20
276.018470389621
 30
0.0
 40
2.5
 41
0.0
 71
     5
 72
     1
  1
G3/8
 73
     1
 44
1.0
  0
POINT
  5
117C
330
C11
100
AcDbEntity
  8
Defpoints
 62
     0
100
AcDbPoint
 10
18.8603855711159
 20
284.0317029510242
 30
0.0
  0
POINT
  5
117D
330
C11
100
AcDbEntity
  8
Defpoints
 62
     0
100
AcDbPoint
 10
35.52038532091558
 20
284.7855373892313
 30
0.0
  0
POINT
  5
117E
330
C11
100
AcDbEntity
  8
Defpoints
 62
     0
100
AcDbPoint
 10
35.52038532091558
 20
273.974984714314
 30
0.0
  0
ENDBLK
  5
C13
330
C11
100
AcDbEntity
  8
0
100
AcDbBlockEnd
  0
BLOCK
  5
CB7
330
CB6
100
AcDbEntity
  8
0
100
AcDbBlockBegin
  2
*D28
 70
     1
 10
0.0
 20
0.0
 30
0.0
  3
*D28
  1

  0
LINE
  5
117F
330
CB6
100
AcDbEntity
  8
AM_5 ( Bemassung)
100
AcDbLine
 10
32.71813541221657
 20
248.688510785399
 30
0.0
 11
46.25435409693707
 21
248.688510785399
 31
0.0
  0
LINE
  5
1180
330
CB6
100
AcDbEntity
  8
AM_5 ( Bemassung)
100
AcDbLine
 10
32.71813541221655
 20
229.6885107853991
 30
0.0
 11
46.25435409693706
 21
229.6885107853991
 31
0.0
  0
LINE
  5
1181
330
CB6
100
AcDbEntity
  8
AM_5 ( Bemassung)
100
AcDbLine
 10
45.75435409693707
 20
246.688510785399
 30
0.0
 11
45.75435409693707
 21
231.6885107853991
 31
0.0
  0
SOLID
  5
1182
330
CB6
100
AcDbEntity
  8
AM_5 ( Bemassung)
100
AcDbTrace
 10
45.42102076360374
 20
246.688510785399
 30
0.0
 11
46.08768743027041
 21
246.688510785399
 31
0.0
 12
45.75435409693707
 22
248.688510785399
 32
0.0
 13
45.75435409693707
 23
248.688510785399
 33
0.0
  0
SOLID
  5
1183
330
CB6
100
AcDbEntity
  8
AM_5 ( Bemassung)
100
AcDbTrace
 10
45.42102076360373
 20
231.6885107853991
 30
0.0
 11
46.08768743027041
 21
231.6885107853991
 31
0.0
 12
45.75435409693707
 22
229.6885107853991
 32
0.0
 13
45.75435409693707
 23
229.6885107853991
 33
0.0
  0
MTEXT
  5
1184
330
CB6
100
AcDbEntity
  8
AM_5 ( Bemassung)
 62
     2
100
AcDbMText
 10
43.71172108193021
 20
239.188510785399
 30
0.0
 40
2.5
 41
0.0
 71
     5
 72
     1
  1
SW19
 11
0.0000000000000001
 21
1.0
 31
0.0
 73
     1
 44
1.0
  0
POINT
  5
1185
330
CB6
100
AcDbEntity
  8
Defpoints
 62
     0
100
AcDbPoint
 10
32.71813541221657
 20
248.688510785399
 30
0.0
  0
POINT
  5
1186
330
CB6
100
AcDbEntity
  8
Defpoints
 62
     0
100
AcDbPoint
 10
32.71813541221655
 20
229.6885107853991
 30
0.0
  0
POINT
  5
1187
330
CB6
100
AcDbEntity
  8
Defpoints
 62
     0
100
AcDbPoint
 10
45.75435409693707
 20
229.6885107853991
 30
0.0
  0
ENDBLK
  5
CB8
330
CB6
100
AcDbEntity
  8
0
100
AcDbBlockEnd
  0
BLOCK
  5
CFC
330
CFB
100
AcDbEntity
  8
0
100
AcDbBlockBegin
  2
*D29
 70
     1
 10
0.0
 20
0.0
 30
0.0
  3
*D29
  1

  0
LINE
  5
1188
330
CFB
100
AcDbEntity
  8
AM_5 ( Bemassung)
100
AcDbLine
 10
38.202962969518
 20
239.188510785399
 30
0.0
 11
38.202962969518
 21
255.188511785399
 31
0.0
  0
LINE
  5
1189
330
CFB
100
AcDbEntity
  8
AM_5 ( Bemassung)
100
AcDbLine
 10
16.26365274031225
 20
239.188510785399
 30
0.0
 11
16.26365274031225
 21
255.188511785399
 31
0.0
  0
LINE
  5
118A
330
CFB
100
AcDbEntity
  8
AM_5 ( Bemassung)
100
AcDbLine
 10
36.202962969518
 20
254.688511785399
 30
0.0
 11
18.26365274031225
 21
254.688511785399
 31
0.0
  0
SOLID
  5
118B
330
CFB
100
AcDbEntity
  8
AM_5 ( Bemassung)
100
AcDbTrace
 10
36.202962969518
 20
255.0218451187324
 30
0.0
 11
36.202962969518
 21
254.3551784520657
 31
0.0
 12
38.202962969518
 22
254.688511785399
 32
0.0
 13
38.202962969518
 23
254.688511785399
 33
0.0
  0
SOLID
  5
118C
330
CFB
100
AcDbEntity
  8
AM_5 ( Bemassung)
100
AcDbTrace
 10
18.26365274031225
 20
255.0218451187324
 30
0.0
 11
18.26365274031225
 21
254.3551784520657
 31
0.0
 12
16.26365274031225
 22
254.688511785399
 32
0.0
 13
16.26365274031225
 23
254.688511785399
 33
0.0
  0
MTEXT
  5
118D
330
CFB
100
AcDbEntity
  8
AM_5 ( Bemassung)
 62
     2
100
AcDbMText
 10
27.23330785491512
 20
256.6936277471999
 30
0.0
 40
2.5
 41
0.0
 71
     5
 72
     1
  1
22
 73
     1
 44
1.0
  0
POINT
  5
118E
330
CFB
100
AcDbEntity
  8
Defpoints
 62
     0
100
AcDbPoint
 10
38.202962969518
 20
239.188510785399
 30
0.0
  0
POINT
  5
118F
330
CFB
100
AcDbEntity
  8
Defpoints
 62
     0
100
AcDbPoint
 10
16.26365274031225
 20
239.188510785399
 30
0.0
  0
POINT
  5
1190
330
CFB
100
AcDbEntity
  8
Defpoints
 62
     0
100
AcDbPoint
 10
16.26365274031225
 20
254.688511785399
 30
0.0
  0
ENDBLK
  5
CFD
330
CFB
100
AcDbEntity
  8
0
100
AcDbBlockEnd
  0
BLOCK
  5
D3A
330
D39
100
AcDbEntity
  8
0
100
AcDbBlockBegin
  2
*D30
 70
     1
 10
0.0
 20
0.0
 30
0.0
  3
*D30
  1

  0
LINE
  5
1191
330
D39
100
AcDbEntity
  8
AM_5 ( Bemassung)
100
AcDbLine
 10
31.69038537843575
 20
335.6979527727442
 30
0.0
 11
31.69038537843575
 21
355.5211472559435
 31
0.0
  0
LINE
  5
1192
330
D39
100
AcDbEntity
  8
AM_5 ( Bemassung)
100
AcDbLine
 10
22.69038551359484
 20
332.5138007367363
 30
0.0
 11
22.69038551359484
 21
355.5211472559435
 31
0.0
  0
LINE
  5
1193
330
D39
100
AcDbEntity
  8
AM_5 ( Bemassung)
100
AcDbLine
 10
29.69038537843575
 20
355.0211472559435
 30
0.0
 11
24.69038551359484
 21
355.0211472559435
 31
0.0
  0
SOLID
  5
1194
330
D39
100
AcDbEntity
  8
AM_5 ( Bemassung)
100
AcDbTrace
 10
29.69038537843575
 20
355.3544805892768
 30
0.0
 11
29.69038537843575
 21
354.6878139226102
 31
0.0
 12
31.69038537843575
 22
355.0211472559435
 32
0.0
 13
31.69038537843575
 23
355.0211472559435
 33
0.0
  0
SOLID
  5
1195
330
D39
100
AcDbEntity
  8
AM_5 ( Bemassung)
100
AcDbTrace
 10
24.69038551359484
 20
355.3544805892768
 30
0.0
 11
24.69038551359484
 21
354.6878139226102
 31
0.0
 12
22.69038551359484
 22
355.0211472559435
 32
0.0
 13
22.69038551359484
 23
355.0211472559435
 33
0.0
  0
MTEXT
  5
1196
330
D39
100
AcDbEntity
  8
AM_5 ( Bemassung)
 62
     2
100
AcDbMText
 10
27.19038544601529
 20
357.1174978698589
 30
0.0
 40
2.5
 41
0.0
 71
     5
 72
     1
  1
%%c 9
 73
     1
 44
1.0
  0
POINT
  5
1197
330
D39
100
AcDbEntity
  8
Defpoints
 62
     0
100
AcDbPoint
 10
31.69038537843575
 20
335.6979527727442
 30
0.0
  0
POINT
  5
1198
330
D39
100
AcDbEntity
  8
Defpoints
 62
     0
100
AcDbPoint
 10
22.69038551359484
 20
332.5138007367363
 30
0.0
  0
POINT
  5
1199
330
D39
100
AcDbEntity
  8
Defpoints
 62
     0
100
AcDbPoint
 10
22.69038551359484
 20
355.0211472559435
 30
0.0
  0
ENDBLK
  5
D3B
330
D39
100
AcDbEntity
  8
0
100
AcDbBlockEnd
  0
BLOCK
  5
F91
330
F90
100
AcDbEntity
  8
0
100
AcDbBlockBegin
  2
*D31
 70
     1
 10
0.0
 20
0.0
 30
0.0
  3
*D31
  1

  0
LINE
  5
119A
330
F90
100
AcDbEntity
  8
AM_5 ( Bemassung)
100
AcDbLine
 10
27.19038544601574
 20
289.4750060217281
 30
0.0
 11
15.05480774994322
 21
289.4750060217281
 31
0.0
  0
LINE
  5
119B
330
F90
100
AcDbEntity
  8
AM_5 ( Bemassung)
100
AcDbLine
 10
27.19211642587822
 20
279.675005939128
 30
0.0
 11
15.05480774994322
 21
279.675005939128
 31
0.0
  0
LINE
  5
119C
330
F90
100
AcDbEntity
  8
AM_5 ( Bemassung)
100
AcDbLine
 10
15.55480774994322
 20
287.4750060217281
 30
0.0
 11
15.55480774994322
 21
281.675005939128
 31
0.0
  0
SOLID
  5
119D
330
F90
100
AcDbEntity
  8
AM_5 ( Bemassung)
100
AcDbTrace
 10
15.22147441660989
 20
287.4750060217281
 30
0.0
 11
15.88814108327655
 21
287.4750060217281
 31
0.0
 12
15.55480774994322
 22
289.4750060217281
 32
0.0
 13
15.55480774994322
 23
289.4750060217281
 33
0.0
  0
SOLID
  5
119E
330
F90
100
AcDbEntity
  8
AM_5 ( Bemassung)
100
AcDbTrace
 10
15.22147441660989
 20
281.675005939128
 30
0.0
 11
15.88814108327655
 21
281.675005939128
 31
0.0
 12
15.55480774994322
 22
279.675005939128
 32
0.0
 13
15.55480774994322
 23
279.675005939128
 33
0.0
  0
MTEXT
  5
119F
330
F90
100
AcDbEntity
  8
AM_5 ( Bemassung)
 62
     2
100
AcDbMText
 10
13.52837528063895
 20
284.575005980428
 30
0.0
 40
2.5
 41
0.0
 71
     5
 72
     1
  1
9.8
 11
0.0000000000000001
 21
1.0
 31
0.0
 73
     1
 44
1.0
  0
POINT
  5
11A0
330
F90
100
AcDbEntity
  8
Defpoints
 62
     0
100
AcDbPoint
 10
27.19038544601574
 20
289.4750060217281
 30
0.0
  0
POINT
  5
11A1
330
F90
100
AcDbEntity
  8
Defpoints
 62
     0
100
AcDbPoint
 10
27.19211642587822
 20
279.675005939128
 30
0.0
  0
POINT
  5
11A2
330
F90
100
AcDbEntity
  8
Defpoints
 62
     0
100
AcDbPoint
 10
15.55480774994322
 20
279.675005939128
 30
0.0
  0
ENDBLK
  5
F92
330
F90
100
AcDbEntity
  8
0
100
AcDbBlockEnd
  0
BLOCK
  5
11A7
330
11A3
100
AcDbEntity
  8
0
100
AcDbBlockBegin
  2
*S34
 70
     1
 10
0.0
 20
0.0
 30
0.0
  3
*S34
  1

  0
CIRCLE
  5
11A4
330
11A3
100
AcDbEntity
  8
AM_12 ( Teile Referenz)
 62
     4
100
AcDbCircle
 10
26.61984662837824
 20
304.7816500198693
 30
0.0
 40
2.5
  0
LINE
  5
11A5
330
11A3
100
AcDbEntity
  8
AM_12 ( Teile Referenz)
 62
     4
100
AcDbLine
 10
24.11984662837824
 20
302.2816500198693
 30
0.0
 11
29.11984662837824
 21
307.2816500198693
 31
0.0
  0
LINE
  5
11A6
330
11A3
100
AcDbEntity
  8
AM_12 ( Teile Referenz)
 62
     4
100
AcDbLine
 10
24.11984662837824
 20
307.2816500198693
 30
0.0
 11
29.11984662837824
 21
302.2816500198693
 31
0.0
  0
ENDBLK
  5
11A8
330
11A3
100
AcDbEntity
  8
0
100
AcDbBlockEnd
  0
BLOCK
  5
11AE
330
11AA
100
AcDbEntity
  8
0
100
AcDbBlockBegin
  2
*S35
 70
     1
 10
0.0
 20
0.0
 30
0.0
  3
*S35
  1

  0
CIRCLE
  5
11AB
330
11AA
100
AcDbEntity
  8
AM_12 ( Teile Referenz)
 62
     4
100
AcDbCircle
 10
25.47369401669584
 20
237.5178735860517
 30
0.0
 40
2.5
  0
LINE
  5
11AC
330
11AA
100
AcDbEntity
  8
AM_12 ( Teile Referenz)
 62
     4
100
AcDbLine
 10
22.97369401669584
 20
235.0178735860517
 30
0.0
 11
27.97369401669584
 21
240.0178735860517
 31
0.0
  0
LINE
  5
11AD
330
11AA
100
AcDbEntity
  8
AM_12 ( Teile Referenz)
 62
     4
100
AcDbLine
 10
22.97369401669584
 20
240.0178735860517
 30
0.0
 11
27.97369401669584
 21
235.0178735860517
 31
0.0
  0
ENDBLK
  5
11AF
330
11AA
100
AcDbEntity
  8
0
100
AcDbBlockEnd
  0
ENDSEC
  0
SECTION
  2
ENTITIES
  0
LINE
  5
3B6
330
2
100
AcDbEntity
  8
AM_0 ( Kontur 0.5 )
100
AcDbLine
 10
27.19038544505898
 20
316.0920178265279
 30
0.0
 11
36.69038530237836
 21
316.0920178265279
 31
0.0
  0
LINE
  5
3B7
330
2
100
AcDbEntity
  8
AM_2 ( Kontur 0.25)
100
AcDbLine
 10
34.66538533375536
 20
280.475005939128
 30
0.0
 11
34.66538533375536
 21
289.4750060217281
 31
0.0
  0
LINE
  5
3B8
330
2
100
AcDbEntity
  8
AM_2 ( Kontur 0.25)
100
AcDbLine
 10
19.71538555827612
 20
280.475005939128
 30
0.0
 11
19.71538555827612
 21
289.4750060217281
 31
0.0
  0
LINE
  5
3B9
330
2
100
AcDbEntity
  8
AM_2 ( Kontur 0.25)
100
AcDbLine
 10
18.8603855711159
 20
280.9750059316181
 30
0.0
 11
35.52038532091558
 21
280.9750059316181
 31
0.0
  0
LINE
  5
3BA
330
2
100
AcDbEntity
  8
AM_2 ( Kontur 0.25)
100
AcDbLine
 10
18.86038557111589
 20
295.4750059316178
 30
0.0
 11
35.52038532091557
 21
295.4750059316178
 31
0.0
  0
LINE
  5
3BB
330
2
100
AcDbEntity
  8
AM_2 ( Kontur 0.25)
100
AcDbLine
 10
34.66538533375536
 20
295.4750059316178
 30
0.0
 11
34.66538533375536
 21
301.092017826528
 31
0.0
  0
LINE
  5
3BC
330
2
100
AcDbEntity
  8
AM_2 ( Kontur 0.25)
100
AcDbLine
 10
19.71538555827612
 20
295.4750059316178
 30
0.0
 11
19.71538555827612
 21
301.092017826528
 31
0.0
  0
ARC
  5
3BD
330
2
100
AcDbEntity
  8
AM_0 ( Kontur 0.5 )
100
AcDbCircle
 10
27.19038544505898
 20
310.5550700729178
 30
0.0
 40
7.399999888863147
100
AcDbArc
 50
127.4528322205702
 51
131.5621782857955
  0
LINE
  5
3BE
330
2
100
AcDbEntity
  8
AM_0 ( Kontur 0.5 )
100
AcDbLine
 10
22.69038551263808
 20
316.4295912417778
 30
0.0
 11
31.69038537747898
 21
316.4295912417778
 31
0.0
  0
ARC
  5
3BF
330
2
100
AcDbEntity
  8
AM_0 ( Kontur 0.5 )
100
AcDbCircle
 10
31.94038537467588
 20
278.539522124278
 30
0.0
 40
16.4602428693797
100
AcDbArc
 50
73.2273907154069
 51
106.772609284593
  0
ARC
  5
3C0
330
2
100
AcDbEntity
  8
AM_0 ( Kontur 0.5 )
100
AcDbCircle
 10
22.44038551735559
 20
278.539522124278
 30
0.0
 40
16.4602428693797
100
AcDbArc
 50
73.2273907154069
 51
106.772609284593
  0
ARC
  5
3C1
330
2
100
AcDbEntity
  8
AM_0 ( Kontur 0.5 )
100
AcDbCircle
 10
-31.94038537467588
 20
306.4104898290679
 30
0.0
 40
16.4602428693797
210
0.0
220
0.0
230
-1.0
100
AcDbArc
 50
253.2273907154069
 51
286.7726092845931
  0
LINE
  5
3C2
102
{ACAD_REACTORS
330
C1E
102
}
330
2
100
AcDbEntity
  8
AM_0 ( Kontur 0.5 )
100
AcDbLine
 10
35.52038532091558
 20
280.9750059316181
 30
0.0
 11
35.52038532091558
 21
288.7297818129478
 31
0.0
  0
ARC
  5
3C3
330
2
100
AcDbEntity
  8
AM_0 ( Kontur 0.5 )
100
AcDbCircle
 10
17.87325462863887
 20
316.8119033912479
 30
0.0
 40
15.7209489590029
100
AcDbArc
 50
269.333509664527
 51
289.1841563477622
  0
ARC
  5
3C4
330
2
100
AcDbEntity
  8
AM_0 ( Kontur 0.5 )
100
AcDbCircle
 10
-17.87325462863887
 20
300.3721324870779
 30
0.0
 40
15.7209489590029
210
0.0
220
0.0
230
-1.0
100
AcDbArc
 50
89.33350966452696
 51
109.1841563477622
  0
ARC
  5
3C5
330
2
100
AcDbEntity
  8
AM_0 ( Kontur 0.5 )
100
AcDbCircle
 10
36.50751626147908
 20
300.3721324870779
 30
0.0
 40
15.7209489590029
100
AcDbArc
 50
89.33350966452696
 51
109.1841563477622
  0
ARC
  5
3C6
330
2
100
AcDbEntity
  8
AM_0 ( Kontur 0.5 )
100
AcDbCircle
 10
-36.50751626147908
 20
316.8119033912479
 30
0.0
 40
15.7209489590029
210
0.0
220
0.0
230
-1.0
100
AcDbArc
 50
269.333509664527
 51
289.1841563477622
  0
ARC
  5
3C7
330
2
100
AcDbEntity
  8
AM_0 ( Kontur 0.5 )
100
AcDbCircle
 10
-27.22037515291928
 20
311.2663575775079
 30
0.0
 40
10.1743837241844
210
0.0
220
0.0
230
-1.0
100
AcDbArc
 50
246.1056359593896
 51
294.4024974498787
  0
ARC
  5
3C8
330
2
100
AcDbEntity
  8
AM_0 ( Kontur 0.5 )
100
AcDbCircle
 10
27.22037515291928
 20
305.9176783008178
 30
0.0
 40
10.1743837241844
100
AcDbArc
 50
66.10563595938959
 51
114.4024974498787
  0
LINE
  5
3C9
330
2
100
AcDbEntity
  8
AM_0 ( Kontur 0.5 )
100
AcDbLine
 10
23.03924478868854
 20
301.9907857329077
 30
0.0
 11
23.03924478868854
 21
315.1932501454179
 31
0.0
  0
LINE
  5
3CA
330
2
100
AcDbEntity
  8
AM_0 ( Kontur 0.5 )
100
AcDbLine
 10
18.86038557111589
 20
289.9750060142178
 30
0.0
 11
35.52038532091557
 21
289.9750060142178
 31
0.0
  0
LINE
  5
3CB
330
2
100
AcDbEntity
  8
AM_3 ( Verdeckt )
100
AcDbLine
 10
29.69038544601574
 20
329.9547910887981
 30
0.0
 11
29.69038544601574
 21
338.1515107683179
 31
0.0
  0
LINE
  5
3CC
330
2
100
AcDbEntity
  8
AM_0 ( Kontur 0.5 )
100
AcDbLine
 10
18.86038557111589
 20
294.975005939128
 30
0.0
 11
35.52038532091557
 21
294.975005939128
 31
0.0
  0
LINE
  5
3CD
330
2
100
AcDbEntity
  8
AM_0 ( Kontur 0.5 )
100
AcDbLine
 10
17.69038558773869
 20
301.0920180517979
 30
0.0
 11
27.19038544505898
 21
301.0920180517979
 31
0.0
  0
LINE
  5
3CE
330
2
100
AcDbEntity
  8
AM_0 ( Kontur 0.5 )
100
AcDbLine
 10
19.36038556360529
 20
280.475005939128
 30
0.0
 11
20.19038555114514
 21
280.475005939128
 31
0.0
  0
LINE
  5
3CF
330
2
100
AcDbEntity
  8
AM_0 ( Kontur 0.5 )
100
AcDbLine
 10
17.69038558773869
 20
316.0920178265279
 30
0.0
 11
27.19038544505898
 21
316.0920178265279
 31
0.0
  0
LINE
  5
3D0
330
2
100
AcDbEntity
  8
AM_0 ( Kontur 0.5 )
100
AcDbLine
 10
34.19038534088543
 20
279.675005939128
 30
0.0
 11
34.19038534088543
 21
280.475005939128
 31
0.0
  0
LINE
  5
3D1
330
2
100
AcDbEntity
  8
AM_0 ( Kontur 0.5 )
100
AcDbLine
 10
20.19038555114514
 20
279.675005939128
 30
0.0
 11
20.19038555114514
 21
280.475005939128
 31
0.0
  0
LINE
  5
3D3
102
{ACAD_REACTORS
330
B1D
102
}
330
2
100
AcDbEntity
  8
AM_0 ( Kontur 0.5 )
100
AcDbLine
 10
27.19038544601574
 20
280.475005939128
 30
0.0
 11
34.19038534088543
 21
280.475005939128
 31
0.0
  0
LINE
  5
3D4
102
{ACAD_REACTORS
330
670
102
}
330
2
100
AcDbEntity
  8
AM_0 ( Kontur 0.5 )
100
AcDbLine
 10
20.19038555114514
 20
279.675005939128
 30
0.0
 11
34.19038534088543
 21
279.675005939128
 31
0.0
  0
LINE
  5
3D5
330
2
100
AcDbEntity
  8
AM_0 ( Kontur 0.5 )
100
AcDbLine
 10
27.19038544601574
 20
280.475005939128
 30
0.0
 11
20.19038555114514
 21
280.475005939128
 31
0.0
  0
LINE
  5
3D6
330
2
100
AcDbEntity
  8
AM_0 ( Kontur 0.5 )
100
AcDbLine
 10
31.19038538594543
 20
338.1515107683179
 30
0.0
 11
31.69038537843574
 21
337.651510775828
 31
0.0
  0
LINE
  5
3D7
330
2
100
AcDbEntity
  8
AM_0 ( Kontur 0.5 )
100
AcDbLine
 10
22.69038551359483
 20
337.651510775828
 30
0.0
 11
23.19038550608604
 21
338.1515107683179
 31
0.0
  0
LINE
  5
3D8
102
{ACAD_REACTORS
330
D46
102
}
330
2
100
AcDbEntity
  8
AM_0 ( Kontur 0.5 )
100
AcDbLine
 10
31.69038537843574
 20
316.4295912417778
 30
0.0
 11
31.69038537843575
 21
337.651510775828
 31
0.0
  0
LINE
  5
3D9
102
{ACAD_REACTORS
330
D46
102
}
330
2
100
AcDbEntity
  8
AM_0 ( Kontur 0.5 )
100
AcDbLine
 10
22.69038551359483
 20
316.4295912417778
 30
0.0
 11
22.69038551359484
 21
337.651510775828
 31
0.0
  0
LINE
  5
3DA
102
{ACAD_REACTORS
330
670
102
}
330
2
100
AcDbEntity
  8
AM_0 ( Kontur 0.5 )
100
AcDbLine
 10
23.19038550608604
 20
338.1515107683179
 30
0.0
 11
31.19038538594543
 21
338.1515107683179
 31
0.0
  0
LINE
  5
3DB
102
{ACAD_REACTORS
330
5FE
330
670
330
F9E
102
}
330
2
100
AcDbEntity
  8
AM_7 (Mittellinie)
100
AcDbLine
 10
27.19038544601574
 20
279.7594253220581
 30
0.0
 11
27.19038544601574
 21
341.2240210150882
 31
0.0
  0
ARC
  5
3DC
330
2
100
AcDbEntity
  8
AM_0 ( Kontur 0.5 )
100
AcDbCircle
 10
27.19038544505898
 20
310.5550700729178
 30
0.0
 40
7.399999888863147
100
AcDbArc
 50
48.43782171420447
 51
52.54716777942979
  0
LINE
  5
3DD
330
2
100
AcDbEntity
  8
AM_0 ( Kontur 0.5 )
100
AcDbLine
 10
17.69038558773869
 20
301.0920180517979
 30
0.0
 11
16.22073049519864
 21
301.9405238150879
 31
0.0
  0
LINE
  5
3DE
330
2
100
AcDbEntity
  8
AM_0 ( Kontur 0.5 )
100
AcDbLine
 10
36.69038530237836
 20
301.0920180517979
 30
0.0
 11
38.16004039490841
 21
301.9405238150879
 31
0.0
  0
LINE
  5
3DF
330
2
100
AcDbEntity
  8
AM_0 ( Kontur 0.5 )
100
AcDbLine
 10
17.69038558773869
 20
316.0920178265279
 30
0.0
 11
16.22073049519864
 21
315.2435120632377
 31
0.0
  0
LINE
  5
3E0
330
2
100
AcDbEntity
  8
AM_0 ( Kontur 0.5 )
100
AcDbLine
 10
36.69038530237836
 20
316.0920178265279
 30
0.0
 11
38.16004039490841
 21
315.2435120632377
 31
0.0
  0
LINE
  5
3E1
330
2
100
AcDbEntity
  8
AM_0 ( Kontur 0.5 )
100
AcDbLine
 10
38.16004039490841
 20
301.9405238150879
 30
0.0
 11
38.16004039490841
 21
315.2435120632377
 31
0.0
  0
LINE
  5
3E2
330
2
100
AcDbEntity
  8
AM_0 ( Kontur 0.5 )
100
AcDbLine
 10
16.22073049519864
 20
301.9405238150879
 30
0.0
 11
16.22073049519864
 21
315.2435120632377
 31
0.0
  0
LINE
  5
3E3
330
2
100
AcDbEntity
  8
AM_0 ( Kontur 0.5 )
100
AcDbLine
 10
27.19038544505898
 20
301.0920180517979
 30
0.0
 11
36.69038530237836
 21
301.0920180517979
 31
0.0
  0
LINE
  5
3E4
330
2
100
AcDbEntity
  8
AM_0 ( Kontur 0.5 )
100
AcDbLine
 10
35.02038532841527
 20
280.475005939128
 30
0.0
 11
35.52038532091558
 21
280.9750059316181
 31
0.0
  0
ARC
  5
3E5
330
2
100
AcDbEntity
  8
AM_0 ( Kontur 0.5 )
100
AcDbCircle
 10
-22.44038551735559
 20
306.4104898290679
 30
0.0
 40
16.4602428693797
210
0.0
220
0.0
230
-1.0
100
AcDbArc
 50
253.2273907154069
 51
286.7726092845931
  0
LINE
  5
3E6
330
2
100
AcDbEntity
  8
AM_0 ( Kontur 0.5 )
100
AcDbLine
 10
18.8603855711159
 20
280.9750059316181
 30
0.0
 11
19.36038556360529
 21
280.475005939128
 31
0.0
  0
LINE
  5
3E7
330
2
100
AcDbEntity
  8
AM_0 ( Kontur 0.5 )
100
AcDbLine
 10
35.52038532091558
 20
280.9750059316181
 30
0.0
 11
35.52038532091558
 21
289.975005939128
 31
0.0
  0
LINE
  5
3E8
330
2
100
AcDbEntity
  8
AM_0 ( Kontur 0.5 )
100
AcDbLine
 10
36.69038530333511
 20
294.2995061343178
 30
0.0
 11
35.52038532091557
 21
294.975005939128
 31
0.0
  0
LINE
  5
3E9
330
2
100
AcDbEntity
  8
AM_0 ( Kontur 0.5 )
100
AcDbLine
 10
35.52038532091557
 20
289.9750060142178
 30
0.0
 11
36.69038530333511
 21
290.6505058190281
 31
0.0
  0
LINE
  5
3EA
330
2
100
AcDbEntity
  8
AM_0 ( Kontur 0.5 )
100
AcDbLine
 10
17.69038558869544
 20
294.2995061343178
 30
0.0
 11
18.86038557111589
 21
294.975005939128
 31
0.0
  0
LINE
  5
3EB
102
{ACAD_REACTORS
330
C1E
102
}
330
2
100
AcDbEntity
  8
AM_0 ( Kontur 0.5 )
100
AcDbLine
 10
18.8603855711159
 20
280.9750059316181
 30
0.0
 11
18.8603855711159
 21
289.975005939128
 31
0.0
  0
LINE
  5
3EC
330
2
100
AcDbEntity
  8
AM_0 ( Kontur 0.5 )
100
AcDbLine
 10
18.86038557111589
 20
289.9750060142178
 30
0.0
 11
17.69038558869544
 21
290.6505058190281
 31
0.0
  0
LINE
  5
3ED
330
2
100
AcDbEntity
  8
AM_0 ( Kontur 0.5 )
100
AcDbLine
 10
35.52038532091558
 20
294.975005939128
 30
0.0
 11
35.52038532091558
 21
301.092017826528
 31
0.0
  0
LINE
  5
3EE
330
2
100
AcDbEntity
  8
AM_0 ( Kontur 0.5 )
100
AcDbLine
 10
18.8603855711159
 20
294.975005939128
 30
0.0
 11
18.8603855711159
 21
301.092017826528
 31
0.0
  0
LINE
  5
3EF
330
2
100
AcDbEntity
  8
AM_0 ( Kontur 0.5 )
100
AcDbLine
 10
36.69038530333511
 20
290.6505058190281
 30
0.0
 11
36.69038530333511
 21
294.2995061343178
 31
0.0
  0
LINE
  5
3F0
330
2
100
AcDbEntity
  8
AM_0 ( Kontur 0.5 )
100
AcDbLine
 10
17.69038558869544
 20
290.6505058190281
 30
0.0
 11
17.69038558869544
 21
294.2995061343178
 31
0.0
  0
LINE
  5
3F1
330
2
100
AcDbEntity
  8
AM_0 ( Kontur 0.5 )
100
AcDbLine
 10
34.19038534088543
 20
280.475005939128
 30
0.0
 11
35.02038532841527
 21
280.475005939128
 31
0.0
  0
LINE
  5
3F2
330
2
100
AcDbEntity
  8
AM_0 ( Kontur 0.5 )
100
AcDbLine
 10
31.34152610141851
 20
301.9639815892678
 30
0.0
 11
31.34152610141851
 21
315.2200542890579
 31
0.0
  0
LINE
  5
3F3
330
2
100
AcDbEntity
  8
AM_0 ( Kontur 0.5 )
100
AcDbLine
 10
27.19038544601573
 20
294.2995061343178
 30
0.0
 11
27.19038544601573
 21
290.6505058190281
 31
0.0
  0
LINE
  5
3F4
330
2
100
AcDbEntity
  8
AM_3 ( Verdeckt )
100
AcDbLine
 10
24.69038544601574
 20
329.9547910887981
 30
0.0
 11
24.69038544601574
 21
338.1515107683179
 31
0.0
  0
LINE
  5
3F5
102
{ACAD_REACTORS
330
B1D
330
F9E
102
}
330
2
100
AcDbEntity
  8
AM_0 ( Kontur 0.5 )
100
AcDbLine
 10
18.86038557111589
 20
289.4750060217281
 30
0.0
 11
35.52038532091557
 21
289.4750060217281
 31
0.0
  0
CIRCLE
  5
3F6
330
2
100
AcDbEntity
  8
AM_0 ( Kontur 0.5 )
100
AcDbCircle
 10
27.23330785491512
 20
239.188510785399
 30
0.0
 40
9.482978029019568
  0
LINE
  5
3FA
330
2
100
AcDbEntity
  8
AM_0 ( Kontur 0.5 )
100
AcDbLine
 10
32.71813541221657
 20
248.688510785399
 30
0.0
 11
21.74848029761369
 21
248.688510785399
 31
0.0
  0
CIRCLE
  5
3FC
330
2
100
AcDbEntity
  8
AM_0 ( Kontur 0.5 )
100
AcDbCircle
 10
27.23330785491512
 20
239.188510785399
 30
0.0
 40
4.49999993241678
  0
LINE
  5
3FD
102
{ACAD_REACTORS
330
D08
102
}
330
2
100
AcDbEntity
  8
AM_7 (Mittellinie)
100
AcDbLine
 10
13.09224412247444
 20
239.188510785399
 30
0.0
 11
40.51683814261528
 21
239.188510785399
 31
0.0
  0
LINE
  5
3FE
330
2
100
AcDbEntity
  8
AM_7 (Mittellinie)
100
AcDbLine
 10
27.23330785491512
 20
226.0041900078392
 30
0.0
 11
27.23330785491512
 21
251.5582396613691
 31
0.0
  0
LINE
  5
558
102
{ACAD_REACTORS
330
5FE
102
}
330
2
100
AcDbEntity
  8
AM_2 ( Kontur 0.25)
100
AcDbLine
 10
27.19038544601574
 20
311.5515111828282
 30
0.0
 11
34.95495679909137
 21
340.5292859715002
 31
0.0
  0
DIMENSION
  5
5EC
102
{ACAD_XDICTIONARY
360
5FD
102
}
102
{ACAD_REACTORS
330
5FE
102
}
330
2
100
AcDbEntity
  8
AM_5 ( Bemassung)
100
AcDbDimension
  2
*D5
 10
27.19038544601574
 20
341.2240210150882
 30
0.0
 11
34.20982643210803
 21
345.5100525314591
 31
0.0
 70
   162
 71
     5
 42
0.2617993877991502
  3
AM_DIN$2
100
AcDb2LineAngularDimension
 13
27.19038544601574
 23
311.5515111828282
 33
0.0
 14
34.95495679909137
 24
340.5292859715002
 34
0.0
 15
27.19038544601574
 25
279.7594253220581
 35
0.0
 16
30.21263581633443
 26
346.0959909876105
 36
0.0
1001
ACAD_DSTYLE_DIMINSPECT
1070
   396
1000
100%
1070
   395
1000

1070
   394
1070
    33
1070
   393
1070
     0
1001
ACAD
1000
DSTYLE
1002
{
1070
   140
1040
5.0
1070
    40
1040
0.5
1002
}
  0
DIMENSION
  5
624
330
2
100
AcDbEntity
  8
AM_5 ( Bemassung)
100
AcDbDimension
  2
*D6
 10
24.69038544601574
 20
351.0612222900499
 30
0.0
 11
16.73878973182343
 21
351.0612222900499
 31
0.0
 70
   160
  1
%%c <>
 71
     5
 42
5.0
  3
AM_DIN$0
100
AcDbAlignedDimension
 13
29.69038544601574
 23
338.1515107683179
 33
0.0
 14
24.69038544601574
 24
338.1515107683179
 34
0.0
100
AcDbRotatedDimension
1001
ACAD_DSTYLE_DIMINSPECT
1070
   396
1000
100%
1070
   395
1000

1070
   394
1070
    33
1070
   393
1070
     0
1001
ACAD
1000
DSTYLE
1002
{
1070
   140
1040
5.0
1070
    40
1040
0.5
1002
}
  0
DIMENSION
  5
662
102
{ACAD_XDICTIONARY
360
66F
102
}
102
{ACAD_REACTORS
330
670
102
}
330
2
100
AcDbEntity
  8
AM_5 ( Bemassung)
100
AcDbDimension
  2
*D7
 10
48.56954083786369
 20
279.675005939128
 30
0.0
 11
48.56954083786366
 21
308.913258353723
 31
0.0
 70
   160
 71
     5
 42
58.47650482918988
  3
AM_DIN$0
100
AcDbAlignedDimension
 13
27.19038544601574
 23
338.1515107683179
 33
0.0
 14
34.19038534088543
 24
279.675005939128
 34
0.0
 50
90.0
100
AcDbRotatedDimension
1001
ACAD_DSTYLE_DIMINSPECT
1070
   396
1000
100%
1070
   395
1000

1070
   394
1070
    33
1070
   393
1070
     0
1001
ACAD
1000
DSTYLE
1002
{
1070
   140
1040
5.0
1070
   271
1070
     1
1070
    40
1040
0.5
1002
}
  0
LINE
  5
7E5
330
2
100
AcDbEntity
  8
0
  6
Continuous
 62
     1
100
AcDbLine
 10
86.17289667066199
 20
302.253377871067
 30
0.0
 11
86.67934809926197
 21
302.759829299667
 31
0.0
  0
LINE
  5
7E6
330
2
100
AcDbEntity
  8
0
  6
Continuous
 62
     1
100
AcDbLine
 10
86.66191032536197
 20
301.7524420321672
 30
0.0
 11
86.15520483856199
 21
301.2457365452669
 31
0.0
  0
LINE
  5
7E7
330
2
100
AcDbEntity
  8
0
  6
Continuous
 62
     1
100
AcDbLine
 10
86.13751300646198
 20
300.2380952195669
 30
0.0
 11
86.64447255146198
 21
300.745054764567
 31
0.0
  0
LINE
  5
7E8
330
2
100
AcDbEntity
  8
0
  6
Continuous
 62
     1
100
AcDbLine
 10
86.62703477766198
 20
299.737667497067
 30
0.0
 11
86.11982117426199
 21
299.230453893767
 31
0.0
  0
LINE
  5
7E9
330
2
100
AcDbEntity
  8
0
  6
Continuous
 62
     1
100
AcDbLine
 10
86.10212934216198
 20
298.222812567967
 30
0.0
 11
86.60959700376198
 21
298.7302802295669
 31
0.0
  0
LINE
  5
7EA
330
2
100
AcDbEntity
  8
0
  6
Continuous
 62
     1
100
AcDbLine
 10
86.59215922986197
 20
297.722892961967
 30
0.0
 11
86.08443751006197
 21
297.215171242167
 31
0.0
  0
LINE
  5
7EB
330
2
100
AcDbEntity
  8
0
  6
Continuous
 62
     1
100
AcDbLine
 10
86.06674567796195
 20
296.207529916367
 30
0.0
 11
86.574721455962
 21
296.715505694467
 31
0.0
  0
LINE
  5
7EC
330
2
100
AcDbEntity
  8
0
  6
Continuous
 62
     1
100
AcDbLine
 10
86.55728368216198
 20
295.708118426967
 30
0.0
 11
86.04905384576198
 21
295.199888590567
 31
0.0
  0
LINE
  5
7ED
330
2
100
AcDbEntity
  8
0
  6
Continuous
 62
     1
100
AcDbLine
 10
86.03136201366197
 20
294.192247264767
 30
0.0
 11
86.53984590826198
 21
294.700731159367
 31
0.0
  0
LINE
  5
7EE
330
2
100
AcDbEntity
  8
0
  6
Continuous
 62
     1
100
AcDbLine
 10
86.52240813436199
 20
293.693343891867
 30
0.0
 11
86.01367018156199
 21
293.1846059390669
 31
0.0
  0
LINE
  5
7EF
330
2
100
AcDbEntity
  8
0
  6
Continuous
 62
     1
100
AcDbLine
 10
85.99597834946198
 20
292.176964613267
 30
0.0
 11
86.50497036046198
 21
292.6859566242669
 31
0.0
  0
LINE
  5
7F0
330
2
100
AcDbEntity
  8
0
  6
Continuous
 62
     1
100
AcDbLine
 10
86.48753258666198
 20
291.6785693567669
 30
0.0
 11
85.97828651726198
 21
291.169323287467
 31
0.0
  0
LINE
  5
7F1
330
2
100
AcDbEntity
  8
0
  6
Continuous
 62
     1
100
AcDbLine
 10
85.960594685162
 20
290.161681961667
 30
0.0
 11
86.47009481276199
 21
290.6711820892669
 31
0.0
  0
LINE
  5
7F2
330
2
100
AcDbEntity
  8
0
  6
Continuous
 62
     1
100
AcDbLine
 10
86.45265703886199
 20
289.663794821667
 30
0.0
 11
85.94290285306199
 21
289.154040635867
 31
0.0
  0
LINE
  5
7F3
330
2
100
AcDbEntity
  8
0
  6
Continuous
 62
     1
100
AcDbLine
 10
85.92521102096197
 20
288.146399310067
 30
0.0
 11
86.43521926496195
 21
288.656407554167
 31
0.0
  0
LINE
  5
7F4
330
2
100
AcDbEntity
  8
0
  6
Continuous
 62
     1
100
AcDbLine
 10
86.41778149116197
 20
287.649020286667
 30
0.0
 11
85.90751918876199
 21
287.138757984267
 31
0.0
  0
LINE
  5
7F5
330
2
100
AcDbEntity
  8
0
  6
Continuous
 62
     1
100
AcDbLine
 10
84.23559776966198
 20
284.476887071467
 30
0.0
 11
84.91202233716199
 21
285.153311638967
 31
0.0
  0
LINE
  5
7F6
330
2
100
AcDbEntity
  8
0
  6
Continuous
 62
     1
100
AcDbLine
 10
85.88982735666197
 20
286.1311166585668
 30
0.0
 11
86.400343717262
 21
286.641633019067
 31
0.0
  0
LINE
  5
7F7
330
2
100
AcDbEntity
  8
0
  6
Continuous
 62
     1
100
AcDbLine
 10
86.38290594336195
 20
285.634245751567
 30
0.0
 11
85.10437295076199
 21
284.355712758967
 31
0.0
  0
LINE
  5
7F8
330
2
100
AcDbEntity
  8
0
  6
Continuous
 62
     1
100
AcDbLine
 10
95.79872668206196
 20
301.979712945867
 30
0.0
 11
96.28769685536198
 21
302.4686831191669
 31
0.0
  0
LINE
  5
7F9
330
2
100
AcDbEntity
  8
0
  6
Continuous
 62
     1
100
AcDbLine
 10
96.304821262962
 20
301.495858033167
 30
0.0
 11
95.81580629736199
 21
301.006843067467
 31
0.0
  0
LINE
  5
7FA
330
2
100
AcDbEntity
  8
0
  6
Continuous
 62
     1
100
AcDbLine
 10
95.832885912662
 20
300.033973189167
 30
0.0
 11
96.32194567056195
 21
300.5230329470669
 31
0.0
  0
LINE
  5
7FB
330
2
100
AcDbEntity
  8
0
  6
Continuous
 62
     1
100
AcDbLine
 10
96.33907007826202
 20
299.550207861067
 30
0.0
 11
95.84996552796198
 21
299.0611033107669
 31
0.0
  0
LINE
  5
7FC
330
2
100
AcDbEntity
  8
0
  6
Continuous
 62
     1
100
AcDbLine
 10
95.86704514326198
 20
298.088233432467
 30
0.0
 11
96.35619448586195
 21
298.5773827750669
 31
0.0
  0
LINE
  5
7FD
330
2
100
AcDbEntity
  8
0
  6
Continuous
 62
     1
100
AcDbLine
 10
96.37331889356198
 20
297.6045576890669
 30
0.0
 11
95.88412475866196
 21
297.115363554167
 31
0.0
  0
LINE
  5
7FE
330
2
100
AcDbEntity
  8
0
  6
Continuous
 62
     1
100
AcDbLine
 10
95.90120437396199
 20
296.142493675767
 30
0.0
 11
96.39044330116199
 21
296.631732602967
 31
0.0
  0
LINE
  5
7FF
330
2
100
AcDbEntity
  8
0
  6
Continuous
 62
     1
100
AcDbLine
 10
96.40756770876198
 20
295.658907516967
 30
0.0
 11
95.91828398926201
 21
295.1696237974669
 31
0.0
  0
LINE
  5
800
330
2
100
AcDbEntity
  8
0
  6
Continuous
 62
     1
100
AcDbLine
 10
95.93536360456196
 20
294.196753919067
 30
0.0
 11
96.42469211646201
 21
294.686082430967
 31
0.0
  0
LINE
  5
801
330
2
100
AcDbEntity
  8
0
  6
Continuous
 62
     1
100
AcDbLine
 10
96.44181652406201
 20
293.713257344867
 30
0.0
 11
95.95244321986198
 21
293.223884040767
 31
0.0
  0
LINE
  5
802
330
2
100
AcDbEntity
  8
0
  6
Continuous
 62
     1
100
AcDbLine
 10
95.969522835162
 20
292.251014162367
 30
0.0
 11
96.45894093166198
 21
292.740432258867
 31
0.0
  0
LINE
  5
803
330
2
100
AcDbEntity
  8
0
  6
Continuous
 62
     1
100
AcDbLine
 10
96.47606533936199
 20
291.767607172867
 30
0.0
 11
95.98660245056198
 21
291.278144284067
 31
0.0
  0
LINE
  5
804
330
2
100
AcDbEntity
  8
0
  6
Continuous
 62
     1
100
AcDbLine
 10
96.00368206586201
 20
290.305274405667
 30
0.0
 11
96.49318974696198
 21
290.794782086867
 31
0.0
  0
LINE
  5
805
330
2
100
AcDbEntity
  8
0
  6
Continuous
 62
     1
100
AcDbLine
 10
96.51031415456198
 20
289.821957000767
 30
0.0
 11
96.02076168116198
 21
289.332404527367
 31
0.0
  0
LINE
  5
806
330
2
100
AcDbEntity
  8
0
  6
Continuous
 62
     1
100
AcDbLine
 10
96.03784129646198
 20
288.359534649067
 30
0.0
 11
96.52743856226198
 21
288.849131914767
 31
0.0
  0
LINE
  5
807
330
2
100
AcDbEntity
  8
0
  6
Continuous
 62
     1
100
AcDbLine
 10
96.54456296986198
 20
287.876306828767
 30
0.0
 11
96.05492091176202
 21
287.386664770667
 31
0.0
  0
LINE
  5
808
330
2
100
AcDbEntity
  8
0
  6
Continuous
 62
     1
100
AcDbLine
 10
96.07200052716198
 20
286.413794892367
 30
0.0
 11
96.56168737746201
 21
286.903481742767
 31
0.0
  0
LINE
  5
809
330
2
100
AcDbEntity
  8
0
  6
Continuous
 62
     1
100
AcDbLine
 10
96.57881178516198
 20
285.930656656667
 30
0.0
 11
96.08908014246198
 21
285.4409250139672
 31
0.0
  0
LINE
  5
80A
330
2
100
AcDbEntity
  8
0
  6
Continuous
 62
     1
100
AcDbLine
 10
96.54121652776197
 20
284.903111905667
 30
0.0
 11
96.93842375296199
 21
285.3003191308669
 31
0.0
  0
LINE
  5
80B
330
2
100
AcDbEntity
  8
0
  6
Continuous
 62
     1
100
AcDbLine
 10
97.78310334086201
 20
285.155049225067
 30
0.0
 11
97.03682022336202
 21
284.408766107667
 31
0.0
  0
LINE
  5
80C
330
2
100
AcDbEntity
  8
0
  6
Continuous
 62
     1
100
AcDbLine
 10
97.97431655386198
 20
284.356312944467
 30
0.0
 11
98.23262715366196
 21
284.614623544167
 31
0.0
  0
LINE
  5
8B5
330
2
100
AcDbEntity
  8
0
  6
Continuous
 62
     3
100
AcDbLine
 10
86.183448066362
 20
302.854349259967
 30
0.0
 11
96.28344806636199
 21
302.854349259967
 31
0.0
  0
LINE
  5
8B6
330
2
100
AcDbEntity
  8
0
  6
Continuous
 62
     3
100
AcDbLine
 10
90.00515184386198
 20
289.775267431167
 30
0.0
 11
90.23344806636195
 21
302.854349259967
 31
0.0
  0
ARC
  5
8B7
330
2
100
AcDbEntity
  8
0
  6
Continuous
 62
     3
100
AcDbCircle
 10
88.005456453562
 20
289.8101722440669
 30
0.0
 40
2.0
100
AcDbArc
 50
315.0
 51
358.9999999999982
  0
LINE
  5
8B8
330
2
100
AcDbEntity
  8
0
  6
Continuous
 62
     3
100
AcDbLine
 10
92.46174428886197
 20
289.775267431167
 30
0.0
 11
92.23344806636196
 21
302.854349259967
 31
0.0
  0
LINE
  5
8B9
330
2
100
AcDbEntity
  8
0
  6
Continuous
 62
     3
100
AcDbLine
 10
85.883220949662
 20
285.654349259967
 30
0.0
 11
86.183448066362
 21
302.854349259967
 31
0.0
  0
LINE
  5
8BA
330
2
100
AcDbEntity
  8
0
  6
Continuous
 62
     3
100
AcDbLine
 10
86.37806059416197
 20
285.354349259967
 30
0.0
 11
86.68352423036198
 21
302.854349259967
 31
0.0
  0
LINE
  5
8BB
330
2
100
AcDbEntity
  8
0
  6
Continuous
 62
     3
100
AcDbLine
 10
86.37806059416197
 20
285.354349259967
 30
0.0
 11
96.088835538562
 21
285.354349259967
 31
0.0
  0
LINE
  5
8BC
330
2
100
AcDbEntity
  8
0
  6
Continuous
 62
     3
100
AcDbLine
 10
85.40306059416199
 20
284.3793492599669
 30
0.0
 11
89.41967001596198
 21
288.395958681667
 31
0.0
  0
LINE
  5
8BD
330
2
100
AcDbEntity
  8
0
  6
Continuous
 62
     3
100
AcDbLine
 10
84.23344806636199
 20
285.154349259967
 30
0.0
 11
85.38322094966197
 21
285.154349259967
 31
0.0
  0
LINE
  5
8BE
330
2
100
AcDbEntity
  8
0
  6
Continuous
 62
     3
100
AcDbLine
 10
85.38322094966197
 20
285.154349259967
 30
0.0
 11
85.883220949662
 21
285.654349259967
 31
0.0
  0
LINE
  5
8BF
330
2
100
AcDbEntity
  8
0
  6
Continuous
 62
     3
100
AcDbLine
 10
84.23344806636199
 20
284.354349259967
 30
0.0
 11
98.233448066362
 21
284.354349259967
 31
0.0
  0
LINE
  5
8C0
330
2
100
AcDbEntity
  8
0
  6
Continuous
 62
     3
100
AcDbLine
 10
84.23344806636199
 20
284.354349259967
 30
0.0
 11
84.23344806636199
 21
285.154349259967
 31
0.0
  0
LINE
  5
8C1
330
2
100
AcDbEntity
  8
0
  6
Continuous
 62
     3
100
AcDbLine
 10
98.233448066362
 20
284.354349259967
 30
0.0
 11
98.233448066362
 21
285.154349259967
 31
0.0
  0
LINE
  5
8C2
330
2
100
AcDbEntity
  8
0
  6
Continuous
 62
     3
100
AcDbLine
 10
97.088835538562
 20
284.354349259967
 30
0.0
 11
93.047226116862
 21
288.395958681667
 31
0.0
  0
LINE
  5
8C3
330
2
100
AcDbEntity
  8
0
  6
Continuous
 62
     3
100
AcDbLine
 10
97.08367518316194
 20
285.154349259967
 30
0.0
 11
96.58367518316195
 21
285.654349259967
 31
0.0
  0
LINE
  5
8C4
330
2
100
AcDbEntity
  8
0
  6
Continuous
 62
     3
100
AcDbLine
 10
98.233448066362
 20
285.154349259967
 30
0.0
 11
97.08367518316194
 21
285.154349259967
 31
0.0
  0
LINE
  5
8C5
330
2
100
AcDbEntity
  8
0
  6
Continuous
 62
     3
100
AcDbLine
 10
96.088835538562
 20
285.354349259967
 30
0.0
 11
95.78337190236196
 21
302.854349259967
 31
0.0
  0
LINE
  5
8C6
330
2
100
AcDbEntity
  8
0
  6
Continuous
 62
     3
100
AcDbLine
 10
96.58367518316195
 20
285.654349259967
 30
0.0
 11
96.28344806636199
 21
302.854349259967
 31
0.0
  0
ARC
  5
8C7
330
2
100
AcDbEntity
  8
0
  6
Continuous
 62
     3
100
AcDbCircle
 10
94.46143967926198
 20
289.8101722440669
 30
0.0
 40
2.0
100
AcDbArc
 50
180.9999999999985
 51
225.0
  0
LINE
  5
8C8
330
2
100
AcDbEntity
  8
0
  6
Continuous
 62
     3
100
AcDbLine
 10
85.78142893046198
 20
285.552557240867
 30
0.0
 11
86.08031479936199
 21
302.675717201567
 31
0.0
  0
LINE
  5
8C9
330
2
100
AcDbEntity
  8
0
  6
Continuous
 62
     3
100
AcDbLine
 10
86.08031479936199
 20
302.675717201567
 30
0.0
 11
86.183448066362
 21
302.854349259967
 31
0.0
  0
LINE
  5
A23
330
2
100
AcDbEntity
  8
AM_2 ( Kontur 0.25)
100
AcDbLine
 10
27.19038544601574
 20
311.551510768318
 30
0.0
 11
34.95495679909137
 21
340.5292855569901
 31
0.0
  0
DIMENSION
  5
A24
330
2
100
AcDbEntity
  8
AM_5 ( Bemassung)
100
AcDbDimension
  2
*D19
 10
43.41352911719585
 20
279.675005939128
 30
0.0
 11
43.41352911719581
 21
297.883511882828
 31
0.0
 70
   160
 71
     5
 42
36.4170118873999
  3
AM_DIN$0
100
AcDbAlignedDimension
 13
36.69038530237989
 23
316.0920178265279
 33
0.0
 14
27.19211642587822
 24
279.675005939128
 34
0.0
 50
90.00000000000005
100
AcDbRotatedDimension
1001
ACAD_DSTYLE_DIMINSPECT
1070
   396
1000
100%
1070
   395
1000

1070
   394
1070
    33
1070
   393
1070
     0
1001
ACAD
1000
DSTYLE
1002
{
1070
   140
1040
5.0
1070
    40
1040
0.5
1070
   271
1070
     1
1002
}
  0
DIMENSION
  5
A87
330
2
100
AcDbEntity
  8
AM_5 ( Bemassung)
100
AcDbDimension
  2
*D22
 10
43.41352911719586
 20
316.0920178265279
 30
0.0
 11
43.41352911719581
 21
327.1217642974229
 31
0.0
 70
   160
 71
     5
 42
22.05949294178998
  3
AM_DIN$0
100
AcDbAlignedDimension
 13
27.19038544601574
 23
338.1515107683179
 33
0.0
 14
36.69038530237989
 24
316.0920178265279
 34
0.0
 50
90.0
100
AcDbRotatedDimension
1001
ACAD_DSTYLE_DIMINSPECT
1070
   396
1000
100%
1070
   395
1000

1070
   394
1070
    33
1070
   393
1070
     0
1001
ACAD
1000
DSTYLE
1002
{
1070
   140
1040
5.0
1070
    40
1040
0.5
1070
   271
1070
     1
1002
}
  0
LINE
  5
ACC
330
2
100
AcDbEntity
  8
AM_0 ( Kontur 0.5 )
100
AcDbLine
 10
22.69038551359484
 20
337.651510775828
 30
0.0
 11
31.69038537843575
 21
337.651510775828
 31
0.0
  0
DIMENSION
  5
B0F
102
{ACAD_XDICTIONARY
360
B1C
102
}
102
{ACAD_REACTORS
330
B1D
102
}
330
2
100
AcDbEntity
  8
AM_5 ( Bemassung)
100
AcDbDimension
  2
*D25
 10
39.99010040766734
 20
280.475005939128
 30
0.0
 11
39.99010040766729
 21
284.975005980428
 31
0.0
 70
   160
 71
     5
 42
9.000000082600138
  3
AM_DIN$0
100
AcDbAlignedDimension
 13
33.41050893322846
 23
289.4750060217281
 33
0.0
 14
33.35630050009479
 24
280.475005939128
 34
0.0
 50
90.00000000000005
100
AcDbRotatedDimension
1001
ACAD_DSTYLE_DIMINSPECT
1070
   396
1000
100%
1070
   395
1000

1070
   394
1070
    33
1070
   393
1070
     0
1001
ACAD
1000
DSTYLE
1002
{
1070
   140
1040
5.0
1070
    40
1040
0.5
1002
}
  0
DIMENSION
  5
C10
102
{ACAD_XDICTIONARY
360
C1D
102
}
102
{ACAD_REACTORS
330
C1E
102
}
330
2
100
AcDbEntity
  8
AM_5 ( Bemassung)
100
AcDbDimension
  2
*D26
 10
35.52038532091558
 20
273.974984714314
 30
0.0
 11
27.19038544601574
 21
273.974984714314
 31
0.0
 70
   160
  1
G3/8
 71
     5
 42
16.65999974979968
  3
AM_DIN$0
100
AcDbAlignedDimension
 13
18.8603855711159
 23
284.0317029510242
 33
0.0
 14
35.52038532091558
 24
284.7855373892313
 34
0.0
 50
0.0000000000001132
100
AcDbRotatedDimension
1001
ACAD_DSTYLE_DIMINSPECT
1070
   396
1000
100%
1070
   395
1000

1070
   394
1070
    33
1070
   393
1070
     0
1001
ACAD
1000
DSTYLE
1002
{
1070
   140
1040
5.0
1070
    40
1040
0.5
1002
}
  0
LINE
  5
CB0
330
2
100
AcDbEntity
  8
AM_0 ( Kontur 0.5 )
100
AcDbLine
 10
21.74848029761369
 20
248.688510785399
 30
0.0
 11
16.26365274031225
 21
239.188510785399
 31
0.0
  0
LINE
  5
CB1
102
{ACAD_REACTORS
330
D08
102
}
330
2
100
AcDbEntity
  8
AM_0 ( Kontur 0.5 )
100
AcDbLine
 10
16.26365274031225
 20
239.188510785399
 30
0.0
 11
21.7484802976137
 21
229.6885107853991
 31
0.0
  0
LINE
  5
CB2
330
2
100
AcDbEntity
  8
AM_0 ( Kontur 0.5 )
100
AcDbLine
 10
21.7484802976137
 20
229.6885107853991
 30
0.0
 11
32.71813541221655
 21
229.6885107853991
 31
0.0
  0
LINE
  5
CB3
330
2
100
AcDbEntity
  8
AM_0 ( Kontur 0.5 )
100
AcDbLine
 10
32.71813541221655
 20
229.6885107853991
 30
0.0
 11
38.20296296951799
 21
239.1885107853991
 31
0.0
  0
LINE
  5
CB4
102
{ACAD_REACTORS
330
CC3
330
D08
102
}
330
2
100
AcDbEntity
  8
AM_0 ( Kontur 0.5 )
100
AcDbLine
 10
38.20296296951799
 20
239.1885107853991
 30
0.0
 11
32.71813541221657
 21
248.688510785399
 31
0.0
  0
DIMENSION
  5
CB5
102
{ACAD_XDICTIONARY
360
CC2
102
}
102
{ACAD_REACTORS
330
CC3
102
}
330
2
100
AcDbEntity
  8
AM_5 ( Bemassung)
100
AcDbDimension
  2
*D28
 10
45.75435409693707
 20
229.6885107853991
 30
0.0
 11
45.75435409693703
 21
239.188510785399
 31
0.0
 70
   160
  1
SW<>
 71
     5
 42
18.99999999999991
  3
AM_DIN$0
100
AcDbAlignedDimension
 13
32.71813541221657
 23
248.688510785399
 33
0.0
 14
32.71813541221655
 24
229.6885107853991
 34
0.0
 50
90.00000000000005
100
AcDbRotatedDimension
1001
ACAD_DSTYLE_DIMINSPECT
1070
   396
1000
100%
1070
   395
1000

1070
   394
1070
    33
1070
   393
1070
     0
1001
ACAD
1000
DSTYLE
1002
{
1070
   140
1040
5.0
1070
    40
1040
0.5
1002
}
  0
DIMENSION
  5
CFA
102
{ACAD_XDICTIONARY
360
D07
102
}
102
{ACAD_REACTORS
330
D08
102
}
330
2
100
AcDbEntity
  8
AM_5 ( Bemassung)
100
AcDbDimension
  2
*D29
 10
16.26365274031225
 20
254.688511785399
 30
0.0
 11
27.23330785491512
 21
256.6936277471999
 31
0.0
 70
    32
 71
     5
 42
21.93931022920575
  3
AM_DIN$0
100
AcDbAlignedDimension
 13
38.202962969518
 23
239.188510785399
 33
0.0
 14
16.26365274031225
 24
239.188510785399
 34
0.0
 50
0.0000000000000114
100
AcDbRotatedDimension
1001
ACAD_DSTYLE_DIMINSPECT
1070
   396
1000
100%
1070
   395
1000

1070
   394
1070
    33
1070
   393
1070
     0
1001
ACAD
1000
DSTYLE
1002
{
1070
   140
1040
5.0
1070
   271
1070
     0
1070
    40
1040
0.5
1002
}
  0
DIMENSION
  5
D38
102
{ACAD_XDICTIONARY
360
D45
102
}
102
{ACAD_REACTORS
330
D46
102
}
330
2
100
AcDbEntity
  8
AM_5 ( Bemassung)
100
AcDbDimension
  2
*D30
 10
22.69038551359484
 20
355.0211472559435
 30
0.0
 11
27.19038544601529
 21
357.1174978698589
 31
0.0
 70
    32
  1
%%c <>
 71
     5
 42
8.999999864840908
  3
AM_DIN$0
100
AcDbAlignedDimension
 13
31.69038537843575
 23
335.6979527727442
 33
0.0
 14
22.69038551359484
 24
332.5138007367363
 34
0.0
100
AcDbRotatedDimension
1001
ACAD_DSTYLE_DIMINSPECT
1070
   396
1000
100%
1070
   395
1000

1070
   394
1070
    33
1070
   393
1070
     0
1001
ACAD
1000
DSTYLE
1002
{
1070
   140
1040
5.0
1070
    40
1040
0.5
1002
}
  0
CIRCLE
  5
F79
330
2
100
AcDbEntity
  8
AM_0 ( Kontur 0.5 )
100
AcDbCircle
 10
27.23330785491512
 20
239.188510785399
 30
0.0
 40
2.5
  0
DIMENSION
  5
F8F
102
{ACAD_XDICTIONARY
360
F9D
102
}
102
{ACAD_REACTORS
330
F9E
102
}
330
2
100
AcDbEntity
  8
AM_5 ( Bemassung)
100
AcDbDimension
  2
*D31
 10
15.55480774994322
 20
279.675005939128
 30
0.0
 11
13.52837528063895
 21
284.575005980428
 31
0.0
 70
    32
 71
     5
 42
9.800000082600149
  3
AM_DIN$0
100
AcDbAlignedDimension
 13
27.19038544601574
 23
289.4750060217281
 33
0.0
 14
27.19211642587822
 24
279.675005939128
 34
0.0
 50
90.00000000000005
100
AcDbRotatedDimension
1001
ACAD_DSTYLE_DIMINSPECT
1070
   396
1000
100%
1070
   395
1000

1070
   394
1070
    33
1070
   393
1070
     0
1001
ACAD
1000
DSTYLE
1002
{
1070
    40
1040
0.5
1070
   140
1040
5.0
1002
}
  0
INSERT
  5
1133
102
{ACAD_REACTORS
330
112F
102
}
330
2
100
AcDbEntity
  8
AM_12 ( Teile Referenz)
100
AcDbBlockReference
  2
*S34
 10
0.0
 20
0.0
 30
0.0
  0
INSERT
  5
1137
102
{ACAD_REACTORS
330
1136
102
}
330
2
100
AcDbEntity
  8
AM_12 ( Teile Referenz)
100
AcDbBlockReference
  2
*S35
 10
0.0
 20
0.0
 30
0.0
  0
ENDSEC
  0
SECTION
  2
OBJECTS
  0
DICTIONARY
  5
1A
330
0
100
AcDbDictionary
281
     1
  3
ACAD_2007HEADERVARS_RT
350
11B2
  3
ACAD_COLOR
350
5F
  3
ACAD_GROUP
350
18
  3
ACAD_LAYOUT
350
30
  3
ACAD_MATERIAL
350
5E
  3
ACAD_MLEADERSTYLE
350
102
  3
ACAD_MLINESTYLE
350
19
  3
ACAD_PLOTSETTINGS
350
31
  3
ACAD_PLOTSTYLENAME
350
2E
  3
ACAD_SCALELIST
350
E0
  3
ACAD_TABLESTYLE
350
60
  3
ACAD_VISUALSTYLE
350
CF
  3
ACDB_RECOMPOSE_DATA
350
2B5
  3
AcDbVariableDictionary
350
AB
  3
AcmDictionary
350
162
  3
AMG
350
107
  3
AMGSNAPSETTINGS
350
197
  3
ASE_INDEX_DICTIONARY
350
DB9
  0
DICTIONARY
  5
29F
330
A
100
AcDbDictionary
280
     1
281
     1
  3
ACAD_LAYERSTATES
360
34B
  3
AMLAYER_GROUPCOLORS
360
2A0
  0
DICTIONARY
  5
2A5
330
4
100
AcDbDictionary
280
     1
281
     1
  3
ADSK_XREC_LAYER_RECONCILED
360
2A6
  0
DICTIONARY
  5
29C
330
29B
100
AcDbDictionary
280
     1
281
     1
  3
ADSK_XREC_LAYER_RECONCILED
360
29D
  0
DICTIONARY
  5
2AD
330
29E
100
AcDbDictionary
280
     1
281
     1
  3
ADSK_XREC_LAYER_RECONCILED
360
2AE
  0
DICTIONARY
  5
2AF
330
2A2
100
AcDbDictionary
280
     1
281
     1
  3
ADSK_XREC_LAYER_RECONCILED
360
2B0
  0
DICTIONARY
  5
58
330
2
100
AcDbDictionary
280
     1
281
     1
  3
ACAD_LAYOUTSELFREF
360
59
  3
ACAD_SORTENTS
360
1DC
  0
DICTIONARY
  5
5A
330
7
100
AcDbDictionary
280
     1
281
     1
  3
ACAD_LAYOUTSELFREF
360
5B
  0
DICTIONARY
  5
5FD
330
5EC
100
AcDbDictionary
280
     1
281
     1
  3
ACAD_DIMASSOC
360
5FE
  0
DICTIONARY
  5
66F
330
662
100
AcDbDictionary
280
     1
281
     1
  3
ACAD_DIMASSOC
360
670
  0
DICTIONARY
  5
B1C
330
B0F
100
AcDbDictionary
280
     1
281
     1
  3
ACAD_DIMASSOC
360
B1D
  0
DICTIONARY
  5
C1D
330
C10
100
AcDbDictionary
280
     1
281
     1
  3
ACAD_DIMASSOC
360
C1E
  0
DICTIONARY
  5
CC2
330
CB5
100
AcDbDictionary
280
     1
281
     1
  3
ACAD_DIMASSOC
360
CC3
  0
DICTIONARY
  5
D07
330
CFA
100
AcDbDictionary
280
     1
281
     1
  3
ACAD_DIMASSOC
360
D08
  0
DICTIONARY
  5
D45
330
D38
100
AcDbDictionary
280
     1
281
     1
  3
ACAD_DIMASSOC
360
D46
  0
DICTIONARY
  5
F9D
330
F8F
100
AcDbDictionary
280
     1
281
     1
  3
ACAD_DIMASSOC
360
F9E
  0
DICTIONARY
  5
11B2
102
{ACAD_REACTORS
330
1A
102
}
330
1A
100
AcDbDictionary
281
     1
  3
DIMJOGANG
350
11B3
  0
DICTIONARY
  5
5F
102
{ACAD_REACTORS
330
1A
102
}
330
1A
100
AcDbDictionary
281
     1
  0
DICTIONARY
  5
18
102
{ACAD_REACTORS
330
1A
102
}
330
1A
100
AcDbDictionary
281
     1
  0
DICTIONARY
  5
30
102
{ACAD_REACTORS
330
1A
102
}
330
1A
100
AcDbDictionary
281
     1
  3
Layout1
350
63
  3
Model
350
62
  0
DICTIONARY
  5
5E
102
{ACAD_REACTORS
330
1A
102
}
330
1A
100
AcDbDictionary
281
     1
  3
ByBlock
350
BF
  3
ByLayer
350
B7
  3
Global
350
C7
  0
DICTIONARY
  5
102
102
{ACAD_REACTORS
330
1A
102
}
330
1A
100
AcDbDictionary
281
     1
  0
DICTIONARY
  5
19
102
{ACAD_REACTORS
330
1A
102
}
330
1A
100
AcDbDictionary
281
     1
  3
STANDARD
350
1C
  0
DICTIONARY
  5
31
102
{ACAD_REACTORS
330
1A
102
}
330
1A
100
AcDbDictionary
281
     1
  0
ACDBDICTIONARYWDFLT
  5
2E
102
{ACAD_REACTORS
330
1A
102
}
330
1A
100
AcDbDictionary
281
     1
  3
Normal
350
2F
100
AcDbDictionaryWithDefault
340
2F
  0
DICTIONARY
  5
E0
102
{ACAD_REACTORS
330
1A
102
}
330
1A
100
AcDbDictionary
281
     1
  3
*A1
350
34A
  3
A0
350
E1
  3
A1
350
E2
  3
A2
350
E3
  3
A3
350
E4
  3
A4
350
E5
  3
A5
350
E6
  3
A6
350
E7
  3
A7
350
E8
  3
A8
350
E9
  3
A9
350
EA
  3
B0
350
EB
  3
B1
350
EC
  3
B2
350
ED
  3
B3
350
EE
  3
B4
350
EF
  3
B5
350
F0
  3
B6
350
F1
  3
B7
350
F2
  3
B8
350
F3
  3
B9
350
F4
  3
C0
350
F5
  3
C1
350
F6
  3
C2
350
F7
  3
C3
350
F8
  3
C4
350
F9
  3
C5
350
FA
  3
C6
350
FB
  3
C7
350
FC
  3
C8
350
FD
  3
C9
350
FE
  3
D0
350
FF
  3
D1
350
100
  3
D2
350
101
  0
DICTIONARY
  5
60
102
{ACAD_REACTORS
330
1A
102
}
330
1A
100
AcDbDictionary
281
     1
  3
Standard
350
61
  0
DICTIONARY
  5
CF
102
{ACAD_REACTORS
330
1A
102
}
330
1A
100
AcDbDictionary
281
     1
  3
2dWireframe
350
D5
  3
3D Hidden
350
D7
  3
3dWireframe
350
D6
  3
Basic
350
D4
  3
Brighten
350
DB
  3
ColorChange
350
DF
  3
Conceptual
350
D8
  3
Dim
350
DA
  3
Facepattern
350
DE
  3
Flat
350
D0
  3
FlatWithEdges
350
D1
  3
Gouraud
350
D2
  3
GouraudWithEdges
350
D3
  3
Linepattern
350
DD
  3
Realistic
350
D9
  3
Thicken
350
DC
  0
XRECORD
  5
2B5
102
{ACAD_REACTORS
330
1A
102
}
330
1A
100
AcDbXrecord
280
     1
 90
        1
330
61
  0
DICTIONARY
  5
AB
102
{ACAD_REACTORS
330
1A
102
}
330
1A
100
AcDbDictionary
281
     1
  3
CANNOSCALE
350
2B2
  3
CMLEADERSTYLE
350
2B1
  3
CTABLESTYLE
350
AC
  3
DIMASSOC
350
AD
  3
PROJECTNAME
350
AE
  0
DICTIONARY
  5
162
102
{ACAD_REACTORS
330
1A
102
}
330
1A
100
AcDbDictionary
281
     1
  3
AcmStdDictionary
350
16D
  3
AMDTSECTSYM_ARROWCOLOR
350
182
  0
DICTIONARY
  5
107
102
{ACAD_REACTORS
330
1A
102
}
330
1A
100
AcDbDictionary
281
     1
  0
DICTIONARY
  5
197
102
{ACAD_REACTORS
330
1A
102
}
330
1A
100
AcDbDictionary
281
     1
  0
DICTIONARY
  5
DB9
102
{ACAD_REACTORS
330
1A
102
}
330
1A
100
AcDbDictionary
281
     1
  3
ASEBlockHierarchyIndexRecord
350
DBA
1001
DCO15
1040
1631862508.999
  0
DICTIONARY
  5
34B
102
{ACAD_REACTORS
330
29F
102
}
330
29F
100
AcDbDictionary
281
     1
  0
DICTIONARY
  5
2A0
102
{ACAD_REACTORS
330
29F
102
}
330
29F
100
AcDbDictionary
280
     1
281
     1
  0
XRECORD
  5
2A6
102
{ACAD_REACTORS
330
2A5
102
}
330
2A5
100
AcDbXrecord
280
     1
290
     1
  0
XRECORD
  5
29D
102
{ACAD_REACTORS
330
29C
102
}
330
29C
100
AcDbXrecord
280
     1
290
     1
  0
XRECORD
  5
2AE
102
{ACAD_REACTORS
330
2AD
102
}
330
2AD
100
AcDbXrecord
280
     1
290
     1
  0
XRECORD
  5
2B0
102
{ACAD_REACTORS
330
2AF
102
}
330
2AF
100
AcDbXrecord
280
     1
290
     1
  0
XRECORD
  5
59
102
{ACAD_REACTORS
330
58
102
}
330
58
100
AcDbXrecord
280
     1
340
2
  0
SORTENTSTABLE
  5
1DC
102
{ACAD_REACTORS
330
58
102
}
330
58
100
AcDbSortentsTable
330
2
  0
XRECORD
  5
5B
102
{ACAD_REACTORS
330
5A
102
}
330
5A
100
AcDbXrecord
280
     1
340
7
  0
DIMASSOC
  5
5FE
102
{ACAD_REACTORS
330
5FD
102
}
330
5FD
100
AcDbDimAssoc
330
5EC
 90
       15
 70
     0
 71
     0
  1
AcDbOsnapPointRef
 72
    13
331
558
 73
     2
 91
        0
 40
0.0
 10
0.0
 20
0.0
 30
2.000000000000000E+50
 75
     0
  1
AcDbOsnapPointRef
 72
     1
331
558
 73
     2
 91
        0
 40
0.0
 10
0.0
 20
0.0
 30
2.000000000000000E+50
 75
     0
  1
AcDbOsnapPointRef
 72
    13
331
3DB
 73
     2
 91
        0
 40
0.0
 10
0.0
 20
0.0
 30
2.000000000000000E+50
 75
     0
  1
AcDbOsnapPointRef
 72
     1
331
3DB
 73
     2
 91
        0
 40
0.0
 10
0.0
 20
0.0
 30
2.000000000000000E+50
 75
     0
  0
DIMASSOC
  5
670
102
{ACAD_REACTORS
330
66F
102
}
330
66F
100
AcDbDimAssoc
330
662
 90
        3
 70
     0
 71
     0
  1
AcDbOsnapPointRef
 72
     6
331
3DA
 73
     0
 91
        0
 40
0.5
 10
0.0
 20
0.0
 30
0.0
332
3DB
 74
     0
 92
        0
 75
     0
  1
AcDbOsnapPointRef
 72
     1
331
3D4
 73
     0
 91
        0
 40
0.0
 10
0.0
 20
0.0
 30
2.000000000000000E+50
 75
     0
  0
DIMASSOC
  5
B1D
102
{ACAD_REACTORS
330
B1C
102
}
330
B1C
100
AcDbDimAssoc
330
B0F
 90
        3
 70
     0
 71
     0
  1
AcDbOsnapPointRef
 72
    10
331
3F5
 73
     0
 91
        0
 40
0.8733567575406189
 10
0.0
 20
0.0
 30
0.0
 75
     0
  1
AcDbOsnapPointRef
 72
    10
331
3D3
 73
     0
 91
        0
 40
0.8808450209546517
 10
0.0
 20
0.0
 30
0.0
 75
     0
  0
DIMASSOC
  5
C1E
102
{ACAD_REACTORS
330
C1D
102
}
330
C1D
100
AcDbDimAssoc
330
C10
 90
        3
 70
     0
 71
     0
  1
AcDbOsnapPointRef
 72
    10
331
3EB
 73
     0
 91
        0
 40
0.3396330018728377
 10
0.0
 20
0.0
 30
0.0
 75
     0
  1
AcDbOsnapPointRef
 72
    10
331
3C2
 73
     0
 91
        0
 40
0.4913786698578044
 10
0.0
 20
0.0
 30
0.0
 75
     0
  0
DIMASSOC
  5
CC3
102
{ACAD_REACTORS
330
CC2
102
}
330
CC2
100
AcDbDimAssoc
330
CB5
 90
        1
 70
     0
 71
     0
  1
AcDbOsnapPointRef
 72
     1
331
CB4
 73
     0
 91
        0
 40
0.0
 10
0.0
 20
0.0
 30
2.000000000000000E+50
 75
     0
  0
DIMASSOC
  5
D08
102
{ACAD_REACTORS
330
D07
102
}
330
D07
100
AcDbDimAssoc
330
CFA
 90
        3
 70
     0
 71
     0
  1
AcDbOsnapPointRef
 72
     6
331
3FD
 73
     0
 91
        0
 40
0.9156277328518356
 10
0.0
 20
0.0
 30
0.0
332
CB4
 74
     0
 92
        0
 75
     0
  1
AcDbOsnapPointRef
 72
    13
331
CB1
 73
     0
 91
        0
 40
0.0
 10
0.0
 20
0.0
 30
2.000000000000000E+50
 75
     0
  0
DIMASSOC
  5
D46
102
{ACAD_REACTORS
330
D45
102
}
330
D45
100
AcDbDimAssoc
330
D38
 90
        3
 70
     0
 71
     0
  1
AcDbOsnapPointRef
 72
    10
331
3D8
 73
     0
 91
        0
 40
0.90794621570639
 10
0.0
 20
0.0
 30
0.0
 75
     0
  1
AcDbOsnapPointRef
 72
    10
331
3D9
 73
     0
 91
        0
 40
0.7579054980936906
 10
0.0
 20
0.0
 30
0.0
 75
     0
  0
DIMASSOC
  5
F9E
102
{ACAD_REACTORS
330
F9D
102
}
330
F9D
100
AcDbDimAssoc
330
F8F
 90
        1
 70
     0
 71
     0
  1
AcDbOsnapPointRef
 72
     6
331
3DB
 73
     0
 91
        0
 40
0.1580679184516579
 10
0.0
 20
0.0
 30
0.0
332
3F5
 74
     0
 92
        0
 75
     0
  0
XRECORD
  5
11B3
102
{ACAD_REACTORS
330
11B2
102
}
330
11B2
100
AcDbXrecord
280
     1
 40
1.570796326794896
  0
LAYOUT
  5
63
102
{ACAD_REACTORS
330
30
102
}
330
30
100
AcDbPlotSettings
  1

  2
\\OASE42\HP DesignJet 500 42+HPGL2 Card
  4

  6

 40
0.0
 41
0.0
 42
0.0
 43
0.0
 44
0.0
 45
0.0
 46
0.0
 47
0.0
 48
0.0
 49
0.0
140
0.0
141
0.0
142
1.0
143
1.0
 70
   688
 72
     0
 73
     0
 74
     5
  7
Kein
 75
    16
147
1.0
 76
     0
 77
     2
 78
   300
148
0.0
149
0.0
100
AcDbLayout
  1
Layout1
 70
     0
 71
     1
 10
0.0
 20
0.0
 11
12.0
 21
9.0
 12
0.0
 22
0.0
 32
0.0
 14
1.000000000000000E+20
 24
1.000000000000000E+20
 34
1.000000000000000E+20
 15
-1.000000000000000E+20
 25
-1.000000000000000E+20
 35
-1.000000000000000E+20
146
0.0
 13
0.0
 23
0.0
 33
0.0
 16
1.0
 26
0.0
 36
0.0
 17
0.0
 27
1.0
 37
0.0
 76
     0
330
7
  0
LAYOUT
  5
62
102
{ACAD_REACTORS
330
30
102
}
330
30
100
AcDbPlotSettings
  1

  2
\\OASE42\HP DesignJet 500 42+HPGL2 Card
  4

  6

 40
0.0
 41
0.0
 42
0.0
 43
0.0
 44
0.0
 45
0.0
 46
0.0
 47
0.0
 48
0.0
 49
0.0
140
0.0
141
0.0
142
1.0
143
1.0
 70
  1712
 72
     0
 73
     0
 74
     0
  7
Kein
 75
     0
147
1.0
 76
     0
 77
     2
 78
   300
148
0.0
149
0.0
100
AcDbLayout
  1
Model
 70
     1
 71
     0
 10
0.0
 20
0.0
 11
12.0
 21
9.0
 12
0.0
 22
0.0
 32
0.0
 14
0.0
 24
0.0
 34
0.0
 15
0.0
 25
0.0
 35
0.0
146
0.0
 13
0.0
 23
0.0
 33
0.0
 16
1.0
 26
0.0
 36
0.0
 17
0.0
 27
1.0
 37
0.0
 76
     0
330
2
331
AF
  0
MATERIAL
  5
BF
102
{ACAD_XDICTIONARY
360
C0
102
}
102
{ACAD_REACTORS
330
5E
102
}
330
5E
100
AcDbMaterial
  1
ByBlock
 72
     0
 43
0.0208333333333333
 43
0.0
 43
0.0
 43
0.0
 43
0.0
 43
0.0208333333333333
 43
0.0
 43
0.0
 43
0.0
 43
0.0
 43
1.0
 43
0.0
 43
0.0
 43
0.0
 43
0.0
 43
1.0
 77
     0
 47
0.0208333333333333
 47
0.0
 47
0.0
 47
0.0
 47
0.0
 47
0.0208333333333333
 47
0.0
 47
0.0
 47
0.0
 47
0.0
 47
1.0
 47
0.0
 47
0.0
 47
0.0
 47
0.0
 47
1.0
171
     0
 49
0.0208333333333333
 49
0.0
 49
0.0
 49
0.0
 49
0.0
 49
0.0208333333333333
 49
0.0
 49
0.0
 49
0.0
 49
0.0
 49
1.0
 49
0.0
 49
0.0
 49
0.0
 49
0.0
 49
1.0
175
     0
142
0.0208333333333333
142
0.0
142
0.0
142
0.0
142
0.0
142
0.0208333333333333
142
0.0
142
0.0
142
0.0
142
0.0
142
1.0
142
0.0
142
0.0
142
0.0
142
0.0
142
1.0
179
     0
144
0.0208333333333333
144
0.0
144
0.0
144
0.0
144
0.0
144
0.0208333333333333
144
0.0
144
0.0
144
0.0
144
0.0
144
1.0
144
0.0
144
0.0
144
0.0
144
0.0
144
1.0
147
0.0208333333333333
147
0.0
147
0.0
147
0.0
147
0.0
147
0.0208333333333333
147
0.0
147
0.0
147
0.0
147
0.0
147
1.0
147
0.0
147
0.0
147
0.0
147
0.0
147
1.0
  0
MATERIAL
  5
B7
102
{ACAD_XDICTIONARY
360
B8
102
}
102
{ACAD_REACTORS
330
5E
102
}
330
5E
100
AcDbMaterial
  1
ByLayer
 72
     0
 43
0.0208333333333333
 43
0.0
 43
0.0
 43
0.0
 43
0.0
 43
0.0208333333333333
 43
0.0
 43
0.0
 43
0.0
 43
0.0
 43
1.0
 43
0.0
 43
0.0
 43
0.0
 43
0.0
 43
1.0
 77
     0
 47
0.0208333333333333
 47
0.0
 47
0.0
 47
0.0
 47
0.0
 47
0.0208333333333333
 47
0.0
 47
0.0
 47
0.0
 47
0.0
 47
1.0
 47
0.0
 47
0.0
 47
0.0
 47
0.0
 47
1.0
171
     0
 49
0.0208333333333333
 49
0.0
 49
0.0
 49
0.0
 49
0.0
 49
0.0208333333333333
 49
0.0
 49
0.0
 49
0.0
 49
0.0
 49
1.0
 49
0.0
 49
0.0
 49
0.0
 49
0.0
 49
1.0
175
     0
142
0.0208333333333333
142
0.0
142
0.0
142
0.0
142
0.0
142
0.0208333333333333
142
0.0
142
0.0
142
0.0
142
0.0
142
1.0
142
0.0
142
0.0
142
0.0
142
0.0
142
1.0
179
     0
144
0.0208333333333333
144
0.0
144
0.0
144
0.0
144
0.0
144
0.0208333333333333
144
0.0
144
0.0
144
0.0
144
0.0
144
1.0
144
0.0
144
0.0
144
0.0
144
0.0
144
1.0
147
0.0208333333333333
147
0.0
147
0.0
147
0.0
147
0.0
147
0.0208333333333333
147
0.0
147
0.0
147
0.0
147
0.0
147
1.0
147
0.0
147
0.0
147
0.0
147
0.0
147
1.0
  0
MATERIAL
  5
C7
102
{ACAD_XDICTIONARY
360
C8
102
}
102
{ACAD_REACTORS
330
5E
102
}
330
5E
100
AcDbMaterial
  1
Global
 72
     0
 43
0.0208333333333333
 43
0.0
 43
0.0
 43
0.0
 43
0.0
 43
0.0208333333333333
 43
0.0
 43
0.0
 43
0.0
 43
0.0
 43
1.0
 43
0.0
 43
0.0
 43
0.0
 43
0.0
 43
1.0
 77
     0
 47
0.0208333333333333
 47
0.0
 47
0.0
 47
0.0
 47
0.0
 47
0.0208333333333333
 47
0.0
 47
0.0
 47
0.0
 47
0.0
 47
1.0
 47
0.0
 47
0.0
 47
0.0
 47
0.0
 47
1.0
171
     0
 49
0.0208333333333333
 49
0.0
 49
0.0
 49
0.0
 49
0.0
 49
0.0208333333333333
 49
0.0
 49
0.0
 49
0.0
 49
0.0
 49
1.0
 49
0.0
 49
0.0
 49
0.0
 49
0.0
 49
1.0
175
     0
142
0.0208333333333333
142
0.0
142
0.0
142
0.0
142
0.0
142
0.0208333333333333
142
0.0
142
0.0
142
0.0
142
0.0
142
1.0
142
0.0
142
0.0
142
0.0
142
0.0
142
1.0
179
     0
144
0.0208333333333333
144
0.0
144
0.0
144
0.0
144
0.0
144
0.0208333333333333
144
0.0
144
0.0
144
0.0
144
0.0
144
1.0
144
0.0
144
0.0
144
0.0
144
0.0
144
1.0
147
0.0208333333333333
147
0.0
147
0.0
147
0.0
147
0.0
147
0.0208333333333333
147
0.0
147
0.0
147
0.0
147
0.0
147
1.0
147
0.0
147
0.0
147
0.0
147
0.0
147
1.0
  0
MLINESTYLE
  5
1C
102
{ACAD_REACTORS
330
19
102
}
330
19
100
AcDbMlineStyle
  2
STANDARD
 70
     0
  3

 62
   256
 51
90.0
 52
90.0
 71
     2
 49
0.5
 62
   256
  6
BYLAYER
 49
-0.5
 62
   256
  6
BYLAYER
  0
ACDBPLACEHOLDER
  5
2F
102
{ACAD_REACTORS
330
2E
102
}
330
2E
  0
SCALE
  5
34A
102
{ACAD_REACTORS
330
E0
102
}
330
E0
100
AcDbScale
 70
     0
300
1:200
140
1.0
141
200.0
290
     0
  0
SCALE
  5
E1
102
{ACAD_REACTORS
330
E0
102
}
330
E0
100
AcDbScale
 70
     0
300
1:1
140
1.0
141
1.0
290
     1
  0
SCALE
  5
E2
102
{ACAD_REACTORS
330
E0
102
}
330
E0
100
AcDbScale
 70
     0
300
1:2
140
1.0
141
2.0
290
     0
  0
SCALE
  5
E3
102
{ACAD_REACTORS
330
E0
102
}
330
E0
100
AcDbScale
 70
     0
300
1:4
140
1.0
141
4.0
290
     0
  0
SCALE
  5
E4
102
{ACAD_REACTORS
330
E0
102
}
330
E0
100
AcDbScale
 70
     0
300
1:5
140
1.0
141
5.0
290
     0
  0
SCALE
  5
E5
102
{ACAD_REACTORS
330
E0
102
}
330
E0
100
AcDbScale
 70
     0
300
1:8
140
1.0
141
8.0
290
     0
  0
SCALE
  5
E6
102
{ACAD_REACTORS
330
E0
102
}
330
E0
100
AcDbScale
 70
     0
300
1:10
140
1.0
141
10.0
290
     0
  0
SCALE
  5
E7
102
{ACAD_REACTORS
330
E0
102
}
330
E0
100
AcDbScale
 70
     0
300
1:16
140
1.0
141
16.0
290
     0
  0
SCALE
  5
E8
102
{ACAD_REACTORS
330
E0
102
}
330
E0
100
AcDbScale
 70
     0
300
1:20
140
1.0
141
20.0
290
     0
  0
SCALE
  5
E9
102
{ACAD_REACTORS
330
E0
102
}
330
E0
100
AcDbScale
 70
     0
300
1:30
140
1.0
141
30.0
290
     0
  0
SCALE
  5
EA
102
{ACAD_REACTORS
330
E0
102
}
330
E0
100
AcDbScale
 70
     0
300
1:40
140
1.0
141
40.0
290
     0
  0
SCALE
  5
EB
102
{ACAD_REACTORS
330
E0
102
}
330
E0
100
AcDbScale
 70
     0
300
1:50
140
1.0
141
50.0
290
     0
  0
SCALE
  5
EC
102
{ACAD_REACTORS
330
E0
102
}
330
E0
100
AcDbScale
 70
     0
300
1:100
140
1.0
141
100.0
290
     0
  0
SCALE
  5
ED
102
{ACAD_REACTORS
330
E0
102
}
330
E0
100
AcDbScale
 70
     0
300
2:1
140
2.0
141
1.0
290
     0
  0
SCALE
  5
EE
102
{ACAD_REACTORS
330
E0
102
}
330
E0
100
AcDbScale
 70
     0
300
4:1
140
4.0
141
1.0
290
     0
  0
SCALE
  5
EF
102
{ACAD_REACTORS
330
E0
102
}
330
E0
100
AcDbScale
 70
     0
300
8:1
140
8.0
141
1.0
290
     0
  0
SCALE
  5
F0
102
{ACAD_REACTORS
330
E0
102
}
330
E0
100
AcDbScale
 70
     0
300
10:1
140
10.0
141
1.0
290
     0
  0
SCALE
  5
F1
102
{ACAD_REACTORS
330
E0
102
}
330
E0
100
AcDbScale
 70
     0
300
100:1
140
100.0
141
1.0
290
     0
  0
SCALE
  5
F2
102
{ACAD_REACTORS
330
E0
102
}
330
E0
100
AcDbScale
 70
     0
300
1/128" = 1'-0"
140
0.0078125
141
12.0
290
     0
  0
SCALE
  5
F3
102
{ACAD_REACTORS
330
E0
102
}
330
E0
100
AcDbScale
 70
     0
300
1/64" = 1'-0"
140
0.015625
141
12.0
290
     0
  0
SCALE
  5
F4
102
{ACAD_REACTORS
330
E0
102
}
330
E0
100
AcDbScale
 70
     0
300
1/32" = 1'-0"
140
0.03125
141
12.0
290
     0
  0
SCALE
  5
F5
102
{ACAD_REACTORS
330
E0
102
}
330
E0
100
AcDbScale
 70
     0
300
1/16" = 1'-0"
140
0.0625
141
12.0
290
     0
  0
SCALE
  5
F6
102
{ACAD_REACTORS
330
E0
102
}
330
E0
100
AcDbScale
 70
     0
300
3/32" = 1'-0"
140
0.09375
141
12.0
290
     0
  0
SCALE
  5
F7
102
{ACAD_REACTORS
330
E0
102
}
330
E0
100
AcDbScale
 70
     0
300
1/8" = 1'-0"
140
0.125
141
12.0
290
     0
  0
SCALE
  5
F8
102
{ACAD_REACTORS
330
E0
102
}
330
E0
100
AcDbScale
 70
     0
300
3/16" = 1'-0"
140
0.1875
141
12.0
290
     0
  0
SCALE
  5
F9
102
{ACAD_REACTORS
330
E0
102
}
330
E0
100
AcDbScale
 70
     0
300
1/4" = 1'-0"
140
0.25
141
12.0
290
     0
  0
SCALE
  5
FA
102
{ACAD_REACTORS
330
E0
102
}
330
E0
100
AcDbScale
 70
     0
300
3/8" = 1'-0"
140
0.375
141
12.0
290
     0
  0
SCALE
  5
FB
102
{ACAD_REACTORS
330
E0
102
}
330
E0
100
AcDbScale
 70
     0
300
1/2" = 1'-0"
140
0.5
141
12.0
290
     0
  0
SCALE
  5
FC
102
{ACAD_REACTORS
330
E0
102
}
330
E0
100
AcDbScale
 70
     0
300
3/4" = 1'-0"
140
0.75
141
12.0
290
     0
  0
SCALE
  5
FD
102
{ACAD_REACTORS
330
E0
102
}
330
E0
100
AcDbScale
 70
     0
300
1" = 1'-0"
140
1.0
141
12.0
290
     0
  0
SCALE
  5
FE
102
{ACAD_REACTORS
330
E0
102
}
330
E0
100
AcDbScale
 70
     0
300
1-1/2" = 1'-0"
140
1.5
141
12.0
290
     0
  0
SCALE
  5
FF
102
{ACAD_REACTORS
330
E0
102
}
330
E0
100
AcDbScale
 70
     0
300
3" = 1'-0"
140
3.0
141
12.0
290
     0
  0
SCALE
  5
100
102
{ACAD_REACTORS
330
E0
102
}
330
E0
100
AcDbScale
 70
     0
300
6" = 1'-0"
140
6.0
141
12.0
290
     0
  0
SCALE
  5
101
102
{ACAD_REACTORS
330
E0
102
}
330
E0
100
AcDbScale
 70
     0
300
1'-0" = 1'-0"
140
12.0
141
12.0
290
     0
  0
TABLESTYLE
  5
61
102
{ACAD_XDICTIONARY
360
2B3
102
}
102
{ACAD_REACTORS
330
60
102
}
330
60
100
AcDbTableStyle
  3
Standard
 70
     0
 71
     0
 40
0.06
 41
0.06
280
     0
281
     0
  7
STANDARD
140
0.18
170
     2
 62
     0
 63
     7
283
     0
274
    -2
284
     1
 64
     0
275
    -2
285
     1
 65
     0
276
    -2
286
     1
 66
     0
277
    -2
287
     1
 67
     0
278
    -2
288
     1
 68
     0
279
    -2
289
     1
 69
     0
  7
STANDARD
140
0.25
170
     5
 62
     0
 63
     7
283
     0
274
    -2
284
     1
 64
     0
275
    -2
285
     1
 65
     0
276
    -2
286
     1
 66
     0
277
    -2
287
     1
 67
     0
278
    -2
288
     1
 68
     0
279
    -2
289
     1
 69
     0
  7
STANDARD
140
0.18
170
     5
 62
     0
 63
     7
283
     0
274
    -2
284
     1
 64
     0
275
    -2
285
     1
 65
     0
276
    -2
286
     1
 66
     0
277
    -2
287
     1
 67
     0
278
    -2
288
     1
 68
     0
279
    -2
289
     1
 69
     0
  0
VISUALSTYLE
  5
D5
102
{ACAD_REACTORS
330
CF
102
}
330
CF
100
AcDbVisualStyle
  2
2dWireframe
 70
     4
 71
     0
 72
     2
 73
     0
 90
        0
 40
-0.6
 41
-30.0
 62
     5
 63
     7
421
 16777215
 74
     1
 91
        4
 64
     7
 65
   257
 75
     1
175
     1
 42
1.0
 92
        0
 66
   257
 43
1.0
 76
     1
 77
     6
 78
     2
 67
     7
 79
     5
170
     0
171
     0
290
     0
174
     0
 93
        1
 44
0.0
173
     0
291
     0
 45
0.0
1001
ACAD
1000
AcDbSavedByObjectVersion
1070
     0
1000
AcDbSavedByObjectVersion
1070
     0
1000
AcDbSavedByObjectVersion
1070
     0
1000
AcDbSavedByObjectVersion
1070
     0
  0
VISUALSTYLE
  5
D7
102
{ACAD_REACTORS
330
CF
102
}
330
CF
100
AcDbVisualStyle
  2
3D Hidden
 70
     6
 71
     1
 72
     2
 73
     2
 90
        0
 40
-0.6
 41
-30.0
 62
     5
 63
     7
421
 16777215
 74
     2
 91
        2
 64
     7
 65
   257
 75
     2
175
     1
 42
40.0
 92
        0
 66
   257
 43
1.0
 76
     1
 77
     6
 78
     2
 67
     7
 79
     3
170
     0
171
     0
290
     0
174
     0
 93
        1
 44
0.0
173
     0
291
     0
 45
0.0
1001
ACAD
1000
AcDbSavedByObjectVersion
1070
     0
1000
AcDbSavedByObjectVersion
1070
     0
1000
AcDbSavedByObjectVersion
1070
     0
1000
AcDbSavedByObjectVersion
1070
     0
  0
VISUALSTYLE
  5
D6
102
{ACAD_REACTORS
330
CF
102
}
330
CF
100
AcDbVisualStyle
  2
3dWireframe
 70
     5
 71
     0
 72
     2
 73
     0
 90
        0
 40
-0.6
 41
-30.0
 62
     5
 63
     7
421
 16777215
 74
     1
 91
        4
 64
     7
 65
   257
 75
     1
175
     1
 42
1.0
 92
        0
 66
   257
 43
1.0
 76
     1
 77
     6
 78
     2
 67
     7
 79
     5
170
     0
171
     0
290
     0
174
     0
 93
        1
 44
0.0
173
     0
291
     0
 45
0.0
1001
ACAD
1000
AcDbSavedByObjectVersion
1070
     0
1000
AcDbSavedByObjectVersion
1070
     0
1000
AcDbSavedByObjectVersion
1070
     0
1000
AcDbSavedByObjectVersion
1070
     0
  0
VISUALSTYLE
  5
D4
102
{ACAD_REACTORS
330
CF
102
}
330
CF
100
AcDbVisualStyle
  2
Basic
 70
     7
 71
     1
 72
     0
 73
     1
 90
        0
 40
-0.6
 41
-30.0
 62
     5
 63
     7
421
 16777215
 74
     0
 91
        4
 64
     7
 65
   257
 75
     1
175
     1
 42
1.0
 92
        8
 66
     7
 43
1.0
 76
     1
 77
     6
 78
     2
 67
     7
 79
     5
170
     0
171
     0
290
     0
174
     0
 93
        1
 44
0.0
173
     0
291
     1
 45
0.0
1001
ACAD
1000
AcDbSavedByObjectVersion
1070
     0
1000
AcDbSavedByObjectVersion
1070
     0
1000
AcDbSavedByObjectVersion
1070
     0
1000
AcDbSavedByObjectVersion
1070
     0
  0
VISUALSTYLE
  5
DB
102
{ACAD_REACTORS
330
CF
102
}
330
CF
100
AcDbVisualStyle
  2
Brighten
 70
    12
 71
     2
 72
     2
 73
     0
 90
        0
 40
-0.6
 41
-30.0
 62
     5
 63
     7
421
 16777215
 74
     1
 91
        4
 64
     7
 65
   257
 75
     1
175
     1
 42
1.0
 92
        8
 66
     7
 43
1.0
 76
     1
 77
     6
 78
     2
 67
     7
 79
     5
170
     0
171
     0
290
     0
174
     0
 93
        1
 44
50.0
173
     0
291
     1
 45
0.0
1001
ACAD
1000
AcDbSavedByObjectVersion
1070
     0
1000
AcDbSavedByObjectVersion
1070
     0
1000
AcDbSavedByObjectVersion
1070
     0
1000
AcDbSavedByObjectVersion
1070
     0
  0
VISUALSTYLE
  5
DF
102
{ACAD_REACTORS
330
CF
102
}
330
CF
100
AcDbVisualStyle
  2
ColorChange
 70
    16
 71
     2
 72
     2
 73
     3
 90
        0
 40
-0.6
 41
-30.0
 62
     5
 63
     8
421
  8421504
 74
     1
 91
        4
 64
     7
 65
   257
 75
     1
175
     1
 42
1.0
 92
        8
 66
     8
424
  8421504
 43
1.0
 76
     1
 77
     6
 78
     2
 67
     7
 79
     5
170
     0
171
     0
290
     0
174
     0
 93
        1
 44
0.0
173
     0
291
     1
 45
0.0
1001
ACAD
1000
AcDbSavedByObjectVersion
1070
     0
1000
AcDbSavedByObjectVersion
1070
     0
1000
AcDbSavedByObjectVersion
1070
     0
1000
AcDbSavedByObjectVersion
1070
     0
  0
VISUALSTYLE
  5
D8
102
{ACAD_REACTORS
330
CF
102
}
330
CF
100
AcDbVisualStyle
  2
Conceptual
 70
     9
 71
     3
 72
     2
 73
     0
 90
        0
 40
-0.6
 41
-30.0
 62
     5
 63
     7
421
 16777215
 74
     2
 91
        2
 64
     7
 65
   257
 75
     1
175
     1
 42
40.0
 92
        8
 66
     7
 43
1.0
 76
     1
 77
     6
 78
     2
 67
     7
 79
     3
170
     0
171
     0
290
     0
174
     0
 93
        1
 44
0.0
173
     0
291
     0
 45
0.0
1001
ACAD
1000
AcDbSavedByObjectVersion
1070
     0
1000
AcDbSavedByObjectVersion
1070
     0
1000
AcDbSavedByObjectVersion
1070
     0
1000
AcDbSavedByObjectVersion
1070
     0
  0
VISUALSTYLE
  5
DA
102
{ACAD_REACTORS
330
CF
102
}
330
CF
100
AcDbVisualStyle
  2
Dim
 70
    11
 71
     2
 72
     2
 73
     0
 90
        0
 40
-0.6
 41
-30.0
 62
     5
 63
     7
421
 16777215
 74
     1
 91
        4
 64
     7
 65
   257
 75
     1
175
     1
 42
1.0
 92
        8
 66
     7
 43
1.0
 76
     1
 77
     6
 78
     2
 67
     7
 79
     5
170
     0
171
     0
290
     0
174
     0
 93
        1
 44
-50.0
173
     0
291
     1
 45
0.0
1001
ACAD
1000
AcDbSavedByObjectVersion
1070
     0
1000
AcDbSavedByObjectVersion
1070
     0
1000
AcDbSavedByObjectVersion
1070
     0
1000
AcDbSavedByObjectVersion
1070
     0
  0
VISUALSTYLE
  5
DE
102
{ACAD_REACTORS
330
CF
102
}
330
CF
100
AcDbVisualStyle
  2
Facepattern
 70
    15
 71
     2
 72
     2
 73
     0
 90
        0
 40
-0.6
 41
-30.0
 62
     5
 63
     7
421
 16777215
 74
     1
 91
        4
 64
     7
 65
   257
 75
     1
175
     1
 42
1.0
 92
        8
 66
     7
 43
1.0
 76
     1
 77
     6
 78
     2
 67
     7
 79
     5
170
     0
171
     0
290
     0
174
     0
 93
        1
 44
0.0
173
     0
291
     1
 45
0.0
1001
ACAD
1000
AcDbSavedByObjectVersion
1070
     0
1000
AcDbSavedByObjectVersion
1070
     0
1000
AcDbSavedByObjectVersion
1070
     0
1000
AcDbSavedByObjectVersion
1070
     0
  0
VISUALSTYLE
  5
D0
102
{ACAD_REACTORS
330
CF
102
}
330
CF
100
AcDbVisualStyle
  2
Flat
 70
     0
 71
     2
 72
     1
 73
     1
 90
        2
 40
-0.6
 41
30.0
 62
     5
 63
     7
421
 16777215
 74
     0
 91
        4
 64
     7
 65
   257
 75
     1
175
     1
 42
1.0
 92
        8
 66
     7
 43
1.0
 76
     1
 77
     6
 78
     2
 67
     7
 79
     5
170
     0
171
     0
290
     0
174
     0
 93
       13
 44
0.0
173
     0
291
     1
 45
0.0
1001
ACAD
1000
AcDbSavedByObjectVersion
1070
     0
1000
AcDbSavedByObjectVersion
1070
     0
1000
AcDbSavedByObjectVersion
1070
     0
1000
AcDbSavedByObjectVersion
1070
     0
  0
VISUALSTYLE
  5
D1
102
{ACAD_REACTORS
330
CF
102
}
330
CF
100
AcDbVisualStyle
  2
FlatWithEdges
 70
     1
 71
     2
 72
     1
 73
     1
 90
        2
 40
-0.6
 41
30.0
 62
     5
 63
     7
421
 16777215
 74
     1
 91
        4
 64
     7
 65
   257
 75
     1
175
     1
 42
1.0
 92
        0
 66
   257
 43
1.0
 76
     1
 77
     6
 78
     2
 67
     7
 79
     5
170
     0
171
     0
290
     0
174
     0
 93
       13
 44
0.0
173
     0
291
     1
 45
0.0
1001
ACAD
1000
AcDbSavedByObjectVersion
1070
     0
1000
AcDbSavedByObjectVersion
1070
     0
1000
AcDbSavedByObjectVersion
1070
     0
1000
AcDbSavedByObjectVersion
1070
     0
  0
VISUALSTYLE
  5
D2
102
{ACAD_REACTORS
330
CF
102
}
330
CF
100
AcDbVisualStyle
  2
Gouraud
 70
     2
 71
     2
 72
     2
 73
     1
 90
        2
 40
-0.6
 41
30.0
 62
     5
 63
     7
421
 16777215
 74
     0
 91
        4
 64
     7
 65
   257
 75
     1
175
     1
 42
1.0
 92
        0
 66
     7
 43
1.0
 76
     1
 77
     6
 78
     2
 67
     7
 79
     5
170
     0
171
     0
290
     0
174
     0
 93
       13
 44
0.0
173
     0
291
     1
 45
0.0
1001
ACAD
1000
AcDbSavedByObjectVersion
1070
     0
1000
AcDbSavedByObjectVersion
1070
     0
1000
AcDbSavedByObjectVersion
1070
     0
1000
AcDbSavedByObjectVersion
1070
     0
  0
VISUALSTYLE
  5
D3
102
{ACAD_REACTORS
330
CF
102
}
330
CF
100
AcDbVisualStyle
  2
GouraudWithEdges
 70
     3
 71
     2
 72
     2
 73
     1
 90
        2
 40
-0.6
 41
30.0
 62
     5
 63
     7
421
 16777215
 74
     1
 91
        4
 64
     7
 65
   257
 75
     1
175
     1
 42
1.0
 92
        0
 66
   257
 43
1.0
 76
     1
 77
     6
 78
     2
 67
     7
 79
     5
170
     0
171
     0
290
     0
174
     0
 93
       13
 44
0.0
173
     0
291
     1
 45
0.0
1001
ACAD
1000
AcDbSavedByObjectVersion
1070
     0
1000
AcDbSavedByObjectVersion
1070
     0
1000
AcDbSavedByObjectVersion
1070
     0
1000
AcDbSavedByObjectVersion
1070
     0
  0
VISUALSTYLE
  5
DD
102
{ACAD_REACTORS
330
CF
102
}
330
CF
100
AcDbVisualStyle
  2
Linepattern
 70
    14
 71
     2
 72
     2
 73
     0
 90
        0
 40
-0.6
 41
-30.0
 62
     5
 63
     7
421
 16777215
 74
     1
 91
        4
 64
     7
 65
   257
 75
     7
175
     7
 42
1.0
 92
        8
 66
     7
 43
1.0
 76
     1
 77
     6
 78
     2
 67
     7
 79
     5
170
     0
171
     0
290
     0
174
     0
 93
        1
 44
0.0
173
     0
291
     1
 45
0.0
1001
ACAD
1000
AcDbSavedByObjectVersion
1070
     0
1000
AcDbSavedByObjectVersion
1070
     0
1000
AcDbSavedByObjectVersion
1070
     0
1000
AcDbSavedByObjectVersion
1070
     0
  0
VISUALSTYLE
  5
D9
102
{ACAD_REACTORS
330
CF
102
}
330
CF
100
AcDbVisualStyle
  2
Realistic
 70
     8
 71
     2
 72
     2
 73
     0
 90
        0
 40
-0.6
 41
-30.0
 62
     5
 63
     7
421
 16777215
 74
     1
 91
        0
 64
     7
 65
   257
 75
     1
175
     1
 42
1.0
 92
        8
 66
     8
424
  7895160
 43
1.0
 76
     1
 77
     6
 78
     2
 67
     7
 79
     5
170
     0
171
     0
290
     0
174
     0
 93
       13
 44
0.0
173
     0
291
     0
 45
0.0
1001
ACAD
1000
AcDbSavedByObjectVersion
1070
     0
1000
AcDbSavedByObjectVersion
1070
     0
1000
AcDbSavedByObjectVersion
1070
     0
1000
AcDbSavedByObjectVersion
1070
     0
  0
VISUALSTYLE
  5
DC
102
{ACAD_REACTORS
330
CF
102
}
330
CF
100
AcDbVisualStyle
  2
Thicken
 70
    13
 71
     2
 72
     2
 73
     0
 90
        0
 40
-0.6
 41
-30.0
 62
     5
 63
     7
421
 16777215
 74
     1
 91
        4
 64
     7
 65
   257
 75
     1
175
     1
 42
1.0
 92
       12
 66
     7
 43
1.0
 76
     1
 77
     6
 78
     2
 67
     7
 79
     5
170
     0
171
     0
290
     0
174
     0
 93
        1
 44
0.0
173
     0
291
     1
 45
0.0
1001
ACAD
1000
AcDbSavedByObjectVersion
1070
     0
1000
AcDbSavedByObjectVersion
1070
     0
1000
AcDbSavedByObjectVersion
1070
     0
1000
AcDbSavedByObjectVersion
1070
     0
  0
DICTIONARYVAR
  5
2B2
102
{ACAD_REACTORS
330
AB
102
}
330
AB
100
DictionaryVariables
280
     0
  1
2:1
  0
DICTIONARYVAR
  5
2B1
102
{ACAD_REACTORS
330
AB
102
}
330
AB
100
DictionaryVariables
280
     0
  1
STANDARD
  0
DICTIONARYVAR
  5
AC
102
{ACAD_REACTORS
330
AB
102
}
330
AB
100
DictionaryVariables
280
     0
  1
STANDARD
  0
DICTIONARYVAR
  5
AD
102
{ACAD_REACTORS
330
AB
102
}
330
AB
100
DictionaryVariables
280
     0
  1
1
  0
DICTIONARYVAR
  5
AE
102
{ACAD_REACTORS
330
AB
102
}
330
AB
100
DictionaryVariables
280
     0
  1

  0
DICTIONARY
  5
16D
102
{ACAD_REACTORS
330
162
102
}
330
162
100
AcDbDictionary
281
     1
  0
XRECORD
  5
182
102
{ACAD_REACTORS
330
162
102
}
330
162
100
AcDbXrecord
280
     1
 90
-1023410169
  0
XRECORD
  5
DBA
102
{ACAD_REACTORS
330
DB9
102
}
330
DB9
100
AcDbXrecord
280
     1
330
689
330
68A
330
695
330
696
330
6A1
330
6A2
330
B35
330
B36
330
B3E
330
B3F
330
B47
330
B48
330
8F7
330
8F8
330
903
330
904
330
90F
330
910
  0
DICTIONARY
  5
C0
330
BF
100
AcDbDictionary
280
     1
281
     1
  3
ACAD_XREC_ROUNDTRIP
360
2BA
  3
BUMPTILE
360
C2
  3
DIFFUSETILE
360
C1
  3
OPACITYTILE
360
C5
  3
REFLECTIONTILE
360
C4
  3
REFRACTIONTILE
360
C6
  3
SPECULARTILE
360
C3
  0
DICTIONARY
  5
B8
330
B7
100
AcDbDictionary
280
     1
281
     1
  3
ACAD_XREC_ROUNDTRIP
360
2B9
  3
BUMPTILE
360
BA
  3
DIFFUSETILE
360
B9
  3
OPACITYTILE
360
BD
  3
REFLECTIONTILE
360
BC
  3
REFRACTIONTILE
360
BE
  3
SPECULARTILE
360
BB
  0
DICTIONARY
  5
C8
330
C7
100
AcDbDictionary
280
     1
281
     1
  3
ACAD_XREC_ROUNDTRIP
360
2BB
  3
BUMPTILE
360
CA
  3
DIFFUSETILE
360
C9
  3
OPACITYTILE
360
CD
  3
REFLECTIONTILE
360
CC
  3
REFRACTIONTILE
360
CE
  3
SPECULARTILE
360
CB
  0
DICTIONARY
  5
2B3
330
61
100
AcDbDictionary
280
     1
281
     1
  3
ACAD_ROUNDTRIP_2008_TABLESTYLE_CELLSTYLEMAP
360
11B1
  3
ACAD_XREC_ROUNDTRIP
360
11B4
  0
XRECORD
  5
2BA
102
{ACAD_REACTORS
330
C0
102
}
330
C0
100
AcDbXrecord
280
     1
102
MATERIAL
148
0.0
149
0.0
149
0.0
 93
        0
 94
      127
282
     0
 72
     0
 77
     0
171
     0
175
     0
179
     0
273
     0
  0
XRECORD
  5
C2
102
{ACAD_REACTORS
330
C0
102
}
330
C0
100
AcDbXrecord
280
     1
270
     1
271
     1
  0
XRECORD
  5
C1
102
{ACAD_REACTORS
330
C0
102
}
330
C0
100
AcDbXrecord
280
     1
270
     1
271
     1
  0
XRECORD
  5
C5
102
{ACAD_REACTORS
330
C0
102
}
330
C0
100
AcDbXrecord
280
     1
270
     1
271
     1
  0
XRECORD
  5
C4
102
{ACAD_REACTORS
330
C0
102
}
330
C0
100
AcDbXrecord
280
     1
270
     1
271
     1
  0
XRECORD
  5
C6
102
{ACAD_REACTORS
330
C0
102
}
330
C0
100
AcDbXrecord
280
     1
270
     1
271
     1
  0
XRECORD
  5
C3
102
{ACAD_REACTORS
330
C0
102
}
330
C0
100
AcDbXrecord
280
     1
270
     1
271
     1
  0
XRECORD
  5
2B9
102
{ACAD_REACTORS
330
B8
102
}
330
B8
100
AcDbXrecord
280
     1
102
MATERIAL
148
0.0
149
0.0
149
0.0
 93
        0
 94
      127
282
     0
 72
     0
 77
     0
171
     0
175
     0
179
     0
273
     0
  0
XRECORD
  5
BA
102
{ACAD_REACTORS
330
B8
102
}
330
B8
100
AcDbXrecord
280
     1
270
     1
271
     1
  0
XRECORD
  5
B9
102
{ACAD_REACTORS
330
B8
102
}
330
B8
100
AcDbXrecord
280
     1
270
     1
271
     1
  0
XRECORD
  5
BD
102
{ACAD_REACTORS
330
B8
102
}
330
B8
100
AcDbXrecord
280
     1
270
     1
271
     1
  0
XRECORD
  5
BC
102
{ACAD_REACTORS
330
B8
102
}
330
B8
100
AcDbXrecord
280
     1
270
     1
271
     1
  0
XRECORD
  5
BE
102
{ACAD_REACTORS
330
B8
102
}
330
B8
100
AcDbXrecord
280
     1
270
     1
271
     1
  0
XRECORD
  5
BB
102
{ACAD_REACTORS
330
B8
102
}
330
B8
100
AcDbXrecord
280
     1
270
     1
271
     1
  0
XRECORD
  5
2BB
102
{ACAD_REACTORS
330
C8
102
}
330
C8
100
AcDbXrecord
280
     1
102
MATERIAL
148
0.0
149
0.0
149
0.0
 93
        0
 94
      127
282
     0
 72
     0
 77
     0
171
     0
175
     0
179
     0
273
     0
  0
XRECORD
  5
CA
102
{ACAD_REACTORS
330
C8
102
}
330
C8
100
AcDbXrecord
280
     1
270
     1
271
     1
  0
XRECORD
  5
C9
102
{ACAD_REACTORS
330
C8
102
}
330
C8
100
AcDbXrecord
280
     1
270
     1
271
     1
  0
XRECORD
  5
CD
102
{ACAD_REACTORS
330
C8
102
}
330
C8
100
AcDbXrecord
280
     1
270
     1
271
     1
  0
XRECORD
  5
CC
102
{ACAD_REACTORS
330
C8
102
}
330
C8
100
AcDbXrecord
280
     1
270
     1
271
     1
  0
XRECORD
  5
CE
102
{ACAD_REACTORS
330
C8
102
}
330
C8
100
AcDbXrecord
280
     1
270
     1
271
     1
  0
XRECORD
  5
CB
102
{ACAD_REACTORS
330
C8
102
}
330
C8
100
AcDbXrecord
280
     1
270
     1
271
     1
  0
CELLSTYLEMAP
  5
11B1
102
{ACAD_REACTORS
330
2B3
102
}
330
2B3
100
AcDbCellStyleMap
 90
        3
300
CELLSTYLE
  1
TABLEFORMAT_BEGIN
 90
        5
170
     1
 91
        0
 92
    32768
 62
   257
 93
        1
300
CONTENTFORMAT
  1
CONTENTFORMAT_BEGIN
 90
        0
 91
        0
 92
        4
 93
        0
300

 40
0.0
140
1.0
 94
        5
 62
     0
340
C
144
0.25
309
CONTENTFORMAT_END
171
     1
301
MARGIN
  1
CELLMARGIN_BEGIN
 40
0.06
 40
0.06
 40
0.06
 40
0.06
 40
0.18
 40
0.18
309
CELLMARGIN_END
 94
        6
 95
        1
302
GRIDFORMAT
  1
GRIDFORMAT_BEGIN
 90
        0
 91
        1
 62
     0
 92
       -2
340
0
 93
        0
 40
0.045
309
GRIDFORMAT_END
 95
        2
302
GRIDFORMAT
  1
GRIDFORMAT_BEGIN
 90
        0
 91
        1
 62
     0
 92
       -2
340
0
 93
        0
 40
0.045
309
GRIDFORMAT_END
 95
        4
302
GRIDFORMAT
  1
GRIDFORMAT_BEGIN
 90
        0
 91
        1
 62
     0
 92
       -2
340
0
 93
        0
 40
0.045
309
GRIDFORMAT_END
 95
        8
302
GRIDFORMAT
  1
GRIDFORMAT_BEGIN
 90
        0
 91
        1
 62
     0
 92
       -2
340
0
 93
        0
 40
0.045
309
GRIDFORMAT_END
 95
       16
302
GRIDFORMAT
  1
GRIDFORMAT_BEGIN
 90
        0
 91
        1
 62
     0
 92
       -2
340
0
 93
        0
 40
0.045
309
GRIDFORMAT_END
 95
       32
302
GRIDFORMAT
  1
GRIDFORMAT_BEGIN
 90
        0
 91
        1
 62
     0
 92
       -2
340
0
 93
        0
 40
0.045
309
GRIDFORMAT_END
309
TABLEFORMAT_END
  1
CELLSTYLE_BEGIN
 90
        1
 91
        1
300
_TITLE
309
CELLSTYLE_END
300
CELLSTYLE
  1
TABLEFORMAT_BEGIN
 90
        5
170
     1
 91
        0
 92
        0
 62
   257
 93
        1
300
CONTENTFORMAT
  1
CONTENTFORMAT_BEGIN
 90
        0
 91
        0
 92
        4
 93
        0
300

 40
0.0
140
1.0
 94
        5
 62
     0
340
C
144
0.18
309
CONTENTFORMAT_END
171
     1
301
MARGIN
  1
CELLMARGIN_BEGIN
 40
0.06
 40
0.06
 40
0.06
 40
0.06
 40
0.18
 40
0.18
309
CELLMARGIN_END
 94
        6
 95
        1
302
GRIDFORMAT
  1
GRIDFORMAT_BEGIN
 90
        0
 91
        1
 62
     0
 92
       -2
340
0
 93
        0
 40
0.045
309
GRIDFORMAT_END
 95
        2
302
GRIDFORMAT
  1
GRIDFORMAT_BEGIN
 90
        0
 91
        1
 62
     0
 92
       -2
340
0
 93
        0
 40
0.045
309
GRIDFORMAT_END
 95
        4
302
GRIDFORMAT
  1
GRIDFORMAT_BEGIN
 90
        0
 91
        1
 62
     0
 92
       -2
340
0
 93
        0
 40
0.045
309
GRIDFORMAT_END
 95
        8
302
GRIDFORMAT
  1
GRIDFORMAT_BEGIN
 90
        0
 91
        1
 62
     0
 92
       -2
340
0
 93
        0
 40
0.045
309
GRIDFORMAT_END
 95
       16
302
GRIDFORMAT
  1
GRIDFORMAT_BEGIN
 90
        0
 91
        1
 62
     0
 92
       -2
340
0
 93
        0
 40
0.045
309
GRIDFORMAT_END
 95
       32
302
GRIDFORMAT
  1
GRIDFORMAT_BEGIN
 90
        0
 91
        1
 62
     0
 92
       -2
340
0
 93
        0
 40
0.045
309
GRIDFORMAT_END
309
TABLEFORMAT_END
  1
CELLSTYLE_BEGIN
 90
        2
 91
        1
300
_HEADER
309
CELLSTYLE_END
300
CELLSTYLE
  1
TABLEFORMAT_BEGIN
 90
        5
170
     1
 91
        0
 92
        0
 62
   257
 93
        1
300
CONTENTFORMAT
  1
CONTENTFORMAT_BEGIN
 90
        0
 91
        0
 92
        4
 93
        0
300

 40
0.0
140
1.0
 94
        2
 62
     0
340
C
144
0.18
309
CONTENTFORMAT_END
171
     1
301
MARGIN
  1
CELLMARGIN_BEGIN
 40
0.06
 40
0.06
 40
0.06
 40
0.06
 40
0.18
 40
0.18
309
CELLMARGIN_END
 94
        6
 95
        1
302
GRIDFORMAT
  1
GRIDFORMAT_BEGIN
 90
        0
 91
        1
 62
     0
 92
       -2
340
0
 93
        0
 40
0.045
309
GRIDFORMAT_END
 95
        2
302
GRIDFORMAT
  1
GRIDFORMAT_BEGIN
 90
        0
 91
        1
 62
     0
 92
       -2
340
0
 93
        0
 40
0.045
309
GRIDFORMAT_END
 95
        4
302
GRIDFORMAT
  1
GRIDFORMAT_BEGIN
 90
        0
 91
        1
 62
     0
 92
       -2
340
0
 93
        0
 40
0.045
309
GRIDFORMAT_END
 95
        8
302
GRIDFORMAT
  1
GRIDFORMAT_BEGIN
 90
        0
 91
        1
 62
     0
 92
       -2
340
0
 93
        0
 40
0.045
309
GRIDFORMAT_END
 95
       16
302
GRIDFORMAT
  1
GRIDFORMAT_BEGIN
 90
        0
 91
        1
 62
     0
 92
       -2
340
0
 93
        0
 40
0.045
309
GRIDFORMAT_END
 95
       32
302
GRIDFORMAT
  1
GRIDFORMAT_BEGIN
 90
        0
 91
        1
 62
     0
 92
       -2
340
0
 93
        0
 40
0.045
309
GRIDFORMAT_END
309
TABLEFORMAT_END
  1
CELLSTYLE_BEGIN
 90
        3
 91
        2
300
_DATA
309
CELLSTYLE_END
  0
XRECORD
  5
11B4
102
{ACAD_REACTORS
330
2B3
102
}
330
2B3
100
AcDbXrecord
280
     1
102
ACAD_ROUNDTRIP_PRE2007_TABLESTYLE
 90
        4
 91
        0
  1

 92
        4
 93
        0
  2

 94
        4
 95
        0
  3

  0
ENDSEC
  0
EOF
