  0
SECTION
  2
HEADER
  9
$ACADVER
  1
AC1018
  9
$ACADMAINTVER
 70
   104
  9
$DWGCODEPAGE
  3
ANSI_1252
  9
$LASTSAVEDBY
  1
guzb562
  9
$INSBASE
 10
730.8583999999997
 20
140.9912999999999
 30
0.0
  9
$EXTMIN
 10
695.7161956401835
 20
80.59657584339969
 30
0.0
  9
$EXTMAX
 10
886.4704295371396
 20
344.9970477692239
 30
0.0
  9
$LIMMIN
 10
0.0
 20
0.0
  9
$LIMMAX
 10
880.4448818258086
 20
665.987498695533
  9
$ORTHOMODE
 70
     0
  9
$REGENMODE
 70
     1
  9
$FILLMODE
 70
     1
  9
$QTEXTMODE
 70
     0
  9
$MIRRTEXT
 70
     0
  9
$LTSCALE
 40
1.0
  9
$ATTMODE
 70
     1
  9
$TEXTSIZE
 40
3.5
  9
$TRACEWID
 40
0.05
  9
$TEXTSTYLE
  7
STANDARD
  9
$CLAYER
  8
AM_0
  9
$CELTYPE
  6
BYLAYER
  9
$CECOLOR
 62
   256
  9
$CELTSCALE
 40
1.0
  9
$DISPSILH
 70
     0
  9
$DIMSCALE
 40
1.0
  9
$DIMASZ
 40
5.0
  9
$DIMEXO
 40
1.0
  9
$DIMDLI
 40
10.0
  9
$DIMRND
 40
0.0
  9
$DIMDLE
 40
0.0
  9
$DIMEXE
 40
1.0
  9
$DIMTP
 40
0.1
  9
$DIMTM
 40
0.1
  9
$DIMTXT
 40
5.0
  9
$DIMCEN
 40
0.0
  9
$DIMTSZ
 40
0.0
  9
$DIMTOL
 70
     0
  9
$DIMLIM
 70
     0
  9
$DIMTIH
 70
     0
  9
$DIMTOH
 70
     0
  9
$DIMSE1
 70
     0
  9
$DIMSE2
 70
     0
  9
$DIMTAD
 70
     1
  9
$DIMZIN
 70
     8
  9
$DIMBLK
  1

  9
$DIMASO
 70
     1
  9
$DIMSHO
 70
     1
  9
$DIMPOST
  1

  9
$DIMAPOST
  1
"
  9
$DIMALT
 70
     0
  9
$DIMALTD
 70
     2
  9
$DIMALTF
 40
0.0393701
  9
$DIMLFAC
 40
1.0
  9
$DIMTOFL
 70
     1
  9
$DIMTVP
 40
0.0
  9
$DIMTIX
 70
     0
  9
$DIMSOXD
 70
     0
  9
$DIMSAH
 70
     0
  9
$DIMBLK1
  1

  9
$DIMBLK2
  1

  9
$DIMSTYLE
  2
AM_DIN
  9
$DIMCLRD
 70
   256
  9
$DIMCLRE
 70
   256
  9
$DIMCLRT
 70
     2
  9
$DIMTFAC
 40
0.71
  9
$DIMGAP
 40
1.5
  9
$DIMJUST
 70
     0
  9
$DIMSD1
 70
     0
  9
$DIMSD2
 70
     0
  9
$DIMTOLJ
 70
     0
  9
$DIMTZIN
 70
     8
  9
$DIMALTZ
 70
     0
  9
$DIMALTTZ
 70
     0
  9
$DIMUPT
 70
     0
  9
$DIMDEC
 70
     2
  9
$DIMTDEC
 70
     2
  9
$DIMALTU
 70
     2
  9
$DIMALTTD
 70
     2
  9
$DIMTXSTY
  7
STANDARD
  9
$DIMAUNIT
 70
     0
  9
$DIMADEC
 70
     0
  9
$DIMALTRND
 40
0.0
  9
$DIMAZIN
 70
     2
  9
$DIMDSEP
 70
    46
  9
$DIMATFIT
 70
     3
  9
$DIMFRAC
 70
     0
  9
$DIMLDRBLK
  1

  9
$DIMLUNIT
 70
     2
  9
$DIMLWD
 70
    -1
  9
$DIMLWE
 70
    -1
  9
$DIMTMOVE
 70
     0
  9
$LUNITS
 70
     2
  9
$LUPREC
 70
     2
  9
$SKETCHINC
 40
0.1
  9
$FILLETRAD
 40
2.5
  9
$AUNITS
 70
     0
  9
$AUPREC
 70
     0
  9
$MENU
  1
acad
  9
$ELEVATION
 40
0.0
  9
$PELEVATION
 40
0.0
  9
$THICKNESS
 40
0.0
  9
$LIMCHECK
 70
     0
  9
$CHAMFERA
 40
2.5
  9
$CHAMFERB
 40
2.5
  9
$CHAMFERC
 40
0.0
  9
$CHAMFERD
 40
0.0
  9
$SKPOLY
 70
     0
  9
$TDCREATE
 40
2450575.529601852
  9
$TDUCREATE
 40
2450575.446268519
  9
$TDUPDATE
 40
2454748.397207592
  9
$TDUUPDATE
 40
2454748.313874259
  9
$TDINDWG
 40
0.0216005903
  9
$TDUSRTIMER
 40
0.0215996875
  9
$USRTIMER
 70
     1
  9
$ANGBASE
 50
0.0
  9
$ANGDIR
 70
     0
  9
$PDMODE
 70
     0
  9
$PDSIZE
 40
0.0
  9
$PLINEWID
 40
0.0
  9
$SPLFRAME
 70
     0
  9
$SPLINETYPE
 70
     6
  9
$SPLINESEGS
 70
    10
  9
$HANDSEED
  5
CE0
  9
$SURFTAB1
 70
     6
  9
$SURFTAB2
 70
     6
  9
$SURFTYPE
 70
     6
  9
$SURFU
 70
     6
  9
$SURFV
 70
     6
  9
$UCSBASE
  2

  9
$UCSNAME
  2

  9
$UCSORG
 10
0.0
 20
0.0
 30
0.0
  9
$UCSXDIR
 10
1.0
 20
0.0
 30
0.0
  9
$UCSYDIR
 10
0.0
 20
1.0
 30
0.0
  9
$UCSORTHOREF
  2

  9
$UCSORTHOVIEW
 70
     0
  9
$UCSORGTOP
 10
0.0
 20
0.0
 30
0.0
  9
$UCSORGBOTTOM
 10
0.0
 20
0.0
 30
0.0
  9
$UCSORGLEFT
 10
0.0
 20
0.0
 30
0.0
  9
$UCSORGRIGHT
 10
0.0
 20
0.0
 30
0.0
  9
$UCSORGFRONT
 10
0.0
 20
0.0
 30
0.0
  9
$UCSORGBACK
 10
0.0
 20
0.0
 30
0.0
  9
$PUCSBASE
  2

  9
$PUCSNAME
  2

  9
$PUCSORG
 10
0.0
 20
0.0
 30
0.0
  9
$PUCSXDIR
 10
1.0
 20
0.0
 30
0.0
  9
$PUCSYDIR
 10
0.0
 20
1.0
 30
0.0
  9
$PUCSORTHOREF
  2

  9
$PUCSORTHOVIEW
 70
     0
  9
$PUCSORGTOP
 10
0.0
 20
0.0
 30
0.0
  9
$PUCSORGBOTTOM
 10
0.0
 20
0.0
 30
0.0
  9
$PUCSORGLEFT
 10
0.0
 20
0.0
 30
0.0
  9
$PUCSORGRIGHT
 10
0.0
 20
0.0
 30
0.0
  9
$PUCSORGFRONT
 10
0.0
 20
0.0
 30
0.0
  9
$PUCSORGBACK
 10
0.0
 20
0.0
 30
0.0
  9
$USERI1
 70
     0
  9
$USERI2
 70
     0
  9
$USERI3
 70
     0
  9
$USERI4
 70
     0
  9
$USERI5
 70
     0
  9
$USERR1
 40
0.0
  9
$USERR2
 40
0.0
  9
$USERR3
 40
0.0
  9
$USERR4
 40
0.0
  9
$USERR5
 40
0.0
  9
$WORLDVIEW
 70
     1
  9
$SHADEDGE
 70
     3
  9
$SHADEDIF
 70
    70
  9
$TILEMODE
 70
     1
  9
$MAXACTVP
 70
    16
  9
$PINSBASE
 10
0.0
 20
0.0
 30
0.0
  9
$PLIMCHECK
 70
     0
  9
$PEXTMIN
 10
1.000000000000000E+20
 20
1.000000000000000E+20
 30
1.000000000000000E+20
  9
$PEXTMAX
 10
-1.000000000000000E+20
 20
-1.000000000000000E+20
 30
-1.000000000000000E+20
  9
$PLIMMIN
 10
0.0
 20
0.0
  9
$PLIMMAX
 10
12.0
 20
9.0
  9
$UNITMODE
 70
     0
  9
$VISRETAIN
 70
     0
  9
$PLINEGEN
 70
     0
  9
$PSLTSCALE
 70
     0
  9
$TREEDEPTH
 70
  3020
  9
$CMLSTYLE
  2
STANDARD
  9
$CMLJUST
 70
     0
  9
$CMLSCALE
 40
1.0
  9
$PROXYGRAPHICS
 70
     1
  9
$MEASUREMENT
 70
     0
  9
$CELWEIGHT
370
    -1
  9
$ENDCAPS
280
     0
  9
$JOINSTYLE
280
     0
  9
$LWDISPLAY
290
     0
  9
$INSUNITS
 70
     0
  9
$HYPERLINKBASE
  1

  9
$STYLESHEET
  1

  9
$XEDIT
290
     1
  9
$CEPSNTYPE
380
     0
  9
$PSTYLEMODE
290
     1
  9
$FINGERPRINTGUID
  2
{B13DC73D-E96A-11D5-A5E5-00B0D0796DB7}
  9
$VERSIONGUID
  2
{9BE9DAF0-EEB4-4AC3-BF28-E0BC38D84663}
  9
$EXTNAMES
290
     1
  9
$PSVPSCALE
 40
0.0
  9
$OLESTARTUP
290
     0
  9
$SORTENTS
280
   127
  9
$INDEXCTL
280
     0
  9
$HIDETEXT
280
     0
  9
$XCLIPFRAME
290
     0
  9
$HALOGAP
280
     0
  9
$OBSCOLOR
 70
   257
  9
$OBSLTYPE
280
     0
  9
$INTERSECTIONDISPLAY
280
     0
  9
$INTERSECTIONCOLOR
 70
   257
  9
$DIMASSOC
280
     2
  9
$PROJECTNAME
  1

  0
ENDSEC
  0
SECTION
  2
CLASSES
  0
CLASS
  1
DICTIONARYVAR
  2
AcDbDictionaryVar
  3
ObjectDBX Classes
 90
        0
 91
        5
280
     0
281
     0
  0
CLASS
  1
ACDBDICTIONARYWDFLT
  2
AcDbDictionaryWithDefault
  3
ObjectDBX Classes
 90
        0
 91
        1
280
     0
281
     0
  0
CLASS
  1
TABLESTYLE
  2
AcDbTableStyle
  3
ObjectDBX Classes
 90
     4095
 91
        1
280
     0
281
     0
  0
CLASS
  1
MATERIAL
  2
AcDbMaterial
  3
ObjectDBX Classes
 90
     1153
 91
        3
280
     0
281
     0
  0
CLASS
  1
VISUALSTYLE
  2
AcDbVisualStyle
  3
ObjectDBX Classes
 90
     4095
 91
       16
280
     0
281
     0
  0
CLASS
  1
SCALE
  2
AcDbScale
  3
ObjectDBX Classes
 90
     1153
 91
       33
280
     0
281
     0
  0
CLASS
  1
MLEADERSTYLE
  2
AcDbMLeaderStyle
  3
ACDB_MLEADERSTYLE_CLASS
 90
     4095
 91
        1
280
     0
281
     0
  0
CLASS
  1
AMGSETTINGSOBJ
  2
AmgSettingsObj
  3
"AcadM|Product Description: AutoCAD Mechanical|Company: Autodesk, Inc."
 90
     1024
 91
        5
280
     0
281
     0
  0
CLASS
  1
ACME_DOCUMENT
  2
AcMeDbDoc
  3
AcMeServices
 90
     1024
 91
        1
280
     0
281
     0
  0
CLASS
  1
ACMESCOPE
  2
AcMeScope
  3
AcMeServices
 90
     1024
 91
        1
280
     0
281
     0
  0
CLASS
  1
ACMECOMMANDHISTORY
  2
AcMeCommandHistory
  3
AcMeServices
 90
     1024
 91
        1
280
     0
281
     0
  0
CLASS
  1
ACIMSYSVARMAN
  2
AcImSysVarManager
  3
AcMeServices
 90
     1024
 91
        5
280
     0
281
     0
  0
CLASS
  1
ACIMINTSYSVAR
  2
AcImIntSysVar
  3
AcMeServices
 90
     1024
 91
       28
280
     0
281
     0
  0
CLASS
  1
ACMEDRAWINGMAN
  2
AcMeDrawingMan
  3
AcMeServices
 90
     1024
 91
        1
280
     0
281
     0
  0
CLASS
  1
ACMEVIEW
  2
AcMeView
  3
AcMeServices
 90
     1024
 91
        1
280
     0
281
     0
  0
CLASS
  1
ACDBENTITYCACHE
  2
AcMeEntityCache
  3
AcMeServices
 90
     1024
 91
        1
280
     0
281
     0
  0
CLASS
  1
GSMANAGER
  2
AcMeGSManager
  3
AcMeServices
 90
     1024
 91
        1
280
     0
281
     0
  0
CLASS
  1
AMDTINTERNALREACTOR
  2
AmdtInternalReactor
  3
AcMeServices
 90
     1024
 91
        4
280
     0
281
     0
  0
CLASS
  1
ACMESTATEMGR
  2
AcMeStateMgr
  3
AcMeServices
 90
     1024
 91
        1
280
     0
281
     0
  0
CLASS
  1
ACGREFMASTER
  2
AcGrefMaster
  3
AcAttribServices
 90
     1024
 91
        1
280
     0
281
     0
  0
CLASS
  1
AM_DRAWING_MGR
  2
AcDmDwgMgr
  3
AcMechDwgViewMgmt
 90
     1024
 91
        1
280
     0
281
     0
  0
CLASS
  1
AM_DWG_DOCUMENT
  2
AcDmDwgDocument
  3
AcMechDwgViewMgmt
 90
     1024
 91
        1
280
     0
281
     0
  0
CLASS
  1
AM_DWG_SHEET
  2
AcDmSheet
  3
AcMechDwgViewMgmt
 90
     1024
 91
        1
280
     0
281
     0
  0
CLASS
  1
AM_VIEWDIMPARMAP
  2
AcDmViewDimParMap
  3
AcMechDwgViewMgmt
 90
     1024
 91
        1
280
     0
281
     0
  0
CLASS
  1
ACIMREALSYSVAR
  2
AcImRealSysVar
  3
AcMeServices
 90
     1024
 91
        1
280
     0
281
     0
  0
CLASS
  1
AM_DWGMGR_NAME
  2
AcDmDwgMgrName
  3
AcMechDwgViewMgmt
 90
     1024
 91
        1
280
     0
281
     0
  0
CLASS
  1
ACME_DATABASE
  2
AcMeDbDatabase
  3
AcMeServices
 90
     1024
 91
        1
280
     0
281
     0
  0
CLASS
  1
ACRFINSADJUSTERMGR
  2
AcRfInsAdjusterMgr
  3
AcMeServices
 90
     1024
 91
        1
280
     0
281
     0
  0
CLASS
  1
ACGREFACADMASTER
  2
AcGrefacadMaster
  3
AcGrefServices
 90
     1024
 91
        1
280
     0
281
     0
  0
CLASS
  1
AMDTMENUSTATEMGR
  2
AmdtMenuStateMgr
  3
McadcomServices
 90
     1024
 91
        1
280
     0
281
     0
  0
CLASS
  1
AMDTMCOMMENUSTATE
  2
AmdtMcomMenuState
  3
McadcomServices
 90
     1024
 91
        1
280
     0
281
     0
  0
CLASS
  1
AMIMASTER
  2
AmiMaster
  3
AmiServices
 90
     1024
 91
        1
280
     0
281
     0
  0
CLASS
  1
MAPIAMMOUDLE
  2
MApiAmModule
  3
MApiAmServices
 90
     1024
 91
        1
280
     0
281
     0
  0
CLASS
  1
ACIMSTRSYSVAR
  2
AcImStrSysVar
  3
AcMeServices
 90
     1024
 91
        5
280
     0
281
     0
  0
CLASS
  1
AMDTADMENUSTATE
  2
AmdtAdMenuState
  3
DesignerServices
 90
     1024
 91
        1
280
     0
281
     0
  0
CLASS
  1
ADAPPL
  2
AcAdAppl
  3
DesignerServices
 90
     1024
 91
        1
280
     0
281
     0
  0
CLASS
  1
DEPMGR
  2
AcAdDepMgr
  3
DesignerServices
 90
     1024
 91
        1
280
     0
281
     0
  0
CLASS
  1
PARAMMGR
  2
AcAdParamMgr
  3
DesignerServices
 90
     1024
 91
        1
280
     0
281
     0
  0
CLASS
  1
PARAMSCOPE
  2
AcAdParamScope
  3
DesignerServices
 90
     1024
 91
        1
280
     0
281
     0
  0
CLASS
  1
NAMEDAPPL
  2
AcAdNamedAppl
  3
DesignerServices
 90
     1024
 91
        1
280
     0
281
     0
  0
CLASS
  1
AMDTDMMENUSTATE
  2
AmdtDmMenuState
  3
AcMechDwgViewMgmt
 90
     1024
 91
        1
280
     0
281
     0
  0
CLASS
  1
AMDTAMMENUSTATE
  2
AmdtAmMenuState
  3
DesignerAssemblies
 90
     1024
 91
        1
280
     0
281
     0
  0
CLASS
  1
ACAMPROJECT
  2
AcAmProject
  3
DesignerAssemblies
 90
     1024
 91
        1
280
     0
281
     0
  0
CLASS
  1
ACAMGRCOMPDEF
  2
AcAmGrCompDef
  3
DesignerAssemblies
 90
     1024
 91
        1
280
     0
281
     0
  0
CLASS
  1
ACCMCONTEXT
  2
AcCmContext
  3
DesignerAssemblies
 90
     1024
 91
        1
280
     0
281
     0
  0
CLASS
  1
ACAMCOMPDEF
  2
AcAmCompDef
  3
DesignerAssemblies
 90
     1024
 91
        1
280
     0
281
     0
  0
CLASS
  1
ACAMCOMPDEFMGR
  2
AcAmCompDefMgr
  3
DesignerAssemblies
 90
     1024
 91
        1
280
     0
281
     0
  0
CLASS
  1
AMCONTEXTMGR
  2
AcAmContextMgr
  3
DesignerAssemblies
 90
     1024
 91
        1
280
     0
281
     0
  0
CLASS
  1
ACAMCONTEXTMODELER
  2
AcAmContextModeler
  3
DesignerAssemblies
 90
     1024
 91
        1
280
     0
281
     0
  0
CLASS
  1
ACMDATADICTIONARY
  2
AcmDataDictionary
  3
"AcmSymBB|Product Description: AutoCAD Mechanical|Company: Autodesk, Inc."
 90
     1024
 91
        1
280
     0
281
     0
  0
CLASS
  1
CATALOGSTATE
  2
AcAmCatalogState
  3
DesignerAssemblies
 90
     1024
 91
        1
280
     0
281
     0
  0
CLASS
  1
ACAMGRCOMPDEFSET
  2
AcAmGrCompDefSet
  3
DesignerAssemblies
 90
     1024
 91
        1
280
     0
281
     0
  0
CLASS
  1
AMDTBROWSERDBTAB
  2
AmdtBrowserDbTab
  3
McadcomServices
 90
     1024
 91
        1
280
     0
281
     0
  0
CLASS
  1
CBROWSERAPPOBJECT
  2
CBrowserAppObject
  3
McadcomServices
 90
     1024
 91
        3
280
     0
281
     0
  0
CLASS
  1
DM_PLACEHOLDER
  2
AcDmSelsetPlaceholder
  3
AcMechDwgViewMgmt
 90
     1024
 91
        1
280
     0
281
     0
  0
CLASS
  1
ACMSTANDARDANSI
  2
AcmStandardANSI
  3
"Amdt_StdImp|Product Description: AutoCAD Mechanical|Company: Autodesk, Inc."
 90
     1024
 91
        2
280
     0
281
     0
  0
CLASS
  1
AMGOBJPROPCFG
  2
AmgObjPropCfg
  3
"AmgLay|Product Description: AutoCAD Mechanical|Company: Autodesk, Inc."
 90
     1025
 91
        2
280
     0
281
     0
  0
CLASS
  1
ACMSURFSTANDARDANSI
  2
AcmSurfTextStdANSI
  3
"Amdt_StdImp|Product Description: AutoCAD Mechanical|Company: Autodesk, Inc."
 90
     1024
 91
        2
280
     0
281
     0
  0
CLASS
  1
ACMFCFSTANDARDANSI
  2
AcmFCFStdANSI
  3
"Amdt_StdImp|Product Description: AutoCAD Mechanical|Company: Autodesk, Inc."
 90
     1024
 91
        2
280
     0
281
     0
  0
CLASS
  1
ACMWELDSTANDARDANSI
  2
AcmWeldingStdANSI
  3
"Amdt_StdImp|Product Description: AutoCAD Mechanical|Company: Autodesk, Inc."
 90
     1024
 91
        2
280
     0
281
     0
  0
CLASS
  1
ACMIDSTANDARDANSI
  2
AcmIdStdANSI
  3
"Amdt_StdImp|Product Description: AutoCAD Mechanical|Company: Autodesk, Inc."
 90
     1024
 91
        2
280
     0
281
     0
  0
CLASS
  1
ACMDATUMSTANDARDANSI
  2
AcmDatumStdANSI
  3
"Amdt_StdImp|Product Description: AutoCAD Mechanical|Company: Autodesk, Inc."
 90
     1024
 91
        2
280
     0
281
     0
  0
CLASS
  1
ACMBOMSTANDARDANSI
  2
AcmBOMStdANSI
  3
"Amdt_StdImp|Product Description: AutoCAD Mechanical|Company: Autodesk, Inc."
 90
     1024
 91
        2
280
     0
281
     0
  0
CLASS
  1
ACMDETAILSTANDARDANSI
  2
AmdtDetailSymStdANSI
  3
"Amdt_StdImp|Product Description: AutoCAD Mechanical|Company: Autodesk, Inc."
 90
     1024
 91
        2
280
     0
281
     0
  0
CLASS
  1
ACMSECTIONSTANDARDANSI
  2
AmdtSectionSymStdANSI
  3
"Amdt_StdImp|Product Description: AutoCAD Mechanical|Company: Autodesk, Inc."
 90
     1024
 91
        2
280
     0
281
     0
  0
CLASS
  1
ACMCENTERLINESTANDARDANSI
  2
AmdtCenterLineStdANSI
  3
"Amdt_StdImp|Product Description: AutoCAD Mechanical|Company: Autodesk, Inc."
 90
     1024
 91
        2
280
     0
281
     0
  0
CLASS
  1
ACMTHREADLINESTANDARDANSI
  2
AmdtThreadLineStdANSI
  3
"Amdt_StdImp|Product Description: AutoCAD Mechanical|Company: Autodesk, Inc."
 90
     1024
 91
        2
280
     0
281
     0
  0
CLASS
  1
ACMNOTESTANDARDANSI
  2
AmdtNoteStdANSI
  3
"Amdt_StdImp|Product Description: AutoCAD Mechanical|Company: Autodesk, Inc."
 90
     1024
 91
        2
280
     0
281
     0
  0
CLASS
  1
ACMTAPERSTANDARDANSI
  2
AcmTaperStdANSI
  3
"Amdt_StdImp|Product Description: AutoCAD Mechanical|Company: Autodesk, Inc."
 90
     1024
 91
        2
280
     0
281
     0
  0
CLASS
  1
ACMANOOTATIONVIEWSTANDARDANSI
  2
AmdtAnViewStdANSI
  3
"Amdt_StdImp|Product Description: AutoCAD Mechanical|Company: Autodesk, Inc."
 90
     1024
 91
        2
280
     0
281
     0
  0
CLASS
  1
AMDTNOTETEMPLATEDB
  2
AmdtNoteTemplateDB
  3
AcmSymBB|Product Description: AutoCAD Mechanical|Company: Autodesk, Inc.
 90
     1024
 91
       24
280
     0
281
     0
  0
CLASS
  1
ACAMGLAYSTD
  2
AcAmgLayStd
  3
"AmgLay|Product Description: AutoCAD Mechanical|Company: Autodesk, Inc."
 90
     1024
 91
        4
280
     0
281
     0
  0
CLASS
  1
ACAMGDIMSTD
  2
AcAmgDimStd
  3
"AmgDim|Product Description: AutoCAD Mechanical|Company: Autodesk, Inc."
 90
     1024
 91
        4
280
     0
281
     0
  0
CLASS
  1
ACAMGHOLECHARTSTDANSI
  2
AcAmgHoleChartStdANSI
  3
AmgDim|Product Description: AutoCAD Mechanical|Company: Autodesk, Inc.
 90
     1024
 91
        2
280
     0
281
     0
  0
CLASS
  1
ACAMGTITLESTD
  2
AcAmgTitleStd
  3
"AmgTitle|Product Description: AutoCAD Mechanical|Company: Autodesk, Inc."
 90
     4095
 91
        4
280
     0
281
     0
  0
CLASS
  1
ACAMGFILTERDAT
  2
AcAmgFilterDat
  3
"AcadM|Product Description: AutoCAD Mechanical|Company: Autodesk, Inc."
 90
     1024
 91
        0
280
     0
281
     0
  0
CLASS
  1
SORTENTSTABLE
  2
AcDbSortentsTable
  3
ObjectDBX Classes
 90
        0
 91
        1
280
     0
281
     0
  0
CLASS
  1
ACMSTANDARDDIN
  2
AcmStandardDIN
  3
"Amdt_StdImp|Product Description: AutoCAD Mechanical|Company: Autodesk, Inc."
 90
     1024
 91
        1
280
     0
281
     0
  0
CLASS
  1
AMDTEDGESTANDARDDIN13715
  2
AmdtEdgeStdDIN13715
  3
"Amdt_StdImp|Product Description: AutoCAD Mechanical|Company: Autodesk, Inc."
 90
     1024
 91
        1
280
     0
281
     0
  0
CLASS
  1
ACMSURFSTANDARDDIN2002
  2
AcmSurfTextStdDIN2002
  3
"Amdt_StdImp|Product Description: AutoCAD Mechanical|Company: Autodesk, Inc."
 90
     1024
 91
        1
280
     0
281
     0
  0
CLASS
  1
ACMFCFSTANDARDDIN
  2
AcmFCFStdDIN
  3
"Amdt_StdImp|Product Description: AutoCAD Mechanical|Company: Autodesk, Inc."
 90
     1024
 91
        1
280
     0
281
     0
  0
CLASS
  1
ACMWELDSTANDARDDIN
  2
AcmWeldingStdDIN
  3
"Amdt_StdImp|Product Description: AutoCAD Mechanical|Company: Autodesk, Inc."
 90
     1024
 91
        1
280
     0
281
     0
  0
CLASS
  1
ACMIDSTANDARDDIN
  2
AcmIdStdDIN
  3
"Amdt_StdImp|Product Description: AutoCAD Mechanical|Company: Autodesk, Inc."
 90
     1024
 91
        1
280
     0
281
     0
  0
CLASS
  1
ACMDATUMSTANDARDDIN
  2
AcmDatumStdDIN
  3
"Amdt_StdImp|Product Description: AutoCAD Mechanical|Company: Autodesk, Inc."
 90
     1024
 91
        1
280
     0
281
     0
  0
CLASS
  1
ACMBOMSTANDARDDIN
  2
AcmBOMStdDIN
  3
"Amdt_StdImp|Product Description: AutoCAD Mechanical|Company: Autodesk, Inc."
 90
     1024
 91
        1
280
     0
281
     0
  0
CLASS
  1
ACMDETAILSTANDARDDIN
  2
AmdtDetailSymStdDIN
  3
"Amdt_StdImp|Product Description: AutoCAD Mechanical|Company: Autodesk, Inc."
 90
     1024
 91
        1
280
     0
281
     0
  0
CLASS
  1
ACMSECTIONSTANDARDDIN
  2
AmdtSectionSymStdDIN
  3
"Amdt_StdImp|Product Description: AutoCAD Mechanical|Company: Autodesk, Inc."
 90
     1024
 91
        1
280
     0
281
     0
  0
CLASS
  1
ACMCENTERLINESTANDARDDIN
  2
AmdtCenterLineStdDIN
  3
"Amdt_StdImp|Product Description: AutoCAD Mechanical|Company: Autodesk, Inc."
 90
     1024
 91
        1
280
     0
281
     0
  0
CLASS
  1
ACMTHREADLINESTANDARDDIN
  2
AmdtThreadLineStdDIN
  3
"Amdt_StdImp|Product Description: AutoCAD Mechanical|Company: Autodesk, Inc."
 90
     1024
 91
        1
280
     0
281
     0
  0
CLASS
  1
ACMNOTESTANDARDDIN
  2
AmdtNoteStdDIN
  3
"Amdt_StdImp|Product Description: AutoCAD Mechanical|Company: Autodesk, Inc."
 90
     1024
 91
        1
280
     0
281
     0
  0
CLASS
  1
ACMTAPERSTANDARDDIN
  2
AcmTaperStdDIN
  3
"Amdt_StdImp|Product Description: AutoCAD Mechanical|Company: Autodesk, Inc."
 90
     1024
 91
        1
280
     0
281
     0
  0
CLASS
  1
ACMANOOTATIONVIEWSTANDARDDIN
  2
AmdtAnViewStdDIN
  3
"Amdt_StdImp|Product Description: AutoCAD Mechanical|Company: Autodesk, Inc."
 90
     1024
 91
        1
280
     0
281
     0
  0
CLASS
  1
ACAMGHOLECHARTSTDDIN
  2
AcAmgHoleChartStdDIN
  3
AmgDim|Product Description: AutoCAD Mechanical|Company: Autodesk, Inc.
 90
     1024
 91
        1
280
     0
281
     0
  0
CLASS
  1
ACMSTANDARDISO
  2
AcmStandardISO
  3
"Amdt_StdImp|Product Description: AutoCAD Mechanical|Company: Autodesk, Inc."
 90
     1024
 91
        1
280
     0
281
     0
  0
CLASS
  1
AMDTEDGESTANDARDISO
  2
AmdtEdgeStdISO
  3
"Amdt_StdImp|Product Description: AutoCAD Mechanical|Company: Autodesk, Inc."
 90
     1024
 91
        1
280
     0
281
     0
  0
CLASS
  1
ACMSURFSTANDARDISO2002
  2
AcmSurfTextStdISO2002
  3
"Amdt_StdImp|Product Description: AutoCAD Mechanical|Company: Autodesk, Inc."
 90
     1024
 91
        1
280
     0
281
     0
  0
CLASS
  1
ACMFCFSTANDARDISO
  2
AcmFCFStdISO
  3
"Amdt_StdImp|Product Description: AutoCAD Mechanical|Company: Autodesk, Inc."
 90
     1024
 91
        1
280
     0
281
     0
  0
CLASS
  1
ACMWELDSTANDARDISO
  2
AcmWeldingStdISO
  3
"Amdt_StdImp|Product Description: AutoCAD Mechanical|Company: Autodesk, Inc."
 90
     1024
 91
        1
280
     0
281
     0
  0
CLASS
  1
ACMIDSTANDARDISO
  2
AcmIdStdISO
  3
"Amdt_StdImp|Product Description: AutoCAD Mechanical|Company: Autodesk, Inc."
 90
     1024
 91
        1
280
     0
281
     0
  0
CLASS
  1
ACMDATUMSTANDARDISO
  2
AcmDatumStdISO
  3
"Amdt_StdImp|Product Description: AutoCAD Mechanical|Company: Autodesk, Inc."
 90
     1024
 91
        1
280
     0
281
     0
  0
CLASS
  1
ACMBOMSTANDARDISO
  2
AcmBOMStdISO
  3
"Amdt_StdImp|Product Description: AutoCAD Mechanical|Company: Autodesk, Inc."
 90
     1024
 91
        1
280
     0
281
     0
  0
CLASS
  1
ACMDETAILSTANDARDISO
  2
AmdtDetailSymStdISO
  3
"Amdt_StdImp|Product Description: AutoCAD Mechanical|Company: Autodesk, Inc."
 90
     1024
 91
        1
280
     0
281
     0
  0
CLASS
  1
ACMSECTIONSTANDARDISO2001
  2
AmdtSectionSymStdISO2001
  3
"Amdt_StdImp|Product Description: AutoCAD Mechanical|Company: Autodesk, Inc."
 90
     1024
 91
        1
280
     0
281
     0
  0
CLASS
  1
ACMCENTERLINESTANDARDISO
  2
AmdtCenterLineStdISO
  3
"Amdt_StdImp|Product Description: AutoCAD Mechanical|Company: Autodesk, Inc."
 90
     1024
 91
        1
280
     0
281
     0
  0
CLASS
  1
ACMNOTESTANDARDISO
  2
AmdtNoteStdISO
  3
"Amdt_StdImp|Product Description: AutoCAD Mechanical|Company: Autodesk, Inc."
 90
     1024
 91
        1
280
     0
281
     0
  0
CLASS
  1
ACAMGHOLECHARTSTDISO
  2
AcAmgHoleChartStdISO
  3
AmgDim|Product Description: AutoCAD Mechanical|Company: Autodesk, Inc.
 90
     1024
 91
        1
280
     0
281
     0
  0
CLASS
  1
ACMTHREADLINESTANDARDISO
  2
AmdtThreadLineStdISO
  3
"Amdt_StdImp|Product Description: AutoCAD Mechanical|Company: Autodesk, Inc."
 90
     1024
 91
        1
280
     0
281
     0
  0
CLASS
  1
ACMTAPERSTANDARDISO
  2
AcmTaperStdISO
  3
"Amdt_StdImp|Product Description: AutoCAD Mechanical|Company: Autodesk, Inc."
 90
     1024
 91
        1
280
     0
281
     0
  0
CLASS
  1
ACMANOOTATIONVIEWSTANDARDISO
  2
AmdtAnViewStdISO
  3
"Amdt_StdImp|Product Description: AutoCAD Mechanical|Company: Autodesk, Inc."
 90
     1024
 91
        1
280
     0
281
     0
  0
CLASS
  1
CELLSTYLEMAP
  2
AcDbCellStyleMap
  3
ObjectDBX Classes
 90
     1152
 91
        2
280
     0
281
     0
  0
CLASS
  1
DIMASSOC
  2
AcDbDimAssoc
  3
"AcDbDimAssoc|Product Desc:     AcDim ARX App For Dimension|Company:          Autodesk, Inc.|WEB Address:      www.autodesk.com"
 90
        0
 91
        9
280
     0
281
     0
  0
CLASS
  1
ACMDATAENTRYPART
  2
AcmDataEntryPart
  3
AcmSymBB|Product Description: AutoCAD Mechanical|Company: Autodesk, Inc.
 90
     1024
 91
        2
280
     0
281
     0
  0
CLASS
  1
ACMPARTREF
  2
AcmPartRef
  3
"AcmSymBB|Product Description: AutoCAD Mechanical|Company: Autodesk, Inc."
 90
     4095
 91
        2
280
     0
281
     1
  0
CLASS
  1
ACDBLINERES
  2
AcDbLineRes
  3
AcGrefServices
 90
     1024
 91
        1
280
     0
281
     0
  0
CLASS
  1
ACDBCIRCARCRES
  2
AcDbCircArcRes
  3
AcGrefServices
 90
     1024
 91
        1
280
     0
281
     0
  0
ENDSEC
  0
SECTION
  2
TABLES
  0
TABLE
  2
VPORT
  5
12
330
0
100
AcDbSymbolTable
 70
     1
  0
VPORT
  5
A7
330
12
100
AcDbSymbolTableRecord
100
AcDbViewportTableRecord
  2
*Active
 70
     0
 10
0.0
 20
0.0
 11
1.0
 21
1.0
 12
784.5937370223126
 22
219.1845790314053
 13
0.0
 23
0.0
 14
0.125
 24
0.125
 15
1.0
 25
1.0
 16
0.0
 26
0.0
 36
1.0
 17
0.0
 27
0.0
 37
0.0
 40
435.8056275191964
 41
1.453771289537712
 42
50.0
 43
0.0
 44
0.0
 50
0.0
 51
0.0
 71
     0
 72
   100
 73
     1
 74
     0
 75
     0
 76
     0
 77
     0
 78
     0
281
     0
 65
     1
110
0.0
120
0.0
130
0.0
111
1.0
121
0.0
131
0.0
112
0.0
122
1.0
132
0.0
 79
     0
146
0.0
  0
ENDTAB
  0
TABLE
  2
LTYPE
  5
D
330
0
100
AcDbSymbolTable
 70
    71
  0
LTYPE
  5
E
330
D
100
AcDbSymbolTableRecord
100
AcDbLinetypeTableRecord
  2
BYBLOCK
 70
     0
  3

 72
    65
 73
     0
 40
0.0
  0
LTYPE
  5
F
330
D
100
AcDbSymbolTableRecord
100
AcDbLinetypeTableRecord
  2
BYLAYER
 70
     0
  3

 72
    65
 73
     0
 40
0.0
  0
LTYPE
  5
5
330
D
100
AcDbSymbolTableRecord
100
AcDbLinetypeTableRecord
  2
CONTINUOUS
 70
     0
  3
Solid line
 72
    65
 73
     0
 40
0.0
  0
LTYPE
  5
131
330
D
100
AcDbSymbolTableRecord
100
AcDbLinetypeTableRecord
  2
HIDDEN
 70
     0
  3
Verdeckt
 72
    65
 73
     2
 40
0.375
 49
0.25
 74
     0
 49
-0.125
 74
     0
  0
LTYPE
  5
132
330
D
100
AcDbSymbolTableRecord
100
AcDbLinetypeTableRecord
  2
PHANTOM2
 70
     0
  3
Phantom (.5x) ___ _ _ ___ _ _ ___ _ _ ___ _ _
 72
    65
 73
     6
 40
1.25
 49
0.625
 74
     0
 49
-0.125
 74
     0
 49
0.125
 74
     0
 49
-0.125
 74
     0
 49
0.125
 74
     0
 49
-0.125
 74
     0
  0
LTYPE
  5
133
330
D
100
AcDbSymbolTableRecord
100
AcDbLinetypeTableRecord
  2
CENTER
 70
     0
  3
Center line
 72
    65
 73
     4
 40
2.0
 49
1.25
 74
     0
 49
-0.25
 74
     0
 49
0.25
 74
     0
 49
-0.25
 74
     0
  0
LTYPE
  5
177
330
D
100
AcDbSymbolTableRecord
100
AcDbLinetypeTableRecord
  2
ACANSTGB
 70
     0
  3
__ . . __ . .
 72
    65
 73
     6
 40
0.35433070866
 49
0.15748031496
 74
     0
 49
-0.03937007874
 74
     0
 49
0.03937007874
 74
     0
 49
-0.03937007874
 74
     0
 49
0.03937007874
 74
     0
 49
-0.03937007874
 74
     0
  0
LTYPE
  5
178
330
D
100
AcDbSymbolTableRecord
100
AcDbLinetypeTableRecord
  2
ACANSTGL
 70
     0
  3
_ _ _ _ _
 72
    65
 73
     2
 40
0.11811023622
 49
0.07874015748
 74
     0
 49
-0.03937007874
 74
     0
  0
LTYPE
  5
222
330
D
100
AcDbSymbolTableRecord
100
AcDbLinetypeTableRecord
  2
AM_ISO02W050
 70
     0
  3
__ __ __ __ __ __ __ __ __ __ __ __ __ __ __
 72
    65
 73
     2
 40
7.5
 49
6.0
 74
     0
 49
-1.5
 74
     0
  0
LTYPE
  5
223
330
D
100
AcDbSymbolTableRecord
100
AcDbLinetypeTableRecord
  2
AM_ISO08W050
 70
     0
  3
____ . ____ . ____ . ____ . ____ . ____ . ____
 72
    65
 73
     4
 40
18.0
 49
12.0
 74
     0
 49
-1.5
 74
     0
 49
3.0
 74
     0
 49
-1.5
 74
     0
  0
LTYPE
  5
224
330
D
100
AcDbSymbolTableRecord
100
AcDbLinetypeTableRecord
  2
AM_ISO09W050
 70
     0
  3
_____ . . _____ . . _____ . . ____ .. ____
 72
    65
 73
     6
 40
22.5
 49
12.0
 74
     0
 49
-1.5
 74
     0
 49
3.0
 74
     0
 49
-1.5
 74
     0
 49
3.0
 74
     0
 49
-1.5
 74
     0
  0
LTYPE
  5
225
330
D
100
AcDbSymbolTableRecord
100
AcDbLinetypeTableRecord
  2
Amconstr
 70
     0
  3
_______________________
 72
    65
 73
     2
 40
9999.0
 49
9999.0
 74
     0
 49
0.0
 74
     0
  0
LTYPE
  5
226
330
D
100
AcDbSymbolTableRecord
100
AcDbLinetypeTableRecord
  2
AM_ISO08W050x2
 70
     0
  3
__ . __ . __ . __ . __ . __
 72
    65
 73
     4
 40
9.0
 49
6.0
 74
     0
 49
-0.75
 74
     0
 49
1.5
 74
     0
 49
-0.75
 74
     0
  0
LTYPE
  5
227
330
D
100
AcDbSymbolTableRecord
100
AcDbLinetypeTableRecord
  2
AM_ISO02W050x2
 70
     0
  3
 _ _ _ _ _ _ _ _ _ _ _ _
 72
    65
 73
     2
 40
3.75
 49
3.0
 74
     0
 49
-0.75
 74
     0
  0
LTYPE
  5
228
330
D
100
AcDbSymbolTableRecord
100
AcDbLinetypeTableRecord
  2
Amzigzag
 70
     0
  3
/\/-/\/-/\/-/\/-/\/-/\/
 72
    65
 73
     2
 40
11.0001
 49
0.0001
 74
     4
 75
   136
340
229
 46
0.04
 50
0.0
 44
0.0
 45
0.0
 49
-11.0
 74
     0
  0
LTYPE
  5
240
330
D
100
AcDbSymbolTableRecord
100
AcDbLinetypeTableRecord
  2
ACDINWELD
 70
     0
  3
_ _ _ _ _
 72
    65
 73
     2
 40
2.0
 49
2.0
 74
     0
 49
-1.0
 74
     0
  0
LTYPE
  5
243
330
D
100
AcDbSymbolTableRecord
100
AcDbLinetypeTableRecord
  2
ACDINTGB
 70
     0
  3
__ . . __ . .
 72
    65
 73
     6
 40
9.0
 49
4.0
 74
     0
 49
-1.0
 74
     0
 49
1.0
 74
     0
 49
-1.0
 74
     0
 49
1.0
 74
     0
 49
-1.0
 74
     0
  0
LTYPE
  5
244
330
D
100
AcDbSymbolTableRecord
100
AcDbLinetypeTableRecord
  2
ACDINTGL
 70
     0
  3
_ _ _ _ _
 72
    65
 73
     2
 40
3.0
 49
2.0
 74
     0
 49
-1.0
 74
     0
  0
LTYPE
  5
254
330
D
100
AcDbSymbolTableRecord
100
AcDbLinetypeTableRecord
  2
DASHED
 70
     0
  3
Dashed line
 72
    65
 73
     2
 40
0.75
 49
0.5
 74
     0
 49
-0.25
 74
     0
  0
LTYPE
  5
255
330
D
100
AcDbSymbolTableRecord
100
AcDbLinetypeTableRecord
  2
CENTER2
 70
     0
  3
Center (.5x) ___ _ ___ _ ___ _ ___ _ ___ _ ___
 72
    65
 73
     4
 40
1.125
 49
0.75
 74
     0
 49
-0.125
 74
     0
 49
0.125
 74
     0
 49
-0.125
 74
     0
  0
LTYPE
  5
256
330
D
100
AcDbSymbolTableRecord
100
AcDbLinetypeTableRecord
  2
HIDDEN2
 70
     0
  3
Hidden (.5x) _ _ _ _ _ _ _ _ _ _ _ _ _ _ _ _ _
 72
    65
 73
     2
 40
0.1875
 49
0.125
 74
     0
 49
-0.0625
 74
     0
  0
LTYPE
  5
26A
330
D
100
AcDbSymbolTableRecord
100
AcDbLinetypeTableRecord
  2
ACISOWELD
 70
     0
  3
_ _ _ _ _
 72
    65
 73
     2
 40
2.0
 49
2.0
 74
     0
 49
-1.0
 74
     0
  0
LTYPE
  5
26D
330
D
100
AcDbSymbolTableRecord
100
AcDbLinetypeTableRecord
  2
ACISOTGB
 70
     0
  3
__ . . __ . .
 72
    65
 73
     6
 40
9.0
 49
4.0
 74
     0
 49
-1.0
 74
     0
 49
1.0
 74
     0
 49
-1.0
 74
     0
 49
1.0
 74
     0
 49
-1.0
 74
     0
  0
LTYPE
  5
26E
330
D
100
AcDbSymbolTableRecord
100
AcDbLinetypeTableRecord
  2
ACISOTGL
 70
     0
  3
_ _ _ _ _
 72
    65
 73
     2
 40
3.0
 49
2.0
 74
     0
 49
-1.0
 74
     0
  0
ENDTAB
  0
TABLE
  2
LAYER
  5
A
102
{ACAD_XDICTIONARY
360
290
102
}
330
0
100
AcDbSymbolTable
 70
    22
  0
LAYER
  5
4
102
{ACAD_XDICTIONARY
360
296
102
}
330
A
100
AcDbSymbolTableRecord
100
AcDbLayerTableRecord
  2
0
 70
     0
 62
    -7
  6
CONTINUOUS
370
    -3
390
2F
  0
LAYER
  5
1CE
330
A
100
AcDbSymbolTableRecord
100
AcDbLayerTableRecord
  2
Defpoints
 70
     0
 62
     7
  6
CONTINUOUS
290
     0
370
    -3
390
2F
  0
LAYER
  5
28C
102
{ACAD_XDICTIONARY
360
28D
102
}
330
A
100
AcDbSymbolTableRecord
100
AcDbLayerTableRecord
  2
AM_2 ( Kontur 0.25)
 70
     0
 62
     5
  6
CONTINUOUS
370
    25
390
2F
1001
AcAecLayerStandard
1000

1000

  0
LAYER
  5
28F
102
{ACAD_XDICTIONARY
360
29E
102
}
330
A
100
AcDbSymbolTableRecord
100
AcDbLayerTableRecord
  2
AM_0 ( Kontur 0.5 )
 70
     0
 62
     7
  6
CONTINUOUS
370
    50
390
2F
1001
AcAecLayerStandard
1000

1000

  0
LAYER
  5
294
102
{ACAD_XDICTIONARY
360
2A0
102
}
330
A
100
AcDbSymbolTableRecord
100
AcDbLayerTableRecord
  2
AM_7 (Mittellinie)
 70
     0
 62
     4
  6
AM_ISO08W050
370
    25
390
2F
1001
AcAecLayerStandard
1000

1000

  0
LAYER
  5
3AF
330
A
100
AcDbSymbolTableRecord
100
AcDbLayerTableRecord
  2
AM_5 ( Bemassung)
 70
     0
 62
     3
  6
CONTINUOUS
370
    25
390
2F
1001
AcAecLayerStandard
1000

1000

  0
LAYER
  5
72E
330
A
100
AcDbSymbolTableRecord
100
AcDbLayerTableRecord
  2
AM_3 ( Verdeckt )
 70
     0
 62
     6
  6
AM_ISO02W050
370
    25
390
2F
1001
AcAecLayerStandard
1000

1000

  0
LAYER
  5
B09
330
A
100
AcDbSymbolTableRecord
100
AcDbLayerTableRecord
  2
AM_0
 70
     0
 62
     7
  6
CONTINUOUS
370
    30
390
2F
1001
AcAecLayerStandard
1000

1000

  0
LAYER
  5
CC4
330
A
100
AcDbSymbolTableRecord
100
AcDbLayerTableRecord
  2
AM_12 ( Teile Referenz)
 70
     0
 62
     7
  6
CONTINUOUS
290
     0
370
    50
390
2F
1001
AcAecLayerStandard
1000

1000

  0
LAYER
  5
CC5
330
A
100
AcDbSymbolTableRecord
100
AcDbLayerTableRecord
  2
AM_PAREF ( Teilereferenz)
 70
     0
 62
     4
  6
CONTINUOUS
290
     0
370
    25
390
2F
1001
AcAecLayerStandard
1000

1000

  0
ENDTAB
  0
TABLE
  2
STYLE
  5
B
330
0
100
AcDbSymbolTable
 70
    19
  0
STYLE
  5
C
330
B
100
AcDbSymbolTableRecord
100
AcDbTextStyleTableRecord
  2
STANDARD
 70
     0
 40
0.0
 41
1.0
 50
0.0
 71
     0
 42
3.5
  3
ARIAL.TTF
  4

1001
ACAD
1000
Arial
1071
       34
  0
STYLE
  5
168
330
B
100
AcDbSymbolTableRecord
100
AcDbTextStyleTableRecord
  2
ACANSTS
 70
     0
 40
1.0
 41
1.0
 50
0.0
 71
     0
 42
3.5
  3
romans.shx
  4

  0
STYLE
  5
176
330
B
100
AcDbSymbolTableRecord
100
AcDbTextStyleTableRecord
  2
ACANSGDT
 70
     0
 40
0.0
 41
1.0
 50
0.0
 71
     0
 42
3.5
  3
amgdt.shx
  4

  0
STYLE
  5
229
330
B
100
AcDbSymbolTableRecord
100
AcDbTextStyleTableRecord
  2

 70
     1
 40
0.0
 41
1.0
 50
0.0
 71
     0
 42
2.5
  3
genltshp.shx
  4

  0
STYLE
  5
23A
330
B
100
AcDbSymbolTableRecord
100
AcDbTextStyleTableRecord
  2
ACDINTS
 70
     0
 40
1.0
 41
1.0
 50
0.0
 71
     0
 42
3.5
  3
isocp.shx
  4

  0
STYLE
  5
23E
330
B
100
AcDbSymbolTableRecord
100
AcDbTextStyleTableRecord
  2
ACDINGDT
 70
     0
 40
0.0
 41
1.0
 50
0.0
 71
     0
 42
3.5
  3
amgdt.shx
  4

  0
STYLE
  5
264
330
B
100
AcDbSymbolTableRecord
100
AcDbTextStyleTableRecord
  2
ACISOTS
 70
     0
 40
1.0
 41
1.0
 50
0.0
 71
     0
 42
2.5
  3
ARIALN.TTF
  4

1001
ACAD
1000
Arial Narrow
1071
       34
  0
STYLE
  5
268
330
B
100
AcDbSymbolTableRecord
100
AcDbTextStyleTableRecord
  2
ACISOGDT
 70
     0
 40
0.0
 41
1.0
 50
0.0
 71
     0
 42
2.5
  3
amgdt.shx
  4

  0
ENDTAB
  0
TABLE
  2
VIEW
  5
10
330
0
100
AcDbSymbolTable
 70
     0
  0
ENDTAB
  0
TABLE
  2
UCS
  5
11
330
0
100
AcDbSymbolTable
 70
     0
  0
ENDTAB
  0
TABLE
  2
APPID
  5
14
330
0
100
AcDbSymbolTable
 70
    66
  0
APPID
  5
15
330
14
100
AcDbSymbolTableRecord
100
AcDbRegAppTableRecord
  2
ACAD
 70
     0
  0
APPID
  5
FC
330
14
100
AcDbSymbolTableRecord
100
AcDbRegAppTableRecord
  2
ACAD_MLEADERVER
 70
     0
  0
APPID
  5
104
330
14
100
AcDbSymbolTableRecord
100
AcDbRegAppTableRecord
  2
MCAD_NO_VIS
 70
     0
  0
APPID
  5
105
330
14
100
AcDbSymbolTableRecord
100
AcDbRegAppTableRecord
  2
ACAD_TEMP_GRAPHIC
 70
     0
  0
APPID
  5
135
330
14
100
AcDbSymbolTableRecord
100
AcDbRegAppTableRecord
  2
AD_DRAW
 70
     0
  0
APPID
  5
138
330
14
100
AcDbSymbolTableRecord
100
AcDbRegAppTableRecord
  2
ACATTRIBSERVICES
 70
     0
  0
APPID
  5
159
330
14
100
AcDbSymbolTableRecord
100
AcDbRegAppTableRecord
  2
DESIGNERASSEMBLIES
 70
     0
  0
APPID
  5
15F
330
14
100
AcDbSymbolTableRecord
100
AcDbRegAppTableRecord
  2
ACADM_DIM_EDIT
 70
     0
  0
APPID
  5
160
330
14
100
AcDbSymbolTableRecord
100
AcDbRegAppTableRecord
  2
AMDT_DM_ADJ
 70
     0
  0
APPID
  5
1CF
330
14
100
AcDbSymbolTableRecord
100
AcDbRegAppTableRecord
  2
AcadAnnotative
 70
     0
  0
APPID
  5
1D0
330
14
100
AcDbSymbolTableRecord
100
AcDbRegAppTableRecord
  2
ACAD_DSTYLE_DIMARC_LENGTH_SYMBOL
 70
     0
  0
APPID
  5
1D1
330
14
100
AcDbSymbolTableRecord
100
AcDbRegAppTableRecord
  2
AcAecLayerStandard
 70
     0
  0
APPID
  5
1D2
330
14
100
AcDbSymbolTableRecord
100
AcDbRegAppTableRecord
  2
ACAD_DSTYLE_DIMJOGGED_JOGANGLE_SYMBOL
 70
     0
  0
APPID
  5
1D3
330
14
100
AcDbSymbolTableRecord
100
AcDbRegAppTableRecord
  2
AcadAnnoPO
 70
     0
  0
APPID
  5
1D4
330
14
100
AcDbSymbolTableRecord
100
AcDbRegAppTableRecord
  2
ACAD_EXEMPT_FROM_CAD_STANDARDS
 70
     0
  0
APPID
  5
1D5
330
14
100
AcDbSymbolTableRecord
100
AcDbRegAppTableRecord
  2
GENIUS_GENODEF_13
 70
     0
  0
APPID
  5
1D6
330
14
100
AcDbSymbolTableRecord
100
AcDbRegAppTableRecord
  2
GENIUS_GENOBJ-N-CRS_13
 70
     0
  0
APPID
  5
1D7
330
14
100
AcDbSymbolTableRecord
100
AcDbRegAppTableRecord
  2
GENIUS_GENOENT_13
 70
     0
  0
APPID
  5
1D8
330
14
100
AcDbSymbolTableRecord
100
AcDbRegAppTableRecord
  2
GENIUS_GENOLIS_13
 70
     0
  0
APPID
  5
1D9
330
14
100
AcDbSymbolTableRecord
100
AcDbRegAppTableRecord
  2
GENIUS_GENOREF_13
 70
     0
  0
APPID
  5
1DA
330
14
100
AcDbSymbolTableRecord
100
AcDbRegAppTableRecord
  2
GEVID1190879659
 70
     0
  0
APPID
  5
1DB
330
14
100
AcDbSymbolTableRecord
100
AcDbRegAppTableRecord
  2
GEVDC
 70
     0
  0
APPID
  5
1DC
330
14
100
AcDbSymbolTableRecord
100
AcDbRegAppTableRecord
  2
GENIUS_GENBH_13
 70
     0
  0
APPID
  5
1DD
330
14
100
AcDbSymbolTableRecord
100
AcDbRegAppTableRecord
  2
GENIUS_GENOBJ-NBEHI-BHF_13
 70
     0
  0
APPID
  5
1DE
330
14
100
AcDbSymbolTableRecord
100
AcDbRegAppTableRecord
  2
GENIUS_GENOBJ-NBEHI-BHB_13
 70
     0
  0
APPID
  5
1DF
330
14
100
AcDbSymbolTableRecord
100
AcDbRegAppTableRecord
  2
GEVID1190879660
 70
     0
  0
APPID
  5
1E0
330
14
100
AcDbSymbolTableRecord
100
AcDbRegAppTableRecord
  2
GEVID1190879661
 70
     0
  0
APPID
  5
1E1
330
14
100
AcDbSymbolTableRecord
100
AcDbRegAppTableRecord
  2
ACAD_DSTYLE_DIMRADIAL_EXTENSION
 70
     0
  0
APPID
  5
1E2
330
14
100
AcDbSymbolTableRecord
100
AcDbRegAppTableRecord
  2
GEVID1190879662
 70
     0
  0
APPID
  5
1E3
330
14
100
AcDbSymbolTableRecord
100
AcDbRegAppTableRecord
  2
GEVID1190879663
 70
     0
  0
APPID
  5
1E4
330
14
100
AcDbSymbolTableRecord
100
AcDbRegAppTableRecord
  2
GEVID1190879664
 70
     0
  0
APPID
  5
1E5
330
14
100
AcDbSymbolTableRecord
100
AcDbRegAppTableRecord
  2
GEVID1190879665
 70
     0
  0
APPID
  5
1E6
330
14
100
AcDbSymbolTableRecord
100
AcDbRegAppTableRecord
  2
GEVID1190879666
 70
     0
  0
APPID
  5
1E7
330
14
100
AcDbSymbolTableRecord
100
AcDbRegAppTableRecord
  2
GENIUS_GENOBJ-N-CEN_13
 70
     0
  0
APPID
  5
1E8
330
14
100
AcDbSymbolTableRecord
100
AcDbRegAppTableRecord
  2
GENIUS_GENCEN_19
 70
     0
  0
APPID
  5
1E9
330
14
100
AcDbSymbolTableRecord
100
AcDbRegAppTableRecord
  2
GEVID1190879667
 70
     0
  0
APPID
  5
1EA
330
14
100
AcDbSymbolTableRecord
100
AcDbRegAppTableRecord
  2
GENIUS_GENOBJ-N-CRC_13
 70
     0
  0
APPID
  5
1EB
330
14
100
AcDbSymbolTableRecord
100
AcDbRegAppTableRecord
  2
GENIUS_GENCRC_14
 70
     0
  0
APPID
  5
1EC
330
14
100
AcDbSymbolTableRecord
100
AcDbRegAppTableRecord
  2
ACAD_PSEXT
 70
     0
  0
APPID
  5
1ED
330
14
100
AcDbSymbolTableRecord
100
AcDbRegAppTableRecord
  2
GEVID1190888456
 70
     0
  0
APPID
  5
1EE
330
14
100
AcDbSymbolTableRecord
100
AcDbRegAppTableRecord
  2
GEVID1190888457
 70
     0
  0
APPID
  5
1EF
330
14
100
AcDbSymbolTableRecord
100
AcDbRegAppTableRecord
  2
GEVID1190888458
 70
     0
  0
APPID
  5
1F0
330
14
100
AcDbSymbolTableRecord
100
AcDbRegAppTableRecord
  2
GEVID1190888459
 70
     0
  0
APPID
  5
1F1
330
14
100
AcDbSymbolTableRecord
100
AcDbRegAppTableRecord
  2
GEVID1190888460
 70
     0
  0
APPID
  5
1F2
330
14
100
AcDbSymbolTableRecord
100
AcDbRegAppTableRecord
  2
GEVID1190888461
 70
     0
  0
APPID
  5
1F3
330
14
100
AcDbSymbolTableRecord
100
AcDbRegAppTableRecord
  2
GEVID1190888462
 70
     0
  0
APPID
  5
1F4
330
14
100
AcDbSymbolTableRecord
100
AcDbRegAppTableRecord
  2
ACAD_DSTYLE_DIMJAG
 70
     0
  0
APPID
  5
1F5
330
14
100
AcDbSymbolTableRecord
100
AcDbRegAppTableRecord
  2
ACAD_DSTYLE_DIMTALN
 70
     0
  0
APPID
  5
1F6
330
14
100
AcDbSymbolTableRecord
100
AcDbRegAppTableRecord
  2
GENIUS_GENBLLY_14
 70
     0
  0
APPID
  5
1F7
330
14
100
AcDbSymbolTableRecord
100
AcDbRegAppTableRecord
  2
DCO15
 70
     0
  0
APPID
  5
1F8
330
14
100
AcDbSymbolTableRecord
100
AcDbRegAppTableRecord
  2
GENIUS_GENREC_14
 70
     0
  0
APPID
  5
1F9
330
14
100
AcDbSymbolTableRecord
100
AcDbRegAppTableRecord
  2
GENIUS_GENOBJ-N-REC_13
 70
     0
  0
APPID
  5
1FA
330
14
100
AcDbSymbolTableRecord
100
AcDbRegAppTableRecord
  2
GENIUS_GENOBJ-N-TIT_13
 70
     0
  0
APPID
  5
1FB
330
14
100
AcDbSymbolTableRecord
100
AcDbRegAppTableRecord
  2
GENIUS_GENTITLE_13
 70
     0
  0
APPID
  5
1FC
330
14
100
AcDbSymbolTableRecord
100
AcDbRegAppTableRecord
  2
GENIUS_GENSCREG_15
 70
     0
  0
APPID
  5
1FD
330
14
100
AcDbSymbolTableRecord
100
AcDbRegAppTableRecord
  2
GENIUS_GENOBJ-N-SDF_13
 70
     0
  0
APPID
  5
1FE
330
14
100
AcDbSymbolTableRecord
100
AcDbRegAppTableRecord
  2
ACAD_DSTYLE_DIMINSPECT
 70
     0
  0
APPID
  5
1FF
330
14
100
AcDbSymbolTableRecord
100
AcDbRegAppTableRecord
  2
GENIUS_GENDIMSH_14
 70
     0
  0
APPID
  5
200
330
14
100
AcDbSymbolTableRecord
100
AcDbRegAppTableRecord
  2
GENIUS_GENOBJ-N-HTC_13
 70
     0
  0
APPID
  5
201
330
14
100
AcDbSymbolTableRecord
100
AcDbRegAppTableRecord
  2
GENIUS_GENHATCH_13
 70
     0
  0
APPID
  5
202
330
14
100
AcDbSymbolTableRecord
100
AcDbRegAppTableRecord
  2
ACAUTHENVIRON
 70
     0
  0
APPID
  5
203
330
14
100
AcDbSymbolTableRecord
100
AcDbRegAppTableRecord
  2
AcDbDynamicBlockTrueName
 70
     0
  0
APPID
  5
204
330
14
100
AcDbSymbolTableRecord
100
AcDbRegAppTableRecord
  2
AcDbDynamicBlockGUID
 70
     0
  0
APPID
  5
205
330
14
100
AcDbSymbolTableRecord
100
AcDbRegAppTableRecord
  2
ACDBBLOCKREPETAG
 70
     0
  0
APPID
  5
898
330
14
100
AcDbSymbolTableRecord
100
AcDbRegAppTableRecord
  2
GENIUS_GENDTOL_13
 70
     0
  0
APPID
  5
C6C
330
14
100
AcDbSymbolTableRecord
100
AcDbRegAppTableRecord
  2
GENIUS_GENTRA_14
 70
     0
  0
ENDTAB
  0
TABLE
  2
DIMSTYLE
  5
16
330
0
100
AcDbSymbolTable
 70
    31
100
AcDbDimStyleTable
 71
     2
340
258
340
183
  0
DIMSTYLE
105
183
330
16
100
AcDbSymbolTableRecord
100
AcDbDimStyleTableRecord
  2
AM_ANSI
 70
     0
  4
mm
 41
0.1
 42
0.05
 43
0.5
 44
0.1
 47
0.1
 48
0.1
 78
     7
 79
     2
140
0.12
141
0.0
146
0.71
147
0.06
176
   256
177
   256
178
     2
274
     4
284
     7
340
C
371
    -1
372
    -1
1001
ACAD_DSTYLE_DIMARC_LENGTH_SYMBOL
1070
   379
1070
     1
  0
DIMSTYLE
105
184
330
16
100
AcDbSymbolTableRecord
100
AcDbDimStyleTableRecord
  2
AM_ANSI$3
 70
     0
  4
mm
 41
0.1
 42
0.05
 43
0.5
 44
0.1
 47
0.1
 48
0.1
 78
     7
 79
     2
140
0.12
141
0.0
146
0.71
147
0.06
176
   256
177
   256
178
     2
274
     4
284
     7
288
     1
289
     0
340
C
371
    -1
372
    -1
1001
ACAD_DSTYLE_DIMARC_LENGTH_SYMBOL
1070
   379
1070
     1
  0
DIMSTYLE
105
185
330
16
100
AcDbSymbolTableRecord
100
AcDbDimStyleTableRecord
  2
AM_ANSI$4
 70
     0
  4
mm
 41
0.1
 42
0.05
 43
0.5
 44
0.1
 47
0.1
 48
0.1
 78
     7
 79
     2
140
0.12
141
0.0
146
0.71
147
0.06
176
   256
177
   256
178
     2
274
     4
284
     7
288
     1
289
     0
340
C
371
    -1
372
    -1
1001
ACAD_DSTYLE_DIMARC_LENGTH_SYMBOL
1070
   379
1070
     1
  0
DIMSTYLE
105
186
330
16
100
AcDbSymbolTableRecord
100
AcDbDimStyleTableRecord
  2
AM_ANSI$7
 70
     0
  4
mm
 41
0.1
 42
0.05
 43
0.5
 44
0.1
 47
0.1
 48
0.1
 78
     7
 79
     2
140
0.24
141
0.0
146
0.71
147
0.06
176
   256
177
   256
178
     2
274
     4
284
     7
340
C
371
    -1
372
    -1
1001
ACAD_DSTYLE_DIMARC_LENGTH_SYMBOL
1070
   379
1070
     1
  0
DIMSTYLE
105
187
330
16
100
AcDbSymbolTableRecord
100
AcDbDimStyleTableRecord
  2
AM_ANSI$SF
 70
     0
  4
mm
 41
0.1
 42
0.05
 43
0.5
 44
0.1
 47
0.1
 48
0.1
 75
     1
 76
     1
 78
     7
 79
     2
140
0.12
141
0.0
146
0.71
147
0.06
176
   256
177
   256
178
     2
274
     4
284
     7
340
C
371
    -1
372
    -1
1001
ACAD_DSTYLE_DIMARC_LENGTH_SYMBOL
1070
   379
1070
     1
  0
DIMSTYLE
105
18C
330
16
100
AcDbSymbolTableRecord
100
AcDbDimStyleTableRecord
  2
AM_ANSI$SH
 70
     0
  4
mm
 41
0.1
 42
0.05
 43
0.5
 44
0.1
 47
0.1
 48
0.1
 75
     1
 76
     1
 78
     7
 79
     2
140
0.12
141
0.0
146
0.71
147
0.06
173
     1
176
   256
177
   256
178
     2
274
     4
284
     7
340
C
343
188
371
    -1
372
    -1
1001
ACAD_DSTYLE_DIMARC_LENGTH_SYMBOL
1070
   379
1070
     1
  0
DIMSTYLE
105
258
330
16
100
AcDbSymbolTableRecord
100
AcDbDimStyleTableRecord
  2
AM_DIN
 70
     0
  4
"
 41
5.0
 42
1.0
 43
10.0
 44
1.0
 47
0.1
 48
0.1
 73
     0
 74
     0
 77
     1
 78
     8
 79
     2
140
5.0
141
0.0
143
0.0393701
146
0.71
147
1.5
172
     1
176
   256
177
   256
178
     2
271
     2
272
     2
283
     0
284
     8
340
C
371
    -1
372
    -1
1001
ACAD_DSTYLE_DIMJOGGED_JOGANGLE_SYMBOL
1070
   384
1040
1.570796326794896
  0
DIMSTYLE
105
259
102
{ACAD_REACTORS
330
41B
330
76C
330
78F
330
7EA
330
82C
330
84D
330
86E
330
80B
102
}
330
16
100
AcDbSymbolTableRecord
100
AcDbDimStyleTableRecord
  2
AM_DIN$0
 70
     0
  4
"
 41
4.0
 42
0.0
 43
10.0
 44
1.0
 47
0.1
 48
0.1
 73
     0
 74
     0
 77
     1
 78
     8
 79
     2
140
3.5
141
0.0
143
0.0393701
146
0.71
147
1.5
172
     1
176
   256
177
   256
178
     2
271
     2
272
     2
283
     0
284
     8
340
C
371
    -1
372
    -1
1001
ACAD_DSTYLE_DIMJOGGED_JOGANGLE_SYMBOL
1070
   384
1040
1.570796326794896
  0
DIMSTYLE
105
25A
102
{ACAD_REACTORS
330
732
102
}
330
16
100
AcDbSymbolTableRecord
100
AcDbDimStyleTableRecord
  2
AM_DIN$2
 70
     0
  4
"
 41
4.0
 42
0.0
 43
10.0
 44
1.0
 47
0.1
 48
0.1
 73
     0
 74
     0
 77
     1
 78
     8
 79
     2
140
3.5
141
0.0
143
0.0393701
146
0.71
147
1.5
172
     1
176
   256
177
   256
178
     2
271
     2
272
     2
283
     0
284
     8
340
C
371
    -1
372
    -1
1001
ACAD_DSTYLE_DIMJOGGED_JOGANGLE_SYMBOL
1070
   384
1040
1.570796326794896
  0
DIMSTYLE
105
25B
330
16
100
AcDbSymbolTableRecord
100
AcDbDimStyleTableRecord
  2
AM_DIN$3
 70
     0
  4
"
 41
3.5
 42
1.0
 43
10.0
 44
1.0
 47
0.1
 48
0.1
 73
     0
 77
     1
 78
     8
 79
     2
140
3.5
141
0.0
143
0.0393701
146
0.71
147
1.5
176
   256
177
   256
178
     2
271
     2
272
     2
283
     0
284
     8
288
     1
289
     0
340
C
371
    -1
372
    -1
1001
ACAD_DSTYLE_DIMJOGGED_JOGANGLE_SYMBOL
1070
   384
1040
1.570796326794896
  0
DIMSTYLE
105
25C
330
16
100
AcDbSymbolTableRecord
100
AcDbDimStyleTableRecord
  2
AM_DIN$4
 70
     0
  4
"
 41
4.0
 42
1.0
 43
10.0
 44
1.0
 47
0.1
 48
0.1
 73
     0
 77
     1
 78
     8
 79
     2
140
3.5
141
0.0
143
0.0393701
146
0.71
147
1.5
176
   256
177
   256
178
     2
271
     2
272
     2
283
     0
284
     8
288
     1
289
     0
340
C
371
    -1
372
    -1
1001
ACAD_DSTYLE_DIMJOGGED_JOGANGLE_SYMBOL
1070
   384
1040
1.570796326794896
  0
DIMSTYLE
105
25D
330
16
100
AcDbSymbolTableRecord
100
AcDbDimStyleTableRecord
  2
AM_DIN$6
 70
     0
  4
"
 41
4.0
 42
0.0
 43
10.0
 44
1.0
 47
0.1
 48
0.1
 73
     0
 74
     0
 78
     8
 79
     2
140
3.5
141
0.0
143
0.0393701
146
0.71
147
1.5
172
     1
176
   256
177
   256
178
     2
271
     2
272
     2
283
     0
284
     8
340
C
371
    -1
372
    -1
1001
ACAD_DSTYLE_DIMJOGGED_JOGANGLE_SYMBOL
1070
   384
1040
1.570796326794896
  0
DIMSTYLE
105
25E
330
16
100
AcDbSymbolTableRecord
100
AcDbDimStyleTableRecord
  2
AM_DIN$7
 70
     0
  4
"
 41
5.0
 42
1.0
 43
10.0
 44
1.0
 47
0.1
 48
0.1
 73
     0
 74
     0
 77
     1
 78
     8
 79
     2
140
5.0
141
0.0
143
0.0393701
146
0.71
147
1.5
172
     1
176
   256
177
   256
178
     2
271
     2
272
     2
283
     0
284
     8
340
C
371
    -1
372
    -1
1001
ACAD_DSTYLE_DIMJOGGED_JOGANGLE_SYMBOL
1070
   384
1040
1.570796326794896
  0
DIMSTYLE
105
25F
330
16
100
AcDbSymbolTableRecord
100
AcDbDimStyleTableRecord
  2
AM_DIN$SF
 70
     0
  4
"
 41
4.0
 42
1.0
 43
10.0
 44
1.0
 47
0.1
 48
0.1
 73
     0
 74
     0
 75
     1
 76
     1
 77
     1
 78
     8
 79
     2
140
3.5
141
0.0
143
0.0393701
146
0.71
147
1.5
172
     1
176
   256
177
   256
178
     2
271
     2
272
     2
283
     0
284
     8
340
C
371
    -1
372
    -1
1001
ACAD_DSTYLE_DIMJOGGED_JOGANGLE_SYMBOL
1070
   384
1040
1.570796326794896
  0
DIMSTYLE
105
260
330
16
100
AcDbSymbolTableRecord
100
AcDbDimStyleTableRecord
  2
AM_DIN$SH
 70
     0
  4
"
 41
4.0
 42
1.0
 43
10.0
 44
1.0
 47
0.1
 48
0.1
 73
     0
 74
     0
 75
     1
 76
     1
 77
     1
 78
     8
 79
     2
140
3.5
141
0.0
143
0.0393701
144
2.0
146
0.71
147
1.5
172
     1
173
     1
176
   256
177
   256
178
     2
271
     2
272
     2
283
     0
284
     8
340
C
343
188
371
    -1
372
    -1
1001
ACAD_DSTYLE_DIMJOGGED_JOGANGLE_SYMBOL
1070
   384
1040
1.570796326794896
  0
DIMSTYLE
105
27C
330
16
100
AcDbSymbolTableRecord
100
AcDbDimStyleTableRecord
  2
AM_ISO
 70
     0
  4
"
 41
2.5
 42
1.0
 43
10.0
 44
1.0
 47
0.1
 48
0.1
 73
     0
 74
     0
 77
     1
 78
     8
 79
     2
140
3.5
141
0.0
143
0.0393701
146
0.71
147
1.5
172
     1
176
   256
177
   256
178
     2
271
     2
272
     3
274
     4
283
     0
284
     8
340
C
371
    -1
372
    -1
1001
ACAD_DSTYLE_DIMJOGGED_JOGANGLE_SYMBOL
1070
   384
1040
0.7853981633974483
1001
ACAD_DSTYLE_DIMARC_LENGTH_SYMBOL
1070
   379
1070
     1
  0
DIMSTYLE
105
27D
330
16
100
AcDbSymbolTableRecord
100
AcDbDimStyleTableRecord
  2
AM_ISO$3
 70
     0
  4
"
 41
2.5
 42
1.0
 43
10.0
 44
1.0
 47
0.1
 48
0.1
 73
     0
 77
     1
 78
     8
 79
     2
140
3.5
141
0.0
143
0.0393701
146
0.71
147
1.5
176
   256
177
   256
178
     2
271
     2
272
     3
274
     4
283
     0
284
     8
288
     1
289
     0
340
C
371
    -1
372
    -1
1001
ACAD_DSTYLE_DIMJOGGED_JOGANGLE_SYMBOL
1070
   384
1040
0.7853981633974483
1001
ACAD_DSTYLE_DIMARC_LENGTH_SYMBOL
1070
   379
1070
     1
  0
DIMSTYLE
105
27E
330
16
100
AcDbSymbolTableRecord
100
AcDbDimStyleTableRecord
  2
AM_ISO$4
 70
     0
  4
"
 41
2.5
 42
1.0
 43
10.0
 44
1.0
 47
0.1
 48
0.1
 73
     0
 77
     1
 78
     8
 79
     2
140
3.5
141
0.0
143
0.0393701
146
0.71
147
1.5
176
   256
177
   256
178
     2
271
     2
272
     3
274
     4
283
     0
284
     8
288
     1
289
     0
340
C
371
    -1
372
    -1
1001
ACAD_DSTYLE_DIMJOGGED_JOGANGLE_SYMBOL
1070
   384
1040
0.7853981633974483
1001
ACAD_DSTYLE_DIMARC_LENGTH_SYMBOL
1070
   379
1070
     1
  0
DIMSTYLE
105
27F
330
16
100
AcDbSymbolTableRecord
100
AcDbDimStyleTableRecord
  2
AM_ISO$6
 70
     0
  4
"
 41
2.5
 42
1.0
 43
10.0
 44
1.0
 47
0.1
 48
0.1
 73
     0
 74
     0
 78
     8
 79
     2
140
3.5
141
0.0
143
0.0393701
146
0.71
147
1.5
172
     1
176
   256
177
   256
178
     2
271
     2
272
     3
274
     4
283
     0
284
     8
340
C
371
    -1
372
    -1
1001
ACAD_DSTYLE_DIMJOGGED_JOGANGLE_SYMBOL
1070
   384
1040
0.7853981633974483
1001
ACAD_DSTYLE_DIMARC_LENGTH_SYMBOL
1070
   379
1070
     1
  0
DIMSTYLE
105
280
330
16
100
AcDbSymbolTableRecord
100
AcDbDimStyleTableRecord
  2
AM_ISO$7
 70
     0
  4
"
 41
2.5
 42
1.0
 43
10.0
 44
1.0
 47
0.1
 48
0.1
 73
     0
 74
     0
 77
     1
 78
     8
 79
     2
140
5.0
141
0.0
143
0.0393701
146
0.71
147
1.5
172
     1
176
   256
177
   256
178
     2
271
     2
272
     3
274
     4
283
     0
284
     8
340
C
371
    -1
372
    -1
1001
ACAD_DSTYLE_DIMJOGGED_JOGANGLE_SYMBOL
1070
   384
1040
0.7853981633974483
1001
ACAD_DSTYLE_DIMARC_LENGTH_SYMBOL
1070
   379
1070
     1
  0
DIMSTYLE
105
281
330
16
100
AcDbSymbolTableRecord
100
AcDbDimStyleTableRecord
  2
AM_ISO$SF
 70
     0
  4
"
 41
2.5
 42
1.0
 43
10.0
 44
1.0
 47
0.1
 48
0.1
 73
     0
 74
     0
 75
     1
 76
     1
 77
     1
 78
     8
 79
     2
140
3.5
141
0.0
143
0.0393701
146
0.71
147
1.5
172
     1
176
   256
177
   256
178
     2
271
     2
272
     3
274
     4
283
     0
284
     8
340
C
371
    -1
372
    -1
1001
ACAD_DSTYLE_DIMJOGGED_JOGANGLE_SYMBOL
1070
   384
1040
0.7853981633974483
1001
ACAD_DSTYLE_DIMARC_LENGTH_SYMBOL
1070
   379
1070
     1
  0
DIMSTYLE
105
282
330
16
100
AcDbSymbolTableRecord
100
AcDbDimStyleTableRecord
  2
AM_ISO$SH
 70
     0
  4
"
 41
2.5
 42
1.0
 43
10.0
 44
1.0
 47
0.1
 48
0.1
 73
     0
 74
     0
 75
     1
 76
     1
 77
     1
 78
     8
 79
     2
140
3.5
141
0.0
143
0.0393701
144
2.0
146
0.71
147
1.5
172
     1
173
     1
176
   256
177
   256
178
     2
271
     2
272
     3
274
     4
283
     0
284
     8
340
C
343
188
371
    -1
372
    -1
1001
ACAD_DSTYLE_DIMJOGGED_JOGANGLE_SYMBOL
1070
   384
1040
0.7853981633974483
1001
ACAD_DSTYLE_DIMARC_LENGTH_SYMBOL
1070
   379
1070
     1
  0
ENDTAB
  0
TABLE
  2
BLOCK_RECORD
  5
1
330
0
100
AcDbSymbolTable
 70
    26
  0
BLOCK_RECORD
  5
2
102
{ACAD_XDICTIONARY
360
58
102
}
330
1
100
AcDbSymbolTableRecord
100
AcDbBlockTableRecord
  2
*MODEL_SPACE
340
62
  0
BLOCK_RECORD
  5
7
102
{ACAD_XDICTIONARY
360
5A
102
}
330
1
100
AcDbSymbolTableRecord
100
AcDbBlockTableRecord
  2
*PAPER_SPACE
340
63
  0
BLOCK_RECORD
  5
188
330
1
100
AcDbSymbolTableRecord
100
AcDbBlockTableRecord
  2
GENAXEH
340
0
310
2800000020000000200000000100080000000000000400000000000000000000000000000000000000000000000080000080000000808000800000008000800080800000C0C0C000C0DCC000F0CAA6000020400000206000002080000020A0000020C0000020E00000400000004020000040400000406000004080000040A0
310
000040C0000040E00000600000006020000060400000606000006080000060A0000060C0000060E00000800000008020000080400000806000008080000080A0000080C0000080E00000A0000000A0200000A0400000A0600000A0800000A0A00000A0C00000A0E00000C0000000C0200000C0400000C0600000C0800000C0
310
A00000C0C00000C0E00000E0000000E0200000E0400000E0600000E0800000E0A00000E0C00000E0E00040000000400020004000400040006000400080004000A0004000C0004000E00040200000402020004020400040206000402080004020A0004020C0004020E000404000004040200040404000404060004040800040
310
40A0004040C0004040E00040600000406020004060400040606000406080004060A0004060C0004060E00040800000408020004080400040806000408080004080A0004080C0004080E00040A0000040A0200040A0400040A0600040A0800040A0A00040A0C00040A0E00040C0000040C0200040C0400040C0600040C08000
310
40C0A00040C0C00040C0E00040E0000040E0200040E0400040E0600040E0800040E0A00040E0C00040E0E00080000000800020008000400080006000800080008000A0008000C0008000E00080200000802020008020400080206000802080008020A0008020C0008020E00080400000804020008040400080406000804080
310
008040A0008040C0008040E00080600000806020008060400080606000806080008060A0008060C0008060E00080800000808020008080400080806000808080008080A0008080C0008080E00080A0000080A0200080A0400080A0600080A0800080A0A00080A0C00080A0E00080C0000080C0200080C0400080C0600080C0
310
800080C0A00080C0C00080C0E00080E0000080E0200080E0400080E0600080E0800080E0A00080E0C00080E0E000C0000000C0002000C0004000C0006000C0008000C000A000C000C000C000E000C0200000C0202000C0204000C0206000C0208000C020A000C020C000C020E000C0400000C0402000C0404000C0406000C0
310
408000C040A000C040C000C040E000C0600000C0602000C0604000C0606000C0608000C060A000C060C000C060E000C0800000C0802000C0804000C0806000C0808000C080A000C080C000C080E000C0A00000C0A02000C0A04000C0A06000C0A08000C0A0A000C0A0C000C0A0E000C0C00000C0C02000C0C04000C0C06000
310
C0C08000C0C0A000F0FBFF00A4A0A000808080000000FF0000FF000000FFFF00FF000000FF00FF00FFFF0000FFFFFF0000000000000000000000000000000000000000000000000000000000000000000000000000000000000000000000000000000000000000000000000000000000000000000000000000000000000000
310
00000000000000000000000000000000000000000000000000000000000000000000000000000000000000000000000000000000000000000000000000000000000000000000000000000000000000000000000000000000000000000000000000000000000000000000000000000000000000000000000000000000000000
310
00000000000000000000000000000000000000000000000000000000000000000000000000000000000000000000000000000000000000000000000000000000000000000000000000000000000000000000000000000000000000000000000000000000000000000000000000000000000000000000000000000000000000
310
00000000000000000000000000000000000000000000000000000000000000000000000000000000000000000000000000000000000000000000000000000000000000000000000000000000000000000000000000000000000000000000000000000000000000000000000000000000000000000000000000000000000000
310
0000000000000000000000000000000000000000000000000000000000000000000000000000000000000000000000000000000000FFFFFFFFFFFFFFFFFFFFFFFFFFFFFFFFFFFFFFFFFFFFFFFFFFFFFFFFFFFF0000000000000000000000000000000000000000000000000000000000000000000000000000000000000000
310
00000000000000000000000000000000000000000000000000000000000000000000000000000000000000000000000000000000000000000000000000000000000000000000000000000000000000000000000000000000000000000000000000000000000000000000000000000000000000000000000000000000000000
310
00000000000000000000000000000000000000000000000000000000000000000000000000000000000000000000000000000000000000000000000000000000000000000000000000000000000000000000000000000000000000000000000000000000000000000000000000000000000000000000000000000000000000
310
00000000000000000000000000000000000000000000000000000000000000000000000000000000000000000000000000000000000000000000000000000000000000000000000000000000000000000000000000000000000000000000000000000000000000000000000000000000000000000000000000000000000000
310
0000000000000000000000000000000000000000000000000000000000000000000000000000000000000000000000000000000000000000
  0
BLOCK_RECORD
  5
41C
330
1
100
AcDbSymbolTableRecord
100
AcDbBlockTableRecord
  2
*D5
340
0
  0
BLOCK_RECORD
  5
733
330
1
100
AcDbSymbolTableRecord
100
AcDbBlockTableRecord
  2
*D14
340
0
  0
BLOCK_RECORD
  5
76D
330
1
100
AcDbSymbolTableRecord
100
AcDbBlockTableRecord
  2
*D15
340
0
  0
BLOCK_RECORD
  5
790
330
1
100
AcDbSymbolTableRecord
100
AcDbBlockTableRecord
  2
*D16
340
0
  0
BLOCK_RECORD
  5
7EB
330
1
100
AcDbSymbolTableRecord
100
AcDbBlockTableRecord
  2
*D17
340
0
  0
BLOCK_RECORD
  5
80C
330
1
100
AcDbSymbolTableRecord
100
AcDbBlockTableRecord
  2
*D18
340
0
  0
BLOCK_RECORD
  5
82D
330
1
100
AcDbSymbolTableRecord
100
AcDbBlockTableRecord
  2
*D19
340
0
  0
BLOCK_RECORD
  5
84E
330
1
100
AcDbSymbolTableRecord
100
AcDbBlockTableRecord
  2
*D20
340
0
  0
BLOCK_RECORD
  5
86F
330
1
100
AcDbSymbolTableRecord
100
AcDbBlockTableRecord
  2
*D21
340
0
  0
BLOCK_RECORD
  5
CCE
330
1
100
AcDbSymbolTableRecord
100
AcDbBlockTableRecord
  2
*S24
340
0
  0
BLOCK_RECORD
  5
CD5
330
1
100
AcDbSymbolTableRecord
100
AcDbBlockTableRecord
  2
*S25
340
0
  0
ENDTAB
  0
ENDSEC
  0
SECTION
  2
BLOCKS
  0
BLOCK
  5
3
330
2
100
AcDbEntity
  8
0
 62
     7
100
AcDbBlockBegin
  2
*MODEL_SPACE
 70
     0
 10
0.0
 20
0.0
 30
0.0
  3
*MODEL_SPACE
  1

  0
ENDBLK
  5
6
330
2
100
AcDbEntity
  8
0
 62
     7
100
AcDbBlockEnd
  0
BLOCK
  5
8
330
7
100
AcDbEntity
 67
     1
  8
0
 62
     7
100
AcDbBlockBegin
  2
*PAPER_SPACE
 70
     0
 10
0.0
 20
0.0
 30
0.0
  3
*PAPER_SPACE
  1

  0
ENDBLK
  5
9
330
7
100
AcDbEntity
 67
     1
  8
0
 62
     7
100
AcDbBlockEnd
  0
BLOCK
  5
C17
330
188
100
AcDbEntity
  8
0
100
AcDbBlockBegin
  2
GENAXEH
 70
     0
 10
0.0
 20
0.0
 30
0.0
  3
GENAXEH
  1

  0
LINE
  5
C18
330
188
100
AcDbEntity
  8
0
100
AcDbLine
 10
-1.0
 20
0.0
 30
0.0
 11
1.0
 21
0.0
 31
0.0
  0
ENDBLK
  5
C19
330
188
100
AcDbEntity
  8
0
100
AcDbBlockEnd
  0
BLOCK
  5
41D
330
41C
100
AcDbEntity
  8
0
100
AcDbBlockBegin
  2
*D5
 70
     1
 10
0.0
 20
0.0
 30
0.0
  3
*D5
  1

  0
LINE
  5
C6D
330
41C
100
AcDbEntity
  8
AM_5 ( Bemassung)
100
AcDbLine
 10
730.8584384077715
 20
131.4912802845089
 30
0.0
 11
775.3703756747158
 21
131.4912802845089
 31
0.0
  0
LINE
  5
C6E
330
41C
100
AcDbEntity
  8
AM_5 ( Bemassung)
100
AcDbLine
 10
730.8584384077715
 20
90.49128028450892
 30
0.0
 11
775.3703756747158
 21
90.49128028450891
 31
0.0
  0
LINE
  5
C6F
330
41C
100
AcDbEntity
  8
AM_5 ( Bemassung)
100
AcDbLine
 10
774.3703756747158
 20
127.4912802845089
 30
0.0
 11
774.3703756747158
 21
94.49128028450891
 31
0.0
  0
SOLID
  5
C70
330
41C
100
AcDbEntity
  8
AM_5 ( Bemassung)
100
AcDbTrace
 10
773.7037090080491
 20
127.4912802845089
 30
0.0
 11
775.0370423413824
 21
127.4912802845089
 31
0.0
 12
774.3703756747158
 22
131.4912802845089
 32
0.0
 13
774.3703756747158
 23
131.4912802845089
 33
0.0
  0
SOLID
  5
C71
330
41C
100
AcDbEntity
  8
AM_5 ( Bemassung)
100
AcDbTrace
 10
773.7037090080491
 20
94.49128028450891
 30
0.0
 11
775.0370423413824
 21
94.49128028450891
 31
0.0
 12
774.3703756747158
 22
90.49128028450891
 32
0.0
 13
774.3703756747158
 23
90.49128028450891
 33
0.0
  0
MTEXT
  5
C72
330
41C
100
AcDbEntity
  8
AM_5 ( Bemassung)
 62
     2
100
AcDbMText
 10
769.8580973663938
 20
110.991280284509
 30
0.0
 40
6.0
 41
0.0
 71
     5
 72
     1
  1
41
 11
0.0000000000000001
 21
1.0
 31
0.0
 73
     1
 44
1.0
  0
POINT
  5
C73
330
41C
100
AcDbEntity
  8
Defpoints
 62
     0
100
AcDbPoint
 10
730.8584384077715
 20
131.4912802845089
 30
0.0
  0
POINT
  5
C74
330
41C
100
AcDbEntity
  8
Defpoints
 62
     0
100
AcDbPoint
 10
730.8584384077715
 20
90.49128028450892
 30
0.0
  0
POINT
  5
C75
330
41C
100
AcDbEntity
  8
Defpoints
 62
     0
100
AcDbPoint
 10
774.3703756747158
 20
90.49128028450891
 30
0.0
  0
ENDBLK
  5
41E
330
41C
100
AcDbEntity
  8
0
100
AcDbBlockEnd
  0
BLOCK
  5
734
330
733
100
AcDbEntity
  8
0
100
AcDbBlockBegin
  2
*D14
 70
     1
 10
0.0
 20
0.0
 30
0.0
  3
*D14
  1

  0
LINE
  5
C77
330
733
100
AcDbEntity
  8
AM_5 ( Bemassung)
100
AcDbLine
 10
737.0957891323039
 20
255.1749779934983
 30
0.0
 11
748.3054764561512
 21
307.91241049511
 31
0.0
  0
LINE
  5
C78
330
733
100
AcDbEntity
  8
AM_5 ( Bemassung)
100
AcDbLine
 10
730.8584384077712
 20
302.6087216684711
 30
0.0
 11
730.8584384077711
 21
309.7461680868361
 31
0.0
  0
ARC
  5
C79
330
733
100
AcDbEntity
  8
AM_5 ( Bemassung)
100
AcDbCircle
 10
730.8584384077712
 20
225.8305499714841
 30
0.0
 40
82.91561811535203
100
AcDbArc
 50
72.47135888506655
 51
75.23567944253335
  0
ARC
  5
C7A
330
733
100
AcDbEntity
  8
AM_5 ( Bemassung)
100
AcDbCircle
 10
730.8584384077712
 20
225.8305499714841
 30
0.0
 40
82.91561811535203
100
AcDbArc
 50
92.76432055746688
 51
95.5286411149337
  0
ARC
  5
C7B
330
733
100
AcDbEntity
  8
AM_5 ( Bemassung)
100
AcDbCircle
 10
730.8584384077712
 20
225.8305499714841
 30
0.0
 40
82.91561811535203
100
AcDbArc
 50
78.00000000000014
 51
90.0000000000001
  0
SOLID
  5
C7C
330
733
100
AcDbEntity
  8
AM_5 ( Bemassung)
100
AcDbTrace
 10
751.8346600481016
 20
305.3599175409173
 30
0.0
 11
752.1432533906953
 21
306.6570481922723
 31
0.0
 12
748.0975647653336
 22
306.9342628943762
 32
0.0
 13
748.0975647653336
 23
306.9342628943762
 33
0.0
  0
SOLID
  5
C7D
330
733
100
AcDbEntity
  8
AM_5 ( Bemassung)
100
AcDbTrace
 10
726.8435216081235
 20
309.3161571537061
 30
0.0
 11
726.8756828188492
 21
307.9832117556112
 31
0.0
 12
730.8584384077711
 22
308.7461680868361
 32
0.0
 13
730.8584384077711
 23
308.7461680868361
 33
0.0
  0
MTEXT
  5
C7E
330
733
100
AcDbEntity
  8
AM_5 ( Bemassung)
 62
     2
100
AcDbMText
 10
747.0221555956655
 20
311.751276922194
 30
0.0
 40
6.0
 41
0.0
 71
     5
 72
     1
  1
12\U+00B0
 11
0.9827610003829853
 21
-0.1848805455591089
 31
0.0
 73
     1
 44
1.0
  0
POINT
  5
C7F
330
733
100
AcDbEntity
  8
Defpoints
 62
     0
100
AcDbPoint
 10
736.6423395458125
 20
308.5441898084315
 30
0.0
  0
POINT
  5
C80
330
733
100
AcDbEntity
  8
Defpoints
 62
     0
100
AcDbPoint
 10
730.8584384077712
 20
171.4320068010468
 30
0.0
  0
POINT
  5
C81
330
733
100
AcDbEntity
  8
Defpoints
 62
     0
100
AcDbPoint
 10
730.8584384077712
 20
225.8305499714841
 30
0.0
  0
POINT
  5
C82
330
733
100
AcDbEntity
  8
Defpoints
 62
     0
100
AcDbPoint
 10
737.0957891323039
 20
255.1749779934983
 30
0.0
  0
POINT
  5
C83
330
733
100
AcDbEntity
  8
Defpoints
 62
     0
100
AcDbPoint
 10
730.8584384077712
 20
302.6087216684711
 30
0.0
  0
ENDBLK
  5
735
330
733
100
AcDbEntity
  8
0
100
AcDbBlockEnd
  0
BLOCK
  5
76E
330
76D
100
AcDbEntity
  8
0
100
AcDbBlockBegin
  2
*D15
 70
     1
 10
0.0
 20
0.0
 30
0.0
  3
*D15
  1

  0
LINE
  5
C84
330
76D
100
AcDbEntity
  8
AM_5 ( Bemassung)
100
AcDbLine
 10
736.8584384077712
 20
296.3305499714842
 30
0.0
 11
736.8584384077712
 21
318.4075094987369
 31
0.0
  0
LINE
  5
C85
330
76D
100
AcDbEntity
  8
AM_5 ( Bemassung)
100
AcDbLine
 10
724.8584384077712
 20
296.3305499714842
 30
0.0
 11
724.8584384077712
 21
318.4075094987369
 31
0.0
  0
LINE
  5
C86
330
76D
100
AcDbEntity
  8
AM_5 ( Bemassung)
100
AcDbLine
 10
732.8584384077712
 20
317.4075094987369
 30
0.0
 11
728.8584384077712
 21
317.4075094987369
 31
0.0
  0
SOLID
  5
C87
330
76D
100
AcDbEntity
  8
AM_5 ( Bemassung)
100
AcDbTrace
 10
732.8584384077712
 20
318.0741761654036
 30
0.0
 11
732.8584384077712
 21
316.7408428320702
 31
0.0
 12
736.8584384077712
 22
317.4075094987369
 32
0.0
 13
736.8584384077712
 23
317.4075094987369
 33
0.0
  0
SOLID
  5
C88
330
76D
100
AcDbEntity
  8
AM_5 ( Bemassung)
100
AcDbTrace
 10
728.8584384077712
 20
318.0741761654036
 30
0.0
 11
728.8584384077712
 21
316.7408428320702
 31
0.0
 12
724.8584384077712
 22
317.4075094987369
 32
0.0
 13
724.8584384077712
 23
317.4075094987369
 33
0.0
  0
MTEXT
  5
C89
330
76D
100
AcDbEntity
  8
AM_5 ( Bemassung)
 62
     2
100
AcDbMText
 10
730.8584384077712
 20
322.1387509721339
 30
0.0
 40
6.0
 41
0.0
 71
     5
 72
     1
  1
%%c12
 73
     1
 44
1.0
  0
POINT
  5
C8A
330
76D
100
AcDbEntity
  8
Defpoints
 62
     0
100
AcDbPoint
 10
736.8584384077712
 20
296.3305499714842
 30
0.0
  0
POINT
  5
C8B
330
76D
100
AcDbEntity
  8
Defpoints
 62
     0
100
AcDbPoint
 10
724.8584384077712
 20
296.3305499714842
 30
0.0
  0
POINT
  5
C8C
330
76D
100
AcDbEntity
  8
Defpoints
 62
     0
100
AcDbPoint
 10
724.8584384077712
 20
317.4075094987369
 30
0.0
  0
ENDBLK
  5
76F
330
76D
100
AcDbEntity
  8
0
100
AcDbBlockEnd
  0
BLOCK
  5
791
330
790
100
AcDbEntity
  8
0
100
AcDbBlockBegin
  2
*D16
 70
     1
 10
0.0
 20
0.0
 30
0.0
  3
*D16
  1

  0
LINE
  5
C8D
330
790
100
AcDbEntity
  8
AM_5 ( Bemassung)
100
AcDbLine
 10
741.3584384077712
 20
295.330549971484
 30
0.0
 11
741.3584384077712
 21
335.3456152999197
 31
0.0
  0
LINE
  5
C8E
330
790
100
AcDbEntity
  8
AM_5 ( Bemassung)
100
AcDbLine
 10
720.3584384077712
 20
295.330549971484
 30
0.0
 11
720.3584384077712
 21
335.3456152999197
 31
0.0
  0
LINE
  5
C8F
330
790
100
AcDbEntity
  8
AM_5 ( Bemassung)
100
AcDbLine
 10
737.3584384077712
 20
334.3456152999197
 30
0.0
 11
724.3584384077712
 21
334.3456152999197
 31
0.0
  0
SOLID
  5
C90
330
790
100
AcDbEntity
  8
AM_5 ( Bemassung)
100
AcDbTrace
 10
737.3584384077712
 20
335.0122819665864
 30
0.0
 11
737.3584384077712
 21
333.678948633253
 31
0.0
 12
741.3584384077712
 22
334.3456152999197
 32
0.0
 13
741.3584384077712
 23
334.3456152999197
 33
0.0
  0
SOLID
  5
C91
330
790
100
AcDbEntity
  8
AM_5 ( Bemassung)
100
AcDbTrace
 10
724.3584384077712
 20
335.0122819665864
 30
0.0
 11
724.3584384077712
 21
333.678948633253
 31
0.0
 12
720.3584384077712
 22
334.3456152999197
 32
0.0
 13
720.3584384077712
 23
334.3456152999197
 33
0.0
  0
MTEXT
  5
C92
330
790
100
AcDbEntity
  8
AM_5 ( Bemassung)
 62
     2
100
AcDbMText
 10
731.0110237316862
 20
339.0768567733167
 30
0.0
 40
6.0
 41
0.0
 71
     5
 72
     1
  1
%%c 21
 73
     1
 44
1.0
  0
POINT
  5
C93
330
790
100
AcDbEntity
  8
Defpoints
 62
     0
100
AcDbPoint
 10
741.3584384077712
 20
295.330549971484
 30
0.0
  0
POINT
  5
C94
330
790
100
AcDbEntity
  8
Defpoints
 62
     0
100
AcDbPoint
 10
720.3584384077712
 20
295.330549971484
 30
0.0
  0
POINT
  5
C95
330
790
100
AcDbEntity
  8
Defpoints
 62
     0
100
AcDbPoint
 10
720.3584384077712
 20
334.3456152999197
 30
0.0
  0
ENDBLK
  5
792
330
790
100
AcDbEntity
  8
0
100
AcDbBlockEnd
  0
BLOCK
  5
7EC
330
7EB
100
AcDbEntity
  8
0
100
AcDbBlockBegin
  2
*D17
 70
     1
 10
0.0
 20
0.0
 30
0.0
  3
*D17
  1

  0
LINE
  5
C96
330
7EB
100
AcDbEntity
  8
AM_5 ( Bemassung)
100
AcDbLine
 10
730.8584384077712
 20
296.3305499714842
 30
0.0
 11
781.9950364844824
 21
296.3305499714842
 31
0.0
  0
LINE
  5
C97
330
7EB
100
AcDbEntity
  8
AM_5 ( Bemassung)
100
AcDbLine
 10
730.8584384077712
 20
177.7203059339842
 30
0.0
 11
781.9950364844824
 21
177.7203059339842
 31
0.0
  0
LINE
  5
C98
330
7EB
100
AcDbEntity
  8
AM_5 ( Bemassung)
100
AcDbLine
 10
780.9950364844825
 20
292.3305499714842
 30
0.0
 11
780.9950364844824
 21
181.7203059339842
 31
0.0
  0
SOLID
  5
C99
330
7EB
100
AcDbEntity
  8
AM_5 ( Bemassung)
100
AcDbTrace
 10
780.3283698178159
 20
292.3305499714842
 30
0.0
 11
781.6617031511492
 21
292.3305499714842
 31
0.0
 12
780.9950364844825
 22
296.3305499714842
 32
0.0
 13
780.9950364844825
 23
296.3305499714842
 33
0.0
  0
SOLID
  5
C9A
330
7EB
100
AcDbEntity
  8
AM_5 ( Bemassung)
100
AcDbTrace
 10
780.3283698178157
 20
181.7203059339842
 30
0.0
 11
781.661703151149
 21
181.7203059339842
 31
0.0
 12
780.9950364844824
 22
177.7203059339842
 32
0.0
 13
780.9950364844824
 23
177.7203059339842
 33
0.0
  0
MTEXT
  5
C9B
330
7EB
100
AcDbEntity
  8
AM_5 ( Bemassung)
 62
     2
100
AcDbMText
 10
776.4315985581522
 20
237.0254279527342
 30
0.0
 40
6.0
 41
0.0
 71
     5
 72
     1
  1
118
 11
0.0000000000000001
 21
1.0
 31
0.0
 73
     1
 44
1.0
  0
POINT
  5
C9C
330
7EB
100
AcDbEntity
  8
Defpoints
 62
     0
100
AcDbPoint
 10
730.8584384077712
 20
296.3305499714842
 30
0.0
  0
POINT
  5
C9D
330
7EB
100
AcDbEntity
  8
Defpoints
 62
     0
100
AcDbPoint
 10
730.8584384077712
 20
177.7203059339842
 30
0.0
  0
POINT
  5
C9E
330
7EB
100
AcDbEntity
  8
Defpoints
 62
     0
100
AcDbPoint
 10
780.9950364844824
 20
177.7203059339842
 30
0.0
  0
ENDBLK
  5
7ED
330
7EB
100
AcDbEntity
  8
0
100
AcDbBlockEnd
  0
BLOCK
  5
80D
330
80C
100
AcDbEntity
  8
0
100
AcDbBlockBegin
  2
*D18
 70
     1
 10
0.0
 20
0.0
 30
0.0
  3
*D18
  1

  0
LINE
  5
C9F
330
80C
100
AcDbEntity
  8
AM_5 ( Bemassung)
100
AcDbLine
 10
745.3561345685307
 20
239.8688983867842
 30
0.0
 11
769.0832177312164
 21
239.8688983867842
 31
0.0
  0
LINE
  5
CA0
330
80C
100
AcDbEntity
  8
AM_5 ( Bemassung)
100
AcDbLine
 10
744.6657837562953
 20
177.7203059339842
 30
0.0
 11
769.0832177312164
 21
177.7203059339842
 31
0.0
  0
LINE
  5
CA1
330
80C
100
AcDbEntity
  8
AM_5 ( Bemassung)
100
AcDbLine
 10
768.0832177312164
 20
235.8688983867842
 30
0.0
 11
768.0832177312164
 21
181.7203059339842
 31
0.0
  0
SOLID
  5
CA2
330
80C
100
AcDbEntity
  8
AM_5 ( Bemassung)
100
AcDbTrace
 10
767.4165510645498
 20
235.8688983867842
 30
0.0
 11
768.749884397883
 21
235.8688983867842
 31
0.0
 12
768.0832177312164
 22
239.8688983867842
 32
0.0
 13
768.0832177312164
 23
239.8688983867842
 33
0.0
  0
SOLID
  5
CA3
330
80C
100
AcDbEntity
  8
AM_5 ( Bemassung)
100
AcDbTrace
 10
767.4165510645498
 20
181.7203059339842
 30
0.0
 11
768.749884397883
 21
181.7203059339842
 31
0.0
 12
768.0832177312164
 22
177.7203059339842
 32
0.0
 13
768.0832177312164
 23
177.7203059339842
 33
0.0
  0
MTEXT
  5
CA4
330
80C
100
AcDbEntity
  8
AM_5 ( Bemassung)
 62
     2
100
AcDbMText
 10
763.5197798048863
 20
211.1007173668244
 30
0.0
 40
6.0
 41
0.0
 71
     5
 72
     1
  1
62
 11
0.0000000000000001
 21
1.0
 31
0.0
 73
     1
 44
1.0
  0
POINT
  5
CA5
330
80C
100
AcDbEntity
  8
Defpoints
 62
     0
100
AcDbPoint
 10
745.3561345685307
 20
239.8688983867842
 30
0.0
  0
POINT
  5
CA6
330
80C
100
AcDbEntity
  8
Defpoints
 62
     0
100
AcDbPoint
 10
744.6657837562953
 20
177.7203059339842
 30
0.0
  0
POINT
  5
CA7
330
80C
100
AcDbEntity
  8
Defpoints
 62
     0
100
AcDbPoint
 10
768.0832177312164
 20
177.7203059339842
 30
0.0
  0
ENDBLK
  5
80E
330
80C
100
AcDbEntity
  8
0
100
AcDbBlockEnd
  0
BLOCK
  5
82E
330
82D
100
AcDbEntity
  8
0
100
AcDbBlockBegin
  2
*D19
 70
     1
 10
0.0
 20
0.0
 30
0.0
  3
*D19
  1

  0
LINE
  5
CA8
330
82D
100
AcDbEntity
  8
AM_5 ( Bemassung)
100
AcDbLine
 10
744.8157721078636
 20
194.5203059339841
 30
0.0
 11
761.9991581982137
 21
194.5203059339841
 31
0.0
  0
LINE
  5
CA9
330
82D
100
AcDbEntity
  8
AM_5 ( Bemassung)
100
AcDbLine
 10
743.5316243632414
 20
179.5203059339842
 30
0.0
 11
761.9991581982137
 21
179.5203059339842
 31
0.0
  0
LINE
  5
CAA
330
82D
100
AcDbEntity
  8
AM_5 ( Bemassung)
100
AcDbLine
 10
760.9991581982137
 20
190.5203059339841
 30
0.0
 11
760.9991581982137
 21
183.5203059339842
 31
0.0
  0
SOLID
  5
CAB
330
82D
100
AcDbEntity
  8
AM_5 ( Bemassung)
100
AcDbTrace
 10
760.3324915315471
 20
190.5203059339841
 30
0.0
 11
761.6658248648803
 21
190.5203059339841
 31
0.0
 12
760.9991581982137
 22
194.5203059339841
 32
0.0
 13
760.9991581982137
 23
194.5203059339841
 33
0.0
  0
SOLID
  5
CAC
330
82D
100
AcDbEntity
  8
AM_5 ( Bemassung)
100
AcDbTrace
 10
760.3324915315471
 20
183.5203059339842
 30
0.0
 11
761.6658248648803
 21
183.5203059339842
 31
0.0
 12
760.9991581982137
 22
179.5203059339842
 32
0.0
 13
760.9991581982137
 23
179.5203059339842
 33
0.0
  0
MTEXT
  5
CAD
330
82D
100
AcDbEntity
  8
AM_5 ( Bemassung)
 62
     2
100
AcDbMText
 10
756.4357202718836
 20
186.6822691162672
 30
0.0
 40
6.0
 41
0.0
 71
     5
 72
     1
  1
15
 11
0.0000000000000001
 21
1.0
 31
0.0
 73
     1
 44
1.0
  0
POINT
  5
CAE
330
82D
100
AcDbEntity
  8
Defpoints
 62
     0
100
AcDbPoint
 10
744.8157721078636
 20
194.5203059339841
 30
0.0
  0
POINT
  5
CAF
330
82D
100
AcDbEntity
  8
Defpoints
 62
     0
100
AcDbPoint
 10
743.5316243632414
 20
179.5203059339842
 30
0.0
  0
POINT
  5
CB0
330
82D
100
AcDbEntity
  8
Defpoints
 62
     0
100
AcDbPoint
 10
760.9991581982137
 20
179.5203059339842
 30
0.0
  0
ENDBLK
  5
82F
330
82D
100
AcDbEntity
  8
0
100
AcDbBlockEnd
  0
BLOCK
  5
84F
330
84E
100
AcDbEntity
  8
0
100
AcDbBlockBegin
  2
*D20
 70
     1
 10
0.0
 20
0.0
 30
0.0
  3
*D20
  1

  0
LINE
  5
CB1
330
84E
100
AcDbEntity
  8
AM_5 ( Bemassung)
100
AcDbLine
 10
730.8584384077715
 20
194.5203059339842
 30
0.0
 11
705.277587181793
 21
194.5203059339842
 31
0.0
  0
LINE
  5
CB2
330
84E
100
AcDbEntity
  8
AM_5 ( Bemassung)
100
AcDbLine
 10
730.8584384077712
 20
177.7203059339842
 30
0.0
 11
705.277587181793
 21
177.7203059339842
 31
0.0
  0
LINE
  5
CB3
330
84E
100
AcDbEntity
  8
AM_5 ( Bemassung)
100
AcDbLine
 10
706.277587181793
 20
190.5203059339842
 30
0.0
 11
706.277587181793
 21
181.7203059339842
 31
0.0
  0
SOLID
  5
CB4
330
84E
100
AcDbEntity
  8
AM_5 ( Bemassung)
100
AcDbTrace
 10
705.6109205151264
 20
190.5203059339842
 30
0.0
 11
706.9442538484596
 21
190.5203059339842
 31
0.0
 12
706.277587181793
 22
194.5203059339842
 32
0.0
 13
706.277587181793
 23
194.5203059339842
 33
0.0
  0
SOLID
  5
CB5
330
84E
100
AcDbEntity
  8
AM_5 ( Bemassung)
100
AcDbTrace
 10
705.6109205151264
 20
181.7203059339842
 30
0.0
 11
706.9442538484596
 21
181.7203059339842
 31
0.0
 12
706.277587181793
 22
177.7203059339842
 32
0.0
 13
706.277587181793
 23
177.7203059339842
 33
0.0
  0
MTEXT
  5
CB6
330
84E
100
AcDbEntity
  8
AM_5 ( Bemassung)
 62
     2
100
AcDbMText
 10
701.7141492554628
 20
184.9187676594186
 30
0.0
 40
6.0
 41
0.0
 71
     5
 72
     1
  1
16.8
 11
0.0000000000000001
 21
1.0
 31
0.0
 73
     1
 44
1.0
  0
POINT
  5
CB7
330
84E
100
AcDbEntity
  8
Defpoints
 62
     0
100
AcDbPoint
 10
730.8584384077715
 20
194.5203059339842
 30
0.0
  0
POINT
  5
CB8
330
84E
100
AcDbEntity
  8
Defpoints
 62
     0
100
AcDbPoint
 10
730.8584384077712
 20
177.7203059339842
 30
0.0
  0
POINT
  5
CB9
330
84E
100
AcDbEntity
  8
Defpoints
 62
     0
100
AcDbPoint
 10
706.277587181793
 20
177.7203059339842
 30
0.0
  0
ENDBLK
  5
850
330
84E
100
AcDbEntity
  8
0
100
AcDbBlockEnd
  0
BLOCK
  5
870
330
86F
100
AcDbEntity
  8
0
100
AcDbBlockBegin
  2
*D21
 70
     1
 10
0.0
 20
0.0
 30
0.0
  3
*D21
  1

  0
LINE
  5
CBA
330
86F
100
AcDbEntity
  8
AM_5 ( Bemassung)
100
AcDbLine
 10
747.3584384077712
 20
188.2703059339841
 30
0.0
 11
747.3584384077712
 21
158.3762583583582
 31
0.0
  0
LINE
  5
CBB
330
86F
100
AcDbEntity
  8
AM_5 ( Bemassung)
100
AcDbLine
 10
714.3584384077715
 20
185.7131166568107
 30
0.0
 11
714.3584384077715
 21
158.3762583583582
 31
0.0
  0
LINE
  5
CBC
330
86F
100
AcDbEntity
  8
AM_5 ( Bemassung)
100
AcDbLine
 10
743.3584384077712
 20
159.3762583583582
 30
0.0
 11
718.3584384077715
 21
159.3762583583582
 31
0.0
  0
SOLID
  5
CBD
330
86F
100
AcDbEntity
  8
AM_5 ( Bemassung)
100
AcDbTrace
 10
743.3584384077712
 20
160.0429250250248
 30
0.0
 11
743.3584384077712
 21
158.7095916916915
 31
0.0
 12
747.3584384077712
 22
159.3762583583582
 32
0.0
 13
747.3584384077712
 23
159.3762583583582
 33
0.0
  0
SOLID
  5
CBE
330
86F
100
AcDbEntity
  8
AM_5 ( Bemassung)
100
AcDbTrace
 10
718.3584384077715
 20
160.0429250250248
 30
0.0
 11
718.3584384077715
 21
158.7095916916915
 31
0.0
 12
714.3584384077715
 22
159.3762583583582
 32
0.0
 13
714.3584384077715
 23
159.3762583583582
 33
0.0
  0
MTEXT
  5
CBF
330
86F
100
AcDbEntity
  8
AM_5 ( Bemassung)
 62
     2
100
AcDbMText
 10
729.6524566702636
 20
163.9785775943745
 30
0.0
 40
6.0
 41
0.0
 71
     5
 72
     1
  1
G1
 73
     1
 44
1.0
  0
POINT
  5
CC0
330
86F
100
AcDbEntity
  8
Defpoints
 62
     0
100
AcDbPoint
 10
747.3584384077712
 20
188.2703059339841
 30
0.0
  0
POINT
  5
CC1
330
86F
100
AcDbEntity
  8
Defpoints
 62
     0
100
AcDbPoint
 10
714.3584384077715
 20
185.7131166568107
 30
0.0
  0
POINT
  5
CC2
330
86F
100
AcDbEntity
  8
Defpoints
 62
     0
100
AcDbPoint
 10
714.3584384077715
 20
159.3762583583582
 30
0.0
  0
ENDBLK
  5
871
330
86F
100
AcDbEntity
  8
0
100
AcDbBlockEnd
  0
BLOCK
  5
CD2
330
CCE
100
AcDbEntity
  8
0
100
AcDbBlockBegin
  2
*S24
 70
     1
 10
0.0
 20
0.0
 30
0.0
  3
*S24
  1

  0
CIRCLE
  5
CCF
330
CCE
100
AcDbEntity
  8
AM_12 ( Teile Referenz)
 62
     4
100
AcDbCircle
 10
731.3554826662977
 20
222.8913096614379
 30
0.0
 40
2.5
  0
LINE
  5
CD0
330
CCE
100
AcDbEntity
  8
AM_12 ( Teile Referenz)
 62
     4
100
AcDbLine
 10
728.8554826662978
 20
220.3913096614378
 30
0.0
 11
733.8554826662978
 21
225.3913096614378
 31
0.0
  0
LINE
  5
CD1
330
CCE
100
AcDbEntity
  8
AM_12 ( Teile Referenz)
 62
     4
100
AcDbLine
 10
728.8554826662978
 20
225.3913096614378
 30
0.0
 11
733.8554826662978
 21
220.3913096614378
 31
0.0
  0
ENDBLK
  5
CD3
330
CCE
100
AcDbEntity
  8
0
100
AcDbBlockEnd
  0
BLOCK
  5
CD9
330
CD5
100
AcDbEntity
  8
0
100
AcDbBlockBegin
  2
*S25
 70
     1
 10
0.0
 20
0.0
 30
0.0
  3
*S25
  1

  0
CIRCLE
  5
CD6
330
CD5
100
AcDbEntity
  8
AM_12 ( Teile Referenz)
 62
     4
100
AcDbCircle
 10
728.1770792450281
 20
106.9235911195934
 30
0.0
 40
2.5
  0
LINE
  5
CD7
330
CD5
100
AcDbEntity
  8
AM_12 ( Teile Referenz)
 62
     4
100
AcDbLine
 10
725.6770792450281
 20
104.4235911195934
 30
0.0
 11
730.6770792450281
 21
109.4235911195934
 31
0.0
  0
LINE
  5
CD8
330
CD5
100
AcDbEntity
  8
AM_12 ( Teile Referenz)
 62
     4
100
AcDbLine
 10
725.6770792450281
 20
109.4235911195934
 30
0.0
 11
730.6770792450281
 21
104.4235911195934
 31
0.0
  0
ENDBLK
  5
CDA
330
CD5
100
AcDbEntity
  8
0
100
AcDbBlockEnd
  0
ENDSEC
  0
SECTION
  2
ENTITIES
  0
CIRCLE
  5
1E
330
2
100
AcDbEntity
  8
AM_0 ( Kontur 0.5 )
100
AcDbCircle
 10
730.8584384077715
 20
110.9912802845089
 30
0.0
 40
20.5
  0
LINE
  5
1F
330
2
100
AcDbEntity
  8
AM_0 ( Kontur 0.5 )
100
AcDbLine
 10
719.0457689270987
 20
90.49128028450892
 30
0.0
 11
707.2100884087112
 21
110.9912802845089
 31
0.0
  0
LINE
  5
20
330
2
100
AcDbEntity
  8
AM_0 ( Kontur 0.5 )
100
AcDbLine
 10
754.5528104822607
 20
110.9912802845089
 30
0.0
 11
742.7171299638732
 21
90.49128028450892
 31
0.0
  0
LINE
  5
21
102
{ACAD_REACTORS
330
429
102
}
330
2
100
AcDbEntity
  8
AM_7 (Mittellinie)
  6
AM_ISO08W050
100
AcDbLine
 10
730.8584384077715
 20
141.432006801047
 30
0.0
 11
730.8584384077715
 21
80.59657584339969
 31
0.0
  0
LINE
  5
24
102
{ACAD_REACTORS
330
429
102
}
330
2
100
AcDbEntity
  8
AM_0 ( Kontur 0.5 )
100
AcDbLine
 10
742.7171299638732
 20
90.49128028450892
 30
0.0
 11
719.0457689270987
 21
90.49128028450892
 31
0.0
  0
CIRCLE
  5
26
330
2
100
AcDbEntity
  8
AM_0 ( Kontur 0.5 )
100
AcDbCircle
 10
730.8584384077715
 20
110.9912802845089
 30
0.0
 40
10.5
  0
CIRCLE
  5
27
330
2
100
AcDbEntity
  8
AM_0 ( Kontur 0.5 )
100
AcDbCircle
 10
730.8584384077715
 20
110.9912802845089
 30
0.0
 40
13.50000000000001
  0
LINE
  5
28
102
{ACAD_REACTORS
330
429
102
}
330
2
100
AcDbEntity
  8
AM_0 ( Kontur 0.5 )
100
AcDbLine
 10
719.0457689270987
 20
131.4912802845089
 30
0.0
 11
742.7171299638732
 21
131.4912802845089
 31
0.0
  0
LINE
  5
29
330
2
100
AcDbEntity
  8
AM_7 (Mittellinie)
  6
AM_ISO08W050
100
AcDbLine
 10
700.399710673
 20
110.9912802845089
 30
0.0
 11
761.2351416306474
 21
110.9912802845089
 31
0.0
  0
LINE
  5
2A
330
2
100
AcDbEntity
  8
AM_0 ( Kontur 0.5 )
100
AcDbLine
 10
707.2100884087112
 20
110.9912802845089
 30
0.0
 11
719.0457689270987
 21
131.4912802845089
 31
0.0
  0
LINE
  5
2B
330
2
100
AcDbEntity
  8
AM_0 ( Kontur 0.5 )
100
AcDbLine
 10
742.7171299638732
 20
131.4912802845089
 30
0.0
 11
754.5528104822607
 21
110.9912802845089
 31
0.0
  0
LINE
  5
196
330
2
100
AcDbEntity
  8
AM_0 ( Kontur 0.5 )
100
AcDbLine
 10
741.3584384077712
 20
241.3305499714841
 30
0.0
 11
741.3584384077712
 21
295.330549971484
 31
0.0
  0
LINE
  5
197
330
2
100
AcDbEntity
  8
AM_0 ( Kontur 0.5 )
100
AcDbLine
 10
720.3584384077712
 20
241.3305499714841
 30
0.0
 11
720.3584384077712
 21
295.330549971484
 31
0.0
  0
LINE
  5
198
102
{ACAD_REACTORS
330
744
102
}
330
2
100
AcDbEntity
  8
AM_7 (Mittellinie)
  6
AM_ISO08W050
100
AcDbLine
 10
730.8584384077712
 20
171.4320068010469
 30
0.0
 11
730.8584384077712
 21
302.6087216684711
 31
0.0
  0
LINE
  5
199
330
2
100
AcDbEntity
  8
AM_0 ( Kontur 0.5 )
100
AcDbLine
 10
730.8584384077712
 20
241.3305499714841
 30
0.0
 11
741.3584384077712
 21
241.3305499714841
 31
0.0
  0
LINE
  5
19A
102
{ACAD_REACTORS
330
819
102
}
330
2
100
AcDbEntity
  8
AM_0 ( Kontur 0.5 )
100
AcDbLine
 10
730.8584384077712
 20
239.8688983867842
 30
0.0
 11
748.3584384077712
 21
239.8688983867842
 31
0.0
  0
LINE
  5
19B
330
2
100
AcDbEntity
  8
AM_0 ( Kontur 0.5 )
100
AcDbLine
 10
730.8584384077712
 20
203.5203836077842
 30
0.0
 11
748.3584384077712
 21
203.5203836077842
 31
0.0
  0
LINE
  5
19C
330
2
100
AcDbEntity
  8
AM_0 ( Kontur 0.5 )
100
AcDbLine
 10
730.8584384077712
 20
213.8688983867842
 30
0.0
 11
748.3584384077712
 21
213.8688983867842
 31
0.0
  0
LINE
  5
19D
330
2
100
AcDbEntity
  8
AM_0 ( Kontur 0.5 )
100
AcDbLine
 10
730.8584384077712
 20
195.5203059339841
 30
0.0
 11
748.3584384077712
 21
195.5203059339841
 31
0.0
  0
LINE
  5
19E
330
2
100
AcDbEntity
  8
AM_0 ( Kontur 0.5 )
100
AcDbLine
 10
747.3584384077712
 20
181.0203059339841
 30
0.0
 11
730.8584384077712
 21
181.0203059339841
 31
0.0
  0
LINE
  5
19F
102
{ACAD_REACTORS
330
83A
102
}
330
2
100
AcDbEntity
  8
AM_0 ( Kontur 0.5 )
100
AcDbLine
 10
730.8584384077712
 20
179.5203059339842
 30
0.0
 11
745.8584384077712
 21
179.5203059339842
 31
0.0
  0
ARC
  5
1A0
330
2
100
AcDbEntity
  8
AM_0 ( Kontur 0.5 )
100
AcDbCircle
 10
730.8584384077712
 20
160.0683665459753
 30
0.0
 40
43.4520170618089
100
AcDbArc
 50
73.96844629014428
 51
106.0315537098557
  0
ARC
  5
1A1
330
2
100
AcDbEntity
  8
AM_0 ( Kontur 0.5 )
100
AcDbCircle
 10
730.8584384077712
 20
250.8688983867842
 30
0.0
 40
37.00000000000004
100
AcDbArc
 50
251.0753555839456
 51
288.9246444160544
  0
ARC
  5
1A2
330
2
100
AcDbEntity
  8
AM_0 ( Kontur 0.5 )
100
AcDbCircle
 10
730.8584384077712
 20
202.8688983867852
 30
0.0
 40
36.99999999999903
100
AcDbArc
 50
71.07535558394559
 51
108.9246444160544
  0
ARC
  5
1A3
330
2
100
AcDbEntity
  8
AM_0 ( Kontur 0.5 )
100
AcDbCircle
 10
730.8584384077712
 20
251.1281036658752
 30
0.0
 40
55.60779773189111
100
AcDbArc
 50
257.5377059693392
 51
282.4622940306607
  0
LINE
  5
1A4
330
2
100
AcDbEntity
  8
AM_0 ( Kontur 0.5 )
100
AcDbLine
 10
718.8584384077712
 20
215.8688983867842
 30
0.0
 11
718.8584384077712
 21
237.8688983867842
 31
0.0
  0
LINE
  5
1A5
330
2
100
AcDbEntity
  8
AM_0 ( Kontur 0.5 )
100
AcDbLine
 10
707.8584384077711
 20
215.8688983867842
 30
0.0
 11
707.8584384077711
 21
237.8688983867838
 31
0.0
  0
LINE
  5
1A6
102
{ACAD_REACTORS
330
87C
102
}
330
2
100
AcDbEntity
  8
AM_0 ( Kontur 0.5 )
100
AcDbLine
 10
714.3584384077715
 20
181.0203059339841
 30
0.0
 11
714.3584384077715
 21
195.520305933984
 31
0.0
  0
LINE
  5
1A7
330
2
100
AcDbEntity
  8
AM_2 ( Kontur 0.25)
100
AcDbLine
 10
715.8584384077711
 20
179.5203059339842
 30
0.0
 11
715.8584384077711
 21
194.5203059339842
 31
0.0
  0
LINE
  5
1A8
330
2
100
AcDbEntity
  8
AM_0 ( Kontur 0.5 )
100
AcDbLine
 10
714.3584384077715
 20
181.0203059339841
 30
0.0
 11
730.8584384077712
 21
181.0203059339841
 31
0.0
  0
LINE
  5
1A9
330
2
100
AcDbEntity
  8
AM_0 ( Kontur 0.5 )
100
AcDbLine
 10
730.8584384077712
 20
179.5203059339842
 30
0.0
 11
715.8584384077711
 21
179.5203059339842
 31
0.0
  0
LINE
  5
1AA
330
2
100
AcDbEntity
  8
AM_0 ( Kontur 0.5 )
100
AcDbLine
 10
715.8584384077711
 20
179.5203059339842
 30
0.0
 11
714.3584384077715
 21
181.0203059339842
 31
0.0
  0
ARC
  5
1AB
330
2
100
AcDbEntity
  8
AM_0 ( Kontur 0.5 )
100
AcDbCircle
 10
713.3584384077712
 20
193.7250066141484
 30
0.0
 40
9.795376993635775
100
AcDbArc
 50
55.84114010024617
 51
124.1588598997537
  0
ARC
  5
1AC
330
2
100
AcDbEntity
  8
AM_0 ( Kontur 0.5 )
100
AcDbCircle
 10
713.3584384077712
 20
222.4313983867842
 30
0.0
 40
8.562500000000023
100
AcDbArc
 50
230.0337869562003
 51
309.9662130437997
  0
ARC
  5
1AD
330
2
100
AcDbEntity
  8
AM_0 ( Kontur 0.5 )
100
AcDbCircle
 10
713.3584384077712
 20
207.7192957126209
 30
0.0
 40
12.19898977863677
100
AcDbArc
 50
243.201318171216
 51
296.798681828784
  0
LINE
  5
1AE
330
2
100
AcDbEntity
  8
AM_0 ( Kontur 0.5 )
100
AcDbLine
 10
707.8584384077711
 20
196.8305238985325
 30
0.0
 11
707.8584384077711
 21
201.8305238985325
 31
0.0
  0
LINE
  5
1AF
330
2
100
AcDbEntity
  8
AM_0 ( Kontur 0.5 )
100
AcDbLine
 10
730.8584384077712
 20
195.5203059339841
 30
0.0
 11
713.3584384077712
 21
195.5203059339841
 31
0.0
  0
LINE
  5
1B0
330
2
100
AcDbEntity
  8
AM_0 ( Kontur 0.5 )
100
AcDbLine
 10
718.8584384077712
 20
196.8305238985324
 30
0.0
 11
718.8584384077712
 21
201.8305238985325
 31
0.0
  0
LINE
  5
1B1
330
2
100
AcDbEntity
  8
AM_0 ( Kontur 0.5 )
100
AcDbLine
 10
730.8584384077712
 20
203.5203836077842
 30
0.0
 11
713.3584384077712
 21
203.5203836077842
 31
0.0
  0
LINE
  5
1B2
330
2
100
AcDbEntity
  8
AM_0 ( Kontur 0.5 )
100
AcDbLine
 10
730.8584384077712
 20
213.8688983867842
 30
0.0
 11
713.3584384077712
 21
213.8688983867842
 31
0.0
  0
LINE
  5
1B3
330
2
100
AcDbEntity
  8
AM_0 ( Kontur 0.5 )
100
AcDbLine
 10
714.3584384077715
 20
203.5203836077842
 30
0.0
 11
714.3584384077715
 21
213.8688983867842
 31
0.0
  0
LINE
  5
1B4
330
2
100
AcDbEntity
  8
AM_2 ( Kontur 0.25)
100
AcDbLine
 10
715.8584384077713
 20
204.5203836077841
 30
0.0
 11
715.8584384077713
 21
213.8688983867842
 31
0.0
  0
ARC
  5
1B5
330
2
100
AcDbEntity
  8
AM_0 ( Kontur 0.5 )
100
AcDbCircle
 10
730.8584384077712
 20
225.8305499714841
 30
0.0
 40
18.72164522684911
100
AcDbArc
 50
124.1144729453419
 51
131.4229712724068
  0
ARC
  5
1B6
330
2
100
AcDbEntity
  8
AM_0 ( Kontur 0.5 )
100
AcDbCircle
 10
713.3584384077712
 20
231.3063983867841
 30
0.0
 40
8.562499999999761
100
AcDbArc
 50
50.03378695620028
 51
129.9662130437997
  0
LINE
  5
1B7
330
2
100
AcDbEntity
  8
AM_0 ( Kontur 0.5 )
100
AcDbLine
 10
730.8584384077712
 20
239.8688983867842
 30
0.0
 11
713.3584384077712
 21
239.8688983867842
 31
0.0
  0
LINE
  5
1B8
330
2
100
AcDbEntity
  8
AM_0 ( Kontur 0.5 )
100
AcDbLine
 10
730.8584384077712
 20
241.3305499714841
 30
0.0
 11
720.3584384077712
 21
241.3305499714841
 31
0.0
  0
LINE
  5
1B9
330
2
100
AcDbEntity
  8
AM_0 ( Kontur 0.5 )
100
AcDbLine
 10
742.8584384077715
 20
215.8688983867842
 30
0.0
 11
742.8584384077715
 21
237.8688983867841
 31
0.0
  0
LINE
  5
1BA
330
2
100
AcDbEntity
  8
AM_0 ( Kontur 0.5 )
100
AcDbLine
 10
753.8584384077712
 20
215.8688983867842
 30
0.0
 11
753.8584384077712
 21
237.8688983867839
 31
0.0
  0
LINE
  5
1BB
102
{ACAD_REACTORS
330
87C
102
}
330
2
100
AcDbEntity
  8
AM_0 ( Kontur 0.5 )
100
AcDbLine
 10
747.3584384077712
 20
181.0203059339841
 30
0.0
 11
747.3584384077712
 21
195.520305933984
 31
0.0
  0
LINE
  5
1BC
330
2
100
AcDbEntity
  8
AM_2 ( Kontur 0.25)
100
AcDbLine
 10
745.8584384077712
 20
179.5203059339842
 30
0.0
 11
745.8584384077712
 21
194.5203059339842
 31
0.0
  0
LINE
  5
1BD
330
2
100
AcDbEntity
  8
AM_0 ( Kontur 0.5 )
100
AcDbLine
 10
745.8584384077712
 20
179.5203059339842
 30
0.0
 11
747.3584384077715
 21
181.0203059339842
 31
0.0
  0
ARC
  5
1BE
330
2
100
AcDbEntity
  8
AM_0 ( Kontur 0.5 )
100
AcDbCircle
 10
748.3584384077711
 20
193.7250066141486
 30
0.0
 40
9.795376993635612
100
AcDbArc
 50
55.84114010024553
 51
124.1588598997545
  0
ARC
  5
1BF
330
2
100
AcDbEntity
  8
AM_0 ( Kontur 0.5 )
100
AcDbCircle
 10
748.3584384077712
 20
207.7192957126209
 30
0.0
 40
12.19898977863677
100
AcDbArc
 50
243.201318171216
 51
296.798681828784
  0
LINE
  5
1C0
330
2
100
AcDbEntity
  8
AM_0 ( Kontur 0.5 )
100
AcDbLine
 10
742.8584384077715
 20
196.8305238985324
 30
0.0
 11
742.8584384077715
 21
201.8305238985325
 31
0.0
  0
LINE
  5
1C1
330
2
100
AcDbEntity
  8
AM_0 ( Kontur 0.5 )
100
AcDbLine
 10
753.8584384077712
 20
196.8305238985325
 30
0.0
 11
753.8584384077712
 21
201.8305238985325
 31
0.0
  0
ARC
  5
1C2
330
2
100
AcDbEntity
  8
AM_0 ( Kontur 0.5 )
100
AcDbCircle
 10
748.3584384077712
 20
222.4313983867842
 30
0.0
 40
8.562500000000023
100
AcDbArc
 50
230.0337869562003
 51
309.9662130437997
  0
LINE
  5
1C3
330
2
100
AcDbEntity
  8
AM_0 ( Kontur 0.5 )
100
AcDbLine
 10
747.3584384077715
 20
203.5203836077842
 30
0.0
 11
747.3584384077715
 21
213.8688983867842
 31
0.0
  0
LINE
  5
1C4
330
2
100
AcDbEntity
  8
AM_2 ( Kontur 0.25)
100
AcDbLine
 10
745.8584384077712
 20
204.5203836077841
 30
0.0
 11
745.8584384077712
 21
213.8688983867842
 31
0.0
  0
ARC
  5
1C5
330
2
100
AcDbEntity
  8
AM_0 ( Kontur 0.5 )
100
AcDbCircle
 10
730.8584384077712
 20
225.8305499714841
 30
0.0
 40
18.72164522684911
100
AcDbArc
 50
43.97810392352538
 51
44.06747522246147
  0
ARC
  5
1C6
330
2
100
AcDbEntity
  8
AM_0 ( Kontur 0.5 )
100
AcDbCircle
 10
748.3584384077711
 20
231.3063983867841
 30
0.0
 40
8.562499999999761
100
AcDbArc
 50
50.03378695620028
 51
129.9662130437997
  0
LINE
  5
1C7
330
2
100
AcDbEntity
  8
AM_0 ( Kontur 0.5 )
100
AcDbLine
 10
741.3584384077712
 20
295.330549971484
 30
0.0
 11
730.8584384077712
 21
295.330549971484
 31
0.0
  0
LINE
  5
1C8
330
2
100
AcDbEntity
  8
AM_0 ( Kontur 0.5 )
100
AcDbLine
 10
730.8584384077712
 20
296.3305499714842
 30
0.0
 11
740.3584384077712
 21
296.3305499714842
 31
0.0
  0
LINE
  5
1C9
102
{ACAD_REACTORS
330
7F8
102
}
330
2
100
AcDbEntity
  8
AM_0 ( Kontur 0.5 )
100
AcDbLine
 10
730.8584384077712
 20
296.3305499714842
 30
0.0
 11
721.3584384077712
 21
296.3305499714842
 31
0.0
  0
LINE
  5
1CA
330
2
100
AcDbEntity
  8
AM_0 ( Kontur 0.5 )
100
AcDbLine
 10
720.3584384077712
 20
295.330549971484
 30
0.0
 11
730.8584384077712
 21
295.330549971484
 31
0.0
  0
LINE
  5
1CB
102
{ACAD_REACTORS
330
79D
102
}
330
2
100
AcDbEntity
  8
AM_0 ( Kontur 0.5 )
100
AcDbLine
 10
721.3584384077712
 20
296.3305499714842
 30
0.0
 11
720.3584384077712
 21
295.330549971484
 31
0.0
  0
LINE
  5
1CC
102
{ACAD_REACTORS
330
79D
102
}
330
2
100
AcDbEntity
  8
AM_0 ( Kontur 0.5 )
100
AcDbLine
 10
740.3584384077712
 20
296.3305499714842
 30
0.0
 11
741.3584384077712
 21
295.330549971484
 31
0.0
  0
DIMENSION
  5
41B
102
{ACAD_XDICTIONARY
360
428
102
}
102
{ACAD_REACTORS
330
429
102
}
330
2
100
AcDbEntity
  8
AM_5 ( Bemassung)
100
AcDbDimension
  2
*D5
 10
774.3703756747158
 20
90.49128028450891
 30
0.0
 11
769.8580973663938
 21
110.991280284509
 31
0.0
 70
    32
 71
     5
 42
41.00000000000001
  3
AM_DIN$0
100
AcDbAlignedDimension
 13
730.8584384077715
 23
131.4912802845089
 33
0.0
 14
730.8584384077715
 24
90.49128028450892
 34
0.0
 50
90.00000000000005
100
AcDbRotatedDimension
1001
ACAD_DSTYLE_DIMINSPECT
1070
   396
1000
100%
1070
   395
1000

1070
   394
1070
    33
1070
   393
1070
     0
1001
ACAD
1000
DSTYLE
1002
{
1070
   140
1040
6.0
1002
}
1001
ACAD_DSTYLE_DIMTALN
1070
   392
1070
     0
  0
LINE
  5
595
330
2
100
AcDbEntity
  8
0
  6
Continuous
 62
     1
100
AcDbLine
 10
886.4704295371396
 20
153.2133798321547
 30
0.0
 11
886.4704295371396
 21
155.0133798321547
 31
0.0
  0
LINE
  5
601
330
2
100
AcDbEntity
  8
0
  6
Continuous
 62
     1
100
AcDbLine
 10
859.1654415907397
 20
184.2842428355547
 30
0.0
 11
859.5938648588397
 21
184.7126661036545
 31
0.0
  0
LINE
  5
602
330
2
100
AcDbEntity
  8
0
  6
Continuous
 62
     1
100
AcDbLine
 10
860.6646305706396
 20
184.3692182530547
 30
0.0
 11
859.1401904156398
 21
182.8447780980545
 31
0.0
  0
LINE
  5
603
330
2
100
AcDbEntity
  8
0
  6
Continuous
 62
     1
100
AcDbLine
 10
859.1149392406396
 20
181.4053133606547
 30
0.0
 11
860.6394206667395
 21
182.9297947868547
 31
0.0
  0
LINE
  5
604
330
2
100
AcDbEntity
  8
0
  6
Continuous
 62
     1
100
AcDbLine
 10
860.6142107628395
 20
181.4903713205547
 30
0.0
 11
859.0896880655396
 21
179.9658486232547
 31
0.0
  0
LINE
  5
605
330
2
100
AcDbEntity
  8
0
  6
Continuous
 62
     1
100
AcDbLine
 10
859.0644368905396
 20
178.5263838858546
 30
0.0
 11
860.5890008589396
 21
180.0509478542547
 31
0.0
  0
LINE
  5
606
330
2
100
AcDbEntity
  8
0
  6
Continuous
 62
     1
100
AcDbLine
 10
860.5637909550395
 20
178.6115243880547
 30
0.0
 11
859.0391857154394
 21
177.0869191483547
 31
0.0
  0
LINE
  5
607
330
2
100
AcDbEntity
  8
0
  6
Continuous
 62
     1
100
AcDbLine
 10
859.0139345403398
 20
175.6474544109547
 30
0.0
 11
860.5385810511391
 21
177.1721009217547
 31
0.0
  0
LINE
  5
608
330
2
100
AcDbEntity
  8
0
  6
Continuous
 62
     1
100
AcDbLine
 10
860.5133711472397
 20
175.7326774554547
 30
0.0
 11
858.9886833653396
 21
174.2079896735547
 31
0.0
  0
LINE
  5
609
330
2
100
AcDbEntity
  8
0
  6
Continuous
 62
     1
100
AcDbLine
 10
858.9634321902396
 20
172.7685249360547
 30
0.0
 11
860.4881612433397
 21
174.2932539891547
 31
0.0
  0
LINE
  5
60A
330
2
100
AcDbEntity
  8
0
  6
Continuous
 62
     1
100
AcDbLine
 10
860.4629513394396
 20
172.8538305229546
 30
0.0
 11
858.9381810152396
 21
171.3290601986547
 31
0.0
  0
LINE
  5
60B
330
2
100
AcDbEntity
  8
0
  6
Continuous
 62
     1
100
AcDbLine
 10
858.9129298401394
 20
169.8895954612547
 30
0.0
 11
860.4377414355395
 21
171.4144070566547
 31
0.0
  0
LINE
  5
60C
330
2
100
AcDbEntity
  8
0
  6
Continuous
 62
     1
100
AcDbLine
 10
860.4125315317395
 20
169.9749835903547
 30
0.0
 11
858.8876786651395
 21
168.4501307237546
 31
0.0
  0
LINE
  5
60D
330
2
100
AcDbEntity
  8
0
  6
Continuous
 62
     1
100
AcDbLine
 10
858.8624274900396
 20
167.0106659863547
 30
0.0
 11
860.3873216278397
 21
168.5355601241545
 31
0.0
  0
LINE
  5
60E
330
2
100
AcDbEntity
  8
0
  6
Continuous
 62
     1
100
AcDbLine
 10
860.3621117239399
 20
167.0961366578547
 30
0.0
 11
858.8371763149396
 21
165.5712012489547
 31
0.0
  0
LINE
  5
60F
330
2
100
AcDbEntity
  8
0
  6
Continuous
 62
     1
100
AcDbLine
 10
858.8119251399396
 20
164.1317365114546
 30
0.0
 11
860.3369018200396
 21
165.6567131915547
 31
0.0
  0
LINE
  5
610
330
2
100
AcDbEntity
  8
0
  6
Continuous
 62
     1
100
AcDbLine
 10
860.3116919161395
 20
164.2172897252547
 30
0.0
 11
858.7866739648394
 21
162.6922717740547
 31
0.0
  0
LINE
  5
611
330
2
100
AcDbEntity
  8
0
  6
Continuous
 62
     1
100
AcDbLine
 10
858.7614227898395
 20
161.2528070366546
 30
0.0
 11
860.2864820122396
 21
162.7778662590547
 31
0.0
  0
LINE
  5
612
330
2
100
AcDbEntity
  8
0
  6
Continuous
 62
     1
100
AcDbLine
 10
860.2612721083396
 20
161.3384427927547
 30
0.0
 11
858.7361716147395
 21
159.8133422991546
 31
0.0
  0
LINE
  5
613
330
2
100
AcDbEntity
  8
0
  6
Continuous
 62
     1
100
AcDbLine
 10
858.7109204396396
 20
158.3738775617547
 30
0.0
 11
860.2360622044395
 21
159.8990193264547
 31
0.0
  0
LINE
  5
614
330
2
100
AcDbEntity
  8
0
  6
Continuous
 62
     1
100
AcDbLine
 10
860.2108523005394
 20
158.4595958602547
 30
0.0
 11
858.6856692646396
 21
156.9344128243547
 31
0.0
  0
LINE
  5
615
330
2
100
AcDbEntity
  8
0
  6
Continuous
 62
     1
100
AcDbLine
 10
856.7647469333396
 20
155.0134904930547
 30
0.0
 11
856.6728398191397
 21
154.9215833788547
 31
0.0
  0
LINE
  5
616
330
2
100
AcDbEntity
  8
0
  6
Continuous
 62
     1
100
AcDbLine
 10
856.6708385586396
 20
153.5053685559546
 30
0.0
 11
860.1856423966395
 21
157.0201723939547
 31
0.0
  0
LINE
  5
617
330
2
100
AcDbEntity
  8
0
  6
Continuous
 62
     1
100
AcDbLine
 10
860.1604324927395
 20
155.5807489276547
 30
0.0
 11
857.7941574923395
 21
153.2144739272547
 31
0.0
  0
LINE
  5
618
330
2
100
AcDbEntity
  8
0
  6
Continuous
 62
     1
100
AcDbLine
 10
882.4926058811396
 20
183.5697765655547
 30
0.0
 11
883.6342396661395
 21
184.7114103505547
 31
0.0
  0
LINE
  5
619
330
2
100
AcDbEntity
  8
0
  6
Continuous
 62
     1
100
AcDbLine
 10
883.9890203777397
 20
183.6519774998547
 30
0.0
 11
882.5167518980395
 21
182.1797090200547
 31
0.0
  0
LINE
  5
61A
330
2
100
AcDbEntity
  8
0
  6
Continuous
 62
     1
100
AcDbLine
 10
882.5408979149395
 20
180.7896414746547
 30
0.0
 11
884.0133646355395
 21
182.2621081952546
 31
0.0
  0
LINE
  5
61B
330
2
100
AcDbEntity
  8
0
  6
Continuous
 62
     1
100
AcDbLine
 10
884.0377088933395
 20
180.8722388906546
 30
0.0
 11
882.5650439318396
 21
179.3995739291547
 31
0.0
  0
LINE
  5
61C
330
2
100
AcDbEntity
  8
0
  6
Continuous
 62
     1
100
AcDbLine
 10
882.5891899487395
 20
178.0095063836546
 30
0.0
 11
884.0620531511397
 21
179.4823695860547
 31
0.0
  0
LINE
  5
61D
330
2
100
AcDbEntity
  8
0
  6
Continuous
 62
     1
100
AcDbLine
 10
884.0863974089396
 20
178.0925002815547
 30
0.0
 11
882.6133359656395
 21
176.6194388382547
 31
0.0
  0
LINE
  5
61E
330
2
100
AcDbEntity
  8
0
  6
Continuous
 62
     1
100
AcDbLine
 10
882.6374819825398
 20
175.2293712927547
 30
0.0
 11
884.1107416667396
 21
176.7026309769547
 31
0.0
  0
LINE
  5
61F
330
2
100
AcDbEntity
  8
0
  6
Continuous
 62
     1
100
AcDbLine
 10
884.1350859245395
 20
175.3127616723547
 30
0.0
 11
882.6616279994395
 21
173.8393037473547
 31
0.0
  0
LINE
  5
620
330
2
100
AcDbEntity
  8
0
  6
Continuous
 62
     1
100
AcDbLine
 10
882.6857740163395
 20
172.4492362018547
 30
0.0
 11
884.1594301823397
 21
173.9228923677546
 31
0.0
  0
LINE
  5
621
330
2
100
AcDbEntity
  8
0
  6
Continuous
 62
     1
100
AcDbLine
 10
884.1837744401395
 20
172.5330230632547
 30
0.0
 11
882.7099200333396
 21
171.0591686563547
 31
0.0
  0
LINE
  5
622
330
2
100
AcDbEntity
  8
0
  6
Continuous
 62
     1
100
AcDbLine
 10
882.7340660502395
 20
169.6691011109547
 30
0.0
 11
884.2081186979397
 21
171.1431537586546
 31
0.0
  0
LINE
  5
623
330
2
100
AcDbEntity
  8
0
  6
Continuous
 62
     1
100
AcDbLine
 10
884.2324629557396
 20
169.7532844540547
 30
0.0
 11
882.7582120671396
 21
168.2790335654547
 31
0.0
  0
LINE
  5
624
330
2
100
AcDbEntity
  8
0
  6
Continuous
 62
     1
100
AcDbLine
 10
882.7823580840396
 20
166.8889660199547
 30
0.0
 11
884.2568072135396
 21
168.3634151494547
 31
0.0
  0
LINE
  5
625
330
2
100
AcDbEntity
  8
0
  6
Continuous
 62
     1
100
AcDbLine
 10
884.2811514713394
 20
166.9735458449547
 30
0.0
 11
882.8065041009395
 21
165.4988984745547
 31
0.0
  0
LINE
  5
626
330
2
100
AcDbEntity
  8
0
  6
Continuous
 62
     1
100
AcDbLine
 10
882.8306501178397
 20
164.1088309290547
 30
0.0
 11
884.3054957291396
 21
165.5836765403547
 31
0.0
  0
LINE
  5
627
330
2
100
AcDbEntity
  8
0
  6
Continuous
 62
     1
100
AcDbLine
 10
884.3298399869395
 20
164.1938072357547
 30
0.0
 11
882.8547961347393
 21
162.7187633836546
 31
0.0
  0
LINE
  5
628
330
2
100
AcDbEntity
  8
0
  6
Continuous
 62
     1
100
AcDbLine
 10
882.8789421516397
 20
161.3286958381547
 30
0.0
 11
884.3541842447395
 21
162.8039379311547
 31
0.0
  0
LINE
  5
629
330
2
100
AcDbEntity
  8
0
  6
Continuous
 62
     1
100
AcDbLine
 10
884.3785285025395
 20
161.4140686266547
 30
0.0
 11
882.9030881685396
 21
159.9386282926547
 31
0.0
  0
LINE
  5
62A
330
2
100
AcDbEntity
  8
0
  6
Continuous
 62
     1
100
AcDbLine
 10
882.9272341855395
 20
158.5485607472547
 30
0.0
 11
884.4028727603395
 21
160.0241993220547
 31
0.0
  0
LINE
  5
62B
330
2
100
AcDbEntity
  8
0
  6
Continuous
 62
     1
100
AcDbLine
 10
884.4272170181396
 20
158.6343300174547
 30
0.0
 11
882.9513802024395
 21
157.1584932017547
 31
0.0
  0
LINE
  5
62C
330
2
100
AcDbEntity
  8
0
  6
Continuous
 62
     1
100
AcDbLine
 10
882.9755262193396
 20
155.7684256563547
 30
0.0
 11
884.4515612759396
 21
157.2444607128546
 31
0.0
  0
LINE
  5
62D
330
2
100
AcDbEntity
  8
0
  6
Continuous
 62
     1
100
AcDbLine
 10
884.4759055337396
 20
155.8545914083547
 30
0.0
 11
883.1653782454393
 21
154.5440641200547
 31
0.0
  0
LINE
  5
62E
330
2
100
AcDbEntity
  8
0
  6
Continuous
 62
     1
100
AcDbLine
 10
883.8718966848396
 20
153.8363689970547
 30
0.0
 11
885.0487946071396
 21
155.0132669194546
 31
0.0
  0
LINE
  5
62F
330
2
100
AcDbEntity
  8
0
  6
Continuous
 62
     1
100
AcDbLine
 10
886.4605978674395
 20
155.0108566172547
 30
0.0
 11
884.6647601446393
 21
153.2150188944546
 31
0.0
  0
LINE
  5
630
330
2
100
AcDbEntity
  8
0
  6
Continuous
 62
     1
100
AcDbLine
 10
886.0776893404397
 20
153.2137345279546
 30
0.0
 11
886.4684422132395
 21
153.6044874007547
 31
0.0
  0
LINE
  5
684
330
2
100
AcDbEntity
  8
0
  6
Continuous
 62
     3
100
AcDbLine
 10
859.1704295371396
 20
184.7133798321547
 30
0.0
 11
883.9704295371396
 21
184.7133798321547
 31
0.0
  0
LINE
  5
685
330
2
100
AcDbEntity
  8
0
  6
Continuous
 62
     3
100
AcDbLine
 10
871.8467775893396
 20
154.7133798321547
 30
0.0
 11
872.3704295371396
 21
184.7133798321547
 31
0.0
  0
LINE
  5
686
330
2
100
AcDbEntity
  8
0
  6
Continuous
 62
     3
100
AcDbLine
 10
871.2940814850396
 20
154.7133798321547
 30
0.0
 11
870.7704295371396
 21
184.7133798321547
 31
0.0
  0
LINE
  5
687
330
2
100
AcDbEntity
  8
0
  6
Continuous
 62
     3
100
AcDbLine
 10
866.1868441053396
 20
162.7377851599547
 30
0.0
 11
866.5704295371396
 21
184.7133798321547
 31
0.0
  0
LINE
  5
688
330
2
100
AcDbEntity
  8
0
  6
Continuous
 62
     3
100
AcDbLine
 10
856.6704295371396
 20
153.2133798321547
 30
0.0
 11
886.4704295371396
 21
153.2133798321547
 31
0.0
  0
LINE
  5
689
330
2
100
AcDbEntity
  8
0
  6
Continuous
 62
     3
100
AcDbLine
 10
856.6704295371396
 20
155.0133798321547
 30
0.0
 11
858.1607416412396
 21
155.0133798321547
 31
0.0
  0
LINE
  5
68A
330
2
100
AcDbEntity
  8
0
  6
Continuous
 62
     3
100
AcDbLine
 10
858.6607416412396
 20
155.5133798321547
 30
0.0
 11
859.1704295371396
 21
184.7133798321547
 31
0.0
  0
LINE
  5
68B
330
2
100
AcDbEntity
  8
0
  6
Continuous
 62
     3
100
AcDbLine
 10
858.1607416412396
 20
155.0133798321547
 30
0.0
 11
858.6607416412396
 21
155.5133798321547
 31
0.0
  0
LINE
  5
68C
330
2
100
AcDbEntity
  8
0
  6
Continuous
 62
     3
100
AcDbLine
 10
856.6704295371396
 20
153.2133798321547
 30
0.0
 11
856.6704295371396
 21
155.0133798321547
 31
0.0
  0
LINE
  5
68D
330
2
100
AcDbEntity
  8
0
  6
Continuous
 62
     3
100
AcDbLine
 10
886.4704295371396
 20
153.2133798321547
 30
0.0
 11
886.4704295371396
 21
155.0133798321547
 31
0.0
  0
LINE
  5
68E
330
2
100
AcDbEntity
  8
0
  6
Continuous
 62
     3
100
AcDbLine
 10
884.9801174330396
 20
155.0133798321547
 30
0.0
 11
884.4801174330395
 21
155.5133798321547
 31
0.0
  0
LINE
  5
68F
330
2
100
AcDbEntity
  8
0
  6
Continuous
 62
     3
100
AcDbLine
 10
886.4704295371396
 20
155.0133798321547
 30
0.0
 11
884.9801174330396
 21
155.0133798321547
 31
0.0
  0
LINE
  5
690
330
2
100
AcDbEntity
  8
0
  6
Continuous
 62
     3
100
AcDbLine
 10
871.8467775893396
 20
154.7133798321547
 30
0.0
 11
882.9938529929393
 21
154.7133798321547
 31
0.0
  0
LINE
  5
691
330
2
100
AcDbEntity
  8
0
  6
Continuous
 62
     3
100
AcDbLine
 10
860.1470060813396
 20
154.7133798321547
 30
0.0
 11
871.2940814850396
 21
154.7133798321547
 31
0.0
  0
LINE
  5
692
330
2
100
AcDbEntity
  8
0
  6
Continuous
 62
     3
100
AcDbLine
 10
860.1470060813396
 20
154.7133798321547
 30
0.0
 11
860.6702010799395
 21
184.6872012224547
 31
0.0
  0
ARC
  5
693
330
2
100
AcDbEntity
  8
0
  6
Continuous
 62
     3
100
AcDbCircle
 10
861.1876056295395
 20
162.8250471921547
 30
0.0
 40
5.0
100
AcDbArc
 50
315.0
 51
358.9999999999998
  0
LINE
  5
694
330
2
100
AcDbEntity
  8
0
  6
Continuous
 62
     3
100
AcDbLine
 10
858.6470060813395
 20
153.2133798321547
 30
0.0
 11
864.7231395354392
 21
159.2895132862547
 31
0.0
  0
LINE
  5
695
330
2
100
AcDbEntity
  8
0
  6
Continuous
 62
     3
100
AcDbLine
 10
882.9938529929393
 20
154.7133798321547
 30
0.0
 11
882.4706579944395
 21
184.6872012224547
 31
0.0
  0
LINE
  5
696
330
2
100
AcDbEntity
  8
0
  6
Continuous
 62
     3
100
AcDbLine
 10
884.4801174330395
 20
155.5133798321547
 30
0.0
 11
883.9704295371396
 21
184.7133798321547
 31
0.0
  0
LINE
  5
697
330
2
100
AcDbEntity
  8
0
  6
Continuous
 62
     3
100
AcDbLine
 10
876.9540149690396
 20
162.7377851599547
 30
0.0
 11
876.5704295371396
 21
184.7133798321547
 31
0.0
  0
ARC
  5
698
330
2
100
AcDbEntity
  8
0
  6
Continuous
 62
     3
100
AcDbCircle
 10
881.9532534447397
 20
162.8250471921547
 30
0.0
 40
5.0
100
AcDbArc
 50
181.0000000000001
 51
225.0
  0
LINE
  5
699
330
2
100
AcDbEntity
  8
0
  6
Continuous
 62
     3
100
AcDbLine
 10
884.4938529929393
 20
153.2133798321547
 30
0.0
 11
878.4177195388396
 21
159.2895132862547
 31
0.0
  0
LINE
  5
69A
330
2
100
AcDbEntity
  8
0
  6
Continuous
 62
     3
100
AcDbLine
 10
858.7578964692395
 20
183.9988515986546
 30
0.0
 11
859.1704295371396
 21
184.7133798321547
 31
0.0
  0
LINE
  5
69B
330
2
100
AcDbEntity
  8
0
  6
Continuous
 62
     3
100
AcDbLine
 10
858.2535735648395
 20
155.1062117557547
 30
0.0
 11
858.7578964692395
 21
183.9988515986546
 31
0.0
  0
LINE
  5
71A
330
2
100
AcDbEntity
  8
AM_0 ( Kontur 0.5 )
100
AcDbLine
 10
715.9584384077712
 20
179.5203059339842
 30
0.0
 11
715.9584384077712
 21
177.7203059339842
 31
0.0
  0
LINE
  5
71B
102
{ACAD_REACTORS
330
7F8
102
}
330
2
100
AcDbEntity
  8
AM_0 ( Kontur 0.5 )
100
AcDbLine
 10
715.9584384077712
 20
177.7203059339842
 30
0.0
 11
745.7584384077713
 21
177.7203059339842
 31
0.0
  0
LINE
  5
71C
330
2
100
AcDbEntity
  8
AM_0 ( Kontur 0.5 )
100
AcDbLine
 10
745.7584384077713
 20
177.7203059339842
 30
0.0
 11
745.7584384077713
 21
179.5203059339842
 31
0.0
  0
LINE
  5
721
102
{ACAD_REACTORS
330
83A
330
85B
102
}
330
2
100
AcDbEntity
  8
AM_0 ( Kontur 0.5 )
100
AcDbLine
 10
714.3584384077715
 20
194.5203059339842
 30
0.0
 11
747.3584384077712
 21
194.5203059339842
 31
0.0
  0
LINE
  5
723
330
2
100
AcDbEntity
  8
AM_0 ( Kontur 0.5 )
100
AcDbLine
 10
714.3584384077715
 20
204.5203836077841
 30
0.0
 11
747.3584384077712
 21
204.5203836077841
 31
0.0
  0
ARC
  5
727
330
2
100
AcDbEntity
  8
AM_0 ( Kontur 0.5 )
100
AcDbCircle
 10
730.8584384077712
 20
225.8305499714841
 30
0.0
 40
18.72164522684911
100
AcDbArc
 50
135.9325247775388
 51
136.0218960764746
  0
ARC
  5
728
330
2
100
AcDbEntity
  8
AM_0 ( Kontur 0.5 )
100
AcDbCircle
 10
730.8584384077712
 20
225.8305499714841
 30
0.0
 40
18.72164522684911
100
AcDbArc
 50
48.57702872759318
 51
55.88552705465804
  0
LINE
  5
72F
102
{ACAD_REACTORS
330
77C
102
}
330
2
100
AcDbEntity
  8
AM_3 ( Verdeckt )
  6
AM_ISO02W050x2
100
AcDbLine
 10
724.8584384077712
 20
296.3305499714842
 30
0.0
 11
724.8584384077712
 21
276.1983873297562
 31
0.0
  0
LINE
  5
730
102
{ACAD_REACTORS
330
77C
102
}
330
2
100
AcDbEntity
  8
AM_3 ( Verdeckt )
  6
AM_ISO02W050x2
100
AcDbLine
 10
736.8584384077712
 20
296.3305499714842
 30
0.0
 11
736.8584384077712
 21
276.1983873297562
 31
0.0
  0
LINE
  5
731
102
{ACAD_REACTORS
330
744
102
}
330
2
100
AcDbEntity
  8
AM_2 ( Kontur 0.25)
100
AcDbLine
 10
730.8584384077712
 20
225.8305499714841
 30
0.0
 11
737.0957891323039
 21
255.1749779934983
 31
0.0
  0
DIMENSION
  5
732
102
{ACAD_XDICTIONARY
360
743
102
}
102
{ACAD_REACTORS
330
744
102
}
330
2
100
AcDbEntity
  8
AM_5 ( Bemassung)
100
AcDbDimension
  2
*D14
 10
730.8584384077712
 20
302.6087216684711
 30
0.0
 11
746.1879231203083
 21
307.316785777901
 31
0.0
 70
   162
 71
     5
 42
0.2094395102393187
  3
AM_DIN$2
100
AcDb2LineAngularDimension
 13
730.8584384077712
 23
225.8305499714841
 33
0.0
 14
737.0957891323039
 24
255.1749779934983
 34
0.0
 15
730.8584384077712
 25
171.4320068010469
 35
0.0
 16
736.6423395458125
 26
308.5441898084315
 36
0.0
1001
ACAD_DSTYLE_DIMINSPECT
1070
   396
1000
100%
1070
   395
1000

1070
   394
1070
    33
1070
   393
1070
     0
1001
ACAD
1000
DSTYLE
1002
{
1070
   140
1040
6.0
1002
}
1001
ACAD_DSTYLE_DIMTALN
1070
   392
1070
     0
  0
DIMENSION
  5
76C
102
{ACAD_XDICTIONARY
360
77B
102
}
102
{ACAD_REACTORS
330
77C
102
}
330
2
100
AcDbEntity
  8
AM_5 ( Bemassung)
100
AcDbDimension
  2
*D15
 10
724.8584384077712
 20
317.4075094987369
 30
0.0
 11
730.8584384077712
 21
317.4075094987369
 31
0.0
 70
   160
  1
%%c<>
 71
     5
 42
12.0
  3
AM_DIN$0
100
AcDbAlignedDimension
 13
736.8584384077712
 23
296.3305499714842
 33
0.0
 14
724.8584384077712
 24
296.3305499714842
 34
0.0
100
AcDbRotatedDimension
1001
ACAD_DSTYLE_DIMINSPECT
1070
   396
1000
100%
1070
   395
1000

1070
   394
1070
    33
1070
   393
1070
     0
1001
ACAD
1000
DSTYLE
1002
{
1070
   140
1040
6.0
1002
}
1001
ACAD_DSTYLE_DIMTALN
1070
   392
1070
     0
  0
DIMENSION
  5
78F
102
{ACAD_XDICTIONARY
360
79C
102
}
102
{ACAD_REACTORS
330
79D
102
}
330
2
100
AcDbEntity
  8
AM_5 ( Bemassung)
100
AcDbDimension
  2
*D16
 10
720.3584384077712
 20
334.3456152999197
 30
0.0
 11
731.0110237316862
 21
334.3456152999197
 31
0.0
 70
   160
  1
%%c <>
 71
     5
 42
21.0
  3
AM_DIN$0
100
AcDbAlignedDimension
 13
741.3584384077712
 23
295.330549971484
 33
0.0
 14
720.3584384077712
 24
295.330549971484
 34
0.0
 50
0.0000000000000114
100
AcDbRotatedDimension
1001
ACAD_DSTYLE_DIMINSPECT
1070
   396
1000
100%
1070
   395
1000

1070
   394
1070
    33
1070
   393
1070
     0
1001
ACAD
1000
DSTYLE
1002
{
1070
   140
1040
6.0
1002
}
1001
ACAD_DSTYLE_DIMTALN
1070
   392
1070
     0
  0
DIMENSION
  5
7EA
102
{ACAD_XDICTIONARY
360
7F7
102
}
102
{ACAD_REACTORS
330
7F8
102
}
330
2
100
AcDbEntity
  8
AM_5 ( Bemassung)
100
AcDbDimension
  2
*D17
 10
780.9950364844824
 20
177.7203059339842
 30
0.0
 11
780.9950364844824
 21
237.0254279527342
 31
0.0
 70
   160
  1
118
 71
     5
 42
118.6102440375
  3
AM_DIN$0
100
AcDbAlignedDimension
 13
730.8584384077712
 23
296.3305499714842
 33
0.0
 14
730.8584384077712
 24
177.7203059339842
 34
0.0
 50
90.00000000000005
100
AcDbRotatedDimension
1001
ACAD_DSTYLE_DIMTALN
1070
   392
1070
     0
1001
ACAD
1000
DSTYLE
1002
{
1070
   271
1070
     0
1070
   140
1040
6.0
1002
}
1001
ACAD_DSTYLE_DIMINSPECT
1070
   396
1000
100%
1070
   395
1000

1070
   394
1070
    33
1070
   393
1070
     0
  0
DIMENSION
  5
80B
102
{ACAD_XDICTIONARY
360
818
102
}
102
{ACAD_REACTORS
330
819
102
}
330
2
100
AcDbEntity
  8
AM_5 ( Bemassung)
100
AcDbDimension
  2
*D18
 10
768.0832177312164
 20
177.7203059339842
 30
0.0
 11
768.0832177312164
 21
211.1007173668244
 31
0.0
 70
   160
 71
     5
 42
62.14859245279999
  3
AM_DIN$0
100
AcDbAlignedDimension
 13
745.3561345685307
 23
239.8688983867842
 33
0.0
 14
744.6657837562953
 24
177.7203059339842
 34
0.0
 50
90.00000000000005
100
AcDbRotatedDimension
1001
ACAD_DSTYLE_DIMINSPECT
1070
   396
1000
100%
1070
   395
1000

1070
   394
1070
    33
1070
   393
1070
     0
1001
ACAD_DSTYLE_DIMTALN
1070
   392
1070
     0
1001
ACAD
1000
DSTYLE
1002
{
1070
   140
1040
6.0
1070
   271
1070
     0
1002
}
  0
DIMENSION
  5
82C
102
{ACAD_XDICTIONARY
360
839
102
}
102
{ACAD_REACTORS
330
83A
102
}
330
2
100
AcDbEntity
  8
AM_5 ( Bemassung)
100
AcDbDimension
  2
*D19
 10
760.9991581982137
 20
179.5203059339842
 30
0.0
 11
760.9991581982137
 21
186.6822691162672
 31
0.0
 70
   160
 71
     5
 42
14.99999999999991
  3
AM_DIN$0
100
AcDbAlignedDimension
 13
744.8157721078636
 23
194.5203059339841
 33
0.0
 14
743.5316243632414
 24
179.5203059339842
 34
0.0
 50
90.00000000000005
100
AcDbRotatedDimension
1001
ACAD_DSTYLE_DIMINSPECT
1070
   396
1000
100%
1070
   395
1000

1070
   394
1070
    33
1070
   393
1070
     0
1001
ACAD
1000
DSTYLE
1002
{
1070
   140
1040
6.0
1002
}
1001
ACAD_DSTYLE_DIMTALN
1070
   392
1070
     0
  0
DIMENSION
  5
84D
102
{ACAD_XDICTIONARY
360
85A
102
}
102
{ACAD_REACTORS
330
85B
102
}
330
2
100
AcDbEntity
  8
AM_5 ( Bemassung)
100
AcDbDimension
  2
*D20
 10
706.277587181793
 20
177.7203059339842
 30
0.0
 11
706.277587181793
 21
184.9187676594186
 31
0.0
 70
   160
 71
     5
 42
16.80000000000001
  3
AM_DIN$0
100
AcDbAlignedDimension
 13
730.8584384077715
 23
194.5203059339842
 33
0.0
 14
730.8584384077712
 24
177.7203059339842
 34
0.0
 50
90.00000000000005
100
AcDbRotatedDimension
1001
ACAD_DSTYLE_DIMINSPECT
1070
   396
1000
100%
1070
   395
1000

1070
   394
1070
    33
1070
   393
1070
     0
1001
ACAD
1000
DSTYLE
1002
{
1070
   140
1040
6.0
1002
}
1001
ACAD_DSTYLE_DIMTALN
1070
   392
1070
     0
  0
DIMENSION
  5
86E
102
{ACAD_XDICTIONARY
360
87B
102
}
102
{ACAD_REACTORS
330
87C
102
}
330
2
100
AcDbEntity
  8
AM_5 ( Bemassung)
100
AcDbDimension
  2
*D21
 10
714.3584384077715
 20
159.3762583583582
 30
0.0
 11
729.6524566702636
 21
159.3762583583582
 31
0.0
 70
   160
  1
G1
 71
     5
 42
32.99999999999978
  3
AM_DIN$0
100
AcDbAlignedDimension
 13
747.3584384077712
 23
188.2703059339841
 33
0.0
 14
714.3584384077715
 24
185.7131166568107
 34
0.0
 50
0.0000000000001132
100
AcDbRotatedDimension
1001
ACAD_DSTYLE_DIMINSPECT
1070
   396
1000
100%
1070
   395
1000

1070
   394
1070
    33
1070
   393
1070
     0
1001
ACAD
1000
DSTYLE
1002
{
1070
   140
1040
6.0
1002
}
1001
ACAD_DSTYLE_DIMTALN
1070
   392
1070
     0
  0
CIRCLE
  5
B0A
330
2
100
AcDbEntity
  8
AM_0 ( Kontur 0.5 )
100
AcDbCircle
 10
730.8584384077715
 20
110.9912802845089
 30
0.0
 40
6.0
  0
INSERT
  5
CC7
102
{ACAD_REACTORS
330
CC3
102
}
330
2
100
AcDbEntity
  8
AM_12 ( Teile Referenz)
100
AcDbBlockReference
  2
*S24
 10
0.0
 20
0.0
 30
0.0
  0
INSERT
  5
CCB
102
{ACAD_REACTORS
330
CCA
102
}
330
2
100
AcDbEntity
  8
AM_12 ( Teile Referenz)
100
AcDbBlockReference
  2
*S25
 10
0.0
 20
0.0
 30
0.0
  0
ENDSEC
  0
SECTION
  2
OBJECTS
  0
DICTIONARY
  5
1A
330
0
100
AcDbDictionary
281
     1
  3
ACAD_2007HEADERVARS_RT
350
CDD
  3
ACAD_COLOR
350
5F
  3
ACAD_GROUP
350
18
  3
ACAD_LAYOUT
350
30
  3
ACAD_MATERIAL
350
5E
  3
ACAD_MLEADERSTYLE
350
FA
  3
ACAD_MLINESTYLE
350
19
  3
ACAD_PLOTSETTINGS
350
31
  3
ACAD_PLOTSTYLENAME
350
2E
  3
ACAD_SCALELIST
350
D8
  3
ACAD_TABLESTYLE
350
60
  3
ACAD_VISUALSTYLE
350
C7
  3
ACDB_RECOMPOSE_DATA
350
2A6
  3
AcDbVariableDictionary
350
A3
  3
AcmDictionary
350
15A
  3
AMG
350
FF
  3
AMGSNAPSETTINGS
350
18F
  3
ASE_INDEX_DICTIONARY
350
A6D
  0
DICTIONARY
  5
290
330
A
100
AcDbDictionary
280
     1
281
     1
  3
AMLAYER_GROUPCOLORS
360
291
  0
DICTIONARY
  5
296
330
4
100
AcDbDictionary
280
     1
281
     1
  3
ADSK_XREC_LAYER_RECONCILED
360
297
  0
DICTIONARY
  5
28D
330
28C
100
AcDbDictionary
280
     1
281
     1
  3
ADSK_XREC_LAYER_RECONCILED
360
28E
  0
DICTIONARY
  5
29E
330
28F
100
AcDbDictionary
280
     1
281
     1
  3
ADSK_XREC_LAYER_RECONCILED
360
29F
  0
DICTIONARY
  5
2A0
330
294
100
AcDbDictionary
280
     1
281
     1
  3
ADSK_XREC_LAYER_RECONCILED
360
2A1
  0
DICTIONARY
  5
58
330
2
100
AcDbDictionary
280
     1
281
     1
  3
ACAD_LAYOUTSELFREF
360
59
  3
ACAD_SORTENTS
360
1CD
  0
DICTIONARY
  5
5A
330
7
100
AcDbDictionary
280
     1
281
     1
  3
ACAD_LAYOUTSELFREF
360
5B
  0
DICTIONARY
  5
428
330
41B
100
AcDbDictionary
280
     1
281
     1
  3
ACAD_DIMASSOC
360
429
  0
DICTIONARY
  5
743
330
732
100
AcDbDictionary
280
     1
281
     1
  3
ACAD_DIMASSOC
360
744
  0
DICTIONARY
  5
77B
330
76C
100
AcDbDictionary
280
     1
281
     1
  3
ACAD_DIMASSOC
360
77C
  0
DICTIONARY
  5
79C
330
78F
100
AcDbDictionary
280
     1
281
     1
  3
ACAD_DIMASSOC
360
79D
  0
DICTIONARY
  5
7F7
330
7EA
100
AcDbDictionary
280
     1
281
     1
  3
ACAD_DIMASSOC
360
7F8
  0
DICTIONARY
  5
818
330
80B
100
AcDbDictionary
280
     1
281
     1
  3
ACAD_DIMASSOC
360
819
  0
DICTIONARY
  5
839
330
82C
100
AcDbDictionary
280
     1
281
     1
  3
ACAD_DIMASSOC
360
83A
  0
DICTIONARY
  5
85A
330
84D
100
AcDbDictionary
280
     1
281
     1
  3
ACAD_DIMASSOC
360
85B
  0
DICTIONARY
  5
87B
330
86E
100
AcDbDictionary
280
     1
281
     1
  3
ACAD_DIMASSOC
360
87C
  0
DICTIONARY
  5
CDD
102
{ACAD_REACTORS
330
1A
102
}
330
1A
100
AcDbDictionary
281
     1
  3
DIMJOGANG
350
CDE
  0
DICTIONARY
  5
5F
102
{ACAD_REACTORS
330
1A
102
}
330
1A
100
AcDbDictionary
281
     1
  0
DICTIONARY
  5
18
102
{ACAD_REACTORS
330
1A
102
}
330
1A
100
AcDbDictionary
281
     1
  0
DICTIONARY
  5
30
102
{ACAD_REACTORS
330
1A
102
}
330
1A
100
AcDbDictionary
281
     1
  3
Layout1
350
63
  3
Model
350
62
  0
DICTIONARY
  5
5E
102
{ACAD_REACTORS
330
1A
102
}
330
1A
100
AcDbDictionary
281
     1
  3
ByBlock
350
B7
  3
ByLayer
350
AF
  3
Global
350
BF
  0
DICTIONARY
  5
FA
102
{ACAD_REACTORS
330
1A
102
}
330
1A
100
AcDbDictionary
281
     1
  0
DICTIONARY
  5
19
102
{ACAD_REACTORS
330
1A
102
}
330
1A
100
AcDbDictionary
281
     1
  3
STANDARD
350
1C
  0
DICTIONARY
  5
31
102
{ACAD_REACTORS
330
1A
102
}
330
1A
100
AcDbDictionary
281
     1
  0
ACDBDICTIONARYWDFLT
  5
2E
102
{ACAD_REACTORS
330
1A
102
}
330
1A
100
AcDbDictionary
281
     1
  3
Normal
350
2F
100
AcDbDictionaryWithDefault
340
2F
  0
DICTIONARY
  5
D8
102
{ACAD_REACTORS
330
1A
102
}
330
1A
100
AcDbDictionary
281
     1
  3
A0
350
D9
  3
A1
350
DA
  3
A2
350
DB
  3
A3
350
DC
  3
A4
350
DD
  3
A5
350
DE
  3
A6
350
DF
  3
A7
350
E0
  3
A8
350
E1
  3
A9
350
E2
  3
B0
350
E3
  3
B1
350
E4
  3
B2
350
E5
  3
B3
350
E6
  3
B4
350
E7
  3
B5
350
E8
  3
B6
350
E9
  3
B7
350
EA
  3
B8
350
EB
  3
B9
350
EC
  3
C0
350
ED
  3
C1
350
EE
  3
C2
350
EF
  3
C3
350
F0
  3
C4
350
F1
  3
C5
350
F2
  3
C6
350
F3
  3
C7
350
F4
  3
C8
350
F5
  3
C9
350
F6
  3
D0
350
F7
  3
D1
350
F8
  3
D2
350
F9
  0
DICTIONARY
  5
60
102
{ACAD_REACTORS
330
1A
102
}
330
1A
100
AcDbDictionary
281
     1
  3
Standard
350
61
  0
DICTIONARY
  5
C7
102
{ACAD_REACTORS
330
1A
102
}
330
1A
100
AcDbDictionary
281
     1
  3
2dWireframe
350
CD
  3
3D Hidden
350
CF
  3
3dWireframe
350
CE
  3
Basic
350
CC
  3
Brighten
350
D3
  3
ColorChange
350
D7
  3
Conceptual
350
D0
  3
Dim
350
D2
  3
Facepattern
350
D6
  3
Flat
350
C8
  3
FlatWithEdges
350
C9
  3
Gouraud
350
CA
  3
GouraudWithEdges
350
CB
  3
Linepattern
350
D5
  3
Realistic
350
D1
  3
Thicken
350
D4
  0
XRECORD
  5
2A6
102
{ACAD_REACTORS
330
1A
102
}
330
1A
100
AcDbXrecord
280
     1
 90
        1
330
61
  0
DICTIONARY
  5
A3
102
{ACAD_REACTORS
330
1A
102
}
330
1A
100
AcDbDictionary
281
     1
  3
CANNOSCALE
350
2A3
  3
CMLEADERSTYLE
350
2A2
  3
CTABLESTYLE
350
A4
  3
DIMASSOC
350
A5
  3
PROJECTNAME
350
A6
  0
DICTIONARY
  5
15A
102
{ACAD_REACTORS
330
1A
102
}
330
1A
100
AcDbDictionary
281
     1
  3
AcmStdDictionary
350
165
  3
AMDTSECTSYM_ARROWCOLOR
350
17A
  0
DICTIONARY
  5
FF
102
{ACAD_REACTORS
330
1A
102
}
330
1A
100
AcDbDictionary
281
     1
  0
DICTIONARY
  5
18F
102
{ACAD_REACTORS
330
1A
102
}
330
1A
100
AcDbDictionary
281
     1
  0
DICTIONARY
  5
A6D
102
{ACAD_REACTORS
330
1A
102
}
330
1A
100
AcDbDictionary
281
     1
  3
ASEBlockHierarchyIndexRecord
350
A6E
1001
DCO15
1040
1636864014.736
  0
DICTIONARY
  5
291
102
{ACAD_REACTORS
330
290
102
}
330
290
100
AcDbDictionary
280
     1
281
     1
  0
XRECORD
  5
297
102
{ACAD_REACTORS
330
296
102
}
330
296
100
AcDbXrecord
280
     1
290
     1
  0
XRECORD
  5
28E
102
{ACAD_REACTORS
330
28D
102
}
330
28D
100
AcDbXrecord
280
     1
290
     1
  0
XRECORD
  5
29F
102
{ACAD_REACTORS
330
29E
102
}
330
29E
100
AcDbXrecord
280
     1
290
     1
  0
XRECORD
  5
2A1
102
{ACAD_REACTORS
330
2A0
102
}
330
2A0
100
AcDbXrecord
280
     1
290
     1
  0
XRECORD
  5
59
102
{ACAD_REACTORS
330
58
102
}
330
58
100
AcDbXrecord
280
     1
340
2
  0
SORTENTSTABLE
  5
1CD
102
{ACAD_REACTORS
330
58
102
}
330
58
100
AcDbSortentsTable
330
2
331
626
  5
628
331
62E
  5
630
331
1A4
  5
1A4
331
603
  5
605
331
1AC
  5
1AC
331
686
  5
688
331
41B
  5
589
331
1B4
  5
1B4
331
68E
  5
690
331
696
  5
698
331
60F
  5
611
331
1BC
  5
1BD
331
1C4
  5
1C5
331
617
  5
619
331
19D
  5
19D
331
61F
  5
621
331
627
  5
629
331
1A5
  5
1A5
331
62F
  5
631
331
604
  5
606
331
687
  5
689
331
1AD
  5
1AD
331
26
  5
26
331
28
  5
28
331
1B5
  5
1B5
331
608
  5
60A
331
68F
  5
691
331
196
  5
196
331
1BD
  5
1BE
331
610
  5
612
331
697
  5
699
331
19E
  5
19E
331
618
  5
61A
331
1C5
  5
1C6
331
620
  5
622
331
628
  5
62A
331
1A6
  5
1A6
331
595
  5
597
331
630
  5
632
331
727
  5
1B6
331
605
  5
607
331
1AE
  5
1AE
331
1E
  5
1E
331
27
  5
27
331
29
  5
29
331
688
  5
68A
331
690
  5
692
331
197
  5
197
331
609
  5
60B
331
1B6
  5
1B7
331
698
  5
69A
331
611
  5
613
331
1BE
  5
1BF
331
1C6
  5
1C8
331
619
  5
61B
331
19F
  5
19F
331
1C8
  5
1CA
331
621
  5
623
331
629
  5
62B
331
1A7
  5
1A7
331
606
  5
608
331
1AF
  5
1AF
331
1F
  5
1F
331
20
  5
20
331
2A
  5
2A
331
689
  5
68B
331
1B7
  5
1B8
331
60A
  5
60C
331
691
  5
693
331
198
  5
198
331
1BF
  5
1C0
331
612
  5
614
331
699
  5
69B
331
61A
  5
61C
331
1C7
  5
1C9
331
1C9
  5
1CB
331
622
  5
624
331
62A
  5
62C
331
721
  5
727
331
1A0
  5
1A0
331
1A8
  5
1A8
331
607
  5
609
331
21
  5
21
331
2B
  5
2B
331
1B0
  5
1B0
331
68A
  5
68C
331
692
  5
694
331
60B
  5
60D
331
1B8
  5
1B9
331
1C0
  5
1C1
331
69A
  5
69C
331
199
  5
199
331
613
  5
615
331
61B
  5
61D
331
71A
  5
71C
331
1CA
  5
1CC
331
728
  5
1C7
331
623
  5
625
331
1A1
  5
1A1
331
62B
  5
62D
331
1A9
  5
1A9
331
1B1
  5
1B1
331
68B
  5
68D
331
1B9
  5
1BA
331
60C
  5
60E
331
693
  5
695
331
19A
  5
19A
331
1C1
  5
1C2
331
614
  5
616
331
69B
  5
69D
331
71B
  5
721
331
61C
  5
61E
331
1CB
  5
41B
331
624
  5
626
331
62C
  5
62E
331
723
  5
728
331
1A2
  5
1A2
331
601
  5
603
331
1AA
  5
1AA
331
684
  5
686
331
1B2
  5
1B2
331
68C
  5
68E
331
694
  5
696
331
60D
  5
60F
331
1BA
  5
1BB
331
1C2
  5
1C3
331
615
  5
617
331
19B
  5
19B
331
61D
  5
61F
331
71C
  5
723
331
1CC
  5
588
331
625
  5
627
331
1A3
  5
1A3
331
62D
  5
62F
331
602
  5
604
331
685
  5
687
331
1AB
  5
1AB
331
24
  5
24
331
1B3
  5
1B3
331
68D
  5
68F
331
1BB
  5
1BC
331
60E
  5
610
331
695
  5
697
331
19C
  5
19C
331
616
  5
618
331
1C3
  5
1C4
331
61E
  5
620
  0
XRECORD
  5
5B
102
{ACAD_REACTORS
330
5A
102
}
330
5A
100
AcDbXrecord
280
     1
340
7
  0
DIMASSOC
  5
429
102
{ACAD_REACTORS
330
428
102
}
330
428
100
AcDbDimAssoc
330
41B
 90
        3
 70
     0
 71
     0
  1
AcDbOsnapPointRef
 72
     6
331
21
 73
     0
 91
        0
 40
0.1634035686121575
 10
0.0
 20
0.0
 30
0.0
332
28
 74
     0
 92
        0
 75
     0
  1
AcDbOsnapPointRef
 72
     6
331
21
 73
     0
 91
        0
 40
0.8373529325698742
 10
0.0
 20
0.0
 30
0.0
332
24
 74
     0
 92
        0
 75
     0
  0
DIMASSOC
  5
744
102
{ACAD_REACTORS
330
743
102
}
330
743
100
AcDbDimAssoc
330
732
 90
       15
 70
     0
 71
     0
  1
AcDbOsnapPointRef
 72
    13
331
731
 73
     2
 91
        0
 40
0.0
 10
0.0
 20
0.0
 30
2.000000000000000E+50
 75
     0
  1
AcDbOsnapPointRef
 72
     1
331
731
 73
     2
 91
        0
 40
0.0
 10
0.0
 20
0.0
 30
2.000000000000000E+50
 75
     0
  1
AcDbOsnapPointRef
 72
    13
331
198
 73
     2
 91
        0
 40
0.0
 10
0.0
 20
0.0
 30
2.000000000000000E+50
 75
     0
  1
AcDbOsnapPointRef
 72
     1
331
198
 73
     2
 91
        0
 40
0.0
 10
0.0
 20
0.0
 30
2.000000000000000E+50
 75
     0
  0
DIMASSOC
  5
77C
102
{ACAD_REACTORS
330
77B
102
}
330
77B
100
AcDbDimAssoc
330
76C
 90
        3
 70
     0
 71
     0
  1
AcDbOsnapPointRef
 72
    13
331
730
 73
     0
 91
        0
 40
0.0
 10
0.0
 20
0.0
 30
2.000000000000000E+50
 75
     0
  1
AcDbOsnapPointRef
 72
    13
331
72F
 73
     0
 91
        0
 40
0.0
 10
0.0
 20
0.0
 30
2.000000000000000E+50
 75
     0
  0
DIMASSOC
  5
79D
102
{ACAD_REACTORS
330
79C
102
}
330
79C
100
AcDbDimAssoc
330
78F
 90
        3
 70
     0
 71
     0
  1
AcDbOsnapPointRef
 72
     1
331
1CC
 73
     0
 91
        0
 40
0.0
 10
0.0
 20
0.0
 30
2.000000000000000E+50
 75
     0
  1
AcDbOsnapPointRef
 72
     1
331
1CB
 73
     0
 91
        0
 40
0.0
 10
0.0
 20
0.0
 30
2.000000000000000E+50
 75
     0
  0
DIMASSOC
  5
7F8
102
{ACAD_REACTORS
330
7F7
102
}
330
7F7
100
AcDbDimAssoc
330
7EA
 90
        3
 70
     0
 71
     0
  1
AcDbOsnapPointRef
 72
    13
331
1C9
 73
     0
 91
        0
 40
0.0
 10
0.0
 20
0.0
 30
2.000000000000000E+50
 75
     0
  1
AcDbOsnapPointRef
 72
     2
331
71B
 73
     0
 91
        0
 40
0.0
 10
0.0
 20
0.0
 30
0.0
 75
     0
  0
DIMASSOC
  5
819
102
{ACAD_REACTORS
330
818
102
}
330
818
100
AcDbDimAssoc
330
80B
 90
        1
 70
     0
 71
     0
  1
AcDbOsnapPointRef
 72
    10
331
19A
 73
     0
 91
        0
 40
0.8284397806148328
 10
0.0
 20
0.0
 30
0.0
 75
     0
  0
DIMASSOC
  5
83A
102
{ACAD_REACTORS
330
839
102
}
330
839
100
AcDbDimAssoc
330
82C
 90
        3
 70
     0
 71
     0
  1
AcDbOsnapPointRef
 72
    10
331
721
 73
     0
 91
        0
 40
0.9229495060634079
 10
0.0
 20
0.0
 30
0.0
 75
     0
  1
AcDbOsnapPointRef
 72
    10
331
19F
 73
     0
 91
        0
 40
0.8448790636980218
 10
0.0
 20
0.0
 30
0.0
 75
     0
  0
DIMASSOC
  5
85B
102
{ACAD_REACTORS
330
85A
102
}
330
85A
100
AcDbDimAssoc
330
84D
 90
        1
 70
     0
 71
     0
  1
AcDbOsnapPointRef
 72
     2
331
721
 73
     0
 91
        0
 40
0.0
 10
0.0
 20
0.0
 30
0.0
 75
     0
  0
DIMASSOC
  5
87C
102
{ACAD_REACTORS
330
87B
102
}
330
87B
100
AcDbDimAssoc
330
86E
 90
        3
 70
     0
 71
     0
  1
AcDbOsnapPointRef
 72
     2
331
1BB
 73
     0
 91
        0
 40
0.0
 10
0.0
 20
0.0
 30
0.0
 75
     0
  1
AcDbOsnapPointRef
 72
    10
331
1A6
 73
     0
 91
        0
 40
0.3236421188156326
 10
0.0
 20
0.0
 30
0.0
 75
     0
  0
XRECORD
  5
CDE
102
{ACAD_REACTORS
330
CDD
102
}
330
CDD
100
AcDbXrecord
280
     1
 40
1.570796326794896
  0
LAYOUT
  5
63
102
{ACAD_REACTORS
330
30
102
}
330
30
100
AcDbPlotSettings
  1

  2
\\OASE42\HP DesignJet 500 42+HPGL2 Card
  4

  6

 40
0.0
 41
0.0
 42
0.0
 43
0.0
 44
0.0
 45
0.0
 46
0.0
 47
0.0
 48
0.0
 49
0.0
140
0.0
141
0.0
142
1.0
143
1.0
 70
   688
 72
     0
 73
     0
 74
     5
  7
Kein
 75
    16
147
1.0
 76
     0
 77
     2
 78
   300
148
0.0
149
0.0
100
AcDbLayout
  1
Layout1
 70
     0
 71
     1
 10
0.0
 20
0.0
 11
12.0
 21
9.0
 12
0.0
 22
0.0
 32
0.0
 14
1.000000000000000E+20
 24
1.000000000000000E+20
 34
1.000000000000000E+20
 15
-1.000000000000000E+20
 25
-1.000000000000000E+20
 35
-1.000000000000000E+20
146
0.0
 13
0.0
 23
0.0
 33
0.0
 16
1.0
 26
0.0
 36
0.0
 17
0.0
 27
1.0
 37
0.0
 76
     0
330
7
  0
LAYOUT
  5
62
102
{ACAD_REACTORS
330
30
102
}
330
30
100
AcDbPlotSettings
  1

  2
\\OASE42\HP DesignJet 500 42+HPGL2 Card
  4

  6

 40
0.0
 41
0.0
 42
0.0
 43
0.0
 44
0.0
 45
0.0
 46
0.0
 47
0.0
 48
0.0
 49
0.0
140
0.0
141
0.0
142
1.0
143
1.0
 70
  1712
 72
     0
 73
     0
 74
     0
  7
Kein
 75
     0
147
1.0
 76
     0
 77
     2
 78
   300
148
0.0
149
0.0
100
AcDbLayout
  1
Model
 70
     1
 71
     0
 10
0.0
 20
0.0
 11
12.0
 21
9.0
 12
0.0
 22
0.0
 32
0.0
 14
0.0
 24
0.0
 34
0.0
 15
0.0
 25
0.0
 35
0.0
146
0.0
 13
0.0
 23
0.0
 33
0.0
 16
1.0
 26
0.0
 36
0.0
 17
0.0
 27
1.0
 37
0.0
 76
     0
330
2
331
A7
  0
MATERIAL
  5
B7
102
{ACAD_XDICTIONARY
360
B8
102
}
102
{ACAD_REACTORS
330
5E
102
}
330
5E
100
AcDbMaterial
  1
ByBlock
 72
     0
 43
0.0208333333333333
 43
0.0
 43
0.0
 43
0.0
 43
0.0
 43
0.0208333333333333
 43
0.0
 43
0.0
 43
0.0
 43
0.0
 43
1.0
 43
0.0
 43
0.0
 43
0.0
 43
0.0
 43
1.0
 77
     0
 47
0.0208333333333333
 47
0.0
 47
0.0
 47
0.0
 47
0.0
 47
0.0208333333333333
 47
0.0
 47
0.0
 47
0.0
 47
0.0
 47
1.0
 47
0.0
 47
0.0
 47
0.0
 47
0.0
 47
1.0
171
     0
 49
0.0208333333333333
 49
0.0
 49
0.0
 49
0.0
 49
0.0
 49
0.0208333333333333
 49
0.0
 49
0.0
 49
0.0
 49
0.0
 49
1.0
 49
0.0
 49
0.0
 49
0.0
 49
0.0
 49
1.0
175
     0
142
0.0208333333333333
142
0.0
142
0.0
142
0.0
142
0.0
142
0.0208333333333333
142
0.0
142
0.0
142
0.0
142
0.0
142
1.0
142
0.0
142
0.0
142
0.0
142
0.0
142
1.0
179
     0
144
0.0208333333333333
144
0.0
144
0.0
144
0.0
144
0.0
144
0.0208333333333333
144
0.0
144
0.0
144
0.0
144
0.0
144
1.0
144
0.0
144
0.0
144
0.0
144
0.0
144
1.0
147
0.0208333333333333
147
0.0
147
0.0
147
0.0
147
0.0
147
0.0208333333333333
147
0.0
147
0.0
147
0.0
147
0.0
147
1.0
147
0.0
147
0.0
147
0.0
147
0.0
147
1.0
  0
MATERIAL
  5
AF
102
{ACAD_XDICTIONARY
360
B0
102
}
102
{ACAD_REACTORS
330
5E
102
}
330
5E
100
AcDbMaterial
  1
ByLayer
 72
     0
 43
0.0208333333333333
 43
0.0
 43
0.0
 43
0.0
 43
0.0
 43
0.0208333333333333
 43
0.0
 43
0.0
 43
0.0
 43
0.0
 43
1.0
 43
0.0
 43
0.0
 43
0.0
 43
0.0
 43
1.0
 77
     0
 47
0.0208333333333333
 47
0.0
 47
0.0
 47
0.0
 47
0.0
 47
0.0208333333333333
 47
0.0
 47
0.0
 47
0.0
 47
0.0
 47
1.0
 47
0.0
 47
0.0
 47
0.0
 47
0.0
 47
1.0
171
     0
 49
0.0208333333333333
 49
0.0
 49
0.0
 49
0.0
 49
0.0
 49
0.0208333333333333
 49
0.0
 49
0.0
 49
0.0
 49
0.0
 49
1.0
 49
0.0
 49
0.0
 49
0.0
 49
0.0
 49
1.0
175
     0
142
0.0208333333333333
142
0.0
142
0.0
142
0.0
142
0.0
142
0.0208333333333333
142
0.0
142
0.0
142
0.0
142
0.0
142
1.0
142
0.0
142
0.0
142
0.0
142
0.0
142
1.0
179
     0
144
0.0208333333333333
144
0.0
144
0.0
144
0.0
144
0.0
144
0.0208333333333333
144
0.0
144
0.0
144
0.0
144
0.0
144
1.0
144
0.0
144
0.0
144
0.0
144
0.0
144
1.0
147
0.0208333333333333
147
0.0
147
0.0
147
0.0
147
0.0
147
0.0208333333333333
147
0.0
147
0.0
147
0.0
147
0.0
147
1.0
147
0.0
147
0.0
147
0.0
147
0.0
147
1.0
  0
MATERIAL
  5
BF
102
{ACAD_XDICTIONARY
360
C0
102
}
102
{ACAD_REACTORS
330
5E
102
}
330
5E
100
AcDbMaterial
  1
Global
 72
     0
 43
0.0208333333333333
 43
0.0
 43
0.0
 43
0.0
 43
0.0
 43
0.0208333333333333
 43
0.0
 43
0.0
 43
0.0
 43
0.0
 43
1.0
 43
0.0
 43
0.0
 43
0.0
 43
0.0
 43
1.0
 77
     0
 47
0.0208333333333333
 47
0.0
 47
0.0
 47
0.0
 47
0.0
 47
0.0208333333333333
 47
0.0
 47
0.0
 47
0.0
 47
0.0
 47
1.0
 47
0.0
 47
0.0
 47
0.0
 47
0.0
 47
1.0
171
     0
 49
0.0208333333333333
 49
0.0
 49
0.0
 49
0.0
 49
0.0
 49
0.0208333333333333
 49
0.0
 49
0.0
 49
0.0
 49
0.0
 49
1.0
 49
0.0
 49
0.0
 49
0.0
 49
0.0
 49
1.0
175
     0
142
0.0208333333333333
142
0.0
142
0.0
142
0.0
142
0.0
142
0.0208333333333333
142
0.0
142
0.0
142
0.0
142
0.0
142
1.0
142
0.0
142
0.0
142
0.0
142
0.0
142
1.0
179
     0
144
0.0208333333333333
144
0.0
144
0.0
144
0.0
144
0.0
144
0.0208333333333333
144
0.0
144
0.0
144
0.0
144
0.0
144
1.0
144
0.0
144
0.0
144
0.0
144
0.0
144
1.0
147
0.0208333333333333
147
0.0
147
0.0
147
0.0
147
0.0
147
0.0208333333333333
147
0.0
147
0.0
147
0.0
147
0.0
147
1.0
147
0.0
147
0.0
147
0.0
147
0.0
147
1.0
  0
MLINESTYLE
  5
1C
102
{ACAD_REACTORS
330
19
102
}
330
19
100
AcDbMlineStyle
  2
STANDARD
 70
     0
  3

 62
   256
 51
90.0
 52
90.0
 71
     2
 49
0.5
 62
   256
  6
BYLAYER
 49
-0.5
 62
   256
  6
BYLAYER
  0
ACDBPLACEHOLDER
  5
2F
102
{ACAD_REACTORS
330
2E
102
}
330
2E
  0
SCALE
  5
D9
102
{ACAD_REACTORS
330
D8
102
}
330
D8
100
AcDbScale
 70
     0
300
1:1
140
1.0
141
1.0
290
     1
  0
SCALE
  5
DA
102
{ACAD_REACTORS
330
D8
102
}
330
D8
100
AcDbScale
 70
     0
300
1:2
140
1.0
141
2.0
290
     0
  0
SCALE
  5
DB
102
{ACAD_REACTORS
330
D8
102
}
330
D8
100
AcDbScale
 70
     0
300
1:4
140
1.0
141
4.0
290
     0
  0
SCALE
  5
DC
102
{ACAD_REACTORS
330
D8
102
}
330
D8
100
AcDbScale
 70
     0
300
1:5
140
1.0
141
5.0
290
     0
  0
SCALE
  5
DD
102
{ACAD_REACTORS
330
D8
102
}
330
D8
100
AcDbScale
 70
     0
300
1:8
140
1.0
141
8.0
290
     0
  0
SCALE
  5
DE
102
{ACAD_REACTORS
330
D8
102
}
330
D8
100
AcDbScale
 70
     0
300
1:10
140
1.0
141
10.0
290
     0
  0
SCALE
  5
DF
102
{ACAD_REACTORS
330
D8
102
}
330
D8
100
AcDbScale
 70
     0
300
1:16
140
1.0
141
16.0
290
     0
  0
SCALE
  5
E0
102
{ACAD_REACTORS
330
D8
102
}
330
D8
100
AcDbScale
 70
     0
300
1:20
140
1.0
141
20.0
290
     0
  0
SCALE
  5
E1
102
{ACAD_REACTORS
330
D8
102
}
330
D8
100
AcDbScale
 70
     0
300
1:30
140
1.0
141
30.0
290
     0
  0
SCALE
  5
E2
102
{ACAD_REACTORS
330
D8
102
}
330
D8
100
AcDbScale
 70
     0
300
1:40
140
1.0
141
40.0
290
     0
  0
SCALE
  5
E3
102
{ACAD_REACTORS
330
D8
102
}
330
D8
100
AcDbScale
 70
     0
300
1:50
140
1.0
141
50.0
290
     0
  0
SCALE
  5
E4
102
{ACAD_REACTORS
330
D8
102
}
330
D8
100
AcDbScale
 70
     0
300
1:100
140
1.0
141
100.0
290
     0
  0
SCALE
  5
E5
102
{ACAD_REACTORS
330
D8
102
}
330
D8
100
AcDbScale
 70
     0
300
2:1
140
2.0
141
1.0
290
     0
  0
SCALE
  5
E6
102
{ACAD_REACTORS
330
D8
102
}
330
D8
100
AcDbScale
 70
     0
300
4:1
140
4.0
141
1.0
290
     0
  0
SCALE
  5
E7
102
{ACAD_REACTORS
330
D8
102
}
330
D8
100
AcDbScale
 70
     0
300
8:1
140
8.0
141
1.0
290
     0
  0
SCALE
  5
E8
102
{ACAD_REACTORS
330
D8
102
}
330
D8
100
AcDbScale
 70
     0
300
10:1
140
10.0
141
1.0
290
     0
  0
SCALE
  5
E9
102
{ACAD_REACTORS
330
D8
102
}
330
D8
100
AcDbScale
 70
     0
300
100:1
140
100.0
141
1.0
290
     0
  0
SCALE
  5
EA
102
{ACAD_REACTORS
330
D8
102
}
330
D8
100
AcDbScale
 70
     0
300
1/128" = 1'-0"
140
0.0078125
141
12.0
290
     0
  0
SCALE
  5
EB
102
{ACAD_REACTORS
330
D8
102
}
330
D8
100
AcDbScale
 70
     0
300
1/64" = 1'-0"
140
0.015625
141
12.0
290
     0
  0
SCALE
  5
EC
102
{ACAD_REACTORS
330
D8
102
}
330
D8
100
AcDbScale
 70
     0
300
1/32" = 1'-0"
140
0.03125
141
12.0
290
     0
  0
SCALE
  5
ED
102
{ACAD_REACTORS
330
D8
102
}
330
D8
100
AcDbScale
 70
     0
300
1/16" = 1'-0"
140
0.0625
141
12.0
290
     0
  0
SCALE
  5
EE
102
{ACAD_REACTORS
330
D8
102
}
330
D8
100
AcDbScale
 70
     0
300
3/32" = 1'-0"
140
0.09375
141
12.0
290
     0
  0
SCALE
  5
EF
102
{ACAD_REACTORS
330
D8
102
}
330
D8
100
AcDbScale
 70
     0
300
1/8" = 1'-0"
140
0.125
141
12.0
290
     0
  0
SCALE
  5
F0
102
{ACAD_REACTORS
330
D8
102
}
330
D8
100
AcDbScale
 70
     0
300
3/16" = 1'-0"
140
0.1875
141
12.0
290
     0
  0
SCALE
  5
F1
102
{ACAD_REACTORS
330
D8
102
}
330
D8
100
AcDbScale
 70
     0
300
1/4" = 1'-0"
140
0.25
141
12.0
290
     0
  0
SCALE
  5
F2
102
{ACAD_REACTORS
330
D8
102
}
330
D8
100
AcDbScale
 70
     0
300
3/8" = 1'-0"
140
0.375
141
12.0
290
     0
  0
SCALE
  5
F3
102
{ACAD_REACTORS
330
D8
102
}
330
D8
100
AcDbScale
 70
     0
300
1/2" = 1'-0"
140
0.5
141
12.0
290
     0
  0
SCALE
  5
F4
102
{ACAD_REACTORS
330
D8
102
}
330
D8
100
AcDbScale
 70
     0
300
3/4" = 1'-0"
140
0.75
141
12.0
290
     0
  0
SCALE
  5
F5
102
{ACAD_REACTORS
330
D8
102
}
330
D8
100
AcDbScale
 70
     0
300
1" = 1'-0"
140
1.0
141
12.0
290
     0
  0
SCALE
  5
F6
102
{ACAD_REACTORS
330
D8
102
}
330
D8
100
AcDbScale
 70
     0
300
1-1/2" = 1'-0"
140
1.5
141
12.0
290
     0
  0
SCALE
  5
F7
102
{ACAD_REACTORS
330
D8
102
}
330
D8
100
AcDbScale
 70
     0
300
3" = 1'-0"
140
3.0
141
12.0
290
     0
  0
SCALE
  5
F8
102
{ACAD_REACTORS
330
D8
102
}
330
D8
100
AcDbScale
 70
     0
300
6" = 1'-0"
140
6.0
141
12.0
290
     0
  0
SCALE
  5
F9
102
{ACAD_REACTORS
330
D8
102
}
330
D8
100
AcDbScale
 70
     0
300
1'-0" = 1'-0"
140
12.0
141
12.0
290
     0
  0
TABLESTYLE
  5
61
102
{ACAD_XDICTIONARY
360
2A4
102
}
102
{ACAD_REACTORS
330
60
102
}
330
60
100
AcDbTableStyle
  3
Standard
 70
     0
 71
     0
 40
0.06
 41
0.06
280
     0
281
     0
  7
STANDARD
140
0.18
170
     2
 62
     0
 63
     7
283
     0
274
    -2
284
     1
 64
     0
275
    -2
285
     1
 65
     0
276
    -2
286
     1
 66
     0
277
    -2
287
     1
 67
     0
278
    -2
288
     1
 68
     0
279
    -2
289
     1
 69
     0
  7
STANDARD
140
0.25
170
     5
 62
     0
 63
     7
283
     0
274
    -2
284
     1
 64
     0
275
    -2
285
     1
 65
     0
276
    -2
286
     1
 66
     0
277
    -2
287
     1
 67
     0
278
    -2
288
     1
 68
     0
279
    -2
289
     1
 69
     0
  7
STANDARD
140
0.18
170
     5
 62
     0
 63
     7
283
     0
274
    -2
284
     1
 64
     0
275
    -2
285
     1
 65
     0
276
    -2
286
     1
 66
     0
277
    -2
287
     1
 67
     0
278
    -2
288
     1
 68
     0
279
    -2
289
     1
 69
     0
  0
VISUALSTYLE
  5
CD
102
{ACAD_REACTORS
330
C7
102
}
330
C7
100
AcDbVisualStyle
  2
2dWireframe
 70
     4
 71
     0
 72
     2
 73
     0
 90
        0
 40
-0.6
 41
-30.0
 62
     5
 63
     7
421
 16777215
 74
     1
 91
        4
 64
     7
 65
   257
 75
     1
175
     1
 42
1.0
 92
        0
 66
   257
 43
1.0
 76
     1
 77
     6
 78
     2
 67
     7
 79
     5
170
     0
171
     0
290
     0
174
     0
 93
        1
 44
0.0
173
     0
291
     0
 45
0.0
1001
ACAD
1000
AcDbSavedByObjectVersion
1070
     0
1000
AcDbSavedByObjectVersion
1070
     0
1000
AcDbSavedByObjectVersion
1070
     0
1000
AcDbSavedByObjectVersion
1070
     0
  0
VISUALSTYLE
  5
CF
102
{ACAD_REACTORS
330
C7
102
}
330
C7
100
AcDbVisualStyle
  2
3D Hidden
 70
     6
 71
     1
 72
     2
 73
     2
 90
        0
 40
-0.6
 41
-30.0
 62
     5
 63
     7
421
 16777215
 74
     2
 91
        2
 64
     7
 65
   257
 75
     2
175
     1
 42
40.0
 92
        0
 66
   257
 43
1.0
 76
     1
 77
     6
 78
     2
 67
     7
 79
     3
170
     0
171
     0
290
     0
174
     0
 93
        1
 44
0.0
173
     0
291
     0
 45
0.0
1001
ACAD
1000
AcDbSavedByObjectVersion
1070
     0
1000
AcDbSavedByObjectVersion
1070
     0
1000
AcDbSavedByObjectVersion
1070
     0
1000
AcDbSavedByObjectVersion
1070
     0
  0
VISUALSTYLE
  5
CE
102
{ACAD_REACTORS
330
C7
102
}
330
C7
100
AcDbVisualStyle
  2
3dWireframe
 70
     5
 71
     0
 72
     2
 73
     0
 90
        0
 40
-0.6
 41
-30.0
 62
     5
 63
     7
421
 16777215
 74
     1
 91
        4
 64
     7
 65
   257
 75
     1
175
     1
 42
1.0
 92
        0
 66
   257
 43
1.0
 76
     1
 77
     6
 78
     2
 67
     7
 79
     5
170
     0
171
     0
290
     0
174
     0
 93
        1
 44
0.0
173
     0
291
     0
 45
0.0
1001
ACAD
1000
AcDbSavedByObjectVersion
1070
     0
1000
AcDbSavedByObjectVersion
1070
     0
1000
AcDbSavedByObjectVersion
1070
     0
1000
AcDbSavedByObjectVersion
1070
     0
  0
VISUALSTYLE
  5
CC
102
{ACAD_REACTORS
330
C7
102
}
330
C7
100
AcDbVisualStyle
  2
Basic
 70
     7
 71
     1
 72
     0
 73
     1
 90
        0
 40
-0.6
 41
-30.0
 62
     5
 63
     7
421
 16777215
 74
     0
 91
        4
 64
     7
 65
   257
 75
     1
175
     1
 42
1.0
 92
        8
 66
     7
 43
1.0
 76
     1
 77
     6
 78
     2
 67
     7
 79
     5
170
     0
171
     0
290
     0
174
     0
 93
        1
 44
0.0
173
     0
291
     1
 45
0.0
1001
ACAD
1000
AcDbSavedByObjectVersion
1070
     0
1000
AcDbSavedByObjectVersion
1070
     0
1000
AcDbSavedByObjectVersion
1070
     0
1000
AcDbSavedByObjectVersion
1070
     0
  0
VISUALSTYLE
  5
D3
102
{ACAD_REACTORS
330
C7
102
}
330
C7
100
AcDbVisualStyle
  2
Brighten
 70
    12
 71
     2
 72
     2
 73
     0
 90
        0
 40
-0.6
 41
-30.0
 62
     5
 63
     7
421
 16777215
 74
     1
 91
        4
 64
     7
 65
   257
 75
     1
175
     1
 42
1.0
 92
        8
 66
     7
 43
1.0
 76
     1
 77
     6
 78
     2
 67
     7
 79
     5
170
     0
171
     0
290
     0
174
     0
 93
        1
 44
50.0
173
     0
291
     1
 45
0.0
1001
ACAD
1000
AcDbSavedByObjectVersion
1070
     0
1000
AcDbSavedByObjectVersion
1070
     0
1000
AcDbSavedByObjectVersion
1070
     0
1000
AcDbSavedByObjectVersion
1070
     0
  0
VISUALSTYLE
  5
D7
102
{ACAD_REACTORS
330
C7
102
}
330
C7
100
AcDbVisualStyle
  2
ColorChange
 70
    16
 71
     2
 72
     2
 73
     3
 90
        0
 40
-0.6
 41
-30.0
 62
     5
 63
     8
421
  8421504
 74
     1
 91
        4
 64
     7
 65
   257
 75
     1
175
     1
 42
1.0
 92
        8
 66
     8
424
  8421504
 43
1.0
 76
     1
 77
     6
 78
     2
 67
     7
 79
     5
170
     0
171
     0
290
     0
174
     0
 93
        1
 44
0.0
173
     0
291
     1
 45
0.0
1001
ACAD
1000
AcDbSavedByObjectVersion
1070
     0
1000
AcDbSavedByObjectVersion
1070
     0
1000
AcDbSavedByObjectVersion
1070
     0
1000
AcDbSavedByObjectVersion
1070
     0
  0
VISUALSTYLE
  5
D0
102
{ACAD_REACTORS
330
C7
102
}
330
C7
100
AcDbVisualStyle
  2
Conceptual
 70
     9
 71
     3
 72
     2
 73
     0
 90
        0
 40
-0.6
 41
-30.0
 62
     5
 63
     7
421
 16777215
 74
     2
 91
        2
 64
     7
 65
   257
 75
     1
175
     1
 42
40.0
 92
        8
 66
     7
 43
1.0
 76
     1
 77
     6
 78
     2
 67
     7
 79
     3
170
     0
171
     0
290
     0
174
     0
 93
        1
 44
0.0
173
     0
291
     0
 45
0.0
1001
ACAD
1000
AcDbSavedByObjectVersion
1070
     0
1000
AcDbSavedByObjectVersion
1070
     0
1000
AcDbSavedByObjectVersion
1070
     0
1000
AcDbSavedByObjectVersion
1070
     0
  0
VISUALSTYLE
  5
D2
102
{ACAD_REACTORS
330
C7
102
}
330
C7
100
AcDbVisualStyle
  2
Dim
 70
    11
 71
     2
 72
     2
 73
     0
 90
        0
 40
-0.6
 41
-30.0
 62
     5
 63
     7
421
 16777215
 74
     1
 91
        4
 64
     7
 65
   257
 75
     1
175
     1
 42
1.0
 92
        8
 66
     7
 43
1.0
 76
     1
 77
     6
 78
     2
 67
     7
 79
     5
170
     0
171
     0
290
     0
174
     0
 93
        1
 44
-50.0
173
     0
291
     1
 45
0.0
1001
ACAD
1000
AcDbSavedByObjectVersion
1070
     0
1000
AcDbSavedByObjectVersion
1070
     0
1000
AcDbSavedByObjectVersion
1070
     0
1000
AcDbSavedByObjectVersion
1070
     0
  0
VISUALSTYLE
  5
D6
102
{ACAD_REACTORS
330
C7
102
}
330
C7
100
AcDbVisualStyle
  2
Facepattern
 70
    15
 71
     2
 72
     2
 73
     0
 90
        0
 40
-0.6
 41
-30.0
 62
     5
 63
     7
421
 16777215
 74
     1
 91
        4
 64
     7
 65
   257
 75
     1
175
     1
 42
1.0
 92
        8
 66
     7
 43
1.0
 76
     1
 77
     6
 78
     2
 67
     7
 79
     5
170
     0
171
     0
290
     0
174
     0
 93
        1
 44
0.0
173
     0
291
     1
 45
0.0
1001
ACAD
1000
AcDbSavedByObjectVersion
1070
     0
1000
AcDbSavedByObjectVersion
1070
     0
1000
AcDbSavedByObjectVersion
1070
     0
1000
AcDbSavedByObjectVersion
1070
     0
  0
VISUALSTYLE
  5
C8
102
{ACAD_REACTORS
330
C7
102
}
330
C7
100
AcDbVisualStyle
  2
Flat
 70
     0
 71
     2
 72
     1
 73
     1
 90
        2
 40
-0.6
 41
30.0
 62
     5
 63
     7
421
 16777215
 74
     0
 91
        4
 64
     7
 65
   257
 75
     1
175
     1
 42
1.0
 92
        8
 66
     7
 43
1.0
 76
     1
 77
     6
 78
     2
 67
     7
 79
     5
170
     0
171
     0
290
     0
174
     0
 93
       13
 44
0.0
173
     0
291
     1
 45
0.0
1001
ACAD
1000
AcDbSavedByObjectVersion
1070
     0
1000
AcDbSavedByObjectVersion
1070
     0
1000
AcDbSavedByObjectVersion
1070
     0
1000
AcDbSavedByObjectVersion
1070
     0
  0
VISUALSTYLE
  5
C9
102
{ACAD_REACTORS
330
C7
102
}
330
C7
100
AcDbVisualStyle
  2
FlatWithEdges
 70
     1
 71
     2
 72
     1
 73
     1
 90
        2
 40
-0.6
 41
30.0
 62
     5
 63
     7
421
 16777215
 74
     1
 91
        4
 64
     7
 65
   257
 75
     1
175
     1
 42
1.0
 92
        0
 66
   257
 43
1.0
 76
     1
 77
     6
 78
     2
 67
     7
 79
     5
170
     0
171
     0
290
     0
174
     0
 93
       13
 44
0.0
173
     0
291
     1
 45
0.0
1001
ACAD
1000
AcDbSavedByObjectVersion
1070
     0
1000
AcDbSavedByObjectVersion
1070
     0
1000
AcDbSavedByObjectVersion
1070
     0
1000
AcDbSavedByObjectVersion
1070
     0
  0
VISUALSTYLE
  5
CA
102
{ACAD_REACTORS
330
C7
102
}
330
C7
100
AcDbVisualStyle
  2
Gouraud
 70
     2
 71
     2
 72
     2
 73
     1
 90
        2
 40
-0.6
 41
30.0
 62
     5
 63
     7
421
 16777215
 74
     0
 91
        4
 64
     7
 65
   257
 75
     1
175
     1
 42
1.0
 92
        0
 66
     7
 43
1.0
 76
     1
 77
     6
 78
     2
 67
     7
 79
     5
170
     0
171
     0
290
     0
174
     0
 93
       13
 44
0.0
173
     0
291
     1
 45
0.0
1001
ACAD
1000
AcDbSavedByObjectVersion
1070
     0
1000
AcDbSavedByObjectVersion
1070
     0
1000
AcDbSavedByObjectVersion
1070
     0
1000
AcDbSavedByObjectVersion
1070
     0
  0
VISUALSTYLE
  5
CB
102
{ACAD_REACTORS
330
C7
102
}
330
C7
100
AcDbVisualStyle
  2
GouraudWithEdges
 70
     3
 71
     2
 72
     2
 73
     1
 90
        2
 40
-0.6
 41
30.0
 62
     5
 63
     7
421
 16777215
 74
     1
 91
        4
 64
     7
 65
   257
 75
     1
175
     1
 42
1.0
 92
        0
 66
   257
 43
1.0
 76
     1
 77
     6
 78
     2
 67
     7
 79
     5
170
     0
171
     0
290
     0
174
     0
 93
       13
 44
0.0
173
     0
291
     1
 45
0.0
1001
ACAD
1000
AcDbSavedByObjectVersion
1070
     0
1000
AcDbSavedByObjectVersion
1070
     0
1000
AcDbSavedByObjectVersion
1070
     0
1000
AcDbSavedByObjectVersion
1070
     0
  0
VISUALSTYLE
  5
D5
102
{ACAD_REACTORS
330
C7
102
}
330
C7
100
AcDbVisualStyle
  2
Linepattern
 70
    14
 71
     2
 72
     2
 73
     0
 90
        0
 40
-0.6
 41
-30.0
 62
     5
 63
     7
421
 16777215
 74
     1
 91
        4
 64
     7
 65
   257
 75
     7
175
     7
 42
1.0
 92
        8
 66
     7
 43
1.0
 76
     1
 77
     6
 78
     2
 67
     7
 79
     5
170
     0
171
     0
290
     0
174
     0
 93
        1
 44
0.0
173
     0
291
     1
 45
0.0
1001
ACAD
1000
AcDbSavedByObjectVersion
1070
     0
1000
AcDbSavedByObjectVersion
1070
     0
1000
AcDbSavedByObjectVersion
1070
     0
1000
AcDbSavedByObjectVersion
1070
     0
  0
VISUALSTYLE
  5
D1
102
{ACAD_REACTORS
330
C7
102
}
330
C7
100
AcDbVisualStyle
  2
Realistic
 70
     8
 71
     2
 72
     2
 73
     0
 90
        0
 40
-0.6
 41
-30.0
 62
     5
 63
     7
421
 16777215
 74
     1
 91
        0
 64
     7
 65
   257
 75
     1
175
     1
 42
1.0
 92
        8
 66
     8
424
  7895160
 43
1.0
 76
     1
 77
     6
 78
     2
 67
     7
 79
     5
170
     0
171
     0
290
     0
174
     0
 93
       13
 44
0.0
173
     0
291
     0
 45
0.0
1001
ACAD
1000
AcDbSavedByObjectVersion
1070
     0
1000
AcDbSavedByObjectVersion
1070
     0
1000
AcDbSavedByObjectVersion
1070
     0
1000
AcDbSavedByObjectVersion
1070
     0
  0
VISUALSTYLE
  5
D4
102
{ACAD_REACTORS
330
C7
102
}
330
C7
100
AcDbVisualStyle
  2
Thicken
 70
    13
 71
     2
 72
     2
 73
     0
 90
        0
 40
-0.6
 41
-30.0
 62
     5
 63
     7
421
 16777215
 74
     1
 91
        4
 64
     7
 65
   257
 75
     1
175
     1
 42
1.0
 92
       12
 66
     7
 43
1.0
 76
     1
 77
     6
 78
     2
 67
     7
 79
     5
170
     0
171
     0
290
     0
174
     0
 93
        1
 44
0.0
173
     0
291
     1
 45
0.0
1001
ACAD
1000
AcDbSavedByObjectVersion
1070
     0
1000
AcDbSavedByObjectVersion
1070
     0
1000
AcDbSavedByObjectVersion
1070
     0
1000
AcDbSavedByObjectVersion
1070
     0
  0
DICTIONARYVAR
  5
2A3
102
{ACAD_REACTORS
330
A3
102
}
330
A3
100
DictionaryVariables
280
     0
  1
1:1
  0
DICTIONARYVAR
  5
2A2
102
{ACAD_REACTORS
330
A3
102
}
330
A3
100
DictionaryVariables
280
     0
  1
STANDARD
  0
DICTIONARYVAR
  5
A4
102
{ACAD_REACTORS
330
A3
102
}
330
A3
100
DictionaryVariables
280
     0
  1
STANDARD
  0
DICTIONARYVAR
  5
A5
102
{ACAD_REACTORS
330
A3
102
}
330
A3
100
DictionaryVariables
280
     0
  1
1
  0
DICTIONARYVAR
  5
A6
102
{ACAD_REACTORS
330
A3
102
}
330
A3
100
DictionaryVariables
280
     0
  1

  0
DICTIONARY
  5
165
102
{ACAD_REACTORS
330
15A
102
}
330
15A
100
AcDbDictionary
281
     1
  0
XRECORD
  5
17A
102
{ACAD_REACTORS
330
15A
102
}
330
15A
100
AcDbXrecord
280
     1
 90
-1023410169
  0
XRECORD
  5
A6E
102
{ACAD_REACTORS
330
A6D
102
}
330
A6D
100
AcDbXrecord
280
     1
330
CD4
330
CDB
  0
DICTIONARY
  5
B8
330
B7
100
AcDbDictionary
280
     1
281
     1
  3
ACAD_XREC_ROUNDTRIP
360
2AB
  3
BUMPTILE
360
BA
  3
DIFFUSETILE
360
B9
  3
OPACITYTILE
360
BD
  3
REFLECTIONTILE
360
BC
  3
REFRACTIONTILE
360
BE
  3
SPECULARTILE
360
BB
  0
DICTIONARY
  5
B0
330
AF
100
AcDbDictionary
280
     1
281
     1
  3
ACAD_XREC_ROUNDTRIP
360
2AA
  3
BUMPTILE
360
B2
  3
DIFFUSETILE
360
B1
  3
OPACITYTILE
360
B5
  3
REFLECTIONTILE
360
B4
  3
REFRACTIONTILE
360
B6
  3
SPECULARTILE
360
B3
  0
DICTIONARY
  5
C0
330
BF
100
AcDbDictionary
280
     1
281
     1
  3
ACAD_XREC_ROUNDTRIP
360
2AC
  3
BUMPTILE
360
C2
  3
DIFFUSETILE
360
C1
  3
OPACITYTILE
360
C5
  3
REFLECTIONTILE
360
C4
  3
REFRACTIONTILE
360
C6
  3
SPECULARTILE
360
C3
  0
DICTIONARY
  5
2A4
330
61
100
AcDbDictionary
280
     1
281
     1
  3
ACAD_ROUNDTRIP_2008_TABLESTYLE_CELLSTYLEMAP
360
CDC
  3
ACAD_XREC_ROUNDTRIP
360
CDF
  0
XRECORD
  5
2AB
102
{ACAD_REACTORS
330
B8
102
}
330
B8
100
AcDbXrecord
280
     1
102
MATERIAL
148
0.0
149
0.0
149
0.0
 93
        0
 94
      127
282
     0
 72
     0
 77
     0
171
     0
175
     0
179
     0
273
     0
  0
XRECORD
  5
BA
102
{ACAD_REACTORS
330
B8
102
}
330
B8
100
AcDbXrecord
280
     1
270
     1
271
     1
  0
XRECORD
  5
B9
102
{ACAD_REACTORS
330
B8
102
}
330
B8
100
AcDbXrecord
280
     1
270
     1
271
     1
  0
XRECORD
  5
BD
102
{ACAD_REACTORS
330
B8
102
}
330
B8
100
AcDbXrecord
280
     1
270
     1
271
     1
  0
XRECORD
  5
BC
102
{ACAD_REACTORS
330
B8
102
}
330
B8
100
AcDbXrecord
280
     1
270
     1
271
     1
  0
XRECORD
  5
BE
102
{ACAD_REACTORS
330
B8
102
}
330
B8
100
AcDbXrecord
280
     1
270
     1
271
     1
  0
XRECORD
  5
BB
102
{ACAD_REACTORS
330
B8
102
}
330
B8
100
AcDbXrecord
280
     1
270
     1
271
     1
  0
XRECORD
  5
2AA
102
{ACAD_REACTORS
330
B0
102
}
330
B0
100
AcDbXrecord
280
     1
102
MATERIAL
148
0.0
149
0.0
149
0.0
 93
        0
 94
      127
282
     0
 72
     0
 77
     0
171
     0
175
     0
179
     0
273
     0
  0
XRECORD
  5
B2
102
{ACAD_REACTORS
330
B0
102
}
330
B0
100
AcDbXrecord
280
     1
270
     1
271
     1
  0
XRECORD
  5
B1
102
{ACAD_REACTORS
330
B0
102
}
330
B0
100
AcDbXrecord
280
     1
270
     1
271
     1
  0
XRECORD
  5
B5
102
{ACAD_REACTORS
330
B0
102
}
330
B0
100
AcDbXrecord
280
     1
270
     1
271
     1
  0
XRECORD
  5
B4
102
{ACAD_REACTORS
330
B0
102
}
330
B0
100
AcDbXrecord
280
     1
270
     1
271
     1
  0
XRECORD
  5
B6
102
{ACAD_REACTORS
330
B0
102
}
330
B0
100
AcDbXrecord
280
     1
270
     1
271
     1
  0
XRECORD
  5
B3
102
{ACAD_REACTORS
330
B0
102
}
330
B0
100
AcDbXrecord
280
     1
270
     1
271
     1
  0
XRECORD
  5
2AC
102
{ACAD_REACTORS
330
C0
102
}
330
C0
100
AcDbXrecord
280
     1
102
MATERIAL
148
0.0
149
0.0
149
0.0
 93
        0
 94
      127
282
     0
 72
     0
 77
     0
171
     0
175
     0
179
     0
273
     0
  0
XRECORD
  5
C2
102
{ACAD_REACTORS
330
C0
102
}
330
C0
100
AcDbXrecord
280
     1
270
     1
271
     1
  0
XRECORD
  5
C1
102
{ACAD_REACTORS
330
C0
102
}
330
C0
100
AcDbXrecord
280
     1
270
     1
271
     1
  0
XRECORD
  5
C5
102
{ACAD_REACTORS
330
C0
102
}
330
C0
100
AcDbXrecord
280
     1
270
     1
271
     1
  0
XRECORD
  5
C4
102
{ACAD_REACTORS
330
C0
102
}
330
C0
100
AcDbXrecord
280
     1
270
     1
271
     1
  0
XRECORD
  5
C6
102
{ACAD_REACTORS
330
C0
102
}
330
C0
100
AcDbXrecord
280
     1
270
     1
271
     1
  0
XRECORD
  5
C3
102
{ACAD_REACTORS
330
C0
102
}
330
C0
100
AcDbXrecord
280
     1
270
     1
271
     1
  0
CELLSTYLEMAP
  5
CDC
102
{ACAD_REACTORS
330
2A4
102
}
330
2A4
100
AcDbCellStyleMap
 90
        3
300
CELLSTYLE
  1
TABLEFORMAT_BEGIN
 90
        5
170
     1
 91
        0
 92
    32768
 62
   257
 93
        1
300
CONTENTFORMAT
  1
CONTENTFORMAT_BEGIN
 90
        0
 91
        0
 92
        4
 93
        0
300

 40
0.0
140
1.0
 94
        5
 62
     0
340
C
144
0.25
309
CONTENTFORMAT_END
171
     1
301
MARGIN
  1
CELLMARGIN_BEGIN
 40
0.06
 40
0.06
 40
0.06
 40
0.06
 40
0.18
 40
0.18
309
CELLMARGIN_END
 94
        6
 95
        1
302
GRIDFORMAT
  1
GRIDFORMAT_BEGIN
 90
        0
 91
        1
 62
     0
 92
       -2
340
0
 93
        0
 40
0.045
309
GRIDFORMAT_END
 95
        2
302
GRIDFORMAT
  1
GRIDFORMAT_BEGIN
 90
        0
 91
        1
 62
     0
 92
       -2
340
0
 93
        0
 40
0.045
309
GRIDFORMAT_END
 95
        4
302
GRIDFORMAT
  1
GRIDFORMAT_BEGIN
 90
        0
 91
        1
 62
     0
 92
       -2
340
0
 93
        0
 40
0.045
309
GRIDFORMAT_END
 95
        8
302
GRIDFORMAT
  1
GRIDFORMAT_BEGIN
 90
        0
 91
        1
 62
     0
 92
       -2
340
0
 93
        0
 40
0.045
309
GRIDFORMAT_END
 95
       16
302
GRIDFORMAT
  1
GRIDFORMAT_BEGIN
 90
        0
 91
        1
 62
     0
 92
       -2
340
0
 93
        0
 40
0.045
309
GRIDFORMAT_END
 95
       32
302
GRIDFORMAT
  1
GRIDFORMAT_BEGIN
 90
        0
 91
        1
 62
     0
 92
       -2
340
0
 93
        0
 40
0.045
309
GRIDFORMAT_END
309
TABLEFORMAT_END
  1
CELLSTYLE_BEGIN
 90
        1
 91
        1
300
_TITLE
309
CELLSTYLE_END
300
CELLSTYLE
  1
TABLEFORMAT_BEGIN
 90
        5
170
     1
 91
        0
 92
        0
 62
   257
 93
        1
300
CONTENTFORMAT
  1
CONTENTFORMAT_BEGIN
 90
        0
 91
        0
 92
        4
 93
        0
300

 40
0.0
140
1.0
 94
        5
 62
     0
340
C
144
0.18
309
CONTENTFORMAT_END
171
     1
301
MARGIN
  1
CELLMARGIN_BEGIN
 40
0.06
 40
0.06
 40
0.06
 40
0.06
 40
0.18
 40
0.18
309
CELLMARGIN_END
 94
        6
 95
        1
302
GRIDFORMAT
  1
GRIDFORMAT_BEGIN
 90
        0
 91
        1
 62
     0
 92
       -2
340
0
 93
        0
 40
0.045
309
GRIDFORMAT_END
 95
        2
302
GRIDFORMAT
  1
GRIDFORMAT_BEGIN
 90
        0
 91
        1
 62
     0
 92
       -2
340
0
 93
        0
 40
0.045
309
GRIDFORMAT_END
 95
        4
302
GRIDFORMAT
  1
GRIDFORMAT_BEGIN
 90
        0
 91
        1
 62
     0
 92
       -2
340
0
 93
        0
 40
0.045
309
GRIDFORMAT_END
 95
        8
302
GRIDFORMAT
  1
GRIDFORMAT_BEGIN
 90
        0
 91
        1
 62
     0
 92
       -2
340
0
 93
        0
 40
0.045
309
GRIDFORMAT_END
 95
       16
302
GRIDFORMAT
  1
GRIDFORMAT_BEGIN
 90
        0
 91
        1
 62
     0
 92
       -2
340
0
 93
        0
 40
0.045
309
GRIDFORMAT_END
 95
       32
302
GRIDFORMAT
  1
GRIDFORMAT_BEGIN
 90
        0
 91
        1
 62
     0
 92
       -2
340
0
 93
        0
 40
0.045
309
GRIDFORMAT_END
309
TABLEFORMAT_END
  1
CELLSTYLE_BEGIN
 90
        2
 91
        1
300
_HEADER
309
CELLSTYLE_END
300
CELLSTYLE
  1
TABLEFORMAT_BEGIN
 90
        5
170
     1
 91
        0
 92
        0
 62
   257
 93
        1
300
CONTENTFORMAT
  1
CONTENTFORMAT_BEGIN
 90
        0
 91
        0
 92
        4
 93
        0
300

 40
0.0
140
1.0
 94
        2
 62
     0
340
C
144
0.18
309
CONTENTFORMAT_END
171
     1
301
MARGIN
  1
CELLMARGIN_BEGIN
 40
0.06
 40
0.06
 40
0.06
 40
0.06
 40
0.18
 40
0.18
309
CELLMARGIN_END
 94
        6
 95
        1
302
GRIDFORMAT
  1
GRIDFORMAT_BEGIN
 90
        0
 91
        1
 62
     0
 92
       -2
340
0
 93
        0
 40
0.045
309
GRIDFORMAT_END
 95
        2
302
GRIDFORMAT
  1
GRIDFORMAT_BEGIN
 90
        0
 91
        1
 62
     0
 92
       -2
340
0
 93
        0
 40
0.045
309
GRIDFORMAT_END
 95
        4
302
GRIDFORMAT
  1
GRIDFORMAT_BEGIN
 90
        0
 91
        1
 62
     0
 92
       -2
340
0
 93
        0
 40
0.045
309
GRIDFORMAT_END
 95
        8
302
GRIDFORMAT
  1
GRIDFORMAT_BEGIN
 90
        0
 91
        1
 62
     0
 92
       -2
340
0
 93
        0
 40
0.045
309
GRIDFORMAT_END
 95
       16
302
GRIDFORMAT
  1
GRIDFORMAT_BEGIN
 90
        0
 91
        1
 62
     0
 92
       -2
340
0
 93
        0
 40
0.045
309
GRIDFORMAT_END
 95
       32
302
GRIDFORMAT
  1
GRIDFORMAT_BEGIN
 90
        0
 91
        1
 62
     0
 92
       -2
340
0
 93
        0
 40
0.045
309
GRIDFORMAT_END
309
TABLEFORMAT_END
  1
CELLSTYLE_BEGIN
 90
        3
 91
        2
300
_DATA
309
CELLSTYLE_END
  0
XRECORD
  5
CDF
102
{ACAD_REACTORS
330
2A4
102
}
330
2A4
100
AcDbXrecord
280
     1
102
ACAD_ROUNDTRIP_PRE2007_TABLESTYLE
 90
        4
 91
        0
  1

 92
        4
 93
        0
  2

 94
        4
 95
        0
  3

  0
ENDSEC
  0
EOF
