  0
SECTION
  2
HEADER
  9
$ACADVER
  1
AC1027
  9
$ACADMAINTVER
 70
   105
  9
$DWGCODEPAGE
  3
ANSI_1252
  9
$LASTSAVEDBY
  1
guzb562
  9
$REQUIREDVERSIONS
160
                 0
  9
$INSBASE
 10
0.0
 20
0.0
 30
0.0
  9
$EXTMIN
 10
1408.20028695216
 20
1862.25374070389
 30
-0.0000000349181948
  9
$EXTMAX
 10
1518.48745075529
 20
2139.540657383693
 30
0.0000000814935746
  9
$LIMMIN
 10
0.0
 20
0.0
  9
$LIMMAX
 10
420.0
 20
297.0
  9
$ORTHOMODE
 70
     1
  9
$REGENMODE
 70
     1
  9
$FILLMODE
 70
     1
  9
$QTEXTMODE
 70
     0
  9
$MIRRTEXT
 70
     0
  9
$LTSCALE
 40
1.0
  9
$ATTMODE
 70
     1
  9
$TEXTSIZE
 40
2.5
  9
$TRACEWID
 40
1.0
  9
$TEXTSTYLE
  7
STANDARD
  9
$CLAYER
  8
AM_2 ( Kontur 0.25)
  9
$CELTYPE
  6
ByLayer
  9
$CECOLOR
 62
   256
  9
$CELTSCALE
 40
1.0
  9
$DISPSILH
 70
     0
  9
$DIMSCALE
 40
1.0
  9
$DIMASZ
 40
2.5
  9
$DIMEXO
 40
0.0
  9
$DIMDLI
 40
10.0
  9
$DIMRND
 40
0.0
  9
$DIMDLE
 40
0.0
  9
$DIMEXE
 40
1.0
  9
$DIMTP
 40
0.1
  9
$DIMTM
 40
0.1
  9
$DIMTXT
 40
3.5
  9
$DIMCEN
 40
0.0
  9
$DIMTSZ
 40
0.0
  9
$DIMTOL
 70
     0
  9
$DIMLIM
 70
     0
  9
$DIMTIH
 70
     0
  9
$DIMTOH
 70
     0
  9
$DIMSE1
 70
     0
  9
$DIMSE2
 70
     0
  9
$DIMTAD
 70
     1
  9
$DIMZIN
 70
     8
  9
$DIMBLK
  1

  9
$DIMASO
 70
     1
  9
$DIMSHO
 70
     1
  9
$DIMPOST
  1

  9
$DIMAPOST
  1
"
  9
$DIMALT
 70
     0
  9
$DIMALTD
 70
     2
  9
$DIMALTF
 40
0.0393701
  9
$DIMLFAC
 40
1.0
  9
$DIMTOFL
 70
     1
  9
$DIMTVP
 40
0.0
  9
$DIMTIX
 70
     0
  9
$DIMSOXD
 70
     0
  9
$DIMSAH
 70
     0
  9
$DIMBLK1
  1

  9
$DIMBLK2
  1

  9
$DIMSTYLE
  2
BENUTZERDEFINIERTE NORM
  9
$DIMCLRD
 70
   256
  9
$DIMCLRE
 70
   256
  9
$DIMCLRT
 70
     6
  9
$DIMTFAC
 40
0.71
  9
$DIMGAP
 40
1.5
  9
$DIMJUST
 70
     0
  9
$DIMSD1
 70
     0
  9
$DIMSD2
 70
     0
  9
$DIMTOLJ
 70
     0
  9
$DIMTZIN
 70
     8
  9
$DIMALTZ
 70
     0
  9
$DIMALTTZ
 70
     0
  9
$DIMUPT
 70
     0
  9
$DIMDEC
 70
     2
  9
$DIMTDEC
 70
     2
  9
$DIMALTU
 70
     2
  9
$DIMALTTD
 70
     2
  9
$DIMTXSTY
  7
STANDARD
  9
$DIMAUNIT
 70
     0
  9
$DIMADEC
 70
     0
  9
$DIMALTRND
 40
0.0
  9
$DIMAZIN
 70
     2
  9
$DIMDSEP
 70
    46
  9
$DIMATFIT
 70
     3
  9
$DIMFRAC
 70
     0
  9
$DIMLDRBLK
  1

  9
$DIMLUNIT
 70
     2
  9
$DIMLWD
 70
    -1
  9
$DIMLWE
 70
    -1
  9
$DIMTMOVE
 70
     0
  9
$DIMFXL
 40
1.0
  9
$DIMFXLON
 70
     0
  9
$DIMJOGANG
 40
1.570796326794896
  9
$DIMTFILL
 70
     0
  9
$DIMTFILLCLR
 70
     0
  9
$DIMARCSYM
 70
     0
  9
$DIMLTYPE
  6

  9
$DIMLTEX1
  6

  9
$DIMLTEX2
  6

  9
$DIMTXTDIRECTION
 70
     0
  9
$LUNITS
 70
     2
  9
$LUPREC
 70
     2
  9
$SKETCHINC
 40
1.0
  9
$FILLETRAD
 40
0.0
  9
$AUNITS
 70
     0
  9
$AUPREC
 70
     0
  9
$MENU
  1
.
  9
$ELEVATION
 40
0.0
  9
$PELEVATION
 40
0.0
  9
$THICKNESS
 40
0.0
  9
$LIMCHECK
 70
     0
  9
$CHAMFERA
 40
2.5
  9
$CHAMFERB
 40
2.5
  9
$CHAMFERC
 40
0.0
  9
$CHAMFERD
 40
0.0
  9
$SKPOLY
 70
     0
  9
$TDCREATE
 40
2455947.476769781
  9
$TDUCREATE
 40
2455947.393436447
  9
$TDUPDATE
 40
2457976.491361285
  9
$TDUUPDATE
 40
2457976.408027952
  9
$TDINDWG
 40
0.0118540278
  9
$TDUSRTIMER
 40
0.0118533102
  9
$USRTIMER
 70
     1
  9
$ANGBASE
 50
0.0
  9
$ANGDIR
 70
     0
  9
$PDMODE
 70
     0
  9
$PDSIZE
 40
0.0
  9
$PLINEWID
 40
0.0
  9
$SPLFRAME
 70
     0
  9
$SPLINETYPE
 70
     6
  9
$SPLINESEGS
 70
     8
  9
$HANDSEED
  5
AEC
  9
$SURFTAB1
 70
     6
  9
$SURFTAB2
 70
     6
  9
$SURFTYPE
 70
     6
  9
$SURFU
 70
     6
  9
$SURFV
 70
     6
  9
$UCSBASE
  2

  9
$UCSNAME
  2

  9
$UCSORG
 10
0.0
 20
0.0
 30
0.0
  9
$UCSXDIR
 10
1.0
 20
0.0
 30
0.0
  9
$UCSYDIR
 10
0.0
 20
1.0
 30
0.0
  9
$UCSORTHOREF
  2

  9
$UCSORTHOVIEW
 70
     0
  9
$UCSORGTOP
 10
0.0
 20
0.0
 30
0.0
  9
$UCSORGBOTTOM
 10
0.0
 20
0.0
 30
0.0
  9
$UCSORGLEFT
 10
0.0
 20
0.0
 30
0.0
  9
$UCSORGRIGHT
 10
0.0
 20
0.0
 30
0.0
  9
$UCSORGFRONT
 10
0.0
 20
0.0
 30
0.0
  9
$UCSORGBACK
 10
0.0
 20
0.0
 30
0.0
  9
$PUCSBASE
  2

  9
$PUCSNAME
  2

  9
$PUCSORG
 10
0.0
 20
0.0
 30
0.0
  9
$PUCSXDIR
 10
1.0
 20
0.0
 30
0.0
  9
$PUCSYDIR
 10
0.0
 20
1.0
 30
0.0
  9
$PUCSORTHOREF
  2

  9
$PUCSORTHOVIEW
 70
     0
  9
$PUCSORGTOP
 10
0.0
 20
0.0
 30
0.0
  9
$PUCSORGBOTTOM
 10
0.0
 20
0.0
 30
0.0
  9
$PUCSORGLEFT
 10
0.0
 20
0.0
 30
0.0
  9
$PUCSORGRIGHT
 10
0.0
 20
0.0
 30
0.0
  9
$PUCSORGFRONT
 10
0.0
 20
0.0
 30
0.0
  9
$PUCSORGBACK
 10
0.0
 20
0.0
 30
0.0
  9
$USERI1
 70
     0
  9
$USERI2
 70
     0
  9
$USERI3
 70
     0
  9
$USERI4
 70
     0
  9
$USERI5
 70
     0
  9
$USERR1
 40
0.0
  9
$USERR2
 40
0.0
  9
$USERR3
 40
0.0
  9
$USERR4
 40
0.0
  9
$USERR5
 40
0.0
  9
$WORLDVIEW
 70
     1
  9
$SHADEDGE
 70
     3
  9
$SHADEDIF
 70
    70
  9
$TILEMODE
 70
     1
  9
$MAXACTVP
 70
    64
  9
$PINSBASE
 10
0.0
 20
0.0
 30
0.0
  9
$PLIMCHECK
 70
     0
  9
$PEXTMIN
 10
0.0
 20
0.0
 30
0.0
  9
$PEXTMAX
 10
0.0
 20
0.0
 30
0.0
  9
$PLIMMIN
 10
0.0
 20
0.0
  9
$PLIMMAX
 10
12.0
 20
9.0
  9
$UNITMODE
 70
     0
  9
$VISRETAIN
 70
     1
  9
$PLINEGEN
 70
     0
  9
$PSLTSCALE
 70
     1
  9
$TREEDEPTH
 70
  3020
  9
$CMLSTYLE
  2
Standard
  9
$CMLJUST
 70
     0
  9
$CMLSCALE
 40
20.0
  9
$PROXYGRAPHICS
 70
     1
  9
$MEASUREMENT
 70
     1
  9
$CELWEIGHT
370
    -1
  9
$ENDCAPS
280
     0
  9
$JOINSTYLE
280
     0
  9
$LWDISPLAY
290
     0
  9
$INSUNITS
 70
     4
  9
$HYPERLINKBASE
  1

  9
$STYLESHEET
  1

  9
$XEDIT
290
     1
  9
$CEPSNTYPE
380
     0
  9
$PSTYLEMODE
290
     1
  9
$FINGERPRINTGUID
  2
{642C33AC-5DB2-4A4E-9388-540F28600ADC}
  9
$VERSIONGUID
  2
{32629451-5700-4530-976E-39F0D4A7D3A0}
  9
$EXTNAMES
290
     1
  9
$PSVPSCALE
 40
0.0
  9
$OLESTARTUP
290
     0
  9
$SORTENTS
280
   127
  9
$INDEXCTL
280
     0
  9
$HIDETEXT
280
     1
  9
$XCLIPFRAME
280
     2
  9
$HALOGAP
280
     0
  9
$OBSCOLOR
 70
   257
  9
$OBSLTYPE
280
     0
  9
$INTERSECTIONDISPLAY
280
     0
  9
$INTERSECTIONCOLOR
 70
   257
  9
$DIMASSOC
280
     2
  9
$PROJECTNAME
  1

  9
$CAMERADISPLAY
290
     0
  9
$LENSLENGTH
 40
50.0
  9
$CAMERAHEIGHT
 40
0.0
  9
$STEPSPERSEC
 40
2.0
  9
$STEPSIZE
 40
6.0
  9
$3DDWFPREC
 40
2.0
  9
$PSOLWIDTH
 40
5.0
  9
$PSOLHEIGHT
 40
80.0
  9
$LOFTANG1
 40
1.570796326794896
  9
$LOFTANG2
 40
1.570796326794896
  9
$LOFTMAG1
 40
0.0
  9
$LOFTMAG2
 40
0.0
  9
$LOFTPARAM
 70
     7
  9
$LOFTNORMALS
280
     1
  9
$LATITUDE
 40
37.795
  9
$LONGITUDE
 40
-122.394
  9
$NORTHDIRECTION
 40
0.0
  9
$TIMEZONE
 70
 -8000
  9
$LIGHTGLYPHDISPLAY
280
     1
  9
$TILEMODELIGHTSYNCH
280
     1
  9
$CMATERIAL
347
EC
  9
$SOLIDHIST
280
     0
  9
$SHOWHIST
280
     1
  9
$DWFFRAME
280
     2
  9
$DGNFRAME
280
     0
  9
$REALWORLDSCALE
290
     1
  9
$INTERFERECOLOR
 62
     1
  9
$INTERFEREOBJVS
345
F9
  9
$INTERFEREVPVS
346
F6
  9
$CSHADOW
280
     0
  9
$SHADOWPLANELOCATION
 40
0.0
  0
ENDSEC
  0
SECTION
  2
CLASSES
  0
CLASS
  1
ACDBDICTIONARYWDFLT
  2
AcDbDictionaryWithDefault
  3
ObjectDBX Classes
 90
        0
 91
        1
280
     0
281
     0
  0
CLASS
  1
DICTIONARYVAR
  2
AcDbDictionaryVar
  3
ObjectDBX Classes
 90
        0
 91
       12
280
     0
281
     0
  0
CLASS
  1
TABLESTYLE
  2
AcDbTableStyle
  3
ObjectDBX Classes
 90
     4095
 91
        1
280
     0
281
     0
  0
CLASS
  1
MATERIAL
  2
AcDbMaterial
  3
ObjectDBX Classes
 90
     1153
 91
        3
280
     0
281
     0
  0
CLASS
  1
VISUALSTYLE
  2
AcDbVisualStyle
  3
ObjectDBX Classes
 90
     4095
 91
       26
280
     0
281
     0
  0
CLASS
  1
SCALE
  2
AcDbScale
  3
ObjectDBX Classes
 90
     1153
 91
       17
280
     0
281
     0
  0
CLASS
  1
MLEADERSTYLE
  2
AcDbMLeaderStyle
  3
ACDB_MLEADERSTYLE_CLASS
 90
     4095
 91
        2
280
     0
281
     0
  0
CLASS
  1
CELLSTYLEMAP
  2
AcDbCellStyleMap
  3
ObjectDBX Classes
 90
     1152
 91
        2
280
     0
281
     0
  0
CLASS
  1
EXACXREFPANELOBJECT
  2
ExAcXREFPanelObject
  3
EXAC_ESW
 90
     1025
 91
        1
280
     0
281
     0
  0
CLASS
  1
NPOCOLLECTION
  2
AcDbImpNonPersistentObjectsCollection
  3
ObjectDBX Classes
 90
     1153
 91
        1
280
     0
281
     0
  0
CLASS
  1
LAYER_INDEX
  2
AcDbLayerIndex
  3
ObjectDBX Classes
 90
        0
 91
        0
280
     0
281
     0
  0
CLASS
  1
SPATIAL_INDEX
  2
AcDbSpatialIndex
  3
ObjectDBX Classes
 90
        0
 91
        0
280
     0
281
     0
  0
CLASS
  1
IDBUFFER
  2
AcDbIdBuffer
  3
ObjectDBX Classes
 90
        0
 91
        0
280
     0
281
     0
  0
CLASS
  1
ACME_DOCUMENT
  2
AcMeDbDoc
  3
AcMeServices
 90
     1024
 91
        2
280
     0
281
     0
  0
CLASS
  1
ACMESCOPE
  2
AcMeScope
  3
AcMeServices
 90
     1024
 91
        1
280
     0
281
     0
  0
CLASS
  1
ACMECOMMANDHISTORY
  2
AcMeCommandHistory
  3
AcMeServices
 90
     1024
 91
        1
280
     0
281
     0
  0
CLASS
  1
ACIMSYSVARMAN
  2
AcImSysVarManager
  3
AcMeServices
 90
     1024
 91
        3
280
     0
281
     0
  0
CLASS
  1
ACIMINTSYSVAR
  2
AcImIntSysVar
  3
AcMeServices
 90
     1024
 91
       28
280
     0
281
     0
  0
CLASS
  1
ACMESTATEMGR
  2
AcMeStateMgr
  3
AcMeServices
 90
     1024
 91
        1
280
     0
281
     0
  0
CLASS
  1
ACDBENTITYCACHE
  2
AcMeEntityCache
  3
AcMeServices
 90
     1024
 91
        1
280
     0
281
     0
  0
CLASS
  1
ACGREFMASTER
  2
AcGrefMaster
  3
AcAttribServices
 90
     1024
 91
        1
280
     0
281
     0
  0
CLASS
  1
ACME_DATABASE
  2
AcMeDbDatabase
  3
AcMeServices
 90
     1024
 91
        1
280
     0
281
     0
  0
CLASS
  1
ACRFINSADJUSTERMGR
  2
AcRfInsAdjusterMgr
  3
AcMeServices
 90
     1024
 91
        1
280
     0
281
     0
  0
CLASS
  1
ACGREFACADMASTER
  2
AcGrefacadMaster
  3
AcGrefServices
 90
     1024
 91
        1
280
     0
281
     0
  0
CLASS
  1
AMDTMENUSTATEMGR
  2
AmdtMenuStateMgr
  3
McadcomServices
 90
     1024
 91
        1
280
     0
281
     0
  0
CLASS
  1
AMDTMCOMMENUSTATE
  2
AmdtMcomMenuState
  3
McadcomServices
 90
     1024
 91
        1
280
     0
281
     0
  0
CLASS
  1
AMIMASTER
  2
AmiMaster
  3
AmiServices
 90
     1024
 91
        1
280
     0
281
     0
  0
CLASS
  1
AMGSETTINGSOBJ
  2
AmgSettingsObj
  3
"AcadM|Product Description: AutoCAD Mechanical|Company: Autodesk, Inc."
 90
     1024
 91
        4
280
     0
281
     0
  0
CLASS
  1
AMGOBJPROPCFG
  2
AmgObjPropCfg
  3
"AmgLay|Product Description: AutoCAD Mechanical|Company: Autodesk, Inc."
 90
     1024
 91
        1
280
     0
281
     0
  0
CLASS
  1
MAPIAMMOUDLE
  2
MApiAmModule
  3
MApiAmServices
 90
     1024
 91
        1
280
     0
281
     0
  0
CLASS
  1
ACMSTANDARDANSI
  2
AcmStandardANSI
  3
"Amdt_StdImp|Product Description: AutoCAD Mechanical|Company: Autodesk, Inc."
 90
     1024
 91
        1
280
     0
281
     0
  0
CLASS
  1
ACMSURFSTANDARDANSI
  2
AcmSurfTextStdANSI
  3
"Amdt_StdImp|Product Description: AutoCAD Mechanical|Company: Autodesk, Inc."
 90
     1024
 91
        1
280
     0
281
     0
  0
CLASS
  1
ACMFCFSTANDARDANSI
  2
AcmFCFStdANSI
  3
"Amdt_StdImp|Product Description: AutoCAD Mechanical|Company: Autodesk, Inc."
 90
     1024
 91
        1
280
     0
281
     0
  0
CLASS
  1
ACMWELDSTANDARDANSI
  2
AcmWeldingStdANSI
  3
"Amdt_StdImp|Product Description: AutoCAD Mechanical|Company: Autodesk, Inc."
 90
     1024
 91
        1
280
     0
281
     0
  0
CLASS
  1
ACMIDSTANDARDANSI
  2
AcmIdStdANSI
  3
"Amdt_StdImp|Product Description: AutoCAD Mechanical|Company: Autodesk, Inc."
 90
     1024
 91
        1
280
     0
281
     0
  0
CLASS
  1
ACMDATUMSTANDARDANSI
  2
AcmDatumStdANSI
  3
"Amdt_StdImp|Product Description: AutoCAD Mechanical|Company: Autodesk, Inc."
 90
     1024
 91
        1
280
     0
281
     0
  0
CLASS
  1
ACMBOMSTANDARDANSI
  2
AcmBOMStdANSI
  3
"Amdt_StdImp|Product Description: AutoCAD Mechanical|Company: Autodesk, Inc."
 90
     1024
 91
        1
280
     0
281
     0
  0
CLASS
  1
ACMDETAILSTANDARDANSI
  2
AmdtDetailSymStdANSI
  3
"Amdt_StdImp|Product Description: AutoCAD Mechanical|Company: Autodesk, Inc."
 90
     1024
 91
        1
280
     0
281
     0
  0
CLASS
  1
ACMSECTIONSTANDARDANSI
  2
AmdtSectionSymStdANSI
  3
"Amdt_StdImp|Product Description: AutoCAD Mechanical|Company: Autodesk, Inc."
 90
     1024
 91
        1
280
     0
281
     0
  0
CLASS
  1
ACMCENTERLINESTANDARDANSI
  2
AmdtCenterLineStdANSI
  3
"Amdt_StdImp|Product Description: AutoCAD Mechanical|Company: Autodesk, Inc."
 90
     1024
 91
        1
280
     0
281
     0
  0
CLASS
  1
ACMTHREADLINESTANDARDANSI
  2
AmdtThreadLineStdANSI
  3
"Amdt_StdImp|Product Description: AutoCAD Mechanical|Company: Autodesk, Inc."
 90
     1024
 91
        1
280
     0
281
     0
  0
CLASS
  1
ACMNOTESTANDARDANSI
  2
AmdtNoteStdANSI
  3
"Amdt_StdImp|Product Description: AutoCAD Mechanical|Company: Autodesk, Inc."
 90
     1024
 91
        1
280
     0
281
     0
  0
CLASS
  1
AMDTNOTETEMPLATEDB
  2
AmdtNoteTemplateDB
  3
AcmSymBB|Product Description: AutoCAD Mechanical|Company: Autodesk, Inc.
 90
     1024
 91
       25
280
     0
281
     0
  0
CLASS
  1
ACMTAPERSTANDARDANSI
  2
AcmTaperStdANSI
  3
"Amdt_StdImp|Product Description: AutoCAD Mechanical|Company: Autodesk, Inc."
 90
     1024
 91
        1
280
     0
281
     0
  0
CLASS
  1
ACMANOOTATIONVIEWSTANDARDANSI
  2
AmdtAnViewStdANSI
  3
"Amdt_StdImp|Product Description: AutoCAD Mechanical|Company: Autodesk, Inc."
 90
     1024
 91
        1
280
     0
281
     0
  0
CLASS
  1
ACAMGLAYSTD
  2
AcAmgLayStd
  3
"AmgLay|Product Description: AutoCAD Mechanical|Company: Autodesk, Inc."
 90
     1024
 91
        4
280
     0
281
     0
  0
CLASS
  1
ACAMGDIMSTD
  2
AcAmgDimStd
  3
"AmgDim|Product Description: AutoCAD Mechanical|Company: Autodesk, Inc."
 90
     1024
 91
        4
280
     0
281
     0
  0
CLASS
  1
ACAMGHOLECHARTSTDANSI
  2
AcAmgHoleChartStdANSI
  3
AmgDim|Product Description: AutoCAD Mechanical|Company: Autodesk, Inc.
 90
     1024
 91
        1
280
     0
281
     0
  0
CLASS
  1
ACAMGTITLESTD
  2
AcAmgTitleStd
  3
"AmgTitle|Product Description: AutoCAD Mechanical|Company: Autodesk, Inc."
 90
     1024
 91
        4
280
     0
281
     0
  0
CLASS
  1
ACMSTANDARDDIN
  2
AcmStandardDIN
  3
"Amdt_StdImp|Product Description: AutoCAD Mechanical|Company: Autodesk, Inc."
 90
     1024
 91
        2
280
     0
281
     0
  0
CLASS
  1
AMDTEDGESTANDARDDIN13715
  2
AmdtEdgeStdDIN13715
  3
"Amdt_StdImp|Product Description: AutoCAD Mechanical|Company: Autodesk, Inc."
 90
     1024
 91
        2
280
     0
281
     0
  0
CLASS
  1
ACMSURFSTANDARDDIN2002
  2
AcmSurfTextStdDIN2002
  3
"Amdt_StdImp|Product Description: AutoCAD Mechanical|Company: Autodesk, Inc."
 90
     1024
 91
        2
280
     0
281
     0
  0
CLASS
  1
ACMFCFSTANDARDDIN
  2
AcmFCFStdDIN
  3
"Amdt_StdImp|Product Description: AutoCAD Mechanical|Company: Autodesk, Inc."
 90
     1024
 91
        2
280
     0
281
     0
  0
CLASS
  1
ACMWELDSTANDARDDIN
  2
AcmWeldingStdDIN
  3
"Amdt_StdImp|Product Description: AutoCAD Mechanical|Company: Autodesk, Inc."
 90
     1024
 91
        2
280
     0
281
     0
  0
CLASS
  1
ACMIDSTANDARDDIN
  2
AcmIdStdDIN
  3
"Amdt_StdImp|Product Description: AutoCAD Mechanical|Company: Autodesk, Inc."
 90
     1024
 91
        2
280
     0
281
     0
  0
CLASS
  1
ACMDATUMSTANDARDDIN
  2
AcmDatumStdDIN
  3
"Amdt_StdImp|Product Description: AutoCAD Mechanical|Company: Autodesk, Inc."
 90
     1024
 91
        2
280
     0
281
     0
  0
CLASS
  1
ACMBOMSTANDARDDIN
  2
AcmBOMStdDIN
  3
"Amdt_StdImp|Product Description: AutoCAD Mechanical|Company: Autodesk, Inc."
 90
     1024
 91
        2
280
     0
281
     0
  0
CLASS
  1
ACMDETAILSTANDARDDIN
  2
AmdtDetailSymStdDIN
  3
"Amdt_StdImp|Product Description: AutoCAD Mechanical|Company: Autodesk, Inc."
 90
     1024
 91
        2
280
     0
281
     0
  0
CLASS
  1
ACMSECTIONSTANDARDDIN
  2
AmdtSectionSymStdDIN
  3
"Amdt_StdImp|Product Description: AutoCAD Mechanical|Company: Autodesk, Inc."
 90
     1024
 91
        2
280
     0
281
     0
  0
CLASS
  1
ACMCENTERLINESTANDARDDIN
  2
AmdtCenterLineStdDIN
  3
"Amdt_StdImp|Product Description: AutoCAD Mechanical|Company: Autodesk, Inc."
 90
     1024
 91
        2
280
     0
281
     0
  0
CLASS
  1
ACMTHREADLINESTANDARDDIN
  2
AmdtThreadLineStdDIN
  3
"Amdt_StdImp|Product Description: AutoCAD Mechanical|Company: Autodesk, Inc."
 90
     1024
 91
        2
280
     0
281
     0
  0
CLASS
  1
ACMNOTESTANDARDDIN
  2
AmdtNoteStdDIN
  3
"Amdt_StdImp|Product Description: AutoCAD Mechanical|Company: Autodesk, Inc."
 90
     1024
 91
        2
280
     0
281
     0
  0
CLASS
  1
ACMTAPERSTANDARDDIN
  2
AcmTaperStdDIN
  3
"Amdt_StdImp|Product Description: AutoCAD Mechanical|Company: Autodesk, Inc."
 90
     1024
 91
        2
280
     0
281
     0
  0
CLASS
  1
ACMANOOTATIONVIEWSTANDARDDIN
  2
AmdtAnViewStdDIN
  3
"Amdt_StdImp|Product Description: AutoCAD Mechanical|Company: Autodesk, Inc."
 90
     1024
 91
        2
280
     0
281
     0
  0
CLASS
  1
ACAMGHOLECHARTSTDDIN
  2
AcAmgHoleChartStdDIN
  3
AmgDim|Product Description: AutoCAD Mechanical|Company: Autodesk, Inc.
 90
     1024
 91
        2
280
     0
281
     0
  0
CLASS
  1
ACMSTANDARDISO
  2
AcmStandardISO
  3
"Amdt_StdImp|Product Description: AutoCAD Mechanical|Company: Autodesk, Inc."
 90
     1024
 91
        1
280
     0
281
     0
  0
CLASS
  1
AMDTEDGESTANDARDISO
  2
AmdtEdgeStdISO
  3
"Amdt_StdImp|Product Description: AutoCAD Mechanical|Company: Autodesk, Inc."
 90
     1024
 91
        1
280
     0
281
     0
  0
CLASS
  1
ACMSURFSTANDARDISO2002
  2
AcmSurfTextStdISO2002
  3
"Amdt_StdImp|Product Description: AutoCAD Mechanical|Company: Autodesk, Inc."
 90
     1024
 91
        1
280
     0
281
     0
  0
CLASS
  1
ACMFCFSTANDARDISO
  2
AcmFCFStdISO
  3
"Amdt_StdImp|Product Description: AutoCAD Mechanical|Company: Autodesk, Inc."
 90
     1024
 91
        1
280
     0
281
     0
  0
CLASS
  1
ACMWELDSTANDARDISO
  2
AcmWeldingStdISO
  3
"Amdt_StdImp|Product Description: AutoCAD Mechanical|Company: Autodesk, Inc."
 90
     1024
 91
        1
280
     0
281
     0
  0
CLASS
  1
ACMIDSTANDARDISO
  2
AcmIdStdISO
  3
"Amdt_StdImp|Product Description: AutoCAD Mechanical|Company: Autodesk, Inc."
 90
     1024
 91
        1
280
     0
281
     0
  0
CLASS
  1
ACMDATUMSTANDARDISO
  2
AcmDatumStdISO
  3
"Amdt_StdImp|Product Description: AutoCAD Mechanical|Company: Autodesk, Inc."
 90
     1024
 91
        1
280
     0
281
     0
  0
CLASS
  1
ACMBOMSTANDARDISO
  2
AcmBOMStdISO
  3
"Amdt_StdImp|Product Description: AutoCAD Mechanical|Company: Autodesk, Inc."
 90
     1024
 91
        1
280
     0
281
     0
  0
CLASS
  1
ACMDETAILSTANDARDISO
  2
AmdtDetailSymStdISO
  3
"Amdt_StdImp|Product Description: AutoCAD Mechanical|Company: Autodesk, Inc."
 90
     1024
 91
        1
280
     0
281
     0
  0
CLASS
  1
ACMSECTIONSTANDARDISO2001
  2
AmdtSectionSymStdISO2001
  3
"Amdt_StdImp|Product Description: AutoCAD Mechanical|Company: Autodesk, Inc."
 90
     1024
 91
        1
280
     0
281
     0
  0
CLASS
  1
ACMCENTERLINESTANDARDISO
  2
AmdtCenterLineStdISO
  3
"Amdt_StdImp|Product Description: AutoCAD Mechanical|Company: Autodesk, Inc."
 90
     1024
 91
        1
280
     0
281
     0
  0
CLASS
  1
ACMNOTESTANDARDISO
  2
AmdtNoteStdISO
  3
"Amdt_StdImp|Product Description: AutoCAD Mechanical|Company: Autodesk, Inc."
 90
     1024
 91
        1
280
     0
281
     0
  0
CLASS
  1
ACAMGHOLECHARTSTDISO
  2
AcAmgHoleChartStdISO
  3
AmgDim|Product Description: AutoCAD Mechanical|Company: Autodesk, Inc.
 90
     1024
 91
        1
280
     0
281
     0
  0
CLASS
  1
ACMTHREADLINESTANDARDISO
  2
AmdtThreadLineStdISO
  3
"Amdt_StdImp|Product Description: AutoCAD Mechanical|Company: Autodesk, Inc."
 90
     1024
 91
        1
280
     0
281
     0
  0
CLASS
  1
ACMTAPERSTANDARDISO
  2
AcmTaperStdISO
  3
"Amdt_StdImp|Product Description: AutoCAD Mechanical|Company: Autodesk, Inc."
 90
     1024
 91
        1
280
     0
281
     0
  0
CLASS
  1
ACMANOOTATIONVIEWSTANDARDISO
  2
AmdtAnViewStdISO
  3
"Amdt_StdImp|Product Description: AutoCAD Mechanical|Company: Autodesk, Inc."
 90
     1024
 91
        1
280
     0
281
     0
  0
CLASS
  1
ACIMSTRSYSVAR
  2
AcImStrSysVar
  3
AcMeServices
 90
     1024
 91
        5
280
     0
281
     0
  0
CLASS
  1
AMDTAMMENUSTATE
  2
AmdtAmMenuState
  3
DesignerAssemblies
 90
     1024
 91
        1
280
     0
281
     0
  0
CLASS
  1
ACAMPROJECT
  2
AcAmProject
  3
DesignerAssemblies
 90
     1024
 91
        1
280
     0
281
     0
  0
CLASS
  1
ACAMGRCOMPDEF
  2
AcAmGrCompDef
  3
DesignerAssemblies
 90
     1024
 91
        1
280
     0
281
     0
  0
CLASS
  1
ACAMCOMPDEF
  2
AcAmCompDef
  3
DesignerAssemblies
 90
     1024
 91
        1
280
     0
281
     0
  0
CLASS
  1
ACAMCOMPDEFMGR
  2
AcAmCompDefMgr
  3
DesignerAssemblies
 90
     1024
 91
        1
280
     0
281
     0
  0
CLASS
  1
AMCONTEXTMGR
  2
AcAmContextMgr
  3
DesignerAssemblies
 90
     1024
 91
        1
280
     0
281
     0
  0
CLASS
  1
ACAMCONTEXTMODELER
  2
AcAmContextModeler
  3
DesignerAssemblies
 90
     1024
 91
        1
280
     0
281
     0
  0
CLASS
  1
ACMDATADICTIONARY
  2
AcmDataDictionary
  3
"AcmSymBB|Product Description: AutoCAD Mechanical|Company: Autodesk, Inc."
 90
     1024
 91
        1
280
     0
281
     0
  0
CLASS
  1
ACAMGRCOMPDEFSET
  2
AcAmGrCompDefSet
  3
DesignerAssemblies
 90
     1024
 91
        1
280
     0
281
     0
  0
CLASS
  1
AMDTBROWSERDBTAB
  2
AmdtBrowserDbTab
  3
McadcomServices
 90
     1024
 91
        1
280
     0
281
     0
  0
CLASS
  1
CBROWSERAPPOBJECT
  2
CBrowserAppObject
  3
McadcomServices
 90
     1024
 91
        2
280
     0
281
     0
  0
CLASS
  1
DM_PLACEHOLDER
  2
AcDmSelsetPlaceholder
  3
McadcomServices
 90
     1024
 91
        1
280
     0
281
     0
  0
CLASS
  1
SOLID_BACKGROUND
  2
AcDbSolidBackground
  3
SCENEOE
 90
     4095
 91
        0
280
     0
281
     0
  0
CLASS
  1
AM_DRAWING_MGR
  2
AcDmDwgMgr
  3
AcMechDwgViewMgmt
 90
     1024
 91
        0
280
     0
281
     0
  0
CLASS
  1
AM_DWG_DOCUMENT
  2
AcDmDwgDocument
  3
AcMechDwgViewMgmt
 90
     1024
 91
        0
280
     0
281
     0
  0
CLASS
  1
AM_DWG_SHEET
  2
AcDmSheet
  3
AcMechDwgViewMgmt
 90
     1024
 91
        0
280
     0
281
     0
  0
CLASS
  1
AM_VIEWDIMPARMAP
  2
AcDmViewDimParMap
  3
AcMechDwgViewMgmt
 90
     1024
 91
        0
280
     0
281
     0
  0
CLASS
  1
AMDTINTERNALREACTOR
  2
AmdtInternalReactor
  3
AcMeServices
 90
     1024
 91
        0
280
     0
281
     0
  0
CLASS
  1
ACIMREALSYSVAR
  2
AcImRealSysVar
  3
AcMeServices
 90
     1024
 91
        1
280
     0
281
     0
  0
CLASS
  1
AM_DWGMGR_NAME
  2
AcDmDwgMgrName
  3
AcMechDwgViewMgmt
 90
     1024
 91
        0
280
     0
281
     0
  0
CLASS
  1
CAMSSTRUCTBTNSTATE
  2
StructBtnState
  3
DesignerAssemblies
 90
     1024
 91
        1
280
     0
281
     0
  0
CLASS
  1
DBCOLOR
  2
AcDbColor
  3
ObjectDBX Classes
 90
        0
 91
        1
280
     0
281
     0
  0
CLASS
  1
SORTENTSTABLE
  2
AcDbSortentsTable
  3
ObjectDBX Classes
 90
        0
 91
        3
280
     0
281
     0
  0
CLASS
  1
ACMDATAENTRYBLOCK
  2
AcmDataEntryBlock
  3
AcmSymBB|Product Description: AutoCAD Mechanical|Company: Autodesk, Inc.
 90
     1024
 91
        1
280
     0
281
     0
  0
CLASS
  1
ACRFATTGENMGR
  2
AcRfAttGeneralMgr
  3
AcAttribServices
 90
     1024
 91
        1
280
     0
281
     0
  0
CLASS
  1
ACRFMCADAPIATTHOLDER
  2
AcRfMCADAPIAttHolder
  3
AcAttribServices
 90
     1024
 91
        1
280
     0
281
     0
  0
CLASS
  1
AMDTSYSATTR
  2
AmdtSystemAttribute
  3
AcAttribServices
 90
     1024
 91
        2
280
     0
281
     0
  0
CLASS
  1
ACRFOBJATTMGR
  2
AcRfObjAttGroupMgr
  3
AcAttribServices
 90
     1024
 91
        1
280
     0
281
     0
  0
CLASS
  1
ACMBOM
  2
AcmBom
  3
"AcmSymBB|Product Description: AutoCAD Mechanical|Company: Autodesk, Inc."
 90
     1024
 91
        1
280
     0
281
     0
  0
CLASS
  1
AMDTFORMULAUPDATEDISPATCHER
  2
AmdtFormulaUpdateDispatcher
  3
AcMeServices
 90
     1024
 91
        1
280
     0
281
     0
  0
CLASS
  1
DIMASSOC
  2
AcDbDimAssoc
  3
"AcDbDimAssoc|Product Desc:     AcDim ARX App For Dimension|Company:          Autodesk, Inc.|WEB Address:      www.autodesk.com"
 90
        0
 91
        2
280
     0
281
     0
  0
CLASS
  1
ACDBSECTIONVIEWSTYLE
  2
AcDbSectionViewStyle
  3
ObjectDBX Classes
 90
     1025
 91
        5
280
     0
281
     0
  0
CLASS
  1
ACDBDETAILVIEWSTYLE
  2
AcDbDetailViewStyle
  3
ObjectDBX Classes
 90
     1025
 91
        5
280
     0
281
     0
  0
CLASS
  1
ACMSECTIONSTANDARDCUSTOM
  2
AmdtSectionSymStdCustom
  3
"Amdt_StdImp|Product Description: AutoCAD Mechanical|Company: Autodesk, Inc."
 90
     1024
 91
        4
280
     0
281
     0
  0
CLASS
  1
ACMDETAILTANDARDCUSTOM
  2
AmdtDetailSymStdCustom
  3
"Amdt_StdImp|Product Description: AutoCAD Mechanical|Company: Autodesk, Inc."
 90
     1024
 91
        4
280
     0
281
     0
  0
CLASS
  1
FIELD
  2
AcDbField
  3
ObjectDBX Classes
 90
     1152
 91
       22
280
     0
281
     0
  0
CLASS
  1
FIELDLIST
  2
AcDbFieldList
  3
ObjectDBX Classes
 90
     1152
 91
        1
280
     0
281
     0
  0
ENDSEC
  0
SECTION
  2
TABLES
  0
TABLE
  2
VPORT
  5
8
330
0
100
AcDbSymbolTable
 70
     1
  0
VPORT
  5
EA
330
8
100
AcDbSymbolTableRecord
100
AcDbViewportTableRecord
  2
*Active
 70
     0
 10
0.0
 20
0.0
 11
1.0
 21
1.0
 12
1463.343868853725
 22
2000.897199043791
 13
0.0
 23
0.0
 14
2.5
 24
2.5
 15
10.0
 25
10.0
 16
0.0
 26
0.0
 36
1.0
 17
0.0
 27
0.0
 37
0.0
 40
279.6236041799136
 41
2.165963431786216
 42
50.0
 43
0.0
 44
0.0
 50
0.0
 51
0.0
 71
     0
 72
 10000
 73
     1
 74
     3
 75
     0
 76
     0
 77
     0
 78
     0
281
     0
 65
     0
110
0.0
120
0.0
130
0.0
111
1.0
121
0.0
131
0.0
112
0.0
122
1.0
132
0.0
 79
     0
146
0.0
348
F5
 60
     3
 61
     5
292
     1
282
     1
141
0.0
142
0.0
 63
   250
421
  3355443
1001
ACAD_NAV_VCDISPLAY
1070
     1
  0
ENDTAB
  0
TABLE
  2
LTYPE
  5
5
330
0
100
AcDbSymbolTable
 70
    24
  0
LTYPE
  5
14
330
5
100
AcDbSymbolTableRecord
100
AcDbLinetypeTableRecord
  2
ByBlock
 70
     0
  3

 72
    65
 73
     0
 40
0.0
  0
LTYPE
  5
15
330
5
100
AcDbSymbolTableRecord
100
AcDbLinetypeTableRecord
  2
ByLayer
 70
     0
  3

 72
    65
 73
     0
 40
0.0
  0
LTYPE
  5
16
330
5
100
AcDbSymbolTableRecord
100
AcDbLinetypeTableRecord
  2
Continuous
 70
     0
  3
Solid line
 72
    65
 73
     0
 40
0.0
  0
LTYPE
  5
228
330
5
100
AcDbSymbolTableRecord
100
AcDbLinetypeTableRecord
  2
HIDDEN
 70
     0
  3
Verdeckt
 72
    65
 73
     2
 40
0.375
 49
0.25
 74
     0
 49
-0.125
 74
     0
  0
LTYPE
  5
229
330
5
100
AcDbSymbolTableRecord
100
AcDbLinetypeTableRecord
  2
PHANTOM2
 70
     0
  3
Phantom (.5x) ___ _ _ ___ _ _ ___ _ _ ___ _ _
 72
    65
 73
     6
 40
1.25
 49
0.625
 74
     0
 49
-0.125
 74
     0
 49
0.125
 74
     0
 49
-0.125
 74
     0
 49
0.125
 74
     0
 49
-0.125
 74
     0
  0
LTYPE
  5
22A
330
5
100
AcDbSymbolTableRecord
100
AcDbLinetypeTableRecord
  2
CENTER
 70
     0
  3
Center line
 72
    65
 73
     4
 40
2.0
 49
1.25
 74
     0
 49
-0.25
 74
     0
 49
0.25
 74
     0
 49
-0.25
 74
     0
  0
LTYPE
  5
276
330
5
100
AcDbSymbolTableRecord
100
AcDbLinetypeTableRecord
  2
AM_ISO02W050
 70
     0
  3
__ __ __ __ __ __ __ __ __ __ __ __ __ __ __
 72
    65
 73
     2
 40
7.5
 49
6.0
 74
     0
 49
-1.5
 74
     0
  0
LTYPE
  5
277
330
5
100
AcDbSymbolTableRecord
100
AcDbLinetypeTableRecord
  2
AM_ISO08W050
 70
     0
  3
____ . ____ . ____ . ____ . ____ . ____ . ____
 72
    65
 73
     4
 40
18.0
 49
12.0
 74
     0
 49
-1.5
 74
     0
 49
3.0
 74
     0
 49
-1.5
 74
     0
  0
LTYPE
  5
278
330
5
100
AcDbSymbolTableRecord
100
AcDbLinetypeTableRecord
  2
AM_ISO09W050
 70
     0
  3
_____ . . _____ . . _____ . . ____ .. ____
 72
    65
 73
     6
 40
22.5
 49
12.0
 74
     0
 49
-1.5
 74
     0
 49
3.0
 74
     0
 49
-1.5
 74
     0
 49
3.0
 74
     0
 49
-1.5
 74
     0
  0
LTYPE
  5
279
330
5
100
AcDbSymbolTableRecord
100
AcDbLinetypeTableRecord
  2
Amconstr
 70
     0
  3
_______________________
 72
    65
 73
     2
 40
9999.0
 49
9999.0
 74
     0
 49
0.0
 74
     0
  0
LTYPE
  5
27A
330
5
100
AcDbSymbolTableRecord
100
AcDbLinetypeTableRecord
  2
AM_ISO08W050x2
 70
     0
  3
__ . __ . __ . __ . __ . __
 72
    65
 73
     4
 40
9.0
 49
6.0
 74
     0
 49
-0.75
 74
     0
 49
1.5
 74
     0
 49
-0.75
 74
     0
  0
LTYPE
  5
27B
330
5
100
AcDbSymbolTableRecord
100
AcDbLinetypeTableRecord
  2
AM_ISO02W050x2
 70
     0
  3
 _ _ _ _ _ _ _ _ _ _ _ _
 72
    65
 73
     2
 40
3.75
 49
3.0
 74
     0
 49
-0.75
 74
     0
  0
LTYPE
  5
27C
330
5
100
AcDbSymbolTableRecord
100
AcDbLinetypeTableRecord
  2
Amzigzag
 70
     0
  3
/\/-/\/-/\/-/\/-/\/-/\/
 72
    65
 73
     2
 40
11.0001
 49
0.0001
 74
     4
 75
   136
340
27D
 46
0.04
 50
0.0
 44
0.0
 45
0.0
 49
-11.0
 74
     0
  0
LTYPE
  5
28B
330
5
100
AcDbSymbolTableRecord
100
AcDbLinetypeTableRecord
  2
ACANSTGB
 70
     0
  3
__ . . __ . .
 72
    65
 73
     6
 40
0.35433070866
 49
0.15748031496
 74
     0
 49
-0.03937007874
 74
     0
 49
0.03937007874
 74
     0
 49
-0.03937007874
 74
     0
 49
0.03937007874
 74
     0
 49
-0.03937007874
 74
     0
  0
LTYPE
  5
28C
330
5
100
AcDbSymbolTableRecord
100
AcDbLinetypeTableRecord
  2
ACANSTGL
 70
     0
  3
_ _ _ _ _
 72
    65
 73
     2
 40
0.11811023622
 49
0.07874015748
 74
     0
 49
-0.03937007874
 74
     0
  0
LTYPE
  5
2BA
330
5
100
AcDbSymbolTableRecord
100
AcDbLinetypeTableRecord
  2
ACDINWELD
 70
     0
  3
_ _ _ _ _
 72
    65
 73
     2
 40
2.0
 49
2.0
 74
     0
 49
-1.0
 74
     0
  0
LTYPE
  5
2BD
330
5
100
AcDbSymbolTableRecord
100
AcDbLinetypeTableRecord
  2
ACDINTGB
 70
     0
  3
__ . . __ . .
 72
    65
 73
     6
 40
9.0
 49
4.0
 74
     0
 49
-1.0
 74
     0
 49
1.0
 74
     0
 49
-1.0
 74
     0
 49
1.0
 74
     0
 49
-1.0
 74
     0
  0
LTYPE
  5
2BE
330
5
100
AcDbSymbolTableRecord
100
AcDbLinetypeTableRecord
  2
ACDINTGL
 70
     0
  3
_ _ _ _ _
 72
    65
 73
     2
 40
3.0
 49
2.0
 74
     0
 49
-1.0
 74
     0
  0
LTYPE
  5
2F0
330
5
100
AcDbSymbolTableRecord
100
AcDbLinetypeTableRecord
  2
DASHED
 70
     0
  3
Dashed line
 72
    65
 73
     2
 40
0.75
 49
0.5
 74
     0
 49
-0.25
 74
     0
  0
LTYPE
  5
2F1
330
5
100
AcDbSymbolTableRecord
100
AcDbLinetypeTableRecord
  2
CENTER2
 70
     0
  3
Center (.5x) ___ _ ___ _ ___ _ ___ _ ___ _ ___
 72
    65
 73
     4
 40
1.125
 49
0.75
 74
     0
 49
-0.125
 74
     0
 49
0.125
 74
     0
 49
-0.125
 74
     0
  0
LTYPE
  5
2F2
330
5
100
AcDbSymbolTableRecord
100
AcDbLinetypeTableRecord
  2
HIDDEN2
 70
     0
  3
Hidden (.5x) _ _ _ _ _ _ _ _ _ _ _ _ _ _ _ _ _
 72
    65
 73
     2
 40
0.1875
 49
0.125
 74
     0
 49
-0.0625
 74
     0
  0
LTYPE
  5
307
330
5
100
AcDbSymbolTableRecord
100
AcDbLinetypeTableRecord
  2
ACISOWELD
 70
     0
  3
_ _ _ _ _
 72
    65
 73
     2
 40
2.0
 49
2.0
 74
     0
 49
-1.0
 74
     0
  0
LTYPE
  5
30A
330
5
100
AcDbSymbolTableRecord
100
AcDbLinetypeTableRecord
  2
ACISOTGB
 70
     0
  3
__ . . __ . .
 72
    65
 73
     6
 40
9.0
 49
4.0
 74
     0
 49
-1.0
 74
     0
 49
1.0
 74
     0
 49
-1.0
 74
     0
 49
1.0
 74
     0
 49
-1.0
 74
     0
  0
LTYPE
  5
30B
330
5
100
AcDbSymbolTableRecord
100
AcDbLinetypeTableRecord
  2
ACISOTGL
 70
     0
  3
_ _ _ _ _
 72
    65
 73
     2
 40
3.0
 49
2.0
 74
     0
 49
-1.0
 74
     0
  0
LTYPE
  5
3E2
330
5
100
AcDbSymbolTableRecord
100
AcDbLinetypeTableRecord
  2
Amzigzag2
 70
     0
  3
/\/-/\/-/\/-/\/-/\/-/\/
 72
    65
 73
     2
 40
0.4401
 49
0.0001
 74
     4
 75
   135
340
3E5
 46
0.0016
 50
0.0
 44
0.0
 45
0.0
 49
-0.4400000000000001
 74
     0
  0
ENDTAB
  0
TABLE
  2
LAYER
  5
2
102
{ACAD_XDICTIONARY
360
1FF
102
}
330
0
100
AcDbSymbolTable
 70
    11
  0
LAYER
  5
10
102
{ACAD_XDICTIONARY
360
13C
102
}
330
2
100
AcDbSymbolTableRecord
100
AcDbLayerTableRecord
  2
0
 70
     0
 62
     7
  6
Continuous
370
    -3
390
F
347
EE
348
0
  0
LAYER
  5
236
330
2
100
AcDbSymbolTableRecord
100
AcDbLayerTableRecord
  2
Defpoints
 70
     0
 62
     7
  6
Continuous
290
     0
370
    -3
390
F
347
EE
348
0
  0
LAYER
  5
340
102
{ACAD_XDICTIONARY
360
341
102
}
330
2
100
AcDbSymbolTableRecord
100
AcDbLayerTableRecord
  2
AM_11 ( Phanton)
 70
     0
 62
     3
  6
AM_ISO09W050
370
    25
390
F
347
EE
348
0
1001
AcAecLayerStandard
1000

1000

  0
LAYER
  5
3DC
330
2
100
AcDbSymbolTableRecord
100
AcDbLayerTableRecord
  2
AM_0 ( Kontur 0.5 )
 70
     0
 62
     7
  6
Continuous
370
    50
390
F
347
EE
348
0
1001
AcAecLayerStandard
1000

1000

  0
LAYER
  5
3E3
102
{ACAD_XDICTIONARY
360
3E4
102
}
330
2
100
AcDbSymbolTableRecord
100
AcDbLayerTableRecord
  2
AM_BOR
 70
     0
 62
     7
  6
Continuous
370
    25
390
F
347
EE
348
0
  0
LAYER
  5
3FC
330
2
100
AcDbSymbolTableRecord
100
AcDbLayerTableRecord
  2
AM_0
 70
     0
 62
     7
  6
Continuous
370
    50
390
F
347
EE
348
0
1001
AcAecLayerStandard
1000

1000

  0
LAYER
  5
3FD
330
2
100
AcDbSymbolTableRecord
100
AcDbLayerTableRecord
  2
VORDERGRUND
 70
     0
 62
   160
  6
Continuous
370
    -3
390
F
347
EE
348
0
  0
LAYER
  5
556
330
2
100
AcDbSymbolTableRecord
100
AcDbLayerTableRecord
  2
AM_5 ( Bemassung)
 70
     0
 62
     3
  6
Continuous
370
    25
390
F
347
EE
348
0
1001
AcAecLayerStandard
1000

1000

  0
LAYER
  5
812
330
2
100
AcDbSymbolTableRecord
100
AcDbLayerTableRecord
  2
AM_7 (Mittellinie)
 70
     0
 62
     4
  6
AM_ISO08W050
370
    25
390
F
347
EE
348
0
1001
AcAecLayerStandard
1000

1000

  0
LAYER
  5
81B
330
2
100
AcDbSymbolTableRecord
100
AcDbLayerTableRecord
  2
AM_3 ( Verdeckt )
 70
     0
 62
     6
  6
AM_ISO02W050
370
    25
390
F
347
EE
348
0
1001
AcAecLayerStandard
1000

1000

  0
LAYER
  5
81C
330
2
100
AcDbSymbolTableRecord
100
AcDbLayerTableRecord
  2
AM_2 ( Kontur 0.25)
 70
     0
 62
     5
  6
Continuous
370
    25
390
F
347
EE
348
0
1001
AcAecLayerStandard
1000

1000

  0
ENDTAB
  0
TABLE
  2
STYLE
  5
3
330
0
100
AcDbSymbolTable
 70
    15
  0
STYLE
  5
11
330
3
100
AcDbSymbolTableRecord
100
AcDbTextStyleTableRecord
  2
STANDARD
 70
     0
 40
0.0
 41
1.0
 50
0.0
 71
     0
 42
2.5
  3
ARIALUNI.TTF
  4

1001
ACAD
1000
@Arial Unicode MS
1071
       34
  0
STYLE
  5
132
330
3
100
AcDbSymbolTableRecord
100
AcDbTextStyleTableRecord
  2
Annotative
 70
     0
 40
0.0
 41
1.0
 50
0.0
 71
     0
 42
2.5
  3
ARIAL.TTF
  4

1001
AcadAnnotative
1000
AnnotativeData
1002
{
1070
     1
1070
     1
1002
}
1001
ACAD
1000
Arial
1071
       34
  0
STYLE
  5
27D
330
3
100
AcDbSymbolTableRecord
100
AcDbTextStyleTableRecord
  2

 70
     1
 40
0.0
 41
1.0
 50
0.0
 71
     0
 42
2.5
  3
genltshp.shx
  4

  0
STYLE
  5
284
330
3
100
AcDbSymbolTableRecord
100
AcDbTextStyleTableRecord
  2
ACANSTS
 70
     0
 40
1.0
 41
1.0
 50
0.0
 71
     0
 42
3.5
  3
romans.shx
  4

  0
STYLE
  5
287
330
3
100
AcDbSymbolTableRecord
100
AcDbTextStyleTableRecord
  2
ACANSGDT
 70
     0
 40
0.0
 41
1.0
 50
0.0
 71
     0
 42
3.5
  3
amgdt.shx
  4

  0
STYLE
  5
2B8
330
3
100
AcDbSymbolTableRecord
100
AcDbTextStyleTableRecord
  2
ACDINGDT
 70
     0
 40
0.0
 41
1.0
 50
0.0
 71
     0
 42
3.5
  3
amgdt.shx
  4

  0
STYLE
  5
2D8
330
3
100
AcDbSymbolTableRecord
100
AcDbTextStyleTableRecord
  2
ACDINTS
 70
     0
 40
1.0
 41
1.0
 50
0.0
 71
     0
 42
3.5
  3
isocp.shx
  4

  0
STYLE
  5
301
330
3
100
AcDbSymbolTableRecord
100
AcDbTextStyleTableRecord
  2
ACISOTS
 70
     0
 40
1.0
 41
1.0
 50
0.0
 71
     0
 42
2.5
  3
ARIALN.TTF
  4

1001
ACAD
1000
Arial Narrow
1071
       34
  0
STYLE
  5
305
330
3
100
AcDbSymbolTableRecord
100
AcDbTextStyleTableRecord
  2
ACISOGDT
 70
     0
 40
0.0
 41
1.0
 50
0.0
 71
     0
 42
2.5
  3
amgdt.shx
  4

  0
STYLE
  5
33C
330
3
100
AcDbSymbolTableRecord
100
AcDbTextStyleTableRecord
  2
USER1
 70
     0
 40
0.0
 41
1.0
 50
0.0
 71
     0
 42
2.5
  3
TXT.SHX
  4

  0
STYLE
  5
33D
330
3
100
AcDbSymbolTableRecord
100
AcDbTextStyleTableRecord
  2
USER2
 70
     0
 40
0.0
 41
1.0
 50
0.0
 71
     0
 42
2.5
  3
SIMPLEX.SHX
  4

  0
STYLE
  5
33E
330
3
100
AcDbSymbolTableRecord
100
AcDbTextStyleTableRecord
  2
USER3
 70
     0
 40
0.0
 41
1.0
 50
0.0
 71
     0
 42
2.5
  3
ITALIC.SHX
  4

  0
STYLE
  5
33F
330
3
100
AcDbSymbolTableRecord
100
AcDbTextStyleTableRecord
  2
Stil1
 70
     0
 40
0.0
 41
1.0
 50
0.0
 71
     0
 42
424.4729518289081
  3
ARIALUNI.TTF
  4

1001
ACAD
1000
@Arial Unicode MS
1071
       34
  0
STYLE
  5
3E5
330
3
100
AcDbSymbolTableRecord
100
AcDbTextStyleTableRecord
  2

 70
     1
 40
0.0
 41
1.0
 50
0.0
 71
     0
 42
0.2
  3
ltypeshp.shx
  4

  0
STYLE
  5
582
330
3
100
AcDbSymbolTableRecord
100
AcDbTextStyleTableRecord
  2
Stil2
 70
     0
 40
0.0
 41
1.0
 50
0.0
 71
     0
 42
2.5
  3
ARIALUNI.TTF
  4

1001
ACAD
1000
@Arial Unicode MS
1071
       34
  0
ENDTAB
  0
TABLE
  2
VIEW
  5
6
330
0
100
AcDbSymbolTable
 70
     6
  0
VIEW
  5
4B6
330
6
100
AcDbSymbolTableRecord
100
AcDbViewTableRecord
  2
AM_VIEW1
 70
     0
 40
148.5
 10
1350.748363797354
 20
1974.166653441317
 41
233.154458598726
 11
0.0
 21
0.0
 31
1.0
 12
0.0
 22
0.0
 32
0.0
 42
50.0
 43
0.0
 44
0.0
 50
0.0
 71
     0
281
     0
 72
     0
 73
     0
  0
VIEW
  5
4B7
330
6
100
AcDbSymbolTableRecord
100
AcDbViewTableRecord
  2
AM_VIEW2
 70
     0
 40
148.5
 10
1537.593905198628
 20
1974.166653441317
 41
233.154458598726
 11
0.0
 21
0.0
 31
1.0
 12
0.0
 22
0.0
 32
0.0
 42
50.0
 43
0.0
 44
0.0
 50
0.0
 71
     0
281
     0
 72
     0
 73
     0
  0
VIEW
  5
4B8
330
6
100
AcDbSymbolTableRecord
100
AcDbViewTableRecord
  2
AM_VIEW3
 70
     0
 40
148.5
 10
1350.748363797354
 20
1825.666653441317
 41
233.154458598726
 11
0.0
 21
0.0
 31
1.0
 12
0.0
 22
0.0
 32
0.0
 42
50.0
 43
0.0
 44
0.0
 50
0.0
 71
     0
281
     0
 72
     0
 73
     0
  0
VIEW
  5
4B9
330
6
100
AcDbSymbolTableRecord
100
AcDbViewTableRecord
  2
AM_VIEW4
 70
     0
 40
148.5
 10
1537.593905198628
 20
1825.666653441317
 41
233.154458598726
 11
0.0
 21
0.0
 31
1.0
 12
0.0
 22
0.0
 32
0.0
 42
50.0
 43
0.0
 44
0.0
 50
0.0
 71
     0
281
     0
 72
     0
 73
     0
  0
VIEW
  5
4BA
330
6
100
AcDbSymbolTableRecord
100
AcDbViewTableRecord
  2
AM_VIEW5
 70
     0
 40
148.5
 10
1444.171134497991
 20
1899.916653441317
 41
233.1544585987263
 11
0.0
 21
0.0
 31
1.0
 12
0.0
 22
0.0
 32
0.0
 42
50.0
 43
0.0
 44
0.0
 50
0.0
 71
     0
281
     0
 72
     0
 73
     0
  0
VIEW
  5
4BB
330
6
100
AcDbSymbolTableRecord
100
AcDbViewTableRecord
  2
AM_VIEW6
 70
     0
 40
296.9970299999998
 10
1444.171134497991
 20
1899.916653441317
 41
466.3042541082805
 11
0.0
 21
0.0
 31
1.0
 12
0.0
 22
0.0
 32
0.0
 42
50.0
 43
0.0
 44
0.0
 50
0.0
 71
     0
281
     0
 72
     0
 73
     0
  0
ENDTAB
  0
TABLE
  2
UCS
  5
7
330
0
100
AcDbSymbolTable
 70
     0
  0
ENDTAB
  0
TABLE
  2
APPID
  5
9
330
0
100
AcDbSymbolTable
 70
    72
  0
APPID
  5
12
330
9
100
AcDbSymbolTableRecord
100
AcDbRegAppTableRecord
  2
ACAD
 70
     0
  0
APPID
  5
9E
330
9
100
AcDbSymbolTableRecord
100
AcDbRegAppTableRecord
  2
ACAD_PSEXT
 70
     0
  0
APPID
  5
133
330
9
100
AcDbSymbolTableRecord
100
AcDbRegAppTableRecord
  2
AcadAnnoPO
 70
     0
  0
APPID
  5
134
330
9
100
AcDbSymbolTableRecord
100
AcDbRegAppTableRecord
  2
AcadAnnotative
 70
     0
  0
APPID
  5
135
330
9
100
AcDbSymbolTableRecord
100
AcDbRegAppTableRecord
  2
ACAD_DSTYLE_DIMJAG
 70
     0
  0
APPID
  5
136
330
9
100
AcDbSymbolTableRecord
100
AcDbRegAppTableRecord
  2
ACAD_DSTYLE_DIMTALN
 70
     0
  0
APPID
  5
165
330
9
100
AcDbSymbolTableRecord
100
AcDbRegAppTableRecord
  2
ACAD_MLEADERVER
 70
     0
  0
APPID
  5
217
330
9
100
AcDbSymbolTableRecord
100
AcDbRegAppTableRecord
  2
ACAD_NAV_VCDISPLAY
 70
     0
  0
APPID
  5
221
330
9
100
AcDbSymbolTableRecord
100
AcDbRegAppTableRecord
  2
MCAD_NO_VIS
 70
     0
  0
APPID
  5
222
330
9
100
AcDbSymbolTableRecord
100
AcDbRegAppTableRecord
  2
ACAD_TEMP_GRAPHIC
 70
     0
  0
APPID
  5
22F
330
9
100
AcDbSymbolTableRecord
100
AcDbRegAppTableRecord
  2
ACATTRIBSERVICES
 70
     0
  0
APPID
  5
237
330
9
100
AcDbSymbolTableRecord
100
AcDbRegAppTableRecord
  2
AD_DRAW
 70
     0
  0
APPID
  5
238
330
9
100
AcDbSymbolTableRecord
100
AcDbRegAppTableRecord
  2
DESIGNERASSEMBLIES
 70
     0
  0
APPID
  5
239
330
9
100
AcDbSymbolTableRecord
100
AcDbRegAppTableRecord
  2
ACADM_DIM_EDIT
 70
     0
  0
APPID
  5
23A
330
9
100
AcDbSymbolTableRecord
100
AcDbRegAppTableRecord
  2
AMDT_DM_ADJ
 70
     0
  0
APPID
  5
23B
330
9
100
AcDbSymbolTableRecord
100
AcDbRegAppTableRecord
  2
ACAD_DSTYLE_DIMARC_LENGTH_SYMBOL
 70
     0
  0
APPID
  5
23C
330
9
100
AcDbSymbolTableRecord
100
AcDbRegAppTableRecord
  2
AcAecLayerStandard
 70
     0
  0
APPID
  5
23D
330
9
100
AcDbSymbolTableRecord
100
AcDbRegAppTableRecord
  2
ACAD_DSTYLE_DIMJOGGED_JOGANGLE_SYMBOL
 70
     0
  0
APPID
  5
23E
330
9
100
AcDbSymbolTableRecord
100
AcDbRegAppTableRecord
  2
ACAD_EXEMPT_FROM_CAD_STANDARDS
 70
     0
  0
APPID
  5
23F
330
9
100
AcDbSymbolTableRecord
100
AcDbRegAppTableRecord
  2
GENIUS_GENODEF_13
 70
     0
  0
APPID
  5
240
330
9
100
AcDbSymbolTableRecord
100
AcDbRegAppTableRecord
  2
GENIUS_GENOBJ-N-CRS_13
 70
     0
  0
APPID
  5
241
330
9
100
AcDbSymbolTableRecord
100
AcDbRegAppTableRecord
  2
GENIUS_GENOENT_13
 70
     0
  0
APPID
  5
242
330
9
100
AcDbSymbolTableRecord
100
AcDbRegAppTableRecord
  2
GENIUS_GENOLIS_13
 70
     0
  0
APPID
  5
243
330
9
100
AcDbSymbolTableRecord
100
AcDbRegAppTableRecord
  2
GENIUS_GENOREF_13
 70
     0
  0
APPID
  5
244
330
9
100
AcDbSymbolTableRecord
100
AcDbRegAppTableRecord
  2
GEVID1190879659
 70
     0
  0
APPID
  5
245
330
9
100
AcDbSymbolTableRecord
100
AcDbRegAppTableRecord
  2
GEVDC
 70
     0
  0
APPID
  5
246
330
9
100
AcDbSymbolTableRecord
100
AcDbRegAppTableRecord
  2
GENIUS_GENBH_13
 70
     0
  0
APPID
  5
247
330
9
100
AcDbSymbolTableRecord
100
AcDbRegAppTableRecord
  2
GENIUS_GENOBJ-NBEHI-BHF_13
 70
     0
  0
APPID
  5
248
330
9
100
AcDbSymbolTableRecord
100
AcDbRegAppTableRecord
  2
GENIUS_GENOBJ-NBEHI-BHB_13
 70
     0
  0
APPID
  5
249
330
9
100
AcDbSymbolTableRecord
100
AcDbRegAppTableRecord
  2
GEVID1190879660
 70
     0
  0
APPID
  5
24A
330
9
100
AcDbSymbolTableRecord
100
AcDbRegAppTableRecord
  2
GEVID1190879661
 70
     0
  0
APPID
  5
24B
330
9
100
AcDbSymbolTableRecord
100
AcDbRegAppTableRecord
  2
ACAD_DSTYLE_DIMRADIAL_EXTENSION
 70
     0
  0
APPID
  5
24C
330
9
100
AcDbSymbolTableRecord
100
AcDbRegAppTableRecord
  2
GEVID1190879662
 70
     0
  0
APPID
  5
24D
330
9
100
AcDbSymbolTableRecord
100
AcDbRegAppTableRecord
  2
GEVID1190879663
 70
     0
  0
APPID
  5
24E
330
9
100
AcDbSymbolTableRecord
100
AcDbRegAppTableRecord
  2
GEVID1190879664
 70
     0
  0
APPID
  5
24F
330
9
100
AcDbSymbolTableRecord
100
AcDbRegAppTableRecord
  2
GEVID1190879665
 70
     0
  0
APPID
  5
250
330
9
100
AcDbSymbolTableRecord
100
AcDbRegAppTableRecord
  2
GEVID1190879666
 70
     0
  0
APPID
  5
251
330
9
100
AcDbSymbolTableRecord
100
AcDbRegAppTableRecord
  2
GENIUS_GENOBJ-N-CEN_13
 70
     0
  0
APPID
  5
252
330
9
100
AcDbSymbolTableRecord
100
AcDbRegAppTableRecord
  2
GENIUS_GENCEN_19
 70
     0
  0
APPID
  5
253
330
9
100
AcDbSymbolTableRecord
100
AcDbRegAppTableRecord
  2
GEVID1190879667
 70
     0
  0
APPID
  5
254
330
9
100
AcDbSymbolTableRecord
100
AcDbRegAppTableRecord
  2
GENIUS_GENOBJ-N-CRC_13
 70
     0
  0
APPID
  5
255
330
9
100
AcDbSymbolTableRecord
100
AcDbRegAppTableRecord
  2
GENIUS_GENCRC_14
 70
     0
  0
APPID
  5
256
330
9
100
AcDbSymbolTableRecord
100
AcDbRegAppTableRecord
  2
GEVID1190888456
 70
     0
  0
APPID
  5
257
330
9
100
AcDbSymbolTableRecord
100
AcDbRegAppTableRecord
  2
GEVID1190888457
 70
     0
  0
APPID
  5
258
330
9
100
AcDbSymbolTableRecord
100
AcDbRegAppTableRecord
  2
GEVID1190888458
 70
     0
  0
APPID
  5
259
330
9
100
AcDbSymbolTableRecord
100
AcDbRegAppTableRecord
  2
GEVID1190888459
 70
     0
  0
APPID
  5
25A
330
9
100
AcDbSymbolTableRecord
100
AcDbRegAppTableRecord
  2
GEVID1190888460
 70
     0
  0
APPID
  5
25B
330
9
100
AcDbSymbolTableRecord
100
AcDbRegAppTableRecord
  2
GEVID1190888461
 70
     0
  0
APPID
  5
25C
330
9
100
AcDbSymbolTableRecord
100
AcDbRegAppTableRecord
  2
GEVID1190888462
 70
     0
  0
APPID
  5
25D
330
9
100
AcDbSymbolTableRecord
100
AcDbRegAppTableRecord
  2
GENIUS_GENBLLY_14
 70
     0
  0
APPID
  5
25E
330
9
100
AcDbSymbolTableRecord
100
AcDbRegAppTableRecord
  2
DCO15
 70
     0
  0
APPID
  5
25F
330
9
100
AcDbSymbolTableRecord
100
AcDbRegAppTableRecord
  2
GENIUS_GENREC_14
 70
     0
  0
APPID
  5
260
330
9
100
AcDbSymbolTableRecord
100
AcDbRegAppTableRecord
  2
GENIUS_GENOBJ-N-REC_13
 70
     0
  0
APPID
  5
261
330
9
100
AcDbSymbolTableRecord
100
AcDbRegAppTableRecord
  2
GENIUS_GENOBJ-N-TIT_13
 70
     0
  0
APPID
  5
262
330
9
100
AcDbSymbolTableRecord
100
AcDbRegAppTableRecord
  2
GENIUS_GENTITLE_13
 70
     0
  0
APPID
  5
263
330
9
100
AcDbSymbolTableRecord
100
AcDbRegAppTableRecord
  2
GENIUS_GENSCREG_15
 70
     0
  0
APPID
  5
264
330
9
100
AcDbSymbolTableRecord
100
AcDbRegAppTableRecord
  2
GENIUS_GENOBJ-N-SDF_13
 70
     0
  0
APPID
  5
265
330
9
100
AcDbSymbolTableRecord
100
AcDbRegAppTableRecord
  2
ACAD_DSTYLE_DIMINSPECT
 70
     0
  0
APPID
  5
266
330
9
100
AcDbSymbolTableRecord
100
AcDbRegAppTableRecord
  2
GENIUS_GENDIMSH_14
 70
     0
  0
APPID
  5
267
330
9
100
AcDbSymbolTableRecord
100
AcDbRegAppTableRecord
  2
GENIUS_GENOBJ-N-HTC_13
 70
     0
  0
APPID
  5
268
330
9
100
AcDbSymbolTableRecord
100
AcDbRegAppTableRecord
  2
GENIUS_GENHATCH_13
 70
     0
  0
APPID
  5
269
330
9
100
AcDbSymbolTableRecord
100
AcDbRegAppTableRecord
  2
ACAUTHENVIRON
 70
     0
  0
APPID
  5
26A
330
9
100
AcDbSymbolTableRecord
100
AcDbRegAppTableRecord
  2
AcDbDynamicBlockTrueName
 70
     0
  0
APPID
  5
26B
330
9
100
AcDbSymbolTableRecord
100
AcDbRegAppTableRecord
  2
AcDbDynamicBlockGUID
 70
     0
  0
APPID
  5
26C
330
9
100
AcDbSymbolTableRecord
100
AcDbRegAppTableRecord
  2
ACDBBLOCKREPETAG
 70
     0
  0
APPID
  5
26D
330
9
100
AcDbSymbolTableRecord
100
AcDbRegAppTableRecord
  2
EAR3_SAP_ACAD
 70
     0
  0
APPID
  5
26E
330
9
100
AcDbSymbolTableRecord
100
AcDbRegAppTableRecord
  2
CADDESKTOPMDT
 70
     0
  0
APPID
  5
26F
330
9
100
AcDbSymbolTableRecord
100
AcDbRegAppTableRecord
  2
GENIUS_GENOBJ-N-FIL_13
 70
     0
  0
APPID
  5
270
330
9
100
AcDbSymbolTableRecord
100
AcDbRegAppTableRecord
  2
GENIUS_GENTRA_14
 70
     0
  0
APPID
  5
271
330
9
100
AcDbSymbolTableRecord
100
AcDbRegAppTableRecord
  2
GENIUS_GENDTOL_13
 70
     0
  0
APPID
  5
272
330
9
100
AcDbSymbolTableRecord
100
AcDbRegAppTableRecord
  2
GENIUS_AMGTXT_16
 70
     0
  0
APPID
  5
53A
330
9
100
AcDbSymbolTableRecord
100
AcDbRegAppTableRecord
  2
ACAD_DSTYLE_DIMBREAK
 70
     0
  0
ENDTAB
  0
TABLE
  2
DIMSTYLE
  5
A
330
0
100
AcDbSymbolTable
 70
    34
100
AcDbDimStyleTable
 71
     4
340
2CF
340
2F4
340
27
340
137
  0
DIMSTYLE
105
1B0
330
A
100
AcDbSymbolTableRecord
100
AcDbDimStyleTableRecord
  2
STANDARD
 70
     0
 41
2.68
140
3.5
178
     6
340
11
  0
DIMSTYLE
105
137
330
A
100
AcDbSymbolTableRecord
100
AcDbDimStyleTableRecord
  2
Annotative
 70
     0
 40
0.0
 41
2.5
 42
0.625
 43
3.75
 44
1.25
 73
     0
 74
     0
 77
     1
 78
     8
140
2.5
141
2.5
143
0.03937007874016
147
0.625
171
     3
172
     1
271
     2
272
     2
274
     3
278
    44
283
     0
284
     8
340
11
1001
AcadAnnotative
1000
AnnotativeData
1002
{
1070
     1
1070
     1
1002
}
1001
ACAD_DSTYLE_DIMJAG
1070
   388
1040
1.5
1001
ACAD_DSTYLE_DIMTALN
1070
   392
1070
     0
  0
DIMSTYLE
105
27
330
A
100
AcDbSymbolTableRecord
100
AcDbDimStyleTableRecord
  2
ISO-25
 70
     0
 41
2.5
 42
0.625
 43
3.75
 44
1.25
 73
     0
 74
     0
 77
     1
 78
     8
140
2.5
141
2.5
143
0.03937007874016
147
0.625
171
     3
172
     1
271
     2
272
     2
274
     3
278
    44
283
     0
284
     8
340
11
  0
DIMSTYLE
105
2A8
330
A
100
AcDbSymbolTableRecord
100
AcDbDimStyleTableRecord
  2
AM_ANSI
 70
     0
  4
mm
 41
0.1
 42
0.05
 43
0.5
 44
0.1
 47
0.1
 48
0.1
 78
     7
 79
     2
 90
     1
140
0.12
141
0.0
146
0.71
147
0.06
176
   256
177
   256
178
     2
274
     4
284
     7
340
11
371
    -1
372
    -1
  0
DIMSTYLE
105
2A9
330
A
100
AcDbSymbolTableRecord
100
AcDbDimStyleTableRecord
  2
AM_ANSI$3
 70
     0
  4
mm
 41
0.1
 42
0.05
 43
0.5
 44
0.1
 47
0.1
 48
0.1
 78
     7
 79
     2
 90
     1
140
0.12
141
0.0
146
0.71
147
0.06
176
   256
177
   256
178
     2
274
     4
284
     7
288
     1
289
     0
340
11
371
    -1
372
    -1
  0
DIMSTYLE
105
2AA
330
A
100
AcDbSymbolTableRecord
100
AcDbDimStyleTableRecord
  2
AM_ANSI$4
 70
     0
  4
mm
 41
0.1
 42
0.05
 43
0.5
 44
0.1
 47
0.1
 48
0.1
 78
     7
 79
     2
 90
     1
140
0.12
141
0.0
146
0.71
147
0.06
176
   256
177
   256
178
     2
274
     4
284
     7
288
     1
289
     0
340
11
371
    -1
372
    -1
  0
DIMSTYLE
105
2AB
330
A
100
AcDbSymbolTableRecord
100
AcDbDimStyleTableRecord
  2
AM_ANSI$7
 70
     0
  4
mm
 41
0.1
 42
0.05
 43
0.5
 44
0.1
 47
0.1
 48
0.1
 78
     7
 79
     2
 90
     1
140
0.24
141
0.0
146
0.71
147
0.06
176
   256
177
   256
178
     2
274
     4
284
     7
340
11
371
    -1
372
    -1
  0
DIMSTYLE
105
2AC
330
A
100
AcDbSymbolTableRecord
100
AcDbDimStyleTableRecord
  2
AM_ANSI$SF
 70
     0
  4
mm
 41
0.1
 42
0.05
 43
0.5
 44
0.1
 47
0.1
 48
0.1
 75
     1
 76
     1
 78
     7
 79
     2
 90
     1
140
0.12
141
0.0
146
0.71
147
0.06
176
   256
177
   256
178
     2
274
     4
284
     7
340
11
371
    -1
372
    -1
  0
DIMSTYLE
105
2AD
330
A
100
AcDbSymbolTableRecord
100
AcDbDimStyleTableRecord
  2
AM_ANSI$SH
 70
     0
  4
mm
 41
0.1
 42
0.05
 43
0.5
 44
0.1
 47
0.1
 48
0.1
 75
     1
 76
     1
 78
     7
 79
     2
 90
     1
140
0.12
141
0.0
146
0.71
147
0.06
173
     1
176
   256
177
   256
178
     2
274
     4
284
     7
340
11
343
2AE
371
    -1
372
    -1
  0
DIMSTYLE
105
2CF
330
A
100
AcDbSymbolTableRecord
100
AcDbDimStyleTableRecord
  2
BENUTZERDEFINIERTE NORM
 70
     0
  4
"
 41
2.5
 42
0.0
 43
10.0
 44
1.0
 47
0.1
 48
0.1
 50
90.0
 73
     0
 74
     0
 77
     1
 78
     8
 79
     2
140
3.5
141
0.0
143
0.0393701
146
0.71
147
1.5
172
     1
176
   256
177
   256
178
     6
271
     2
272
     2
283
     0
284
     8
340
11
371
    -1
372
    -1
1001
ACAD_DSTYLE_DIMJAG
1070
   388
1040
1.5
1001
ACAD_DSTYLE_DIMTALN
1070
   392
1070
     0
  0
DIMSTYLE
105
2D0
102
{ACAD_REACTORS
330
8BB
330
99B
330
7A4
330
7A3
102
}
330
A
100
AcDbSymbolTableRecord
100
AcDbDimStyleTableRecord
  2
BENUTZERDEFINIERTE NORM$0
 70
     0
  4
"
 41
2.5
 42
0.0
 43
10.0
 44
1.0
 47
0.1
 48
0.1
 50
90.0
 73
     0
 74
     0
 77
     1
 78
     8
 79
     2
140
3.5
141
0.0
143
0.0393701
146
0.71
147
1.5
172
     1
176
   256
177
   256
178
     6
271
     2
272
     2
283
     0
284
     8
340
11
371
    -1
372
    -1
1001
ACAD_DSTYLE_DIMBREAK
1070
   391
1040
3.75
1001
ACAD_DSTYLE_DIMJAG
1070
   388
1040
1.5
1001
ACAD_DSTYLE_DIMTALN
1070
   392
1070
     0
  0
DIMSTYLE
105
2D1
330
A
100
AcDbSymbolTableRecord
100
AcDbDimStyleTableRecord
  2
BENUTZERDEFINIERTE NORM$3
 70
     0
  4
"
 41
2.5
 42
0.0
 43
10.0
 44
1.0
 47
0.1
 48
0.1
 50
90.0
 73
     0
 77
     1
 78
     8
 79
     2
140
3.5
141
0.0
143
0.0393701
146
0.71
147
1.5
176
   256
177
   256
178
     6
271
     2
272
     2
283
     0
284
     8
288
     1
289
     0
340
11
371
    -1
372
    -1
1001
ACAD_DSTYLE_DIMBREAK
1070
   391
1040
3.75
1001
ACAD_DSTYLE_DIMJAG
1070
   388
1040
1.5
1001
ACAD_DSTYLE_DIMTALN
1070
   392
1070
     0
  0
DIMSTYLE
105
2D2
330
A
100
AcDbSymbolTableRecord
100
AcDbDimStyleTableRecord
  2
BENUTZERDEFINIERTE NORM$4
 70
     0
  4
"
 41
2.5
 42
0.0
 43
10.0
 44
1.0
 47
0.1
 48
0.1
 50
90.0
 73
     0
 77
     1
 78
     8
 79
     2
140
3.5
141
0.0
143
0.0393701
146
0.71
147
1.5
176
   256
177
   256
178
     6
271
     2
272
     2
283
     0
284
     8
288
     1
289
     0
340
11
371
    -1
372
    -1
1001
ACAD_DSTYLE_DIMBREAK
1070
   391
1040
3.75
1001
ACAD_DSTYLE_DIMJAG
1070
   388
1040
1.5
1001
ACAD_DSTYLE_DIMTALN
1070
   392
1070
     0
  0
DIMSTYLE
105
2D3
330
A
100
AcDbSymbolTableRecord
100
AcDbDimStyleTableRecord
  2
BENUTZERDEFINIERTE NORM$6
 70
     0
  4
"
 41
2.5
 42
0.0
 43
10.0
 44
1.0
 47
0.1
 48
0.1
 50
90.0
 73
     0
 74
     0
 78
     8
 79
     2
140
3.5
141
0.0
143
0.0393701
146
0.71
147
1.5
172
     1
176
   256
177
   256
178
     6
271
     2
272
     2
283
     0
284
     8
340
11
371
    -1
372
    -1
1001
ACAD_DSTYLE_DIMBREAK
1070
   391
1040
3.75
1001
ACAD_DSTYLE_DIMJAG
1070
   388
1040
1.5
1001
ACAD_DSTYLE_DIMTALN
1070
   392
1070
     0
  0
DIMSTYLE
105
2D4
330
A
100
AcDbSymbolTableRecord
100
AcDbDimStyleTableRecord
  2
BENUTZERDEFINIERTE NORM$7
 70
     0
  4
"
 41
2.5
 42
0.0
 43
10.0
 44
1.0
 47
0.1
 48
0.1
 50
90.0
 73
     0
 74
     0
 77
     1
 78
     8
 79
     2
140
5.0
141
0.0
143
0.0393701
146
0.71
147
1.5
172
     1
176
   256
177
   256
178
     6
271
     2
272
     2
283
     0
284
     8
340
11
371
    -1
372
    -1
1001
ACAD_DSTYLE_DIMBREAK
1070
   391
1040
3.75
1001
ACAD_DSTYLE_DIMJAG
1070
   388
1040
1.5
1001
ACAD_DSTYLE_DIMTALN
1070
   392
1070
     0
  0
DIMSTYLE
105
2D5
330
A
100
AcDbSymbolTableRecord
100
AcDbDimStyleTableRecord
  2
BENUTZERDEFINIERTE NORM$SF
 70
     0
  4
"
 41
2.5
 42
1.0
 43
10.0
 44
1.0
 47
0.1
 48
0.1
 50
90.0
 73
     0
 74
     0
 75
     1
 76
     1
 77
     1
 78
     8
 79
     2
140
3.5
141
0.0
143
0.0393701
146
0.71
147
1.5
172
     1
176
   256
177
   256
178
     6
271
     2
272
     3
274
     4
283
     0
284
     8
340
11
371
    -1
372
    -1
1001
ACAD_DSTYLE_DIMBREAK
1070
   391
1040
3.75
1001
ACAD_DSTYLE_DIMJAG
1070
   388
1040
1.5
1001
ACAD_DSTYLE_DIMTALN
1070
   392
1070
     0
  0
DIMSTYLE
105
2D6
330
A
100
AcDbSymbolTableRecord
100
AcDbDimStyleTableRecord
  2
BENUTZERDEFINIERTE NORM$SH
 70
     0
  4
"
 41
2.5
 42
1.0
 43
10.0
 44
1.0
 47
0.1
 48
0.1
 50
90.0
 73
     0
 74
     0
 75
     1
 76
     1
 77
     1
 78
     8
 79
     2
140
3.5
141
0.0
143
0.0393701
144
2.0
146
0.71
147
1.5
172
     1
173
     1
176
   256
177
   256
178
     6
271
     2
272
     3
274
     4
283
     0
284
     8
340
11
343
2AE
371
    -1
372
    -1
1001
ACAD_DSTYLE_DIMBREAK
1070
   391
1040
3.75
1001
ACAD_DSTYLE_DIMJAG
1070
   388
1040
1.5
1001
ACAD_DSTYLE_DIMTALN
1070
   392
1070
     0
  0
DIMSTYLE
105
2F4
102
{ACAD_REACTORS
330
2DA
102
}
330
A
100
AcDbSymbolTableRecord
100
AcDbDimStyleTableRecord
  2
AM_DIN
 70
     0
  4
"
 41
5.0
 42
0.0
 43
10.0
 44
0.5
 47
0.1
 48
0.1
 50
90.0
 73
     0
 74
     0
 77
     1
 78
     8
 79
     2
140
5.0
141
0.0
143
0.0393701
146
0.71
147
1.5
172
     1
176
   256
177
   256
178
     6
271
     2
272
     2
283
     0
284
     8
340
11
371
    -1
372
    -1
1001
ACAD_DSTYLE_DIMJAG
1070
   388
1040
1.5
1001
ACAD_DSTYLE_DIMTALN
1070
   392
1070
     0
  0
DIMSTYLE
105
2F5
330
A
100
AcDbSymbolTableRecord
100
AcDbDimStyleTableRecord
  2
AM_DIN$0
 70
     0
  4
"
 41
4.0
 42
0.0
 43
10.0
 44
0.5
 47
0.1
 48
0.1
 50
90.0
 73
     0
 74
     0
 77
     1
 78
     8
 79
     2
140
3.5
141
0.0
143
0.0393701
146
0.71
147
1.5
172
     1
176
   256
177
   256
178
     6
271
     2
272
     2
283
     0
284
     8
340
11
371
    -1
372
    -1
1001
ACAD_DSTYLE_DIMBREAK
1070
   391
1040
3.75
1001
ACAD_DSTYLE_DIMJAG
1070
   388
1040
1.5
1001
ACAD_DSTYLE_DIMTALN
1070
   392
1070
     0
  0
DIMSTYLE
105
2F6
330
A
100
AcDbSymbolTableRecord
100
AcDbDimStyleTableRecord
  2
AM_DIN$2
 70
     0
  4
"
 41
4.0
 42
0.0
 43
10.0
 44
0.5
 47
0.1
 48
0.1
 50
90.0
 73
     0
 74
     0
 77
     1
 78
     8
 79
     2
140
3.5
141
0.0
143
0.0393701
146
0.71
147
1.5
172
     1
176
   256
177
   256
178
     6
271
     2
272
     2
283
     0
284
     8
340
11
371
    -1
372
    -1
1001
ACAD_DSTYLE_DIMBREAK
1070
   391
1040
3.75
1001
ACAD_DSTYLE_DIMJAG
1070
   388
1040
1.5
1001
ACAD_DSTYLE_DIMTALN
1070
   392
1070
     0
  0
DIMSTYLE
105
2F7
330
A
100
AcDbSymbolTableRecord
100
AcDbDimStyleTableRecord
  2
AM_DIN$3
 70
     0
  4
"
 41
3.5
 42
0.0
 43
10.0
 44
0.5
 47
0.1
 48
0.1
 50
90.0
 73
     0
 77
     1
 78
     8
 79
     2
140
3.5
141
0.0
143
0.0393701
146
0.71
147
1.5
176
   256
177
   256
178
     6
271
     2
272
     2
283
     0
284
     8
288
     1
289
     0
340
11
371
    -1
372
    -1
1001
ACAD_DSTYLE_DIMBREAK
1070
   391
1040
3.75
1001
ACAD_DSTYLE_DIMJAG
1070
   388
1040
1.5
1001
ACAD_DSTYLE_DIMTALN
1070
   392
1070
     0
  0
DIMSTYLE
105
2F8
330
A
100
AcDbSymbolTableRecord
100
AcDbDimStyleTableRecord
  2
AM_DIN$4
 70
     0
  4
"
 41
4.0
 42
0.0
 43
10.0
 44
0.5
 47
0.1
 48
0.1
 50
90.0
 73
     0
 77
     1
 78
     8
 79
     2
140
3.5
141
0.0
143
0.0393701
146
0.71
147
1.5
176
   256
177
   256
178
     6
271
     2
272
     2
283
     0
284
     8
288
     1
289
     0
340
11
371
    -1
372
    -1
1001
ACAD_DSTYLE_DIMBREAK
1070
   391
1040
3.75
1001
ACAD_DSTYLE_DIMJAG
1070
   388
1040
1.5
1001
ACAD_DSTYLE_DIMTALN
1070
   392
1070
     0
  0
DIMSTYLE
105
2F9
330
A
100
AcDbSymbolTableRecord
100
AcDbDimStyleTableRecord
  2
AM_DIN$6
 70
     0
  4
"
 41
4.0
 42
0.0
 43
10.0
 44
0.5
 47
0.1
 48
0.1
 50
90.0
 73
     0
 74
     0
 78
     8
 79
     2
140
3.5
141
0.0
143
0.0393701
146
0.71
147
1.5
172
     1
176
   256
177
   256
178
     6
271
     2
272
     2
283
     0
284
     8
340
11
371
    -1
372
    -1
1001
ACAD_DSTYLE_DIMBREAK
1070
   391
1040
3.75
1001
ACAD_DSTYLE_DIMJAG
1070
   388
1040
1.5
1001
ACAD_DSTYLE_DIMTALN
1070
   392
1070
     0
  0
DIMSTYLE
105
2FA
330
A
100
AcDbSymbolTableRecord
100
AcDbDimStyleTableRecord
  2
AM_DIN$7
 70
     0
  4
"
 41
5.0
 42
0.0
 43
10.0
 44
0.5
 47
0.1
 48
0.1
 50
90.0
 73
     0
 74
     0
 77
     1
 78
     8
 79
     2
140
5.0
141
0.0
143
0.0393701
146
0.71
147
1.5
172
     1
176
   256
177
   256
178
     6
271
     2
272
     2
283
     0
284
     8
340
11
371
    -1
372
    -1
1001
ACAD_DSTYLE_DIMBREAK
1070
   391
1040
3.75
1001
ACAD_DSTYLE_DIMJAG
1070
   388
1040
1.5
1001
ACAD_DSTYLE_DIMTALN
1070
   392
1070
     0
  0
DIMSTYLE
105
2FB
330
A
100
AcDbSymbolTableRecord
100
AcDbDimStyleTableRecord
  2
AM_DIN$SF
 70
     0
  4
"
 41
4.0
 42
0.0
 43
10.0
 44
0.5
 47
0.1
 48
0.1
 50
90.0
 73
     0
 74
     0
 75
     1
 76
     1
 77
     1
 78
     8
 79
     2
140
3.5
141
0.0
143
0.0393701
146
0.71
147
1.5
172
     1
176
   256
177
   256
178
     6
271
     2
272
     2
283
     0
284
     8
340
11
371
    -1
372
    -1
1001
ACAD_DSTYLE_DIMBREAK
1070
   391
1040
3.75
1001
ACAD_DSTYLE_DIMJAG
1070
   388
1040
1.5
1001
ACAD_DSTYLE_DIMTALN
1070
   392
1070
     0
  0
DIMSTYLE
105
2FC
330
A
100
AcDbSymbolTableRecord
100
AcDbDimStyleTableRecord
  2
AM_DIN$SH
 70
     0
  4
"
 41
4.0
 42
0.0
 43
10.0
 44
0.5
 47
0.1
 48
0.1
 50
90.0
 73
     0
 74
     0
 75
     1
 76
     1
 77
     1
 78
     8
 79
     2
140
3.5
141
0.0
143
0.0393701
144
2.0
146
0.71
147
1.5
172
     1
173
     1
176
   256
177
   256
178
     6
271
     2
272
     2
283
     0
284
     8
340
11
343
2AE
371
    -1
372
    -1
1001
ACAD_DSTYLE_DIMBREAK
1070
   391
1040
3.75
1001
ACAD_DSTYLE_DIMJAG
1070
   388
1040
1.5
1001
ACAD_DSTYLE_DIMTALN
1070
   392
1070
     0
  0
DIMSTYLE
105
319
330
A
100
AcDbSymbolTableRecord
100
AcDbDimStyleTableRecord
  2
AM_ISO
 70
     0
  4
"
 41
2.5
 42
1.0
 43
10.0
 44
1.0
 47
0.1
 48
0.1
 73
     0
 74
     0
 77
     1
 78
     8
 79
     2
 90
     1
140
3.5
141
0.0
143
0.0393701
146
0.71
147
1.5
172
     1
176
   256
177
   256
178
     2
271
     2
272
     3
274
     4
283
     0
284
     8
340
11
371
    -1
372
    -1
1001
ACAD_DSTYLE_DIMJOGGED_JOGANGLE_SYMBOL
1070
   384
1040
0.7853981633974483
  0
DIMSTYLE
105
31A
330
A
100
AcDbSymbolTableRecord
100
AcDbDimStyleTableRecord
  2
AM_ISO$3
 70
     0
  4
"
 41
2.5
 42
1.0
 43
10.0
 44
1.0
 47
0.1
 48
0.1
 73
     0
 77
     1
 78
     8
 79
     2
 90
     1
140
3.5
141
0.0
143
0.0393701
146
0.71
147
1.5
176
   256
177
   256
178
     2
271
     2
272
     3
274
     4
283
     0
284
     8
288
     1
289
     0
340
11
371
    -1
372
    -1
1001
ACAD_DSTYLE_DIMJOGGED_JOGANGLE_SYMBOL
1070
   384
1040
0.7853981633974483
  0
DIMSTYLE
105
31B
330
A
100
AcDbSymbolTableRecord
100
AcDbDimStyleTableRecord
  2
AM_ISO$4
 70
     0
  4
"
 41
2.5
 42
1.0
 43
10.0
 44
1.0
 47
0.1
 48
0.1
 73
     0
 77
     1
 78
     8
 79
     2
 90
     1
140
3.5
141
0.0
143
0.0393701
146
0.71
147
1.5
176
   256
177
   256
178
     2
271
     2
272
     3
274
     4
283
     0
284
     8
288
     1
289
     0
340
11
371
    -1
372
    -1
1001
ACAD_DSTYLE_DIMJOGGED_JOGANGLE_SYMBOL
1070
   384
1040
0.7853981633974483
  0
DIMSTYLE
105
31C
330
A
100
AcDbSymbolTableRecord
100
AcDbDimStyleTableRecord
  2
AM_ISO$6
 70
     0
  4
"
 41
2.5
 42
1.0
 43
10.0
 44
1.0
 47
0.1
 48
0.1
 73
     0
 74
     0
 78
     8
 79
     2
 90
     1
140
3.5
141
0.0
143
0.0393701
146
0.71
147
1.5
172
     1
176
   256
177
   256
178
     2
271
     2
272
     3
274
     4
283
     0
284
     8
340
11
371
    -1
372
    -1
1001
ACAD_DSTYLE_DIMJOGGED_JOGANGLE_SYMBOL
1070
   384
1040
0.7853981633974483
  0
DIMSTYLE
105
31D
330
A
100
AcDbSymbolTableRecord
100
AcDbDimStyleTableRecord
  2
AM_ISO$7
 70
     0
  4
"
 41
2.5
 42
1.0
 43
10.0
 44
1.0
 47
0.1
 48
0.1
 73
     0
 74
     0
 77
     1
 78
     8
 79
     2
 90
     1
140
5.0
141
0.0
143
0.0393701
146
0.71
147
1.5
172
     1
176
   256
177
   256
178
     2
271
     2
272
     3
274
     4
283
     0
284
     8
340
11
371
    -1
372
    -1
1001
ACAD_DSTYLE_DIMJOGGED_JOGANGLE_SYMBOL
1070
   384
1040
0.7853981633974483
  0
DIMSTYLE
105
31E
330
A
100
AcDbSymbolTableRecord
100
AcDbDimStyleTableRecord
  2
AM_ISO$SF
 70
     0
  4
"
 41
2.5
 42
1.0
 43
10.0
 44
1.0
 47
0.1
 48
0.1
 73
     0
 74
     0
 75
     1
 76
     1
 77
     1
 78
     8
 79
     2
 90
     1
140
3.5
141
0.0
143
0.0393701
146
0.71
147
1.5
172
     1
176
   256
177
   256
178
     2
271
     2
272
     3
274
     4
283
     0
284
     8
340
11
371
    -1
372
    -1
1001
ACAD_DSTYLE_DIMJOGGED_JOGANGLE_SYMBOL
1070
   384
1040
0.7853981633974483
  0
DIMSTYLE
105
31F
330
A
100
AcDbSymbolTableRecord
100
AcDbDimStyleTableRecord
  2
AM_ISO$SH
 70
     0
  4
"
 41
2.5
 42
1.0
 43
10.0
 44
1.0
 47
0.1
 48
0.1
 73
     0
 74
     0
 75
     1
 76
     1
 77
     1
 78
     8
 79
     2
 90
     1
140
3.5
141
0.0
143
0.0393701
144
2.0
146
0.71
147
1.5
172
     1
173
     1
176
   256
177
   256
178
     2
271
     2
272
     3
274
     4
283
     0
284
     8
340
11
343
2AE
371
    -1
372
    -1
1001
ACAD_DSTYLE_DIMJOGGED_JOGANGLE_SYMBOL
1070
   384
1040
0.7853981633974483
  0
ENDTAB
  0
TABLE
  2
BLOCK_RECORD
  5
1
330
0
100
AcDbSymbolTable
 70
    20
  0
BLOCK_RECORD
  5
1F
102
{ACAD_XDICTIONARY
360
1CE
102
}
330
1
100
AcDbSymbolTableRecord
100
AcDbBlockTableRecord
  2
*Model_Space
340
22
 70
     0
280
     1
281
     0
  0
BLOCK_RECORD
  5
D2
330
1
100
AcDbSymbolTableRecord
100
AcDbBlockTableRecord
  2
*Paper_Space
340
D3
 70
     0
280
     1
281
     0
  0
BLOCK_RECORD
  5
D6
330
1
100
AcDbSymbolTableRecord
100
AcDbBlockTableRecord
  2
*Paper_Space0
340
D7
 70
     0
280
     1
281
     0
  0
BLOCK_RECORD
  5
2AE
330
1
100
AcDbSymbolTableRecord
100
AcDbBlockTableRecord
  2
GENAXEH
340
0
310
2800000020000000200000000100080000000000000400000000000000000000000000000000000000000000000080000080000000808000800000008000800080800000C0C0C000C0DCC000F0CAA6000020400000206000002080000020A0000020C0000020E00000400000004020000040400000406000004080000040A0
310
000040C0000040E00000600000006020000060400000606000006080000060A0000060C0000060E00000800000008020000080400000806000008080000080A0000080C0000080E00000A0000000A0200000A0400000A0600000A0800000A0A00000A0C00000A0E00000C0000000C0200000C0400000C0600000C0800000C0
310
A00000C0C00000C0E00000E0000000E0200000E0400000E0600000E0800000E0A00000E0C00000E0E00040000000400020004000400040006000400080004000A0004000C0004000E00040200000402020004020400040206000402080004020A0004020C0004020E000404000004040200040404000404060004040800040
310
40A0004040C0004040E00040600000406020004060400040606000406080004060A0004060C0004060E00040800000408020004080400040806000408080004080A0004080C0004080E00040A0000040A0200040A0400040A0600040A0800040A0A00040A0C00040A0E00040C0000040C0200040C0400040C0600040C08000
310
40C0A00040C0C00040C0E00040E0000040E0200040E0400040E0600040E0800040E0A00040E0C00040E0E00080000000800020008000400080006000800080008000A0008000C0008000E00080200000802020008020400080206000802080008020A0008020C0008020E00080400000804020008040400080406000804080
310
008040A0008040C0008040E00080600000806020008060400080606000806080008060A0008060C0008060E00080800000808020008080400080806000808080008080A0008080C0008080E00080A0000080A0200080A0400080A0600080A0800080A0A00080A0C00080A0E00080C0000080C0200080C0400080C0600080C0
310
800080C0A00080C0C00080C0E00080E0000080E0200080E0400080E0600080E0800080E0A00080E0C00080E0E000C0000000C0002000C0004000C0006000C0008000C000A000C000C000C000E000C0200000C0202000C0204000C0206000C0208000C020A000C020C000C020E000C0400000C0402000C0404000C0406000C0
310
408000C040A000C040C000C040E000C0600000C0602000C0604000C0606000C0608000C060A000C060C000C060E000C0800000C0802000C0804000C0806000C0808000C080A000C080C000C080E000C0A00000C0A02000C0A04000C0A06000C0A08000C0A0A000C0A0C000C0A0E000C0C00000C0C02000C0C04000C0C06000
310
C0C08000C0C0A000F0FBFF00A4A0A000808080000000FF0000FF000000FFFF00FF000000FF00FF00FFFF0000FFFFFF0000000000000000000000000000000000000000000000000000000000000000000000000000000000000000000000000000000000000000000000000000000000000000000000000000000000000000
310
00000000000000000000000000000000000000000000000000000000000000000000000000000000000000000000000000000000000000000000000000000000000000000000000000000000000000000000000000000000000000000000000000000000000000000000000000000000000000000000000000000000000000
310
00000000000000000000000000000000000000000000000000000000000000000000000000000000000000000000000000000000000000000000000000000000000000000000000000000000000000000000000000000000000000000000000000000000000000000000000000000000000000000000000000000000000000
310
00000000000000000000000000000000000000000000000000000000000000000000000000000000000000000000000000000000000000000000000000000000000000000000000000000000000000000000000000000000000000000000000000000000000000000000000000000000000000000000000000000000000000
310
0000000000000000000000000000000000000000000000000000000000000000000000000000000000000000000000000000000000FFFFFFFFFFFFFFFFFFFFFFFFFFFFFFFFFFFFFFFFFFFFFFFFFFFFFFFFFFFF0000000000000000000000000000000000000000000000000000000000000000000000000000000000000000
310
00000000000000000000000000000000000000000000000000000000000000000000000000000000000000000000000000000000000000000000000000000000000000000000000000000000000000000000000000000000000000000000000000000000000000000000000000000000000000000000000000000000000000
310
00000000000000000000000000000000000000000000000000000000000000000000000000000000000000000000000000000000000000000000000000000000000000000000000000000000000000000000000000000000000000000000000000000000000000000000000000000000000000000000000000000000000000
310
00000000000000000000000000000000000000000000000000000000000000000000000000000000000000000000000000000000000000000000000000000000000000000000000000000000000000000000000000000000000000000000000000000000000000000000000000000000000000000000000000000000000000
310
0000000000000000000000000000000000000000000000000000000000000000000000000000000000000000000000000000000000000000
 70
     0
280
     1
281
     0
  0
BLOCK_RECORD
  5
3E6
330
1
100
AcDbSymbolTableRecord
100
AcDbBlockTableRecord
  2
DIN_A3
340
0
 70
     0
280
     1
281
     0
  0
BLOCK_RECORD
  5
3FF
102
{ACAD_XDICTIONARY
360
476
102
}
330
1
100
AcDbSymbolTableRecord
100
AcDbBlockTableRecord
  2
OASESAP8
340
0
 70
     0
280
     1
281
     0
  0
BLOCK_RECORD
  5
7A6
330
1
100
AcDbSymbolTableRecord
100
AcDbBlockTableRecord
  2
*D8
340
0
 70
     0
280
     1
281
     0
  0
BLOCK_RECORD
  5
7B2
330
1
100
AcDbSymbolTableRecord
100
AcDbBlockTableRecord
  2
*D9
340
0
 70
     0
280
     1
281
     0
  0
BLOCK_RECORD
  5
81D
102
{ACAD_XDICTIONARY
360
89B
102
}
330
1
100
AcDbSymbolTableRecord
100
AcDbBlockTableRecord
  2
51168 jf 20 v
340
0
 70
     0
280
     1
281
     0
  0
BLOCK_RECORD
  5
8BC
330
1
100
AcDbSymbolTableRecord
100
AcDbBlockTableRecord
  2
*D12
340
0
 70
     0
280
     1
281
     0
  0
BLOCK_RECORD
  5
99C
330
1
100
AcDbSymbolTableRecord
100
AcDbBlockTableRecord
  2
*D13
340
0
 70
     0
280
     1
281
     0
  0
BLOCK_RECORD
  5
A6C
330
1
100
AcDbSymbolTableRecord
100
AcDbBlockTableRecord
  2
_ACMFILLED15
340
0
 70
     0
280
     1
281
     0
  0
BLOCK_RECORD
  5
A7A
330
1
100
AcDbSymbolTableRecord
100
AcDbBlockTableRecord
  2
_ACMNONE
340
0
 70
     0
280
     1
281
     0
  0
BLOCK_RECORD
  5
A7E
330
1
100
AcDbSymbolTableRecord
100
AcDbBlockTableRecord
  2
_ACMFILLED
340
0
 70
     0
280
     1
281
     0
  0
BLOCK_RECORD
  5
A88
330
1
100
AcDbSymbolTableRecord
100
AcDbBlockTableRecord
  2
_ACMFILLEDHALF
340
0
 70
     0
280
     1
281
     0
  0
BLOCK_RECORD
  5
A9F
330
1
100
AcDbSymbolTableRecord
100
AcDbBlockTableRecord
  2
_ACMFILLED30
340
0
 70
     0
280
     1
281
     0
  0
ENDTAB
  0
ENDSEC
  0
SECTION
  2
BLOCKS
  0
BLOCK
  5
20
330
1F
100
AcDbEntity
  8
0
100
AcDbBlockBegin
  2
*Model_Space
 70
     0
 10
0.0
 20
0.0
 30
0.0
  3
*Model_Space
  1

  0
ENDBLK
  5
21
330
1F
100
AcDbEntity
  8
0
100
AcDbBlockEnd
  0
BLOCK
  5
D4
330
D2
100
AcDbEntity
 67
     1
  8
0
100
AcDbBlockBegin
  2
*Paper_Space
 70
     0
 10
0.0
 20
0.0
 30
0.0
  3
*Paper_Space
  1

  0
ENDBLK
  5
D5
330
D2
100
AcDbEntity
 67
     1
  8
0
100
AcDbBlockEnd
  0
BLOCK
  5
D8
330
D6
100
AcDbEntity
 67
     1
  8
0
100
AcDbBlockBegin
  2
*Paper_Space0
 70
     0
 10
0.0
 20
0.0
 30
0.0
  3
*Paper_Space0
  1

  0
ENDBLK
  5
D9
330
D6
100
AcDbEntity
 67
     1
  8
0
100
AcDbBlockEnd
  0
BLOCK
  5
2AF
330
2AE
100
AcDbEntity
  8
0
100
AcDbBlockBegin
  2
GENAXEH
 70
     0
 10
0.0
 20
0.0
 30
0.0
  3
GENAXEH
  1

  0
LINE
  5
2B0
330
2AE
100
AcDbEntity
  8
0
100
AcDbLine
 10
-1.0
 20
0.0
 30
0.0
 11
1.0
 21
0.0
 31
0.0
  0
ENDBLK
  5
2B1
330
2AE
100
AcDbEntity
  8
0
100
AcDbBlockEnd
  0
BLOCK
  5
3F4
330
3E6
100
AcDbEntity
  8
0
100
AcDbBlockBegin
  2
DIN_A3
 70
     0
 10
0.0
 20
0.0
 30
0.0
  3
DIN_A3
  1

  0
LINE
  5
3E7
330
3E6
100
AcDbEntity
  8
AM_BOR
 62
     7
370
    25
100
AcDbLine
 10
420.0
 20
297.0
 30
0.0
 11
419.9999999999999
 21
0.0
 31
0.0
  0
LINE
  5
3E8
330
3E6
100
AcDbEntity
  8
AM_BOR
 62
     7
370
    25
100
AcDbLine
 10
230.0
 20
5.00000000000005
 30
0.0
 11
230.0
 21
0.0000000000000233
 31
0.0
  0
LINE
  5
3E9
330
3E6
100
AcDbEntity
  8
0
370
    50
100
AcDbLine
 10
414.9999999999999
 20
5.0
 30
0.0
 11
4.999999999999943
 21
5.00000000000005
 31
0.0
  0
LINE
  5
3EA
330
3E6
100
AcDbEntity
  8
0
370
    50
100
AcDbLine
 10
415.0
 20
292.0
 30
0.0
 11
414.9999999999999
 21
5.0
 31
0.0
  0
LINE
  5
3EB
330
3E6
100
AcDbEntity
  8
0
370
    50
100
AcDbLine
 10
5.000000000000017
 20
292.0
 30
0.0
 11
415.0
 21
292.0
 31
0.0
  0
LINE
  5
3EC
330
3E6
100
AcDbEntity
  8
AM_BOR
 62
     7
370
    25
100
AcDbLine
 10
0.0000000000000182
 20
297.0
 30
0.0
 11
420.0
 21
297.0
 31
0.0
  0
LINE
  5
3ED
330
3E6
100
AcDbEntity
  8
AM_BOR
 62
     7
370
    25
100
AcDbLine
 10
0.0
 20
0.0
 30
0.0
 11
0.0000000000000182
 21
297.0
 31
0.0
  0
TEXT
  5
3EE
330
3E6
100
AcDbEntity
  8
0
 60
     1
100
AcDbText
 10
420.0
 20
297.0
 30
0.0
 40
2.0
  1
!GENTITLE-MAX
  7
ACDINTS
100
AcDbText
  0
TEXT
  5
3EF
330
3E6
100
AcDbEntity
  8
0
 60
     1
100
AcDbText
 10
410.0
 20
287.0
 30
0.0
 40
2.0
  1
!GENTITLE-RU
  7
ACDINTS
100
AcDbText
  0
TEXT
  5
3F0
330
3E6
100
AcDbEntity
  8
0
 60
     1
100
AcDbText
 10
10.0
 20
10.00000000000005
 30
0.0
 40
2.0
  1
!GENTITLE-LL
  7
ACDINTS
100
AcDbText
  0
LINE
  5
3F1
330
3E6
100
AcDbEntity
  8
0
370
    50
100
AcDbLine
 10
5.0
 20
5.0
 30
0.0
 11
5.000000000000017
 21
292.0
 31
0.0
  0
LINE
  5
3F2
330
3E6
100
AcDbEntity
  8
AM_BOR
 62
     7
370
    25
100
AcDbLine
 10
419.9999999999999
 20
0.0
 30
0.0
 11
-0.0000000000000568
 21
0.0000000000000514
 31
0.0
  0
TEXT
  5
3F3
330
3E6
100
AcDbEntity
  8
0
 60
     1
100
AcDbText
 10
414.9999999999999
 20
5.000000000000001
 30
0.0
 40
2.0
  1
!GENTITLE-INSERT
  7
ACDINTS
100
AcDbText
  0
ENDBLK
  5
3F5
330
3E6
100
AcDbEntity
  8
0
100
AcDbBlockEnd
  0
BLOCK
  5
478
330
3FF
100
AcDbEntity
  8
0
100
AcDbBlockBegin
  2
OASESAP8
 70
     2
 10
0.0
 20
0.0
 30
0.0
  3
OASESAP8
  1

  0
LINE
  5
400
330
3FF
100
AcDbEntity
  8
AM_0
 62
   250
370
    25
100
AcDbLine
 10
-185.3400019824074
 20
33.77777828507033
 30
0.0
 11
-122.0000018322025
 21
33.77777828507033
 31
0.0
1001
ACDBBLOCKREPETAG
1070
     1
1071
        0
1005
400
  0
TEXT
  5
401
330
3FF
100
AcDbEntity
  8
AM_BOR
100
AcDbText
 10
-130.884127702302
 20
1.441833153863171
 30
0.0
 40
1.6
  1
OASE GmbH Fountain Technology
 41
1.199999999999999
100
AcDbText
1001
ACDBBLOCKREPETAG
1070
     1
1071
        1
1005
401
  0
TEXT
  5
402
330
3FF
100
AcDbEntity
  8
AM_BOR
100
AcDbText
 10
-87.82273727668412
 20
58.20037405680993
 30
0.0
 40
1.440000021626625
  1
Projekt
 41
1.199999999999999
100
AcDbText
1001
ACDBBLOCKREPETAG
1070
     1
1071
        2
1005
402
  0
TEXT
  5
403
330
3FF
100
AcDbEntity
  8
AM_BOR
100
AcDbText
 10
-151.3560218411947
 20
41.68146972886051
 30
0.0
 40
1.600000024029584
  1
Eckenbearbeitung nach DIN 6784
 41
1.199999999999999
100
AcDbText
1001
ACDBBLOCKREPETAG
1070
     1
1071
        6
1005
403
  0
LINE
  5
404
330
3FF
100
AcDbEntity
  8
AM_BOR
100
AcDbLine
 10
-88.00000132160494
 20
16.88888914254039
 30
0.0
 11
0.0
 21
16.88888914254039
 31
0.0
1001
ACDBBLOCKREPETAG
1070
     1
1071
       11
1005
404
  0
LINE
  5
405
330
3FF
100
AcDbEntity
  8
AM_0
 62
   250
370
    25
100
AcDbLine
 10
-185.3400019824074
 20
8.444444575710349
 30
0.0
 11
-132.0000019824074
 21
8.444444575710349
 31
0.0
1001
ACDBBLOCKREPETAG
1070
     1
1071
       12
1005
405
  0
LINE
  5
406
330
3FF
100
AcDbEntity
  8
AM_0
 62
   250
370
    25
100
AcDbLine
 10
-185.3400019824074
 20
12.66666685913014
 30
0.0
 11
-88.00000132160493
 21
12.66666685913014
 31
0.0
1001
ACDBBLOCKREPETAG
1070
     1
1071
       13
1005
406
  0
TEXT
  5
407
330
3FF
100
AcDbEntity
  8
AM_BOR
100
AcDbText
 10
-131.5598447471348
 20
22.4000810384905
 30
0.0
 40
1.800000027033282
  1
Proj.L.
 41
1.199999999999999
100
AcDbText
1001
ACDBBLOCKREPETAG
1070
     1
1071
       18
1005
407
  0
TEXT
  5
408
330
3FF
100
AcDbEntity
  8
AM_BOR
100
AcDbText
 10
-131.8087627661939
 20
26.46517089813561
 30
0.0
 40
1.641600024654353
  1
Gepr.
 41
1.199999999999999
100
AcDbText
1001
ACDBBLOCKREPETAG
1070
     1
1071
       19
1005
408
1001
GENIUS_GENTRA_14
1002
{
1070
     1
1000
GENTRATX{5.5},%s,(GENMSG gentitis 65)
1000
Gepr.
1000
DEU
1070
     0
1040
1.199999999999999
1070
     0
1002
}
  0
TEXT
  5
409
330
3FF
100
AcDbEntity
  8
AM_BOR
100
AcDbText
 10
-131.6206887428197
 20
30.48106969648098
 30
0.0
 40
1.800000027033282
  1
Bearb.
 41
1.1
100
AcDbText
1001
ACDBBLOCKREPETAG
1070
     1
1071
       20
1005
409
  0
TEXT
  5
40A
330
3FF
100
AcDbEntity
  8
AM_BOR
100
AcDbText
 10
-11.44560272419767
 20
14.32530757084146
 30
0.0
 40
2.00000003003698
  1
Blatt
 41
1.199999999999999
100
AcDbText
1001
ACDBBLOCKREPETAG
1070
     1
1071
       21
1005
40A
  0
TEXT
  5
40B
330
3FF
100
AcDbEntity
  8
AM_BOR
100
AcDbText
 10
-120.9539416485713
 20
34.46014955931605
 30
0.0
 40
2.00000003003698
  1
Datum
 41
1.199999999999999
100
AcDbText
1001
ACDBBLOCKREPETAG
1070
     1
1071
       22
1005
40B
  0
TEXT
  5
40C
330
3FF
100
AcDbEntity
  8
AM_BOR
100
AcDbText
 10
-87.41602340510757
 20
48.67191507381704
 30
0.0
 40
2.00000003003698
  1
Massstab:
 41
1.199999999999999
100
AcDbText
1001
ACDBBLOCKREPETAG
1070
     1
1071
       23
1005
40C
  0
LINE
  5
40D
330
3FF
100
AcDbEntity
  8
AM_0
 62
   250
370
    25
100
AcDbLine
 10
-122.0000018322025
 20
21.11111142817026
 30
0.0
 11
-122.0000018322025
 21
38.0000005707002
 31
0.0
1001
ACDBBLOCKREPETAG
1070
     1
1071
       24
1005
40D
  0
LINE
  5
40E
330
3FF
100
AcDbEntity
  8
AM_0
 62
   250
370
    25
100
AcDbLine
 10
-139.6200019824074
 20
-0.0077777143696647
 30
0.0
 11
-139.6200019824074
 21
37.99222285633053
 31
0.0
1001
ACDBBLOCKREPETAG
1070
     1
1071
       25
1005
40E
  0
LINE
  5
40F
330
3FF
100
AcDbEntity
  8
AM_0
 62
   250
370
    25
100
AcDbLine
 10
-152.3200019824074
 20
-0.0077777143696656
 30
0.0
 11
-152.3200019824074
 21
53.00000079598021
 31
0.0
1001
ACDBBLOCKREPETAG
1070
     1
1071
       26
1005
40F
  0
LINE
  5
410
330
3FF
100
AcDbEntity
  8
AM_0
 62
   250
370
    25
100
AcDbLine
 10
-177.7200019824074
 20
0.0
 30
0.0
 11
-177.7200019824074
 21
38.0000005707002
 31
0.0
1001
ACDBBLOCKREPETAG
1070
     1
1071
       27
1005
410
  0
LINE
  5
411
330
3FF
100
AcDbEntity
  8
AM_0
 62
   250
370
    25
100
AcDbLine
 10
-107.0000016069025
 20
21.11111142817026
 30
0.0
 11
-107.0000016069025
 21
38.0000005707002
 31
0.0
1001
ACDBBLOCKREPETAG
1070
     1
1071
       28
1005
411
  0
LINE
  5
412
330
3FF
100
AcDbEntity
  8
AM_BOR
100
AcDbLine
 10
-13.00000019519939
 20
8.444444571260191
 30
0.0
 11
0.0
 21
8.444444571260191
 31
0.0
1001
ACDBBLOCKREPETAG
1070
     1
1071
       29
1005
412
  0
LINE
  5
413
330
3FF
100
AcDbEntity
  8
AM_0
370
    25
100
AcDbLine
 10
-185.3400019824074
 20
4.222222285630323
 30
0.0
 11
0.0
 21
4.222222285630323
 31
0.0
1001
ACDBBLOCKREPETAG
1070
     1
1071
       30
1005
413
  0
LINE
  5
414
330
3FF
100
AcDbEntity
  8
AM_0
 62
   250
370
    25
100
AcDbLine
 10
-185.3400019824074
 20
16.88888914254039
 30
0.0
 11
-132.0000019824074
 21
16.88888914254039
 31
0.0
1001
ACDBBLOCKREPETAG
1070
     1
1071
       31
1005
414
  0
LINE
  5
415
330
3FF
100
AcDbEntity
  8
AM_0
 62
   250
370
    25
100
AcDbLine
 10
-185.3400019824074
 20
21.11111142817026
 30
0.0
 11
-88.00000132160494
 21
21.11111142817026
 31
0.0
1001
ACDBBLOCKREPETAG
1070
     1
1071
       32
1005
415
  0
LINE
  5
416
330
3FF
100
AcDbEntity
  8
AM_0
 62
   250
370
    25
100
AcDbLine
 10
-185.3400019824074
 20
25.33333371380014
 30
0.0
 11
-88.00000132160494
 21
25.33333371380013
 31
0.0
1001
ACDBBLOCKREPETAG
1070
     1
1071
       33
1005
416
  0
LINE
  5
417
330
3FF
100
AcDbEntity
  8
AM_0
 62
   250
370
    25
100
AcDbLine
 10
-185.3400019824074
 20
29.55555599943
 30
0.0
 11
-88.00000132160494
 21
29.55555599943
 31
0.0
1001
ACDBBLOCKREPETAG
1070
     1
1071
       34
1005
417
  0
LINE
  5
418
330
3FF
100
AcDbEntity
  8
AM_0
 62
   250
370
    25
100
AcDbLine
 10
-122.0000018322025
 20
33.77777828507033
 30
0.0
 11
-88.00000132160494
 21
33.77777828507033
 31
0.0
1001
ACDBBLOCKREPETAG
1070
     1
1071
       35
1005
418
  0
LINE
  5
419
330
3FF
100
AcDbEntity
  8
AM_0
370
    25
100
AcDbLine
 10
-88.00000132160493
 20
45.92760216890009
 30
0.0
 11
0.0
 21
45.92760216890008
 31
0.0
1001
ACDBBLOCKREPETAG
1070
     1
1071
       36
1005
419
  0
LINE
  5
41A
330
3FF
100
AcDbEntity
  8
AM_BOR
100
AcDbLine
 10
-185.3400019824074
 20
38.0000005707002
 30
0.0
 11
0.0
 21
38.0000005707002
 31
0.0
1001
ACDBBLOCKREPETAG
1070
     1
1071
       37
1005
41A
  0
LINE
  5
41B
330
3FF
100
AcDbEntity
  8
AM_BOR
100
AcDbLine
 10
-13.00000019519939
 20
4.222222285630323
 30
0.0
 11
-13.00000019519939
 21
16.88888914254039
 31
0.0
1001
ACDBBLOCKREPETAG
1070
     1
1071
       38
1005
41B
  0
LINE
  5
41C
330
3FF
100
AcDbEntity
  8
AM_BOR
100
AcDbLine
 10
-88.00000132160494
 20
0.0
 30
0.0
 11
-88.00000132160493
 21
59.90013639952638
 31
0.0
1001
ACDBBLOCKREPETAG
1070
     1
1071
       39
1005
41C
  0
LINE
  5
41D
330
3FF
100
AcDbEntity
  8
AM_0
 62
   250
370
    25
100
AcDbLine
 10
-132.0000019824074
 20
0.0
 30
0.0
 11
-132.0000019824074
 21
38.0000005707002
 31
0.0
1001
ACDBBLOCKREPETAG
1070
     1
1071
       40
1005
41D
  0
LINE
  5
41E
330
3FF
100
AcDbEntity
  8
AM_BOR
100
AcDbLine
 10
-185.3400019824074
 20
0.2384938820300704
 30
0.0
 11
-185.3400019824074
 21
59.90013639952639
 31
0.0
1001
ACDBBLOCKREPETAG
1070
     1
1071
       41
1005
41E
  0
LINE
  5
41F
330
3FF
100
AcDbEntity
  8
AM_BOR
100
AcDbLine
 10
-185.3400019824074
 20
53.00000079598021
 30
0.0
 11
0.0
 21
53.00000079598021
 31
0.0
1001
ACDBBLOCKREPETAG
1070
     1
1071
       42
1005
41F
  0
TEXT
  5
420
330
3FF
100
AcDbEntity
  8
AM_BOR
100
AcDbText
 10
-86.15426068430679
 20
1.189060355630317
 30
0.0
 40
2.000000060073969
  1
Autocad Mechanical 2008
 41
1.199999999999999
100
AcDbText
1001
ACDBBLOCKREPETAG
1070
     1
1071
       43
1005
420
  0
POINT
  5
421
330
3FF
100
AcDbEntity
  8
AM_BOR
100
AcDbPoint
 10
0.0
 20
0.0
 30
0.0
1001
ACDBBLOCKREPETAG
1070
     1
1071
       44
1005
421
  0
POINT
  5
422
330
3FF
100
AcDbEntity
  8
AM_BOR
100
AcDbPoint
 10
0.0
 20
0.0
 30
0.0
1001
ACDBBLOCKREPETAG
1070
     1
1071
       45
1005
422
  0
ATTDEF
  5
423
330
3FF
100
AcDbEntity
  8
AM_BOR
100
AcDbText
 10
-71.51262676360079
 20
48.65001922868322
 30
0.0
 40
2.0
  1

100
AcDbAttributeDefinition
280
     0
  3
Massstab
  2
GEN-TITLE-SCA
 70
     0
280
     1
1001
ACDBBLOCKREPETAG
1070
     1
1071
       67
1005
0
  0
ATTDEF
  5
424
330
3FF
100
AcDbEntity
  8
AM_BOR
100
AcDbText
 10
-42.65618887579386
 20
48.59490079608424
 30
0.0
 40
2.4
  1

100
AcDbAttributeDefinition
280
     0
  3
Werkstoff
  2
WERKSTOFF{13}
 70
     0
280
     1
1001
ACDBBLOCKREPETAG
1070
     1
1071
       68
1005
0
  0
ATTDEF
  5
425
330
3FF
100
AcDbEntity
  8
AM_BOR
100
AcDbText
 10
-85.71534332195199
 20
6.455888134994324
 30
0.0
 40
5.0
  1

100
AcDbAttributeDefinition
280
     0
  3
Zeichnungsnummer
  2
ZEICHNUNGSNUMMER
 70
     0
280
     1
1001
ACDBBLOCKREPETAG
1070
     1
1071
       69
1005
0
  0
ATTDEF
  5
426
330
3FF
100
AcDbEntity
  8
AM_BOR
100
AcDbText
 10
-31.2290184429927
 20
6.455888134994324
 30
0.0
 40
5.0
  1

100
AcDbAttributeDefinition
280
     0
  3
Aenderungsindex
  2
AENDERUNS-INDEX
 70
     0
280
     1
1001
ACDBBLOCKREPETAG
1070
     1
1071
       70
1005
0
  0
ATTDEF
  5
427
330
3FF
100
AcDbEntity
  8
AM_BOR
100
AcDbText
 10
-86.1749039994172
 20
30.98841502357578
 30
0.0
 40
5.0
  1

100
AcDbAttributeDefinition
280
     0
  3
Bezeichnung1
  2
BEZEICHNUNG{16,1}
 70
     0
280
     1
1001
ACDBBLOCKREPETAG
1070
     1
1071
       71
1005
0
  0
ATTDEF
  5
428
330
3FF
100
AcDbEntity
  8
AM_BOR
100
AcDbText
 10
-86.1749039994172
 20
21.4940968560025
 30
0.0
 40
5.0
  1

100
AcDbAttributeDefinition
280
     0
  3
Bezeichnung 2
  2
BEZEICHNUNG2{16,1}
 70
     0
280
     1
1001
ACDBBLOCKREPETAG
1070
     1
1071
      100
1005
0
  0
ATTDEF
  5
429
330
3FF
100
AcDbEntity
  8
AM_BOR
100
AcDbText
 10
-119.6084273696554
 20
5.730447391784122
 30
0.0
 40
3.5
  1

100
AcDbAttributeDefinition
280
     0
  3
Materialnr.
  2
SAP-MATNR
 70
     0
280
     1
1001
ACDBBLOCKREPETAG
1070
     1
1071
       73
1005
0
  0
LINE
  5
42A
330
3FF
100
AcDbEntity
  8
AM_BOR
100
AcDbLine
 10
0.0000000000756646
 20
59.90013639952639
 30
0.0
 11
0.0
 21
0.0
 31
0.0
1001
ACDBBLOCKREPETAG
1070
     1
1071
       75
1005
42A
  0
ATTDEF
  5
42B
330
3FF
100
AcDbEntity
  8
AM_BOR
100
AcDbText
 10
-86.25221828481818
 20
39.50139881471519
 30
0.0
 40
3.6
  1

100
AcDbAttributeDefinition
280
     0
  3
Projektnummer
  2
PROJEKTNUMMER{13}
 70
     0
280
     1
1001
ACDBBLOCKREPETAG
1070
     1
1071
       74
1005
0
  0
TEXT
  5
42C
330
3FF
100
AcDbEntity
  8
AM_BOR
100
AcDbText
 10
-105.9539414232713
 20
34.46014955931605
 30
0.0
 40
2.00000003003698
  1
Name
 41
1.199999999999999
100
AcDbText
1001
ACDBBLOCKREPETAG
1070
     1
1071
       77
1005
42C
  0
ATTDEF
  5
42D
330
3FF
100
AcDbEntity
  8
AM_BOR
100
AcDbText
 10
-80.06480237688576
 20
54.40716984566695
 30
0.0
 40
4.561919999999999
  1

100
AcDbAttributeDefinition
280
     0
  3
Projekt
  2
POJEKT{16}
 70
     0
280
     1
1001
ACDBBLOCKREPETAG
1070
     1
1071
       76
1005
0
  0
ATTDEF
  5
42E
330
3FF
100
AcDbEntity
  8
AM_BOR
100
AcDbText
 10
-105.8805938982175
 20
22.28032905055784
 30
0.0
 40
2.0
  1

100
AcDbAttributeDefinition
280
     0
  3
Projektleiter
  2
POJEKTLEITER{8}
 70
     0
280
     1
1001
ACDBBLOCKREPETAG
1070
     1
1071
       81
1005
0
  0
TEXT
  5
42F
330
3FF
100
AcDbEntity
  8
AM_BOR
100
AcDbText
 10
-58.62015410501851
 20
48.63704845080146
 30
0.0
 40
2.400000036044375
  1
Material:
 41
1.199999999999999
100
AcDbText
1001
ACDBBLOCKREPETAG
1070
     1
1071
       80
1005
42F
  0
LINE
  5
430
330
3FF
100
AcDbEntity
  8
AM_BOR
100
AcDbLine
 10
-185.3400019824074
 20
59.90013639952639
 30
0.0
 11
0.0000000000756586
 21
59.90013639952639
 31
0.0
1001
ACDBBLOCKREPETAG
1070
     1
1071
       83
1005
430
  0
ATTDEF
  5
431
330
3FF
100
AcDbEntity
  8
AM_BOR
370
   200
100
AcDbText
 10
-181.7933248046407
 20
55.55122663137243
 30
0.0
 40
3.0
  1

100
AcDbAttributeDefinition
280
     0
  3
Zeichnungsart
  2
ZEICHNUNGSART{22}
 70
     0
280
     1
1001
ACDBBLOCKREPETAG
1070
     1
1071
       82
1005
0
  0
TEXT
  5
432
330
3FF
100
AcDbEntity
  8
AM_BOR
100
AcDbText
 10
-151.380074764322
 20
44.58410914258997
 30
0.0
 40
1.600000024029584
  1
Oberflächen nach DIN ISO 1302
 41
1.199999999999999
100
AcDbText
1001
ACDBBLOCKREPETAG
1070
     1
1071
      101
1005
432
  0
TEXT
  5
433
330
3FF
100
AcDbEntity
  8
AM_BOR
100
AcDbText
 10
-151.2864965010435
 20
47.39372358624331
 30
0.0
 40
1.600000024029584
  1
Form/Lagetoleranzen nach DIN ISO 1101
 41
1.199999999999999
100
AcDbText
1001
ACDBBLOCKREPETAG
1070
     1
1071
      102
1005
433
  0
TEXT
  5
434
330
3FF
100
AcDbEntity
  8
AM_BOR
100
AcDbText
 10
-151.2757596725531
 20
50.34408339700104
 30
0.0
 40
1.600000024029584
  1
Freimasstoleranzen nach DIN ISO 2768 m-A
 41
1.199999999999999
100
AcDbText
1001
ACDBBLOCKREPETAG
1070
     1
1071
      103
1005
434
  0
TEXT
  5
435
330
3FF
100
AcDbEntity
  8
AM_BOR
100
AcDbText
 10
-151.4439433516451
 20
38.95712746720818
 30
0.0
 40
1.600000024029584
  1
Schweisskonstruktion nach DIN EN ISO 13920-B
 41
1.199999999999999
100
AcDbText
1001
ACDBBLOCKREPETAG
1070
     1
1071
      104
1005
435
  0
ATTDEF
  5
436
330
3FF
100
AcDbEntity
  8
AM_BOR
100
AcDbText
 10
-121.4665441936572
 20
30.32447266962089
 30
0.0
 40
2.0
  1

100
AcDbAttributeDefinition
280
     0
  3
Datum
  2
GEN-TITLE-DAT
 70
     0
280
     1
1001
ACDBBLOCKREPETAG
1070
     1
1071
       78
1005
0
  0
ATTDEF
  5
437
330
3FF
100
AcDbEntity
  8
AM_BOR
100
AcDbText
 10
-106.6894696866938
 20
26.14295440168508
 30
0.0
 40
2.0
  1

100
AcDbAttributeDefinition
280
     0
  3
Prüfer
  2
GEPR_VON
 70
     0
280
     1
1001
ACDBBLOCKREPETAG
1070
     1
1071
      105
1005
0
  0
ATTDEF
  5
438
330
3FF
100
AcDbEntity
  8
AM_BOR
100
AcDbText
 10
-121.7267411423133
 20
26.11684517636604
 30
0.0
 40
2.0
  1

100
AcDbAttributeDefinition
280
     0
  3
Prüfdatum
  2
GEPR_AM
 70
     0
280
     1
1001
ACDBBLOCKREPETAG
1070
     1
1071
       79
1005
0
  0
ATTDEF
  5
439
330
3FF
100
AcDbEntity
  8
AM_BOR
100
AcDbText
 10
-42.4457749541926
 20
38.92347765925475
 30
0.0
 40
3.6
  1

100
AcDbAttributeDefinition
280
     0
  3
VK_Beleg
  2
VK_BELEG{12}
 70
     0
280
     1
1001
ACDBBLOCKREPETAG
1070
     1
1071
      106
1005
0
  0
ATTDEF
  5
43A
330
3FF
100
AcDbEntity
  8
AM_BOR
100
AcDbText
 10
-7.917386630408827
 20
10.48463023463267
 30
0.0
 40
2.0
  1
1
100
AcDbAttributeDefinition
280
     0
  3
Blatt
  2
BLATT
 70
     0
280
     1
1001
ACDBBLOCKREPETAG
1070
     1
1071
      107
1005
0
  0
ATTDEF
  5
43B
330
3FF
100
AcDbEntity
  8
AM_BOR
100
AcDbText
 10
-182.4417068470376
 20
4.91474881261638
 30
0.0
 40
2.0
  1

100
AcDbAttributeDefinition
280
     0
  3
CN 1
  2
CN_INDEX_1
 70
     0
280
     1
1001
ACDBBLOCKREPETAG
1070
     1
1071
      108
1005
0
  0
ATTDEF
  5
43C
330
3FF
100
AcDbEntity
  8
AM_BOR
100
AcDbText
 10
-182.5191964129061
 20
9.082688092545652
 30
0.0
 40
2.0
  1

100
AcDbAttributeDefinition
280
     0
  3
CN 2
  2
CN_INDEX_2
 70
     0
280
     1
1001
ACDBBLOCKREPETAG
1070
     1
1071
      109
1005
0
  0
ATTDEF
  5
43D
330
3FF
100
AcDbEntity
  8
AM_BOR
100
AcDbText
 10
-182.5191964129061
 20
13.30491037596545
 30
0.0
 40
2.0
  1

100
AcDbAttributeDefinition
280
     0
  3
CN 3
  2
CN_INDEX_3
 70
     0
280
     1
1001
ACDBBLOCKREPETAG
1070
     1
1071
      110
1005
0
  0
ATTDEF
  5
43E
330
3FF
100
AcDbEntity
  8
AM_BOR
100
AcDbText
 10
-182.5191964129061
 20
17.52713265937569
 30
0.0
 40
2.0
  1

100
AcDbAttributeDefinition
280
     0
  3
CN 4
  2
CN_INDEX_4
 70
     0
280
     1
1001
ACDBBLOCKREPETAG
1070
     1
1071
      111
1005
0
  0
ATTDEF
  5
43F
330
3FF
100
AcDbEntity
  8
AM_BOR
100
AcDbText
 10
-182.5191964129061
 20
21.74935494500557
 30
0.0
 40
2.0
  1

100
AcDbAttributeDefinition
280
     0
  3
CN 5
  2
CN_INDEX_5
 70
     0
280
     1
1001
ACDBBLOCKREPETAG
1070
     1
1071
      112
1005
0
  0
ATTDEF
  5
440
330
3FF
100
AcDbEntity
  8
AM_BOR
100
AcDbText
 10
-182.5191964129061
 20
25.97157723063544
 30
0.0
 40
2.0
  1

100
AcDbAttributeDefinition
280
     0
  3
CN 6
  2
CN_INDEX_6
 70
     0
280
     1
1001
ACDBBLOCKREPETAG
1070
     1
1071
      113
1005
0
  0
ATTDEF
  5
441
330
3FF
100
AcDbEntity
  8
AM_BOR
100
AcDbText
 10
-182.5191964129061
 20
30.1937995162653
 30
0.0
 40
2.0
  1

100
AcDbAttributeDefinition
280
     0
  3
CN 7
  2
CN_INDEX_7
 70
     0
280
     1
1001
ACDBBLOCKREPETAG
1070
     1
1071
      114
1005
0
  0
ATTDEF
  5
442
330
3FF
100
AcDbEntity
  8
AM_BOR
100
AcDbText
 10
-182.5191964129061
 20
34.41602180190563
 30
0.0
 40
2.0
  1

100
AcDbAttributeDefinition
280
     0
  3
CN 8
  2
CN_INDEX_8
 70
     0
280
     1
1001
ACDBBLOCKREPETAG
1070
     1
1071
      115
1005
0
  0
ATTDEF
  5
443
330
3FF
100
AcDbEntity
  8
AM_BOR
100
AcDbText
 10
-177.375281616186
 20
5.055792586602763
 30
0.0
 40
2.0
  1

100
AcDbAttributeDefinition
280
     0
  3
AENDERUNGSGRUND 1
  2
CN_GRUND_1{12}
 70
     0
280
     1
1001
ACDBBLOCKREPETAG
1070
     1
1071
      116
1005
0
  0
ATTDEF
  5
444
330
3FF
100
AcDbEntity
  8
AM_BOR
100
AcDbText
 10
-177.0544632267495
 20
9.499887017944558
 30
0.0
 40
2.0
  1

100
AcDbAttributeDefinition
280
     0
  3
AENDERUNGSGRUND 2
  2
CN_GRUND_2{12}
 70
     0
280
     1
1001
ACDBBLOCKREPETAG
1070
     1
1071
      117
1005
0
  0
ATTDEF
  5
445
330
3FF
100
AcDbEntity
  8
AM_BOR
100
AcDbText
 10
-177.0544632267495
 20
13.72210930136435
 30
0.0
 40
2.0
  1

100
AcDbAttributeDefinition
280
     0
  3
AENDERUNGSGRUND 3
  2
CN_GRUND_3{12}
 70
     0
280
     1
1001
ACDBBLOCKREPETAG
1070
     1
1071
      118
1005
0
  0
ATTDEF
  5
446
330
3FF
100
AcDbEntity
  8
AM_BOR
100
AcDbText
 10
-177.0544632267495
 20
17.9443315847746
 30
0.0
 40
2.0
  1

100
AcDbAttributeDefinition
280
     0
  3
AENDERUNGSGRUND 4
  2
CN_GRUND_4{12}
 70
     0
280
     1
1001
ACDBBLOCKREPETAG
1070
     1
1071
      119
1005
0
  0
ATTDEF
  5
447
330
3FF
100
AcDbEntity
  8
AM_BOR
100
AcDbText
 10
-177.0544632267495
 20
22.16655387040447
 30
0.0
 40
2.0
  1

100
AcDbAttributeDefinition
280
     0
  3
AENDERUNGSGRUND 5
  2
CN_GRUND_5{12}
 70
     0
280
     1
1001
ACDBBLOCKREPETAG
1070
     1
1071
      120
1005
0
  0
ATTDEF
  5
448
330
3FF
100
AcDbEntity
  8
AM_BOR
100
AcDbText
 10
-177.0544632267495
 20
26.38877615603434
 30
0.0
 40
2.0
  1

100
AcDbAttributeDefinition
280
     0
  3
AENDERUNGSGRUND 6
  2
CN_GRUND_6{12}
 70
     0
280
     1
1001
ACDBBLOCKREPETAG
1070
     1
1071
      121
1005
0
  0
ATTDEF
  5
449
330
3FF
100
AcDbEntity
  8
AM_BOR
100
AcDbText
 10
-177.0544632267495
 20
34.83322072730454
 30
0.0
 40
2.0
  1

100
AcDbAttributeDefinition
280
     0
  3
AENDERUNGSGRUND 8
  2
CN_GRUND_8{12}
 70
     0
280
     1
1001
ACDBBLOCKREPETAG
1070
     1
1071
      123
1005
0
  0
ATTDEF
  5
44A
330
3FF
100
AcDbEntity
  8
AM_BOR
100
AcDbText
 10
-139.1199747843967
 20
30.45025035695159
 30
0.0
 40
2.0
  1

100
AcDbAttributeDefinition
280
     0
  3
CE7
  2
CN_ERSTELLER_7
 70
     0
280
     1
1001
ACDBBLOCKREPETAG
1070
     1
1071
      125
1005
0
  0
ATTDEF
  5
44B
330
3FF
100
AcDbEntity
  8
AM_BOR
100
AcDbText
 10
-139.1199747843967
 20
26.22802807132172
 30
0.0
 40
2.0
  1

100
AcDbAttributeDefinition
280
     0
  3
CE6
  2
CN_ERSTELLER_6
 70
     0
280
     1
1001
ACDBBLOCKREPETAG
1070
     1
1071
      126
1005
0
  0
ATTDEF
  5
44C
330
3FF
100
AcDbEntity
  8
AM_BOR
100
AcDbText
 10
-139.1199747843967
 20
22.00580578569185
 30
0.0
 40
2.0
  1

100
AcDbAttributeDefinition
280
     0
  3
CE5
  2
CN_ERSTELLER_5
 70
     0
280
     1
1001
ACDBBLOCKREPETAG
1070
     1
1071
      127
1005
0
  0
ATTDEF
  5
44D
330
3FF
100
AcDbEntity
  8
AM_BOR
100
AcDbText
 10
-139.1199747843967
 20
17.78358350006198
 30
0.0
 40
2.0
  1

100
AcDbAttributeDefinition
280
     0
  3
CE4
  2
CN_ERSTELLER_4
 70
     0
280
     1
1001
ACDBBLOCKREPETAG
1070
     1
1071
      128
1005
0
  0
ATTDEF
  5
44E
330
3FF
100
AcDbEntity
  8
AM_BOR
100
AcDbText
 10
-139.1199747843967
 20
13.56136121665173
 30
0.0
 40
2.0
  1

100
AcDbAttributeDefinition
280
     0
  3
CE3
  2
CN_ERSTELLER_3
 70
     0
280
     1
1001
ACDBBLOCKREPETAG
1070
     1
1071
      129
1005
0
  0
ATTDEF
  5
44F
330
3FF
100
AcDbEntity
  8
AM_BOR
100
AcDbText
 10
-139.1199747843967
 20
9.339138933231936
 30
0.0
 40
2.0
  1

100
AcDbAttributeDefinition
280
     0
  3
CE2
  2
CN_ERSTELLER_2
 70
     0
280
     1
1001
ACDBBLOCKREPETAG
1070
     1
1071
      130
1005
0
  0
ATTDEF
  5
450
330
3FF
100
AcDbEntity
  8
AM_BOR
100
AcDbText
 10
-139.1199747843967
 20
5.11691664315191
 30
0.0
 40
2.0
  1

100
AcDbAttributeDefinition
280
     0
  3
CE1
  2
CN_ERSTELLER_1
 70
     0
280
     1
1001
ACDBBLOCKREPETAG
1070
     1
1071
      131
1005
0
  0
ATTDEF
  5
451
330
3FF
100
AcDbEntity
  8
AM_BOR
100
AcDbText
 10
-151.8199747843967
 20
5.11691664315191
 30
0.0
 40
2.0
  1

100
AcDbAttributeDefinition
280
     0
  3
CED1
  2
CN_ERSTELLDATUM_1
 70
     0
280
     1
1001
ACDBBLOCKREPETAG
1070
     1
1071
      132
1005
0
  0
ATTDEF
  5
452
330
3FF
100
AcDbEntity
  8
AM_BOR
100
AcDbText
 10
-151.6989380287537
 20
9.41238845376074
 30
0.0
 40
2.0
  1

100
AcDbAttributeDefinition
280
     0
  3
CED2
  2
CN_ERSTELLDATUM_2
 70
     0
280
     1
1001
ACDBBLOCKREPETAG
1070
     1
1071
      133
1005
0
  0
ATTDEF
  5
453
330
3FF
100
AcDbEntity
  8
AM_BOR
100
AcDbText
 10
-151.6989380287537
 20
13.63461073718054
 30
0.0
 40
2.0
  1

100
AcDbAttributeDefinition
280
     0
  3
CED3
  2
CN_ERSTELLDATUM_3
 70
     0
280
     1
1001
ACDBBLOCKREPETAG
1070
     1
1071
      134
1005
0
  0
ATTDEF
  5
454
330
3FF
100
AcDbEntity
  8
AM_BOR
100
AcDbText
 10
-151.6989380287537
 20
17.85683302059078
 30
0.0
 40
2.0
  1

100
AcDbAttributeDefinition
280
     0
  3
CED4
  2
CN_ERSTELLDATUM_4
 70
     0
280
     1
1001
ACDBBLOCKREPETAG
1070
     1
1071
      135
1005
0
  0
ATTDEF
  5
455
330
3FF
100
AcDbEntity
  8
AM_BOR
100
AcDbText
 10
-151.6989380287537
 20
22.07905530622065
 30
0.0
 40
2.0
  1

100
AcDbAttributeDefinition
280
     0
  3
CED5
  2
CN_ERSTELLDATUM_5
 70
     0
280
     1
1001
ACDBBLOCKREPETAG
1070
     1
1071
      136
1005
0
  0
ATTDEF
  5
456
330
3FF
100
AcDbEntity
  8
AM_BOR
100
AcDbText
 10
-151.6989380287537
 20
26.30127759185052
 30
0.0
 40
2.0
  1

100
AcDbAttributeDefinition
280
     0
  3
CED6
  2
CN_ERSTELLDATUM_6
 70
     0
280
     1
1001
ACDBBLOCKREPETAG
1070
     1
1071
      137
1005
0
  0
LINE
  5
457
330
3FF
100
AcDbEntity
  8
AM_0
 62
   250
370
    25
100
AcDbLine
 10
-44.00000066080246
 20
45.92760216890008
 30
0.0
 11
-44.00000066080247
 21
38.0000005707002
 31
0.0
1001
ACDBBLOCKREPETAG
1070
     1
1071
      138
1005
457
  0
ATTDEF
  5
458
330
3FF
100
AcDbEntity
  8
AM_BOR
100
AcDbText
 10
-151.6989380287537
 20
30.52349987748039
 30
0.0
 40
2.0
  1

100
AcDbAttributeDefinition
280
     0
  3
CED7
  2
CN_ERSTELLDATUM_7
 70
     0
280
     1
1001
ACDBBLOCKREPETAG
1070
     1
1071
      139
1005
0
  0
TEXT
  5
459
330
3FF
100
AcDbEntity
  8
AM_BOR
 62
     7
370
    25
100
AcDbText
 10
-184.45335038526
 20
1.438493882030073
 30
0.0
 40
2.0
  1
Zust.
 72
     1
 11
-181.3483026362832
 21
1.438493882030073
 31
0.0
100
AcDbText
1001
ACDBBLOCKREPETAG
1070
     1
1071
      140
1005
459
1001
GENIUS_GENTRA_14
1002
{
1070
     1
1000
GENTRATX,%s,(GENMSG gendwg 60)
1000
Zust.
1000
DEU
1070
     0
1040
1.0
1070
     0
1002
}
  0
TEXT
  5
45A
330
3FF
100
AcDbEntity
  8
AM_BOR
 62
     7
370
    25
100
AcDbText
 10
-150.4488082825471
 20
1.438493882030059
 30
0.0
 40
2.0
  1
Datum
 72
     1
 11
-146.3342107382087
 21
1.438493882030059
 31
0.0
100
AcDbText
1001
ACDBBLOCKREPETAG
1070
     1
1071
      141
1005
45A
1001
GENIUS_GENTRA_14
1002
{
1070
     1
1000
GENTRATX,%s,(GENMSG gendwg 62)
1000
Datum
1000
DEU
1070
     0
1040
1.0
1070
     0
1002
}
  0
TEXT
  5
45B
330
3FF
100
AcDbEntity
  8
AM_BOR
 62
     7
370
    25
100
AcDbText
 10
-177.351305743272
 20
1.438493882030059
 30
0.0
 40
2.0
  1
Änderungen
 72
     1
 11
-169.7401188401342
 21
1.438493882030059
 31
0.0
100
AcDbText
1001
ACDBBLOCKREPETAG
1070
     1
1071
      142
1005
45B
1001
GENIUS_GENTRA_14
1002
{
1070
     1
1000
GENTRATX,%s,(GENMSG gendwg 61)
1000
Änderungen
1000
DEU
1070
     0
1040
1.0
1070
     0
1002
}
  0
TEXT
  5
45C
330
3FF
100
AcDbEntity
  8
AM_BOR
 62
     7
370
    25
100
AcDbText
 10
-139.0423371526658
 20
1.438493882028575
 30
0.0
 40
2.0
  1
Name
100
AcDbText
1001
ACDBBLOCKREPETAG
1070
     1
1071
      143
1005
45C
1001
GENIUS_GENTRA_14
1002
{
1070
     1
1000
GENTRATX{3.31},%s,(GENMSG gendwg 63)
1000
Name
1000
DEU
1070
     0
1040
1.0
1070
     0
1002
}
  0
ATTDEF
  5
45D
330
3FF
100
AcDbEntity
  8
AM_BOR
100
AcDbText
 10
-151.6989380287537
 20
34.74572216312072
 30
0.0
 40
2.0
  1

100
AcDbAttributeDefinition
280
     0
  3
CED8
  2
CN_ERSTELLDATUM_8
 70
     0
280
     1
1001
ACDBBLOCKREPETAG
1070
     1
1071
      144
1005
0
  0
TEXT
  5
45E
330
3FF
100
AcDbEntity
  8
AM_BOR
100
AcDbText
 10
-85.43612293404317
 20
14.37673137362816
 30
0.0
 40
2.00000003003698
  1
SAP Document No.
 41
1.199999999999999
100
AcDbText
1001
ACDBBLOCKREPETAG
1070
     1
1071
      145
1005
45E
  0
TEXT
  5
45F
330
3FF
100
AcDbEntity
  8
AM_BOR
100
AcDbText
 10
-122.2980352139722
 20
10.08716226564962
 30
0.0
 40
2.00000003003698
  1
Id.No / Material  
 41
1.199999999999999
100
AcDbText
1001
ACDBBLOCKREPETAG
1070
     1
1071
      146
1005
45F
  0
TEXT
  5
460
330
3FF
100
AcDbEntity
  8
AM_BOR
100
AcDbText
 10
-45.15481270592011
 20
14.37673137362816
 30
0.0
 40
2.00000003003698
  1
Document Version
 41
1.199999999999999
100
AcDbText
1001
ACDBBLOCKREPETAG
1070
     1
1071
      147
1005
460
  0
TEXT
  5
461
330
3FF
100
AcDbEntity
  8
AM_BOR
100
AcDbText
 10
-42.49848128737608
 20
43.74242164564679
 30
0.0
 40
2.00000003003698
  1
Offers - Orders No / Pos.
 41
1.199999999999999
100
AcDbText
1001
ACDBBLOCKREPETAG
1070
     1
1071
      148
1005
461
  0
ATTDEF
  5
462
330
3FF
100
AcDbEntity
  8
AM_BOR
100
AcDbText
 10
-106.5281052664257
 20
30.43322603038649
 30
0.0
 40
2.0
  1

100
AcDbAttributeDefinition
280
     0
  3
Name
  2
GEN-TITLE-NAME
 70
     0
280
     1
1001
ACDBBLOCKREPETAG
1070
     1
1071
      149
1005
0
  0
ATTDEF
  5
463
330
3FF
100
AcDbEntity
  8
AM_BOR
100
AcDbText
 10
-151.6989380287537
 20
34.74572216312072
 30
0.0
 40
2.0
  1

100
AcDbAttributeDefinition
280
     0
  3
CED8
  2
CN_ERSTELLDATUM_8
 70
     0
280
     1
1001
ACDBBLOCKREPETAG
1070
     1
1071
      153
1005
0
  0
ATTDEF
  5
464
330
3FF
100
AcDbEntity
  8
AM_BOR
100
AcDbText
 10
-176.9900254892366
 20
30.24715732304549
 30
0.0
 40
2.0
  1

100
AcDbAttributeDefinition
280
     0
  3
AENDERUNGSGRUND 7
  2
CN_GRUND_7{12}
 70
     0
280
     1
1001
ACDBBLOCKREPETAG
1070
     1
1071
      155
1005
0
  0
ATTDEF
  5
465
330
3FF
100
AcDbEntity
  8
AM_BOR
100
AcDbText
 10
-139.1199747843967
 20
22.00580578569185
 30
0.0
 40
2.0
  1

100
AcDbAttributeDefinition
280
     0
  3
CE5
  2
CN_ERSTELLER_5
 70
     0
280
     1
1001
ACDBBLOCKREPETAG
1070
     1
1071
      157
1005
0
  0
ATTDEF
  5
466
330
3FF
100
AcDbEntity
  8
AM_BOR
100
AcDbText
 10
-139.1199747843967
 20
26.22802807132172
 30
0.0
 40
2.0
  1

100
AcDbAttributeDefinition
280
     0
  3
CE6
  2
CN_ERSTELLER_6
 70
     0
280
     1
1001
ACDBBLOCKREPETAG
1070
     1
1071
      158
1005
0
  0
ATTDEF
  5
467
330
3FF
100
AcDbEntity
  8
AM_BOR
100
AcDbText
 10
-139.1199747843967
 20
30.45025035695159
 30
0.0
 40
2.0
  1

100
AcDbAttributeDefinition
280
     0
  3
CE7
  2
CN_ERSTELLER_7
 70
     0
280
     1
1001
ACDBBLOCKREPETAG
1070
     1
1071
      159
1005
0
  0
TEXT
  5
468
330
3FF
100
AcDbEntity
  8
AM_BOR
100
AcDbText
 10
-128.6393677478436
 20
19.1487673346287
 30
0.0
 40
1.154205483573934
  1
Copyright according to DIN 34 / ISO 16016
100
AcDbText
1001
ACDBBLOCKREPETAG
1070
     1
1071
      160
1005
468
  0
TEXT
  5
469
330
3FF
100
AcDbEntity
  8
AM_BOR
100
AcDbText
 10
-128.7222569611483
 20
17.41300591102624
 30
0.0
 40
1.154205483573934
  1
Reprint with our permission only!
100
AcDbText
1001
ACDBBLOCKREPETAG
1070
     1
1071
      161
1005
469
  0
TEXT
  5
46A
330
3FF
100
AcDbEntity
  8
AM_BOR
100
AcDbText
 10
-128.651691557238
 20
15.43748322428479
 30
0.0
 40
1.154205483573934
  1
Schutzvermerk nach DIN 34 / ISO 16016 beachten
100
AcDbText
1001
ACDBBLOCKREPETAG
1070
     1
1071
      162
1005
46A
  0
TEXT
  5
46B
330
3FF
100
AcDbEntity
  8
AM_BOR
100
AcDbText
 10
-128.7440387726074
 20
13.81178587705742
 30
0.0
 40
1.154205483573934
  1
Nachdruck nur mit unserer Genehmigung!
100
AcDbText
1001
ACDBBLOCKREPETAG
1070
     1
1071
      163
1005
46B
  0
TEXT
  5
46C
330
3FF
100
AcDbEntity
  8
AM_0
100
AcDbText
 10
-185.1677349473596
 20
61.722285377312
 30
0.0
 40
2.5
  1
Alle scharfen Kanten leicht entgratet  /
100
AcDbText
1001
ACDBBLOCKREPETAG
1070
     1
1071
      168
1005
46C
  0
TEXT
  5
46D
330
3FF
100
AcDbEntity
  8
AM_0
100
AcDbText
 10
-124.6513144576422
 20
61.73169971443048
 30
0.0
 40
2.5
  1
all square edges slightly deburring
100
AcDbText
1001
ACDBBLOCKREPETAG
1070
     1
1071
      169
1005
46D
  0
ATTDEF
  5
46E
330
3FF
100
AcDbEntity
  8
AM_BOR
100
AcDbText
 10
-139.1199747843967
 20
34.67247264259191
 30
0.0
 40
2.0
  1

100
AcDbAttributeDefinition
280
     0
  3
CE8
  2
CN_ERSTELLER_8
 70
     0
280
     1
1001
ACDBBLOCKREPETAG
1070
     1
1071
      170
1005
0
  0
TEXT
  5
46F
330
3FF
100
AcDbEntity
  8
AM_0
100
AcDbText
 10
-185.0387037081413
 20
66.6236496165892
 30
0.0
 40
2.5
  1
Oberfläche fettfrei /  surface free of grease
100
AcDbText
1001
ACDBBLOCKREPETAG
1070
     1
1071
      168
1005
46C
  0
HATCH
  5
470
330
3FF
100
AcDbEntity
  8
VORDERGRUND
 62
   132
370
     0
100
AcDbHatch
 10
0.0
 20
0.0
 30
0.0
210
0.0
220
0.0
230
0.9999999999999998
  2
SOLID
 70
     1
 71
     0
 91
        1
 92
        1
 93
        1
 72
     4
 94
        3
 73
     0
 74
     0
 95
       20
 96
       16
 40
0.0
 40
0.0
 40
0.0
 40
0.0
 40
1.0
 40
1.0
 40
1.0
 40
2.0
 40
2.0
 40
2.0
 40
3.0
 40
3.0
 40
3.0
 40
4.0
 40
4.0
 40
4.0
 40
5.0
 40
5.0
 40
5.0
 40
5.0
 10
-156.0016344244659
 20
48.90163349622673
 10
-156.4587228033722
 20
48.71113349622673
 10
-156.9504137213409
 20
48.51725385755484
 10
-157.0080846197785
 20
48.0464918946642
 10
-157.0552445318878
 20
47.66174018567984
 10
-156.8117865240753
 20
47.51610566419548
 10
-156.5438028814972
 20
47.52881806653921
 10
-156.0739710943878
 20
47.55123530286736
 10
-155.4794027350128
 20
48.18347578138298
 10
-155.1606625006378
 20
48.94163105482048
 10
-155.0980306647003
 20
49.09067622083608
 10
-155.0279574225128
 20
49.29320649427361
 10
-154.9891380865753
 20
49.50903828138295
 10
-155.1506166022003
 20
49.28545502942985
 10
-155.7380226080597
 20
49.01158027357048
 10
-156.0016344244659
 20
48.90163349622673
 97
        0
 97
        0
 75
     2
 76
     1
 98
        1
 10
-168.2784974615753
 20
46.52624360364859
450
        0
451
        0
460
0.0
461
0.0
452
        0
462
0.0
453
        0
470

  0
HATCH
  5
471
330
3FF
100
AcDbEntity
  8
VORDERGRUND
 62
   132
370
     0
100
AcDbHatch
 10
0.0
 20
0.0
 30
0.0
210
0.0
220
0.0
230
0.9999999999999998
  2
SOLID
 70
     1
 71
     0
 91
        1
 92
        1
 93
        1
 72
     4
 94
        3
 73
     0
 74
     0
 95
       20
 96
       16
 40
0.0
 40
0.0
 40
0.0
 40
0.0
 40
1.0
 40
1.0
 40
1.0
 40
2.0
 40
2.0
 40
2.0
 40
3.0
 40
3.0
 40
3.0
 40
4.0
 40
4.0
 40
4.0
 40
5.0
 40
5.0
 40
5.0
 40
5.0
 10
-155.3166529791534
 20
51.52107050794545
 10
-155.7737723639191
 20
51.33053950208608
 10
-156.2654322760284
 20
51.13678388685173
 10
-156.3232271979034
 20
50.66592890638297
 10
-156.3701700689972
 20
50.28130122083608
 10
-156.1269291022003
 20
50.13551167005484
 10
-155.8587284186066
 20
50.14834809583611
 10
-155.3888966314972
 20
50.17067231458609
 10
-154.7944522955597
 20
50.80303681653921
 10
-154.4757120611847
 20
51.56119208997671
 10
-154.4130492193878
 20
51.71020625013297
 10
-154.3431000006378
 20
51.91273652357047
 10
-154.3041566412628
 20
52.12859931653921
 10
-154.4656351568878
 20
51.90498505872671
 10
-155.0531651861847
 20
51.63101728528921
 10
-155.3166529791534
 20
51.52107050794545
 97
        0
 97
        0
 75
     2
 76
     1
 98
        1
 10
-168.2784974615753
 20
46.52624360364859
450
        0
451
        0
460
0.0
461
0.0
452
        0
462
0.0
453
        0
470

  0
HATCH
  5
472
330
3FF
100
AcDbEntity
  8
0
  6
Continuous
 62
   154
370
     0
100
AcDbHatch
 10
0.0
 20
0.0
 30
0.0
210
0.0
220
0.0
230
0.9999999999999998
  2
SOLID
 70
     1
 71
     0
 91
        2
 92
        1
 93
        1
 72
     4
 94
        3
 73
     0
 74
     0
 95
       86
 96
       82
 40
0.0
 40
0.0
 40
0.0
 40
0.0
 40
1.0
 40
1.0
 40
1.0
 40
2.0
 40
2.0
 40
2.0
 40
3.0
 40
3.0
 40
3.0
 40
4.0
 40
4.0
 40
4.0
 40
5.0
 40
5.0
 40
5.0
 40
6.0
 40
6.0
 40
6.0
 40
7.0
 40
7.0
 40
7.0
 40
8.0
 40
8.0
 40
8.0
 40
9.0
 40
9.0
 40
9.0
 40
10.0
 40
10.0
 40
10.0
 40
11.0
 40
11.0
 40
11.0
 40
12.0
 40
12.0
 40
12.0
 40
13.0
 40
13.0
 40
13.0
 40
14.0
 40
14.0
 40
14.0
 40
15.0
 40
15.0
 40
15.0
 40
16.0
 40
16.0
 40
16.0
 40
17.0
 40
17.0
 40
17.0
 40
18.0
 40
18.0
 40
18.0
 40
19.0
 40
19.0
 40
19.0
 40
20.0
 40
20.0
 40
20.0
 40
21.0
 40
21.0
 40
21.0
 40
22.0
 40
22.0
 40
22.0
 40
23.0
 40
23.0
 40
23.0
 40
24.0
 40
24.0
 40
24.0
 40
25.0
 40
25.0
 40
25.0
 40
26.0
 40
26.0
 40
26.0
 40
27.0
 40
27.0
 40
27.0
 40
27.0
 10
-170.8938416998566
 20
50.33723579114858
 10
-169.1829073736847
 20
50.33723579114858
 10
-168.8117982428253
 20
48.91019111341421
 10
-169.4398529303253
 20
47.3971361817736
 10
-169.6819466803253
 20
46.81400898450799
 10
-169.8289764654816
 20
46.45009321302359
 10
-170.0445912115753
 20
45.89989423841419
 10
-170.2048294928253
 20
45.49077192396111
 10
-170.0958128912628
 20
45.24846113294548
 10
-169.9121031744659
 20
45.24846113294548
 10
-169.7590272467316
 20
45.24846113294548
 10
-169.3600128424347
 20
45.42810908216423
 10
-168.8088216803253
 20
45.99967109388297
 10
-168.2640487311066
 20
46.56453583997673
 10
-167.6485824225128
 20
47.31456757825795
 10
-167.0131793463409
 20
48.05573164075799
 10
-165.8125084479035
 20
49.45654536146109
 10
-164.5015187018097
 20
50.88083051771111
 10
-163.4577994635284
 20
50.88083051771111
 10
-163.3387369635284
 20
50.88083051771111
 10
-163.2085743658722
 20
50.86718793958611
 10
-163.1116810553253
 20
50.84418159192982
 10
-163.1116810553253
 20
50.84418159192982
 10
-163.3082271979034
 20
50.32325214857046
 10
-163.3082271979034
 20
50.32325214857046
 10
-164.1435870611847
 20
50.45564716810173
 10
-164.2541229498565
 20
49.88616254896108
 10
-164.1160848639191
 20
47.52996528333607
 10
-164.0129593756378
 20
45.77066181653921
 10
-164.7239237311065
 20
44.35676362317987
 10
-166.3496229498566
 20
44.35676362317987
 10
-167.0488050787628
 20
44.35676362317987
 10
-167.7285775397003
 20
44.79273701185173
 10
-167.8765375006378
 20
45.25528242200797
 10
-167.8765375006378
 20
45.25528242200797
 10
-167.114227442044
 20
46.11017597669547
 10
-167.114227442044
 20
46.11017597669547
 10
-167.0621996100128
 20
45.26036738294548
 10
-166.6594334967316
 20
44.91099335950798
 10
-166.2966649420441
 20
44.91099335950798
 10
-165.8286935064972
 20
44.91099335950798
 10
-165.2529457037628
 20
45.40035883802358
 10
-165.2439540045441
 20
47.3970121583361
 10
-165.240233301419
 20
48.12499873060172
 10
-165.1625636236847
 20
48.67609687513297
 10
-165.0538880865753
 20
49.36058222669549
 10
-165.9882186529816
 20
48.48717817396109
 10
-166.8319190924347
 20
47.37980390638296
 10
-167.6696043951691
 20
46.42187788099234
 10
-168.6423512213409
 20
45.30985273450795
 10
-169.6041219732941
 20
44.35676362317987
 10
-170.4345208990753
 20
44.35676362317987
 10
-171.1806458990753
 20
44.35676362317987
 10
-171.3633324225128
 20
44.96543964857045
 10
-171.3493487799347
 20
45.51966938489859
 10
-171.9395143072784
 20
44.89099458021107
 10
-172.7624098150909
 20
44.39434272474234
 10
-173.4885980475128
 20
44.35701167005484
 10
-174.6645882818878
 20
44.29655024427362
 10
-175.3981869147003
 20
45.11157026380482
 10
-175.1404972174347
 20
46.14555366224234
 10
-174.6106070807159
 20
48.27134638685173
 10
-170.7863133795441
 20
47.48916157239858
 10
-170.4922228033722
 20
49.22995454114861
 10
-170.4340868170441
 20
49.57446064466424
 10
-170.6883038580597
 20
49.78151777357045
 10
-171.0264227545441
 20
49.78151777357045
 10
-171.8937186529816
 20
49.78151777357045
 10
-174.0184571783722
 20
48.73274458021108
 10
-175.4760426275909
 20
48.73274458021108
 10
-177.1802176764191
 20
48.73274458021108
 10
-177.7151307623566
 20
49.60937324232045
 10
-177.8340382330597
 20
50.17922993177358
 10
-177.8340382330597
 20
50.17922993177358
 10
-176.9207916510284
 20
50.81609028333607
 10
-176.9207916510284
 20
50.81609028333607
 10
-177.0802547857941
 20
50.09656831067985
 10
-176.6897979986847
 20
49.30418256849236
 10
-175.5063973639191
 20
49.30418256849236
 10
-173.8524518072784
 20
49.30418256849236
 10
-172.1164957525909
 20
50.33723579114858
 10
-170.8938416998566
 20
50.33723579114858
 97
        0
 97
        0
 92
       16
 93
        1
 72
     4
 94
        3
 73
     0
 74
     0
 95
       20
 96
       16
 40
0.0
 40
0.0
 40
0.0
 40
0.0
 40
1.0
 40
1.0
 40
1.0
 40
2.0
 40
2.0
 40
2.0
 40
3.0
 40
3.0
 40
3.0
 40
4.0
 40
4.0
 40
4.0
 40
5.0
 40
5.0
 40
5.0
 40
5.0
 10
-172.0924662115753
 20
47.37781953138297
 10
-172.8819374029816
 20
47.09182148450796
 10
-173.7303197272003
 20
46.80324995130484
 10
-173.8659703619659
 20
46.01064716810172
 10
-173.9768473150909
 20
45.36290375989858
 10
-173.5762826178253
 20
45.09640839857047
 10
-173.1211166022003
 20
45.09640839857047
 10
-172.3238319342315
 20
45.09640839857047
 10
-171.2660360357941
 20
46.11932270521108
 10
-170.6650494635284
 20
47.37781953138297
 10
-170.5468861334503
 20
47.62499824232047
 10
-170.4121036627472
 20
47.96234199232048
 10
-170.3285118658722
 20
48.32476948255485
 10
-170.6203080084503
 20
47.95921040052359
 10
-171.6372071783722
 20
47.54267768567983
 10
-172.0924662115753
 20
47.37781953138297
 97
        0
 97
        0
 75
     0
 76
     1
 98
        1
 10
-187.8641546881378
 20
17.83066181653925
450
        0
451
        0
460
0.0
461
0.0
452
        1
462
1.0
453
        2
463
0.0
 63
     5
421
      255
463
1.0
 63
     7
421
 16777215
470
LINEAR
1001
ACAD
1010
0.0
1020
0.0
1030
0.0
  0
HATCH
  5
473
330
3FF
100
AcDbEntity
  8
0
  6
Continuous
 62
   154
370
     0
100
AcDbHatch
 10
0.0
 20
0.0
 30
0.0
210
0.0
220
0.0
230
0.9999999999999998
  2
SOLID
 70
     1
 71
     0
 91
        2
 92
       16
 93
        1
 72
     4
 94
        3
 73
     0
 74
     0
 95
       14
 96
       10
 40
0.0
 40
0.0
 40
0.0
 40
0.0
 40
1.0
 40
1.0
 40
1.0
 40
2.0
 40
2.0
 40
2.0
 40
3.0
 40
3.0
 40
3.0
 40
3.0
 10
-159.1334122564972
 20
49.69457734388297
 10
-159.8087818854034
 20
49.50708491224236
 10
-160.9223263189972
 20
48.51886616224233
 10
-161.5343509772003
 20
47.29850654310172
 10
-160.4483397467316
 20
47.50373432630484
 10
-159.0781288092316
 20
48.35921699232047
 10
-158.6829901373566
 20
49.20304145521108
 10
-158.4989703619659
 20
49.59538959974236
 10
-158.7045082037628
 20
49.81354682630485
 10
-159.1334122564972
 20
49.69457734388297
 97
        0
 97
        0
 92
        1
 93
        1
 72
     4
 94
        3
 73
     0
 74
     0
 95
       32
 96
       28
 40
0.0
 40
0.0
 40
0.0
 40
0.0
 40
1.0
 40
1.0
 40
1.0
 40
2.0
 40
2.0
 40
2.0
 40
3.0
 40
3.0
 40
3.0
 40
4.0
 40
4.0
 40
4.0
 40
5.0
 40
5.0
 40
5.0
 40
6.0
 40
6.0
 40
6.0
 40
7.0
 40
7.0
 40
7.0
 40
8.0
 40
8.0
 40
8.0
 40
9.0
 40
9.0
 40
9.0
 40
9.0
 10
-163.0665985357941
 20
46.53238276380485
 10
-162.6411671393097
 20
48.59653583997672
 10
-160.7151451666535
 20
50.09678535169547
 10
-159.0978175299347
 20
50.28604511732049
 10
-157.9470350592316
 20
50.42048652357048
 10
-157.6233648932159
 20
49.42544648450798
 10
-158.0550284674347
 20
48.6391068848986
 10
-158.6894703619659
 20
47.48314643567985
 10
-160.4550370123565
 20
46.83515498060173
 10
-161.7570040533722
 20
46.7088061036486
 10
-161.9815174811066
 20
46.11733833021109
 10
-162.1736607916534
 20
44.9763227052111
 10
-161.2349273932159
 20
44.9763227052111
 10
-160.4053346197784
 20
44.9763227052111
 10
-159.1217230475128
 20
45.62995722669548
 10
-158.4002477057159
 20
46.64787958997671
 10
-158.4002477057159
 20
46.64787958997671
 10
-158.3937674811066
 20
46.42141279310174
 10
-158.2921302740753
 20
46.24520649427359
 10
-158.1905240729034
 20
46.06903120130485
 10
-158.0478661139191
 20
46.06059760755486
 10
-158.0478661139191
 20
46.06059760755486
 10
-158.8064864752472
 20
45.27032026380487
 10
-160.2677616217316
 20
44.35608149427361
 10
-161.2349273932159
 20
44.35608149427361
 10
-162.8219623053253
 20
44.35608149427361
 10
-163.3123819830597
 20
45.34057954114859
 10
-163.0665985357941
 20
46.53238276380485
 97
        0
 97
        0
 75
     0
 76
     1
 98
        1
 10
-187.8641546881378
 20
17.83066181653925
450
        0
451
        0
460
0.0
461
0.0
452
        1
462
1.0
453
        2
463
0.0
 63
     5
421
      255
463
1.0
 63
     7
421
 16777215
470
LINEAR
1001
ACAD
1010
0.0
1020
0.0
1030
0.0
  0
HATCH
  5
474
330
3FF
100
AcDbEntity
  8
0
  6
Continuous
 62
   154
370
     0
100
AcDbHatch
 10
0.0
 20
0.0
 30
0.0
210
0.0
220
0.0
230
0.9999999999999998
  2
SOLID
 70
     1
 71
     0
 91
        2
 92
       16
 93
        1
 72
     4
 94
        3
 73
     0
 74
     0
 95
       17
 96
       13
 40
0.0
 40
0.0
 40
0.0
 40
0.0
 40
1.0
 40
1.0
 40
1.0
 40
2.0
 40
2.0
 40
2.0
 40
3.0
 40
3.0
 40
3.0
 40
4.0
 40
4.0
 40
4.0
 40
4.0
 10
-177.2069757330597
 20
51.95980341810173
 10
-178.6477870123566
 20
51.95980341810173
 10
-180.4840780279816
 20
49.73621821302359
 10
-180.982931299466
 20
47.53492622083608
 10
-181.3477772467316
 20
45.92463691419546
 10
-181.0254093268097
 20
44.90048237317983
 10
-180.1014967291535
 20
44.90048237317983
 10
-178.2728641607941
 20
44.90048237317983
 10
-176.5631700689972
 20
47.92256147474235
 10
-176.1812398932159
 20
49.83215034192983
 10
-175.9435179693878
 20
51.02013984388297
 10
-176.2066957037628
 20
51.95980341810173
 10
-177.2069757330597
 20
51.95980341810173
 97
        0
 97
        0
 92
        1
 93
        1
 72
     4
 94
        3
 73
     0
 74
     0
 95
       17
 96
       13
 40
0.0
 40
0.0
 40
0.0
 40
0.0
 40
1.0
 40
1.0
 40
1.0
 40
2.0
 40
2.0
 40
2.0
 40
3.0
 40
3.0
 40
3.0
 40
4.0
 40
4.0
 40
4.0
 40
4.0
 10
-180.080040674466
 20
44.35676362317987
 10
-181.936516504544
 20
44.35676362317987
 10
-182.484452051419
 20
46.13401948255485
 10
-182.1689054205597
 20
47.67262324232046
 10
-181.6630448248566
 20
50.13979047864861
 10
-179.4673648932159
 20
52.50352216810172
 10
-177.2285868170441
 20
52.50352216810172
 10
-175.4890960943878
 20
52.50352216810172
 10
-174.9115809576691
 20
51.13852021497672
 10
-175.067509424466
 20
49.67516767591424
 10
-175.3171996100128
 20
47.32960542005485
 10
-177.4921676275909
 20
44.35676362317987
 10
-180.080040674466
 20
44.35676362317987
 97
        0
 97
        0
 75
     0
 76
     1
 98
        1
 10
-187.8641546881378
 20
17.83066181653925
450
        0
451
        0
460
0.0
461
0.0
452
        1
462
1.0
453
        2
463
0.0
 63
     5
421
      255
463
1.0
 63
     7
421
 16777215
470
LINEAR
1001
ACAD
1010
0.0
1020
0.0
1030
0.0
  0
HATCH
  5
475
330
3FF
100
AcDbEntity
  8
0
  6
Continuous
 62
   132
370
     0
100
AcDbHatch
 10
0.0
 20
0.0
 30
0.0
210
0.0
220
0.0
230
0.9999999999999998
  2
SOLID
 70
     1
 71
     0
 91
       14
 92
        5
 93
        4
 72
     4
 94
        3
 73
     0
 74
     0
 95
        8
 96
        4
 40
1.0
 40
1.0
 40
1.0
 40
1.0
 40
2.0
 40
2.0
 40
2.0
 40
2.0
 10
-157.1125743658722
 20
40.55249970716421
 10
-157.329181299466
 20
41.42137690442986
 10
-157.3185152838409
 20
42.55439301771112
 10
-157.1125743658722
 20
43.25723383802359
 97
        0
 72
     4
 94
        3
 73
     0
 74
     0
 95
        8
 96
        4
 40
0.0
 40
0.0
 40
0.0
 40
0.0
 40
1.0
 40
1.0
 40
1.0
 40
1.0
 10
-157.1125743658722
 20
43.25723383802359
 10
-157.1125743658722
 20
43.25723383802359
 10
-180.3523031256378
 20
43.26656660169547
 10
-180.5223392584503
 20
43.25723383802359
 97
        0
 72
     4
 94
        3
 73
     0
 74
     0
 95
        8
 96
        4
 40
3.0
 40
3.0
 40
3.0
 40
3.0
 40
4.0
 40
4.0
 40
4.0
 40
4.0
 10
-180.5223392584503
 20
43.25723383802359
 10
-180.3523031256378
 20
42.55439301771112
 10
-180.3577601568878
 20
41.42137690442986
 10
-180.5223392584503
 20
40.55249970716421
 97
        0
 72
     4
 94
        3
 73
     0
 74
     0
 95
        8
 96
        4
 40
2.0
 40
2.0
 40
2.0
 40
2.0
 40
3.0
 40
3.0
 40
3.0
 40
3.0
 10
-180.5223392584503
 20
40.55249970716421
 10
-180.5223392584503
 20
40.55249970716421
 10
-157.5954286139191
 20
40.54453120130486
 10
-157.1125743658722
 20
40.55249970716421
 97
        0
 97
        0
 92
       20
 93
       18
 72
     4
 94
        3
 73
     0
 74
     0
 95
       11
 96
        7
 40
0.5
 40
0.5
 40
0.5
 40
0.5
 40
1.5
 40
1.5
 40
1.5
 40
2.0
 40
2.0
 40
2.0
 40
2.0
 10
-171.9140895025909
 20
42.35065351575797
 10
-171.9140895025909
 20
42.35065351575797
 10
-171.6701664068878
 20
42.35065351575797
 10
-171.6701664068878
 20
42.35065351575797
 10
-171.6701664068878
 20
42.35065351575797
 10
-171.6701664068878
 20
42.10860627454705
 10
-171.6701664068878
 20
41.86655903333609
 97
        0
 72
     4
 94
        3
 73
     0
 74
     0
 95
       11
 96
        7
 40
13.49999
 40
13.49999
 40
13.49999
 40
13.49999
 40
13.99999
 40
13.99999
 40
13.99999
 40
14.5
 40
14.5
 40
14.5
 40
14.5
 10
-171.6701664068878
 20
41.86655903333609
 10
-171.6701664068878
 20
41.62451179212516
 10
-171.6701664068878
 20
41.38246455091425
 10
-171.6701664068878
 20
41.38246455091425
 10
-171.6701664068878
 20
41.38246455091425
 10
-171.7368161675248
 20
41.38246455091425
 10
-171.8034645951666
 20
41.38246455091425
 97
        0
 72
     4
 94
        3
 73
     0
 74
     0
 95
       11
 96
        7
 40
12.99951171964811
 40
12.99951171964811
 40
12.99951171964811
 40
12.99951171964811
 40
13.49950171964811
 40
13.49950171964811
 40
13.49950171964811
 40
13.49999
 40
13.49999
 40
13.49999
 40
13.49999
 10
-171.8034645951666
 20
41.38246455091425
 10
-171.8701103569246
 20
41.38246455091425
 10
-171.9367547857941
 20
41.38246455091425
 10
-171.9367547857941
 20
41.38246455091425
 10
-171.9367547857941
 20
41.38246455091425
 10
-171.9367548679304
 20
41.38246467472122
 10
-171.9367550321229
 20
41.38246492221434
 97
        0
 72
     4
 94
        3
 73
     0
 74
     0
 95
        8
 96
        4
 40
12.906251875
 40
12.906251875
 40
12.906251875
 40
12.906251875
 40
12.93750125
 40
12.93750125
 40
12.93750125
 40
12.93750125
 10
-171.9406235994309
 20
41.38829614940131
 10
-171.9418851696802
 20
41.39019775848553
 10
-171.9434411067695
 20
41.39254307703217
 10
-171.9452703849766
 20
41.39530041223266
 97
        0
 72
     4
 94
        3
 73
     0
 74
     0
 95
        8
 96
        4
 40
12.81250375
 40
12.81250375
 40
12.81250375
 40
12.81250375
 40
12.87500249995754
 40
12.87500249995754
 40
12.87500249995754
 40
12.87500249995754
 10
-171.9515572172386
 20
41.40477677500149
 10
-171.9562670866776
 20
41.41187612639781
 10
-171.9619862176972
 20
41.4204967731728
 10
-171.9685464045197
 20
41.43038517285806
 97
        0
 72
     4
 94
        3
 73
     0
 74
     0
 95
        8
 96
        4
 40
12.750005
 40
12.750005
 40
12.750005
 40
12.750005
 40
12.81250375
 40
12.81250375
 40
12.81250375
 40
12.81250375
 10
-171.9685464045197
 20
41.43038517285806
 10
-171.9751065913467
 20
41.44027357255005
 10
-171.9825078339776
 20
41.45142972515404
 10
-171.9905819266345
 20
41.46360008820116
 97
        0
 72
     4
 94
        3
 73
     0
 74
     0
 95
        8
 96
        4
 40
12.6250075
 40
12.6250075
 40
12.6250075
 40
12.6250075
 40
12.750005
 40
12.750005
 40
12.750005
 40
12.750005
 10
-171.9905819266345
 20
41.46360008820116
 10
-172.0067301119481
 20
41.48794081429542
 10
-172.0255696973653
 20
41.51633838216216
 10
-172.0457550366613
 20
41.5467644520504
 97
        0
 72
     4
 94
        3
 73
     0
 74
     0
 95
        8
 96
        4
 40
12.50001
 40
12.50001
 40
12.50001
 40
12.50001
 40
12.6250075
 40
12.6250075
 40
12.6250075
 40
12.6250075
 10
-172.0457550366613
 20
41.5467644520504
 10
-172.0659403759572
 20
41.57719052193867
 10
-172.0874714691318
 20
41.60964509384836
 10
-172.1090026699603
 20
41.64209982802851
 97
        0
 72
     4
 94
        3
 73
     0
 74
     0
 95
        8
 96
        4
 40
12.250015
 40
12.250015
 40
12.250015
 40
12.250015
 40
12.50001
 40
12.50001
 40
12.50001
 40
12.50001
 10
-172.1090026699603
 20
41.64209982802851
 10
-172.1520650716173
 20
41.70700929638877
 10
-172.1951279038897
 20
41.77191941383074
 10
-172.2274259969786
 20
41.82060346234601
 97
        0
 72
     4
 94
        3
 73
     0
 74
     0
 95
       11
 96
        7
 40
11.0
 40
11.0
 40
11.0
 40
11.0
 40
11.25001499999999
 40
11.25001499999999
 40
11.25001499999999
 40
12.250015
 40
12.250015
 40
12.250015
 40
12.250015
 10
-172.2274259969786
 20
41.82060346234601
 10
-172.2597266739667
 20
41.86929140566312
 10
-172.2812608893097
 20
41.90175068372672
 10
-172.2812608893097
 20
41.90175068372672
 10
-172.2825011236847
 20
41.90680463880485
 10
-172.3378465826691
 20
41.99483027357047
 10
-172.3378465826691
 20
41.99858198255486
 97
        0
 72
     4
 94
        3
 73
     0
 74
     0
 95
        8
 96
        4
 40
10.0
 40
10.0
 40
10.0
 40
10.0
 40
11.0
 40
11.0
 40
11.0
 40
11.0
 10
-172.3378465826691
 20
41.99858198255486
 10
-172.3378465826691
 20
41.99483027357047
 10
-172.3378465826691
 20
41.90429316419548
 10
-172.3378465826691
 20
41.90051044935174
 97
        0
 72
     4
 94
        3
 73
     0
 74
     0
 95
       11
 96
        7
 40
8.5
 40
8.5
 40
8.5
 40
8.5
 40
9.5
 40
9.5
 40
9.5
 40
10.0
 40
10.0
 40
10.0
 40
10.0
 10
-172.3378465826691
 20
41.90051044935174
 10
-172.3378465826691
 20
41.90051044935174
 10
-172.3378465826691
 20
41.38246455091425
 10
-172.3378465826691
 20
41.38246455091425
 10
-172.3378465826691
 20
41.38246455091425
 10
-172.3985095465363
 20
41.38246455091425
 10
-172.4591725104034
 20
41.38246455091425
 97
        0
 72
     4
 94
        3
 73
     0
 74
     0
 95
       11
 96
        7
 40
7.5
 40
7.5
 40
7.5
 40
7.5
 40
8.0
 40
8.0
 40
8.0
 40
8.5
 40
8.5
 40
8.5
 40
8.5
 10
-172.4591725104034
 20
41.38246455091425
 10
-172.5198354742706
 20
41.38246455091425
 10
-172.5804984381378
 20
41.38246455091425
 10
-172.5804984381378
 20
41.38246455091425
 10
-172.5804984381378
 20
41.38246455091425
 10
-172.5804984381378
 20
41.62451179212516
 10
-172.5804984381378
 20
41.86655903333609
 97
        0
 72
     4
 94
        3
 73
     0
 74
     0
 95
       11
 96
        7
 40
6.5
 40
6.5
 40
6.5
 40
6.5
 40
7.0
 40
7.0
 40
7.0
 40
7.5
 40
7.5
 40
7.5
 40
7.5
 10
-172.5804984381378
 20
41.86655903333609
 10
-172.5804984381378
 20
42.10860627454705
 10
-172.5804984381378
 20
42.35065351575797
 10
-172.5804984381378
 20
42.35065351575797
 10
-172.5804984381378
 20
42.35065351575797
 10
-172.5132389776886
 20
42.35065351575797
 10
-172.4459795172394
 20
42.35065351575797
 97
        0
 72
     4
 94
        3
 73
     0
 74
     0
 95
       11
 96
        7
 40
5.5
 40
5.5
 40
5.5
 40
5.5
 40
6.0
 40
6.0
 40
6.0
 40
6.5
 40
6.5
 40
6.5
 40
6.5
 10
-172.4459795172394
 20
42.35065351575797
 10
-172.3787200567902
 20
42.35065351575797
 10
-172.3114605963409
 20
42.35065351575797
 10
-172.3114605963409
 20
42.35065351575797
 10
-172.3114605963409
 20
42.35065351575797
 10
-172.2253263189972
 20
42.22491700452752
 10
-172.1391920416534
 20
42.09918049329704
 97
        0
 72
     4
 94
        3
 73
     0
 74
     0
 95
       11
 96
        7
 40
4.0
 40
4.0
 40
4.0
 40
4.0
 40
4.5
 40
4.5
 40
4.5
 40
5.5
 40
5.5
 40
5.5
 40
5.5
 10
-172.1391920416534
 20
42.09918049329704
 10
-172.0530577643097
 20
41.97344398206657
 10
-171.966923486966
 20
41.84770747083609
 10
-171.966923486966
 20
41.84770747083609
 10
-171.9656522467315
 20
41.84519599622674
 10
-171.9128492682159
 20
41.75214741224233
 10
-171.9115780279816
 20
41.7483646973986
 97
        0
 72
     4
 94
        3
 73
     0
 74
     0
 95
        8
 96
        4
 40
3.0
 40
3.0
 40
3.0
 40
3.0
 40
4.0
 40
4.0
 40
4.0
 40
4.0
 10
-171.9115780279816
 20
41.7483646973986
 10
-171.9115780279816
 20
41.75338764661735
 10
-171.9140895025909
 20
41.86153608411737
 10
-171.9140895025909
 20
41.86404755872671
 97
        0
 72
     4
 94
        3
 73
     0
 74
     0
 95
        8
 96
        4
 40
2.0
 40
2.0
 40
2.0
 40
2.0
 40
3.0
 40
3.0
 40
3.0
 40
3.0
 10
-171.9140895025909
 20
41.86404755872671
 10
-171.9140895025909
 20
41.86404755872671
 10
-171.9140895025909
 20
42.33431342786735
 10
-171.9140895025909
 20
42.35065351575797
 97
        0
 97
        0
 92
       20
 93
       12
 72
     4
 94
        3
 73
     0
 74
     0
 95
        8
 96
        4
 40
11.0
 40
11.0
 40
11.0
 40
11.0
 40
12.0
 40
12.0
 40
12.0
 40
12.0
 10
-170.6352218268097
 20
41.87663593763298
 10
-170.6352218268097
 20
42.20731342786736
 10
-170.4290018561066
 20
42.36069941419549
 10
-170.1637157232941
 20
42.36069941419549
 97
        0
 72
     4
 94
        3
 73
     0
 74
     0
 95
        8
 96
        4
 40
10.0
 40
10.0
 40
10.0
 40
10.0
 40
11.0
 40
11.0
 40
11.0
 40
11.0
 10
-170.1637157232941
 20
42.36069941419549
 10
-169.9285982916535
 20
42.36069941419549
 10
-169.7764525397003
 20
42.27521625989862
 10
-169.7160841314972
 20
42.06648481458609
 97
        0
 72
     4
 94
        3
 73
     0
 74
     0
 95
       11
 96
        7
 40
8.0
 40
8.0
 40
8.0
 40
8.0
 40
9.0
 40
9.0
 40
9.0
 40
10.0
 40
10.0
 40
10.0
 40
10.0
 10
-169.7160841314972
 20
42.06648481458609
 10
-169.7160841314972
 20
42.06648481458609
 10
-169.9876644537628
 20
42.03504487317985
 10
-169.9876644537628
 20
42.03504487317985
 10
-170.0178641607941
 20
42.11426484388298
 10
-170.0656441900909
 20
42.18216767591424
 10
-170.1649869635284
 20
42.18216767591424
 97
        0
 72
     4
 94
        3
 73
     0
 74
     0
 95
        8
 96
        4
 40
7.0
 40
7.0
 40
7.0
 40
7.0
 40
8.0
 40
8.0
 40
8.0
 40
8.0
 10
-170.1649869635284
 20
42.18216767591424
 10
-170.3058155768097
 20
42.18216767591424
 10
-170.3824930670441
 20
42.0689962891955
 10
-170.3824930670441
 20
41.86655903333609
 97
        0
 72
     4
 94
        3
 73
     0
 74
     0
 95
        8
 96
        4
 40
6.0
 40
6.0
 40
6.0
 40
6.0
 40
7.0
 40
7.0
 40
7.0
 40
7.0
 10
-170.3824930670441
 20
41.86655903333609
 10
-170.3824930670441
 20
41.6578275880236
 10
-170.3121097662628
 20
41.54595844739859
 10
-170.1473756354034
 20
41.54595844739859
 97
        0
 72
     4
 94
        3
 73
     0
 74
     0
 95
        8
 96
        4
 40
5.0
 40
5.0
 40
5.0
 40
5.0
 40
6.0
 40
6.0
 40
6.0
 40
6.0
 10
-170.1473756354034
 20
41.54595844739859
 10
-170.0731786139191
 20
41.54595844739859
 10
-169.9839127447785
 20
41.57358466810172
 10
-169.9399154303253
 20
41.62765888685172
 97
        0
 72
     4
 94
        3
 73
     0
 74
     0
 95
        8
 96
        4
 40
4.0
 40
4.0
 40
4.0
 40
4.0
 40
5.0
 40
5.0
 40
5.0
 40
5.0
 10
-169.9399154303253
 20
41.62765888685172
 10
-169.9399154303253
 20
41.62765888685172
 10
-169.9399154303253
 20
41.77227021497674
 10
-169.9399154303253
 20
41.7923930177111
 97
        0
 72
     4
 94
        3
 73
     0
 74
     0
 95
       11
 96
        7
 40
2.5
 40
2.5
 40
2.5
 40
2.5
 40
3.5
 40
3.5
 40
3.5
 40
4.0
 40
4.0
 40
4.0
 40
4.0
 10
-169.9399154303253
 20
41.7923930177111
 10
-169.9399154303253
 20
41.7923930177111
 10
-170.1586927740753
 20
41.7923930177111
 10
-170.1586927740753
 20
41.7923930177111
 10
-170.1586927740753
 20
41.7923930177111
 10
-170.1571192267121
 20
41.83294093030876
 10
-170.1555456793487
 20
41.87348884290642
 97
        0
 72
     4
 94
        3
 73
     0
 74
     0
 95
       11
 96
        7
 40
1.5
 40
1.5
 40
1.5
 40
1.5
 40
2.0
 40
2.0
 40
2.0
 40
2.5
 40
2.5
 40
2.5
 40
2.5
 10
-170.1555456793487
 20
41.87348884290642
 10
-170.1539721319855
 20
41.91403675550408
 10
-170.1523985846222
 20
41.95458466810174
 10
-170.1523985846222
 20
41.95458466810174
 10
-170.1523985846222
 20
41.95458466810174
 10
-170.0389248907746
 20
41.95458466810174
 10
-169.9254511969269
 20
41.95458466810174
 97
        0
 72
     4
 94
        3
 73
     0
 74
     0
 95
       11
 96
        7
 40
0.0
 40
0.0
 40
0.0
 40
0.0
 40
0.5
 40
0.5
 40
0.5
 40
1.5
 40
1.5
 40
1.5
 40
1.5
 10
-169.9254511969269
 20
41.95458466810174
 10
-169.8119775030792
 20
41.95458466810174
 10
-169.6985038092315
 20
41.95458466810174
 10
-169.6985038092315
 20
41.95458466810174
 10
-169.6985038092315
 20
41.93948481458611
 10
-169.6985038092315
 20
41.55095039075797
 10
-169.6985038092315
 20
41.53839301771112
 97
        0
 72
     4
 94
        3
 73
     0
 74
     0
 95
        8
 96
        4
 40
13.0
 40
13.0
 40
13.0
 40
13.0
 40
14.0
 40
14.0
 40
14.0
 40
14.0
 10
-169.6985038092315
 20
41.53839301771112
 10
-169.7839869635285
 20
41.44785590833609
 10
-169.9537440436066
 20
41.37241865247673
 10
-170.1448641607941
 20
41.37241865247673
 97
        0
 72
     4
 94
        3
 73
     0
 74
     0
 95
        8
 96
        4
 40
12.0
 40
12.0
 40
12.0
 40
12.0
 40
13.0
 40
13.0
 40
13.0
 40
13.0
 10
-170.1448641607941
 20
41.37241865247673
 10
-170.4629842779816
 20
41.37241865247673
 10
-170.6352218268097
 20
41.53337006849237
 10
-170.6352218268097
 20
41.87663593763298
 97
        0
 97
        0
 92
       22
 72
     0
 73
     1
 93
        4
 10
-173.6515028326691
 20
42.35065351575797
 10
-173.6515028326691
 20
41.38246455091425
 10
-173.9029603522003
 20
41.38246455091425
 10
-173.9029603522003
 20
42.35065351575797
 97
        0
 92
       20
 93
       26
 72
     4
 94
        3
 73
     0
 74
     0
 95
       11
 96
        7
 40
10.5
 40
10.5
 40
10.5
 40
10.5
 40
11.0
 40
11.0
 40
11.0
 40
11.5
 40
11.5
 40
11.5
 40
11.5
 10
-167.3069753668487
 20
41.86719465345331
 10
-167.3805290167511
 20
42.10892408460566
 10
-167.4540826666534
 20
42.35065351575797
 10
-167.4540826666534
 20
42.35065351575797
 10
-167.4540826666534
 20
42.35065351575797
 10
-167.3905904181183
 20
42.35065351575797
 10
-167.3270981695831
 20
42.35065351575797
 97
        0
 72
     4
 94
        3
 73
     0
 74
     0
 95
       11
 96
        7
 40
9.5
 40
9.5
 40
9.5
 40
9.5
 40
10.0
 40
10.0
 40
10.0
 40
10.5
 40
10.5
 40
10.5
 40
10.5
 10
-167.3270981695831
 20
42.35065351575797
 10
-167.263605921048
 20
42.35065351575797
 10
-167.2001136725128
 20
42.35065351575797
 10
-167.2001136725128
 20
42.35065351575797
 10
-167.2001136725128
 20
42.35065351575797
 10
-167.1648987677277
 20
42.22853693860954
 10
-167.1296838629425
 20
42.1064203614611
 97
        0
 72
     4
 94
        3
 73
     0
 74
     0
 95
       11
 96
        7
 40
8.0
 40
8.0
 40
8.0
 40
8.0
 40
8.5
 40
8.5
 40
8.5
 40
9.5
 40
9.5
 40
9.5
 40
9.5
 10
-167.1296838629425
 20
42.1064203614611
 10
-167.0944689581574
 20
41.98430378431265
 10
-167.0592540533722
 20
41.86218720716422
 10
-167.0592540533722
 20
41.86218720716422
 10
-167.0567425787628
 20
41.85338154310173
 10
-167.0240624029816
 20
41.747899609508
 10
-167.0215509283722
 20
41.72278486341422
 97
        0
 72
     4
 94
        3
 73
     0
 74
     0
 95
        8
 96
        4
 40
7.0
 40
7.0
 40
7.0
 40
7.0
 40
8.0
 40
8.0
 40
8.0
 40
8.0
 10
-167.0215509283722
 20
41.72278486341422
 10
-167.0202796881378
 20
41.7441479005236
 10
-166.9888397467316
 20
41.84962983411733
 10
-166.9863282721222
 20
41.86094697278924
 97
        0
 72
     4
 94
        3
 73
     0
 74
     0
 95
       11
 96
        7
 40
5.5
 40
5.5
 40
5.5
 40
5.5
 40
6.5
 40
6.5
 40
6.5
 40
7.0
 40
7.0
 40
7.0
 40
7.0
 10
-166.9863282721222
 20
41.86094697278924
 10
-166.9863282721222
 20
41.86094697278924
 10
-166.8543053229035
 20
42.35065351575797
 10
-166.8543053229035
 20
42.35065351575797
 10
-166.8543053229035
 20
42.35065351575797
 10
-166.798665308255
 20
42.35065351575797
 10
-166.7430252936066
 20
42.35065351575797
 97
        0
 72
     4
 94
        3
 73
     0
 74
     0
 95
       11
 96
        7
 40
4.5
 40
4.5
 40
4.5
 40
4.5
 40
5.0
 40
5.0
 40
5.0
 40
5.5
 40
5.5
 40
5.5
 40
5.5
 10
-166.7430252936066
 20
42.35065351575797
 10
-166.6873852789582
 20
42.35065351575797
 10
-166.6317452643097
 20
42.35065351575797
 10
-166.6317452643097
 20
42.35065351575797
 10
-166.6317452643097
 20
42.35065351575797
 10
-166.5959102423371
 20
42.22665333265251
 10
-166.5600752203644
 20
42.10265314954702
 97
        0
 72
     4
 94
        3
 73
     0
 74
     0
 95
       11
 96
        7
 40
3.0
 40
3.0
 40
3.0
 40
3.0
 40
3.5
 40
3.5
 40
3.5
 40
4.5
 40
4.5
 40
4.5
 40
4.5
 10
-166.5600752203644
 20
42.10265314954702
 10
-166.5242401983917
 20
41.97865296644158
 10
-166.4884051764191
 20
41.85465278333611
 10
-166.4884051764191
 20
41.85465278333611
 10
-166.487164942044
 20
41.84584711927359
 10
-166.4532135260284
 20
41.7441479005236
 10
-166.4532135260284
 20
41.72278486341422
 97
        0
 72
     4
 94
        3
 73
     0
 74
     0
 95
        8
 96
        4
 40
2.0
 40
2.0
 40
2.0
 40
2.0
 40
3.0
 40
3.0
 40
3.0
 40
3.0
 10
-166.4532135260284
 20
41.72278486341422
 10
-166.4519732916534
 20
41.7441479005236
 10
-166.4205333502472
 20
41.84584711927359
 10
-166.4192621100128
 20
41.85465278333611
 97
        0
 72
     4
 94
        3
 73
     0
 74
     0
 95
       11
 96
        7
 40
0.5
 40
0.5
 40
0.5
 40
0.5
 40
1.5
 40
1.5
 40
1.5
 40
2.0
 40
2.0
 40
2.0
 40
2.0
 10
-166.4192621100128
 20
41.85465278333611
 10
-166.4192621100128
 20
41.85465278333611
 10
-166.2784334967316
 20
42.35065351575797
 10
-166.2784334967316
 20
42.35065351575797
 10
-166.2784334967316
 20
42.35065351575797
 10
-166.2168248541535
 20
42.35065351575797
 10
-166.1552162115753
 20
42.35065351575797
 97
        0
 72
     4
 94
        3
 73
     0
 74
     0
 95
       11
 96
        7
 40
18.6249775
 40
18.6249775
 40
18.6249775
 40
18.6249775
 40
19.1249775
 40
19.1249775
 40
19.1249775
 40
19.5
 40
19.5
 40
19.5
 40
19.5
 10
-166.1552162115753
 20
42.35065351575797
 10
-166.0936075689972
 20
42.35065351575797
 10
-166.0319989264191
 20
42.35065351575797
 10
-166.0319989264191
 20
42.35065351575797
 10
-166.0319989264191
 20
42.35065351575797
 10
-166.0721393744006
 20
42.21466439350868
 10
-166.1223131280574
 20
42.04468411020755
 97
        0
 72
     4
 94
        3
 73
     0
 74
     0
 95
        8
 96
        4
 40
18.249985
 40
18.249985
 40
18.249985
 40
18.249985
 40
18.6249775
 40
18.6249775
 40
18.6249775
 40
18.6249775
 10
-166.1223131280574
 20
42.04468411020755
 10
-166.1724828680547
 20
41.87471742451323
 10
-166.2326843085589
 20
41.67076501580906
 10
-166.2728175319662
 20
41.53480036920856
 97
        0
 72
     4
 94
        3
 73
     0
 74
     0
 95
        8
 96
        4
 40
18.156236875
 40
18.156236875
 40
18.156236875
 40
18.156236875
 40
18.249985
 40
18.249985
 40
18.249985
 40
18.249985
 10
-166.2728175319662
 20
41.53480036920856
 10
-166.282850837818
 20
41.50080920755844
 10
-166.2916298801013
 20
41.47106728103977
 10
-166.2986843476035
 20
41.44716792535753
 97
        0
 72
     4
 94
        3
 73
     0
 74
     0
 95
        8
 96
        4
 40
18.06248875
 40
18.06248875
 40
18.06248875
 40
18.06248875
 40
18.156236875
 40
18.156236875
 40
18.156236875
 40
18.156236875
 10
-166.2986843476035
 20
41.44716792535753
 10
-166.3057388151056
 20
41.42326856967525
 10
-166.3110687078267
 20
41.40521178482937
 10
-166.3142037145541
 20
41.39459090652475
 97
        0
 72
     4
 94
        3
 73
     0
 74
     0
 95
       11
 96
        7
 40
17.99950170413469
 40
17.99950170413469
 40
17.99950170413469
 40
17.99950170413469
 40
18.00010204349016
 40
18.00010204349016
 40
18.00010204349016
 40
18.00060033935547
 40
18.00060033935547
 40
18.00060033935547
 40
18.00060033935547
 10
-166.317407553499
 20
41.38373683618294
 10
-166.3174077591025
 20
41.38373613963284
 10
-166.3174078619659
 20
41.38373579114861
 10
-166.3174078619659
 20
41.38373579114861
 10
-166.3174078619659
 20
41.38373579114861
 10
-166.3174079228474
 20
41.38373579114861
 10
-166.3174080445496
 20
41.38373579114861
 97
        0
 72
     4
 94
        3
 73
     0
 74
     0
 95
        8
 96
        4
 40
17.68749625
 40
17.68749625
 40
17.68749625
 40
17.68749625
 40
17.87499249994281
 40
17.87499249994281
 40
17.87499249994281
 40
17.87499249994281
 10
-166.3279447629444
 20
41.38373579114861
 10
-166.3380018779355
 20
41.38373579114861
 10
-166.3545236900539
 20
41.38373579114861
 10
-166.3742778507366
 20
41.38373579114861
 97
        0
 72
     4
 94
        3
 73
     0
 74
     0
 95
        8
 96
        4
 40
17.5
 40
17.5
 40
17.5
 40
17.5
 40
17.68749625
 40
17.68749625
 40
17.68749625
 40
17.68749625
 10
-166.3742778507366
 20
41.38373579114861
 10
-166.3940320114252
 20
41.38373579114861
 10
-166.4170185206799
 20
41.38373579114861
 10
-166.4400050299347
 20
41.38373579114861
 97
        0
 72
     4
 94
        3
 73
     0
 74
     0
 95
        8
 96
        4
 40
17.31250375
 40
17.31250375
 40
17.31250375
 40
17.31250375
 40
17.5
 40
17.5
 40
17.5
 40
17.5
 10
-166.4400050299347
 20
41.38373579114861
 10
-166.4629915391895
 20
41.38373579114861
 10
-166.4859780484442
 20
41.38373579114861
 10
-166.5057322091328
 20
41.38373579114861
 97
        0
 72
     4
 94
        3
 73
     0
 74
     0
 95
        8
 96
        4
 40
17.1250075
 40
17.1250075
 40
17.1250075
 40
17.1250075
 40
17.31250375
 40
17.31250375
 40
17.31250375
 40
17.31250375
 10
-166.5057322091328
 20
41.38373579114861
 10
-166.5254863698215
 20
41.38373579114861
 10
-166.542008181944
 20
41.38373579114861
 10
-166.5520652969342
 20
41.38373579114861
 97
        0
 72
     4
 94
        3
 73
     0
 74
     0
 95
       11
 96
        7
 40
16.99976584258722
 40
16.99976584258722
 40
16.99976584258722
 40
16.99976584258722
 40
17.00099652129816
 40
17.00099652129816
 40
17.00099652129816
 40
17.00123067871094
 40
17.00123067871094
 40
17.00123067871094
 40
17.00123067871094
 10
-166.5626010847255
 20
41.38373579114861
 10
-166.5626018265394
 20
41.38373579114861
 10
-166.5626021979034
 20
41.38373579114861
 10
-166.5626021979034
 20
41.38373579114861
 10
-166.5626021979034
 20
41.38373579114861
 10
-166.5626022057628
 20
41.38373581751964
 10
-166.5626022214777
 20
41.38373587024941
 97
        0
 72
     4
 94
        3
 73
     0
 74
     0
 95
        8
 96
        4
 40
16.84376312499999
 40
16.84376312499999
 40
16.84376312499999
 40
16.84376312499999
 40
16.93751124989445
 40
16.93751124989445
 40
16.93751124989445
 40
16.93751124989445
 10
-166.5642114074128
 20
41.38913532779349
 10
-166.5657858925956
 20
41.39441835053956
 10
-166.5684627088944
 20
41.40340013172653
 10
-166.572005653297
 20
41.41528811649248
 97
        0
 72
     4
 94
        3
 73
     0
 74
     0
 95
        8
 96
        4
 40
16.75001499996807
 40
16.75001499996807
 40
16.75001499996807
 40
16.75001499996807
 40
16.843763125
 40
16.843763125
 40
16.843763125
 40
16.843763125
 10
-166.572005653297
 20
41.41528811649248
 10
-166.5755485977048
 20
41.42717610127585
 10
-166.5799576702188
 20
41.44197028964671
 10
-166.5849966678259
 20
41.45887812673958
 97
        0
 72
     4
 94
        3
 73
     0
 74
     0
 95
        8
 96
        4
 40
16.3750225
 40
16.3750225
 40
16.3750225
 40
16.3750225
 40
16.75001499996807
 40
16.75001499996807
 40
16.75001499996807
 40
16.75001499996807
 10
-166.5849966678259
 20
41.45887812673958
 10
-166.6051526582455
 20
41.52650947508226
 10
-166.6353874501437
 20
41.62795920294841
 10
-166.6605840506855
 20
41.71250379901272
 97
        0
 72
     4
 94
        3
 73
     0
 74
     0
 95
       11
 96
        7
 40
15.0
 40
15.0
 40
15.0
 40
15.0
 40
15.3750225
 40
15.3750225
 40
15.3750225
 40
16.3750225
 40
16.3750225
 40
16.3750225
 40
16.3750225
 10
-166.6605840506855
 20
41.71250379901272
 10
-166.6857826669979
 20
41.79705515878719
 10
-166.7059422857941
 20
41.8646986817736
 10
-166.7059422857941
 20
41.8646986817736
 10
-166.7084537604035
 20
41.88227900403925
 10
-166.7373822272003
 20
41.96642890638297
 10
-166.7386534674347
 20
41.98022651380487
 97
        0
 72
     4
 94
        3
 73
     0
 74
     0
 95
        8
 96
        4
 40
14.0
 40
14.0
 40
14.0
 40
14.0
 40
15.0
 40
15.0
 40
15.0
 40
15.0
 10
-166.7386534674347
 20
41.98022651380487
 10
-166.7398937018097
 20
41.96766914075798
 10
-166.7675509283722
 20
41.88227900403925
 10
-166.7700624029816
 20
41.8646986817736
 97
        0
 72
     4
 94
        3
 73
     0
 74
     0
 95
       11
 96
        7
 40
12.5
 40
12.5
 40
12.5
 40
12.5
 40
13.5
 40
13.5
 40
13.5
 40
14.0
 40
14.0
 40
14.0
 40
14.0
 10
-166.7700624029816
 20
41.8646986817736
 10
-166.7700624029816
 20
41.8646986817736
 10
-166.9146737311065
 20
41.38246455091425
 10
-166.9146737311065
 20
41.38246455091425
 10
-166.9146737311065
 20
41.38246455091425
 10
-166.9759723150909
 20
41.38278236097281
 10
-167.0372708990753
 20
41.38310017103143
 97
        0
 72
     4
 94
        3
 73
     0
 74
     0
 95
       11
 96
        7
 40
11.5
 40
11.5
 40
11.5
 40
11.5
 40
12.0
 40
12.0
 40
12.0
 40
12.5
 40
12.5
 40
12.5
 40
12.5
 10
-167.0372708990753
 20
41.38310017103143
 10
-167.0985694830597
 20
41.38341798108999
 10
-167.1598680670441
 20
41.38373579114861
 10
-167.1598680670441
 20
41.38373579114861
 10
-167.1598680670441
 20
41.38373579114861
 10
-167.2334217169464
 20
41.62546522230096
 10
-167.3069753668487
 20
41.86719465345331
 97
        0
 97
        0
 92
       20
 93
       31
 72
     4
 94
        3
 73
     0
 74
     0
 95
       11
 96
        7
 40
8.68745625
 40
8.68745625
 40
8.68745625
 40
8.68745625
 40
9.18745625
 40
9.18745625
 40
9.18745625
 40
9.5
 40
9.5
 40
9.5
 40
9.5
 10
-175.0094354498566
 20
42.35065351575797
 10
-174.9465710699737
 20
42.35065351575797
 10
-174.8837066900909
 20
42.35065351575797
 10
-174.8837066900909
 20
42.35065351575797
 10
-174.8837066900909
 20
42.35065351575797
 10
-174.9163779655295
 20
42.25607733638979
 10
-174.9612981105209
 20
42.1260433651742
 97
        0
 72
     4
 94
        3
 73
     0
 74
     0
 95
        8
 96
        4
 40
8.374962499999998
 40
8.374962499999998
 40
8.374962499999998
 40
8.374962499999998
 40
8.687456249999998
 40
8.687456249999998
 40
8.687456249999998
 40
8.687456249999998
 10
-174.9612981105209
 20
42.1260433651742
 10
-175.0062110692952
 20
41.99603019648162
 10
-175.0633689788464
 20
41.83057057993935
 10
-175.1123592331032
 20
41.68875453475311
 97
        0
 72
     4
 94
        3
 73
     0
 74
     0
 95
        8
 96
        4
 40
8.218715625000003
 40
8.218715625000003
 40
8.218715625000003
 40
8.218715625000003
 40
8.374962500000002
 40
8.374962500000002
 40
8.374962500000002
 40
8.374962500000002
 10
-175.1123592331032
 20
41.68875453475311
 10
-175.1368543602316
 20
41.61784651216
 10
-175.1593075735364
 20
41.55284938240586
 10
-175.1771672972588
 20
41.50114939789151
 97
        0
 72
     4
 94
        3
 73
     0
 74
     0
 95
        8
 96
        4
 40
8.06246875
 40
8.06246875
 40
8.06246875
 40
8.06246875
 40
8.218715625000001
 40
8.218715625000001
 40
8.218715625000001
 40
8.218715625000001
 10
-175.1771672972588
 20
41.50114939789151
 10
-175.1950270209813
 20
41.44944941337714
 10
-175.2082932551213
 20
41.41104657410251
 10
-175.21441442392
 20
41.39332713246832
 97
        0
 72
     4
 94
        3
 73
     0
 74
     0
 95
       11
 96
        7
 40
7.999603796386718
 40
7.999603796386718
 40
7.999603796386718
 40
7.999603796386718
 40
8.000428271484373
 40
8.000428271484373
 40
8.000428271484373
 40
8.000824475097655
 40
8.000824475097655
 40
8.000824475097655
 40
8.000824475097655
 10
-175.2181662134868
 20
41.38246652423502
 10
-175.2181666678167
 20
41.38246520904957
 10
-175.2181668951691
 20
41.38246455091425
 10
-175.2181668951691
 20
41.38246455091425
 10
-175.2181668951691
 20
41.38246455091425
 10
-175.2181669409598
 20
41.38246455091425
 10
-175.2181670325051
 20
41.38246455091425
 97
        0
 72
     4
 94
        3
 73
     0
 74
     0
 95
        8
 96
        4
 40
7.828098437499999
 40
7.828098437499999
 40
7.828098437499999
 40
7.828098437499999
 40
7.906221874999999
 40
7.906221874999999
 40
7.906221874999999
 40
7.906221874999999
 10
-175.2253817569796
 20
41.38246455091425
 10
-175.2292551227315
 20
41.38246455091425
 10
-175.2345749173236
 20
41.38246455091425
 10
-175.2410629676684
 20
41.38246455091425
 97
        0
 72
     4
 94
        3
 73
     0
 74
     0
 95
        8
 96
        4
 40
7.749974999951351
 40
7.749974999951351
 40
7.749974999951351
 40
7.749974999951351
 40
7.828098437499999
 40
7.828098437499999
 40
7.828098437499999
 40
7.828098437499999
 10
-175.2410629676684
 20
41.38246455091425
 10
-175.2475510180173
 20
41.38246455091425
 10
-175.2552073241205
 20
41.38246455091425
 10
-175.2637537128902
 20
41.38246455091425
 97
        0
 72
     4
 94
        3
 73
     0
 74
     0
 95
        8
 96
        4
 40
7.437481249999999
 40
7.437481249999999
 40
7.437481249999999
 40
7.437481249999999
 40
7.749974999951351
 40
7.749974999951351
 40
7.749974999951351
 40
7.749974999951351
 10
-175.2637537128902
 20
41.38246455091425
 10
-175.2979392679421
 20
41.38246455091425
 10
-175.3463661456357
 20
41.38246455091425
 10
-175.3912312683934
 20
41.38246455091425
 97
        0
 72
     4
 94
        3
 73
     0
 74
     0
 95
        8
 96
        4
 40
7.124987499999999
 40
7.124987499999999
 40
7.124987499999999
 40
7.124987499999999
 40
7.437481249999999
 40
7.437481249999999
 40
7.437481249999999
 40
7.437481249999999
 10
-175.3912312683934
 20
41.38246455091425
 10
-175.4360963911581
 20
41.38246455091425
 10
-175.477399758986
 20
41.38246455091425
 10
-175.4973382942914
 20
41.38246455091425
 97
        0
 72
     4
 94
        3
 73
     0
 74
     0
 95
       11
 96
        7
 40
6.999867915857663
 40
6.999867915857663
 40
6.999867915857663
 40
6.999867915857663
 40
7.001566866052975
 40
7.001566866052975
 40
7.001566866052975
 40
7.001698950195312
 40
7.001698950195312
 40
7.001698950195312
 40
7.001698950195312
 10
-175.5098674970865
 20
41.38246455091425
 10
-175.5098691781879
 20
41.38246455091425
 10
-175.509870020169
 20
41.38246455091425
 10
-175.509870020169
 20
41.38246455091425
 10
-175.509870020169
 20
41.38246455091425
 10
-175.5098700262237
 20
41.38246456780547
 10
-175.5098700383315
 20
41.38246460158345
 97
        0
 72
     4
 94
        3
 73
     0
 74
     0
 95
        8
 96
        4
 40
6.890617187499999
 40
6.890617187499999
 40
6.890617187499999
 40
6.890617187499999
 40
6.968740624939217
 40
6.968740624939217
 40
6.968740624939217
 40
6.968740624939217
 10
-175.5108661729749
 20
41.38524359741789
 10
-175.5125082344814
 20
41.38982458666128
 10
-175.5161360047638
 20
41.39994526519588
 10
-175.5214185323596
 20
41.41468235147372
 97
        0
 72
     4
 94
        3
 73
     0
 74
     0
 95
        8
 96
        4
 40
6.812493749983991
 40
6.812493749983991
 40
6.812493749983991
 40
6.812493749983991
 40
6.890617187499999
 40
6.890617187499999
 40
6.890617187499999
 40
6.890617187499999
 10
-175.5214185323596
 20
41.41468235147372
 10
-175.5267010599607
 20
41.42941943776605
 10
-175.5336383448784
 20
41.44877293181074
 10
-175.5418994356495
 20
41.47181955205712
 97
        0
 72
     4
 94
        3
 73
     0
 74
     0
 95
        8
 96
        4
 40
6.656246874999999
 40
6.656246874999999
 40
6.656246874999999
 40
6.656246874999999
 40
6.812493749983992
 40
6.812493749983992
 40
6.812493749983992
 40
6.812493749983992
 10
-175.5418994356495
 20
41.47181955205712
 10
-175.5584216171866
 20
41.51791279253571
 10
-175.5802390221336
 20
41.57877853781191
 10
-175.6047040387858
 20
41.64703053548737
 97
        0
 72
     4
 94
        3
 73
     0
 74
     0
 95
        8
 96
        4
 40
6.5
 40
6.5
 40
6.5
 40
6.5
 40
6.656246875
 40
6.656246875
 40
6.656246875
 40
6.656246875
 10
-175.6047040387858
 20
41.64703053548737
 10
-175.6291690554405
 20
41.71528253316981
 10
-175.6562816838009
 20
41.79092078325293
 10
-175.6833943121613
 20
41.86655903333613
 97
        0
 72
     4
 94
        3
 73
     0
 74
     0
 95
        8
 96
        4
 40
6.343753124999999
 40
6.343753124999999
 40
6.343753124999999
 40
6.343753124999999
 40
6.499999999999999
 40
6.499999999999999
 40
6.499999999999999
 40
6.499999999999999
 10
-175.6833943121613
 20
41.86655903333613
 10
-175.7105069405216
 20
41.94219728341929
 10
-175.737619568882
 20
42.01783553350245
 10
-175.7620845855367
 20
42.08608753118485
 97
        0
 72
     4
 94
        3
 73
     0
 74
     0
 95
        8
 96
        4
 40
6.187506249980148
 40
6.187506249980148
 40
6.187506249980148
 40
6.187506249980148
 40
6.343753125
 40
6.343753125
 40
6.343753125
 40
6.343753125
 10
-175.7620845855367
 20
42.08608753118485
 10
-175.7865496021945
 20
42.15433952887599
 10
-175.8083670071459
 20
42.2152052741645
 10
-175.8248891886843
 20
42.26129851464685
 97
        0
 72
     4
 94
        3
 73
     0
 74
     0
 95
        8
 96
        4
 40
6.109382812499999
 40
6.109382812499999
 40
6.109382812499999
 40
6.109382812499999
 40
6.187506249980147
 40
6.187506249980147
 40
6.187506249980147
 40
6.187506249980147
 10
-175.8248891886843
 20
42.26129851464685
 10
-175.8331502794504
 20
42.28434513487928
 10
-175.8400875643643
 20
42.30369862891294
 10
-175.8453700919629
 20
42.31843571519849
 97
        0
 72
     4
 94
        3
 73
     0
 74
     0
 95
        8
 96
        4
 40
6.031259374999999
 40
6.031259374999999
 40
6.031259374999999
 40
6.031259374999999
 40
6.109382812499998
 40
6.109382812499998
 40
6.109382812499998
 40
6.109382812499998
 10
-175.8453700919629
 20
42.31843571519849
 10
-175.8506526195628
 20
42.33317280148783
 10
-175.8542803898467
 20
42.3432934800267
 10
-175.8559224513514
 20
42.34787446926503
 97
        0
 72
     4
 94
        3
 73
     0
 74
     0
 95
        8
 96
        4
 40
6.011728515431776
 40
6.011728515431776
 40
6.011728515431776
 40
6.011728515431776
 40
6.021493945312498
 40
6.021493945312498
 40
6.021493945312498
 40
6.021493945312498
 10
-175.8564444979271
 20
42.34933086400913
 10
-175.856587055829
 20
42.34972856909688
 10
-175.8566979406405
 20
42.35003791325154
 10
-175.8567765059719
 20
42.35025709318867
 97
        0
 72
     4
 94
        3
 73
     0
 74
     0
 95
       11
 96
        7
 40
5.999521712483028
 40
5.999521712483028
 40
5.999521712483028
 40
5.999521712483028
 40
5.999958950031857
 40
5.999958950031857
 40
5.999958950031857
 40
6.000437237548828
 40
6.000437237548828
 40
6.000437237548828
 40
6.000437237548828
 10
-175.8569184051687
 20
42.35065296063441
 10
-175.8569185378059
 20
42.35065333066283
 10
-175.8569186041534
 20
42.35065351575797
 10
-175.8569186041534
 20
42.35065351575797
 10
-175.8569186041534
 20
42.35065351575797
 10
-175.8569185437435
 20
42.35065351575797
 10
-175.8569184229814
 20
42.35065351575797
 97
        0
 72
     4
 94
        3
 73
     0
 74
     0
 95
        8
 96
        4
 40
5.56251875
 40
5.56251875
 40
5.56251875
 40
5.56251875
 40
5.8750125
 40
5.8750125
 40
5.8750125
 40
5.8750125
 10
-175.845573715835
 20
42.35065351575797
 10
-175.8275234920684
 20
42.35065351575797
 10
-175.7901318271247
 20
42.35065351575797
 10
-175.7495157290606
 20
42.35065351575797
 97
        0
 72
     4
 94
        3
 73
     0
 74
     0
 95
        8
 96
        4
 40
5.250024999999999
 40
5.250024999999999
 40
5.250024999999999
 40
5.250024999999999
 40
5.562518749999999
 40
5.562518749999999
 40
5.562518749999999
 40
5.562518749999999
 10
-175.7495157290606
 20
42.35065351575797
 10
-175.7088996309965
 20
42.35065351575793
 10
-175.6650590998119
 20
42.35065351575793
 10
-175.6341111435635
 20
42.35065351575793
 97
        0
 72
     4
 94
        3
 73
     0
 74
     0
 95
        8
 96
        4
 40
5.171901562500001
 40
5.171901562500001
 40
5.171901562500001
 40
5.171901562500001
 40
5.250025
 40
5.250025
 40
5.250025
 40
5.250025
 10
-175.6341111435635
 20
42.35065351575793
 10
-175.6263741545013
 20
42.35065351575793
 10
-175.6194429513727
 20
42.35065351575793
 10
-175.6135693624285
 20
42.35065351575793
 97
        0
 72
     4
 94
        3
 73
     0
 74
     0
 95
        8
 96
        4
 40
5.093778124931468
 40
5.093778124931468
 40
5.093778124931468
 40
5.093778124931468
 40
5.171901562500001
 40
5.171901562500001
 40
5.171901562500001
 40
5.171901562500001
 10
-175.6135693624285
 20
42.35065351575793
 10
-175.6076957734792
 20
42.35065351575793
 10
-175.6028797987161
 20
42.35065351575793
 10
-175.5993732663908
 20
42.35065351575793
 97
        0
 72
     4
 94
        3
 73
     0
 74
     0
 95
       11
 96
        7
 40
4.999785849368517
 40
4.999785849368517
 40
4.999785849368517
 40
4.999785849368517
 40
5.000487222659533
 40
5.000487222659533
 40
5.000487222659533
 40
5.000701373291016
 40
5.000701373291016
 40
5.000701373291016
 40
5.000701373291016
 10
-175.592842089392
 20
42.35065351575797
 10
-175.5928418297625
 20
42.35065351575797
 10
-175.5928416998565
 20
42.35065351575797
 10
-175.5928416998565
 20
42.35065351575797
 10
-175.5928416998565
 20
42.35065351575797
 10
-175.592841690978
 20
42.3506534910773
 10
-175.5928416732245
 20
42.35065344172649
 97
        0
 72
     4
 94
        3
 73
     0
 74
     0
 95
        8
 96
        4
 40
4.781284374999999
 40
4.781284374999999
 40
4.781284374999999
 40
4.781284374999999
 40
4.937531249941964
 40
4.937531249941964
 40
4.937531249941964
 40
4.937531249941964
 10
-175.5906696009855
 20
42.34461554008459
 10
-175.5871263936065
 20
42.33476617261525
 10
-175.5794473015558
 20
42.31341992009723
 10
-175.5691092914621
 20
42.2846824375224
 97
        0
 72
     4
 94
        3
 73
     0
 74
     0
 95
        8
 96
        4
 40
4.6250375
 40
4.6250375
 40
4.6250375
 40
4.6250375
 40
4.781284375
 40
4.781284375
 40
4.781284375
 40
4.781284375
 10
-175.5691092914621
 20
42.2846824375224
 10
-175.5587712813644
 20
42.25594495493686
 10
-175.5457743532217
 20
42.21981624228898
 10
-175.531595473664
 20
42.18040195457527
 97
        0
 72
     4
 94
        3
 73
     0
 74
     0
 95
        8
 96
        4
 40
4.312543749999999
 40
4.312543749999999
 40
4.312543749999999
 40
4.312543749999999
 40
4.625037499999999
 40
4.625037499999999
 40
4.625037499999999
 40
4.625037499999999
 10
-175.531595473664
 20
42.18040195457527
 10
-175.5032377145484
 20
42.10157337914781
 10
-175.4701521497726
 20
42.0096025034569
 10
-175.4441545123769
 20
41.93733456747415
 97
        0
 72
     4
 94
        3
 73
     0
 74
     0
 95
       11
 96
        7
 40
3.0
 40
3.0
 40
3.0
 40
3.0
 40
3.312543749999999
 40
3.312543749999999
 40
3.312543749999999
 40
4.312543749999999
 40
4.312543749999999
 40
4.312543749999999
 40
4.312543749999999
 10
-175.4441545123769
 20
41.93733456747415
 10
-175.4181527152761
 20
41.86505506839043
 10
-175.3992411139191
 20
41.81248481458612
 10
-175.3992411139191
 20
41.81248481458612
 10
-175.3979698736847
 20
41.80622163099235
 10
-175.3602357428253
 20
41.67292744153921
 10
-175.357724268216
 20
41.65658735364861
 97
        0
 72
     4
 94
        3
 73
     0
 74
     0
 95
        8
 96
        4
 40
2.0
 40
2.0
 40
2.0
 40
2.0
 40
3.0
 40
3.0
 40
3.0
 40
3.0
 10
-175.357724268216
 20
41.65658735364861
 10
-175.3564840338409
 20
41.67292744153921
 10
-175.3187499029816
 20
41.80622163099235
 10
-175.3174786627472
 20
41.81375605482048
 97
        0
 72
     4
 94
        3
 73
     0
 74
     0
 95
       11
 96
        7
 40
0.5
 40
0.5
 40
0.5
 40
0.5
 40
1.5
 40
1.5
 40
1.5
 40
2.0
 40
2.0
 40
2.0
 40
2.0
 10
-175.3174786627472
 20
41.81375605482048
 10
-175.3174786627472
 20
41.81375605482048
 10
-175.1351642096222
 20
42.35065351575797
 10
-175.1351642096222
 20
42.35065351575797
 10
-175.1351642096222
 20
42.35065351575797
 10
-175.0722998297394
 20
42.35065351575797
 10
-175.0094354498566
 20
42.35065351575797
 97
        0
 97
        0
 92
       22
 72
     0
 73
     1
 93
        4
 10
-176.8373548834503
 20
42.35065351575797
 10
-176.8373548834503
 20
41.38246455091425
 10
-177.0888124029816
 20
41.38246455091425
 10
-177.0888124029815
 20
42.35065351575797
 97
        0
 92
       22
 72
     0
 73
     1
 93
        8
 10
-165.2186222174347
 20
41.38246455091425
 10
-164.8502105963409
 20
42.35065351575797
 10
-164.5673131354035
 20
42.35065351575797
 10
-164.2001727545441
 20
41.38246455091425
 10
-164.4554129889191
 20
41.38246455091425
 10
-164.5245560553253
 20
41.57234443372673
 10
-164.8942389166534
 20
41.57234443372673
 10
-164.9621417486847
 20
41.38246455091425
 97
        0
 92
        4
 93
        4
 72
     4
 94
        3
 73
     0
 74
     0
 95
       11
 96
        7
 40
0.5
 40
0.5
 40
0.5
 40
0.5
 40
1.0
 40
1.0
 40
1.0
 40
2.0
 40
2.0
 40
2.0
 40
2.0
 10
-164.7093974859894
 20
41.74207050794549
 10
-164.7716339972198
 20
41.74207050794549
 10
-164.8338705084503
 20
41.74207050794549
 10
-164.8338705084503
 20
41.74207050794549
 10
-164.8338705084503
 20
41.74207050794549
 10
-164.7458448736847
 20
41.99355903333608
 10
-164.7458448736847
 20
41.99355903333608
 97
        0
 72
     4
 94
        3
 73
     0
 74
     0
 95
        8
 96
        4
 40
2.0
 40
2.0
 40
2.0
 40
2.0
 40
3.0
 40
3.0
 40
3.0
 40
3.0
 10
-164.7458448736847
 20
41.99355903333608
 10
-164.7446046393097
 20
42.00614741224234
 10
-164.7106532232941
 20
42.09919599622671
 10
-164.7106532232941
 20
42.11677631849236
 97
        0
 72
     4
 94
        3
 73
     0
 74
     0
 95
       11
 96
        7
 40
3.0
 40
3.0
 40
3.0
 40
3.0
 40
4.0
 40
4.0
 40
4.0
 40
4.5
 40
4.5
 40
4.5
 40
4.5
 10
-164.7106532232941
 20
42.11677631849236
 10
-164.7093819830597
 20
42.09919599622671
 10
-164.6741903326691
 20
42.00487617200798
 10
-164.6729190924347
 20
41.99355903333608
 10
-164.6729190924347
 20
41.99355903333608
 10
-164.6509204352081
 20
41.93068690198843
 10
-164.6289217779816
 20
41.86781477064078
 97
        0
 72
     4
 94
        3
 73
     0
 74
     0
 95
       11
 96
        7
 40
4.5
 40
4.5
 40
4.5
 40
4.5
 40
5.0
 40
5.0
 40
5.0
 40
5.5
 40
5.5
 40
5.5
 40
5.5
 10
-164.6289217779816
 20
41.86781477064078
 10
-164.606923120755
 20
41.80494263929313
 10
-164.5849244635284
 20
41.74207050794549
 10
-164.5849244635284
 20
41.74207050794549
 10
-164.5849244635284
 20
41.74207050794549
 10
-164.6471609747589
 20
41.74207050794549
 10
-164.7093974859894
 20
41.74207050794549
 97
        0
 97
        0
 92
       22
 72
     0
 73
     1
 93
        6
 10
-178.0755428717315
 20
41.38246455091425
 10
-178.8852918951691
 20
41.38246455091425
 10
-178.8852918951691
 20
42.35065351575797
 10
-178.6338343756378
 20
42.35065351575797
 10
-178.6338343756378
 20
41.56856171888295
 10
-178.1396629889191
 20
41.56856171888295
 97
        0
 92
       22
 72
     0
 73
     1
 93
        8
 10
-163.3979891607941
 20
42.35065351575797
 10
-162.5392198736847
 20
42.35065351575797
 10
-162.5392198736847
 20
42.16833906263295
 10
-162.8460228522003
 20
42.16833906263295
 10
-162.8460228522003
 20
41.38246455091425
 10
-163.0962401373565
 20
41.38246455091425
 10
-163.0962401373565
 20
42.16833906263295
 10
-163.3979891607941
 20
42.16833906263295
 97
        0
 92
       22
 72
     0
 73
     1
 93
       12
 10
-161.5408622076689
 20
42.35065351575797
 10
-160.7286017096222
 20
42.35065351575797
 10
-160.7851874029816
 20
42.16961030286735
 10
-161.2969391119659
 20
42.16961030286735
 10
-161.2969391119659
 20
41.97845917982047
 10
-160.8329674322784
 20
41.97845917982047
 10
-160.8329674322784
 20
41.8024389161486
 10
-161.2969391119659
 20
41.8024389161486
 10
-161.2969391119659
 20
41.56605024427362
 10
-160.7676070807159
 20
41.56605024427362
 10
-160.7022157232941
 20
41.38246455091425
 10
-161.5408622076691
 20
41.38246455091425
 97
        0
 92
       20
 93
       33
 72
     4
 94
        3
 73
     0
 74
     0
 95
       11
 96
        7
 40
3.0
 40
3.0
 40
3.0
 40
3.0
 40
3.3750525
 40
3.3750525
 40
3.3750525
 40
4.3750525
 40
4.3750525
 40
4.3750525
 40
4.3750525
 10
-159.7126637213409
 20
42.04424099452333
 10
-159.7126637213409
 20
42.21446381746776
 10
-159.7126637213409
 20
42.35065351575797
 10
-159.7126637213409
 20
42.35065351575797
 10
-159.7088810064972
 20
42.35065351575797
 10
-159.1141576178253
 20
42.35065351575797
 10
-159.1103749029815
 20
42.35065351575797
 97
        0
 72
     4
 94
        3
 73
     0
 74
     0
 95
        8
 96
        4
 40
2.0
 40
2.0
 40
2.0
 40
2.0
 40
3.0
 40
3.0
 40
3.0
 40
3.0
 10
-159.1103749029815
 20
42.35065351575797
 10
-158.9117203619659
 20
42.35065351575797
 10
-158.7960375006378
 20
42.24628779310172
 10
-158.7960375006378
 20
42.07401923841422
 97
        0
 72
     4
 94
        3
 73
     0
 74
     0
 95
        8
 96
        4
 40
1.0
 40
1.0
 40
1.0
 40
1.0
 40
2.0
 40
2.0
 40
2.0
 40
2.0
 10
-158.7960375006378
 20
42.07401923841422
 10
-158.7960375006378
 20
41.93824458021111
 10
-158.8613978522003
 20
41.85400166028924
 10
-159.0072804205597
 20
41.82758466810173
 97
        0
 72
     4
 94
        3
 73
     0
 74
     0
 95
       11
 96
        7
 40
9.624947500000001
 40
9.624947500000001
 40
9.624947500000001
 40
9.624947500000001
 40
10.6249475
 40
10.6249475
 40
10.6249475
 40
11.0
 40
11.0
 40
11.0
 40
11.0
 10
-159.0072804205597
 20
41.82758466810173
 10
-159.0072804205597
 20
41.82758466810173
 10
-158.7934950201691
 20
41.38246455091425
 10
-158.7934950201691
 20
41.38246455091425
 10
-158.7934950201691
 20
41.38246455091425
 10
-158.8317010586313
 20
41.38246455091425
 10
-158.8794545950751
 20
41.38246455091425
 97
        0
 72
     4
 94
        3
 73
     0
 74
     0
 95
        8
 96
        4
 40
9.249954999999999
 40
9.249954999999999
 40
9.249954999999999
 40
9.249954999999999
 40
9.624947500000001
 40
9.624947500000001
 40
9.624947500000001
 40
9.624947500000001
 10
-158.8794545950751
 20
41.38246455091425
 10
-158.9272004920226
 20
41.38246455091425
 10
-158.9844908324242
 20
41.38246455091425
 10
-159.0226808277729
 20
41.38246455091425
 97
        0
 72
     4
 94
        3
 73
     0
 74
     0
 95
        8
 96
        4
 40
9.156206875000002
 40
9.156206875000002
 40
9.156206875000002
 40
9.156206875000002
 40
9.249955000000001
 40
9.249955000000001
 40
9.249955000000001
 40
9.249955000000001
 10
-159.0226808277729
 20
41.38246455091425
 10
-159.0322283266101
 20
41.38246455091425
 10
-159.0405820538815
 20
41.38246455091425
 10
-159.0472944347666
 20
41.38246455091425
 97
        0
 72
     4
 94
        3
 73
     0
 74
     0
 95
        8
 96
        4
 40
9.062458749999999
 40
9.062458749999999
 40
9.062458749999999
 40
9.062458749999999
 40
9.156206874999998
 40
9.156206874999998
 40
9.156206874999998
 40
9.156206874999998
 10
-159.0472944347666
 20
41.38246455091425
 10
-159.0540068156518
 20
41.38246455091425
 10
-159.0590778501507
 20
41.38246455091425
 10
-159.0620599634429
 20
41.38246455091425
 97
        0
 72
     4
 94
        3
 73
     0
 74
     0
 95
       11
 96
        7
 40
8.999654830322267
 40
8.999654830322267
 40
8.999654830322267
 40
8.999654830322267
 40
9.000225169677737
 40
9.000225169677737
 40
9.000225169677737
 40
9.000570339355469
 40
9.000570339355469
 40
9.000570339355469
 40
9.000570339355469
 10
-159.06510608334
 20
41.38246455091425
 10
-159.0651062599425
 20
41.38246455091425
 10
-159.0651063482941
 20
41.38246455091425
 10
-159.0651063482941
 20
41.38246455091425
 10
-159.0651063482941
 20
41.38246455091425
 10
-159.0651063722651
 20
41.38246460184853
 10
-159.0651064201906
 20
41.38246470368197
 97
        0
 72
     4
 94
        3
 73
     0
 74
     0
 95
        8
 96
        4
 40
8.874962499942807
 40
8.874962499942807
 40
8.874962499942807
 40
8.874962499942807
 40
8.921836562499999
 40
8.921836562499999
 40
8.921836562499999
 40
8.921836562499999
 10
-159.068601841981
 20
41.38989186898408
 10
-159.0699609116436
 20
41.3927796563949
 10
-159.0716929401869
 20
41.39645991676703
 10
-159.0737564847881
 20
41.40084459128702
 97
        0
 72
     4
 94
        3
 73
     0
 74
     0
 95
        8
 96
        4
 40
8.687466250000001
 40
8.687466250000001
 40
8.687466250000001
 40
8.687466250000001
 40
8.87496249994281
 40
8.87496249994281
 40
8.87496249994281
 40
8.87496249994281
 10
-159.0737564847881
 20
41.40084459128702
 10
-159.08201066318
 20
41.41838328934031
 10
-159.0955690984811
 20
41.44719261372502
 10
-159.1117794500459
 20
41.48163680040624
 97
        0
 72
     4
 94
        3
 73
     0
 74
     0
 95
        8
 96
        4
 40
8.499970000000001
 40
8.499970000000001
 40
8.499970000000001
 40
8.499970000000001
 40
8.687466249999999
 40
8.687466249999999
 40
8.687466249999999
 40
8.687466249999999
 10
-159.1117794500459
 20
41.48163680040624
 10
-159.1279898016155
 20
41.51608098709796
 10
-159.1468520694504
 20
41.55616003608961
 10
-159.1657139129022
 20
41.59623818334098
 97
        0
 72
     4
 94
        3
 73
     0
 74
     0
 95
        8
 96
        4
 40
8.312473749999998
 40
8.312473749999998
 40
8.312473749999998
 40
8.312473749999998
 40
8.499969999999999
 40
8.499969999999999
 40
8.499969999999999
 40
8.499969999999999
 10
-159.1657139129022
 20
41.59623818334098
 10
-159.1845757563541
 20
41.6363163305923
 10
-159.2034371754229
 20
41.67639357610338
 10
-159.2196458294606
 20
41.71083415583397
 97
        0
 72
     4
 94
        3
 73
     0
 74
     0
 95
        8
 96
        4
 40
8.124977500000001
 40
8.124977500000001
 40
8.124977500000001
 40
8.124977500000001
 40
8.312473750000002
 40
8.312473750000002
 40
8.312473750000002
 40
8.312473750000002
 10
-159.2196458294606
 20
41.71083415583397
 10
-159.2358544834984
 20
41.74527473556455
 10
-159.2494103725049
 20
41.7740786495147
 10
-159.2576611558321
 20
41.79161013364418
 97
        0
 72
     4
 94
        3
 73
     0
 74
     0
 95
        8
 96
        4
 40
8.031229374999998
 40
8.031229374999998
 40
8.031229374999998
 40
8.031229374999998
 40
8.078103437499999
 40
8.078103437499999
 40
8.078103437499999
 40
8.078103437499999
 10
-159.2628130931901
 20
41.80255710733681
 10
-159.2641712079893
 20
41.80544286582846
 10
-159.265156310861
 20
41.8075360386432
 10
-159.2657269589825
 20
41.80874856696788
 97
        0
 72
     4
 94
        3
 73
     0
 74
     0
 95
       11
 96
        7
 40
7.999735810358169
 40
7.999735810358169
 40
7.999735810358169
 40
7.999735810358169
 40
8.000936489069108
 40
8.000936489069108
 40
8.000936489069108
 40
8.001200678710937
 40
8.001200678710937
 40
8.001200678710937
 40
8.001200678710937
 10
-159.2663025003204
 20
41.80997149252902
 10
-159.2663030797269
 20
41.8099727236675
 10
-159.2663033697784
 20
41.8099733399767
 10
-159.2663033697784
 20
41.8099733399767
 10
-159.2663033697784
 20
41.8099733399767
 10
-159.2663033834685
 20
41.8099733399767
 10
-159.2663034108413
 20
41.8099733399767
 97
        0
 72
     4
 94
        3
 73
     0
 74
     0
 95
        8
 96
        4
 40
7.749984999941661
 40
7.749984999941661
 40
7.749984999941661
 40
7.749984999941661
 40
7.843733124999999
 40
7.843733124999999
 40
7.843733124999999
 40
7.843733124999999
 10
-159.2791754824959
 20
41.8099733399767
 10
-159.2840243193741
 20
41.8099733399767
 10
-159.2900582413147
 20
41.8099733399767
 10
-159.2969540338977
 20
41.8099733399767
 97
        0
 72
     4
 94
        3
 73
     0
 74
     0
 95
        8
 96
        4
 40
7.562488749999999
 40
7.562488749999999
 40
7.562488749999999
 40
7.562488749999999
 40
7.749984999941661
 40
7.749984999941661
 40
7.749984999941661
 40
7.749984999941661
 10
-159.2969540338977
 20
41.8099733399767
 10
-159.3107456190509
 20
41.8099733399767
 10
-159.3279846867672
 20
41.8099733399767
 10
-159.3460855216938
 20
41.8099733399767
 97
        0
 72
     4
 94
        3
 73
     0
 74
     0
 95
        8
 96
        4
 40
7.374992500000001
 40
7.374992500000001
 40
7.374992500000001
 40
7.374992500000001
 40
7.56248875
 40
7.56248875
 40
7.56248875
 40
7.56248875
 10
-159.3460855216938
 20
41.8099733399767
 10
-159.364186356626
 20
41.8099733399767
 10
-159.3831489587691
 20
41.8099733399767
 10
-159.4003876127677
 20
41.8099733399767
 97
        0
 72
     4
 94
        3
 73
     0
 74
     0
 95
        8
 96
        4
 40
7.281244375
 40
7.281244375
 40
7.281244375
 40
7.281244375
 40
7.374992500000001
 40
7.374992500000001
 40
7.374992500000001
 40
7.374992500000001
 10
-159.4003876127677
 20
41.8099733399767
 10
-159.4090069397671
 20
41.8099733399767
 10
-159.4171952797303
 20
41.8099733399767
 10
-159.424629418238
 20
41.8099733399767
 97
        0
 72
     4
 94
        3
 73
     0
 74
     0
 95
        8
 96
        4
 40
7.18749625
 40
7.18749625
 40
7.18749625
 40
7.18749625
 40
7.281244374999999
 40
7.281244374999999
 40
7.281244374999999
 40
7.281244374999999
 10
-159.424629418238
 20
41.8099733399767
 10
-159.4320635567457
 20
41.8099733399767
 10
-159.438743493798
 20
41.8099733399767
 10
-159.4443460149752
 20
41.8099733399767
 97
        0
 72
     4
 94
        3
 73
     0
 74
     0
 95
        8
 96
        4
 40
7.07031109375
 40
7.07031109375
 40
7.07031109375
 40
7.07031109375
 40
7.093748125000001
 40
7.093748125000001
 40
7.093748125000001
 40
7.093748125000001
 10
-159.4575981164629
 20
41.8099733399767
 10
-159.458379235215
 20
41.8099733399767
 10
-159.4590728145736
 20
41.8099733399767
 10
-159.4596738043135
 20
41.8099733399767
 97
        0
 72
     4
 94
        3
 73
     0
 74
     0
 95
        8
 96
        4
 40
6.250015000000001
 40
6.250015000000001
 40
6.250015000000001
 40
6.250015000000001
 40
6.999998124833791
 40
6.999998124833791
 40
6.999998124833791
 40
6.999998124833791
 10
-159.4624464361847
 20
41.8099733399722
 10
-159.4624464361847
 20
41.80997213752649
 10
-159.4624464361847
 20
41.56950896434987
 10
-159.4624464361847
 20
41.44927001356037
 97
        0
 72
     4
 94
        3
 73
     0
 74
     0
 95
        8
 96
        4
 40
6.156266875
 40
6.156266875
 40
6.156266875
 40
6.156266875
 40
6.250015000000001
 40
6.250015000000001
 40
6.250015000000001
 40
6.250015000000001
 10
-159.4624464361847
 20
41.44927001356037
 10
-159.4624464361847
 20
41.43424010713283
 10
-159.4624464361847
 20
41.42108871357364
 10
-159.4624464361847
 20
41.41052030338787
 97
        0
 72
     4
 94
        3
 73
     0
 74
     0
 95
        8
 96
        4
 40
6.06251875
 40
6.06251875
 40
6.06251875
 40
6.06251875
 40
6.156266875
 40
6.156266875
 40
6.156266875
 40
6.156266875
 10
-159.4624464361847
 20
41.41052030338787
 10
-159.4624464361847
 20
41.39995189320211
 10
-159.4624464361847
 20
41.39196646638971
 10
-159.4624464361847
 20
41.38726849345576
 97
        0
 72
     4
 94
        3
 73
     0
 74
     0
 95
       11
 96
        7
 40
5.999531706836369
 40
5.999531706836369
 40
5.999531706836369
 40
5.999531706836369
 40
6.000162046191837
 40
6.000162046191837
 40
6.000162046191837
 40
6.000630339355468
 40
6.000630339355468
 40
6.000630339355468
 40
6.000630339355468
 10
-159.4624464361847
 20
41.38246506028335
 10
-159.4624464361847
 20
41.38246472077531
 10
-159.4624464361847
 20
41.38246455091425
 10
-159.4624464361847
 20
41.38246455091425
 10
-159.4624464361847
 20
41.38246455091425
 10
-159.462446491057
 20
41.38246455091425
 10
-159.4624466007501
 20
41.38246455091425
 97
        0
 72
     4
 94
        3
 73
     0
 74
     0
 95
        8
 96
        4
 40
5.687526250000001
 40
5.687526250000001
 40
5.687526250000001
 40
5.687526250000001
 40
5.8750225
 40
5.8750225
 40
5.8750225
 40
5.8750225
 10
-159.4731942658267
 20
41.38246455091425
 10
-159.4834552954847
 20
41.38246455091425
 10
-159.5003139831535
 20
41.38246455091425
 10
-159.5204717637182
 20
41.38246455091425
 97
        0
 72
     4
 94
        3
 73
     0
 74
     0
 95
        8
 96
        4
 40
5.500029999999999
 40
5.500029999999999
 40
5.500029999999999
 40
5.500029999999999
 40
5.687526249999999
 40
5.687526249999999
 40
5.687526249999999
 40
5.687526249999999
 10
-159.5204717637182
 20
41.38246455091425
 10
-159.5406295442829
 20
41.38246455091425
 10
-159.5640864177434
 20
41.38246455091425
 10
-159.587543818985
 20
41.38246455091425
 97
        0
 72
     4
 94
        3
 73
     0
 74
     0
 95
        8
 96
        4
 40
5.31253375
 40
5.31253375
 40
5.31253375
 40
5.31253375
 40
5.50003
 40
5.50003
 40
5.50003
 40
5.50003
 10
-159.587543818985
 20
41.38246455091425
 10
-159.6110012202266
 20
41.38246455091425
 10
-159.6344591492491
 20
41.38246455091425
 10
-159.6546190409376
 20
41.38246455091425
 97
        0
 72
     4
 94
        3
 73
     0
 74
     0
 95
        8
 96
        4
 40
5.125037500000001
 40
5.125037500000001
 40
5.125037500000001
 40
5.125037500000001
 40
5.31253375
 40
5.31253375
 40
5.31253375
 40
5.31253375
 10
-159.6546190409376
 20
41.38246455091425
 10
-159.6747789326262
 20
41.38246455091425
 10
-159.6916407869809
 20
41.38246455091425
 10
-159.7019060388867
 20
41.38246455091425
 97
        0
 72
     4
 94
        3
 73
     0
 74
     0
 95
       11
 96
        7
 40
4.999795856250877
 40
4.999795856250877
 40
4.999795856250877
 40
4.999795856250877
 40
5.001056534961815
 40
5.001056534961815
 40
5.001056534961815
 40
5.001260678710938
 40
5.001260678710938
 40
5.001260678710938
 40
5.001260678710938
 10
-159.7126625293245
 20
41.38246455091425
 10
-159.7126633236679
 20
41.38246455091425
 10
-159.7126637213409
 20
41.38246455091425
 10
-159.7126637213409
 20
41.38246455091425
 10
-159.7126637213409
 20
41.38246455091425
 10
-159.7126637213409
 20
41.3824645912632
 10
-159.7126637213409
 20
41.38246467194465
 97
        0
 72
     4
 94
        3
 73
     0
 74
     0
 95
        8
 96
        4
 40
4.843793124999999
 40
4.843793124999999
 40
4.843793124999999
 40
4.843793124999999
 40
4.937541249999999
 40
4.937541249999999
 40
4.937541249999999
 40
4.937541249999999
 10
-159.7126637213409
 20
41.39332373052166
 10
-159.7126637213409
 20
41.40395380696734
 10
-159.7126637213409
 20
41.42203007674617
 10
-159.7126637213409
 20
41.44595710933975
 97
        0
 72
     4
 94
        3
 73
     0
 74
     0
 95
        8
 96
        4
 40
4.750044999984671
 40
4.750044999984671
 40
4.750044999984671
 40
4.750044999984671
 40
4.843793125
 40
4.843793125
 40
4.843793125
 40
4.843793125
 10
-159.7126637213409
 20
41.44595710933975
 10
-159.7126637213409
 20
41.46988414193717
 10
-159.7126637213409
 20
41.4996619373512
 10
-159.7126637213409
 20
41.53369506506249
 97
        0
 72
     4
 94
        3
 73
     0
 74
     0
 95
        8
 96
        4
 40
4.375052500000001
 40
4.375052500000001
 40
4.375052500000001
 40
4.375052500000001
 40
4.750044999984671
 40
4.750044999984671
 40
4.750044999984671
 40
4.750044999984671
 10
-159.7126637213409
 20
41.53369506506249
 10
-159.7126637213409
 20
41.66982757587972
 10
-159.7126637213409
 20
41.87404540342504
 10
-159.7126637213409
 20
42.04424099452333
 97
        0
 97
        0
 92
        4
 93
        4
 72
     4
 94
        3
 73
     0
 74
     0
 95
        8
 96
        4
 40
3.0
 40
3.0
 40
3.0
 40
3.0
 40
4.0
 40
4.0
 40
4.0
 40
4.0
 10
-159.4636866705597
 20
42.17212177747673
 10
-159.4611751959503
 20
42.17212177747673
 10
-159.2009120123566
 20
42.17212177747673
 10
-159.1984005377472
 20
42.17212177747673
 97
        0
 72
     4
 94
        3
 73
     0
 74
     0
 95
        8
 96
        4
 40
4.0
 40
4.0
 40
4.0
 40
4.0
 40
5.0
 40
5.0
 40
5.0
 40
5.0
 10
-159.1984005377472
 20
42.17212177747673
 10
-159.0977865240753
 20
42.17212177747673
 10
-159.0625948736847
 20
42.14068183607049
 10
-159.0625948736847
 20
42.07656171888298
 97
        0
 72
     4
 94
        3
 73
     0
 74
     0
 95
        8
 96
        4
 40
0.0
 40
0.0
 40
0.0
 40
0.0
 40
1.0
 40
1.0
 40
1.0
 40
1.0
 10
-159.0625948736847
 20
42.07656171888298
 10
-159.0625948736847
 20
42.01746455091421
 10
-159.0952750494659
 20
41.98224189466424
 10
-159.1921063482941
 20
41.98224189466424
 97
        0
 72
     4
 94
        3
 73
     0
 74
     0
 95
       11
 96
        7
 40
1.0
 40
1.0
 40
1.0
 40
1.0
 40
2.0
 40
2.0
 40
2.0
 40
3.0
 40
3.0
 40
3.0
 40
3.0
 10
-159.1921063482941
 20
41.98224189466424
 10
-159.1946178229034
 20
41.98224189466424
 10
-159.4636866705597
 20
41.98224189466424
 10
-159.4636866705597
 20
41.98224189466424
 10
-159.4636866705597
 20
41.98224189466424
 10
-159.4636866705597
 20
42.17212177747673
 10
-159.4636866705597
 20
42.17212177747673
 97
        0
 97
        0
 75
     0
 76
     1
 47
0.1544561530736211
 98
       14
 10
-171.1319097893089
 20
42.77257435511194
 10
-171.1319097893089
 20
42.77257435511194
 10
-171.1319097893089
 20
42.77257435511194
 10
-171.1319097893089
 20
42.77257435511194
 10
-171.1319097893089
 20
42.77257435511194
 10
-171.1319097893089
 20
42.77257435511194
 10
-171.1319097893089
 20
42.77257435511194
 10
-171.1319097893089
 20
42.77257435511194
 10
-171.1319097893089
 20
42.77257435511194
 10
-171.1319097893089
 20
42.77257435511194
 10
-171.1319097893089
 20
42.77257435511194
 10
-171.1319097893089
 20
42.77257435511194
 10
-171.1319097893089
 20
42.77257435511194
 10
-171.1319097893089
 20
42.77257435511194
450
        0
451
        0
460
0.0
461
0.0
452
        1
462
1.0
453
        2
463
0.0
 63
     5
421
      255
463
1.0
 63
     7
421
 16777215
470
LINEAR
1001
ACAD
1010
0.0
1020
0.0
1030
0.0
  0
ENDBLK
  5
479
330
3FF
100
AcDbEntity
  8
0
100
AcDbBlockEnd
  0
BLOCK
  5
7A7
330
7A6
100
AcDbEntity
  8
0
100
AcDbBlockBegin
  2
*D8
 70
     1
 10
0.0
 20
0.0
 30
0.0
  3
*D8
  1

  0
LINE
  5
AB7
330
7A6
100
AcDbEntity
  8
AM_5 ( Bemassung)
440
 16777216
100
AcDbLine
 10
1437.11864033941
 20
2124.719360733805
 30
0.0
 11
1437.11864033941
 21
2133.559417496465
 31
0.0
  0
LINE
  5
AB8
330
7A6
100
AcDbEntity
  8
AM_5 ( Bemassung)
440
 16777216
100
AcDbLine
 10
1484.92164033941
 20
2124.719360733805
 30
0.0
 11
1484.92164033941
 21
2133.559417496465
 31
0.0
  0
LINE
  5
AB9
330
7A6
100
AcDbEntity
  8
AM_5 ( Bemassung)
440
 16777216
100
AcDbLine
 10
1439.61864033941
 20
2132.559417496465
 30
0.0
 11
1482.42164033941
 21
2132.559417496465
 31
0.0
  0
SOLID
  5
ABA
330
7A6
100
AcDbEntity
  8
AM_5 ( Bemassung)
440
 16777216
100
AcDbTrace
 10
1439.61864033941
 20
2132.976084163132
 30
0.0
 11
1439.61864033941
 21
2132.142750829798
 31
0.0
 12
1437.11864033941
 22
2132.559417496465
 32
0.0
 13
1437.11864033941
 23
2132.559417496465
 33
0.0
  0
SOLID
  5
ABB
330
7A6
100
AcDbEntity
  8
AM_5 ( Bemassung)
440
 16777216
100
AcDbTrace
 10
1482.42164033941
 20
2132.976084163132
 30
0.0
 11
1482.42164033941
 21
2132.142750829798
 31
0.0
 12
1484.92164033941
 22
2132.559417496465
 32
0.0
 13
1484.92164033941
 23
2132.559417496465
 33
0.0
  0
MTEXT
  5
ABC
330
7A6
100
AcDbEntity
  8
AM_5 ( Bemassung)
 62
     6
440
 16777216
100
AcDbMText
 10
1461.02014033941
 20
2135.897753103559
 30
0.0
 40
3.5
 41
0.0
 46
0.0
 71
     5
 72
     1
  1
G 1 1/2
 73
     1
 44
1.0
  0
POINT
  5
ABD
330
7A6
100
AcDbEntity
  8
Defpoints
 62
     0
440
 16777216
100
AcDbPoint
 10
1437.11864033941
 20
2124.719360733805
 30
0.0
  0
POINT
  5
ABE
330
7A6
100
AcDbEntity
  8
Defpoints
 62
     0
440
 16777216
100
AcDbPoint
 10
1484.92164033941
 20
2124.719360733805
 30
0.0
  0
POINT
  5
ABF
330
7A6
100
AcDbEntity
  8
Defpoints
 62
     0
440
 16777216
100
AcDbPoint
 10
1484.92164033941
 20
2132.559417496465
 30
0.0
  0
ENDBLK
  5
7A8
330
7A6
100
AcDbEntity
  8
0
100
AcDbBlockEnd
  0
BLOCK
  5
7B3
330
7B2
100
AcDbEntity
  8
0
100
AcDbBlockBegin
  2
*D9
 70
     1
 10
0.0
 20
0.0
 30
0.0
  3
*D9
  1

  0
LINE
  5
9F2
330
7B2
100
AcDbEntity
  8
AM_5 ( Bemassung)
440
 16777216
100
AcDbLine
 10
1437.120140339411
 20
2050.162123668499
 30
0.0
 11
1437.120140339411
 21
2035.994632500481
 31
0.0
  0
LINE
  5
9F3
330
7B2
100
AcDbEntity
  8
AM_5 ( Bemassung)
440
 16777216
100
AcDbLine
 10
1484.920140339411
 20
2050.162123668499
 30
0.0
 11
1484.920140339411
 21
2035.994632500481
 31
0.0
  0
LINE
  5
9F4
330
7B2
100
AcDbEntity
  8
AM_5 ( Bemassung)
440
 16777216
100
AcDbLine
 10
1439.620140339411
 20
2036.994632500481
 30
0.0
 11
1482.420140339411
 21
2036.994632500481
 31
0.0
  0
SOLID
  5
9F5
330
7B2
100
AcDbEntity
  8
AM_5 ( Bemassung)
440
 16777216
100
AcDbTrace
 10
1439.620140339411
 20
2037.411299167148
 30
0.0
 11
1439.620140339411
 21
2036.577965833815
 31
0.0
 12
1437.120140339411
 22
2036.994632500481
 32
0.0
 13
1437.120140339411
 23
2036.994632500481
 33
0.0
  0
SOLID
  5
9F6
330
7B2
100
AcDbEntity
  8
AM_5 ( Bemassung)
440
 16777216
100
AcDbTrace
 10
1482.420140339411
 20
2037.411299167148
 30
0.0
 11
1482.420140339411
 21
2036.577965833815
 31
0.0
 12
1484.920140339411
 22
2036.994632500481
 32
0.0
 13
1484.920140339411
 23
2036.994632500481
 33
0.0
  0
MTEXT
  5
9F7
330
7B2
100
AcDbEntity
  8
AM_5 ( Bemassung)
 62
     6
440
 16777216
100
AcDbMText
 10
1461.020140339411
 20
2040.332968107575
 30
0.0
 40
3.5
 41
0.0
 46
0.0
 71
     5
 72
     1
  1
G 1 1/2
 73
     1
 44
1.0
  0
POINT
  5
9F8
330
7B2
100
AcDbEntity
  8
Defpoints
 62
     0
440
 16777216
100
AcDbPoint
 10
1437.120140339411
 20
2050.162123668499
 30
0.0
  0
POINT
  5
9F9
330
7B2
100
AcDbEntity
  8
Defpoints
 62
     0
440
 16777216
100
AcDbPoint
 10
1484.920140339411
 20
2050.162123668499
 30
0.0
  0
POINT
  5
9FA
330
7B2
100
AcDbEntity
  8
Defpoints
 62
     0
440
 16777216
100
AcDbPoint
 10
1484.920140339411
 20
2036.994632500481
 30
0.0
  0
ENDBLK
  5
7B4
330
7B2
100
AcDbEntity
  8
0
100
AcDbBlockEnd
  0
BLOCK
  5
89D
330
81D
100
AcDbEntity
  8
0
100
AcDbBlockBegin
  2
51168 jf 20 v
 70
     0
 10
0.0
 20
0.0
 30
0.0
  3
51168 jf 20 v
  1

  0
LINE
  5
81E
330
81D
100
AcDbEntity
  8
AM_0 ( Kontur 0.5 )
100
AcDbLine
 10
-63.48421365379
 20
-7.0
 30
0.0
 11
47.00000156191982
 21
-7.0
 31
0.0
  0
LINE
  5
81F
330
81D
100
AcDbEntity
  8
AM_0 ( Kontur 0.5 )
100
AcDbLine
 10
-31.05404451786035
 20
80.90960640933008
 30
0.0
 11
31.05404451786035
 21
80.90960640933008
 31
0.0
  0
ARC
  5
820
330
81D
100
AcDbEntity
  8
AM_0 ( Kontur 0.5 )
100
AcDbCircle
 10
31.05404451786035
 20
78.90960637929038
 30
0.0
 40
2.00000003003698
100
AcDbArc
 50
1.56935480475398
 51
90.0
  0
LINE
  5
821
330
81D
100
AcDbEntity
  8
AM_0 ( Kontur 0.5 )
100
AcDbLine
 10
-33.05329436031025
 20
78.96438034758012
 30
0.0
 11
-33.97335357827979
 21
45.38221889203032
 31
0.0
  0
LINE
  5
822
330
81D
100
AcDbEntity
  8
AM_0 ( Kontur 0.5 )
100
AcDbLine
 10
-64.00000192237076
 20
19.9096054931997
 30
0.0
 11
0.0
 21
19.9096054931997
 31
0.0
  0
LINE
  5
823
330
81D
100
AcDbEntity
  8
AM_2 ( Kontur 0.25)
100
AcDbLine
 10
29.80500044762903
 20
53.90960600383005
 30
0.0
 11
29.80500044762903
 21
80.90960640933008
 31
0.0
  0
LINE
  5
824
330
81D
100
AcDbEntity
  8
AM_2 ( Kontur 0.25)
100
AcDbLine
 10
-29.80500044762994
 20
53.90960600383005
 30
0.0
 11
-29.80500044762994
 21
80.90960640933008
 31
0.0
  0
LINE
  5
825
330
81D
100
AcDbEntity
  8
AM_0 ( Kontur 0.5 )
100
AcDbLine
 10
39.55551199374986
 20
42.46672531239982
 30
0.0
 11
39.97306118912002
 21
27.85248622303015
 31
0.0
  0
LINE
  5
826
330
81D
100
AcDbEntity
  8
AM_0 ( Kontur 0.5 )
100
AcDbLine
 10
-39.55551199374986
 20
42.46672531239982
 30
0.0
 11
-39.97306118912092
 21
27.85248622303015
 31
0.0
  0
LINE
  5
827
330
81D
100
AcDbEntity
  8
AM_0 ( Kontur 0.5 )
100
AcDbLine
 10
64.00000192236984
 20
23.40960562836972
 30
0.0
 11
64.00000192236984
 21
19.9096054931997
 31
0.0
  0
LINE
  5
828
330
81D
100
AcDbEntity
  8
AM_0 ( Kontur 0.5 )
100
AcDbLine
 10
-64.00000192237076
 20
23.40960562836972
 30
0.0
 11
-64.00000192237076
 21
19.9096054931997
 31
0.0
  0
LINE
  5
829
330
81D
100
AcDbEntity
  8
AM_0 ( Kontur 0.5 )
100
AcDbLine
 10
52.26578634621001
 20
19.90960549319925
 30
0.0
 11
64.00000192236984
 21
19.9096054931997
 31
0.0
  0
ARC
  5
82A
330
81D
100
AcDbEntity
  8
AM_0 ( Kontur 0.5 )
100
AcDbCircle
 10
-61.50000184727105
 20
23.40960562836972
 30
0.0
 40
2.500000075092459
100
AcDbArc
 50
90.0
 51
180.0
  0
LINE
  5
82B
330
81D
100
AcDbEntity
  8
AM_0 ( Kontur 0.5 )
100
AcDbLine
 10
-0.0000000000009095
 20
25.90960570345988
 30
0.0
 11
-61.50000184727105
 21
25.90960570346033
 31
0.0
  0
LINE
  5
82C
330
81D
100
AcDbEntity
  8
AM_0 ( Kontur 0.5 )
100
AcDbLine
 10
-0.0000000000009095
 20
44.40960586114989
 30
0.0
 11
-37.55632778888048
 21
44.40960586114989
 31
0.0
  0
LINE
  5
82D
330
81D
100
AcDbEntity
  8
AM_0 ( Kontur 0.5 )
100
AcDbLine
 10
-0.0000000000009095
 20
44.40960586114989
 30
0.0
 11
37.55632778887957
 21
44.40960586114989
 31
0.0
  0
LINE
  5
82E
330
81D
100
AcDbEntity
  8
AM_0 ( Kontur 0.5 )
100
AcDbLine
 10
-0.0000000000009095
 20
25.90960570345988
 30
0.0
 11
61.50000184727014
 21
25.90960570346033
 31
0.0
  0
ARC
  5
82F
330
81D
100
AcDbEntity
  8
AM_0 ( Kontur 0.5 )
100
AcDbCircle
 10
61.50000184727014
 20
23.40960562836972
 30
0.0
 40
2.500000075092459
100
AcDbArc
 50
0.0
 51
90.0
  0
LINE
  5
830
330
81D
100
AcDbEntity
  8
AM_7 (Mittellinie)
100
AcDbLine
 10
0.0
 20
83.08179430604969
 30
0.0
 11
0.0
 21
-8.892309882050085
 31
0.0
  0
LINE
  5
831
330
81D
100
AcDbEntity
  8
AM_3 ( Verdeckt )
100
AcDbLine
 10
28.33000042546883
 20
53.90960600382959
 30
0.0
 11
28.33000042546974
 21
79.40960638680008
 31
0.0
  0
LINE
  5
832
330
81D
100
AcDbEntity
  8
AM_3 ( Verdeckt )
100
AcDbLine
 10
-28.33000042547065
 20
53.90960600382959
 30
0.0
 11
-28.33000042547065
 21
79.40960638680008
 31
0.0
  0
LINE
  5
833
330
81D
100
AcDbEntity
  8
AM_0 ( Kontur 0.5 )
100
AcDbLine
 10
33.05329436032025
 20
78.96438034758012
 30
0.0
 11
33.97335357827888
 21
45.38221889203032
 31
0.0
  0
ARC
  5
834
330
81D
100
AcDbEntity
  8
AM_0 ( Kontur 0.5 )
100
AcDbCircle
 10
34.97297849949973
 20
45.40960587616973
 30
0.0
 40
1.00000001501849
100
AcDbArc
 50
181.569354804754
 51
270.0
  0
ARC
  5
835
330
81D
100
AcDbEntity
  8
AM_0 ( Kontur 0.5 )
100
AcDbCircle
 10
-34.97297849950064
 20
45.40960587616973
 30
0.0
 40
1.00000001501849
100
AcDbArc
 50
270.0
 51
358.4306451952461
  0
LINE
  5
836
330
81D
100
AcDbEntity
  8
AM_3 ( Verdeckt )
100
AcDbLine
 10
-28.33000042547065
 20
79.40960638680008
 30
0.0
 11
28.33000042546974
 21
79.40960638680008
 31
0.0
  0
LINE
  5
837
330
81D
100
AcDbEntity
  8
AM_3 ( Verdeckt )
100
AcDbLine
 10
28.33000042546974
 20
79.40960638680008
 30
0.0
 11
29.83000044799974
 21
80.90960640933008
 31
0.0
  0
LINE
  5
838
330
81D
100
AcDbEntity
  8
AM_3 ( Verdeckt )
100
AcDbLine
 10
-28.33000042547065
 20
79.40960638680008
 30
0.0
 11
-29.83000044799974
 21
80.90960640933008
 31
0.0
  0
ARC
  5
839
330
81D
100
AcDbEntity
  8
AM_0 ( Kontur 0.5 )
100
AcDbCircle
 10
-31.05404451786035
 20
78.90960637929038
 30
0.0
 40
2.00000003003698
100
AcDbArc
 50
90.0
 51
178.430645195246
  0
LINE
  5
83A
330
81D
100
AcDbEntity
  8
AM_0 ( Kontur 0.5 )
100
AcDbLine
 10
47.00000156191982
 20
19.90960550822001
 30
0.0
 11
46.50000139672011
 21
19.90960550822001
 31
0.0
  0
LINE
  5
83B
330
81D
100
AcDbEntity
  8
AM_3 ( Verdeckt )
100
AcDbLine
 10
-29.80500044762994
 20
53.90960600383005
 30
0.0
 11
29.80500044762903
 21
53.90960600383005
 31
0.0
  0
ARC
  5
83C
330
81D
100
AcDbEntity
  8
AM_0 ( Kontur 0.5 )
100
AcDbCircle
 10
-37.55632778888048
 20
42.40960583111973
 30
0.0
 40
2.00000003003698
100
AcDbArc
 50
90.0
 51
178.3634248892277
  0
ARC
  5
83D
330
81D
100
AcDbEntity
  8
AM_0 ( Kontur 0.5 )
100
AcDbCircle
 10
37.55632778887957
 20
42.40960583111973
 30
0.0
 40
2.00000003003698
100
AcDbArc
 50
1.636575110772304
 51
90.0
  0
LINE
  5
83E
330
81D
100
AcDbEntity
  8
AM_0 ( Kontur 0.5 )
100
AcDbLine
 10
63.51578634621001
 20
-7.0
 30
0.0
 11
63.51578634621001
 21
4.0
 31
0.0
  0
LINE
  5
83F
330
81D
100
AcDbEntity
  8
AM_0 ( Kontur 0.5 )
100
AcDbLine
 10
-63.48421365379
 20
-7.0
 30
0.0
 11
-63.48421365379
 21
4.0
 31
0.0
  0
LINE
  5
840
330
81D
100
AcDbEntity
  8
AM_0 ( Kontur 0.5 )
100
AcDbLine
 10
52.26578634621001
 20
6.0
 30
0.0
 11
61.51578634621
 21
6.0
 31
0.0
  0
LINE
  5
841
330
81D
100
AcDbEntity
  8
AM_0 ( Kontur 0.5 )
100
AcDbLine
 10
-61.48421365378999
 20
6.0
 30
0.0
 11
0.0
 21
6.0
 31
0.0
  0
LINE
  5
842
330
81D
100
AcDbEntity
  8
AM_7 (Mittellinie)
100
AcDbLine
 10
52.26578634621001
 20
-21.91124251254996
 30
0.0
 11
52.26578634621001
 21
39.01946181830999
 31
0.0
  0
LINE
  5
843
330
81D
100
AcDbEntity
  8
AM_3 ( Verdeckt )
100
AcDbLine
 10
43.01578634621001
 20
1.0
 30
0.0
 11
61.01578634621001
 21
1.0
 31
0.0
  0
LINE
  5
844
330
81D
100
AcDbEntity
  8
AM_3 ( Verdeckt )
100
AcDbLine
 10
-60.98421365379
 20
1.0
 30
0.0
 11
-42.98421365378999
 21
1.0
 31
0.0
  0
LINE
  5
845
330
81D
100
AcDbEntity
  8
AM_2 ( Kontur 0.25)
100
AcDbLine
 10
29.8227863462098
 20
0.0
 30
0.0
 11
29.8227863462098
 21
18.0
 31
0.0
  0
LINE
  5
846
330
81D
100
AcDbEntity
  8
AM_2 ( Kontur 0.25)
100
AcDbLine
 10
-29.79121365378978
 20
0.0
 30
0.0
 11
-29.79121365378978
 21
18.0
 31
0.0
  0
LINE
  5
847
330
81D
100
AcDbEntity
  8
AM_3 ( Verdeckt )
100
AcDbLine
 10
28.34378634621044
 20
1.479000000000269
 30
0.0
 11
28.34378634621044
 21
23.0
 31
0.0
  0
LINE
  5
848
330
81D
100
AcDbEntity
  8
AM_3 ( Verdeckt )
100
AcDbLine
 10
-28.31221365378951
 20
1.479000000000269
 30
0.0
 11
-28.31221365378951
 21
23.0
 31
0.0
  0
LINE
  5
849
330
81D
100
AcDbEntity
  8
AM_3 ( Verdeckt )
100
AcDbLine
 10
29.8227863462098
 20
18.0
 30
0.0
 11
-29.79121365378978
 21
18.0
 31
0.0
  0
ARC
  5
84A
330
81D
100
AcDbEntity
  8
AM_0 ( Kontur 0.5 )
100
AcDbCircle
 10
-61.51578634621
 20
4.0
 30
0.0
 40
2.0
210
0.0
220
0.0
230
-1.0
100
AcDbArc
 50
90.0
 51
180.0
  0
ARC
  5
84B
330
81D
100
AcDbEntity
  8
AM_0 ( Kontur 0.5 )
100
AcDbCircle
 10
61.48421365378999
 20
4.0
 30
0.0
 40
2.0
210
0.0
220
0.0
230
-1.0
100
AcDbArc
 50
0.0
 51
90.0
  0
LINE
  5
84C
330
81D
100
AcDbEntity
  8
AM_3 ( Verdeckt )
100
AcDbLine
 10
29.8227863462098
 20
0.0
 30
0.0
 11
28.34378634621044
 21
1.479000000000269
 31
0.0
  0
LINE
  5
84D
330
81D
100
AcDbEntity
  8
AM_3 ( Verdeckt )
100
AcDbLine
 10
28.34378634621044
 20
1.479000000000269
 30
0.0
 11
-28.31221365378951
 21
1.479000000000269
 31
0.0
  0
LINE
  5
84E
330
81D
100
AcDbEntity
  8
AM_3 ( Verdeckt )
100
AcDbLine
 10
-28.31221365378951
 20
1.479000000000269
 30
0.0
 11
-29.79121365378978
 21
0.0
 31
0.0
  0
LINE
  5
84F
330
81D
100
AcDbEntity
  8
AM_3 ( Verdeckt )
100
AcDbLine
 10
61.01578634621001
 20
-7.0
 30
0.0
 11
61.01578634621001
 21
1.0
 31
0.0
  0
LINE
  5
850
330
81D
100
AcDbEntity
  8
AM_3 ( Verdeckt )
100
AcDbLine
 10
-60.98421365379
 20
-7.0
 30
0.0
 11
-60.98421365379
 21
1.0
 31
0.0
  0
LINE
  5
851
330
81D
100
AcDbEntity
  8
AM_3 ( Verdeckt )
100
AcDbLine
 10
-37.98421365378999
 20
0.0
 30
0.0
 11
38.01578634621001
 21
0.0
 31
0.0
  0
LINE
  5
852
330
81D
100
AcDbEntity
  8
AM_3 ( Verdeckt )
100
AcDbLine
 10
-28.31221365378951
 20
23.0
 30
0.0
 11
28.34378634621044
 21
23.0
 31
0.0
  0
LINE
  5
853
330
81D
100
AcDbEntity
  8
AM_0 ( Kontur 0.5 )
100
AcDbLine
 10
-31.99847952664368
 20
19.90960549319925
 30
0.0
 11
-32.41680954937056
 21
7.930201006600327
 31
0.0
  0
ARC
  5
854
330
81D
100
AcDbEntity
  8
AM_0 ( Kontur 0.5 )
100
AcDbCircle
 10
34.41559120341026
 20
8.0
 30
0.0
 40
2.0
210
0.0
220
0.0
230
-1.0
100
AcDbArc
 50
182.0000000000039
 51
270.0
  0
LINE
  5
855
330
81D
100
AcDbEntity
  8
AM_3 ( Verdeckt )
100
AcDbLine
 10
38.01578634621001
 20
0.0
 30
0.0
 11
38.54105124813941
 21
-6.003805301909778
 31
0.0
  0
LINE
  5
856
330
81D
100
AcDbEntity
  8
AM_3 ( Verdeckt )
100
AcDbLine
 10
-37.98421365378999
 20
0.0
 30
0.0
 11
-38.50947855573031
 21
-6.003805301909778
 31
0.0
  0
LINE
  5
857
330
81D
100
AcDbEntity
  8
AM_3 ( Verdeckt )
100
AcDbLine
 10
-38.50947855573031
 20
-6.003805301909778
 30
0.0
 11
-39.69669716610042
 21
-7.0
 31
0.0
  0
LINE
  5
858
330
81D
100
AcDbEntity
  8
AM_3 ( Verdeckt )
100
AcDbLine
 10
38.54105124813941
 20
-6.003805301909778
 30
0.0
 11
39.72826985851952
 21
-7.0
 31
0.0
  0
LINE
  5
859
330
81D
100
AcDbEntity
  8
AM_3 ( Verdeckt )
100
AcDbLine
 10
-38.50947855573031
 20
-6.003805301909778
 30
0.0
 11
38.54105124813941
 21
-6.003805301909778
 31
0.0
  0
LINE
  5
85A
330
81D
100
AcDbEntity
  8
AM_3 ( Verdeckt )
100
AcDbLine
 10
43.01578634621001
 20
-7.0
 30
0.0
 11
43.01578634621001
 21
1.0
 31
0.0
  0
LINE
  5
85B
330
81D
100
AcDbEntity
  8
AM_3 ( Verdeckt )
100
AcDbLine
 10
-42.98421365378999
 20
-7.0
 30
0.0
 11
-42.98421365378999
 21
1.0
 31
0.0
  0
ARC
  5
85C
330
81D
100
AcDbEntity
  8
AM_0 ( Kontur 0.5 )
100
AcDbCircle
 10
34.44716389582027
 20
8.0
 30
0.0
 40
2.0
100
AcDbArc
 50
182.0000000000039
 51
270.0
  0
LINE
  5
85D
330
81D
100
AcDbEntity
  8
AM_0 ( Kontur 0.5 )
100
AcDbLine
 10
32.03005221905824
 20
19.90960549320016
 30
0.0
 11
32.44838224177966
 21
7.930201006600327
 31
0.0
  0
LINE
  5
85E
330
81D
100
AcDbEntity
  8
AM_7 (Mittellinie)
100
AcDbLine
 10
-51.73421365378999
 20
-10.0
 30
0.0
 11
-51.73421365378999
 21
4.0
 31
0.0
  0
LINE
  5
85F
330
81D
100
AcDbEntity
  8
AM_0 ( Kontur 0.5 )
100
AcDbLine
 10
57.00000156191982
 20
-18.17024179653981
 30
0.0
 11
56.07984906191996
 21
-19.09039429653967
 31
0.0
  0
LINE
  5
860
330
81D
100
AcDbEntity
  8
AM_0 ( Kontur 0.5 )
100
AcDbLine
 10
56.07984906191996
 20
-19.09039429653967
 30
0.0
 11
47.92015406191967
 21
-19.09039429653967
 31
0.0
  0
LINE
  5
861
330
81D
100
AcDbEntity
  8
AM_0 ( Kontur 0.5 )
100
AcDbLine
 10
47.92015406191967
 20
-19.09039429653967
 30
0.0
 11
47.00000156191982
 21
-18.17024179653981
 31
0.0
  0
LINE
  5
862
330
81D
100
AcDbEntity
  8
AM_3 ( Verdeckt )
100
AcDbLine
 10
47.00000156191982
 20
-18.17024179653981
 30
0.0
 11
57.00000156191982
 21
-18.17024179653981
 31
0.0
  0
LINE
  5
863
330
81D
100
AcDbEntity
  8
AM_3 ( Verdeckt )
100
AcDbLine
 10
47.92015406191967
 20
-18.17024179653981
 30
0.0
 11
47.92015406191967
 21
-19.09039429653967
 31
0.0
  0
LINE
  5
864
330
81D
100
AcDbEntity
  8
AM_3 ( Verdeckt )
100
AcDbLine
 10
56.07984906191996
 20
-18.17024179653981
 30
0.0
 11
56.07984906191996
 21
-19.09039429653967
 31
0.0
  0
LINE
  5
865
330
81D
100
AcDbEntity
  8
AM_0 ( Kontur 0.5 )
100
AcDbLine
 10
57.00000156191982
 20
-18.17024179653981
 30
0.0
 11
47.00000156191982
 21
-18.17024179653981
 31
0.0
  0
LINE
  5
866
330
81D
100
AcDbEntity
  8
AM_0 ( Kontur 0.5 )
100
AcDbLine
 10
57.00000156191982
 20
-6.999999879849838
 30
0.0
 11
57.00000156191982
 21
-18.17024179653981
 31
0.0
  0
LINE
  5
867
330
81D
100
AcDbEntity
  8
AM_0 ( Kontur 0.5 )
100
AcDbLine
 10
47.00000156191982
 20
-6.999999879849838
 30
0.0
 11
47.00000156191982
 21
-18.17024179653981
 31
0.0
  0
LINE
  5
868
330
81D
100
AcDbEntity
  8
AM_2 ( Kontur 0.25)
100
AcDbLine
 10
47.92015406191967
 20
-6.999999879849838
 30
0.0
 11
47.92015406191967
 21
-18.17024179653981
 31
0.0
  0
LINE
  5
869
330
81D
100
AcDbEntity
  8
AM_2 ( Kontur 0.25)
100
AcDbLine
 10
56.07984906191996
 20
-6.999999879849838
 30
0.0
 11
56.07984906191996
 21
-18.17024179653981
 31
0.0
  0
LINE
  5
86A
330
81D
100
AcDbEntity
  8
AM_0 ( Kontur 0.5 )
100
AcDbLine
 10
44.00000156191981
 20
34.90960570346033
 30
0.0
 11
44.00000156191981
 21
25.90960570346033
 31
0.0
  0
LINE
  5
86B
330
81D
100
AcDbEntity
  8
AM_0 ( Kontur 0.5 )
100
AcDbLine
 10
60.00000156191982
 20
25.90960570346033
 30
0.0
 11
60.00000156191982
 21
34.90960570346033
 31
0.0
  0
LINE
  5
86C
330
81D
100
AcDbEntity
  8
AM_0 ( Kontur 0.5 )
100
AcDbLine
 10
59.00000156191982
 20
35.90960570346033
 30
0.0
 11
45.00000156191982
 21
35.90960570346033
 31
0.0
  0
ARC
  5
86D
330
81D
100
AcDbEntity
  8
AM_0 ( Kontur 0.5 )
100
AcDbCircle
 10
45.00000156191982
 20
34.90960570346033
 30
0.0
 40
0.9999999999999989
100
AcDbArc
 50
90.0
 51
180.0
  0
ARC
  5
86E
330
81D
100
AcDbEntity
  8
AM_0 ( Kontur 0.5 )
100
AcDbCircle
 10
59.00000156191982
 20
34.90960570346033
 30
0.0
 40
0.9999999999999989
100
AcDbArc
 50
0.0
 51
90.0
  0
LINE
  5
86F
330
81D
100
AcDbEntity
  8
AM_3 ( Verdeckt )
100
AcDbLine
 10
49.69060048515984
 20
35.90960570346033
 30
0.0
 11
49.69060048515984
 21
30.90960570346033
 31
0.0
  0
LINE
  5
870
330
81D
100
AcDbEntity
  8
AM_3 ( Verdeckt )
100
AcDbLine
 10
54.30940263867978
 20
35.90960570346033
 30
0.0
 11
54.30940263867978
 21
30.90960570346033
 31
0.0
  0
ARC
  5
871
330
81D
100
AcDbEntity
  8
AM_3 ( Verdeckt )
100
AcDbCircle
 10
55.46410317705976
 20
36.67755489589036
 30
0.0
 40
1.386751345948129
100
AcDbArc
 50
213.6264291359647
 51
326.3735708640353
  0
ARC
  5
872
330
81D
100
AcDbEntity
  8
AM_3 ( Verdeckt )
100
AcDbCircle
 10
52.00000156191982
 20
39.90960570346033
 30
0.0
 40
4.618802153517009
100
AcDbArc
 50
240.0000000000027
 51
299.9999999999973
  0
ARC
  5
873
330
81D
100
AcDbEntity
  8
AM_3 ( Verdeckt )
100
AcDbCircle
 10
48.53589994677986
 20
36.67755489589036
 30
0.0
 40
1.386751345948129
100
AcDbArc
 50
213.6264291359647
 51
326.3735708640353
  0
LINE
  5
874
330
81D
100
AcDbEntity
  8
AM_3 ( Verdeckt )
100
AcDbLine
 10
47.38119940840988
 20
35.90960570346033
 30
0.0
 11
47.38119940840988
 21
30.90960570346033
 31
0.0
  0
LINE
  5
875
330
81D
100
AcDbEntity
  8
AM_3 ( Verdeckt )
100
AcDbLine
 10
56.61880371543884
 20
30.90960570346033
 30
0.0
 11
47.38119940840988
 21
30.90960570346033
 31
0.0
  0
LINE
  5
876
330
81D
100
AcDbEntity
  8
AM_3 ( Verdeckt )
100
AcDbLine
 10
56.61880371543884
 20
35.90960570346033
 30
0.0
 11
56.61880371543884
 21
30.90960570346033
 31
0.0
  0
LINE
  5
877
330
81D
100
AcDbEntity
  8
AM_7 (Mittellinie)
100
AcDbLine
 10
52.26578634621001
 20
5.876273389849757
 30
0.0
 11
52.26578634621001
 21
-9.441014214719871
 31
0.0
  0
LINE
  5
878
330
81D
100
AcDbEntity
  8
AM_0 ( Kontur 0.5 )
100
AcDbLine
 10
52.26578634621001
 20
-6.030486857199775
 30
0.0
 11
52.26578634621001
 21
0.0304869773499377
 31
0.0
  0
ARC
  5
879
330
81D
100
AcDbEntity
  8
AM_3 ( Verdeckt )
100
AcDbCircle
 10
-48.01578641003925
 20
2.799999972969999
 30
0.0
 40
9.799999852818769
210
0.0
220
0.0
230
-1.0
100
AcDbArc
 50
244.2990853262329
 51
295.7009146737671
  0
ARC
  5
87A
330
81D
100
AcDbEntity
  8
AM_3 ( Verdeckt )
100
AcDbCircle
 10
56.51578628237984
 20
2.799999972969999
 30
0.0
 40
9.799999852818769
100
AcDbArc
 50
244.2990853262329
 51
295.7009146737671
  0
ARC
  5
87B
330
81D
100
AcDbEntity
  8
AM_3 ( Verdeckt )
100
AcDbCircle
 10
48.01578641003925
 20
-8.799999852819837
 30
0.0
 40
9.799999852818769
100
AcDbArc
 50
64.29908532623288
 51
115.7009146737671
  0
LINE
  5
87C
330
81D
100
AcDbEntity
  8
AM_3 ( Verdeckt )
100
AcDbLine
 10
60.76578621854969
 20
0.0304869773499377
 30
0.0
 11
60.76578621854969
 21
-6.030486857199775
 31
0.0
  0
ARC
  5
87D
330
81D
100
AcDbEntity
  8
AM_3 ( Verdeckt )
100
AcDbCircle
 10
-56.51578628237984
 20
-8.799999852819837
 30
0.0
 40
9.799999852818769
210
0.0
220
0.0
230
-1.0
100
AcDbArc
 50
64.29908532623288
 51
115.7009146737671
  0
LINE
  5
87E
330
81D
100
AcDbEntity
  8
AM_3 ( Verdeckt )
100
AcDbLine
 10
43.76578647387032
 20
0.0304869773499377
 30
0.0
 11
43.76578647387032
 21
-6.030486857199775
 31
0.0
  0
LINE
  5
87F
330
81D
100
AcDbEntity
  8
AM_2 ( Kontur 0.25)
100
AcDbLine
 10
56.07984906191996
 20
19.9096054931997
 30
0.0
 11
56.07984906191996
 21
6.0
 31
0.0
  0
LINE
  5
880
330
81D
100
AcDbEntity
  8
AM_0 ( Kontur 0.5 )
100
AcDbLine
 10
57.00000156191982
 20
19.9096054931997
 30
0.0
 11
57.00000156191982
 21
6.0
 31
0.0
  0
LINE
  5
881
330
81D
100
AcDbEntity
  8
AM_2 ( Kontur 0.25)
100
AcDbLine
 10
47.92015406191876
 20
19.9096054931997
 30
0.0
 11
47.92015406191967
 21
6.0
 31
0.0
  0
LINE
  5
882
330
81D
100
AcDbEntity
  8
AM_0 ( Kontur 0.5 )
100
AcDbLine
 10
47.00000156191982
 20
19.9096054931997
 30
0.0
 11
47.00000156192072
 21
6.0
 31
0.0
  0
LINE
  5
883
330
81D
100
AcDbEntity
  8
AM_0 ( Kontur 0.5 )
100
AcDbLine
 10
-0.0000000000009095
 20
6.0
 30
0.0
 11
52.26578634621001
 21
6.0
 31
0.0
  0
LINE
  5
884
330
81D
100
AcDbEntity
  8
AM_0 ( Kontur 0.5 )
100
AcDbLine
 10
0.0000000000009095
 20
19.9096054931997
 30
0.0
 11
52.26578634621001
 21
19.9096054931997
 31
0.0
  0
LINE
  5
885
330
81D
100
AcDbEntity
  8
AM_0 ( Kontur 0.5 )
100
AcDbLine
 10
57.00000156191982
 20
-7.0
 30
0.0
 11
63.51578634621001
 21
-7.0
 31
0.0
  0
LINE
  5
886
330
81D
100
AcDbEntity
  8
AM_0 ( Kontur 0.5 )
100
AcDbLine
 10
57.50000172712953
 20
19.90960550822001
 30
0.0
 11
57.00000156191982
 21
19.90960550822001
 31
0.0
  0
LINE
  5
887
330
81D
100
AcDbEntity
  8
AM_0 ( Kontur 0.5 )
100
AcDbLine
 10
48.01578641003925
 20
-6.999999879849838
 30
0.0
 11
56.51578628237984
 21
-6.999999879849838
 31
0.0
  0
ARC
  5
888
330
81D
100
AcDbEntity
  8
AM_0 ( Kontur 0.5 )
100
AcDbCircle
 10
-41.97224536397061
 20
27.90960570346033
 30
0.0
 40
2.0
100
AcDbArc
 50
270.0
 51
358.3634248892276
  0
ARC
  5
889
330
81D
100
AcDbEntity
  8
AM_0 ( Kontur 0.5 )
100
AcDbCircle
 10
41.9722453639697
 20
27.90960570346033
 30
0.0
 40
2.0
100
AcDbArc
 50
181.6365751107723
 51
270.0
  0
LINE
  5
88A
330
81D
100
AcDbEntity
  8
AM_2 ( Kontur 0.25)
100
AcDbLine
 10
-22.18593806524041
 20
-6.999999879849838
 30
0.0
 11
-22.18593806524041
 21
-18.17024179653981
 31
0.0
  0
LINE
  5
88B
330
81D
100
AcDbEntity
  8
AM_0 ( Kontur 0.5 )
100
AcDbLine
 10
-31.26578556523964
 20
-6.999999879849838
 30
0.0
 11
-31.26578556523964
 21
-18.17024179653981
 31
0.0
  0
LINE
  5
88C
330
81D
100
AcDbEntity
  8
AM_0 ( Kontur 0.5 )
100
AcDbLine
 10
-21.26578556523964
 20
-6.999999879849838
 30
0.0
 11
-21.26578556523964
 21
-18.17024179653981
 31
0.0
  0
LINE
  5
88D
330
81D
100
AcDbEntity
  8
AM_7 (Mittellinie)
100
AcDbLine
 10
-26.00000078096036
 20
-21.91124251254996
 30
0.0
 11
-26.00000078096036
 21
-1.394109030809886
 31
0.0
  0
LINE
  5
88E
330
81D
100
AcDbEntity
  8
AM_2 ( Kontur 0.25)
100
AcDbLine
 10
-30.34563306523978
 20
-6.999999879849838
 30
0.0
 11
-30.34563306523978
 21
-18.17024179653981
 31
0.0
  0
LINE
  5
88F
330
81D
100
AcDbEntity
  8
AM_3 ( Verdeckt )
100
AcDbLine
 10
-30.34563306523978
 20
-18.17024179653981
 30
0.0
 11
-30.34563306523978
 21
-19.09039429653967
 31
0.0
  0
LINE
  5
890
330
81D
100
AcDbEntity
  8
AM_3 ( Verdeckt )
100
AcDbLine
 10
-22.18593806524041
 20
-18.17024179653981
 30
0.0
 11
-22.18593806524041
 21
-19.09039429653967
 31
0.0
  0
LINE
  5
891
330
81D
100
AcDbEntity
  8
AM_3 ( Verdeckt )
100
AcDbLine
 10
-31.26578556523964
 20
-18.17024179653981
 30
0.0
 11
-21.26578556523964
 21
-18.17024179653981
 31
0.0
  0
LINE
  5
892
330
81D
100
AcDbEntity
  8
AM_0 ( Kontur 0.5 )
100
AcDbLine
 10
-21.26578556523964
 20
-18.17024179653981
 30
0.0
 11
-31.26578556523964
 21
-18.17024179653981
 31
0.0
  0
LINE
  5
893
330
81D
100
AcDbEntity
  8
AM_0 ( Kontur 0.5 )
100
AcDbLine
 10
-22.18593806524041
 20
-19.09039429653967
 30
0.0
 11
-30.34563306523978
 21
-19.09039429653967
 31
0.0
  0
LINE
  5
894
330
81D
100
AcDbEntity
  8
AM_0 ( Kontur 0.5 )
100
AcDbLine
 10
-30.34563306523978
 20
-19.09039429653967
 30
0.0
 11
-31.26578556523964
 21
-18.17024179653981
 31
0.0
  0
LINE
  5
895
330
81D
100
AcDbEntity
  8
AM_0 ( Kontur 0.5 )
100
AcDbLine
 10
-21.26578556523964
 20
-18.17024179653981
 30
0.0
 11
-22.18593806524041
 21
-19.09039429653967
 31
0.0
  0
LINE
  5
896
330
81D
100
AcDbEntity
  8
AM_2 ( Kontur 0.25)
100
AcDbLine
 10
-33.05329436030934
 20
78.96438034757739
 30
0.0
 11
33.05329436032025
 21
78.96438034758012
 31
0.0
  0
LINE
  5
897
330
81D
100
AcDbEntity
  8
AM_2 ( Kontur 0.25)
100
AcDbLine
 10
-39.55551199374986
 20
42.46672531239982
 30
0.0
 11
39.55551199374986
 21
42.46672531239982
 31
0.0
  0
LINE
  5
898
330
81D
100
AcDbEntity
  8
AM_2 ( Kontur 0.25)
100
AcDbLine
 10
-64.00000192237166
 20
23.40960562836972
 30
0.0
 11
64.00000192236984
 21
23.40960562836972
 31
0.0
  0
LINE
  5
899
330
81D
100
AcDbEntity
  8
AM_2 ( Kontur 0.25)
100
AcDbLine
 10
63.51578634621001
 20
4.0
 30
0.0
 11
-63.48421365379
 21
4.0
 31
0.0
  0
LINE
  5
89A
330
81D
100
AcDbEntity
  8
AM_2 ( Kontur 0.25)
100
AcDbLine
 10
-32.41680954937056
 20
7.930201006600327
 30
0.0
 11
32.44838224178238
 21
7.93020100659487
 31
0.0
  0
ENDBLK
  5
89E
330
81D
100
AcDbEntity
  8
0
100
AcDbBlockEnd
  0
BLOCK
  5
8BD
330
8BC
100
AcDbEntity
  8
0
100
AcDbBlockBegin
  2
*D12
 70
     1
 10
0.0
 20
0.0
 30
0.0
  3
*D12
  1

  0
LINE
  5
AC8
330
8BC
100
AcDbEntity
  8
AM_5 ( Bemassung)
440
 16777216
100
AcDbLine
 10
1511.52014033941
 20
2050.162123668499
 30
0.0
 11
1518.394766808432
 21
2050.162123668499
 31
0.0
  0
LINE
  5
AC9
330
8BC
100
AcDbEntity
  8
AM_5 ( Bemassung)
440
 16777216
100
AcDbLine
 10
1484.92164033941
 20
2124.719360733805
 30
0.0
 11
1518.394766808432
 21
2124.719360733805
 31
0.0
  0
LINE
  5
ACA
330
8BC
100
AcDbEntity
  8
AM_5 ( Bemassung)
440
 16777216
100
AcDbLine
 10
1517.394766808432
 20
2052.662123668499
 30
0.0
 11
1517.394766808432
 21
2122.219360733805
 31
0.0
  0
SOLID
  5
ACB
330
8BC
100
AcDbEntity
  8
AM_5 ( Bemassung)
440
 16777216
100
AcDbTrace
 10
1516.978100141765
 20
2052.662123668499
 30
0.0
 11
1517.811433475099
 21
2052.662123668499
 31
0.0
 12
1517.394766808432
 22
2050.162123668499
 32
0.0
 13
1517.394766808432
 23
2050.162123668499
 33
0.0
  0
SOLID
  5
ACC
330
8BC
100
AcDbEntity
  8
AM_5 ( Bemassung)
440
 16777216
100
AcDbTrace
 10
1516.978100141765
 20
2122.219360733805
 30
0.0
 11
1517.811433475099
 21
2122.219360733805
 31
0.0
 12
1517.394766808432
 22
2124.719360733805
 32
0.0
 13
1517.394766808432
 23
2124.719360733805
 33
0.0
  0
MTEXT
  5
ACD
330
8BC
100
AcDbEntity
  8
AM_5 ( Bemassung)
 62
     6
440
 16777216
100
AcDbMText
 10
1514.114923697927
 20
2083.155600593991
 30
0.0
 40
3.5
 41
0.0
 46
0.0
 71
     5
 72
     1
  1
75
 11
0.0000000000000001
 21
1.0
 31
0.0
 73
     1
 44
1.0
  0
POINT
  5
ACE
330
8BC
100
AcDbEntity
  8
Defpoints
 62
     0
440
 16777216
100
AcDbPoint
 10
1511.52014033941
 20
2050.162123668499
 30
0.0
  0
POINT
  5
ACF
330
8BC
100
AcDbEntity
  8
Defpoints
 62
     0
440
 16777216
100
AcDbPoint
 10
1484.92164033941
 20
2124.719360733805
 30
0.0
  0
POINT
  5
AD0
330
8BC
100
AcDbEntity
  8
Defpoints
 62
     0
440
 16777216
100
AcDbPoint
 10
1517.394766808432
 20
2124.719360733805
 30
0.0
  0
ENDBLK
  5
8BE
330
8BC
100
AcDbEntity
  8
0
100
AcDbBlockEnd
  0
BLOCK
  5
99D
330
99C
100
AcDbEntity
  8
0
100
AcDbBlockBegin
  2
*D13
 70
     1
 10
0.0
 20
0.0
 30
0.0
  3
*D13
  1

  0
LINE
  5
9E9
330
99C
100
AcDbEntity
  8
AM_5 ( Bemassung)
440
 16777216
100
AcDbLine
 10
1511.52014033941
 20
2050.162123668499
 30
0.0
 11
1511.52014033941
 21
2021.84495731401
 31
0.0
  0
LINE
  5
9EA
330
99C
100
AcDbEntity
  8
AM_5 ( Bemassung)
440
 16777216
100
AcDbLine
 10
1410.520140339411
 20
2054.162123668499
 30
0.0
 11
1410.520140339411
 21
2021.84495731401
 31
0.0
  0
LINE
  5
9EB
330
99C
100
AcDbEntity
  8
AM_5 ( Bemassung)
440
 16777216
100
AcDbLine
 10
1509.02014033941
 20
2022.84495731401
 30
0.0
 11
1413.020140339411
 21
2022.84495731401
 31
0.0
  0
SOLID
  5
9EC
330
99C
100
AcDbEntity
  8
AM_5 ( Bemassung)
440
 16777216
100
AcDbTrace
 10
1509.02014033941
 20
2023.261623980677
 30
0.0
 11
1509.02014033941
 21
2022.428290647344
 31
0.0
 12
1511.52014033941
 22
2022.84495731401
 32
0.0
 13
1511.52014033941
 23
2022.84495731401
 33
0.0
  0
SOLID
  5
9ED
330
99C
100
AcDbEntity
  8
AM_5 ( Bemassung)
440
 16777216
100
AcDbTrace
 10
1413.020140339411
 20
2023.261623980677
 30
0.0
 11
1413.020140339411
 21
2022.428290647344
 31
0.0
 12
1410.520140339411
 22
2022.84495731401
 32
0.0
 13
1410.520140339411
 23
2022.84495731401
 33
0.0
  0
MTEXT
  5
9EE
330
99C
100
AcDbEntity
  8
AM_5 ( Bemassung)
 62
     6
440
 16777216
100
AcDbMText
 10
1461.02014033941
 20
2026.159418432701
 30
0.0
 40
3.5
 41
0.0
 46
0.0
 71
     5
 72
     1
  1
%%c101
 73
     1
 44
1.0
  0
POINT
  5
9EF
330
99C
100
AcDbEntity
  8
Defpoints
 62
     0
440
 16777216
100
AcDbPoint
 10
1511.52014033941
 20
2050.162123668499
 30
0.0
  0
POINT
  5
9F0
330
99C
100
AcDbEntity
  8
Defpoints
 62
     0
440
 16777216
100
AcDbPoint
 10
1410.520140339411
 20
2054.162123668499
 30
0.0
  0
POINT
  5
9F1
330
99C
100
AcDbEntity
  8
Defpoints
 62
     0
440
 16777216
100
AcDbPoint
 10
1410.520140339411
 20
2022.84495731401
 30
0.0
  0
ENDBLK
  5
99E
330
99C
100
AcDbEntity
  8
0
100
AcDbBlockEnd
  0
BLOCK
  5
A6D
330
A6C
100
AcDbEntity
  8
0
100
AcDbBlockBegin
  2
_ACMFILLED15
 70
     0
 10
0.0
 20
0.0
 30
0.0
  3
_ACMFILLED15
  1

  0
TRACE
  5
A6F
330
A6C
100
AcDbEntity
  8
AM_2 ( Kontur 0.25)
 62
     0
100
AcDbTrace
 10
-1.0
 20
-0.131652497
 30
0.0
 11
-1.0
 21
0.131652497
 31
0.0
 12
0.0
 22
0.0
 32
0.0
 13
0.0
 23
0.0
 33
0.0
  0
ENDBLK
  5
A6E
330
A6C
100
AcDbEntity
  8
0
100
AcDbBlockEnd
  0
BLOCK
  5
A7B
330
A7A
100
AcDbEntity
  8
0
100
AcDbBlockBegin
  2
_ACMNONE
 70
     0
 10
0.0
 20
0.0
 30
0.0
  3
_ACMNONE
  1

  0
LINE
  5
A7D
330
A7A
100
AcDbEntity
  8
AM_2 ( Kontur 0.25)
 62
     0
100
AcDbLine
 10
-1.0
 20
0.0
 30
0.0
 11
0.0
 21
0.0
 31
0.0
  0
ENDBLK
  5
A7C
330
A7A
100
AcDbEntity
  8
0
100
AcDbBlockEnd
  0
BLOCK
  5
A7F
330
A7E
100
AcDbEntity
  8
0
100
AcDbBlockBegin
  2
_ACMFILLED
 70
     0
 10
0.0
 20
0.0
 30
0.0
  3
_ACMFILLED
  1

  0
TRACE
  5
A81
330
A7E
100
AcDbEntity
  8
AM_2 ( Kontur 0.25)
 62
     0
100
AcDbTrace
 10
-1.0
 20
-0.166666666
 30
0.0
 11
-1.0
 21
0.166666666
 31
0.0
 12
0.0
 22
0.0
 32
0.0
 13
0.0
 23
0.0
 33
0.0
  0
ENDBLK
  5
A80
330
A7E
100
AcDbEntity
  8
0
100
AcDbBlockEnd
  0
BLOCK
  5
A89
330
A88
100
AcDbEntity
  8
0
100
AcDbBlockBegin
  2
_ACMFILLEDHALF
 70
     0
 10
0.0
 20
0.0
 30
0.0
  3
_ACMFILLEDHALF
  1

  0
TRACE
  5
A8B
330
A88
100
AcDbEntity
  8
AM_2 ( Kontur 0.25)
 62
     0
100
AcDbTrace
 10
-0.8
 20
0.0
 30
0.0
 11
-1.0
 21
0.166666666
 31
0.0
 12
0.0
 22
0.0
 32
0.0
 13
0.0
 23
0.0
 33
0.0
  0
LINE
  5
A8C
330
A88
100
AcDbEntity
  8
AM_2 ( Kontur 0.25)
 62
     0
100
AcDbLine
 10
-1.0
 20
0.0
 30
0.0
 11
-0.8
 21
0.0
 31
0.0
  0
ENDBLK
  5
A8A
330
A88
100
AcDbEntity
  8
0
100
AcDbBlockEnd
  0
BLOCK
  5
AA0
330
A9F
100
AcDbEntity
  8
0
100
AcDbBlockBegin
  2
_ACMFILLED30
 70
     0
 10
0.0
 20
0.0
 30
0.0
  3
_ACMFILLED30
  1

  0
TRACE
  5
AA2
330
A9F
100
AcDbEntity
  8
AM_2 ( Kontur 0.25)
 62
     0
100
AcDbTrace
 10
-1.0
 20
-0.26794919
 30
0.0
 11
-1.0
 21
0.26794919
 31
0.0
 12
0.0
 22
0.0
 32
0.0
 13
0.0
 23
0.0
 33
0.0
  0
ENDBLK
  5
AA1
330
A9F
100
AcDbEntity
  8
0
100
AcDbBlockEnd
  0
ENDSEC
  0
SECTION
  2
ENTITIES
  0
LINE
  5
6E7
330
1F
100
AcDbEntity
  8
AM_0
100
AcDbLine
 10
1428.52014033941
 20
2080.419360733805
 30
0.0
 11
1428.52014033941
 21
2073.334412167492
 31
0.0
  0
LINE
  5
6E8
330
1F
100
AcDbEntity
  8
AM_7 (Mittellinie)
  6
AM_ISO08W050x2
100
AcDbLine
 10
1422.02014033941
 20
2083.574506559327
 30
0.0
 11
1422.02014033941
 21
2040.333878779542
 31
0.0
  0
LINE
  5
6E9
330
1F
100
AcDbEntity
  8
AM_0
100
AcDbLine
 10
1416.32014033941
 20
2081.219360733805
 30
0.0
 11
1427.72014033941
 21
2081.219360733805
 31
0.0
  0
LINE
  5
6EA
330
1F
100
AcDbEntity
  8
AM_0
100
AcDbLine
 10
1415.52014033941
 20
2080.419360733805
 30
0.0
 11
1415.52014033941
 21
2073.219360733805
 31
0.0
  0
LINE
  5
6EB
330
1F
100
AcDbEntity
  8
AM_0
100
AcDbLine
 10
1426.02014033941
 20
2049.162123668499
 30
0.0
 11
1426.02014033941
 21
2043.989360733805
 31
0.0
  0
LINE
  5
6EC
330
1F
100
AcDbEntity
  8
AM_0
100
AcDbLine
 10
1418.02014033941
 20
2049.162123668499
 30
0.0
 11
1418.02014033941
 21
2043.989360733805
 31
0.0
  0
ARC
  5
6ED
330
1F
100
AcDbEntity
  8
AM_0
100
AcDbCircle
 10
1427.72014033941
 20
2080.419360733805
 30
0.0
 40
0.8
100
AcDbArc
 50
0.0
 51
90.0
  0
ARC
  5
6EE
330
1F
100
AcDbEntity
  8
AM_0
100
AcDbCircle
 10
1416.32014033941
 20
2080.419360733805
 30
0.0
 40
0.8
100
AcDbArc
 50
90.0
 51
180.0
  0
LINE
  5
6EF
330
1F
100
AcDbEntity
  8
AM_7 (Mittellinie)
  6
AM_ISO08W050x2
100
AcDbLine
 10
1414.544743069507
 20
1916.141162015635
 30
0.0
 11
1429.643012786539
 21
1916.141162015635
 31
0.0
  0
LINE
  5
6F0
330
1F
100
AcDbEntity
  8
AM_3 ( Verdeckt )
  6
AM_ISO02W050x2
100
AcDbLine
 10
1420.288089531842
 20
2081.219360733805
 30
0.0
 11
1420.288089531842
 21
2077.219360733805
 31
0.0
  0
CIRCLE
  5
6F1
330
1F
100
AcDbEntity
  8
AM_0
100
AcDbCircle
 10
1422.02014033941
 20
1916.141162015635
 30
0.0
 40
6.5
  0
LINE
  5
6F2
330
1F
100
AcDbEntity
  8
AM_0
100
AcDbLine
 10
1423.75219114698
 20
1913.141162015634
 30
0.0
 11
1425.484241954549
 21
1916.141162015635
 31
0.0
  0
LINE
  5
6F3
330
1F
100
AcDbEntity
  8
AM_0
100
AcDbLine
 10
1425.484241954549
 20
1916.141162015635
 30
0.0
 11
1423.75219114698
 21
1919.141162015634
 31
0.0
  0
LINE
  5
6F4
330
1F
100
AcDbEntity
  8
AM_0
100
AcDbLine
 10
1423.75219114698
 20
1919.141162015634
 30
0.0
 11
1420.288089531843
 21
1919.141162015634
 31
0.0
  0
LINE
  5
6F5
330
1F
100
AcDbEntity
  8
AM_0
100
AcDbLine
 10
1420.288089531843
 20
1919.141162015634
 30
0.0
 11
1418.556038724273
 21
1916.141162015635
 31
0.0
  0
LINE
  5
6F6
330
1F
100
AcDbEntity
  8
AM_0
100
AcDbLine
 10
1418.556038724273
 20
1916.141162015635
 30
0.0
 11
1420.288089531843
 21
1913.141162015634
 31
0.0
  0
LINE
  5
6F7
330
1F
100
AcDbEntity
  8
AM_0
100
AcDbLine
 10
1420.288089531843
 20
1913.141162015634
 30
0.0
 11
1423.75219114698
 21
1913.141162015634
 31
0.0
  0
LINE
  5
6F8
330
1F
100
AcDbEntity
  8
AM_3 ( Verdeckt )
  6
AM_ISO02W050x2
100
AcDbLine
 10
1425.484241954548
 20
2081.219360733805
 30
0.0
 11
1425.484241954548
 21
2077.219360733805
 31
0.0
  0
LINE
  5
6F9
330
1F
100
AcDbEntity
  8
AM_3 ( Verdeckt )
  6
AM_ISO02W050x2
100
AcDbLine
 10
1423.752191146979
 20
2081.219360733805
 30
0.0
 11
1423.752191146979
 21
2077.219360733805
 31
0.0
  0
CIRCLE
  5
6FA
330
1F
100
AcDbEntity
  8
AM_0
100
AcDbCircle
 10
1422.02014033941
 20
1916.141162015635
 30
0.0
 40
3.464101615137749
  0
LINE
  5
6FB
330
1F
100
AcDbEntity
  8
AM_3 ( Verdeckt )
  6
AM_ISO02W050x2
100
AcDbLine
 10
1418.556038724273
 20
2081.219360733805
 30
0.0
 11
1418.556038724273
 21
2077.219360733805
 31
0.0
  0
ARC
  5
6FC
330
1F
100
AcDbEntity
  8
AM_3 ( Verdeckt )
  6
AM_ISO02W050x2
100
AcDbCircle
 10
-1424.61622925266
 20
2077.961163360421
 30
0.0
 40
1.141804356049189
210
0.0
220
0.0
230
-1.0
100
AcDbArc
 50
220.5171609395276
 51
319.4828390604724
  0
LINE
  5
6FD
330
1F
100
AcDbEntity
  8
AM_3 ( Verdeckt )
  6
AM_ISO02W050x2
100
AcDbLine
 10
1425.187024981894
 20
2076.972270331332
 30
0.0
 11
1422.052829379033
 21
2075.162741656327
 31
0.0
  0
ARC
  5
6FE
330
1F
100
AcDbEntity
  8
AM_3 ( Verdeckt )
  6
AM_ISO02W050x2
100
AcDbCircle
 10
-1422.020140339411
 20
2080.769360733803
 30
0.0
 40
3.94999999999829
210
0.0
220
0.0
230
-1.0
100
AcDbArc
 50
243.9921761143498
 51
296.0078238856502
  0
LINE
  5
6FF
330
1F
100
AcDbEntity
  8
AM_3 ( Verdeckt )
  6
AM_ISO02W050x2
100
AcDbLine
 10
1418.853420175633
 20
2076.971695618014
 30
0.0
 11
1421.987243561297
 21
2075.162381842708
 31
0.0
  0
ARC
  5
700
330
1F
100
AcDbEntity
  8
AM_3 ( Verdeckt )
  6
AM_ISO02W050x2
100
AcDbCircle
 10
-1419.422064128057
 20
2077.956860733805
 30
0.0
 40
1.137500000000139
210
0.0
220
0.0
230
-1.0
100
AcDbArc
 50
220.4174382057137
 51
319.5825617942863
  0
LINE
  5
701
330
1F
100
AcDbEntity
  8
AM_0
100
AcDbLine
 10
1418.78714033941
 20
2043.219360733806
 30
0.0
 11
1425.25314033941
 21
2043.219360733806
 31
0.0
  0
LINE
  5
702
330
1F
100
AcDbEntity
  8
AM_0
100
AcDbLine
 10
1425.25314033941
 20
2049.162123668499
 30
0.0
 11
1425.25314033941
 21
2043.219360733806
 31
0.0
  0
LINE
  5
703
330
1F
100
AcDbEntity
  8
AM_0
100
AcDbLine
 10
1418.78714033941
 20
2049.162123668499
 30
0.0
 11
1418.78714033941
 21
2043.219360733806
 31
0.0
  0
LINE
  5
704
330
1F
100
AcDbEntity
  8
AM_0
100
AcDbLine
 10
1418.02014033941
 20
2043.989360733805
 30
0.0
 11
1426.02014033941
 21
2043.989360733805
 31
0.0
  0
LINE
  5
705
330
1F
100
AcDbEntity
  8
AM_0
100
AcDbLine
 10
1426.02014033941
 20
2043.989360733805
 30
0.0
 11
1425.25314033941
 21
2043.219360733806
 31
0.0
  0
LINE
  5
706
330
1F
100
AcDbEntity
  8
AM_0
100
AcDbLine
 10
1418.78714033941
 20
2043.219360733806
 30
0.0
 11
1418.02014033941
 21
2043.989360733805
 31
0.0
  0
LINE
  5
707
102
{ACAD_REACTORS
330
9A9
102
}
330
1F
100
AcDbEntity
  8
AM_0
100
AcDbLine
 10
1410.520140339411
 20
2050.162123668499
 30
0.0
 11
1410.520140339411
 21
2058.162123668499
 31
0.0
  0
LINE
  5
708
330
1F
100
AcDbEntity
  8
AM_7 (Mittellinie)
  6
AM_ISO08W050x2
100
AcDbLine
 10
1461.02014033941
 20
2047.770925778243
 30
0.0
 11
1461.02014033941
 21
2122.492922533823
 31
0.0
  0
LINE
  5
709
330
1F
100
AcDbEntity
  8
AM_0
100
AcDbLine
 10
1410.520140339411
 20
2050.162123668499
 30
0.0
 11
1415.52014033941
 21
2050.162123668499
 31
0.0
  0
LINE
  5
70A
102
{ACAD_REACTORS
330
8C9
102
}
330
1F
100
AcDbEntity
  8
AM_0
100
AcDbLine
 10
1511.52014033941
 20
2050.162123668499
 30
0.0
 11
1511.52014033941
 21
2058.162123668499
 31
0.0
  0
LINE
  5
70C
330
1F
100
AcDbEntity
  8
AM_0
100
AcDbLine
 10
1412.520140339411
 20
2060.162123668499
 30
0.0
 11
1418.02014033941
 21
2060.162123668499
 31
0.0
  0
LINE
  5
70D
330
1F
100
AcDbEntity
  8
AM_3 ( Verdeckt )
  6
AM_ISO02W050x2
100
AcDbLine
 10
1415.020140339411
 20
2050.162123668499
 30
0.0
 11
1415.020140339411
 21
2055.662123668499
 31
0.0
  0
LINE
  5
70E
330
1F
100
AcDbEntity
  8
AM_3 ( Verdeckt )
  6
AM_ISO02W050x2
100
AcDbLine
 10
1507.02014033941
 20
2050.162123668499
 30
0.0
 11
1507.02014033941
 21
2055.662123668499
 31
0.0
  0
LINE
  5
70F
330
1F
100
AcDbEntity
  8
AM_3 ( Verdeckt )
  6
AM_ISO02W050x2
100
AcDbLine
 10
1493.27014033941
 20
2050.162123668499
 30
0.0
 11
1493.27014033941
 21
2055.662123668499
 31
0.0
  0
LINE
  5
710
330
1F
100
AcDbEntity
  8
AM_3 ( Verdeckt )
  6
AM_ISO02W050x2
100
AcDbLine
 10
1428.770140339411
 20
2050.162123668499
 30
0.0
 11
1428.770140339411
 21
2055.662123668499
 31
0.0
  0
LINE
  5
711
330
1F
100
AcDbEntity
  8
AM_3 ( Verdeckt )
  6
AM_ISO02W050x2
100
AcDbLine
 10
1493.27014033941
 20
2055.662123668499
 30
0.0
 11
1507.02014033941
 21
2055.662123668499
 31
0.0
  0
LINE
  5
712
330
1F
100
AcDbEntity
  8
AM_3 ( Verdeckt )
  6
AM_ISO02W050x2
100
AcDbLine
 10
1415.020140339411
 20
2055.662123668499
 30
0.0
 11
1428.770140339411
 21
2055.662123668499
 31
0.0
  0
LINE
  5
713
330
1F
100
AcDbEntity
  8
AM_3 ( Verdeckt )
  6
AM_ISO02W050x2
100
AcDbLine
 10
1437.120140339411
 20
2050.162123668499
 30
0.0
 11
1437.120140339411
 21
2078.162123668499
 31
0.0
  0
LINE
  5
714
330
1F
100
AcDbEntity
  8
AM_3 ( Verdeckt )
  6
AM_ISO02W050x2
100
AcDbLine
 10
1484.920140339411
 20
2050.162123668499
 30
0.0
 11
1484.920140339411
 21
2078.162123668499
 31
0.0
  0
LINE
  5
715
330
1F
100
AcDbEntity
  8
AM_3 ( Verdeckt )
  6
AM_ISO02W050x2
100
AcDbLine
 10
1438.59764033941
 20
2051.639623668498
 30
0.0
 11
1437.120140339411
 21
2050.162123668499
 31
0.0
  0
LINE
  5
716
330
1F
100
AcDbEntity
  8
AM_3 ( Verdeckt )
  6
AM_ISO02W050x2
100
AcDbLine
 10
1483.442640339409
 20
2051.639623668501
 30
0.0
 11
1484.920140339411
 21
2050.162123668499
 31
0.0
  0
ARC
  5
71C
330
1F
100
AcDbEntity
  8
AM_0
100
AcDbCircle
 10
1412.520140339411
 20
2058.162123668499
 30
0.0
 40
2.0
100
AcDbArc
 50
90.0
 51
180.0
  0
ARC
  5
71D
330
1F
100
AcDbEntity
  8
AM_0
100
AcDbCircle
 10
1509.52014033941
 20
2058.162123668499
 30
0.0
 40
2.0
100
AcDbArc
 50
0.0
 51
90.0
  0
ARC
  5
71E
330
1F
100
AcDbEntity
  8
AM_0
100
AcDbCircle
 10
1490.02014033941
 20
2062.162123668499
 30
0.0
 40
2.0
100
AcDbArc
 50
183.4999999999963
 51
270.0
  0
ARC
  5
71F
330
1F
100
AcDbEntity
  8
AM_0
100
AcDbCircle
 10
1432.020140339411
 20
2062.162123668499
 30
0.0
 40
2.0
100
AcDbArc
 50
270.0
 51
356.5000000000038
  0
CIRCLE
  5
722
330
1F
100
AcDbEntity
  8
AM_0
100
AcDbCircle
 10
1461.02014033941
 20
1916.141162015635
 30
0.0
 40
50.5
  0
LINE
  5
723
330
1F
100
AcDbEntity
  8
AM_3 ( Verdeckt )
  6
AM_ISO02W050x2
100
AcDbLine
 10
1437.120140339411
 20
2078.162123668499
 30
0.0
 11
1484.920140339411
 21
2078.162123668499
 31
0.0
  0
LINE
  5
724
330
1F
100
AcDbEntity
  8
AM_7 (Mittellinie)
  6
AM_ISO08W050x2
100
AcDbLine
 10
1500.52014033941
 20
2048.122222493596
 30
0.0
 11
1500.52014033941
 21
2061.804487435462
 31
0.0
  0
LINE
  5
725
330
1F
100
AcDbEntity
  8
AM_3 ( Verdeckt )
  6
AM_ISO02W050x2
100
AcDbLine
 10
1426.520140339411
 20
2055.662123668499
 30
0.0
 11
1426.520140339411
 21
2060.162123668499
 31
0.0
  0
LINE
  5
726
330
1F
100
AcDbEntity
  8
AM_3 ( Verdeckt )
  6
AM_ISO02W050x2
100
AcDbLine
 10
1416.520140339411
 20
2055.662123668499
 30
0.0
 11
1416.520140339411
 21
2060.162123668499
 31
0.0
  0
LINE
  5
727
330
1F
100
AcDbEntity
  8
AM_0
100
AcDbLine
 10
1485.785585091486
 20
2124.719360733805
 30
0.0
 11
1436.254695587334
 21
2124.719360733805
 31
0.0
  0
LINE
  5
729
330
1F
100
AcDbEntity
  8
AM_0
100
AcDbLine
 10
1411.77014033941
 20
2069.219360733805
 30
0.0
 11
1411.77014033941
 21
2071.219360733805
 31
0.0
  0
LINE
  5
72A
330
1F
100
AcDbEntity
  8
AM_0
100
AcDbLine
 10
1510.27014033941
 20
2069.219360733805
 30
0.0
 11
1510.27014033941
 21
2071.219360733805
 31
0.0
  0
LINE
  5
72C
330
1F
100
AcDbEntity
  8
AM_3 ( Verdeckt )
  6
AM_ISO02W050x2
100
AcDbLine
 10
1438.59764033941
 20
2100.719360733805
 30
0.0
 11
1438.59764033941
 21
2123.240360733805
 31
0.0
  0
LINE
  5
72D
330
1F
100
AcDbEntity
  8
AM_3 ( Verdeckt )
  6
AM_ISO02W050x2
100
AcDbLine
 10
1483.442640339409
 20
2100.719360733805
 30
0.0
 11
1483.442640339409
 21
2123.240360733806
 31
0.0
  0
LINE
  5
72E
330
1F
100
AcDbEntity
  8
AM_3 ( Verdeckt )
  6
AM_ISO02W050x2
100
AcDbLine
 10
1484.92164033941
 20
2100.719360733805
 30
0.0
 11
1484.92164033941
 21
2124.719360733805
 31
0.0
  0
LINE
  5
72F
330
1F
100
AcDbEntity
  8
AM_3 ( Verdeckt )
  6
AM_ISO02W050x2
100
AcDbLine
 10
1437.11864033941
 20
2100.719360733805
 30
0.0
 11
1437.11864033941
 21
2124.719360733805
 31
0.0
  0
LINE
  5
730
330
1F
100
AcDbEntity
  8
AM_3 ( Verdeckt )
  6
AM_ISO02W050x2
100
AcDbLine
 10
1484.92164033941
 20
2100.719360733805
 30
0.0
 11
1437.11864033941
 21
2100.719360733805
 31
0.0
  0
LINE
  5
734
330
1F
100
AcDbEntity
  8
AM_0
100
AcDbLine
 10
1508.27014033941
 20
2073.219360733805
 30
0.0
 11
1413.77014033941
 21
2073.219360733805
 31
0.0
  0
ARC
  5
742
330
1F
100
AcDbEntity
  8
AM_0
100
AcDbCircle
 10
1508.27014033941
 20
2071.219360733805
 30
0.0
 40
2.0
100
AcDbArc
 50
0.0
 51
90.0
  0
ARC
  5
743
330
1F
100
AcDbEntity
  8
AM_0
100
AcDbCircle
 10
1508.27014033941
 20
2069.219360733805
 30
0.0
 40
2.0
100
AcDbArc
 50
270.0
 51
0.0
  0
ARC
  5
744
330
1F
100
AcDbEntity
  8
AM_0
100
AcDbCircle
 10
1413.77014033941
 20
2071.219360733805
 30
0.0
 40
2.0
100
AcDbArc
 50
90.0
 51
180.0
  0
ARC
  5
745
330
1F
100
AcDbEntity
  8
AM_0
100
AcDbCircle
 10
1413.77014033941
 20
2069.219360733805
 30
0.0
 40
2.0
100
AcDbArc
 50
180.0
 51
270.0
  0
LINE
  5
746
330
1F
100
AcDbEntity
  8
AM_7 (Mittellinie)
  6
AM_ISO08W050x2
100
AcDbLine
 10
1513.672776041337
 20
1916.141162015635
 30
0.0
 11
1408.293218344769
 21
1916.141162015635
 31
0.0
  0
LINE
  5
747
330
1F
100
AcDbEntity
  8
AM_7 (Mittellinie)
  6
AM_ISO08W050x2
100
AcDbLine
 10
1461.02014033941
 20
1862.343748214192
 30
0.0
 11
1461.02014033941
 21
1968.450428405804
 31
0.0
  0
CIRCLE
  5
748
330
1F
100
AcDbEntity
  8
AM_0
100
AcDbCircle
 10
1461.02014033941
 20
1916.141162015635
 30
0.0
 40
49.25
  0
CIRCLE
  5
749
330
1F
100
AcDbEntity
  8
AM_0
100
AcDbCircle
 10
1461.02014033941
 20
1916.141162015635
 30
0.0
 40
27.5
  0
CIRCLE
  5
74A
330
1F
100
AcDbEntity
  8
AM_0
100
AcDbCircle
 10
1461.02014033941
 20
1916.141162015635
 30
0.0
 40
22.4225
  0
ARC
  5
74B
330
1F
100
AcDbEntity
  8
AM_2 ( Kontur 0.25)
100
AcDbCircle
 10
1461.02014033941
 20
1916.141162015635
 30
0.0
 40
23.9015
100
AcDbArc
 50
79.99999999999613
 51
349.9999999999961
  0
CIRCLE
  5
74C
330
1F
100
AcDbEntity
  8
AM_0
100
AcDbCircle
 10
1461.02014033941
 20
1916.141162015635
 30
0.0
 40
19.5
  0
CIRCLE
  5
74D
330
1F
100
AcDbEntity
  8
AM_0
100
AcDbCircle
 10
1461.02014033941
 20
1916.141162015635
 30
0.0
 40
32.0
  0
LINE
  5
74E
330
1F
100
AcDbEntity
  8
AM_7 (Mittellinie)
  6
AM_ISO08W050x2
100
AcDbLine
 10
1476.181329910167
 20
1889.881211375899
 30
0.0
 11
1487.383601336731
 21
1870.478308104915
 31
0.0
  0
LINE
  5
74F
330
1F
100
AcDbEntity
  8
AM_7 (Mittellinie)
  6
AM_ISO08W050x2
100
AcDbLine
 10
1475.283230890746
 20
1940.845559523503
 30
0.0
 11
1487.383601336731
 21
1961.804015926354
 31
0.0
  0
LINE
  5
750
330
1F
100
AcDbEntity
  8
AM_3 ( Verdeckt )
  6
AM_ISO02W050x2
100
AcDbLine
 10
1417.02014033941
 20
2068.219360733805
 30
0.0
 11
1417.02014033941
 21
2072.219360733805
 31
0.0
  0
CIRCLE
  5
751
330
1F
100
AcDbEntity
  8
AM_7 (Mittellinie)
  6
AM_ISO08W050x2
100
AcDbCircle
 10
1461.02014033941
 20
1916.141162015635
 30
0.0
 40
39.0
  0
LINE
  5
752
330
1F
100
AcDbEntity
  8
AM_0
100
AcDbLine
 10
1483.442640339409
 20
2123.240360733805
 30
0.0
 11
1484.92164033941
 21
2124.719360733805
 31
0.0
  0
LINE
  5
753
330
1F
100
AcDbEntity
  8
AM_3 ( Verdeckt )
  6
AM_ISO02W050x2
100
AcDbLine
 10
1438.59764033941
 20
2123.240360733805
 30
0.0
 11
1437.11864033941
 21
2124.719360733805
 31
0.0
  0
LINE
  5
754
330
1F
100
AcDbEntity
  8
AM_3 ( Verdeckt )
  6
AM_ISO02W050x2
100
AcDbLine
 10
1427.02014033941
 20
2068.219360733805
 30
0.0
 11
1428.02014033941
 21
2067.219360733805
 31
0.0
  0
LINE
  5
755
330
1F
100
AcDbEntity
  8
AM_3 ( Verdeckt )
  6
AM_ISO02W050x2
100
AcDbLine
 10
1483.442640339409
 20
2123.240360733805
 30
0.0
 11
1438.59764033941
 21
2123.240360733805
 31
0.0
  0
LINE
  5
756
330
1F
100
AcDbEntity
  8
AM_3 ( Verdeckt )
  6
AM_ISO02W050x2
100
AcDbLine
 10
1427.02014033941
 20
2068.219360733805
 30
0.0
 11
1427.02014033941
 21
2072.219360733805
 31
0.0
  0
LINE
  5
757
330
1F
100
AcDbEntity
  8
AM_3 ( Verdeckt )
  6
AM_ISO02W050x2
100
AcDbLine
 10
1427.02014033941
 20
2072.219360733805
 30
0.0
 11
1428.02014033941
 21
2073.219360733805
 31
0.0
  0
LINE
  5
758
330
1F
100
AcDbEntity
  8
AM_3 ( Verdeckt )
  6
AM_ISO02W050x2
100
AcDbLine
 10
1417.02014033941
 20
2072.219360733805
 30
0.0
 11
1416.02014033941
 21
2073.219360733805
 31
0.0
  0
LINE
  5
759
330
1F
100
AcDbEntity
  8
AM_3 ( Verdeckt )
  6
AM_ISO02W050x2
100
AcDbLine
 10
1417.02014033941
 20
2068.219360733805
 30
0.0
 11
1416.02014033941
 21
2067.219360733805
 31
0.0
  0
LINE
  5
75A
330
1F
100
AcDbEntity
  8
AM_3 ( Verdeckt )
  6
AM_ISO02W050x2
100
AcDbLine
 10
1418.02014033941
 20
2072.219360733805
 30
0.0
 11
1417.02014033941
 21
2072.219360733805
 31
0.0
  0
LINE
  5
75B
330
1F
100
AcDbEntity
  8
AM_3 ( Verdeckt )
  6
AM_ISO02W050x2
100
AcDbLine
 10
1426.02014033941
 20
2068.219360733805
 30
0.0
 11
1427.02014033941
 21
2068.219360733805
 31
0.0
  0
LINE
  5
75C
330
1F
100
AcDbEntity
  8
AM_0
100
AcDbLine
 10
1492.952736234986
 20
2075.1495617404
 30
0.0
 11
1492.336138541121
 21
2092.806609475561
 31
0.0
  0
LINE
  5
75D
330
1F
100
AcDbEntity
  8
AM_0
100
AcDbLine
 10
1487.784366745524
 20
2122.78915972721
 30
0.0
 11
1488.528195892204
 21
2097.48867988365
 31
0.0
  0
ARC
  5
75E
330
1F
100
AcDbEntity
  8
AM_0
100
AcDbCircle
 10
1494.951517889023
 20
2075.219360733805
 30
0.0
 40
2.0
100
AcDbArc
 50
182.0000000000035
 51
270.0
  0
ARC
  5
75F
330
1F
100
AcDbEntity
  8
AM_0
100
AcDbCircle
 10
1485.785585091486
 20
2122.719360733805
 30
0.0
 40
2.0
100
AcDbArc
 50
2.000000000003497
 51
90.0
  0
ARC
  5
760
330
1F
100
AcDbEntity
  8
AM_0
100
AcDbCircle
 10
-1436.254695587334
 20
2122.719360733805
 30
0.0
 40
2.0
210
0.0
220
0.0
230
-1.0
100
AcDbArc
 50
2.000000000003497
 51
90.0
  0
LINE
  5
761
330
1F
100
AcDbEntity
  8
AM_0
100
AcDbLine
 10
1434.255913933296
 20
2122.78915972721
 30
0.0
 11
1433.512084786616
 21
2097.48867988365
 31
0.0
  0
LINE
  5
762
330
1F
100
AcDbEntity
  8
AM_0
100
AcDbLine
 10
1429.053842391622
 20
2074.184461237102
 30
0.0
 11
1429.704142137699
 21
2092.806609475561
 31
0.0
  0
ARC
  5
763
330
1F
100
AcDbEntity
  8
AM_0
100
AcDbCircle
 10
1432.202619205246
 20
2092.719360733805
 30
0.0
 40
2.5
100
AcDbArc
 50
103.7568606696451
 51
177.9999999999965
  0
ARC
  5
764
330
1F
100
AcDbEntity
  8
AM_0
100
AcDbCircle
 10
1431.013607719068
 20
2097.575928625407
 30
0.0
 40
2.5
100
AcDbArc
 50
283.7568720987399
 51
357.9999999999965
  0
ARC
  5
765
330
1F
100
AcDbEntity
  8
AM_0
100
AcDbCircle
 10
-1489.837661473574
 20
2092.719360733805
 30
0.0
 40
2.5
210
0.0
220
0.0
230
-1.0
100
AcDbArc
 50
103.7568606696451
 51
177.9999999999965
  0
ARC
  5
766
330
1F
100
AcDbEntity
  8
AM_0
100
AcDbCircle
 10
-1491.026672959751
 20
2097.575928625407
 30
0.0
 40
2.5
210
0.0
220
0.0
230
-1.0
100
AcDbArc
 50
283.7568720987399
 51
357.9999999999965
  0
LINE
  5
767
330
1F
100
AcDbEntity
  8
AM_0
100
AcDbLine
 10
1508.27014033941
 20
2067.219360733805
 30
0.0
 11
1426.02014033941
 21
2067.219360733805
 31
0.0
  0
LINE
  5
769
330
1F
100
AcDbEntity
  8
AM_0
100
AcDbLine
 10
1415.52014033941
 20
2049.162123668499
 30
0.0
 11
1428.52014033941
 21
2049.162123668499
 31
0.0
  0
LINE
  5
76A
330
1F
100
AcDbEntity
  8
AM_0
100
AcDbLine
 10
1428.52014033941
 20
2049.162123668499
 30
0.0
 11
1428.52014033941
 21
2050.162123668499
 31
0.0
  0
LINE
  5
76B
330
1F
100
AcDbEntity
  8
AM_0
100
AcDbLine
 10
1415.52014033941
 20
2049.162123668499
 30
0.0
 11
1415.52014033941
 21
2050.162123668499
 31
0.0
  0
LINE
  5
76C
330
1F
100
AcDbEntity
  8
AM_3 ( Verdeckt )
  6
AM_ISO02W050x2
100
AcDbLine
 10
1426.02014033941
 20
2073.219360733805
 30
0.0
 11
1426.02014033941
 21
2067.219360733805
 31
0.0
  0
LINE
  5
76D
330
1F
100
AcDbEntity
  8
AM_3 ( Verdeckt )
  6
AM_ISO02W050x2
100
AcDbLine
 10
1425.25314033941
 20
2073.219360733805
 30
0.0
 11
1425.25314033941
 21
2067.219360733805
 31
0.0
  0
LINE
  5
76E
330
1F
100
AcDbEntity
  8
AM_3 ( Verdeckt )
  6
AM_ISO02W050x2
100
AcDbLine
 10
1418.78714033941
 20
2073.219360733805
 30
0.0
 11
1418.78714033941
 21
2067.219360733805
 31
0.0
  0
ARC
  5
76F
330
1F
100
AcDbEntity
  8
AM_3 ( Verdeckt )
  6
AM_ISO02W050x2
100
AcDbCircle
 10
1425.27014033941
 20
2047.444660981932
 30
0.0
 40
8.21746268656733
100
AcDbArc
 50
66.70288786032711
 51
113.2971121396729
  0
ARC
  5
770
330
1F
100
AcDbEntity
  8
AM_3 ( Verdeckt )
  6
AM_ISO02W050x2
100
AcDbCircle
 10
1418.77014033941
 20
2047.444660981932
 30
0.0
 40
8.21746268656733
100
AcDbArc
 50
66.70288786032711
 51
113.2971121396729
  0
ARC
  5
771
330
1F
100
AcDbEntity
  8
AM_0
100
AcDbCircle
 10
1418.77014033941
 20
2057.379586355066
 30
0.0
 40
8.21746268656733
100
AcDbArc
 50
246.7028878603271
 51
293.2971121396729
  0
ARC
  5
772
330
1F
100
AcDbEntity
  8
AM_0
100
AcDbCircle
 10
1425.27014033941
 20
2057.379586355066
 30
0.0
 40
8.21746268656733
100
AcDbArc
 50
246.7028878603271
 51
293.2971121396729
  0
LINE
  5
773
330
1F
100
AcDbEntity
  8
AM_3 ( Verdeckt )
  6
AM_ISO02W050x2
100
AcDbLine
 10
1418.02014033941
 20
2073.219360733805
 30
0.0
 11
1418.02014033941
 21
2067.219360733805
 31
0.0
  0
LINE
  5
775
330
1F
100
AcDbEntity
  8
AM_7 (Mittellinie)
  6
AM_ISO08W050x2
100
AcDbLine
 10
1484.257838974362
 20
1875.892287328924
 30
0.0
 11
1476.708704115846
 21
1888.967772457063
 31
0.0
  0
CIRCLE
  5
776
330
1F
100
AcDbEntity
  8
AM_0
100
AcDbCircle
 10
1480.52014033941
 20
1882.366171268041
 30
0.0
 40
6.5
  0
LINE
  5
777
330
1F
100
AcDbEntity
  8
AM_0
100
AcDbLine
 10
1482.252191146979
 20
1885.366171268041
 30
0.0
 11
1478.788089531841
 21
1885.366171268041
 31
0.0
  0
LINE
  5
778
330
1F
100
AcDbEntity
  8
AM_0
100
AcDbLine
 10
1478.788089531841
 20
1885.366171268041
 30
0.0
 11
1477.056038724273
 21
1882.366171268041
 31
0.0
  0
LINE
  5
779
330
1F
100
AcDbEntity
  8
AM_0
100
AcDbLine
 10
1477.056038724273
 20
1882.366171268041
 30
0.0
 11
1478.788089531841
 21
1879.366171268042
 31
0.0
  0
LINE
  5
77A
330
1F
100
AcDbEntity
  8
AM_0
100
AcDbLine
 10
1478.788089531841
 20
1879.366171268042
 30
0.0
 11
1482.252191146979
 21
1879.366171268042
 31
0.0
  0
LINE
  5
77B
330
1F
100
AcDbEntity
  8
AM_0
100
AcDbLine
 10
1482.252191146979
 20
1879.366171268042
 30
0.0
 11
1483.984241954548
 21
1882.366171268042
 31
0.0
  0
LINE
  5
77C
330
1F
100
AcDbEntity
  8
AM_0
100
AcDbLine
 10
1483.984241954548
 20
1882.366171268042
 30
0.0
 11
1482.252191146979
 21
1885.366171268041
 31
0.0
  0
CIRCLE
  5
77D
330
1F
100
AcDbEntity
  8
AM_0
100
AcDbCircle
 10
1480.52014033941
 20
1882.366171268041
 30
0.0
 40
3.464101615137749
  0
LINE
  5
77E
330
1F
100
AcDbEntity
  8
AM_7 (Mittellinie)
  6
AM_ISO08W050x2
100
AcDbLine
 10
1484.257838974362
 20
1956.390036702345
 30
0.0
 11
1476.708704115847
 21
1943.314551574206
 31
0.0
  0
CIRCLE
  5
77F
330
1F
100
AcDbEntity
  8
AM_0
100
AcDbCircle
 10
1480.520140339411
 20
1949.916152763227
 30
0.0
 40
6.5
  0
LINE
  5
780
330
1F
100
AcDbEntity
  8
AM_0
100
AcDbLine
 10
1477.056038724273
 20
1949.916152763227
 30
0.0
 11
1478.788089531842
 21
1946.916152763227
 31
0.0
  0
LINE
  5
781
330
1F
100
AcDbEntity
  8
AM_0
100
AcDbLine
 10
1478.788089531842
 20
1946.916152763227
 30
0.0
 11
1482.252191146979
 21
1946.916152763227
 31
0.0
  0
LINE
  5
782
330
1F
100
AcDbEntity
  8
AM_0
100
AcDbLine
 10
1482.252191146979
 20
1946.916152763227
 30
0.0
 11
1483.984241954548
 21
1949.916152763227
 31
0.0
  0
LINE
  5
783
330
1F
100
AcDbEntity
  8
AM_0
100
AcDbLine
 10
1483.984241954548
 20
1949.916152763227
 30
0.0
 11
1482.252191146979
 21
1952.916152763227
 31
0.0
  0
LINE
  5
784
330
1F
100
AcDbEntity
  8
AM_0
100
AcDbLine
 10
1482.252191146979
 20
1952.916152763227
 30
0.0
 11
1478.788089531841
 21
1952.916152763227
 31
0.0
  0
LINE
  5
785
330
1F
100
AcDbEntity
  8
AM_0
100
AcDbLine
 10
1478.788089531841
 20
1952.916152763227
 30
0.0
 11
1477.056038724273
 21
1949.916152763227
 31
0.0
  0
CIRCLE
  5
786
330
1F
100
AcDbEntity
  8
AM_0
100
AcDbCircle
 10
1480.520140339411
 20
1949.916152763227
 30
0.0
 40
3.464101615137749
  0
LINE
  5
787
330
1F
100
AcDbEntity
  8
AM_0
100
AcDbLine
 10
1487.52014033941
 20
2049.162123668499
 30
0.0
 11
1487.52014033941
 21
2050.162123668499
 31
0.0
  0
LINE
  5
788
330
1F
100
AcDbEntity
  8
AM_0
100
AcDbLine
 10
1474.52014033941
 20
2049.162123668499
 30
0.0
 11
1474.52014033941
 21
2050.162123668499
 31
0.0
  0
ARC
  5
789
330
1F
100
AcDbEntity
  8
AM_0
100
AcDbCircle
 10
1477.77014033941
 20
2057.379586355066
 30
0.0
 40
8.21746268656733
100
AcDbArc
 50
246.7028878603271
 51
293.2971121396729
  0
LINE
  5
78A
330
1F
100
AcDbEntity
  8
AM_0
100
AcDbLine
 10
1474.52014033941
 20
2049.162123668499
 30
0.0
 11
1487.52014033941
 21
2049.162123668499
 31
0.0
  0
ARC
  5
78B
330
1F
100
AcDbEntity
  8
AM_0
100
AcDbCircle
 10
1484.27014033941
 20
2057.379586355066
 30
0.0
 40
8.21746268656733
100
AcDbArc
 50
246.7028878603271
 51
293.2971121396729
  0
LINE
  5
78C
330
1F
100
AcDbEntity
  8
AM_7 (Mittellinie)
  6
AM_ISO08W050x2
100
AcDbLine
 10
1480.520140339411
 20
2053.546915877759
 30
0.0
 11
1480.520140339411
 21
2040.333878779542
 31
0.0
  0
LINE
  5
78D
330
1F
100
AcDbEntity
  8
AM_0
100
AcDbLine
 10
1484.520140339411
 20
2049.162123668499
 30
0.0
 11
1484.520140339411
 21
2043.989360733805
 31
0.0
  0
LINE
  5
78E
330
1F
100
AcDbEntity
  8
AM_0
100
AcDbLine
 10
1476.520140339411
 20
2049.162123668499
 30
0.0
 11
1476.520140339411
 21
2043.989360733805
 31
0.0
  0
LINE
  5
78F
330
1F
100
AcDbEntity
  8
AM_0
100
AcDbLine
 10
1477.287140339411
 20
2043.219360733806
 30
0.0
 11
1483.753140339411
 21
2043.219360733806
 31
0.0
  0
LINE
  5
790
330
1F
100
AcDbEntity
  8
AM_0
100
AcDbLine
 10
1483.753140339411
 20
2049.162123668499
 30
0.0
 11
1483.753140339411
 21
2043.219360733806
 31
0.0
  0
LINE
  5
791
330
1F
100
AcDbEntity
  8
AM_0
100
AcDbLine
 10
1477.287140339411
 20
2049.162123668499
 30
0.0
 11
1477.287140339411
 21
2043.219360733806
 31
0.0
  0
LINE
  5
792
330
1F
100
AcDbEntity
  8
AM_0
100
AcDbLine
 10
1476.520140339411
 20
2043.989360733805
 30
0.0
 11
1484.520140339411
 21
2043.989360733805
 31
0.0
  0
LINE
  5
793
330
1F
100
AcDbEntity
  8
AM_0
100
AcDbLine
 10
1484.520140339411
 20
2043.989360733805
 30
0.0
 11
1483.753140339411
 21
2043.219360733806
 31
0.0
  0
LINE
  5
794
330
1F
100
AcDbEntity
  8
AM_0
100
AcDbLine
 10
1477.287140339411
 20
2043.219360733806
 30
0.0
 11
1476.520140339411
 21
2043.989360733805
 31
0.0
  0
LINE
  5
795
330
1F
100
AcDbEntity
  8
AM_3 ( Verdeckt )
  6
AM_ISO02W050x2
100
AcDbLine
 10
1483.442640339409
 20
2051.639623668501
 30
0.0
 11
1483.442640339409
 21
2078.162123668499
 31
0.0
  0
LINE
  5
796
330
1F
100
AcDbEntity
  8
AM_3 ( Verdeckt )
  6
AM_ISO02W050x2
100
AcDbLine
 10
1438.59764033941
 20
2051.639623668498
 30
0.0
 11
1438.59764033941
 21
2078.162123668499
 31
0.0
  0
LINE
  5
798
330
1F
100
AcDbEntity
  8
AM_3 ( Verdeckt )
  6
AM_ISO02W050x2
100
AcDbLine
 10
1438.59764033941
 20
2051.639623668498
 30
0.0
 11
1483.442640339409
 21
2051.639623668501
 31
0.0
  0
LINE
  5
799
330
1F
100
AcDbEntity
  8
AM_0
100
AcDbLine
 10
1488.023870742566
 20
2062.040026589429
 30
0.0
 11
1487.707089095662
 21
2067.219360733805
 31
0.0
  0
LINE
  5
79C
330
1F
100
AcDbEntity
  8
AM_0
100
AcDbLine
 10
1434.016409936254
 20
2062.040026589429
 30
0.0
 11
1434.333191583159
 21
2067.219360733805
 31
0.0
  0
ARC
  5
79D
330
1F
100
AcDbEntity
  8
AM_0
100
AcDbCircle
 10
1428.054451564603
 20
2074.219360733805
 30
0.0
 40
1.0
100
AcDbArc
 50
270.0
 51
357.9999999999965
  0
LINE
  5
79E
330
1F
100
AcDbEntity
  8
AM_3 ( Verdeckt )
  6
AM_ISO02W050x2
100
AcDbLine
 10
1427.02014033941
 20
2072.219360733805
 30
0.0
 11
1426.02014033941
 21
2072.219360733805
 31
0.0
  0
LINE
  5
79F
330
1F
100
AcDbEntity
  8
AM_3 ( Verdeckt )
  6
AM_ISO02W050x2
100
AcDbLine
 10
1417.02014033941
 20
2068.219360733805
 30
0.0
 11
1418.02014033941
 21
2068.219360733805
 31
0.0
  0
DIMENSION
  5
7A3
330
1F
100
AcDbEntity
  8
AM_5 ( Bemassung)
100
AcDbDimension
280
     0
  2
*D8
 10
1484.92164033941
 20
2132.559417496465
 30
0.0
 11
1461.02014033941
 21
2135.897753103559
 31
0.0
 70
    32
  1
G 1 1/2
 71
     5
 42
47.80300000000011
 73
     0
 74
     0
 75
     0
  3
BENUTZERDEFINIERTE NORM$0
100
AcDbAlignedDimension
 13
1437.11864033941
 23
2124.719360733805
 33
0.0
 14
1484.92164033941
 24
2124.719360733805
 34
0.0
100
AcDbRotatedDimension
1001
ACAD_DSTYLE_DIMINSPECT
1070
   396
1000
100%
1070
   395
1000

1070
   394
1070
    33
1070
   393
1070
     0
  0
DIMENSION
  5
7A4
330
1F
100
AcDbEntity
  8
AM_5 ( Bemassung)
100
AcDbDimension
280
     0
  2
*D9
 10
1484.920140339411
 20
2036.994632500481
 30
0.0
 11
1461.020140339411
 21
2040.332968107575
 31
0.0
 70
    32
  1
G 1 1/2
 71
     5
 42
47.80000000000018
 73
     0
 74
     0
 75
     0
  3
BENUTZERDEFINIERTE NORM$0
100
AcDbAlignedDimension
 13
1437.120140339411
 23
2050.162123668499
 33
0.0
 14
1484.920140339411
 24
2050.162123668499
 34
0.0
100
AcDbRotatedDimension
1001
ACAD_DSTYLE_DIMINSPECT
1070
   396
1000
100%
1070
   395
1000

1070
   394
1070
    33
1070
   393
1070
     0
  0
LINE
  5
8A3
330
1F
100
AcDbEntity
  8
AM_3 ( Verdeckt )
  6
AM_ISO02W050x2
100
AcDbLine
 10
1428.52014033941
 20
2050.162123668499
 30
0.0
 11
1428.52014033941
 21
2055.662123668499
 31
0.0
  0
LINE
  5
8A5
330
1F
100
AcDbEntity
  8
AM_0
100
AcDbLine
 10
1428.52014033941
 20
2050.162123668499
 30
0.0
 11
1511.52014033941
 21
2050.162123668499
 31
0.0
  0
LINE
  5
8A6
330
1F
100
AcDbEntity
  8
AM_3 ( Verdeckt )
  6
AM_ISO02W050x2
100
AcDbLine
 10
1415.52014033941
 20
2050.162123668499
 30
0.0
 11
1415.52014033941
 21
2055.662123668499
 31
0.0
  0
LINE
  5
8A7
330
1F
100
AcDbEntity
  8
AM_0
100
AcDbLine
 10
1415.52014033941
 20
2050.162123668499
 30
0.0
 11
1428.52014033941
 21
2050.162123668499
 31
0.0
  0
LINE
  5
8A8
330
1F
100
AcDbEntity
  8
AM_3 ( Verdeckt )
  6
AM_ISO02W050x2
100
AcDbLine
 10
1418.02014033941
 20
2060.162123668499
 30
0.0
 11
1418.02014033941
 21
2055.662123668499
 31
0.0
  0
LINE
  5
8A9
330
1F
100
AcDbEntity
  8
AM_0
100
AcDbLine
 10
1418.02014033941
 20
2060.162123668499
 30
0.0
 11
1418.78714033941
 21
2060.162123668499
 31
0.0
  0
LINE
  5
8AA
330
1F
100
AcDbEntity
  8
AM_3 ( Verdeckt )
  6
AM_ISO02W050x2
100
AcDbLine
 10
1418.78714033941
 20
2060.162123668499
 30
0.0
 11
1418.78714033941
 21
2055.662123668499
 31
0.0
  0
LINE
  5
8AB
330
1F
100
AcDbEntity
  8
AM_0
100
AcDbLine
 10
1418.78714033941
 20
2060.162123668499
 30
0.0
 11
1425.25314033941
 21
2060.162123668499
 31
0.0
  0
LINE
  5
8AC
330
1F
100
AcDbEntity
  8
AM_3 ( Verdeckt )
  6
AM_ISO02W050x2
100
AcDbLine
 10
1425.25314033941
 20
2060.162123668499
 30
0.0
 11
1425.25314033941
 21
2055.662123668499
 31
0.0
  0
LINE
  5
8AD
330
1F
100
AcDbEntity
  8
AM_0
100
AcDbLine
 10
1425.25314033941
 20
2060.162123668499
 30
0.0
 11
1426.02014033941
 21
2060.162123668499
 31
0.0
  0
LINE
  5
8AE
330
1F
100
AcDbEntity
  8
AM_3 ( Verdeckt )
  6
AM_ISO02W050x2
100
AcDbLine
 10
1426.02014033941
 20
2060.162123668499
 30
0.0
 11
1426.02014033941
 21
2055.662123668499
 31
0.0
  0
LINE
  5
8AF
330
1F
100
AcDbEntity
  8
AM_0
100
AcDbLine
 10
1426.02014033941
 20
2060.162123668499
 30
0.0
 11
1509.52014033941
 21
2060.162123668499
 31
0.0
  0
LINE
  5
8B0
330
1F
100
AcDbEntity
  8
AM_0
100
AcDbLine
 10
1426.02014033941
 20
2067.219360733805
 30
0.0
 11
1426.02014033941
 21
2060.162123668499
 31
0.0
  0
LINE
  5
8B1
330
1F
100
AcDbEntity
  8
AM_0
100
AcDbLine
 10
1426.02014033941
 20
2067.219360733805
 30
0.0
 11
1425.25314033941
 21
2067.219360733805
 31
0.0
  0
LINE
  5
8B2
330
1F
100
AcDbEntity
  8
AM_0
100
AcDbLine
 10
1425.25314033941
 20
2067.219360733805
 30
0.0
 11
1425.25314033941
 21
2060.162123668499
 31
0.0
  0
LINE
  5
8B3
330
1F
100
AcDbEntity
  8
AM_0
100
AcDbLine
 10
1425.25314033941
 20
2067.219360733805
 30
0.0
 11
1418.78714033941
 21
2067.219360733805
 31
0.0
  0
LINE
  5
8B4
330
1F
100
AcDbEntity
  8
AM_0
100
AcDbLine
 10
1418.78714033941
 20
2067.219360733805
 30
0.0
 11
1418.78714033941
 21
2060.162123668499
 31
0.0
  0
LINE
  5
8B5
330
1F
100
AcDbEntity
  8
AM_0
100
AcDbLine
 10
1418.78714033941
 20
2067.219360733805
 30
0.0
 11
1418.02014033941
 21
2067.219360733805
 31
0.0
  0
LINE
  5
8B6
330
1F
100
AcDbEntity
  8
AM_0
100
AcDbLine
 10
1418.02014033941
 20
2067.219360733805
 30
0.0
 11
1418.02014033941
 21
2060.162123668499
 31
0.0
  0
LINE
  5
8B7
330
1F
100
AcDbEntity
  8
AM_0
100
AcDbLine
 10
1418.02014033941
 20
2067.219360733805
 30
0.0
 11
1413.77014033941
 21
2067.219360733805
 31
0.0
  0
LINE
  5
8B8
330
1F
100
AcDbEntity
  8
AM_0 ( Kontur 0.5 )
100
AcDbLine
 10
1431.608113704348
 20
2095.147644738901
 30
0.0
 11
1490.432166974471
 21
2095.147644738901
 31
0.0
  0
DIMENSION
  5
8BB
102
{ACAD_XDICTIONARY
360
8C8
102
}
102
{ACAD_REACTORS
330
8C9
102
}
330
1F
100
AcDbEntity
  8
AM_5 ( Bemassung)
100
AcDbDimension
280
     0
  2
*D12
 10
1517.394766808432
 20
2124.719360733805
 30
0.0
 11
1517.394766808432
 21
2083.155600593991
 31
0.0
 70
   160
 71
     5
 42
74.5572370653058
 73
     0
 74
     0
 75
     0
  3
BENUTZERDEFINIERTE NORM$0
100
AcDbAlignedDimension
 13
1511.52014033941
 23
2050.162123668499
 33
0.0
 14
1484.92164033941
 24
2124.719360733805
 34
0.0
 50
90.0
100
AcDbRotatedDimension
1001
ACAD_DSTYLE_DIMINSPECT
1070
   396
1000
100%
1070
   395
1000

1070
   394
1070
    33
1070
   393
1070
     0
1001
ACAD
1000
DSTYLE
1002
{
1070
   271
1070
     0
1002
}
  0
DIMENSION
  5
99B
102
{ACAD_XDICTIONARY
360
9A8
102
}
102
{ACAD_REACTORS
330
9A9
102
}
330
1F
100
AcDbEntity
  8
AM_5 ( Bemassung)
100
AcDbDimension
280
     0
  2
*D13
 10
1410.520140339411
 20
2022.84495731401
 30
0.0
 11
1461.02014033941
 21
2026.159418432701
 31
0.0
 70
    32
  1
%%c<>
 71
     5
 42
100.9999999999993
 73
     0
 74
     0
 75
     0
  3
BENUTZERDEFINIERTE NORM$0
100
AcDbAlignedDimension
 13
1511.52014033941
 23
2050.162123668499
 33
0.0
 14
1410.520140339411
 24
2054.162123668499
 34
0.0
 50
0.0000000000001132
100
AcDbRotatedDimension
1001
ACAD_DSTYLE_DIMINSPECT
1070
   396
1000
100%
1070
   395
1000

1070
   394
1070
    33
1070
   393
1070
     0
  0
ENDSEC
  0
SECTION
  2
OBJECTS
  0
DICTIONARY
  5
C
330
0
100
AcDbDictionary
281
     1
  3
ACAD_BACKGROUND
350
345
  3
ACAD_CIP_PREVIOUS_PRODUCT_INFO
350
216
  3
ACAD_COLOR
350
6B
  3
ACAD_DETAILVIEWSTYLE
350
A45
  3
ACAD_FIELDLIST
350
A74
  3
ACAD_GROUP
350
D
  3
ACAD_LAYOUT
350
1A
  3
ACAD_MATERIAL
350
6A
  3
ACAD_MLEADERSTYLE
350
12D
  3
ACAD_MLINESTYLE
350
17
  3
ACAD_PLOTSETTINGS
350
19
  3
ACAD_PLOTSTYLENAME
350
E
  3
ACAD_SCALELIST
350
10C
  3
ACAD_SECTIONVIEWSTYLE
350
A43
  3
ACAD_TABLESTYLE
350
7E
  3
ACAD_VISUALSTYLE
350
EF
  3
ACDB_RECOMPOSE_DATA
350
AEB
  3
AcDbVariableDictionary
350
5E
  3
AcmDictionary
350
281
  3
AMG
350
234
  3
AMGSNAPSETTINGS
350
344
  3
ASE_INDEX_DICTIONARY
350
AD2
  0
DICTIONARY
  5
1FF
330
2
100
AcDbDictionary
280
     1
281
     1
  3
ACAD_LAYERSTATES
360
200
  3
AMLAYER_GROUPCOLORS
360
3DD
  0
DICTIONARY
  5
13C
330
10
100
AcDbDictionary
280
     1
281
     1
  0
DICTIONARY
  5
341
330
340
100
AcDbDictionary
280
     1
281
     1
  0
DICTIONARY
  5
3E4
330
3E3
100
AcDbDictionary
280
     1
281
     1
  0
DICTIONARY
  5
1CE
330
1F
100
AcDbDictionary
280
     1
281
     1
  3
ACAD_SORTENTS
360
8A4
  0
DICTIONARY
  5
476
330
3FF
100
AcDbDictionary
280
     1
281
     1
  3
ACAD_SORTENTS
360
477
  0
DICTIONARY
  5
89B
330
81D
100
AcDbDictionary
280
     1
281
     1
  3
ACAD_SORTENTS
360
89C
  0
DICTIONARY
  5
8C8
330
8BB
100
AcDbDictionary
280
     1
281
     1
  3
ACAD_DIMASSOC
360
8C9
  0
DICTIONARY
  5
9A8
330
99B
100
AcDbDictionary
280
     1
281
     1
  3
ACAD_DIMASSOC
360
9A9
  0
DICTIONARY
  5
345
102
{ACAD_REACTORS
330
C
102
}
330
C
100
AcDbDictionary
281
     1
  0
XRECORD
  5
216
102
{ACAD_REACTORS
330
C
102
}
330
C
100
AcDbXrecord
280
     1
300
AMECH_PP
300
2016
300
PDSU_F_S
  0
DICTIONARY
  5
6B
102
{ACAD_REACTORS
330
C
102
}
330
C
100
AcDbDictionary
281
     1
  3
RAL CLASSIC$RAL 5017
350
3FE
  0
DICTIONARY
  5
A45
102
{ACAD_REACTORS
330
C
102
}
330
C
100
AcDbDictionary
281
     1
  3
Metric50
350
A46
  0
FIELDLIST
  5
A74
102
{ACAD_REACTORS
330
C
102
}
330
C
100
AcDbIdSet
 90
       22
330
AA6
330
AA7
330
AA8
330
AAC
330
AAD
330
AAE
330
A72
330
A73
330
A75
330
A84
330
A85
330
A86
330
A87
330
A90
330
A91
330
A92
330
A96
330
A97
330
A98
330
A9C
330
A9D
330
A9E
100
AcDbFieldList
  0
DICTIONARY
  5
D
102
{ACAD_REACTORS
330
C
102
}
330
C
100
AcDbDictionary
281
     1
  0
DICTIONARY
  5
1A
102
{ACAD_REACTORS
330
C
102
}
330
C
100
AcDbDictionary
281
     1
  3
Layout1
350
D3
  3
Layout2
350
D7
  3
Model
350
22
  0
DICTIONARY
  5
6A
102
{ACAD_REACTORS
330
C
102
}
330
C
100
AcDbDictionary
281
     1
  3
ByBlock
350
ED
  3
ByLayer
350
EC
  3
Global
350
EE
  0
DICTIONARY
  5
12D
102
{ACAD_REACTORS
330
C
102
}
330
C
100
AcDbDictionary
281
     1
  3
Annotative
350
13B
  3
Standard
350
12E
  0
DICTIONARY
  5
17
102
{ACAD_REACTORS
330
C
102
}
330
C
100
AcDbDictionary
281
     1
  3
Standard
350
18
  0
DICTIONARY
  5
19
102
{ACAD_REACTORS
330
C
102
}
330
C
100
AcDbDictionary
281
     1
  0
ACDBDICTIONARYWDFLT
  5
E
102
{ACAD_REACTORS
330
C
102
}
330
C
100
AcDbDictionary
281
     1
  3
Normal
350
F
100
AcDbDictionaryWithDefault
340
F
  0
DICTIONARY
  5
10C
102
{ACAD_REACTORS
330
C
102
}
330
C
100
AcDbDictionary
281
     1
  3
A0
350
10D
  3
A1
350
1BE
  3
A2
350
1BF
  3
A3
350
1C0
  3
A4
350
1C1
  3
A5
350
1C2
  3
A6
350
1C3
  3
A7
350
1C4
  3
A8
350
1C5
  3
A9
350
1C6
  3
B0
350
1C7
  3
B1
350
1C8
  3
B2
350
1C9
  3
B3
350
1CA
  3
B4
350
1CB
  3
B5
350
1CC
  3
B6
350
1CD
  0
DICTIONARY
  5
A43
102
{ACAD_REACTORS
330
C
102
}
330
C
100
AcDbDictionary
281
     1
  3
Metric50
350
A44
  0
DICTIONARY
  5
7E
102
{ACAD_REACTORS
330
C
102
}
330
C
100
AcDbDictionary
281
     1
  3
Standard
350
7F
  0
DICTIONARY
  5
EF
102
{ACAD_REACTORS
330
C
102
}
330
C
100
AcDbDictionary
281
     1
  3
2dWireframe
350
F5
  3
3D Hidden
350
21A
  3
3dWireframe
350
219
  3
Basic
350
F4
  3
Brighten
350
FB
  3
ColorChange
350
FF
  3
Conceptual
350
F8
  3
Dim
350
FA
  3
EdgeColorOff
350
1E6
  3
Facepattern
350
FE
  3
Flat
350
F0
  3
FlatWithEdges
350
F1
  3
Gouraud
350
F2
  3
GouraudWithEdges
350
F3
  3
Hidden
350
F7
  3
JitterOff
350
1E4
  3
Linepattern
350
FD
  3
OverhangOff
350
1E5
  3
Realistic
350
F9
  3
Shaded
350
1F3
  3
Shaded with edges
350
1F2
  3
Shades of Gray
350
1EF
  3
Sketchy
350
1F0
  3
Thicken
350
FC
  3
Wireframe
350
F6
  3
X-Ray
350
1F1
  0
XRECORD
  5
AEB
102
{ACAD_REACTORS
330
C
102
}
330
C
100
AcDbXrecord
280
     1
 90
        1
330
7F
330
A44
330
A46
  0
DICTIONARY
  5
5E
102
{ACAD_REACTORS
330
C
102
}
330
C
100
AcDbDictionary
281
     1
  3
CANNOSCALE
350
146
  3
CMLEADERSTYLE
350
145
  3
CTABLESTYLE
350
84
  3
CVIEWDETAILSTYLE
350
AE4
  3
CVIEWSECTIONSTYLE
350
AE5
  3
DIMASSOC
350
5F
  3
HIDETEXT
350
63
  3
LAYEREVAL
350
1AE
  3
LAYERNOTIFY
350
1AF
  0
DICTIONARY
  5
281
102
{ACAD_REACTORS
330
C
102
}
330
C
100
AcDbDictionary
281
     1
  3
AcmBOM
350
5BE
  3
AcmStdDictionary
350
282
  3
AMDTSECTSYM_ARROWCOLOR
350
4F6
  0
DICTIONARY
  5
234
102
{ACAD_REACTORS
330
C
102
}
330
C
100
AcDbDictionary
281
     1
  0
DICTIONARY
  5
344
102
{ACAD_REACTORS
330
C
102
}
330
C
100
AcDbDictionary
281
     1
  0
DICTIONARY
  5
AD2
102
{ACAD_REACTORS
330
C
102
}
330
C
100
AcDbDictionary
281
     1
  3
ASEBlockHierarchyIndexRecord
350
AD3
1001
DCO15
1040
1915771349.615
  0
DICTIONARY
  5
200
102
{ACAD_REACTORS
330
1FF
102
}
330
1FF
100
AcDbDictionary
281
     1
  0
DICTIONARY
  5
3DD
102
{ACAD_REACTORS
330
1FF
102
}
330
1FF
100
AcDbDictionary
280
     1
281
     1
  0
SORTENTSTABLE
  5
8A4
102
{ACAD_REACTORS
330
1CE
102
}
330
1CE
100
AcDbSortentsTable
330
1F
331
715
  5
722
331
75C
  5
762
331
711
  5
71C
331
794
  5
8AC
331
758
  5
75E
331
754
  5
75A
331
790
  5
8A8
331
70D
  5
713
331
750
  5
756
331
78C
  5
8A3
331
709
  5
709
331
788
  5
79F
331
74C
  5
752
331
748
  5
74E
331
787
  5
79E
331
744
  5
74A
331
783
  5
798
331
705
  5
705
331
701
  5
701
331
77F
  5
793
331
77B
  5
78F
331
6FD
  5
6FD
331
8B4
  5
780
331
734
  5
747
331
777
  5
78B
331
6F9
  5
6F9
331
8B0
  5
77A
331
730
  5
746
331
773
  5
786
331
6F5
  5
6F5
331
8AC
  5
77E
331
72C
  5
742
331
6F1
  5
6F1
331
8A8
  5
788
331
76F
  5
782
331
724
  5
72C
331
76B
  5
777
331
6ED
  5
6ED
331
767
  5
76E
331
7A3
  5
8B5
331
6E9
  5
6E9
331
763
  5
76A
331
79F
  5
8B4
331
71C
  5
724
331
75F
  5
765
331
75B
  5
761
331
714
  5
71F
331
757
  5
75D
331
793
  5
8AB
331
710
  5
716
331
753
  5
759
331
70C
  5
70E
331
78F
  5
8A7
331
708
  5
708
331
78B
  5
7A5
331
74F
  5
755
331
74B
  5
751
331
786
  5
79D
331
747
  5
74D
331
782
  5
796
331
704
  5
704
331
743
  5
749
331
700
  5
700
331
8B7
  5
772
331
77E
  5
792
331
77A
  5
78E
331
6FC
  5
6FC
331
8B3
  5
770
331
72F
  5
745
331
776
  5
78A
331
6F8
  5
6F8
331
8AF
  5
712
331
772
  5
785
331
6F4
  5
6F4
331
8AB
  5
710
331
6F0
  5
6F0
331
76E
  5
77F
331
8A7
  5
70A
331
727
  5
72F
331
76A
  5
775
331
6EC
  5
6EC
331
8A3
  5
776
331
723
  5
72A
331
766
  5
76D
331
6E8
  5
6E8
331
71F
  5
727
331
762
  5
769
331
79E
  5
8B3
331
75E
  5
764
331
713
  5
71E
331
796
  5
8AE
331
75A
  5
760
331
756
  5
75C
331
792
  5
8AA
331
70F
  5
715
331
78E
  5
8A6
331
752
  5
758
331
78A
  5
7A4
331
74E
  5
754
331
74A
  5
750
331
746
  5
74C
331
785
  5
79C
331
707
  5
707
331
742
  5
748
331
781
  5
795
331
703
  5
703
331
77D
  5
791
331
6FF
  5
6FF
331
8B6
  5
787
331
779
  5
78D
331
6FB
  5
6FB
331
8B2
  5
77D
331
775
  5
789
331
6F7
  5
6F7
331
8AE
  5
77B
331
72E
  5
744
331
771
  5
784
331
6F3
  5
6F3
331
8AA
  5
781
331
72A
  5
734
331
6EF
  5
6EF
331
8A6
  5
778
331
726
  5
72E
331
76D
  5
77C
331
722
  5
729
331
769
  5
773
331
6EB
  5
6EB
331
765
  5
76C
331
6E7
  5
6E7
331
71E
  5
726
331
761
  5
767
331
79D
  5
8B2
331
799
  5
8B0
331
75D
  5
763
331
716
  5
723
331
759
  5
75F
331
795
  5
8AD
331
712
  5
71D
331
755
  5
75B
331
791
  5
8A9
331
70E
  5
714
331
751
  5
757
331
70A
  5
70D
331
78D
  5
8A5
331
789
  5
7A3
331
74D
  5
753
331
749
  5
74F
331
784
  5
799
331
706
  5
706
331
745
  5
74B
331
780
  5
794
331
702
  5
702
331
8B5
  5
771
331
77C
  5
790
331
6FE
  5
6FE
331
778
  5
78C
331
6FA
  5
6FA
331
8B1
  5
76F
331
72D
  5
743
331
6F6
  5
6F6
331
8AD
  5
711
331
770
  5
783
331
6F2
  5
6F2
331
8A9
  5
70F
331
729
  5
730
331
76C
  5
779
331
6EE
  5
6EE
331
8A5
  5
70C
331
725
  5
72D
331
7A4
  5
8B6
331
6EA
  5
6EA
331
764
  5
76B
331
71D
  5
725
331
760
  5
766
331
79C
  5
8B1
331
798
  5
8AF
  0
SORTENTSTABLE
  5
477
102
{ACAD_REACTORS
330
476
102
}
330
476
100
AcDbSortentsTable
330
3FF
331
423
  5
424
331
424
  5
425
331
425
  5
426
331
426
  5
427
331
427
  5
428
331
428
  5
429
331
429
  5
42A
331
42A
  5
423
  0
SORTENTSTABLE
  5
89C
102
{ACAD_REACTORS
330
89B
102
}
330
89B
100
AcDbSortentsTable
330
81D
  0
DIMASSOC
  5
8C9
102
{ACAD_REACTORS
330
8C8
102
}
330
8C8
100
AcDbDimAssoc
330
8BB
 90
        1
 70
     0
 71
     0
  1
AcDbOsnapPointRef
 72
    13
331
70A
 73
     0
 91
        0
 40
0.0
 10
0.0
 20
0.0
 30
2.000000000000000E+50
 75
     0
  0
DIMASSOC
  5
9A9
102
{ACAD_REACTORS
330
9A8
102
}
330
9A8
100
AcDbDimAssoc
330
99B
 90
        2
 70
     0
 71
     0
  1
AcDbOsnapPointRef
 72
     2
331
707
 73
     0
 91
        0
 40
0.0
 10
0.0
 20
0.0
 30
0.0
 75
     0
  0
DBCOLOR
  5
3FE
102
{ACAD_REACTORS
330
6B
102
}
330
6B
100
AcDbColor
 62
   154
420
   938381
430
RAL CLASSIC$RAL 5017
1001
ACAD
1000
DBColXD
1070
   154
1071
-1039249011
1000
RAL CLASSIC$RAL 5017
  0
ACDBDETAILVIEWSTYLE
  5
A46
102
{ACAD_XDICTIONARY
360
AE9
102
}
102
{ACAD_REACTORS
330
A45
330
A60
330
A64
330
A68
330
A78
102
}
330
A45
100
AcDbModelDocViewStyle
 70
     0
  3
Metric50
290
     0
100
AcDbDetailViewStyle
 70
     0
 71
     0
 90
        3
 71
     1
340
11
 62
   256
 40
5.0
340
0
 62
   256
 40
5.0
300

 40
0.0
280
     1
 71
     2
340
16
 90
       25
 62
   256
 71
     3
340
11
 62
   256
 40
5.0
 90
        0
 40
15.0
 90
        1
300
%<\AcVar ViewDetailId>% (%<\AcVar ViewScale \f "%sn">%)
 71
     4
340
16
 90
       25
 62
   256
340
16
 90
       25
 62
   256
280
     0
  0
LAYOUT
  5
D3
102
{ACAD_REACTORS
330
1A
102
}
330
1A
100
AcDbPlotSettings
  1

  2
C:\Documents and Settings\basas\Application Data\Autodesk\AutoCAD 2005\R16.1\enu\plotters\Default Windows System Printer.pc3
  4

  6

 40
0.0
 41
0.0
 42
0.0
 43
0.0
 44
0.0
 45
0.0
 46
0.0
 47
0.0
 48
0.0
 49
0.0
140
0.0
141
0.0
142
1.0
143
1.0
 70
   688
 72
     0
 73
     0
 74
     5
  7

 75
    16
147
1.0
 76
     0
 77
     2
 78
   300
148
0.0
149
0.0
100
AcDbLayout
  1
Layout1
 70
     1
 71
     1
 10
0.0
 20
0.0
 11
12.0
 21
9.0
 12
0.0
 22
0.0
 32
0.0
 14
0.0
 24
0.0
 34
0.0
 15
0.0
 25
0.0
 35
0.0
146
0.0
 13
0.0
 23
0.0
 33
0.0
 16
1.0
 26
0.0
 36
0.0
 17
0.0
 27
1.0
 37
0.0
 76
     0
330
D2
  0
LAYOUT
  5
D7
102
{ACAD_REACTORS
330
1A
102
}
330
1A
100
AcDbPlotSettings
  1

  2
C:\Documents and Settings\basas\Application Data\Autodesk\AutoCAD 2005\R16.1\enu\plotters\Default Windows System Printer.pc3
  4

  6

 40
0.0
 41
0.0
 42
0.0
 43
0.0
 44
0.0
 45
0.0
 46
0.0
 47
0.0
 48
0.0
 49
0.0
140
0.0
141
0.0
142
1.0
143
1.0
 70
   688
 72
     0
 73
     0
 74
     5
  7

 75
    16
147
1.0
 76
     0
 77
     2
 78
   300
148
0.0
149
0.0
100
AcDbLayout
  1
Layout2
 70
     1
 71
     2
 10
0.0
 20
0.0
 11
12.0
 21
9.0
 12
0.0
 22
0.0
 32
0.0
 14
0.0
 24
0.0
 34
0.0
 15
0.0
 25
0.0
 35
0.0
146
0.0
 13
0.0
 23
0.0
 33
0.0
 16
1.0
 26
0.0
 36
0.0
 17
0.0
 27
1.0
 37
0.0
 76
     0
330
D6
  0
LAYOUT
  5
22
102
{ACAD_XDICTIONARY
360
205
102
}
102
{ACAD_REACTORS
330
1A
102
}
330
1A
100
AcDbPlotSettings
  1

  2
none_device
  4
ISO_A4_(210.00_x_297.00_MM)
  6

 40
7.5
 41
20.0
 42
7.5
 43
20.0
 44
210.0
 45
297.0
 46
11.54999923706054
 47
-13.65000009536743
 48
0.0
 49
0.0
140
0.0
141
0.0
142
1.0
143
8.704084754739808
 70
 11952
 72
     1
 73
     0
 74
     0
  7

 75
     0
147
0.1148885871608098
 76
     0
 77
     2
 78
   300
148
0.0
149
0.0
100
AcDbLayout
  1
Model
 70
     1
 71
     0
 10
0.0
 20
0.0
 11
12.0
 21
9.0
 12
0.0
 22
0.0
 32
0.0
 14
0.0
 24
0.0
 34
0.0
 15
0.0
 25
0.0
 35
0.0
146
0.0
 13
0.0
 23
0.0
 33
0.0
 16
1.0
 26
0.0
 36
0.0
 17
0.0
 27
1.0
 37
0.0
 76
     0
330
1F
331
EA
1001
ACAD_PSEXT
1000
None
1000
None
1000
Not applicable
1000
The layout will not be plotted unless a new plotter configuration name is selected.
1070
     0
  0
MATERIAL
  5
ED
102
{ACAD_XDICTIONARY
360
1F9
102
}
102
{ACAD_REACTORS
330
6A
102
}
330
6A
100
AcDbMaterial
  1
ByBlock
 94
       63
  0
MATERIAL
  5
EC
102
{ACAD_XDICTIONARY
360
1F7
102
}
102
{ACAD_REACTORS
330
6A
102
}
330
6A
100
AcDbMaterial
  1
ByLayer
 94
       63
  0
MATERIAL
  5
EE
102
{ACAD_XDICTIONARY
360
173
102
}
102
{ACAD_REACTORS
330
6A
102
}
330
6A
100
AcDbMaterial
  1
Global
 43
0.0007999999797903
 43
0.0
 43
0.0
 43
0.0
 43
0.0
 43
0.0007999999797903
 43
0.0
 43
0.0
 43
0.0
 43
0.0
 43
1.0
 43
0.0
 43
0.0
 43
0.0
 43
0.0
 43
1.0
 49
0.0007999999797903
 49
0.0
 49
0.0
 49
0.0
 49
0.0
 49
0.0007999999797903
 49
0.0
 49
0.0
 49
0.0
 49
0.0
 49
1.0
 49
0.0
 49
0.0
 49
0.0
 49
0.0
 49
1.0
142
0.0007999999797903
142
0.0
142
0.0
142
0.0
142
0.0
142
0.0007999999797903
142
0.0
142
0.0
142
0.0
142
0.0
142
1.0
142
0.0
142
0.0
142
0.0
142
0.0
142
1.0
144
0.0007999999797903
144
0.0
144
0.0
144
0.0
144
0.0
144
0.0007999999797903
144
0.0
144
0.0
144
0.0
144
0.0
144
1.0
144
0.0
144
0.0
144
0.0
144
0.0
144
1.0
 94
       63
1001
ACAD
1070
    -1
1070
     3
1070
     0
1000

1071
        0
1070
     0
  0
MLEADERSTYLE
  5
13B
102
{ACAD_REACTORS
330
12D
102
}
330
12D
100
AcDbMLeaderStyle
179
     2
170
     2
171
     1
172
     0
 90
        2
 40
0.0
 41
0.0
173
     1
 91
-1056964608
340
14
 92
       -2
290
     1
 42
2.0
291
     1
 43
8.0
  3
Standard
 44
4.0
300

342
11
174
     1
178
     1
175
     1
176
     0
 93
-1056964608
 45
4.0
292
     0
297
     0
 46
4.0
 94
-1056964608
 47
1.0
 49
1.0
140
1.0
293
     1
141
0.0
294
     1
177
     0
142
1.0
295
     0
296
     1
143
3.75
271
     0
272
     9
273
     9
298
     1
  0
MLEADERSTYLE
  5
12E
102
{ACAD_REACTORS
330
12D
102
}
330
12D
100
AcDbMLeaderStyle
179
     2
170
     2
171
     1
172
     0
 90
        2
 40
0.0
 41
0.0
173
     1
 91
-1056964608
340
14
 92
       -2
290
     1
 42
2.0
291
     1
 43
8.0
  3
Standard
 44
4.0
300

342
11
174
     1
178
     1
175
     1
176
     0
 93
-1056964608
 45
4.0
292
     0
297
     0
 46
4.0
 94
-1056964608
 47
1.0
 49
1.0
140
1.0
293
     1
141
0.0
294
     1
177
     0
142
1.0
295
     0
296
     0
143
3.75
271
     0
272
     9
273
     9
298
     1
  0
MLINESTYLE
  5
18
102
{ACAD_REACTORS
330
17
102
}
330
17
100
AcDbMlineStyle
  2
STANDARD
 70
     0
  3

 62
   256
 51
90.0
 52
90.0
 71
     2
 49
0.5
 62
   256
  6
BYLAYER
 49
-0.5
 62
   256
  6
BYLAYER
  0
ACDBPLACEHOLDER
  5
F
102
{ACAD_REACTORS
330
E
102
}
330
E
  0
SCALE
  5
10D
102
{ACAD_REACTORS
330
10C
102
}
330
10C
100
AcDbScale
 70
     0
300
1:1
140
1.0
141
1.0
290
     1
  0
SCALE
  5
1BE
102
{ACAD_REACTORS
330
10C
102
}
330
10C
100
AcDbScale
 70
     0
300
1:2
140
1.0
141
2.0
290
     0
  0
SCALE
  5
1BF
102
{ACAD_REACTORS
330
10C
102
}
330
10C
100
AcDbScale
 70
     0
300
1:4
140
1.0
141
4.0
290
     0
  0
SCALE
  5
1C0
102
{ACAD_REACTORS
330
10C
102
}
330
10C
100
AcDbScale
 70
     0
300
1:5
140
1.0
141
5.0
290
     0
  0
SCALE
  5
1C1
102
{ACAD_REACTORS
330
10C
102
}
330
10C
100
AcDbScale
 70
     0
300
1:8
140
1.0
141
8.0
290
     0
  0
SCALE
  5
1C2
102
{ACAD_REACTORS
330
10C
102
}
330
10C
100
AcDbScale
 70
     0
300
1:10
140
1.0
141
10.0
290
     0
  0
SCALE
  5
1C3
102
{ACAD_REACTORS
330
10C
102
}
330
10C
100
AcDbScale
 70
     0
300
1:16
140
1.0
141
16.0
290
     0
  0
SCALE
  5
1C4
102
{ACAD_REACTORS
330
10C
102
}
330
10C
100
AcDbScale
 70
     0
300
1:20
140
1.0
141
20.0
290
     0
  0
SCALE
  5
1C5
102
{ACAD_REACTORS
330
10C
102
}
330
10C
100
AcDbScale
 70
     0
300
1:30
140
1.0
141
30.0
290
     0
  0
SCALE
  5
1C6
102
{ACAD_REACTORS
330
10C
102
}
330
10C
100
AcDbScale
 70
     0
300
1:40
140
1.0
141
40.0
290
     0
  0
SCALE
  5
1C7
102
{ACAD_REACTORS
330
10C
102
}
330
10C
100
AcDbScale
 70
     0
300
1:50
140
1.0
141
50.0
290
     0
  0
SCALE
  5
1C8
102
{ACAD_REACTORS
330
10C
102
}
330
10C
100
AcDbScale
 70
     0
300
1:100
140
1.0
141
100.0
290
     0
  0
SCALE
  5
1C9
102
{ACAD_REACTORS
330
10C
102
}
330
10C
100
AcDbScale
 70
     0
300
2:1
140
2.0
141
1.0
290
     0
  0
SCALE
  5
1CA
102
{ACAD_REACTORS
330
10C
102
}
330
10C
100
AcDbScale
 70
     0
300
4:1
140
4.0
141
1.0
290
     0
  0
SCALE
  5
1CB
102
{ACAD_REACTORS
330
10C
102
}
330
10C
100
AcDbScale
 70
     0
300
8:1
140
8.0
141
1.0
290
     0
  0
SCALE
  5
1CC
102
{ACAD_REACTORS
330
10C
102
}
330
10C
100
AcDbScale
 70
     0
300
10:1
140
10.0
141
1.0
290
     0
  0
SCALE
  5
1CD
102
{ACAD_REACTORS
330
10C
102
}
330
10C
100
AcDbScale
 70
     0
300
100:1
140
100.0
141
1.0
290
     0
  0
ACDBSECTIONVIEWSTYLE
  5
A44
102
{ACAD_XDICTIONARY
360
AE7
102
}
102
{ACAD_REACTORS
330
A43
330
A5F
330
A63
330
A67
330
A77
102
}
330
A43
100
AcDbModelDocViewStyle
 70
     0
  3
Metric50
290
     0
100
AcDbSectionViewStyle
 70
     0
 71
     0
 90
      102
 71
     1
340
11
 62
   256
 40
5.0
340
0
340
0
 62
   256
 40
5.0
300
I, O, Q, S, X, Z
 40
10.0
 90
        0
 40
2.5
 90
        0
 71
     2
340
16
 90
       25
 62
   256
340
16
 90
       50
 62
   256
 40
5.0
 40
2.5
 40
5.0
 71
     3
340
11
 62
   256
 40
5.0
 90
        0
 40
15.0
 90
        1
300
%<\AcVar ViewSectionStartId>%-%<\AcVar ViewSectionEndId>% (%<\AcVar ViewScale \f "%sn">%)
 71
     4
 62
   256
 62
   257
300
ANSI31
 40
1.0
 90
        0
290
     0
290
     0
 90
        6
 40
0.0
 40
1.570796326794896
 40
0.2617993877991494
 40
1.308996938995747
 40
-0.2617993877991494
 40
1.832595714594046
  0
TABLESTYLE
  5
7F
102
{ACAD_XDICTIONARY
360
162
102
}
102
{ACAD_REACTORS
330
7E
102
}
330
7E
100
AcDbTableStyle
280
     0
  3
Standard
 70
     0
 71
     0
 40
1.5
 41
1.5
280
     0
281
     0
  7
STANDARD
140
4.5
170
     2
 62
     0
 63
     7
283
     0
 90
      512
 91
        0
  1

274
    -2
284
     1
 64
     0
275
    -2
285
     1
 65
     0
276
    -2
286
     1
 66
     0
277
    -2
287
     1
 67
     0
278
    -2
288
     1
 68
     0
279
    -2
289
     1
 69
     0
  7
STANDARD
140
6.0
170
     5
 62
     0
 63
     7
283
     0
 90
      512
 91
        0
  1

274
    -2
284
     1
 64
     0
275
    -2
285
     1
 65
     0
276
    -2
286
     1
 66
     0
277
    -2
287
     1
 67
     0
278
    -2
288
     1
 68
     0
279
    -2
289
     1
 69
     0
  7
STANDARD
140
4.5
170
     5
 62
     0
 63
     7
283
     0
 90
      512
 91
        0
  1

274
    -2
284
     1
 64
     0
275
    -2
285
     1
 65
     0
276
    -2
286
     1
 66
     0
277
    -2
287
     1
 67
     0
278
    -2
288
     1
 68
     0
279
    -2
289
     1
 69
     0
  0
VISUALSTYLE
  5
F5
102
{ACAD_REACTORS
330
EF
102
}
330
EF
100
AcDbVisualStyle
  2
2dWireframe
 70
     4
177
     3
291
     0
 70
    58
 90
        0
176
     1
 90
        2
176
     1
 90
        1
176
     1
 90
        0
176
     1
 40
0.6
176
     1
 40
30.0
176
     1
 62
     7
420
 16777215
176
     1
 90
        1
176
     1
 90
        4
176
     1
 62
     7
176
     1
 62
   257
176
     1
 90
        1
176
     1
 90
        1
176
     1
 40
1.0
176
     1
 90
        0
176
     1
 62
   257
176
     1
 40
1.0
176
     1
 90
        1
176
     1
 90
        6
176
     1
 90
        2
176
     1
 62
     7
176
     1
 90
        5
176
     1
 90
        0
176
     1
 90
        0
176
     1
290
     0
176
     1
 90
        1
176
     1
 40
0.0
176
     1
 90
        0
176
     1
290
     1
176
     1
290
     1
176
     1
290
     0
176
     1
290
     0
176
     1
290
     0
176
     1
290
     0
176
     1
290
     0
176
     1
290
     0
176
     1
290
     0
176
     1
 90
       50
176
     1
 40
0.0
176
     1
 40
1.0
176
     1
 90
        0
176
     1
 62
    18
420
        0
176
     1
 90
       50
176
     1
 90
        3
176
     1
 62
     5
420
      255
176
     1
290
     0
176
     1
 90
       50
176
     1
 90
       50
176
     1
 90
       50
176
     1
290
     0
176
     1
 90
       50
176
     1
 62
   256
176
     0
 40
1.0
176
     0
 90
        2
176
     1
  1
strokes_ogs.tif
176
     1
290
     0
176
     1
 40
1.0
176
     1
 40
1.0
176
     1
  0
VISUALSTYLE
  5
21A
102
{ACAD_REACTORS
330
EF
102
}
330
EF
100
AcDbVisualStyle
  2
3D Hidden
 70
     6
177
     3
291
     0
 70
    58
 90
        1
176
     1
 90
        2
176
     1
 90
        2
176
     1
 90
        0
176
     1
 40
0.6
176
     1
 40
30.0
176
     1
 62
     7
420
 16777215
176
     1
 90
        2
176
     1
 90
        2
176
     1
 62
     7
176
     1
 62
   257
176
     1
 90
        2
176
     1
 90
        1
176
     1
 40
179.0
176
     1
 90
        0
176
     1
 62
   257
176
     1
 40
1.0
176
     1
 90
        1
176
     1
 90
        6
176
     1
 90
        2
176
     1
 62
     7
176
     1
 90
        3
176
     1
 90
        0
176
     1
 90
        0
176
     1
290
     0
176
     1
 90
        1
176
     1
 40
0.0
176
     1
 90
        0
176
     1
290
     0
176
     1
290
     1
176
     1
290
     1
176
     1
290
     0
176
     1
290
     0
176
     1
290
     0
176
     1
290
     0
176
     1
290
     0
176
     1
290
     0
176
     1
 90
       50
176
     1
 40
0.0
176
     1
 40
1.0
176
     1
 90
        0
176
     1
 62
    18
420
        0
176
     1
 90
       50
176
     1
 90
        3
176
     1
 62
     5
420
      255
176
     1
290
     0
176
     1
 90
       50
176
     1
 90
       50
176
     1
 90
       50
176
     1
290
     0
176
     1
 90
       50
176
     1
 62
   256
176
     0
 40
1.0
176
     0
 90
        2
176
     1
  1
strokes_ogs.tif
176
     1
290
     0
176
     1
 40
1.0
176
     1
 40
1.0
176
     1
  0
VISUALSTYLE
  5
219
102
{ACAD_REACTORS
330
EF
102
}
330
EF
100
AcDbVisualStyle
  2
3dWireframe
 70
     5
177
     3
291
     0
 70
    58
 90
        0
176
     1
 90
        2
176
     1
 90
        0
176
     1
 90
        0
176
     1
 40
0.6
176
     1
 40
30.0
176
     1
 62
     7
420
 16777215
176
     1
 90
        1
176
     1
 90
        4
176
     1
 62
     7
176
     1
 62
   257
176
     1
 90
        1
176
     1
 90
        1
176
     1
 40
1.0
176
     1
 90
        0
176
     1
 62
   257
176
     1
 40
1.0
176
     1
 90
        1
176
     1
 90
        6
176
     1
 90
        2
176
     1
 62
     7
176
     1
 90
        5
176
     1
 90
        0
176
     1
 90
        0
176
     1
290
     0
176
     1
 90
        1
176
     1
 40
0.0
176
     1
 90
        0
176
     1
290
     0
176
     1
290
     1
176
     1
290
     1
176
     1
290
     0
176
     1
290
     0
176
     1
290
     0
176
     1
290
     0
176
     1
290
     0
176
     1
290
     0
176
     1
 90
       50
176
     1
 40
0.0
176
     1
 40
1.0
176
     1
 90
        0
176
     1
 62
    18
420
        0
176
     1
 90
       50
176
     1
 90
        3
176
     1
 62
     5
420
      255
176
     1
290
     0
176
     1
 90
       50
176
     1
 90
       50
176
     1
 90
       50
176
     1
290
     0
176
     1
 90
       50
176
     1
 62
   256
176
     0
 40
1.0
176
     0
 90
        2
176
     1
  1
strokes_ogs.tif
176
     1
290
     0
176
     1
 40
1.0
176
     1
 40
1.0
176
     1
  0
VISUALSTYLE
  5
F4
102
{ACAD_REACTORS
330
EF
102
}
330
EF
100
AcDbVisualStyle
  2
Basic
 70
     7
177
     3
291
     1
 70
    58
 90
        1
176
     1
 90
        0
176
     1
 90
        1
176
     1
 90
        0
176
     1
 40
0.6
176
     1
 40
30.0
176
     1
 62
     7
420
 16777215
176
     1
 90
        0
176
     1
 90
        4
176
     1
 62
     7
176
     1
 62
   257
176
     1
 90
        1
176
     1
 90
        1
176
     1
 40
1.0
176
     1
 90
        8
176
     1
 62
     7
176
     1
 40
1.0
176
     1
 90
        1
176
     1
 90
        6
176
     1
 90
        2
176
     1
 62
     7
176
     1
 90
        5
176
     1
 90
        0
176
     1
 90
        0
176
     1
290
     0
176
     1
 90
        1
176
     1
 40
0.0
176
     1
 90
        0
176
     1
290
     0
176
     1
290
     1
176
     1
290
     1
176
     1
290
     0
176
     1
290
     0
176
     1
290
     0
176
     1
290
     0
176
     1
290
     0
176
     1
290
     0
176
     1
 90
       50
176
     1
 40
0.0
176
     1
 40
1.0
176
     1
 90
        0
176
     1
 62
    18
420
        0
176
     1
 90
       50
176
     1
 90
        3
176
     1
 62
     5
420
      255
176
     1
290
     0
176
     1
 90
       50
176
     1
 90
       50
176
     1
 90
       50
176
     1
290
     0
176
     1
 90
       50
176
     1
 62
   256
176
     0
 40
1.0
176
     0
 90
        2
176
     1
  1
strokes_ogs.tif
176
     1
290
     0
176
     1
 40
1.0
176
     1
 40
1.0
176
     1
  0
VISUALSTYLE
  5
FB
102
{ACAD_REACTORS
330
EF
102
}
330
EF
100
AcDbVisualStyle
  2
Brighten
 70
    12
177
     3
291
     1
 70
    58
 90
        2
176
     1
 90
        2
176
     1
 90
        1
176
     1
 90
        0
176
     1
 40
0.6
176
     1
 40
30.0
176
     1
 62
     7
420
 16777215
176
     1
 90
        1
176
     1
 90
        4
176
     1
 62
     7
176
     1
 62
   257
176
     1
 90
        1
176
     1
 90
        1
176
     1
 40
1.0
176
     1
 90
        8
176
     1
 62
     7
176
     1
 40
1.0
176
     1
 90
        1
176
     1
 90
        6
176
     1
 90
        2
176
     1
 62
     7
176
     1
 90
        5
176
     1
 90
        0
176
     1
 90
        0
176
     1
290
     0
176
     1
 90
        1
176
     1
 40
50.0
176
     1
 90
        0
176
     1
290
     0
176
     1
290
     1
176
     1
290
     1
176
     1
290
     0
176
     1
290
     0
176
     1
290
     0
176
     1
290
     0
176
     1
290
     0
176
     1
290
     0
176
     1
 90
       50
176
     1
 40
0.0
176
     1
 40
1.0
176
     1
 90
        0
176
     1
 62
    18
420
        0
176
     1
 90
       50
176
     1
 90
        3
176
     1
 62
     5
420
      255
176
     1
290
     0
176
     1
 90
       50
176
     1
 90
       50
176
     1
 90
       50
176
     1
290
     0
176
     1
 90
       50
176
     1
 62
   256
176
     0
 40
1.0
176
     0
 90
        2
176
     1
  1
strokes_ogs.tif
176
     1
290
     0
176
     1
 40
1.0
176
     1
 40
1.0
176
     1
  0
VISUALSTYLE
  5
FF
102
{ACAD_REACTORS
330
EF
102
}
330
EF
100
AcDbVisualStyle
  2
ColorChange
 70
    16
177
     3
291
     1
 70
    58
 90
        2
176
     1
 90
        2
176
     1
 90
        3
176
     1
 90
        0
176
     1
 40
0.6
176
     1
 40
30.0
176
     1
 62
     8
420
  8421504
176
     1
 90
        1
176
     1
 90
        4
176
     1
 62
     7
176
     1
 62
   257
176
     1
 90
        1
176
     1
 90
        1
176
     1
 40
1.0
176
     1
 90
        8
176
     1
 62
     8
420
  8421504
176
     1
 40
1.0
176
     1
 90
        1
176
     1
 90
        6
176
     1
 90
        2
176
     1
 62
     7
176
     1
 90
        5
176
     1
 90
        0
176
     1
 90
        0
176
     1
290
     0
176
     1
 90
        1
176
     1
 40
0.0
176
     1
 90
        0
176
     1
290
     0
176
     1
290
     1
176
     1
290
     1
176
     1
290
     0
176
     1
290
     0
176
     1
290
     0
176
     1
290
     0
176
     1
290
     0
176
     1
290
     0
176
     1
 90
       50
176
     1
 40
0.0
176
     1
 40
1.0
176
     1
 90
        0
176
     1
 62
    18
420
        0
176
     1
 90
       50
176
     1
 90
        3
176
     1
 62
     5
420
      255
176
     1
290
     0
176
     1
 90
       50
176
     1
 90
       50
176
     1
 90
       50
176
     1
290
     0
176
     1
 90
       50
176
     1
 62
   256
176
     0
 40
1.0
176
     0
 90
        2
176
     1
  1
strokes_ogs.tif
176
     1
290
     0
176
     1
 40
1.0
176
     1
 40
1.0
176
     1
  0
VISUALSTYLE
  5
F8
102
{ACAD_REACTORS
330
EF
102
}
330
EF
100
AcDbVisualStyle
  2
Conceptual
 70
     9
177
     3
291
     0
 70
    58
 90
        3
176
     1
 90
        2
176
     1
 90
        1
176
     1
 90
        0
176
     1
 40
0.6
176
     1
 40
30.0
176
     1
 62
     7
420
 16777215
176
     1
 90
        2
176
     1
 90
        2
176
     1
 62
     7
176
     1
 62
   257
176
     1
 90
        1
176
     1
 90
        1
176
     1
 40
40.0
176
     1
 90
        8
176
     1
 62
     7
176
     1
 40
1.0
176
     1
 90
        1
176
     1
 90
        6
176
     1
 90
        2
176
     1
 62
     7
176
     1
 90
        3
176
     1
 90
        0
176
     1
 90
        0
176
     1
290
     0
176
     1
 90
        1
176
     1
 40
0.0
176
     1
 90
        0
176
     1
290
     0
176
     1
290
     1
176
     1
290
     1
176
     1
290
     0
176
     1
290
     0
176
     1
290
     0
176
     1
290
     0
176
     1
290
     0
176
     1
290
     0
176
     1
 90
       50
176
     1
 40
0.0
176
     1
 40
1.0
176
     1
 90
        0
176
     1
 62
    18
420
        0
176
     1
 90
       50
176
     1
 90
        3
176
     1
 62
     5
420
      255
176
     1
290
     0
176
     1
 90
       50
176
     1
 90
       50
176
     1
 90
       50
176
     1
290
     0
176
     1
 90
       50
176
     1
 62
   256
176
     0
 40
1.0
176
     0
 90
        2
176
     1
  1
strokes_ogs.tif
176
     1
290
     0
176
     1
 40
1.0
176
     1
 40
1.0
176
     1
  0
VISUALSTYLE
  5
FA
102
{ACAD_REACTORS
330
EF
102
}
330
EF
100
AcDbVisualStyle
  2
Dim
 70
    11
177
     3
291
     1
 70
    58
 90
        2
176
     1
 90
        2
176
     1
 90
        1
176
     1
 90
        0
176
     1
 40
0.6
176
     1
 40
30.0
176
     1
 62
     7
420
 16777215
176
     1
 90
        1
176
     1
 90
        4
176
     1
 62
     7
176
     1
 62
   257
176
     1
 90
        1
176
     1
 90
        1
176
     1
 40
1.0
176
     1
 90
        8
176
     1
 62
     7
176
     1
 40
1.0
176
     1
 90
        1
176
     1
 90
        6
176
     1
 90
        2
176
     1
 62
     7
176
     1
 90
        5
176
     1
 90
        0
176
     1
 90
        0
176
     1
290
     0
176
     1
 90
        1
176
     1
 40
-50.0
176
     1
 90
        0
176
     1
290
     0
176
     1
290
     1
176
     1
290
     1
176
     1
290
     0
176
     1
290
     0
176
     1
290
     0
176
     1
290
     0
176
     1
290
     0
176
     1
290
     0
176
     1
 90
       50
176
     1
 40
0.0
176
     1
 40
1.0
176
     1
 90
        0
176
     1
 62
    18
420
        0
176
     1
 90
       50
176
     1
 90
        3
176
     1
 62
     5
420
      255
176
     1
290
     0
176
     1
 90
       50
176
     1
 90
       50
176
     1
 90
       50
176
     1
290
     0
176
     1
 90
       50
176
     1
 62
   256
176
     0
 40
1.0
176
     0
 90
        2
176
     1
  1
strokes_ogs.tif
176
     1
290
     0
176
     1
 40
1.0
176
     1
 40
1.0
176
     1
  0
VISUALSTYLE
  5
1E6
102
{ACAD_REACTORS
330
EF
102
}
330
EF
100
AcDbVisualStyle
  2
EdgeColorOff
 70
    22
177
     3
291
     1
 70
    58
 90
        2
176
     0
 90
        2
176
     0
 90
        0
176
     0
 90
        0
176
     0
 40
0.6
176
     0
 40
30.0
176
     0
 62
     7
420
 16777215
176
     0
 90
        1
176
     0
 90
        4
176
     0
 62
     7
176
     0
 62
   257
176
     0
 90
        1
176
     0
 90
        1
176
     0
 40
1.0
176
     0
 90
        8
176
     2
 62
     7
176
     0
 40
1.0
176
     0
 90
        1
176
     0
 90
        6
176
     0
 90
        2
176
     0
 62
     7
176
     0
 90
        5
176
     0
 90
        0
176
     0
 90
        0
176
     0
290
     0
176
     0
 90
        1
176
     0
 40
0.0
176
     0
 90
        0
176
     0
290
     0
176
     1
290
     1
176
     1
290
     1
176
     1
290
     0
176
     1
290
     0
176
     1
290
     0
176
     1
290
     0
176
     1
290
     0
176
     1
290
     0
176
     1
 90
       50
176
     1
 40
0.0
176
     1
 40
1.0
176
     1
 90
        0
176
     1
 62
    18
420
        0
176
     1
 90
       50
176
     1
 90
        3
176
     1
 62
     5
420
      255
176
     1
290
     0
176
     1
 90
       50
176
     1
 90
       50
176
     1
 90
       50
176
     1
290
     0
176
     1
 90
       50
176
     1
 62
   256
176
     0
 40
1.0
176
     0
 90
        2
176
     1
  1
strokes_ogs.tif
176
     1
290
     0
176
     1
 40
1.0
176
     1
 40
1.0
176
     1
  0
VISUALSTYLE
  5
FE
102
{ACAD_REACTORS
330
EF
102
}
330
EF
100
AcDbVisualStyle
  2
Facepattern
 70
    15
177
     3
291
     1
 70
    58
 90
        2
176
     1
 90
        2
176
     1
 90
        1
176
     1
 90
        0
176
     1
 40
0.6
176
     1
 40
30.0
176
     1
 62
     7
420
 16777215
176
     1
 90
        1
176
     1
 90
        4
176
     1
 62
     7
176
     1
 62
   257
176
     1
 90
        1
176
     1
 90
        1
176
     1
 40
1.0
176
     1
 90
        8
176
     1
 62
     7
176
     1
 40
1.0
176
     1
 90
        1
176
     1
 90
        6
176
     1
 90
        2
176
     1
 62
     7
176
     1
 90
        5
176
     1
 90
        0
176
     1
 90
        0
176
     1
290
     0
176
     1
 90
        1
176
     1
 40
0.0
176
     1
 90
        0
176
     1
290
     0
176
     1
290
     1
176
     1
290
     1
176
     1
290
     0
176
     1
290
     0
176
     1
290
     0
176
     1
290
     0
176
     1
290
     0
176
     1
290
     0
176
     1
 90
       50
176
     1
 40
0.0
176
     1
 40
1.0
176
     1
 90
        0
176
     1
 62
    18
420
        0
176
     1
 90
       50
176
     1
 90
        3
176
     1
 62
     5
420
      255
176
     1
290
     0
176
     1
 90
       50
176
     1
 90
       50
176
     1
 90
       50
176
     1
290
     0
176
     1
 90
       50
176
     1
 62
   256
176
     0
 40
1.0
176
     0
 90
        2
176
     1
  1
strokes_ogs.tif
176
     1
290
     0
176
     1
 40
1.0
176
     1
 40
1.0
176
     1
  0
VISUALSTYLE
  5
F0
102
{ACAD_REACTORS
330
EF
102
}
330
EF
100
AcDbVisualStyle
  2
Flat
 70
     0
177
     3
291
     1
 70
    58
 90
        2
176
     1
 90
        1
176
     1
 90
        1
176
     1
 90
        2
176
     1
 40
0.6
176
     1
 40
30.0
176
     1
 62
     7
420
 16777215
176
     1
 90
        0
176
     1
 90
        0
176
     1
 62
     7
176
     1
 62
   257
176
     1
 90
        1
176
     1
 90
        1
176
     1
 40
1.0
176
     1
 90
        8
176
     1
 62
     7
176
     1
 40
1.0
176
     1
 90
        1
176
     1
 90
        6
176
     1
 90
        2
176
     1
 62
     7
176
     1
 90
        5
176
     1
 90
        0
176
     1
 90
        0
176
     1
290
     0
176
     1
 90
       13
176
     1
 40
0.0
176
     1
 90
        0
176
     1
290
     0
176
     1
290
     1
176
     1
290
     1
176
     1
290
     0
176
     1
290
     0
176
     1
290
     0
176
     1
290
     0
176
     1
290
     0
176
     1
290
     0
176
     1
 90
       50
176
     1
 40
0.0
176
     1
 40
1.0
176
     1
 90
        0
176
     1
 62
    18
420
        0
176
     1
 90
       50
176
     1
 90
        3
176
     1
 62
     5
420
      255
176
     1
290
     0
176
     1
 90
       50
176
     1
 90
       50
176
     1
 90
       50
176
     1
290
     0
176
     1
 90
       50
176
     1
 62
   256
176
     0
 40
1.0
176
     0
 90
        2
176
     1
  1
strokes_ogs.tif
176
     1
290
     0
176
     1
 40
1.0
176
     1
 40
1.0
176
     1
  0
VISUALSTYLE
  5
F1
102
{ACAD_REACTORS
330
EF
102
}
330
EF
100
AcDbVisualStyle
  2
FlatWithEdges
 70
     1
177
     3
291
     1
 70
    58
 90
        2
176
     1
 90
        1
176
     1
 90
        1
176
     1
 90
        2
176
     1
 40
0.6
176
     1
 40
30.0
176
     1
 62
     7
420
 16777215
176
     1
 90
        1
176
     1
 90
        0
176
     1
 62
     7
176
     1
 62
   257
176
     1
 90
        1
176
     1
 90
        1
176
     1
 40
1.0
176
     1
 90
        0
176
     1
 62
   257
176
     1
 40
1.0
176
     1
 90
        1
176
     1
 90
        6
176
     1
 90
        2
176
     1
 62
     7
176
     1
 90
        5
176
     1
 90
        0
176
     1
 90
        0
176
     1
290
     0
176
     1
 90
       13
176
     1
 40
0.0
176
     1
 90
        0
176
     1
290
     0
176
     1
290
     1
176
     1
290
     1
176
     1
290
     0
176
     1
290
     0
176
     1
290
     0
176
     1
290
     0
176
     1
290
     0
176
     1
290
     0
176
     1
 90
       50
176
     1
 40
0.0
176
     1
 40
1.0
176
     1
 90
        0
176
     1
 62
    18
420
        0
176
     1
 90
       50
176
     1
 90
        3
176
     1
 62
     5
420
      255
176
     1
290
     0
176
     1
 90
       50
176
     1
 90
       50
176
     1
 90
       50
176
     1
290
     0
176
     1
 90
       50
176
     1
 62
   256
176
     0
 40
1.0
176
     0
 90
        2
176
     1
  1
strokes_ogs.tif
176
     1
290
     0
176
     1
 40
1.0
176
     1
 40
1.0
176
     1
  0
VISUALSTYLE
  5
F2
102
{ACAD_REACTORS
330
EF
102
}
330
EF
100
AcDbVisualStyle
  2
Gouraud
 70
     2
177
     3
291
     1
 70
    58
 90
        2
176
     1
 90
        2
176
     1
 90
        1
176
     1
 90
        2
176
     1
 40
0.6
176
     1
 40
30.0
176
     1
 62
     7
420
 16777215
176
     1
 90
        0
176
     1
 90
        0
176
     1
 62
     7
176
     1
 62
   257
176
     1
 90
        1
176
     1
 90
        1
176
     1
 40
1.0
176
     1
 90
        0
176
     1
 62
     7
176
     1
 40
1.0
176
     1
 90
        1
176
     1
 90
        6
176
     1
 90
        2
176
     1
 62
     7
176
     1
 90
        5
176
     1
 90
        0
176
     1
 90
        0
176
     1
290
     0
176
     1
 90
       13
176
     1
 40
0.0
176
     1
 90
        0
176
     1
290
     0
176
     1
290
     1
176
     1
290
     1
176
     1
290
     0
176
     1
290
     0
176
     1
290
     0
176
     1
290
     0
176
     1
290
     0
176
     1
290
     0
176
     1
 90
       50
176
     1
 40
0.0
176
     1
 40
1.0
176
     1
 90
        0
176
     1
 62
    18
420
        0
176
     1
 90
       50
176
     1
 90
        3
176
     1
 62
     5
420
      255
176
     1
290
     0
176
     1
 90
       50
176
     1
 90
       50
176
     1
 90
       50
176
     1
290
     0
176
     1
 90
       50
176
     1
 62
   256
176
     0
 40
1.0
176
     0
 90
        2
176
     1
  1
strokes_ogs.tif
176
     1
290
     0
176
     1
 40
1.0
176
     1
 40
1.0
176
     1
  0
VISUALSTYLE
  5
F3
102
{ACAD_REACTORS
330
EF
102
}
330
EF
100
AcDbVisualStyle
  2
GouraudWithEdges
 70
     3
177
     3
291
     1
 70
    58
 90
        2
176
     1
 90
        2
176
     1
 90
        1
176
     1
 90
        2
176
     1
 40
0.6
176
     1
 40
30.0
176
     1
 62
     7
420
 16777215
176
     1
 90
        1
176
     1
 90
        0
176
     1
 62
     7
176
     1
 62
   257
176
     1
 90
        1
176
     1
 90
        1
176
     1
 40
1.0
176
     1
 90
        0
176
     1
 62
   257
176
     1
 40
1.0
176
     1
 90
        1
176
     1
 90
        6
176
     1
 90
        2
176
     1
 62
     7
176
     1
 90
        5
176
     1
 90
        0
176
     1
 90
        0
176
     1
290
     0
176
     1
 90
       13
176
     1
 40
0.0
176
     1
 90
        0
176
     1
290
     0
176
     1
290
     1
176
     1
290
     1
176
     1
290
     0
176
     1
290
     0
176
     1
290
     0
176
     1
290
     0
176
     1
290
     0
176
     1
290
     0
176
     1
 90
       50
176
     1
 40
0.0
176
     1
 40
1.0
176
     1
 90
        0
176
     1
 62
    18
420
        0
176
     1
 90
       50
176
     1
 90
        3
176
     1
 62
     5
420
      255
176
     1
290
     0
176
     1
 90
       50
176
     1
 90
       50
176
     1
 90
       50
176
     1
290
     0
176
     1
 90
       50
176
     1
 62
   256
176
     0
 40
1.0
176
     0
 90
        2
176
     1
  1
strokes_ogs.tif
176
     1
290
     0
176
     1
 40
1.0
176
     1
 40
1.0
176
     1
  0
VISUALSTYLE
  5
F7
102
{ACAD_REACTORS
330
EF
102
}
330
EF
100
AcDbVisualStyle
  2
Hidden
 70
     6
177
     3
291
     0
 70
    58
 90
        1
176
     1
 90
        2
176
     1
 90
        2
176
     1
 90
        0
176
     1
 40
0.6
176
     1
 40
30.0
176
     1
 62
     7
420
 16777215
176
     1
 90
        2
176
     1
 90
        2
176
     1
 62
     7
176
     1
 62
   257
176
     1
 90
        2
176
     1
 90
        1
176
     1
 40
40.0
176
     1
 90
        0
176
     1
 62
   257
176
     1
 40
1.0
176
     1
 90
        1
176
     1
 90
        6
176
     1
 90
        2
176
     1
 62
     7
176
     1
 90
        3
176
     1
 90
        0
176
     1
 90
        0
176
     1
290
     0
176
     1
 90
        1
176
     1
 40
0.0
176
     1
 90
        0
176
     1
290
     0
176
     1
290
     1
176
     1
290
     1
176
     1
290
     0
176
     1
290
     0
176
     1
290
     0
176
     1
290
     0
176
     1
290
     0
176
     1
290
     0
176
     1
 90
       50
176
     1
 40
0.0
176
     1
 40
1.0
176
     1
 90
        0
176
     1
 62
    18
420
        0
176
     1
 90
       50
176
     1
 90
        3
176
     1
 62
     5
420
      255
176
     1
290
     0
176
     1
 90
       50
176
     1
 90
       50
176
     1
 90
       50
176
     1
290
     0
176
     1
 90
       50
176
     1
 62
   256
176
     0
 40
1.0
176
     0
 90
        2
176
     1
  1
strokes_ogs.tif
176
     1
290
     0
176
     1
 40
1.0
176
     1
 40
1.0
176
     1
  0
VISUALSTYLE
  5
1E4
102
{ACAD_REACTORS
330
EF
102
}
330
EF
100
AcDbVisualStyle
  2
JitterOff
 70
    20
177
     3
291
     1
 70
    58
 90
        2
176
     0
 90
        2
176
     0
 90
        0
176
     0
 90
        0
176
     0
 40
0.6
176
     0
 40
30.0
176
     0
 62
     7
420
 16777215
176
     0
 90
        1
176
     0
 90
        4
176
     0
 62
     7
176
     0
 62
   257
176
     0
 90
        1
176
     0
 90
        1
176
     0
 40
1.0
176
     0
 90
       10
176
     2
 62
     7
176
     0
 40
1.0
176
     0
 90
        1
176
     0
 90
        6
176
     0
 90
        2
176
     0
 62
     7
176
     0
 90
        5
176
     0
 90
        0
176
     0
 90
        0
176
     0
290
     0
176
     0
 90
        1
176
     0
 40
0.0
176
     0
 90
        0
176
     0
290
     0
176
     1
290
     1
176
     1
290
     1
176
     1
290
     0
176
     1
290
     0
176
     1
290
     0
176
     1
290
     0
176
     1
290
     0
176
     1
290
     0
176
     1
 90
       50
176
     1
 40
0.0
176
     1
 40
1.0
176
     1
 90
        0
176
     1
 62
    18
420
        0
176
     1
 90
       50
176
     1
 90
        3
176
     1
 62
     5
420
      255
176
     1
290
     0
176
     1
 90
       50
176
     1
 90
       50
176
     1
 90
       50
176
     1
290
     0
176
     1
 90
       50
176
     1
 62
   256
176
     0
 40
1.0
176
     0
 90
        2
176
     1
  1
strokes_ogs.tif
176
     1
290
     0
176
     1
 40
1.0
176
     1
 40
1.0
176
     1
  0
VISUALSTYLE
  5
FD
102
{ACAD_REACTORS
330
EF
102
}
330
EF
100
AcDbVisualStyle
  2
Linepattern
 70
    14
177
     3
291
     1
 70
    58
 90
        2
176
     1
 90
        2
176
     1
 90
        1
176
     1
 90
        0
176
     1
 40
0.6
176
     1
 40
30.0
176
     1
 62
     7
420
 16777215
176
     1
 90
        1
176
     1
 90
        4
176
     1
 62
     7
176
     1
 62
   257
176
     1
 90
        7
176
     1
 90
        7
176
     1
 40
1.0
176
     1
 90
        8
176
     1
 62
     7
176
     1
 40
1.0
176
     1
 90
        1
176
     1
 90
        6
176
     1
 90
        2
176
     1
 62
     7
176
     1
 90
        5
176
     1
 90
        0
176
     1
 90
        0
176
     1
290
     0
176
     1
 90
        1
176
     1
 40
0.0
176
     1
 90
        0
176
     1
290
     0
176
     1
290
     1
176
     1
290
     1
176
     1
290
     0
176
     1
290
     0
176
     1
290
     0
176
     1
290
     0
176
     1
290
     0
176
     1
290
     0
176
     1
 90
       50
176
     1
 40
0.0
176
     1
 40
1.0
176
     1
 90
        0
176
     1
 62
    18
420
        0
176
     1
 90
       50
176
     1
 90
        3
176
     1
 62
     5
420
      255
176
     1
290
     0
176
     1
 90
       50
176
     1
 90
       50
176
     1
 90
       50
176
     1
290
     0
176
     1
 90
       50
176
     1
 62
   256
176
     0
 40
1.0
176
     0
 90
        2
176
     1
  1
strokes_ogs.tif
176
     1
290
     0
176
     1
 40
1.0
176
     1
 40
1.0
176
     1
  0
VISUALSTYLE
  5
1E5
102
{ACAD_REACTORS
330
EF
102
}
330
EF
100
AcDbVisualStyle
  2
OverhangOff
 70
    21
177
     3
291
     1
 70
    58
 90
        2
176
     0
 90
        2
176
     0
 90
        0
176
     0
 90
        0
176
     0
 40
0.6
176
     0
 40
30.0
176
     0
 62
     7
420
 16777215
176
     0
 90
        1
176
     0
 90
        4
176
     0
 62
     7
176
     0
 62
   257
176
     0
 90
        1
176
     0
 90
        1
176
     0
 40
1.0
176
     0
 90
        9
176
     2
 62
     7
176
     0
 40
1.0
176
     0
 90
        1
176
     0
 90
        6
176
     0
 90
        2
176
     0
 62
     7
176
     0
 90
        5
176
     0
 90
        0
176
     0
 90
        0
176
     0
290
     0
176
     0
 90
        1
176
     0
 40
0.0
176
     0
 90
        0
176
     0
290
     0
176
     1
290
     1
176
     1
290
     1
176
     1
290
     0
176
     1
290
     0
176
     1
290
     0
176
     1
290
     0
176
     1
290
     0
176
     1
290
     0
176
     1
 90
       50
176
     1
 40
0.0
176
     1
 40
1.0
176
     1
 90
        0
176
     1
 62
    18
420
        0
176
     1
 90
       50
176
     1
 90
        3
176
     1
 62
     5
420
      255
176
     1
290
     0
176
     1
 90
       50
176
     1
 90
       50
176
     1
 90
       50
176
     1
290
     0
176
     1
 90
       50
176
     1
 62
   256
176
     0
 40
1.0
176
     0
 90
        2
176
     1
  1
strokes_ogs.tif
176
     1
290
     0
176
     1
 40
1.0
176
     1
 40
1.0
176
     1
  0
VISUALSTYLE
  5
F9
102
{ACAD_REACTORS
330
EF
102
}
330
EF
100
AcDbVisualStyle
  2
Realistic
 70
     8
177
     3
291
     0
 70
    58
 90
        2
176
     1
 90
        2
176
     1
 90
        0
176
     1
 90
        2
176
     1
 40
0.6
176
     1
 40
30.0
176
     1
 62
     7
420
 16777215
176
     1
 90
        0
176
     1
 90
        0
176
     1
 62
     7
176
     1
 62
   257
176
     1
 90
        1
176
     1
 90
        1
176
     1
 40
1.0
176
     1
 90
        8
176
     1
 62
   257
176
     1
 40
1.0
176
     1
 90
        1
176
     1
 90
        6
176
     1
 90
        2
176
     1
 62
     7
176
     1
 90
        3
176
     1
 90
        0
176
     1
 90
        0
176
     1
290
     0
176
     1
 90
       13
176
     1
 40
0.0
176
     1
 90
        0
176
     1
290
     0
176
     1
290
     1
176
     1
290
     1
176
     1
290
     0
176
     1
290
     0
176
     1
290
     0
176
     1
290
     0
176
     1
290
     0
176
     1
290
     0
176
     1
 90
       50
176
     1
 40
0.0
176
     1
 40
1.0
176
     1
 90
        0
176
     1
 62
    18
420
        0
176
     1
 90
       50
176
     1
 90
        3
176
     1
 62
     5
420
      255
176
     1
290
     0
176
     1
 90
       50
176
     1
 90
       50
176
     1
 90
       50
176
     1
290
     0
176
     1
 90
       50
176
     1
 62
   256
176
     0
 40
1.0
176
     0
 90
        2
176
     1
  1
strokes_ogs.tif
176
     1
290
     0
176
     1
 40
1.0
176
     1
 40
1.0
176
     1
  0
VISUALSTYLE
  5
1F3
102
{ACAD_REACTORS
330
EF
102
}
330
EF
100
AcDbVisualStyle
  2
Shaded
 70
    27
177
     3
291
     0
 70
    58
 90
        2
176
     1
 90
        2
176
     1
 90
        1
176
     1
 90
        2
176
     1
 40
0.6
176
     1
 40
30.0
176
     1
 62
     7
420
 16777215
176
     1
 90
        0
176
     1
 90
        4
176
     1
 62
     7
176
     1
 62
   257
176
     1
 90
        1
176
     1
 90
        1
176
     1
 40
1.0
176
     1
 90
        8
176
     1
 62
   257
176
     1
 40
1.0
176
     1
 90
        1
176
     1
 90
        6
176
     1
 90
        2
176
     1
 62
     8
420
  7895160
176
     1
 90
        3
176
     1
 90
        0
176
     1
 90
        0
176
     1
290
     0
176
     1
 90
        5
176
     1
 40
0.0
176
     1
 90
        0
176
     1
290
     0
176
     1
290
     1
176
     1
290
     1
176
     1
290
     0
176
     1
290
     0
176
     1
290
     0
176
     1
290
     0
176
     1
290
     0
176
     1
290
     0
176
     1
 90
       50
176
     1
 40
0.0
176
     1
 40
1.0
176
     1
 90
        0
176
     1
 62
    18
420
        0
176
     1
 90
       50
176
     1
 90
        3
176
     1
 62
     5
420
      255
176
     1
290
     0
176
     1
 90
       50
176
     1
 90
       50
176
     1
 90
       50
176
     1
290
     0
176
     1
 90
       50
176
     1
 62
   256
176
     0
 40
1.0
176
     0
 90
        2
176
     1
  1
strokes_ogs.tif
176
     1
290
     0
176
     1
 40
1.0
176
     1
 40
1.0
176
     1
  0
VISUALSTYLE
  5
1F2
102
{ACAD_REACTORS
330
EF
102
}
330
EF
100
AcDbVisualStyle
  2
Shaded with edges
 70
    26
177
     3
291
     0
 70
    58
 90
        2
176
     1
 90
        2
176
     1
 90
        1
176
     1
 90
        2
176
     1
 40
0.6
176
     1
 40
30.0
176
     1
 62
     7
420
 16777215
176
     1
 90
        1
176
     1
 90
       10
176
     1
 62
     7
176
     1
 62
   257
176
     1
 90
        2
176
     1
 90
        1
176
     1
 40
1.0
176
     1
 90
        8
176
     1
 62
   257
176
     1
 40
1.0
176
     1
 90
        1
176
     1
 90
        6
176
     1
 90
        2
176
     1
 62
     7
176
     1
 90
        3
176
     1
 90
        0
176
     1
 90
        0
176
     1
290
     0
176
     1
 90
        5
176
     1
 40
0.0
176
     1
 90
        0
176
     1
290
     0
176
     1
290
     1
176
     1
290
     1
176
     1
290
     0
176
     1
290
     0
176
     1
290
     0
176
     1
290
     0
176
     1
290
     0
176
     1
290
     0
176
     1
 90
       50
176
     1
 40
0.0
176
     1
 40
1.0
176
     1
 90
        0
176
     1
 62
    18
420
        0
176
     1
 90
       50
176
     1
 90
        3
176
     1
 62
     5
420
      255
176
     1
290
     0
176
     1
 90
       50
176
     1
 90
       50
176
     1
 90
       50
176
     1
290
     0
176
     1
 90
       50
176
     1
 62
   256
176
     0
 40
1.0
176
     0
 90
        2
176
     1
  1
strokes_ogs.tif
176
     1
290
     0
176
     1
 40
1.0
176
     1
 40
1.0
176
     1
  0
VISUALSTYLE
  5
1EF
102
{ACAD_REACTORS
330
EF
102
}
330
EF
100
AcDbVisualStyle
  2
Shades of Gray
 70
    23
177
     3
291
     0
 70
    58
 90
        2
176
     1
 90
        2
176
     1
 90
        3
176
     1
 90
        0
176
     1
 40
0.6
176
     1
 40
30.0
176
     1
 62
     7
420
 16777215
176
     1
 90
        2
176
     1
 90
        2
176
     1
 62
     7
176
     1
 62
     7
176
     1
 90
        1
176
     1
 90
        1
176
     1
 40
40.0
176
     1
 90
        8
176
     1
 62
     7
176
     1
 40
1.0
176
     1
 90
        1
176
     1
 90
        6
176
     1
 90
        2
176
     1
 62
     7
176
     1
 90
        3
176
     1
 90
        0
176
     1
 90
        0
176
     1
290
     0
176
     1
 90
        1
176
     1
 40
0.0
176
     1
 90
        0
176
     1
290
     0
176
     1
290
     1
176
     1
290
     1
176
     1
290
     0
176
     1
290
     0
176
     1
290
     0
176
     1
290
     0
176
     1
290
     0
176
     1
290
     0
176
     1
 90
       50
176
     1
 40
0.0
176
     1
 40
1.0
176
     1
 90
        0
176
     1
 62
    18
420
        0
176
     1
 90
       50
176
     1
 90
        3
176
     1
 62
     5
420
      255
176
     1
290
     0
176
     1
 90
       50
176
     1
 90
       50
176
     1
 90
       50
176
     1
290
     0
176
     1
 90
       50
176
     1
 62
   256
176
     0
 40
1.0
176
     0
 90
        2
176
     1
  1
strokes_ogs.tif
176
     1
290
     0
176
     1
 40
1.0
176
     1
 40
1.0
176
     1
  0
VISUALSTYLE
  5
1F0
102
{ACAD_REACTORS
330
EF
102
}
330
EF
100
AcDbVisualStyle
  2
Sketchy
 70
    24
177
     3
291
     0
 70
    58
 90
        1
176
     1
 90
        2
176
     1
 90
        2
176
     1
 90
        0
176
     1
 40
0.6
176
     1
 40
30.0
176
     1
 62
     7
420
 16777215
176
     1
 90
        2
176
     1
 90
        2
176
     1
 62
     7
176
     1
 62
     7
176
     1
 90
        1
176
     1
 90
        1
176
     1
 40
40.0
176
     1
 90
       11
176
     1
 62
     7
176
     1
 40
1.0
176
     1
 90
        1
176
     1
 90
        6
176
     1
 90
        2
176
     1
 62
     7
176
     1
 90
        6
176
     1
 90
        0
176
     1
 90
        0
176
     1
290
     0
176
     1
 90
        1
176
     1
 40
0.0
176
     1
 90
        0
176
     1
290
     0
176
     1
290
     1
176
     1
290
     1
176
     1
290
     0
176
     1
290
     0
176
     1
290
     0
176
     1
290
     0
176
     1
290
     0
176
     1
290
     0
176
     1
 90
       50
176
     1
 40
0.0
176
     1
 40
1.0
176
     1
 90
        0
176
     1
 62
    18
420
        0
176
     1
 90
       50
176
     1
 90
        3
176
     1
 62
     5
420
      255
176
     1
290
     0
176
     1
 90
       50
176
     1
 90
       50
176
     1
 90
       50
176
     1
290
     0
176
     1
 90
       50
176
     1
 62
   256
176
     0
 40
1.0
176
     0
 90
        2
176
     1
  1
strokes_ogs.tif
176
     1
290
     0
176
     1
 40
1.0
176
     1
 40
1.0
176
     1
  0
VISUALSTYLE
  5
FC
102
{ACAD_REACTORS
330
EF
102
}
330
EF
100
AcDbVisualStyle
  2
Thicken
 70
    13
177
     3
291
     1
 70
    58
 90
        2
176
     1
 90
        2
176
     1
 90
        1
176
     1
 90
        0
176
     1
 40
0.6
176
     1
 40
30.0
176
     1
 62
     7
420
 16777215
176
     1
 90
        1
176
     1
 90
        4
176
     1
 62
     7
176
     1
 62
   257
176
     1
 90
        1
176
     1
 90
        1
176
     1
 40
1.0
176
     1
 90
       12
176
     1
 62
     7
176
     1
 40
1.0
176
     1
 90
        1
176
     1
 90
        6
176
     1
 90
        2
176
     1
 62
     7
176
     1
 90
        5
176
     1
 90
        0
176
     1
 90
        0
176
     1
290
     0
176
     1
 90
        1
176
     1
 40
0.0
176
     1
 90
        0
176
     1
290
     0
176
     1
290
     1
176
     1
290
     1
176
     1
290
     0
176
     1
290
     0
176
     1
290
     0
176
     1
290
     0
176
     1
290
     0
176
     1
290
     0
176
     1
 90
       50
176
     1
 40
0.0
176
     1
 40
1.0
176
     1
 90
        0
176
     1
 62
    18
420
        0
176
     1
 90
       50
176
     1
 90
        3
176
     1
 62
     5
420
      255
176
     1
290
     0
176
     1
 90
       50
176
     1
 90
       50
176
     1
 90
       50
176
     1
290
     0
176
     1
 90
       50
176
     1
 62
   256
176
     0
 40
1.0
176
     0
 90
        2
176
     1
  1
strokes_ogs.tif
176
     1
290
     0
176
     1
 40
1.0
176
     1
 40
1.0
176
     1
  0
VISUALSTYLE
  5
F6
102
{ACAD_REACTORS
330
EF
102
}
330
EF
100
AcDbVisualStyle
  2
Wireframe
 70
     5
177
     3
291
     0
 70
    58
 90
        0
176
     1
 90
        2
176
     1
 90
        0
176
     1
 90
        0
176
     1
 40
0.6
176
     1
 40
30.0
176
     1
 62
     7
420
 16777215
176
     1
 90
        1
176
     1
 90
        4
176
     1
 62
     7
176
     1
 62
   257
176
     1
 90
        1
176
     1
 90
        1
176
     1
 40
1.0
176
     1
 90
        0
176
     1
 62
   257
176
     1
 40
1.0
176
     1
 90
        1
176
     1
 90
        6
176
     1
 90
        2
176
     1
 62
     7
176
     1
 90
        3
176
     1
 90
        0
176
     1
 90
        0
176
     1
290
     0
176
     1
 90
        1
176
     1
 40
0.0
176
     1
 90
        0
176
     1
290
     0
176
     1
290
     1
176
     1
290
     1
176
     1
290
     0
176
     1
290
     0
176
     1
290
     0
176
     1
290
     0
176
     1
290
     0
176
     1
290
     0
176
     1
 90
       50
176
     1
 40
0.0
176
     1
 40
1.0
176
     1
 90
        0
176
     1
 62
    18
420
        0
176
     1
 90
       50
176
     1
 90
        3
176
     1
 62
     5
420
      255
176
     1
290
     0
176
     1
 90
       50
176
     1
 90
       50
176
     1
 90
       50
176
     1
290
     0
176
     1
 90
       50
176
     1
 62
   256
176
     0
 40
1.0
176
     0
 90
        2
176
     1
  1
strokes_ogs.tif
176
     1
290
     0
176
     1
 40
1.0
176
     1
 40
1.0
176
     1
  0
VISUALSTYLE
  5
1F1
102
{ACAD_REACTORS
330
EF
102
}
330
EF
100
AcDbVisualStyle
  2
X-Ray
 70
    25
177
     3
291
     0
 70
    58
 90
        2
176
     1
 90
        2
176
     1
 90
        1
176
     1
 90
        1
176
     1
 40
0.5
176
     1
 40
30.0
176
     1
 62
     7
420
 16777215
176
     1
 90
        1
176
     1
 90
        0
176
     1
 62
     7
176
     1
 62
   257
176
     1
 90
        1
176
     1
 90
        1
176
     1
 40
1.0
176
     1
 90
        8
176
     1
 62
     7
176
     1
 40
1.0
176
     1
 90
        1
176
     1
 90
        6
176
     1
 90
        2
176
     1
 62
     7
176
     1
 90
        3
176
     1
 90
        0
176
     1
 90
        0
176
     1
290
     0
176
     1
 90
       13
176
     1
 40
0.0
176
     1
 90
        0
176
     1
290
     0
176
     1
290
     1
176
     1
290
     1
176
     1
290
     0
176
     1
290
     0
176
     1
290
     0
176
     1
290
     0
176
     1
290
     0
176
     1
290
     0
176
     1
 90
       50
176
     1
 40
0.0
176
     1
 40
1.0
176
     1
 90
        0
176
     1
 62
    18
420
        0
176
     1
 90
       50
176
     1
 90
        3
176
     1
 62
     5
420
      255
176
     1
290
     0
176
     1
 90
       50
176
     1
 90
       50
176
     1
 90
       50
176
     1
290
     0
176
     1
 90
       50
176
     1
 62
   256
176
     0
 40
1.0
176
     0
 90
        2
176
     1
  1
strokes_ogs.tif
176
     1
290
     0
176
     1
 40
1.0
176
     1
 40
1.0
176
     1
  0
DICTIONARYVAR
  5
146
102
{ACAD_REACTORS
330
5E
102
}
330
5E
100
DictionaryVariables
280
     0
  1
1:1
  0
DICTIONARYVAR
  5
145
102
{ACAD_REACTORS
330
5E
102
}
330
5E
100
DictionaryVariables
280
     0
  1
STANDARD
  0
DICTIONARYVAR
  5
84
102
{ACAD_REACTORS
330
5E
102
}
330
5E
100
DictionaryVariables
280
     0
  1
STANDARD
  0
DICTIONARYVAR
  5
AE4
102
{ACAD_REACTORS
330
5E
102
}
330
5E
100
DictionaryVariables
280
     0
  1
Metric50
  0
DICTIONARYVAR
  5
AE5
102
{ACAD_REACTORS
330
5E
102
}
330
5E
100
DictionaryVariables
280
     0
  1
Metric50
  0
DICTIONARYVAR
  5
5F
102
{ACAD_REACTORS
330
5E
102
}
330
5E
100
DictionaryVariables
280
     0
  1
2
  0
DICTIONARYVAR
  5
63
102
{ACAD_REACTORS
330
5E
102
}
330
5E
100
DictionaryVariables
280
     0
  1
1
  0
DICTIONARYVAR
  5
1AE
102
{ACAD_REACTORS
330
5E
102
}
330
5E
100
DictionaryVariables
280
     0
  1
0
  0
DICTIONARYVAR
  5
1AF
102
{ACAD_REACTORS
330
5E
102
}
330
5E
100
DictionaryVariables
280
     0
  1
0
  0
DICTIONARY
  5
5BE
102
{ACAD_REACTORS
330
281
102
}
330
281
100
AcDbDictionary
281
     1
  0
DICTIONARY
  5
282
102
{ACAD_REACTORS
330
281
102
}
330
281
100
AcDbDictionary
281
     1
  0
XRECORD
  5
4F6
102
{ACAD_REACTORS
330
281
102
}
330
281
100
AcDbXrecord
280
     1
 90
-1023410169
  0
XRECORD
  5
AD3
102
{ACAD_REACTORS
330
AD2
102
}
330
AD2
100
AcDbXrecord
280
     1
  0
DICTIONARY
  5
AE9
330
A46
100
AcDbDictionary
280
     1
281
     1
  3
ACAD_XREC_ROUNDTRIP
360
AEA
  0
DICTIONARY
  5
205
330
22
100
AcDbDictionary
280
     1
281
     1
  0
DICTIONARY
  5
1F9
330
ED
100
AcDbDictionary
280
     1
281
     1
  3
FBXASSET
360
1FA
  0
DICTIONARY
  5
1F7
330
EC
100
AcDbDictionary
280
     1
281
     1
  3
FBXASSET
360
1F8
  0
DICTIONARY
  5
173
330
EE
100
AcDbDictionary
280
     1
281
     1
  3
BUMPTILE
360
175
  3
DIFFUSETILE
360
174
  3
FBXASSET
360
1FB
  3
OPACITYTILE
360
176
  3
REFLECTIONTILE
360
177
  0
DICTIONARY
  5
AE7
330
A44
100
AcDbDictionary
280
     1
281
     1
  3
ACAD_XREC_ROUNDTRIP
360
AE8
  0
DICTIONARY
  5
162
330
7F
100
AcDbDictionary
280
     1
281
     1
  3
ACAD_ROUNDTRIP_2008_TABLESTYLE_CELLSTYLEMAP
360
AE6
  0
XRECORD
  5
AEA
102
{ACAD_REACTORS
330
AE9
102
}
330
AE9
100
AcDbXrecord
280
     1
102
DISPLAYNAME
  1
Metric50
102
FLAGS
 90
        0
  0
XRECORD
  5
1FA
102
{ACAD_REACTORS
330
1F9
102
}
330
1F9
100
AcDbXrecord
280
     1
 70
     1
 90
429727718
  1
D62C5603-E3A1-4AEA-B7FB-FE5D8D0755AF
310
504B03040A0000080000CC70623B3DEE336E79000000790000001B0000006175746F6465736B2D64657369676E2D7061636B6167652E786D6C3C3F786D6C2076657273696F6E3D22312E302220656E636F64696E673D227574662D3822203F3E3C666F726D6174733E3C666F726D61743E687474703A2F2F736368656D612E
310
6175746F6465736B2E636F6D2F64657369676E2D7061636B6167652F323030393C2F666F726D61743E3C2F666F726D6174733E504B0304140006080800CC70623BD486FD9CA0000000F4000000130000005B436F6E74656E745F54797065735D2E786D6C7D8EC10E82300C865F65E91D8A1E8C310C0EEA1BF002731658846E
310
D98AC1B77784ABF1D8FE5FBFBF75BBCE937A534CCEB38643598122B6FEE978D0B0485F9C41B54DDD7D022595594E1A469170414C76A4D9A4D207E29CF43ECE46F218070CC6BECC4078ACAA135ACF422C856C0E68EA1BF5669944DDD7BCDE7B1F8E415D77AECB980613C2E4AC91FC167A2B244592486606FC29C8FD7F045B9A
310
EF7053A7E60B504B0304140006080800CC70623B853B8169EB0000007C01000008000000636F72652E786D6C8D90416EC3201045AF62CDB6C206821CC7C244919D9CA01740401C94182C03558F5F9C3852BBEB6A467FFE9B197D7EFC9E1EC5975982F5AE035262288C535E5B377690E21535501C055FBC8FBF6C503839990E
310
5619041F179FE64D52DE45E362569DD7661365082642A11EB9E920A89B99642953CC8E702F67A9EE7234257977194EC9EAE275C4EABCCF5EAD5940D4AC6F0E35A568B8F43562CD7046CD199FD07E60174276A7BE677B5EADB0E0D14EEFFB6A31321A0D82627C4084204C3F096B71DD52F6819B16635EADF63F509AF53FA164
310
5DDCD1EDDD17164090FCC8732078B56691CB33A85CD7DCC40F504B0304140006080800CC70623B55019EA25F0000007C00000007000000636E782E786D6C4DCB3B0E80201045D1AD90E915ED2CF8AC45050C11660C8261F98AB1B07AC9C97D42D718D865D3E909258CFD00CCE24AC6E326A164D74DC0B4128928FF32603847
310
2BA13128B1252AC747C6BAB984FC68F0B87FE8960A5C09FE86CFB69FBA01504B0304140006080800CC70623BDBABAAF470010000D40300000C0000006662782F636F72652E786D6CC553D16E823014FD95A6AF4B694182CC941A83FA05FB810A9511A125A5257EFE2E82712ECEB8A7F100CD39F7F69E734AF9FADC366850B6
310
AF8DCE7018308C942E4C59EB2AC3DE1D498AD15A706B8CFB56869196ADCAF00863C12B6B7C374385D14E6907A836A59A41D9F7CA615434B0C8705F7CAA5606D23BA8E84F41278B93AC54100640439DE0BDB320004D43C63716C7C399D30917DCFBBA9CD9BA8469F5B156168B24CED3F7248AC8769F27244EB73B92EED8862C
310
B7F13E0C179B3C8F979C8ECD82BBBABDAA2BAC924E9558448CBD9330242CFA08E3154B5651FCC6D215639C8EE5774DBE2B5F6CF2B5768B68963BB5F5588420E442FC700B1139D4CB01F450C1E918227C2E09DF070D8140C84E1E9AAB8F1340832A9CB13130A5F1376A908D57309505ECF2A0DF179C4E9D30F5B239B87E3823
310
7A79C6F31DE1A8A5AEC08474B03C7837EAE4938639B44E5932B833D2C6B6B279CDC613877FA26EE21F4A2A4C63EC7F29A2F301D1F9F7A0E37D145F504B0304140006080800CC70623B9C113CC27E0000009D0000000B0000006662782F636E782E786D6C4DCCDF0A83201C86E15B91DFB94BFB330DD428C8FB886521330DA7
310
6397BF1A1DECE883878F57749FCDA1B7892F1BBC047A23808C7F84D9FA55424E0BE6803A256208E9EF06C84F9B91703228B1C690F78B66B34CD9A5439DF5CF0BFBF65E35BCA1B8D6A5C6F540381E886698B5741C695F9503EBA150A2F8958E3DC3EA0B504B0304140006080800CC70623B7DF2F77C2A010000120200003100
310
00006662782F41393633353835312D344632462D344230382D423046372D3739314545314133324237412F636F72652E786D6C8D51DB8EC22014FC15C2939B0D2DB4B45643319AE817EC0F6041255A68B86CFCFC856D4D76DF7CE190393373060EDB3DC707F856CE6B6B7A480A0C81328395DA5C7B18C3057510EC3873D686
310
3F34088C18550F330C39BB3A1BA7051AAC09CA84841A2BD5020AEF55806078A44B0FFD7053A328440C89E1EFC52486BBB8AA8214A99D789CF9E05200300FC927E4FB4D5B375D43103D5527440FB843077C5AA3F5861C8F645F5787F59E95B390B318B55CE45AA638FAA2957BD7248B390B7A7CC51F9C124149C82B8C378810
310
84AB2F42B7B8DD56F413775B8C5999E9FF4471926F8AA236A1AE96B8B3CC434E5839373893369E1FAF30EA395917409EB7F26AF8801C171837A4A6AC9C89E9F9C9B1A58BA30FD6A5EF5DDDCF894B9AD9B6A59C957943A9FCAE2FD5BC4DFE03504B0304140006080800CC70623BAD7543B64E01000033030000300000006662
310
782F41393633353835312D344632462D344230382D423046372D3739314545314133324237412F636E782E786D6CD593CD6EC32010845F0571AD6CE3D48AD20813A9873E410FBD12D82434182C7EAAE6EDBB2424CD25871E7B41D6EC30B3FA84F9E67BB2E40B4234DE8DB46F1925E094D7C6ED479AD3AE5951B2113C789FEE
310
6C943839C1488B4C05DF079FE72A69D8C96C13AAD6B8631503449F83828872B949AC57D26200B826A308D316B4064D6E46FCDA41C05550DC9E483A00797BFD207EFB092A45DE9514C1BBD22178396BD39D891265658C238DEA00936C654E5E433CB65A26D9F6EDB5EBC14EBF49A45CB856E66048291F6939A9A81BB5C89177
310
38143CA680F4AA299D66A042CEB3354A2684DC9D8D178FE0D9B8B41CAAD720F880EE7EF93C0C18769E099ECC04D5A102C8049A8A05632F4DDF376CF1DE0F6BB65C2F8627B65A33C6BB62177CEBBDAD973006829F89F22E814B54F4BC2BE347F8AA8F681390B50FA73F804400B5F542E796F19FF974E7F78DB802FE05E20750
310
4B0304140006080800CC70623BE75B7789680500003C100000340000006662782F41393633353835312D344632462D344230382D423046372D3739314545314133324237412F6F626A656374732E786D6CAD575B8F9B3818FD2B887D06C22499CB8AA1CA655245D5B455A356FB305264C061D8018C6C3393D95FBFC7600890
310
A4CD5EF210B0B1BFEBF98E3F7B1FF6596ABC522E1296DF9BAE3D320D9A872C4AF2F8DE2CE5CEBA358D0FBEC719939D65A691938CDE9B6ADAF4BD98B3B2D05311DD91329583D9D5FC0F438434A7A611A644887B5384CF34233629258BA878B12322891DEFF6B66BD70BFB62634E8AE781D082709A4B588AF91C528CDA28B73F
310
1C998EEF39EABBEFA97FBD6A7C7E9553F9D3D79FE442923C3C523610337627CB87ABE99D359D4CC6D6E4FACAB5E6ABF9D2726FC6A3C5F56271377BB88362213924694B38DD99FE47C48627A1E7D49F5A8BB5E1A74C0A599ED3B0F21F1E56366B89112D681E218F0915D0D6F17AD41FBA2A369DCF6335D62ABBD39779D5DDD1
310
11D4D8DE3CBB96B2E04FB8202E41051754A1AA8E8F76B4C6DFE810B580B1547F4B84911149794252234D024EF8BBE963A95AE27B3D310A9D5C215C7960FAEE415ED75694C6AFB17BCACA5D99A60A9AA65F217B0BFC53292ACB92BF283FAD0D3621576592CB5BED907C2FA8E9DF794E35E97BEA31BED21FEB401ABB94C44839
310
DCACBF0E1C5DA8DA5B2F4DFFD32AD86F543D9E565E7056502E157C00AD2671CD534549AB752FCA9CDA00677A313F04E51B22FF19E57B300579E3C97EB29F682D92935CEC18CF901B7B54FD8C51F362B56FC72FE0B3C1EAE335EDCCBF5AEC39ADB17DC238973F804BA5E6F6BFE7AF1FB32E523BE9F3BD571418E3631DCA4D48
310
5250CF639223210A9446CA30052EDF057BD35F8329C1ECD84552BF0DC8D18BE7BCE23BFE6BD960AB4A7DE79923A103BEBD80F911CBAA2C60DB19B01CF164A5583B772EE6D3FFA56666CBCDA74DC97724A48F9A58967497E489C4D979006FD7A05E227A1EBDD0F737C623387A9C844D3709995625106D157315F8B8392CD4E0
310
A0B9A720C4BE9829CEF37EA1E13111214D53925356365ADA634861B52519DD27A00AEB808EAF0628E6F435519D446F45CF2C9CF5214F0A15B2F6D06B79DA3EE3CBF7F56780D2F4E7EF73A0F5E5B02A38D07DC852C6B7C1FBB6664213E0C39E3EBA7FF4E1AD23EA2829407C85E586727488B751B2DB9502BC7B228A3FD68B6E
310
A65A22397E690AA8D158D7E404EC8CDA235CC3B7D1898680131CEC2CDF2638C65196279577750F15884AEE19F94199155B92B13297978469D4F8D358DF0AEF7631E28DC8F0D9F437D5D39A83B2231A1D52D543813A824EF8D44BCFF2FA6A31BD1E8DAD87F1CCB526B3879935BF59CDADD5C37479BB1CDD4CA7B3556B516589
310
EF352754B706114D9C885EC9131DE6EFEB43D99AFE2391C2F958179413D7CFEF6B1B6DB1E7600F00DE6E5C67454A339A4BA2E0FBA85ED26F045D454F463DBFCE484C2F90F2E5E3666003662ED8F755951A7D1BECD5B30B550B2785C8E7320B7292A4838DDA71BBC863ED7613CAF659337A3354231D4FF4A182A54904C2898C
310
98B28C4AD0CE056CCF332A80986E571EE9DBC305BB5FEB7E509220A58D25CF042D712A806AC0AD0C657FDEF80D2D9CEAA2EE4D1C76F60BFE74219A06527D6F82DF6412526107381E55E353090704D085B52408A8913C4ED159D79BDA71BB4BC506F4831350EB6F975CD22D69BF7AC49B91A2C0A9DDA3D5CA36AD20FC478E37
310
E61844E2352865EBCB61A275A65283CAAA9DD27703B4102F5AF51EF5F573B75CBB5AD38BC845F7A49F82A0966A49C2E3EA5EA0ECD326CD965F1DB402C6FA8B51A4658C5C5E2EC9E214602E55810345408596591009A82E7E7FFACA19EEA299B14A0081A705CB3296EBC14CDF658DCD336EA6D1136881AAEB87B81AB9EE53D5
310
F5EB8BC8362082DA24122F98680A4E7930C01A0079749CEA14382A0783E5EBA5A10F8C098456A03D6A4AEB6BB881E2513747552A5DB22C7EDAF83BD5528081A365F7FF06504B0304140006080000CC70623B000000000000000000000000350000006662782F41393633353835312D344632462D344230382D423046372D37
310
39314545314133324237412F76657274696365732E62696E504B0304140006080800CC70623BF270F1330600000004000000360000006662782F41393633353835312D344632462D344230382D423046372D3739314545314133324237412F747269616E676C65732E62696E636660600000504B0304140006080000CC7062
310
3B000000000000000000000000370000006662782F41393633353835312D344632462D344230382D423046372D3739314545314133324237412F617474726962757465732E62696E504B0304140006080800CC70623B08DA0BD19000000041010000360000006662782F41393633353835312D344632462D344230382D4230
310
46372D3739314545314133324237412F6469726563746F72792E786D6C858F410AC3201045AF22B36F53E9A60B35CBEEBAE80D244E44489C6234F4F835464A48035D0DF398FF9F8AF63D0E6CC63039F212F8F9020C7D47C6792B21C5FE7403D62A1188E2E60C98D7234A5830286103A55745067B9D86B8A3CF9C7F90C11DE6
310
07FB144396D7B6A82D282E9A152AD114D5EF2CB866EEE831B8EEA07A7BB5A8D7D61A2BAAEB7FD5F70921FF497D00504B0304140006080800CC70623BEDD1DC58FD000000A00100003B0000006662782F41393633353835312D344632462D344230382D423046372D3739314545314133324237412F7265736F75726365732F
310
636F72652E786D6C8D504B6E833010BD0A9A6D65B00922041947112427E8052C33A156828DFCA97AFC9A40A576D7CDCCE87D344F8F9FBFE667F689CE6B6B3A6039850C8DB2A336530731DC4903D95970676DF82583CCC8193B5861107C72362E3BA4AC096842428D1D7107A5F7182053CF7474E0D507CE32973124857FE48B
310
540F3961CEF244279DE03EB81420DB9EAC1384436FA353E879B1B182C7A8C75DA3C7F453DF353A1075D537A7BA6464B8F535A99AE14A9A2BBD90E350DD183B5CFABE3AF262350B1EF4FC9351399401471025A527C218A1E53BAB5A5AB765F5469B96525EACF23FA6B88CFF34456DC2A1DCE36E360F82A5202F42F062ED2BAD
310
579969AFDD8A6F504B010214000A0000080000CC70623B3DEE336E79000000790000001B00000000000000000000000000000000006175746F6465736B2D64657369676E2D7061636B6167652E786D6C504B01021400140006080800CC70623BD486FD9CA0000000F40000001300000000000000000000000000B20000005B
310
436F6E74656E745F54797065735D2E786D6C504B01021400140006080800CC70623B853B8169EB0000007C010000080000000000000000000000000083010000636F72652E786D6C504B01021400140006080800CC70623B55019EA25F0000007C000000070000000000000000000000000094020000636E782E786D6C504B
310
01021400140006080800CC70623BDBABAAF470010000D40300000C00000000000000000000000000180300006662782F636F72652E786D6C504B01021400140006080800CC70623B9C113CC27E0000009D0000000B00000000000000000000000000B20400006662782F636E782E786D6C504B01021400140006080800CC70
310
623B7DF2F77C2A010000120200003100000000000000000000000000590500006662782F41393633353835312D344632462D344230382D423046372D3739314545314133324237412F636F72652E786D6C504B01021400140006080800CC70623BAD7543B64E010000330300003000000000000000000000000000D2060000
310
6662782F41393633353835312D344632462D344230382D423046372D3739314545314133324237412F636E782E786D6C504B01021400140006080800CC70623BE75B7789680500003C10000034000000000000000000000000006E0800006662782F41393633353835312D344632462D344230382D423046372D3739314545
310
314133324237412F6F626A656374732E786D6C504B01021400140006080000CC70623B0000000000000000000000003500000000000000000000000000280E00006662782F41393633353835312D344632462D344230382D423046372D3739314545314133324237412F76657274696365732E62696E504B01021400140006
310
080800CC70623BF270F133060000000400000036000000000000000000000000007B0E00006662782F41393633353835312D344632462D344230382D423046372D3739314545314133324237412F747269616E676C65732E62696E504B01021400140006080000CC70623B0000000000000000000000003700000000000000
310
000000000000D50E00006662782F41393633353835312D344632462D344230382D423046372D3739314545314133324237412F617474726962757465732E62696E504B01021400140006080800CC70623B08DA0BD1900000004101000036000000000000000000000000002A0F00006662782F41393633353835312D344632
310
462D344230382D423046372D3739314545314133324237412F6469726563746F72792E786D6C504B01021400140006080800CC70623BEDD1DC58FD000000A00100003B000000000000000000000000000E1000006662782F41393633353835312D344632462D344230382D423046372D3739314545314133324237412F7265
310
736F75726365732F636F72652E786D6C504B0506000000000E000E0080040000641100000000
  0
XRECORD
  5
1F8
102
{ACAD_REACTORS
330
1F7
102
}
330
1F7
100
AcDbXrecord
280
     1
 70
     1
 90
429727718
  1
30362254-06B7-45E0-A893-8CFA70E3D6BC
310
504B03040A0000080000CC70623B3DEE336E79000000790000001B0000006175746F6465736B2D64657369676E2D7061636B6167652E786D6C3C3F786D6C2076657273696F6E3D22312E302220656E636F64696E673D227574662D3822203F3E3C666F726D6174733E3C666F726D61743E687474703A2F2F736368656D612E
310
6175746F6465736B2E636F6D2F64657369676E2D7061636B6167652F323030393C2F666F726D61743E3C2F666F726D6174733E504B0304140006080800CC70623BD486FD9CA0000000F4000000130000005B436F6E74656E745F54797065735D2E786D6C7D8EC10E82300C865F65E91D8A1E8C310C0EEA1BF002731658846E
310
D98AC1B77784ABF1D8FE5FBFBF75BBCE937A534CCEB38643598122B6FEE978D0B0485F9C41B54DDD7D022595594E1A469170414C76A4D9A4D207E29CF43ECE46F218070CC6BECC4078ACAA135ACF422C856C0E68EA1BF5669944DDD7BCDE7B1F8E415D77AECB980613C2E4AC91FC167A2B244592486606FC29C8FD7F045B9A
310
EF7053A7E60B504B0304140006080800CC70623B1EC5D7A3EB0000007C01000008000000636F72652E786D6C8D90416EC3201045AF82665B6103C6756C6122AB4D4ED00B204C5C94182C03558F5F9C3852BBEB6A467FFE9B197D71FC9E6FE8CBACC17AD7032D0820E3B41FAD9B7A48F1820F808E52ACDEC75F36404ECDA687
310
4D0629A6D5A76597B477D1B89855E747B38B2A041301E95B6E7A08FAD3CCAA50296647B8168BD2573599823EBB0CA76447F43862C7BCCF5EAC59410E4DDD9C7973C2755553CCCFA4C603E3040F1565ED3B1FDE4E432BCA0D9622DAF9795FAF464533826484B498524CD807E51D79ED187F21878E10516EF63F505AC67F42C9
310
BA58B1FDDD071640D2FCC87D2045B96591CB3DA85CB7DCE40F504B0304140006080800CC70623B55019EA25F0000007C00000007000000636E782E786D6C4DCB3B0E80201045D1AD90E915ED2CF8AC45050C11660C8261F98AB1B07AC9C97D42D718D865D3E909258CFD00CCE24AC6E326A164D74DC0B4128928FF32603847
310
2BA13128B1252AC747C6BAB984FC68F0B87FE8960A5C09FE86CFB69FBA01504B0304140006080800CC70623B8C9102E971010000D40300000C0000006662782F636F72652E786D6CC5535B6E833010BC8AE5DF0A6C08340F1947A84D4ED00B38C6A128602363A31CBFCB234A53A551FA553EC09AD9F5CE8C31DB9E9B1AF5CA
310
7695D1198E428A91D2D214952E33ECDD315861B4E5CC1AE3BE9561A445A3323CC098B3D21ADFCE9034DA29ED00D5A6503328BA4E398C640D8B0C77F253352214DE4145770A5B214FA2546114020D759C75CE8200340D19DE981F0F6746269C33EFAB6266AB02A655C74A59CCF365BADC27CB5D902ED22848F6340DF238A141
310
BE88E2F57B92BFEDF23523433367AE6A2EEAA455C2A902F398D2751045018D3FA264435F3771F242571B4A1919CA6F9A7C5B3CD9E42BED16F12C776AEB308F40C848FC700B1139D4891EF410CEC810227CC6846F8386402064270EF5C5C709A05E49676C024C61FC95EA45ED154CA5211D1FF4FB8291A913A68E9B83EBBB33
310
E2A7673CDE118E5AE8124C0807CB8377834E366998436B950D7A7746DAD846D4CFD978E0F04FD455FC5D49D2D4C6FE9722321F10997F0F32DC47FE05504B0304140006080800CC70623BFFEA85907E0000009D0000000B0000006662782F636E782E786D6C4DCCD10A83201886E15B91FFDC95D95A811AB6F23E625948A6C3
310
E9D8E5AF46073BFAE0E1E365ED67B3E8ADC3CB78C7815C7240DA3DFC64DCC221C519D7805AC182F7F1EF06C88D9BE6703008B6049F9E274D7A1E938DBB5AE3D6131B2589BA0D3D965551E0B2EA732C9B9A624AAEB41E3A557677029960D9AFB4EF11165F504B0304140006080800CC70623B4FEEA4082C0100001202000031
310
0000006662782F39464131463745442D413632322D343644302D413938332D3331353338454246344243312F636F72652E786D6C8D515B6EC32010BC0AE2AB55850DD871ED0813254D72825EC00192A2C460F1A872FC42ED48ED5F7E00CDCECCCEB26C731F6FE05B39AFADE921293004CA082BB5B9F43086336A21D870E6AC
310
0D7F68109861543DCC30E4ECE26C9C164858139409093556AA051CBC570102714B8F1E7AF1A5C6A11862480C7F2DA6415C878B2A4891CA89C7990F2E050073937C42DE1DB7E4F87ED8A36D4329AA9B3D46DBAEAD504556557BD81DEBDD0761E52CE42C462D17B996298E3E6BE59E35C962CE821E1FF18553435012728A7187
310
0841987E927A8D9B35ADDF70BBC6989599FE4F1427F9A4286A132ABAC49D651EF234CD5CE04CDA78BA3DC2A8FB645D00B9DF8B57E215725C60BCA2A463E54C4CE327C7A65E1C7DB02E7DEFCBF594B864C5CA6CDBD49C957943E9FA5D5FBAF336F90F504B0304140006080800CC70623BAD7543B64E01000033030000300000
310
006662782F39464131463745442D413632322D343644302D413938332D3331353338454246344243312F636E782E786D6CD593CD6EC32010845F0571AD6CE3D48AD20813A9873E410FBD12D82434182C7EAAE6EDBB2424CD25871E7B41D6EC30B3FA84F9E67BB2E40B4234DE8DB46F1925E094D7C6ED479AD3AE5951B2113C
310
789FEE6C943839C1488B4C05DF079FE72A69D8C96C13AAD6B8631503449F83828872B949AC57D26200B826A308D316B4064D6E46FCDA41C05550DC9E483A00797BFD207EFB092A45DE9514C1BBD22178396BD39D891265658C238DEA00936C654E5E433CB65A26D9F6EDB5EBC14EBF49A45CB856E66048291F6939A9A81BB5
310
C8917738143CA680F4AA299D66A042CEB3354A2684DC9D8D178FE0D9B8B41CAAD720F880EE7EF93C0C18769E099ECC04D5A102C8049A8A05632F4DDF376CF1DE0F6BB65C2F8627B65A33C6BB62177CEBBDAD973006829F89F22E814B54F4BC2BE347F8AA8F681390B50FA73F804400B5F542E796F19FF974E7F78DB802FE05
310
E207504B0304140006080800CC70623B16AB87BA640500003C100000340000006662782F39464131463745442D413632322D343644302D413938332D3331353338454246344243312F6F626A656374732E786D6CAD575B6FA33818FD2B887DE6924B3BED8A326A92B68A663B534DD4D13E548A0C38942D60649B369D5FBFC7
310
600890A493BDE42160637FD7F31D7FF63E6FB3D478A55C242CBF3247B66B1A340F5994E4F19559CA8D75611A9F7D8F33263BCB4C232719BD32D5B4E97B316765A1A722BA21652A07B3B7B33F0D11D29C9A46981221AE4C113ED38CD8A4942CA2E2C58E882476BCD9DA23BB5ED8171B73523C0F841684D35CC252CCE79062D4
310
468DFA43D7747CCF51DF7D4FFDEB5593E3AB9CCA9FBEFE241792E4E19EB28198C968BAB8199F5D5A67D3E9C49A9E8F47D6EC76B6B0469F26EEFC7C3EBFBCBEB98462213924694B38DD98FE1D62C393D073EA4FADC5DAF04326852CCF6958F90F0F2B9BB5C48816348F90C7840A68EB78EDF68723159BCEE7891A6B95DDE9D3
310
BCEAEEE8086A6C6F9E5D4B59F0175C10A7A0820BAA5055C7473B5AE3CFDD452D602CD5DF12616444529E90D448938013FE6EFA58AA96F85E4F8C42275708571E98FE6827AF6B2B4AE3D7D83D64E5A64C53054DD3AF90BD06FEA9149565C94FCA0F6B834DC85599E4F2423B24DF0B6AFA979E534DFA9E7A4CC6FA631D486393
310
921829879BF5D781A373557BCB85E97FB90DB62B558F8795179C15944B051F40AB495CF35451D26A4727654E6D8033BD98EF82F21D91FF8AF2DD9982BCF1643BDD4EB516C9492E368C67C88DED563FC36D5EACF66DFF057C3658BDBFA69DF9578B3DA735B64F18C7F20770A9D45CFCF7FCF563D6456A277DBEF78A02637CA2
310
43B90A490AEAB94F72244481D24819A6C0E59B606BFA4B3025981DBB48EAB701D97BF19C577CC77F2D1B6C55A9EF3C732474C0B727303F625995056C3B02963D9EAC146BE78EC5FCEC7FA999EBC5EACBAAE41B12D27B4D2C0BBA49F244E2ECDC81B76B502F113D8F5EE8FB1BE3111CDD4FC2AA9B844CAB1288B68AB90A7CDC
310
1C166AB0D3DC5310625FCC14E779BFD0709F8890A629C9292B1B2DED31A4B0DA928CEE135085754027E3018A397D4D5427D15BD1330B677DC8934285AC3DF45A9EB68FF8F2B8FC0A509AFEECFD0FF2DE25CC6047F7214B195F07EFEB9A094D800F7BFAE8FED187B78EA8A3A400F115961BCAD1215E47C966530AF0EE8128FE
310
58CEBB996A8964FFA529A046635D9353B0336A8F700DDF46271A024E70B0B37C9DE01847591E54DED53D54202AB947E4076556AC49C6CA5C9E1226B7F1A7B1BE15DEED62C41B91E1B3E9AFAAA735036547343A925075041DF0A9979E893B391F8FCFA6967B3EFB644DCF6E5CEBFAE272625DCC6FAF3FB93793C5F90CE1EF57
310
407342756B10D1C489E8953CD1617E5CEECAD6F4EF8914CE5D5D504E5C3F1F9736DA62CFC11E00BCDDB8CC8A9466349744C1F75EBDA4DF09BA8A9E8C7A7E9991989E20E5DBDD6A6003664ED8F7A04A8DBE0DF6EAD9B9AA858342E47399053949D2C146EDB85DE4B176BB0965FBAC19BD19AA918E27FA50C1D22402E144464C
310
59462568E704B6E71915404CB72B8FF4EDE184DDAF753F284990D2C6926782963815403548A70C657FDEF80D2D9CEAA2AE4C1C76F60BFE74219A06527D6582DF6412526107381E55E353090704D085B52408D0933C4ED159D79BDA71BB4BC506F4831350EB6F979CD22D69BF7AC49B91A2C0A9DDA3D5CA36AD20FC478E37E6
310
1844E2352865EBCB6EA275A652E3836BE04EFB400BF1A2556F515F1FBB35B2AB35BD889C744FFA1004B5544B121E57F70215746DD2F5E2C1412B602CBF19455AC6C8E5E9922C4E01E65215385004546899059180EAFCF7A707CE7017CD8CDB0410789AB32C63B91E5CEBBBACB17AC6CD347A022D5075FD106377347AAABA7E
310
7D11590744509B44E205134DC1290F06580320F78E537D3D73540E06CB970B431F185308AD40BBD794D6D77003C5A36E8EAA54BA64597CD8F83BD552A080A365F7FF06504B0304140006080000CC70623B000000000000000000000000350000006662782F39464131463745442D413632322D343644302D413938332D3331
310
353338454246344243312F76657274696365732E62696E504B0304140006080800CC70623BF270F1330600000004000000360000006662782F39464131463745442D413632322D343644302D413938332D3331353338454246344243312F747269616E676C65732E62696E636660600000504B0304140006080000CC70623B
310
000000000000000000000000370000006662782F39464131463745442D413632322D343644302D413938332D3331353338454246344243312F617474726962757465732E62696E504B0304140006080800CC70623B08DA0BD19000000041010000360000006662782F39464131463745442D413632322D343644302D413938
310
332D3331353338454246344243312F6469726563746F72792E786D6C858F410AC3201045AF22B36F53E9A60B35CBEEBAE80D244E44489C6234F4F835464A48035D0DF398FF9F8AF63D0E6CC63039F212F8F9020C7D47C6792B21C5FE7403D62A1188E2E60C98D7234A5830286103A55745067B9D86B8A3CF9C7F90C11DE607
310
FB144396D7B6A82D282E9A152AD114D5EF2CB866EEE831B8EEA07A7BB5A8D7D61A2BAAEB7FD5F70921FF497D00504B0304140006080800CC70623B0D6EF93BFE000000A00100003B0000006662782F39464131463745442D413632322D343644302D413938332D3331353338454246344243312F7265736F75726365732F63
310
6F72652E786D6C8D50596E833010BD0A9ADFCA60B334011947A8694ED00B586642AC041B79A97AFC9A40A5F6AF3F33A3B7689E1E3F7DCD8FEC139DD7D6F4C0720A191A65476DA61E62B892236427C19DB5E1970C322367EC618541F0C9D9B8EC90B226A009093576C41D94DE63804C3DD2D18357379C652E63480A7FCF17A9
310
EE72C29CE5894E3AC17D702940B63D59270887DE46A7D0F36263058F518FBB468FE9A7BE6A7420864373B8D4873369AA8691FA421B3294352543C5CAF65C0F6FEF43CB8BD52C78D0F34F46E550061C419494B6843142CB0F5677F4B52BEB177AEC28E5C52AFF638ACBF84F53D42654E51E77B379102C05791282176B5F693D
310
CB4C7BED567C03504B010214000A0000080000CC70623B3DEE336E79000000790000001B00000000000000000000000000000000006175746F6465736B2D64657369676E2D7061636B6167652E786D6C504B01021400140006080800CC70623BD486FD9CA0000000F40000001300000000000000000000000000B20000005B
310
436F6E74656E745F54797065735D2E786D6C504B01021400140006080800CC70623B1EC5D7A3EB0000007C010000080000000000000000000000000083010000636F72652E786D6C504B01021400140006080800CC70623B55019EA25F0000007C000000070000000000000000000000000094020000636E782E786D6C504B
310
01021400140006080800CC70623B8C9102E971010000D40300000C00000000000000000000000000180300006662782F636F72652E786D6C504B01021400140006080800CC70623BFFEA85907E0000009D0000000B00000000000000000000000000B30400006662782F636E782E786D6C504B01021400140006080800CC70
310
623B4FEEA4082C0100001202000031000000000000000000000000005A0500006662782F39464131463745442D413632322D343644302D413938332D3331353338454246344243312F636F72652E786D6C504B01021400140006080800CC70623BAD7543B64E010000330300003000000000000000000000000000D5060000
310
6662782F39464131463745442D413632322D343644302D413938332D3331353338454246344243312F636E782E786D6C504B01021400140006080800CC70623B16AB87BA640500003C1000003400000000000000000000000000710800006662782F39464131463745442D413632322D343644302D413938332D3331353338
310
454246344243312F6F626A656374732E786D6C504B01021400140006080000CC70623B0000000000000000000000003500000000000000000000000000270E00006662782F39464131463745442D413632322D343644302D413938332D3331353338454246344243312F76657274696365732E62696E504B01021400140006
310
080800CC70623BF270F133060000000400000036000000000000000000000000007A0E00006662782F39464131463745442D413632322D343644302D413938332D3331353338454246344243312F747269616E676C65732E62696E504B01021400140006080000CC70623B0000000000000000000000003700000000000000
310
000000000000D40E00006662782F39464131463745442D413632322D343644302D413938332D3331353338454246344243312F617474726962757465732E62696E504B01021400140006080800CC70623B08DA0BD190000000410100003600000000000000000000000000290F00006662782F39464131463745442D413632
310
322D343644302D413938332D3331353338454246344243312F6469726563746F72792E786D6C504B01021400140006080800CC70623B0D6EF93BFE000000A00100003B000000000000000000000000000D1000006662782F39464131463745442D413632322D343644302D413938332D3331353338454246344243312F7265
310
736F75726365732F636F72652E786D6C504B0506000000000E000E0080040000641100000000
  0
XRECORD
  5
175
102
{ACAD_REACTORS
330
173
102
}
330
173
100
AcDbXrecord
280
     1
270
     1
271
     1
  0
XRECORD
  5
174
102
{ACAD_REACTORS
330
173
102
}
330
173
100
AcDbXrecord
280
     1
270
     1
271
     1
  0
XRECORD
  5
1FB
102
{ACAD_REACTORS
330
173
102
}
330
173
100
AcDbXrecord
280
     1
 70
     0
 90
1673772943
  1
ECE7A1D2-D628-4531-984C-D00F80459256
310
504B03040A0000080000CC70623B3DEE336E79000000790000001B0000006175746F6465736B2D64657369676E2D7061636B6167652E786D6C3C3F786D6C2076657273696F6E3D22312E302220656E636F64696E673D227574662D3822203F3E3C666F726D6174733E3C666F726D61743E687474703A2F2F736368656D612E
310
6175746F6465736B2E636F6D2F64657369676E2D7061636B6167652F323030393C2F666F726D61743E3C2F666F726D6174733E504B0304140006080800CC70623BD486FD9CA0000000F4000000130000005B436F6E74656E745F54797065735D2E786D6C7D8EC10E82300C865F65E91D8A1E8C310C0EEA1BF002731658846E
310
D98AC1B77784ABF1D8FE5FBFBF75BBCE937A534CCEB38643598122B6FEE978D0B0485F9C41B54DDD7D022595594E1A469170414C76A4D9A4D207E29CF43ECE46F218070CC6BECC4078ACAA135ACF422C856C0E68EA1BF5669944DDD7BCDE7B1F8E415D77AECB980613C2E4AC91FC167A2B244592486606FC29C8FD7F045B9A
310
EF7053A7E60B504B0304140006080800CC70623BD9DDAED0EC0000007C01000008000000636F72652E786D6C8D90416EC3201045AF82665B61836D9CD8C2444DD39CA01740405C94182C03558F5F9C3852BBEB6A467FFE9B197D7EF89E6EE8CB2CC17A37002D0820E394D7D68D03A478C17B4007C117EFE32F1B20272733C0
310
2A83E0E3E2D3BC49CABB685CCCAAF3DA6CA20CC14440EA969B0182FA34932C648AD911AEC52CD5558EA6A0CF2EC329598D1E47ACCEFBECC59A050463A7EA5833865FEBDD0E37353BE3EE8DBDE3F6786A48D375FBF6CC78B9C282473B3DEFABC5C86834888A900E538A49F5419B9EB47DD5BC907D4F082F57FB1F28CDFA9F50
310
B22ED6D5F6EE030B20687EE43E10BC5CB3C8E51E54AE6B6EE207504B0304140006080800CC70623B55019EA25F0000007C00000007000000636E782E786D6C4DCB3B0E80201045D1AD90E915ED2CF8AC45050C11660C8261F98AB1B07AC9C97D42D718D865D3E909258CFD00CCE24AC6E326A164D74DC0B4128928FF326038
310
472BA13128B1252AC747C6BAB984FC68F0B87FE8960A5C09FE86CFB69FBA01504B0304140006080800CC70623BA24EB22D72010000D40300000C0000006662782F636F72652E786D6CC5535B6E833010BC8AE5DF0A6C5E49888CA3A6694ED00B38E05014B091B1518EDFE511A5A9D228FD2A1F60CDEC7A67C6986DCE4D8D7A
310
69BA4AAB0C073EC548AA5C17952A33ECECD15B61B4E1CC686DBF9561A44423333CC098B3D268D7CE50AE9595CA02AA74216750749DB418E5352C32DCE59FB211BE70162ABA93DF8AFC244AE9073ED050C759670D0840D390E18DF9F1706664C23973AE2A66B62A605A75ACA4C13C4976E1364A12EF355A2EBD384AF65EFA96
310
BC7B8BED2EA6719AAE16FB8491A199335B351775B991C2CA02F390D2D40B028F861F41BCA68B7518BFD0D59A524686F29B26D7164F36B94AD9289CE54E6D1DE6010819891F6E21228B3AD1831EC219194284CF98F06DD01008846CC5A1BEF83801D4CBDC6A1303536877A57A513B0953A94FC707FDBE6064EA84A9E3E6E0FA
310
EE8CF0E9198F7784A316AA0413C2C2F2E0ECA0934D1AE6D05A69BCDE9E91D2A611F573361E38FC1375157F5752AE6B6DFE4B11990F88CCBF0719EE23FF02504B0304140006080800CC70623B408A7D3B7C0000009D0000000B0000006662782F636E782E786D6C4DCCD10A83201886E15B91FFDC552A92A0064DBC8F581632
310
D3703A76F9ABD1C18E3E78F878E5F0D9027ABBFCF2292AE86E2D20171F69F6715550CB827B40839639A5F2770314A7CD293819B45C73AAFB45B35BA61ACAA1C1C7E7855C58C15BC331339661262CC762340413D68D77DA5B42298546CBE6573AF60CEB2F504B0304140006080800CC70623B449FB9BD290100001202000031
310
0000006662782F36394639363044362D344446342D343946362D394244322D3234314243333846323333332F636F72652E786D6C8D515B6EC32010BC0AE22B55850D98B871848994463E412FE002495162B07854397EA176A4F62F3F2C9A9D991D587EB84F37F0AD7D30CEF6905418026DA553C65E7A98E219ED203808EE9D
310
8B7F6810D871D23D2C3014FCE25D9A57483A1BB58D19B54EE9151C43D0110279CB971E06F9A5A7B11A53CC8C70ADE6515EC78BAE4895DB992778883E0700CB907242D17643D7E2538BD869608875438BBAE38922CAC8F1BDD90DB4691A5E2F42C153326A951B95E398B3D1FE599322163C9AE9115F7A3D46ADA0A018778810
310
84E907617BDCEE297BC5BB3DC6BC2EF47FA234AB2745C9D8D8D035EE220B50105E2F0DC1954B9FB747187D9F9D8FA0CCDB042D5FA0C015C65B42DF78BD10F3F3B363CB56C7109DCFDFBBB97E662ED92EB62D13BC2E1BCAE5777DB9966D8A1F504B0304140006080800CC70623BAD7543B64E01000033030000300000006662
310
782F36394639363044362D344446342D343946362D394244322D3234314243333846323333332F636E782E786D6CD593CD6EC32010845F0571AD6CE3D48AD20813A9873E410FBD12D82434182C7EAAE6EDBB2424CD25871E7B41D6EC30B3FA84F9E67BB2E40B4234DE8DB46F1925E094D7C6ED479AD3AE5951B2113C789FEE
310
6C943839C1488B4C05DF079FE72A69D8C96C13AAD6B8631503449F83828872B949AC57D26200B826A308D316B4064D6E46FCDA41C05550DC9E483A00797BFD207EFB092A45DE9514C1BBD22178396BD39D891265658C238DEA00936C654E5E433CB65A26D9F6EDB5EBC14EBF49A45CB856E66048291F6939A9A81BB5C89177
310
38143CA680F4AA299D66A042CEB3354A2684DC9D8D178FE0D9B8B41CAAD720F880EE7EF93C0C18769E099ECC04D5A102C8049A8A05632F4DDF376CF1DE0F6BB65C2F8627B65A33C6BB62177CEBBDAD973006829F89F22E814B54F4BC2BE347F8AA8F681390B50FA73F804400B5F542E796F19FF974E7F78DB802FE05E20750
310
4B0304140006080800CC70623B8D05915C650500003B100000340000006662782F36394639363044362D344446342D343946362D394244322D3234314243333846323333332F6F626A656374732E786D6CAD575B6FA33814FE2B887D06429276DA1565D4266D158D3A339A6846FB502932E050B66023DB74D2FDF5FB190C01
310
9276B2973C046C8ECFF53B17071F77456EBD502133CEAE6CDF9DD81665314F32965ED995DA3A17B6F5310C04E7AA47665B8C14F4CAD6DB7618A48257A5D94AE89654B91AEDDEDDFC61C998326A5B714EA4BCB265FC440BE2924AF184CA6737218AB8E976E7FA6E4338649B0A523E8D98964450A6A029F619B8588D52FE7039
310
B1BD30F0F4F730D0FF866AF6369557DB33949F31A9088B0F848DD8CCFCF9F2767A76E99CCDE733677E3EF59D9BBB9BA5E37F984D16E78BC5E5F5ED25044B25C0C96822E8D60EEFE11B91C581D77CEA34368A1F5329E68CD1B8B61F16D63A1B8E092D294B10C78C4A48EB593D192E7DED9BDEE7995E1B91FDEDD3ACEA9FE831
310
6A756F9F7D4D79F4274C90A7A04248AA51D5F8C718DAE06FB2F75AC4796EBE65D22A88A22223B995679120E2D50E41AA49C260C046A35368846B0BECD0DFF3EBEB8AD4F835768F69B9ADF25C43D30E6B646F807FAA64AD59F61715C7A54127C4AACA98BA3006A9D792DAE165E0D59B61A01FB3A9F9D838D2DAE62445C86166
310
F37564E842E7DE6A69879FEEA2DD5AE7E371E1A5E025154AC307D06A03D73EB5978C58FFA4C8E9033066E0F3BD53BEC1F39F91BE7B55103791EDE6BBB991A2046172CB4581D8B893FA674DDA17A77B3B7C413D1B511FD2743BFF8A38F03A658705E3ADF8015C3A3417FF3D7E439FF591DA0B5F18BC20C1B8981957AE6392A3
310
F43C640C01D1A0B4728E2DD4F26DB4B3C3152A252A3B4E913CEC1C72F012782FF88EFF8637AA552DBEF76408E8A8DE9E50F9E1CB3A2DA0DB1B6039A893B56063DC5B3E3FFB5F72E67AB9FEB4AEC496C4F4C1149625DD662C53E89D7BF0F6151A046260D1337DFDC94502430F83B0EE07A130A224BCAD7DAE1D9FB6CD422FF6
310
920702629C4BB9AE79C12F243C6432A6794E18E5552BA56B431AAB5D91317302B2B071E86C3A42B1A02F999E24061403B5D0EB639195DA655DD3EBEAB4FB862DDF579F014AD0E73C22F99E28DA57FB98E75C6CA2D74D53086D600F4786E0FE3144B771A8A7B900F03594DB8A633CBC49B2EDB69228BB479CF863B5E807AAAB
310
23872F6DFEB4129B949CA33823F58830E86D65621E10047D9DB34D862E8EAC3C2ABC2F7B2C40D67CDFE01F5545B92105AF983AC54D93D69E56FB8E797F88913F898A9FEC705D3F9D1B54EC8426FB500D40A03BD0119B06E1B95DDC7EB8F6975367793EBD70E66733DFB9BC982F9CE564727731999F5D4ECFCE3B8D6A4DC2A0
310
6D50FD148437D110834A64C6CDDF57FBACB5C307A2A477DFE4939736CFEF2B175371E0E10CF0DD1D5C15654E0BCA14D1E87DD02FF93782A162C0A3D95F1524A52770F972BF1EE9809D13CE7DD599467F8ECE9ADD85CE85A34CD45355448C64F9E8A031DC2D596ACC6E5DD93D9B82DE2EF5CAF81363A8E47996A0DE24564A79
310
4115AACE09C55E14540231FDA13C319787134EBF34E3A022514E5B4D9E0826E25C02D5805B15ABE1BEF51B26383D445DD9E875EE33FE4C22DA16427D65A3BCA92CA6D28DD01DF5DC53330704308475351050232CCD31583787BA75774AFB06E5070DD0C8EF484E19968C5D83BA5B90B244D31E54D55A372320FE4786B7EA58
310
44E135AA5467CB7EA333A61683CC6A8C3257034C10CF46F40EF9F5BE59BE5BD30C3C72D235E95D10345C1D45445A5F0BB47E46A5EBE5570F9380B5FA629579952296A773720405982B9DE04011506178964401AA8BDF1FBF0A8EAB6861DD6580C0E38217056766716DAEB2D6FA0917D3E4116581EADB879C4E7CFFB11EFACD
310
3D641311495D92C8676CB409A72D18610D803CE8A626049E8EC1887CB5B44CC39883690DDA8399B4B9855B481E7D71D4A9D22F96E5BB73BF5793020C02137BF837504B0304140006080000CC70623B000000000000000000000000350000006662782F36394639363044362D344446342D343946362D394244322D32343142
310
43333846323333332F76657274696365732E62696E504B0304140006080800CC70623BF270F1330600000004000000360000006662782F36394639363044362D344446342D343946362D394244322D3234314243333846323333332F747269616E676C65732E62696E636660600000504B0304140006080000CC70623B0000
310
00000000000000000000370000006662782F36394639363044362D344446342D343946362D394244322D3234314243333846323333332F617474726962757465732E62696E504B0304140006080800CC70623B08DA0BD19000000041010000360000006662782F36394639363044362D344446342D343946362D394244322D
310
3234314243333846323333332F6469726563746F72792E786D6C858F410AC3201045AF22B36F53E9A60B35CBEEBAE80D244E44489C6234F4F835464A48035D0DF398FF9F8AF63D0E6CC63039F212F8F9020C7D47C6792B21C5FE7403D62A1188E2E60C98D7234A5830286103A55745067B9D86B8A3CF9C7F90C11DE607FB14
310
4396D7B6A82D282E9A152AD114D5EF2CB866EEE831B8EEA07A7BB5A8D7D61A2BAAEB7FD5F70921FF497D00504B0304140006080800CC70623BCA768048FE000000A00100003B0000006662782F36394639363044362D344446342D343946362D394244322D3234314243333846323333332F7265736F75726365732F636F72
310
652E786D6C8D50596E833010BD0A9ADFCA60D600328E9AA639412F609909B1126CE4A5EAF16B0295DABFFECC8CDEA2797AECF8353F924FB44E193D409E5248504B332A3D0D10FC95B4901C39B3C6F85F3248B49871801506CE266BC2B243D2688FDA47549B11775038871E12F988C7004EDE7016A9083E2ADC3D5D84BC8B09
310
D33C8D74D471E6BC8D0192EDC93A815B742658898E651BCB59086ADC356A8C3FD555A1055ED7E7E254D615792D0F075295F585746FF53B694EE78A565DD736979A65AB9933AFE69F8CD2A2F038022F28ED489E135A7CE4554F9BBEA85E68DB53CAB255FEC71496F19FA6A0B42F8B3DEE6673C0F318E4497096AD7DC5F52C33
310
EEB55BFE0D504B010214000A0000080000CC70623B3DEE336E79000000790000001B00000000000000000000000000000000006175746F6465736B2D64657369676E2D7061636B6167652E786D6C504B01021400140006080800CC70623BD486FD9CA0000000F40000001300000000000000000000000000B20000005B436F
310
6E74656E745F54797065735D2E786D6C504B01021400140006080800CC70623BD9DDAED0EC0000007C010000080000000000000000000000000083010000636F72652E786D6C504B01021400140006080800CC70623B55019EA25F0000007C000000070000000000000000000000000095020000636E782E786D6C504B0102
310
1400140006080800CC70623BA24EB22D72010000D40300000C00000000000000000000000000190300006662782F636F72652E786D6C504B01021400140006080800CC70623B408A7D3B7C0000009D0000000B00000000000000000000000000B50400006662782F636E782E786D6C504B01021400140006080800CC70623B
310
449FB9BD290100001202000031000000000000000000000000005A0500006662782F36394639363044362D344446342D343946362D394244322D3234314243333846323333332F636F72652E786D6C504B01021400140006080800CC70623BAD7543B64E010000330300003000000000000000000000000000D20600006662
310
782F36394639363044362D344446342D343946362D394244322D3234314243333846323333332F636E782E786D6C504B01021400140006080800CC70623B8D05915C650500003B10000034000000000000000000000000006E0800006662782F36394639363044362D344446342D343946362D394244322D32343142433338
310
46323333332F6F626A656374732E786D6C504B01021400140006080000CC70623B0000000000000000000000003500000000000000000000000000250E00006662782F36394639363044362D344446342D343946362D394244322D3234314243333846323333332F76657274696365732E62696E504B010214001400060808
310
00CC70623BF270F13306000000040000003600000000000000000000000000780E00006662782F36394639363044362D344446342D343946362D394244322D3234314243333846323333332F747269616E676C65732E62696E504B01021400140006080000CC70623B00000000000000000000000037000000000000000000
310
00000000D20E00006662782F36394639363044362D344446342D343946362D394244322D3234314243333846323333332F617474726962757465732E62696E504B01021400140006080800CC70623B08DA0BD190000000410100003600000000000000000000000000270F00006662782F36394639363044362D344446342D
310
343946362D394244322D3234314243333846323333332F6469726563746F72792E786D6C504B01021400140006080800CC70623BCA768048FE000000A00100003B000000000000000000000000000B1000006662782F36394639363044362D344446342D343946362D394244322D3234314243333846323333332F7265736F
310
75726365732F636F72652E786D6C504B0506000000000E000E0080040000621100000000
  0
XRECORD
  5
176
102
{ACAD_REACTORS
330
173
102
}
330
173
100
AcDbXrecord
280
     1
270
     1
271
     1
  0
XRECORD
  5
177
102
{ACAD_REACTORS
330
173
102
}
330
173
100
AcDbXrecord
280
     1
270
     1
271
     1
  0
XRECORD
  5
AE8
102
{ACAD_REACTORS
330
AE7
102
}
330
AE7
100
AcDbXrecord
280
     1
102
DISPLAYNAME
  1
Metric50
102
FLAGS
 90
        0
  0
CELLSTYLEMAP
  5
AE6
102
{ACAD_REACTORS
330
162
102
}
330
162
100
AcDbCellStyleMap
 90
        3
300
CELLSTYLE
  1
TABLEFORMAT_BEGIN
 90
        5
170
     1
 91
        0
 92
    32768
 62
   257
 93
        1
300
CONTENTFORMAT
  1
CONTENTFORMAT_BEGIN
 90
        0
 91
        0
 92
      512
 93
        0
300

 40
0.0
140
1.0
 94
        5
 62
     0
340
11
144
6.0
309
CONTENTFORMAT_END
171
     1
301
MARGIN
  1
CELLMARGIN_BEGIN
 40
1.5
 40
1.5
 40
1.5
 40
1.5
 40
4.5
 40
4.5
309
CELLMARGIN_END
 94
        6
 95
        1
302
GRIDFORMAT
  1
GRIDFORMAT_BEGIN
 90
        0
 91
        1
 62
     0
 92
       -2
340
14
 93
        0
 40
1.125
309
GRIDFORMAT_END
 95
        2
302
GRIDFORMAT
  1
GRIDFORMAT_BEGIN
 90
        0
 91
        1
 62
     0
 92
       -2
340
14
 93
        0
 40
1.125
309
GRIDFORMAT_END
 95
        4
302
GRIDFORMAT
  1
GRIDFORMAT_BEGIN
 90
        0
 91
        1
 62
     0
 92
       -2
340
14
 93
        0
 40
1.125
309
GRIDFORMAT_END
 95
        8
302
GRIDFORMAT
  1
GRIDFORMAT_BEGIN
 90
        0
 91
        1
 62
     0
 92
       -2
340
14
 93
        0
 40
1.125
309
GRIDFORMAT_END
 95
       16
302
GRIDFORMAT
  1
GRIDFORMAT_BEGIN
 90
        0
 91
        1
 62
     0
 92
       -2
340
14
 93
        0
 40
1.125
309
GRIDFORMAT_END
 95
       32
302
GRIDFORMAT
  1
GRIDFORMAT_BEGIN
 90
        0
 91
        1
 62
     0
 92
       -2
340
14
 93
        0
 40
1.125
309
GRIDFORMAT_END
309
TABLEFORMAT_END
  1
CELLSTYLE_BEGIN
 90
        1
 91
        1
300
_TITLE
309
CELLSTYLE_END
300
CELLSTYLE
  1
TABLEFORMAT_BEGIN
 90
        5
170
     1
 91
        0
 92
        0
 62
   257
 93
        1
300
CONTENTFORMAT
  1
CONTENTFORMAT_BEGIN
 90
        0
 91
        0
 92
      512
 93
        0
300

 40
0.0
140
1.0
 94
        5
 62
     0
340
11
144
4.5
309
CONTENTFORMAT_END
171
     1
301
MARGIN
  1
CELLMARGIN_BEGIN
 40
1.5
 40
1.5
 40
1.5
 40
1.5
 40
4.5
 40
4.5
309
CELLMARGIN_END
 94
        6
 95
        1
302
GRIDFORMAT
  1
GRIDFORMAT_BEGIN
 90
        0
 91
        1
 62
     0
 92
       -2
340
14
 93
        0
 40
1.125
309
GRIDFORMAT_END
 95
        2
302
GRIDFORMAT
  1
GRIDFORMAT_BEGIN
 90
        0
 91
        1
 62
     0
 92
       -2
340
14
 93
        0
 40
1.125
309
GRIDFORMAT_END
 95
        4
302
GRIDFORMAT
  1
GRIDFORMAT_BEGIN
 90
        0
 91
        1
 62
     0
 92
       -2
340
14
 93
        0
 40
1.125
309
GRIDFORMAT_END
 95
        8
302
GRIDFORMAT
  1
GRIDFORMAT_BEGIN
 90
        0
 91
        1
 62
     0
 92
       -2
340
14
 93
        0
 40
1.125
309
GRIDFORMAT_END
 95
       16
302
GRIDFORMAT
  1
GRIDFORMAT_BEGIN
 90
        0
 91
        1
 62
     0
 92
       -2
340
14
 93
        0
 40
1.125
309
GRIDFORMAT_END
 95
       32
302
GRIDFORMAT
  1
GRIDFORMAT_BEGIN
 90
        0
 91
        1
 62
     0
 92
       -2
340
14
 93
        0
 40
1.125
309
GRIDFORMAT_END
309
TABLEFORMAT_END
  1
CELLSTYLE_BEGIN
 90
        2
 91
        1
300
_HEADER
309
CELLSTYLE_END
300
CELLSTYLE
  1
TABLEFORMAT_BEGIN
 90
        5
170
     1
 91
        0
 92
        0
 62
   257
 93
        1
300
CONTENTFORMAT
  1
CONTENTFORMAT_BEGIN
 90
        0
 91
        0
 92
      512
 93
        0
300

 40
0.0
140
1.0
 94
        2
 62
     0
340
11
144
4.5
309
CONTENTFORMAT_END
171
     1
301
MARGIN
  1
CELLMARGIN_BEGIN
 40
1.5
 40
1.5
 40
1.5
 40
1.5
 40
4.5
 40
4.5
309
CELLMARGIN_END
 94
        6
 95
        1
302
GRIDFORMAT
  1
GRIDFORMAT_BEGIN
 90
        0
 91
        1
 62
     0
 92
       -2
340
14
 93
        0
 40
1.125
309
GRIDFORMAT_END
 95
        2
302
GRIDFORMAT
  1
GRIDFORMAT_BEGIN
 90
        0
 91
        1
 62
     0
 92
       -2
340
14
 93
        0
 40
1.125
309
GRIDFORMAT_END
 95
        4
302
GRIDFORMAT
  1
GRIDFORMAT_BEGIN
 90
        0
 91
        1
 62
     0
 92
       -2
340
14
 93
        0
 40
1.125
309
GRIDFORMAT_END
 95
        8
302
GRIDFORMAT
  1
GRIDFORMAT_BEGIN
 90
        0
 91
        1
 62
     0
 92
       -2
340
14
 93
        0
 40
1.125
309
GRIDFORMAT_END
 95
       16
302
GRIDFORMAT
  1
GRIDFORMAT_BEGIN
 90
        0
 91
        1
 62
     0
 92
       -2
340
14
 93
        0
 40
1.125
309
GRIDFORMAT_END
 95
       32
302
GRIDFORMAT
  1
GRIDFORMAT_BEGIN
 90
        0
 91
        1
 62
     0
 92
       -2
340
14
 93
        0
 40
1.125
309
GRIDFORMAT_END
309
TABLEFORMAT_END
  1
CELLSTYLE_BEGIN
 90
        3
 91
        2
300
_DATA
309
CELLSTYLE_END
  0
ENDSEC
  0
SECTION
  2
ACDSDATA
 70
     2
 71
     8
  0
ACDSSCHEMA
 90
        0
  1
AcDb_Thumbnail_Schema
  2
AcDbDs::ID
280
    10
 91
        8
  2
Thumbnail_Data
280
    15
 91
        0
101
ACDSRECORD
 95
        0
 90
        1
  2
AcDbDs::TreatedAsObjectData
280
     1
291
     1
101
ACDSRECORD
 95
        0
 90
        2
  2
AcDbDs::Legacy
280
     1
291
     1
101
ACDSRECORD
  1
AcDbDs::ID
 90
        3
  2
AcDs:Indexable
280
     1
291
     1
101
ACDSRECORD
  1
AcDbDs::ID
 90
        4
  2
AcDbDs::HandleAttribute
280
     7
282
     1
  0
ACDSSCHEMA
 90
        1
  1
AcDbDs::TreatedAsObjectDataSchema
  2
AcDbDs::TreatedAsObjectData
280
     1
 91
        0
  0
ACDSSCHEMA
 90
        2
  1
AcDbDs::LegacySchema
  2
AcDbDs::Legacy
280
     1
 91
        0
  0
ACDSSCHEMA
 90
        3
  1
AcDbDs::IndexedPropertySchema
  2
AcDs:Indexable
280
     1
 91
        0
  0
ACDSSCHEMA
 90
        4
  1
AcDbDs::HandleAttributeSchema
  2
AcDbDs::HandleAttribute
280
     7
 91
        1
284
     1
  0
ACDSRECORD
 90
        0
  2
AcDbDs::ID
280
    10
320
22
  2
Thumbnail_Data
280
    15
 94
     1995
310
89504E470D0A1A0A0000000D4948445200000100000000CD080300000060AD5E8A00000300504C5445000000000000C8C8C80000000000000000000000000000000000000000000000000000330000660000990000CC0000FF0033000033330033660033990033CC0033FF0066000066330066660066990066CC0066FF0099
310
000099330099660099990099CC0099FF00CC0000CC3300CC6600CC9900CCCC00CCFF00FF0000FF3300FF6600FF9900FFCC00FFFF3300003300333300663300993300CC3300FF3333003333333333663333993333CC3333FF3366003366333366663366993366CC3366FF3399003399333399663399993399CC3399FF33CC00
310
33CC3333CC6633CC9933CCCC33CCFF33FF0033FF3333FF6633FF9933FFCC33FFFF6600006600336600666600996600CC6600FF6633006633336633666633996633CC6633FF6666006666336666666666996666CC6666FF6699006699336699666699996699CC6699FF66CC0066CC3366CC6666CC9966CCCC66CCFF66FF0066
310
FF3366FF6666FF9966FFCC66FFFF9900009900339900669900999900CC9900FF9933009933339933669933999933CC9933FF9966009966339966669966999966CC9966FF9999009999339999669999999999CC9999FF99CC0099CC3399CC6699CC9999CCCC99CCFF99FF0099FF3399FF6699FF9999FFCC99FFFFCC0000CC00
310
33CC0066CC0099CC00CCCC00FFCC3300CC3333CC3366CC3399CC33CCCC33FFCC6600CC6633CC6666CC6699CC66CCCC66FFCC9900CC9933CC9966CC9999CC99CCCC99FFCCCC00CCCC33CCCC66CCCC99CCCCCCCCCCFFCCFF00CCFF33CCFF66CCFF99CCFFCCCCFFFFFF0000FF0033FF0066FF0099FF00CCFF00FFFF3300FF3333
310
FF3366FF3399FF33CCFF33FFFF6600FF6633FF6666FF6699FF66CCFF66FFFF9900FF9933FF9966FF9999FF99CCFF99FFFFCC00FFCC33FFCC66FFCC99FFCCCCFFCCFFFFFF00FFFF33FFFF66FFFF99FFFFCCFFFFFF0000000D0D0D1A1A1A2828283535354343435050505D5D5D6B6B6B787878868686939393A1A1A1AEAEAEBB
310
BBBBC9C9C9D6D6D6E4E4E4F1F1F1FFFFFF00000000000000000000000000000000000000000000000000000000000008F1915C000004864944415478DAED9C4D969C300C847503AEC146F73F80CFA47DC0D846FE69607A1613CA55934C771A3AEFD56759D8964184A2288AA2288AA2288AA2288AA2288AA2288AA2288AA228
310
8AA2288AA2A82F154E11C0445A6F00ACF0008A1C80D5699E08F8EE3801100018009D0B80D96AD75AC78201E02F7E63998D2E1D48002EBBC07698009033230110000110C0CC004C08800008800066077023740072B31E2004000CC09E0A14C068A9631001831357D80E300620044000044000045006C721BC1F807EF24F00F8
310
00CCC2FE33ACF8CC014082041DCFF2A64882B91C985CDD4F87F100C81E015200DC2D8820029020B302D8E6B6B1E46D214F75C3E544380CA7C6EBABDB7FEFD75A5AFE5104B453E39901883102DE9E036E7B39740E488DA829B1CF591C2580EF002820007B04C08000D839104AE92DDC24C1F3B09E59F0C500E4FBCBA0228C03
310
08C0CF7F9F0388A7EBF19D7703588F8960B4F900400E14FF1D3C000F16443A00AF25D06F8EBFDC2EAFE978C8578190F7CFBF38029AA2F7C71B260A80E6C8BB07416B3312BCBA63E4386D95C900C847000204C0EDFA586F66CE8800640CA0BB73141780EFE997B7CEEAC02F0140009067006406003FBD791A37021E7E030DC0
310
5FFC1704400004F07F0278F40C150220805703B8D4681C04F6EC84F5D70D88FF5C1D8AA2288AA2288AA2288AA2288AA2288AA2288AA2288AA2288AC2964EEBBCBF477C3EF3370FD30577DF74816918B43EB53DA453D96F9260CC09E8FE6FAE028ADC1146DEB4FD276E2A18357F549B06410934B6B2774D6F8FA7E7A8C212A8
310
4CB9762FAF7E480448C05B3ADD37E3803D0EF223A70CD9FF28096ECE37007A023050FFAEF9AB41F0F6CB6222300124E0FD37D704CDEF2DBD98E011E8FD0FE702070B8F08AE032473F9837A1EA8E9ADF6DC5002A0F81F7501D17C225A0874FE9DB765533A49CF53152B04CA0312D5357F32BF6C241691FA80CF945001E0DA3F
310
DA2F816FE7E0A72600052005C0F149B4EFD607CC1A023821500740F16FE6525F311EDF808540F588D4E474F35F27BC3202CA7F051540F1DF0E841C81342F062150658014E1DEBFEFEDB9274085C02800AAA5213FEE1B84001E80A303F4D3E14C002D0472AA53170095295F1728218003A00F00A903A02E8CA453E000C412E8
310
D9033E5586A4EA0338008E7A576EDE26007A00390430B2E0D19CB1E095063B9700CCBA3EF07E00B1E9B5F4EF2B00324C026FF6AF6A5A64F1CF62FEB346964EB2EA337D7B04A4C7EACE18012E07E429DF4F01405C05F6157F79721588CB437000246D857A74195C002F83FB8B9A3C1B082D65623CE550D89645302743722E07
310
D4B3E16632B408320019AC87F8E9B0C40030AC25A17649D0DA05816A41042F004A0948AB10E8D7040FFF0BE0AA68BF2A5C1338CBA5A903A0AD8B777591A32C64521747C58A7FB865F14161E0A88CF8F278F10F571819D4464B69D045C052F9976E1F054408A85F234AD5D1A8A348DEFB07A98FB7E5E1BA3EBEA42D0236288F
310
1B0A802A04A4DE0AE937CD54974CC1D923F3618B50BA3DA0EC12D2FC8AE6BF27E0AC99DF1617AF8D80BBC4FA6D62A32E908B07789BC4A4D929EA5ADC77016B6E26FAFB00F8072114E50B7624C1D80000000049454E44AE426082
  0
ENDSEC
  0
EOF
