  0
SECTION
  2
HEADER
  9
$ACADVER
  1
AC1027
  9
$ACADMAINTVER
 70
   105
  9
$DWGCODEPAGE
  3
ANSI_1252
  9
$TITLE
  1
Adapter G 20 / NPT 20 Silber
  9
$AUTHOR
  1
GUZB562
  9
$LASTSAVEDBY
  1
guzb562
  9
$CUSTOMPROPERTYTAG
  1
AD_ERP_PART_NO
  9
$CUSTOMPROPERTY
  1
20060
  9
$REQUIREDVERSIONS
160
                 0
  9
$INSBASE
 10
0.0
 20
0.0
 30
0.0
  9
$EXTMIN
 10
3731.497540299891
 20
8143.408256733485
 30
-0.0000000349181948
  9
$EXTMAX
 10
3877.990536864584
 20
8338.947305511531
 30
0.0000000814935746
  9
$LIMMIN
 10
3689.478273164186
 20
8066.289412291927
  9
$LIMMAX
 10
3899.478273164186
 20
8363.289412291928
  9
$ORTHOMODE
 70
     0
  9
$REGENMODE
 70
     1
  9
$FILLMODE
 70
     1
  9
$QTEXTMODE
 70
     0
  9
$MIRRTEXT
 70
     0
  9
$LTSCALE
 40
1.0
  9
$ATTMODE
 70
     1
  9
$TEXTSIZE
 40
3.438283852916356
  9
$TRACEWID
 40
1.0
  9
$TEXTSTYLE
  7
STANDARD
  9
$CLAYER
  8
AM_2 ( Kontur 0.25)
  9
$CELTYPE
  6
ByLayer
  9
$CECOLOR
 62
   256
  9
$CELTSCALE
 40
1.0
  9
$DISPSILH
 70
     0
  9
$DIMSCALE
 40
5.0
  9
$DIMASZ
 40
2.5
  9
$DIMEXO
 40
0.0
  9
$DIMDLI
 40
10.0
  9
$DIMRND
 40
0.0
  9
$DIMDLE
 40
0.0
  9
$DIMEXE
 40
1.0
  9
$DIMTP
 40
0.1
  9
$DIMTM
 40
0.1
  9
$DIMTXT
 40
3.5
  9
$DIMCEN
 40
0.0
  9
$DIMTSZ
 40
0.0
  9
$DIMTOL
 70
     0
  9
$DIMLIM
 70
     0
  9
$DIMTIH
 70
     0
  9
$DIMTOH
 70
     0
  9
$DIMSE1
 70
     0
  9
$DIMSE2
 70
     0
  9
$DIMTAD
 70
     1
  9
$DIMZIN
 70
     8
  9
$DIMBLK
  1

  9
$DIMASO
 70
     1
  9
$DIMSHO
 70
     1
  9
$DIMPOST
  1

  9
$DIMAPOST
  1
"
  9
$DIMALT
 70
     0
  9
$DIMALTD
 70
     2
  9
$DIMALTF
 40
0.0393701
  9
$DIMLFAC
 40
1.0
  9
$DIMTOFL
 70
     1
  9
$DIMTVP
 40
0.0
  9
$DIMTIX
 70
     0
  9
$DIMSOXD
 70
     0
  9
$DIMSAH
 70
     0
  9
$DIMBLK1
  1

  9
$DIMBLK2
  1

  9
$DIMSTYLE
  2
BENUTZERDEFINIERTE NORM
  9
$DIMCLRD
 70
   256
  9
$DIMCLRE
 70
   256
  9
$DIMCLRT
 70
     6
  9
$DIMTFAC
 40
0.71
  9
$DIMGAP
 40
1.5
  9
$DIMJUST
 70
     0
  9
$DIMSD1
 70
     0
  9
$DIMSD2
 70
     0
  9
$DIMTOLJ
 70
     0
  9
$DIMTZIN
 70
     8
  9
$DIMALTZ
 70
     0
  9
$DIMALTTZ
 70
     0
  9
$DIMUPT
 70
     0
  9
$DIMDEC
 70
     2
  9
$DIMTDEC
 70
     2
  9
$DIMALTU
 70
     2
  9
$DIMALTTD
 70
     2
  9
$DIMTXSTY
  7
STANDARD
  9
$DIMAUNIT
 70
     0
  9
$DIMADEC
 70
     0
  9
$DIMALTRND
 40
0.0
  9
$DIMAZIN
 70
     2
  9
$DIMDSEP
 70
    46
  9
$DIMATFIT
 70
     3
  9
$DIMFRAC
 70
     0
  9
$DIMLDRBLK
  1

  9
$DIMLUNIT
 70
     2
  9
$DIMLWD
 70
    -1
  9
$DIMLWE
 70
    -1
  9
$DIMTMOVE
 70
     0
  9
$DIMFXL
 40
1.0
  9
$DIMFXLON
 70
     0
  9
$DIMJOGANG
 40
1.570796326794896
  9
$DIMTFILL
 70
     0
  9
$DIMTFILLCLR
 70
     0
  9
$DIMARCSYM
 70
     0
  9
$DIMLTYPE
  6

  9
$DIMLTEX1
  6

  9
$DIMLTEX2
  6

  9
$DIMTXTDIRECTION
 70
     0
  9
$LUNITS
 70
     2
  9
$LUPREC
 70
     2
  9
$SKETCHINC
 40
1.0
  9
$FILLETRAD
 40
1.0
  9
$AUNITS
 70
     0
  9
$AUPREC
 70
     0
  9
$MENU
  1
ACAD
  9
$ELEVATION
 40
0.0
  9
$PELEVATION
 40
0.0
  9
$THICKNESS
 40
0.0
  9
$LIMCHECK
 70
     0
  9
$CHAMFERA
 40
2.5
  9
$CHAMFERB
 40
2.5
  9
$CHAMFERC
 40
0.0
  9
$CHAMFERD
 40
0.0
  9
$SKPOLY
 70
     0
  9
$TDCREATE
 40
2455790.480979502
  9
$TDUCREATE
 40
2455790.397646169
  9
$TDUPDATE
 40
2457981.460482535
  9
$TDUUPDATE
 40
2457981.377149202
  9
$TDINDWG
 40
0.0204551852
  9
$TDUSRTIMER
 40
0.0204550000
  9
$USRTIMER
 70
     1
  9
$ANGBASE
 50
0.0
  9
$ANGDIR
 70
     0
  9
$PDMODE
 70
     0
  9
$PDSIZE
 40
0.0
  9
$PLINEWID
 40
0.0
  9
$SPLFRAME
 70
     0
  9
$SPLINETYPE
 70
     6
  9
$SPLINESEGS
 70
    12
  9
$HANDSEED
  5
52BC
  9
$SURFTAB1
 70
     6
  9
$SURFTAB2
 70
     6
  9
$SURFTYPE
 70
     6
  9
$SURFU
 70
     6
  9
$SURFV
 70
     6
  9
$UCSBASE
  2

  9
$UCSNAME
  2

  9
$UCSORG
 10
0.0
 20
0.0
 30
0.0
  9
$UCSXDIR
 10
1.0
 20
0.0
 30
0.0
  9
$UCSYDIR
 10
0.0
 20
1.0
 30
0.0
  9
$UCSORTHOREF
  2

  9
$UCSORTHOVIEW
 70
     0
  9
$UCSORGTOP
 10
0.0
 20
0.0
 30
0.0
  9
$UCSORGBOTTOM
 10
0.0
 20
0.0
 30
0.0
  9
$UCSORGLEFT
 10
0.0
 20
0.0
 30
0.0
  9
$UCSORGRIGHT
 10
0.0
 20
0.0
 30
0.0
  9
$UCSORGFRONT
 10
0.0
 20
0.0
 30
0.0
  9
$UCSORGBACK
 10
0.0
 20
0.0
 30
0.0
  9
$PUCSBASE
  2

  9
$PUCSNAME
  2

  9
$PUCSORG
 10
0.0
 20
0.0
 30
0.0
  9
$PUCSXDIR
 10
1.0
 20
0.0
 30
0.0
  9
$PUCSYDIR
 10
0.0
 20
1.0
 30
0.0
  9
$PUCSORTHOREF
  2

  9
$PUCSORTHOVIEW
 70
     0
  9
$PUCSORGTOP
 10
0.0
 20
0.0
 30
0.0
  9
$PUCSORGBOTTOM
 10
0.0
 20
0.0
 30
0.0
  9
$PUCSORGLEFT
 10
0.0
 20
0.0
 30
0.0
  9
$PUCSORGRIGHT
 10
0.0
 20
0.0
 30
0.0
  9
$PUCSORGFRONT
 10
0.0
 20
0.0
 30
0.0
  9
$PUCSORGBACK
 10
0.0
 20
0.0
 30
0.0
  9
$USERI1
 70
     0
  9
$USERI2
 70
     0
  9
$USERI3
 70
     0
  9
$USERI4
 70
     0
  9
$USERI5
 70
     0
  9
$USERR1
 40
0.0
  9
$USERR2
 40
0.0
  9
$USERR3
 40
0.0
  9
$USERR4
 40
0.0
  9
$USERR5
 40
0.0
  9
$WORLDVIEW
 70
     1
  9
$SHADEDGE
 70
     3
  9
$SHADEDIF
 70
    70
  9
$TILEMODE
 70
     1
  9
$MAXACTVP
 70
    64
  9
$PINSBASE
 10
0.0
 20
0.0
 30
0.0
  9
$PLIMCHECK
 70
     0
  9
$PEXTMIN
 10
1.000000000000000E+20
 20
1.000000000000000E+20
 30
1.000000000000000E+20
  9
$PEXTMAX
 10
-1.000000000000000E+20
 20
-1.000000000000000E+20
 30
-1.000000000000000E+20
  9
$PLIMMIN
 10
0.0
 20
0.0
  9
$PLIMMAX
 10
12.0
 20
9.0
  9
$UNITMODE
 70
     0
  9
$VISRETAIN
 70
     1
  9
$PLINEGEN
 70
     0
  9
$PSLTSCALE
 70
     1
  9
$TREEDEPTH
 70
  3020
  9
$CMLSTYLE
  2
Standard
  9
$CMLJUST
 70
     0
  9
$CMLSCALE
 40
1.0
  9
$PROXYGRAPHICS
 70
     1
  9
$MEASUREMENT
 70
     1
  9
$CELWEIGHT
370
    -1
  9
$ENDCAPS
280
     0
  9
$JOINSTYLE
280
     0
  9
$LWDISPLAY
290
     0
  9
$INSUNITS
 70
     4
  9
$HYPERLINKBASE
  1

  9
$STYLESHEET
  1
OASE.ctb
  9
$XEDIT
290
     1
  9
$CEPSNTYPE
380
     0
  9
$PSTYLEMODE
290
     1
  9
$FINGERPRINTGUID
  2
{4ECDDFB5-3667-4A08-BCC5-A0F04FB0AD6B}
  9
$VERSIONGUID
  2
{F4D26061-90E8-4D62-9A34-6E85BC9CCC61}
  9
$EXTNAMES
290
     1
  9
$PSVPSCALE
 40
0.0
  9
$OLESTARTUP
290
     0
  9
$SORTENTS
280
   127
  9
$INDEXCTL
280
     0
  9
$HIDETEXT
280
     0
  9
$XCLIPFRAME
280
     0
  9
$HALOGAP
280
     0
  9
$OBSCOLOR
 70
   257
  9
$OBSLTYPE
280
     0
  9
$INTERSECTIONDISPLAY
280
     0
  9
$INTERSECTIONCOLOR
 70
   257
  9
$DIMASSOC
280
     2
  9
$PROJECTNAME
  1

  9
$CAMERADISPLAY
290
     0
  9
$LENSLENGTH
 40
50.0
  9
$CAMERAHEIGHT
 40
0.0
  9
$STEPSPERSEC
 40
2.0
  9
$STEPSIZE
 40
6.0
  9
$3DDWFPREC
 40
2.0
  9
$PSOLWIDTH
 40
0.25
  9
$PSOLHEIGHT
 40
4.0
  9
$LOFTANG1
 40
1.570796326794896
  9
$LOFTANG2
 40
1.570796326794896
  9
$LOFTMAG1
 40
0.0
  9
$LOFTMAG2
 40
0.0
  9
$LOFTPARAM
 70
     7
  9
$LOFTNORMALS
280
     1
  9
$LATITUDE
 40
37.795
  9
$LONGITUDE
 40
-122.394
  9
$NORTHDIRECTION
 40
0.0
  9
$TIMEZONE
 70
 -8000
  9
$LIGHTGLYPHDISPLAY
280
     1
  9
$TILEMODELIGHTSYNCH
280
     1
  9
$CMATERIAL
347
11
  9
$SOLIDHIST
280
     1
  9
$SHOWHIST
280
     1
  9
$DWFFRAME
280
     2
  9
$DGNFRAME
280
     0
  9
$REALWORLDSCALE
290
     1
  9
$INTERFERECOLOR
 62
     1
  9
$INTERFEREOBJVS
345
33
  9
$INTERFEREVPVS
346
30
  9
$CSHADOW
280
     0
  9
$SHADOWPLANELOCATION
 40
0.0
  0
ENDSEC
  0
SECTION
  2
CLASSES
  0
CLASS
  1
ACDBDICTIONARYWDFLT
  2
AcDbDictionaryWithDefault
  3
ObjectDBX Classes
 90
        0
 91
        1
280
     0
281
     0
  0
CLASS
  1
MATERIAL
  2
AcDbMaterial
  3
ObjectDBX Classes
 90
     1153
 91
        3
280
     0
281
     0
  0
CLASS
  1
VISUALSTYLE
  2
AcDbVisualStyle
  3
ObjectDBX Classes
 90
     4095
 91
       26
280
     0
281
     0
  0
CLASS
  1
SCALE
  2
AcDbScale
  3
ObjectDBX Classes
 90
     1153
 91
       35
280
     0
281
     0
  0
CLASS
  1
TABLESTYLE
  2
AcDbTableStyle
  3
ObjectDBX Classes
 90
     4095
 91
        1
280
     0
281
     0
  0
CLASS
  1
MLEADERSTYLE
  2
AcDbMLeaderStyle
  3
ACDB_MLEADERSTYLE_CLASS
 90
     4095
 91
        1
280
     0
281
     0
  0
CLASS
  1
AMGSETTINGSOBJ
  2
AmgSettingsObj
  3
"AcadM|Product Description: AutoCAD Mechanical|Company: Autodesk, Inc."
 90
     1024
 91
        4
280
     0
281
     0
  0
CLASS
  1
ACME_DOCUMENT
  2
AcMeDbDoc
  3
AcMeServices
 90
     1024
 91
        2
280
     0
281
     0
  0
CLASS
  1
ACMESCOPE
  2
AcMeScope
  3
AcMeServices
 90
     1024
 91
        1
280
     0
281
     0
  0
CLASS
  1
ACMECOMMANDHISTORY
  2
AcMeCommandHistory
  3
AcMeServices
 90
     1024
 91
        1
280
     0
281
     0
  0
CLASS
  1
ACIMSYSVARMAN
  2
AcImSysVarManager
  3
AcMeServices
 90
     1024
 91
        4
280
     0
281
     0
  0
CLASS
  1
ACIMINTSYSVAR
  2
AcImIntSysVar
  3
AcMeServices
 90
     1024
 91
       29
280
     0
281
     0
  0
CLASS
  1
ACMEDRAWINGMAN
  2
AcMeDrawingMan
  3
AcMeServices
 90
     1024
 91
        0
280
     0
281
     0
  0
CLASS
  1
ACMEVIEW
  2
AcMeView
  3
AcMeServices
 90
     1024
 91
        0
280
     0
281
     0
  0
CLASS
  1
ACDBENTITYCACHE
  2
AcMeEntityCache
  3
AcMeServices
 90
     1024
 91
        1
280
     0
281
     0
  0
CLASS
  1
GSMANAGER
  2
AcMeGSManager
  3
AcMeServices
 90
     1024
 91
        0
280
     0
281
     0
  0
CLASS
  1
AMDTINTERNALREACTOR
  2
AmdtInternalReactor
  3
AcMeServices
 90
     1024
 91
        0
280
     0
281
     0
  0
CLASS
  1
ACMESTATEMGR
  2
AcMeStateMgr
  3
AcMeServices
 90
     1024
 91
        1
280
     0
281
     0
  0
CLASS
  1
ACGREFMASTER
  2
AcGrefMaster
  3
AcAttribServices
 90
     1024
 91
        1
280
     0
281
     0
  0
CLASS
  1
AM_DRAWING_MGR
  2
AcDmDwgMgr
  3
AcMechDwgViewMgmt
 90
     1024
 91
        0
280
     0
281
     0
  0
CLASS
  1
AM_DWG_DOCUMENT
  2
AcDmDwgDocument
  3
AcMechDwgViewMgmt
 90
     1024
 91
        0
280
     0
281
     0
  0
CLASS
  1
AM_DWG_SHEET
  2
AcDmSheet
  3
AcMechDwgViewMgmt
 90
     1024
 91
        0
280
     0
281
     0
  0
CLASS
  1
AM_VIEWDIMPARMAP
  2
AcDmViewDimParMap
  3
AcMechDwgViewMgmt
 90
     1024
 91
        0
280
     0
281
     0
  0
CLASS
  1
ACIMREALSYSVAR
  2
AcImRealSysVar
  3
AcMeServices
 90
     1024
 91
        1
280
     0
281
     0
  0
CLASS
  1
AM_DWGMGR_NAME
  2
AcDmDwgMgrName
  3
AcMechDwgViewMgmt
 90
     1024
 91
        0
280
     0
281
     0
  0
CLASS
  1
ACME_DATABASE
  2
AcMeDbDatabase
  3
AcMeServices
 90
     1024
 91
        1
280
     0
281
     0
  0
CLASS
  1
ACRFINSADJUSTERMGR
  2
AcRfInsAdjusterMgr
  3
AcMeServices
 90
     1024
 91
        1
280
     0
281
     0
  0
CLASS
  1
ACGREFACADMASTER
  2
AcGrefacadMaster
  3
AcGrefServices
 90
     1024
 91
        1
280
     0
281
     0
  0
CLASS
  1
AMDTMENUSTATEMGR
  2
AmdtMenuStateMgr
  3
McadcomServices
 90
     1024
 91
        1
280
     0
281
     0
  0
CLASS
  1
AMDTMCOMMENUSTATE
  2
AmdtMcomMenuState
  3
McadcomServices
 90
     1024
 91
        1
280
     0
281
     0
  0
CLASS
  1
AMIMASTER
  2
AmiMaster
  3
AmiServices
 90
     1024
 91
        1
280
     0
281
     0
  0
CLASS
  1
MAPIAMMOUDLE
  2
MApiAmModule
  3
MApiAmServices
 90
     1024
 91
        1
280
     0
281
     0
  0
CLASS
  1
ACIMSTRSYSVAR
  2
AcImStrSysVar
  3
AcMeServices
 90
     1024
 91
        5
280
     0
281
     0
  0
CLASS
  1
AMDTADMENUSTATE
  2
AmdtAdMenuState
  3
DesignerServices
 90
     1024
 91
        0
280
     0
281
     0
  0
CLASS
  1
ADAPPL
  2
AcAdAppl
  3
DesignerAssemblies
 90
     1024
 91
        0
280
     0
281
     0
  0
CLASS
  1
DEPMGR
  2
AcAdDepMgr
  3
DesignerAssemblies
 90
     1024
 91
        0
280
     0
281
     0
  0
CLASS
  1
PARAMMGR
  2
AcAdParamMgr
  3
DesignerAssemblies
 90
     1024
 91
        0
280
     0
281
     0
  0
CLASS
  1
PARAMSCOPE
  2
AcAdParamScope
  3
DesignerAssemblies
 90
     1024
 91
        0
280
     0
281
     0
  0
CLASS
  1
NAMEDAPPL
  2
AcAdNamedAppl
  3
DesignerAssemblies
 90
     1024
 91
        0
280
     0
281
     0
  0
CLASS
  1
AMDTDMMENUSTATE
  2
AmdtDmMenuState
  3
AcMechDwgViewMgmt
 90
     1024
 91
        0
280
     0
281
     0
  0
CLASS
  1
AMDTAMMENUSTATE
  2
AmdtAmMenuState
  3
DesignerAssemblies
 90
     1024
 91
        1
280
     0
281
     0
  0
CLASS
  1
ACAMPROJECT
  2
AcAmProject
  3
DesignerAssemblies
 90
     1024
 91
        1
280
     0
281
     0
  0
CLASS
  1
ACAMGRCOMPDEF
  2
AcAmGrCompDef
  3
DesignerAssemblies
 90
     1024
 91
        1
280
     0
281
     0
  0
CLASS
  1
ACCMCONTEXT
  2
AcCmContext
  3
DesignerAssemblies
 90
     1024
 91
        1
280
     0
281
     0
  0
CLASS
  1
ACAMCOMPDEF
  2
AcAmCompDef
  3
DesignerAssemblies
 90
     1024
 91
        1
280
     0
281
     0
  0
CLASS
  1
ACAMCOMPDEFMGR
  2
AcAmCompDefMgr
  3
DesignerAssemblies
 90
     1024
 91
        1
280
     0
281
     0
  0
CLASS
  1
AMCONTEXTMGR
  2
AcAmContextMgr
  3
DesignerAssemblies
 90
     1024
 91
        1
280
     0
281
     0
  0
CLASS
  1
ACAMCONTEXTMODELER
  2
AcAmContextModeler
  3
DesignerAssemblies
 90
     1024
 91
        1
280
     0
281
     0
  0
CLASS
  1
ACMDATADICTIONARY
  2
AcmDataDictionary
  3
"AcmSymBB|Product Description: AutoCAD Mechanical|Company: Autodesk, Inc."
 90
     1024
 91
        1
280
     0
281
     0
  0
CLASS
  1
CATALOGSTATE
  2
AcAmCatalogState
  3
DesignerAssemblies
 90
     1024
 91
        0
280
     0
281
     0
  0
CLASS
  1
ACAMGRCOMPDEFSET
  2
AcAmGrCompDefSet
  3
DesignerAssemblies
 90
     1024
 91
        1
280
     0
281
     0
  0
CLASS
  1
AMDTBROWSERDBTAB
  2
AmdtBrowserDbTab
  3
McadcomServices
 90
     1024
 91
        1
280
     0
281
     0
  0
CLASS
  1
CBROWSERAPPOBJECT
  2
CBrowserAppObject
  3
McadcomServices
 90
     1024
 91
        2
280
     0
281
     0
  0
CLASS
  1
DM_PLACEHOLDER
  2
AcDmSelsetPlaceholder
  3
McadcomServices
 90
     1024
 91
        1
280
     0
281
     0
  0
CLASS
  1
ACMSTANDARDANSI
  2
AcmStandardANSI
  3
"Amdt_StdImp|Product Description: AutoCAD Mechanical|Company: Autodesk, Inc."
 90
     1024
 91
        1
280
     0
281
     0
  0
CLASS
  1
AMGOBJPROPCFG
  2
AmgObjPropCfg
  3
"AmgLay|Product Description: AutoCAD Mechanical|Company: Autodesk, Inc."
 90
     1024
 91
        1
280
     0
281
     0
  0
CLASS
  1
ACMSURFSTANDARDANSI
  2
AcmSurfTextStdANSI
  3
"Amdt_StdImp|Product Description: AutoCAD Mechanical|Company: Autodesk, Inc."
 90
     1024
 91
        1
280
     0
281
     0
  0
CLASS
  1
ACMFCFSTANDARDANSI
  2
AcmFCFStdANSI
  3
"Amdt_StdImp|Product Description: AutoCAD Mechanical|Company: Autodesk, Inc."
 90
     1024
 91
        1
280
     0
281
     0
  0
CLASS
  1
ACMWELDSTANDARDANSI
  2
AcmWeldingStdANSI
  3
"Amdt_StdImp|Product Description: AutoCAD Mechanical|Company: Autodesk, Inc."
 90
     1024
 91
        1
280
     0
281
     0
  0
CLASS
  1
ACMIDSTANDARDANSI
  2
AcmIdStdANSI
  3
"Amdt_StdImp|Product Description: AutoCAD Mechanical|Company: Autodesk, Inc."
 90
     1024
 91
        1
280
     0
281
     0
  0
CLASS
  1
ACMDATUMSTANDARDANSI
  2
AcmDatumStdANSI
  3
"Amdt_StdImp|Product Description: AutoCAD Mechanical|Company: Autodesk, Inc."
 90
     1024
 91
        1
280
     0
281
     0
  0
CLASS
  1
ACMBOMSTANDARDANSI
  2
AcmBOMStdANSI
  3
"Amdt_StdImp|Product Description: AutoCAD Mechanical|Company: Autodesk, Inc."
 90
     1024
 91
        1
280
     0
281
     0
  0
CLASS
  1
ACMDETAILSTANDARDANSI
  2
AmdtDetailSymStdANSI
  3
"Amdt_StdImp|Product Description: AutoCAD Mechanical|Company: Autodesk, Inc."
 90
     1024
 91
        1
280
     0
281
     0
  0
CLASS
  1
ACMSECTIONSTANDARDANSI
  2
AmdtSectionSymStdANSI
  3
"Amdt_StdImp|Product Description: AutoCAD Mechanical|Company: Autodesk, Inc."
 90
     1024
 91
        1
280
     0
281
     0
  0
CLASS
  1
ACMCENTERLINESTANDARDANSI
  2
AmdtCenterLineStdANSI
  3
"Amdt_StdImp|Product Description: AutoCAD Mechanical|Company: Autodesk, Inc."
 90
     1024
 91
        1
280
     0
281
     0
  0
CLASS
  1
ACMTHREADLINESTANDARDANSI
  2
AmdtThreadLineStdANSI
  3
"Amdt_StdImp|Product Description: AutoCAD Mechanical|Company: Autodesk, Inc."
 90
     1024
 91
        1
280
     0
281
     0
  0
CLASS
  1
ACMNOTESTANDARDANSI
  2
AmdtNoteStdANSI
  3
"Amdt_StdImp|Product Description: AutoCAD Mechanical|Company: Autodesk, Inc."
 90
     1024
 91
        1
280
     0
281
     0
  0
CLASS
  1
ACMTAPERSTANDARDANSI
  2
AcmTaperStdANSI
  3
"Amdt_StdImp|Product Description: AutoCAD Mechanical|Company: Autodesk, Inc."
 90
     1024
 91
        1
280
     0
281
     0
  0
CLASS
  1
ACMANOOTATIONVIEWSTANDARDANSI
  2
AmdtAnViewStdANSI
  3
"Amdt_StdImp|Product Description: AutoCAD Mechanical|Company: Autodesk, Inc."
 90
     1024
 91
        1
280
     0
281
     0
  0
CLASS
  1
AMDTNOTETEMPLATEDB
  2
AmdtNoteTemplateDB
  3
AcmSymBB|Product Description: AutoCAD Mechanical|Company: Autodesk, Inc.
 90
     1024
 91
       24
280
     0
281
     0
  0
CLASS
  1
ACAMGLAYSTD
  2
AcAmgLayStd
  3
"AmgLay|Product Description: AutoCAD Mechanical|Company: Autodesk, Inc."
 90
     1024
 91
        4
280
     0
281
     0
  0
CLASS
  1
ACAMGDIMSTD
  2
AcAmgDimStd
  3
"AmgDim|Product Description: AutoCAD Mechanical|Company: Autodesk, Inc."
 90
     1024
 91
        4
280
     0
281
     0
  0
CLASS
  1
ACAMGHOLECHARTSTDANSI
  2
AcAmgHoleChartStdANSI
  3
AmgDim|Product Description: AutoCAD Mechanical|Company: Autodesk, Inc.
 90
     1024
 91
        1
280
     0
281
     0
  0
CLASS
  1
ACAMGTITLESTD
  2
AcAmgTitleStd
  3
"AmgTitle|Product Description: AutoCAD Mechanical|Company: Autodesk, Inc."
 90
     1024
 91
        4
280
     0
281
     0
  0
CLASS
  1
ACAMGFILTERDAT
  2
AcAmgFilterDat
  3
"AcadM|Product Description: AutoCAD Mechanical|Company: Autodesk, Inc."
 90
     1024
 91
        0
280
     0
281
     0
  0
CLASS
  1
CELLSTYLEMAP
  2
AcDbCellStyleMap
  3
ObjectDBX Classes
 90
     1152
 91
        3
280
     0
281
     0
  0
CLASS
  1
DICTIONARYVAR
  2
AcDbDictionaryVar
  3
ObjectDBX Classes
 90
        0
 91
       16
280
     0
281
     0
  0
CLASS
  1
ACMDATAENTRYPART
  2
AcmDataEntryPart
  3
AcmSymBB|Product Description: AutoCAD Mechanical|Company: Autodesk, Inc.
 90
     1024
 91
       12
280
     0
281
     0
  0
CLASS
  1
ACMPARTREF
  2
AcmPartRef
  3
"AcmSymBB|Product Description: AutoCAD Mechanical|Company: Autodesk, Inc."
 90
     1024
 91
        0
280
     0
281
     1
  0
CLASS
  1
ACDBLINERES
  2
AcDbLineRes
  3
AcGrefServices
 90
     1024
 91
        4
280
     0
281
     0
  0
CLASS
  1
ACMSTANDARDDIN
  2
AcmStandardDIN
  3
"Amdt_StdImp|Product Description: AutoCAD Mechanical|Company: Autodesk, Inc."
 90
     1024
 91
        2
280
     0
281
     0
  0
CLASS
  1
AMDTEDGESTANDARDDIN13715
  2
AmdtEdgeStdDIN13715
  3
"Amdt_StdImp|Product Description: AutoCAD Mechanical|Company: Autodesk, Inc."
 90
     1024
 91
        2
280
     0
281
     0
  0
CLASS
  1
ACMSURFSTANDARDDIN2002
  2
AcmSurfTextStdDIN2002
  3
"Amdt_StdImp|Product Description: AutoCAD Mechanical|Company: Autodesk, Inc."
 90
     1024
 91
        2
280
     0
281
     0
  0
CLASS
  1
ACMFCFSTANDARDDIN
  2
AcmFCFStdDIN
  3
"Amdt_StdImp|Product Description: AutoCAD Mechanical|Company: Autodesk, Inc."
 90
     1024
 91
        2
280
     0
281
     0
  0
CLASS
  1
ACMWELDSTANDARDDIN
  2
AcmWeldingStdDIN
  3
"Amdt_StdImp|Product Description: AutoCAD Mechanical|Company: Autodesk, Inc."
 90
     1024
 91
        2
280
     0
281
     0
  0
CLASS
  1
ACMIDSTANDARDDIN
  2
AcmIdStdDIN
  3
"Amdt_StdImp|Product Description: AutoCAD Mechanical|Company: Autodesk, Inc."
 90
     1024
 91
        2
280
     0
281
     0
  0
CLASS
  1
ACMDATUMSTANDARDDIN
  2
AcmDatumStdDIN
  3
"Amdt_StdImp|Product Description: AutoCAD Mechanical|Company: Autodesk, Inc."
 90
     1024
 91
        2
280
     0
281
     0
  0
CLASS
  1
ACMBOMSTANDARDDIN
  2
AcmBOMStdDIN
  3
"Amdt_StdImp|Product Description: AutoCAD Mechanical|Company: Autodesk, Inc."
 90
     1024
 91
        2
280
     0
281
     0
  0
CLASS
  1
ACMDETAILSTANDARDDIN
  2
AmdtDetailSymStdDIN
  3
"Amdt_StdImp|Product Description: AutoCAD Mechanical|Company: Autodesk, Inc."
 90
     1024
 91
        2
280
     0
281
     0
  0
CLASS
  1
ACMSECTIONSTANDARDDIN
  2
AmdtSectionSymStdDIN
  3
"Amdt_StdImp|Product Description: AutoCAD Mechanical|Company: Autodesk, Inc."
 90
     1024
 91
        2
280
     0
281
     0
  0
CLASS
  1
ACMCENTERLINESTANDARDDIN
  2
AmdtCenterLineStdDIN
  3
"Amdt_StdImp|Product Description: AutoCAD Mechanical|Company: Autodesk, Inc."
 90
     1024
 91
        2
280
     0
281
     0
  0
CLASS
  1
ACMTHREADLINESTANDARDDIN
  2
AmdtThreadLineStdDIN
  3
"Amdt_StdImp|Product Description: AutoCAD Mechanical|Company: Autodesk, Inc."
 90
     1024
 91
        2
280
     0
281
     0
  0
CLASS
  1
ACMNOTESTANDARDDIN
  2
AmdtNoteStdDIN
  3
"Amdt_StdImp|Product Description: AutoCAD Mechanical|Company: Autodesk, Inc."
 90
     1024
 91
        2
280
     0
281
     0
  0
CLASS
  1
ACMTAPERSTANDARDDIN
  2
AcmTaperStdDIN
  3
"Amdt_StdImp|Product Description: AutoCAD Mechanical|Company: Autodesk, Inc."
 90
     1024
 91
        2
280
     0
281
     0
  0
CLASS
  1
ACMANOOTATIONVIEWSTANDARDDIN
  2
AmdtAnViewStdDIN
  3
"Amdt_StdImp|Product Description: AutoCAD Mechanical|Company: Autodesk, Inc."
 90
     1024
 91
        2
280
     0
281
     0
  0
CLASS
  1
ACAMGHOLECHARTSTDDIN
  2
AcAmgHoleChartStdDIN
  3
AmgDim|Product Description: AutoCAD Mechanical|Company: Autodesk, Inc.
 90
     1024
 91
        2
280
     0
281
     0
  0
CLASS
  1
ACMDATAENTRYBLOCK
  2
AcmDataEntryBlock
  3
AcmSymBB|Product Description: AutoCAD Mechanical|Company: Autodesk, Inc.
 90
     1024
 91
        5
280
     0
281
     0
  0
CLASS
  1
ACMBOM
  2
AcmBom
  3
"AcmSymBB|Product Description: AutoCAD Mechanical|Company: Autodesk, Inc."
 90
     1024
 91
        1
280
     0
281
     0
  0
CLASS
  1
AMDTFORMULAUPDATEDISPATCHER
  2
AmdtFormulaUpdateDispatcher
  3
AcMeServices
 90
     1024
 91
        1
280
     0
281
     0
  0
CLASS
  1
ACMBOMROW
  2
AcmBomRow
  3
"AcmSymBB|Product Description: AutoCAD Mechanical|Company: Autodesk, Inc."
 90
     1024
 91
        0
280
     0
281
     0
  0
CLASS
  1
ACMPARTLIST
  2
AcmPartList
  3
"AcmSymBB|Product Description: AutoCAD Mechanical|Company: Autodesk, Inc."
 90
     1024
 91
        0
280
     0
281
     1
  0
CLASS
  1
CAMSSTRUCTBTNSTATE
  2
StructBtnState
  3
DesignerAssemblies
 90
     1024
 91
        1
280
     0
281
     0
  0
CLASS
  1
ACRFATTGENMGR
  2
AcRfAttGeneralMgr
  3
AcAttribServices
 90
     1024
 91
        1
280
     0
281
     0
  0
CLASS
  1
ACRFOBJATTMGR
  2
AcRfObjAttGroupMgr
  3
AcAttribServices
 90
     1024
 91
        1
280
     0
281
     0
  0
CLASS
  1
ACRFMCADAPIATTHOLDER
  2
AcRfMCADAPIAttHolder
  3
AcAttribServices
 90
     1024
 91
        1
280
     0
281
     0
  0
CLASS
  1
AMDTSYSATTR
  2
AmdtSystemAttribute
  3
AcAttribServices
 90
     1024
 91
        7
280
     0
281
     0
  0
CLASS
  1
SORTENTSTABLE
  2
AcDbSortentsTable
  3
ObjectDBX Classes
 90
        0
 91
        2
280
     0
281
     0
  0
CLASS
  1
ACMSTANDARDISO
  2
AcmStandardISO
  3
"Amdt_StdImp|Product Description: AutoCAD Mechanical|Company: Autodesk, Inc."
 90
     1024
 91
        1
280
     0
281
     0
  0
CLASS
  1
AMDTEDGESTANDARDISO
  2
AmdtEdgeStdISO
  3
"Amdt_StdImp|Product Description: AutoCAD Mechanical|Company: Autodesk, Inc."
 90
     1024
 91
        1
280
     0
281
     0
  0
CLASS
  1
ACMSURFSTANDARDISO2002
  2
AcmSurfTextStdISO2002
  3
"Amdt_StdImp|Product Description: AutoCAD Mechanical|Company: Autodesk, Inc."
 90
     1024
 91
        1
280
     0
281
     0
  0
CLASS
  1
ACMFCFSTANDARDISO
  2
AcmFCFStdISO
  3
"Amdt_StdImp|Product Description: AutoCAD Mechanical|Company: Autodesk, Inc."
 90
     1024
 91
        1
280
     0
281
     0
  0
CLASS
  1
ACMWELDSTANDARDISO
  2
AcmWeldingStdISO
  3
"Amdt_StdImp|Product Description: AutoCAD Mechanical|Company: Autodesk, Inc."
 90
     1024
 91
        1
280
     0
281
     0
  0
CLASS
  1
ACMIDSTANDARDISO
  2
AcmIdStdISO
  3
"Amdt_StdImp|Product Description: AutoCAD Mechanical|Company: Autodesk, Inc."
 90
     1024
 91
        1
280
     0
281
     0
  0
CLASS
  1
ACMDATUMSTANDARDISO
  2
AcmDatumStdISO
  3
"Amdt_StdImp|Product Description: AutoCAD Mechanical|Company: Autodesk, Inc."
 90
     1024
 91
        1
280
     0
281
     0
  0
CLASS
  1
ACMBOMSTANDARDISO
  2
AcmBOMStdISO
  3
"Amdt_StdImp|Product Description: AutoCAD Mechanical|Company: Autodesk, Inc."
 90
     1024
 91
        1
280
     0
281
     0
  0
CLASS
  1
ACMDETAILSTANDARDISO
  2
AmdtDetailSymStdISO
  3
"Amdt_StdImp|Product Description: AutoCAD Mechanical|Company: Autodesk, Inc."
 90
     1024
 91
        1
280
     0
281
     0
  0
CLASS
  1
ACMSECTIONSTANDARDISO2001
  2
AmdtSectionSymStdISO2001
  3
"Amdt_StdImp|Product Description: AutoCAD Mechanical|Company: Autodesk, Inc."
 90
     1024
 91
        1
280
     0
281
     0
  0
CLASS
  1
ACMCENTERLINESTANDARDISO
  2
AmdtCenterLineStdISO
  3
"Amdt_StdImp|Product Description: AutoCAD Mechanical|Company: Autodesk, Inc."
 90
     1024
 91
        1
280
     0
281
     0
  0
CLASS
  1
ACMNOTESTANDARDISO
  2
AmdtNoteStdISO
  3
"Amdt_StdImp|Product Description: AutoCAD Mechanical|Company: Autodesk, Inc."
 90
     1024
 91
        1
280
     0
281
     0
  0
CLASS
  1
ACAMGHOLECHARTSTDISO
  2
AcAmgHoleChartStdISO
  3
AmgDim|Product Description: AutoCAD Mechanical|Company: Autodesk, Inc.
 90
     1024
 91
        1
280
     0
281
     0
  0
CLASS
  1
ACMTHREADLINESTANDARDISO
  2
AmdtThreadLineStdISO
  3
"Amdt_StdImp|Product Description: AutoCAD Mechanical|Company: Autodesk, Inc."
 90
     1024
 91
        1
280
     0
281
     0
  0
CLASS
  1
ACMTAPERSTANDARDISO
  2
AcmTaperStdISO
  3
"Amdt_StdImp|Product Description: AutoCAD Mechanical|Company: Autodesk, Inc."
 90
     1024
 91
        1
280
     0
281
     0
  0
CLASS
  1
ACMANOOTATIONVIEWSTANDARDISO
  2
AmdtAnViewStdISO
  3
"Amdt_StdImp|Product Description: AutoCAD Mechanical|Company: Autodesk, Inc."
 90
     1024
 91
        1
280
     0
281
     0
  0
CLASS
  1
ACMSTANDARDGB
  2
AcmStandardGB
  3
"Amdt_StdImp|Product Description: AutoCAD Mechanical|Company: Autodesk, Inc."
 90
     1024
 91
        0
280
     0
281
     0
  0
CLASS
  1
ACMSURFSTANDARDGB
  2
AcmSurfTextStdGB
  3
"Amdt_StdImp|Product Description: AutoCAD Mechanical|Company: Autodesk, Inc."
 90
     1024
 91
        0
280
     0
281
     0
  0
CLASS
  1
ACMFCFSTANDARDGB
  2
AcmFCFStdGB
  3
"Amdt_StdImp|Product Description: AutoCAD Mechanical|Company: Autodesk, Inc."
 90
     1024
 91
        0
280
     0
281
     0
  0
CLASS
  1
ACMWELDSTANDARDGB
  2
AcmWeldingStdGB
  3
"Amdt_StdImp|Product Description: AutoCAD Mechanical|Company: Autodesk, Inc."
 90
     1024
 91
        0
280
     0
281
     0
  0
CLASS
  1
ACMIDSTANDARDGB
  2
AcmIdStdGB
  3
"Amdt_StdImp|Product Description: AutoCAD Mechanical|Company: Autodesk, Inc."
 90
     1024
 91
        0
280
     0
281
     0
  0
CLASS
  1
ACMDATUMSTANDARDGB
  2
AcmDatumStdGB
  3
"Amdt_StdImp|Product Description: AutoCAD Mechanical|Company: Autodesk, Inc."
 90
     1024
 91
        0
280
     0
281
     0
  0
CLASS
  1
ACMBOMSTANDARDGB
  2
AcmBOMStdGB
  3
"Amdt_StdImp|Product Description: AutoCAD Mechanical|Company: Autodesk, Inc."
 90
     1024
 91
        0
280
     0
281
     0
  0
CLASS
  1
ACMDETAILSTANDARDGB
  2
AmdtDetailSymStdGB
  3
"Amdt_StdImp|Product Description: AutoCAD Mechanical|Company: Autodesk, Inc."
 90
     1024
 91
        0
280
     0
281
     0
  0
CLASS
  1
ACMSECTIONSTANDARDGB1998
  2
AmdtSectionSymStdGB1998
  3
"Amdt_StdImp|Product Description: AutoCAD Mechanical|Company: Autodesk, Inc."
 90
     1024
 91
        0
280
     0
281
     0
  0
CLASS
  1
ACMCENTERLINESTANDARDGB
  2
AmdtCenterLineStdGB
  3
"Amdt_StdImp|Product Description: AutoCAD Mechanical|Company: Autodesk, Inc."
 90
     1024
 91
        0
280
     0
281
     0
  0
CLASS
  1
ACMTHREADLINESTANDARDGB
  2
AmdtThreadLineStdGB
  3
"Amdt_StdImp|Product Description: AutoCAD Mechanical|Company: Autodesk, Inc."
 90
     1024
 91
        0
280
     0
281
     0
  0
CLASS
  1
ACMNOTESTANDARDGB
  2
AmdtNoteStdGB
  3
"Amdt_StdImp|Product Description: AutoCAD Mechanical|Company: Autodesk, Inc."
 90
     1024
 91
        0
280
     0
281
     0
  0
CLASS
  1
ACMTAPERSTANDARDGB
  2
AcmTaperStdGB
  3
"Amdt_StdImp|Product Description: AutoCAD Mechanical|Company: Autodesk, Inc."
 90
     1024
 91
        0
280
     0
281
     0
  0
CLASS
  1
ACMANOOTATIONVIEWSTANDARDGB
  2
AmdtAnViewStdGB
  3
"Amdt_StdImp|Product Description: AutoCAD Mechanical|Company: Autodesk, Inc."
 90
     1024
 91
        0
280
     0
281
     0
  0
CLASS
  1
ACAMGHOLECHARTSTDGB
  2
AcAmgHoleChartStdGB
  3
AmgDim|Product Description: AutoCAD Mechanical|Company: Autodesk, Inc.
 90
     1024
 91
        0
280
     0
281
     0
  0
CLASS
  1
ACMSTANDARDCSN
  2
AcmStandardCSN
  3
"Amdt_StdImp|Product Description: AutoCAD Mechanical|Company: Autodesk, Inc."
 90
     1024
 91
        0
280
     0
281
     0
  0
CLASS
  1
ACMSURFSTANDARDCSN
  2
AcmSurfTextStdCSN
  3
"Amdt_StdImp|Product Description: AutoCAD Mechanical|Company: Autodesk, Inc."
 90
     1024
 91
        0
280
     0
281
     0
  0
CLASS
  1
ACMFCFSTANDARDCSN
  2
AcmFCFStdCSN
  3
"Amdt_StdImp|Product Description: AutoCAD Mechanical|Company: Autodesk, Inc."
 90
     1024
 91
        0
280
     0
281
     0
  0
CLASS
  1
ACMWELDSTANDARDCSN
  2
AcmWeldingStdCSN
  3
"Amdt_StdImp|Product Description: AutoCAD Mechanical|Company: Autodesk, Inc."
 90
     1024
 91
        0
280
     0
281
     0
  0
CLASS
  1
ACMIDSTANDARDCSN
  2
AcmIdStdCSN
  3
"Amdt_StdImp|Product Description: AutoCAD Mechanical|Company: Autodesk, Inc."
 90
     1024
 91
        0
280
     0
281
     0
  0
CLASS
  1
ACMDATUMSTANDARDCSN
  2
AcmDatumStdCSN
  3
"Amdt_StdImp|Product Description: AutoCAD Mechanical|Company: Autodesk, Inc."
 90
     1024
 91
        0
280
     0
281
     0
  0
CLASS
  1
ACMBOMSTANDARDCSN
  2
AcmBOMStdCSN
  3
"Amdt_StdImp|Product Description: AutoCAD Mechanical|Company: Autodesk, Inc."
 90
     1024
 91
        0
280
     0
281
     0
  0
CLASS
  1
ACMDETAILSTANDARDCSN
  2
AmdtDetailSymStdCSN
  3
"Amdt_StdImp|Product Description: AutoCAD Mechanical|Company: Autodesk, Inc."
 90
     1024
 91
        0
280
     0
281
     0
  0
CLASS
  1
ACMSECTIONSTANDARDCSN2002
  2
AmdtSectionSymStdCSN2002
  3
"Amdt_StdImp|Product Description: AutoCAD Mechanical|Company: Autodesk, Inc."
 90
     1024
 91
        0
280
     0
281
     0
  0
CLASS
  1
ACMCENTERLINESTANDARDCSN
  2
AmdtCenterLineStdCSN
  3
"Amdt_StdImp|Product Description: AutoCAD Mechanical|Company: Autodesk, Inc."
 90
     1024
 91
        0
280
     0
281
     0
  0
CLASS
  1
ACMTHREADLINESTANDARDCSN
  2
AmdtThreadLineStdCSN
  3
"Amdt_StdImp|Product Description: AutoCAD Mechanical|Company: Autodesk, Inc."
 90
     1024
 91
        0
280
     0
281
     0
  0
CLASS
  1
ACMNOTESTANDARDCSN
  2
AmdtNoteStdCSN
  3
"Amdt_StdImp|Product Description: AutoCAD Mechanical|Company: Autodesk, Inc."
 90
     1024
 91
        0
280
     0
281
     0
  0
CLASS
  1
ACMTAPERSTANDARDCSN
  2
AcmTaperStdCSN
  3
"Amdt_StdImp|Product Description: AutoCAD Mechanical|Company: Autodesk, Inc."
 90
     1024
 91
        0
280
     0
281
     0
  0
CLASS
  1
ACMANOOTATIONVIEWSTANDARDCSN
  2
AmdtAnViewStdCSN
  3
"Amdt_StdImp|Product Description: AutoCAD Mechanical|Company: Autodesk, Inc."
 90
     1024
 91
        0
280
     0
281
     0
  0
CLASS
  1
ACAMGHOLECHARTSTDCSN
  2
AcAmgHoleChartStdCSN
  3
AmgDim|Product Description: AutoCAD Mechanical|Company: Autodesk, Inc.
 90
     1024
 91
        0
280
     0
281
     0
  0
CLASS
  1
DIMASSOC
  2
AcDbDimAssoc
  3
"AcDbDimAssoc|Product Desc:     AcDim ARX App For Dimension|Company:          Autodesk, Inc.|WEB Address:      www.autodesk.com"
 90
        0
 91
        9
280
     0
281
     0
  0
CLASS
  1
ACDBCIRCARCRES
  2
AcDbCircArcRes
  3
AcGrefServices
 90
     1024
 91
        1
280
     0
281
     0
  0
CLASS
  1
ACDB_BLKREFOBJECTCONTEXTDATA_CLASS
  2
AcDbBlkRefObjectContextData
  3
ObjectDBX Classes
 90
     1153
 91
        0
280
     0
281
     0
  0
CLASS
  1
ACAD_EVALUATION_GRAPH
  2
AcDbEvalGraph
  3
ObjectDBX Classes
 90
     1153
 91
        0
280
     0
281
     0
  0
CLASS
  1
ACAECUSTOBJ
  2
AcAeEditorObj
  3
AcAeEditorObj
 90
     1024
 91
        0
280
     0
281
     0
  0
CLASS
  1
ACDB_DYNAMICBLOCKPURGEPREVENTER_VERSION
  2
AcDbDynamicBlockPurgePreventer
  3
ObjectDBX Classes
 90
     1153
 91
        0
280
     0
281
     0
  0
CLASS
  1
AMDTNOTE
  2
AmdtNote
  3
"AcmSymBB|Product Description: AutoCAD Mechanical|Company: Autodesk, Inc."
 90
     1024
 91
        0
280
     0
281
     1
  0
CLASS
  1
ACDBSECTIONVIEWSTYLE
  2
AcDbSectionViewStyle
  3
ObjectDBX Classes
 90
     1025
 91
        5
280
     0
281
     0
  0
CLASS
  1
ACDBDETAILVIEWSTYLE
  2
AcDbDetailViewStyle
  3
ObjectDBX Classes
 90
     1025
 91
        5
280
     0
281
     0
  0
CLASS
  1
ACMSECTIONSTANDARDCUSTOM
  2
AmdtSectionSymStdCustom
  3
"Amdt_StdImp|Product Description: AutoCAD Mechanical|Company: Autodesk, Inc."
 90
     1024
 91
        4
280
     0
281
     0
  0
CLASS
  1
ACMDETAILTANDARDCUSTOM
  2
AmdtDetailSymStdCustom
  3
"Amdt_StdImp|Product Description: AutoCAD Mechanical|Company: Autodesk, Inc."
 90
     1024
 91
        4
280
     0
281
     0
  0
CLASS
  1
FIELD
  2
AcDbField
  3
ObjectDBX Classes
 90
     1152
 91
       22
280
     0
281
     0
  0
CLASS
  1
FIELDLIST
  2
AcDbFieldList
  3
ObjectDBX Classes
 90
     1152
 91
        1
280
     0
281
     0
  0
CLASS
  1
EXACXREFPANELOBJECT
  2
ExAcXREFPanelObject
  3
EXAC_ESW
 90
     1025
 91
        1
280
     0
281
     0
  0
CLASS
  1
NPOCOLLECTION
  2
AcDbImpNonPersistentObjectsCollection
  3
ObjectDBX Classes
 90
     1153
 91
        1
280
     0
281
     0
  0
CLASS
  1
RAPIDRTRENDERSETTINGS
  2
AcDbRapidRTRenderSettings
  3
ObjectDBX Classes
 90
     1024
 91
        6
280
     0
281
     0
  0
ENDSEC
  0
SECTION
  2
TABLES
  0
TABLE
  2
VPORT
  5
8
102
{ACAD_XDICTIONARY
360
1B6
102
}
330
0
100
AcDbSymbolTable
 70
     1
  0
VPORT
  5
82
330
8
100
AcDbSymbolTableRecord
100
AcDbViewportTableRecord
  2
*Active
 70
     0
 10
0.0
 20
0.0
 11
1.0
 21
1.0
 12
3784.566374660097
 22
8264.791625742406
 13
0.0
 23
0.0
 14
2.5
 24
2.5
 15
10.0
 25
10.0
 16
0.0
 26
0.0
 36
1.0
 17
0.0
 27
0.0
 37
0.0
 40
321.5290341866539
 41
2.195499296765119
 42
50.0
 43
0.0
 44
0.0
 50
0.0
 51
0.0
 71
     0
 72
 10000
 73
     1
 74
     1
 75
     0
 76
     0
 77
     0
 78
     0
281
     0
 65
     1
110
0.0
120
0.0
130
0.0
111
1.0
121
0.0
131
0.0
112
0.0
122
1.0
132
0.0
 79
     0
146
0.0
348
2F
 60
     3
 61
     5
292
     1
282
     1
141
0.0
142
0.0
 63
   250
421
  3355443
1001
ACAD_NAV_VCDISPLAY
1070
     3
  0
ENDTAB
  0
TABLE
  2
LTYPE
  5
5
330
0
100
AcDbSymbolTable
 70
    23
  0
LTYPE
  5
62
330
5
100
AcDbSymbolTableRecord
100
AcDbLinetypeTableRecord
  2
ByBlock
 70
     0
  3

 72
    65
 73
     0
 40
0.0
  0
LTYPE
  5
63
330
5
100
AcDbSymbolTableRecord
100
AcDbLinetypeTableRecord
  2
ByLayer
 70
     0
  3

 72
    65
 73
     0
 40
0.0
  0
LTYPE
  5
64
330
5
100
AcDbSymbolTableRecord
100
AcDbLinetypeTableRecord
  2
CONTINUOUS
 70
     0
  3
Solid line
 72
    65
 73
     0
 40
0.0
  0
LTYPE
  5
78
330
5
100
AcDbSymbolTableRecord
100
AcDbLinetypeTableRecord
  2
DASHED
 70
     0
  3
Dashed line
 72
    65
 73
     2
 40
0.75
 49
0.5
 74
     0
 49
-0.25
 74
     0
  0
LTYPE
  5
79
330
5
100
AcDbSymbolTableRecord
100
AcDbLinetypeTableRecord
  2
CENTER
 70
     0
  3
Center line
 72
    65
 73
     4
 40
2.0
 49
1.25
 74
     0
 49
-0.25
 74
     0
 49
0.25
 74
     0
 49
-0.25
 74
     0
  0
LTYPE
  5
13E
330
5
100
AcDbSymbolTableRecord
100
AcDbLinetypeTableRecord
  2
HIDDEN
 70
     0
  3
Verdeckt
 72
    65
 73
     2
 40
0.375
 49
0.25
 74
     0
 49
-0.125
 74
     0
  0
LTYPE
  5
13F
330
5
100
AcDbSymbolTableRecord
100
AcDbLinetypeTableRecord
  2
PHANTOM2
 70
     0
  3
Phantom (.5x) ___ _ _ ___ _ _ ___ _ _ ___ _ _
 72
    65
 73
     6
 40
1.25
 49
0.625
 74
     0
 49
-0.125
 74
     0
 49
0.125
 74
     0
 49
-0.125
 74
     0
 49
0.125
 74
     0
 49
-0.125
 74
     0
  0
LTYPE
  5
183
330
5
100
AcDbSymbolTableRecord
100
AcDbLinetypeTableRecord
  2
ACANSTGB
 70
     0
  3
__ . . __ . .
 72
    65
 73
     6
 40
0.35433070866
 49
0.15748031496
 74
     0
 49
-0.03937007874
 74
     0
 49
0.03937007874
 74
     0
 49
-0.03937007874
 74
     0
 49
0.03937007874
 74
     0
 49
-0.03937007874
 74
     0
  0
LTYPE
  5
184
330
5
100
AcDbSymbolTableRecord
100
AcDbLinetypeTableRecord
  2
ACANSTGL
 70
     0
  3
_ _ _ _ _
 72
    65
 73
     2
 40
0.11811023622
 49
0.07874015748
 74
     0
 49
-0.03937007874
 74
     0
  0
LTYPE
  5
26A
330
5
100
AcDbSymbolTableRecord
100
AcDbLinetypeTableRecord
  2
ACDINWELD
 70
     0
  3
_ _ _ _ _
 72
    65
 73
     2
 40
2.0
 49
2.0
 74
     0
 49
-1.0
 74
     0
  0
LTYPE
  5
26B
330
5
100
AcDbSymbolTableRecord
100
AcDbLinetypeTableRecord
  2
ACDINTGB
 70
     0
  3
__ . . __ . .
 72
    65
 73
     6
 40
9.0
 49
4.0
 74
     0
 49
-1.0
 74
     0
 49
1.0
 74
     0
 49
-1.0
 74
     0
 49
1.0
 74
     0
 49
-1.0
 74
     0
  0
LTYPE
  5
26C
330
5
100
AcDbSymbolTableRecord
100
AcDbLinetypeTableRecord
  2
ACDINTGL
 70
     0
  3
_ _ _ _ _
 72
    65
 73
     2
 40
3.0
 49
2.0
 74
     0
 49
-1.0
 74
     0
  0
LTYPE
  5
2A6
330
5
100
AcDbSymbolTableRecord
100
AcDbLinetypeTableRecord
  2
Amconstr
 70
     0
  3
_______________________
 72
    65
 73
     2
 40
9999.0
 49
9999.0
 74
     0
 49
0.0
 74
     0
  0
LTYPE
  5
2A7
330
5
100
AcDbSymbolTableRecord
100
AcDbLinetypeTableRecord
  2
Amzigzag
 70
     0
  3
/\/-/\/-/\/-/\/-/\/-/\/
 72
    65
 73
     2
 40
11.0001
 49
0.0001
 74
     4
 75
   136
340
2A8
 46
0.04
 50
0.0
 44
0.0
 45
0.0
 49
-11.0
 74
     0
  0
LTYPE
  5
38A
330
5
100
AcDbSymbolTableRecord
100
AcDbLinetypeTableRecord
  2
HIDDEN2
 70
     0
  3
Hidden (.5x) _ _ _ _ _ _ _ _ _ _ _ _ _ _ _ _ _
 72
    65
 73
     2
 40
0.1875
 49
0.125
 74
     0
 49
-0.0625
 74
     0
  0
LTYPE
  5
38B
330
5
100
AcDbSymbolTableRecord
100
AcDbLinetypeTableRecord
  2
CENTER2
 70
     0
  3
Center (.5x) ___ _ ___ _ ___ _ ___ _ ___ _ ___
 72
    65
 73
     4
 40
1.125
 49
0.75
 74
     0
 49
-0.125
 74
     0
 49
0.125
 74
     0
 49
-0.125
 74
     0
  0
LTYPE
  5
3C3
330
5
100
AcDbSymbolTableRecord
100
AcDbLinetypeTableRecord
  2
AM_ISO02W050
 70
     0
  3
__ __ __ __ __ __ __ __ __ __ __ __ __ __ __
 72
    65
 73
     2
 40
7.5
 49
6.0
 74
     0
 49
-1.5
 74
     0
  0
LTYPE
  5
3C4
330
5
100
AcDbSymbolTableRecord
100
AcDbLinetypeTableRecord
  2
AM_ISO08W050
 70
     0
  3
____ . ____ . ____ . ____ . ____ . ____ . ____
 72
    65
 73
     4
 40
18.0
 49
12.0
 74
     0
 49
-1.5
 74
     0
 49
3.0
 74
     0
 49
-1.5
 74
     0
  0
LTYPE
  5
3C5
330
5
100
AcDbSymbolTableRecord
100
AcDbLinetypeTableRecord
  2
AM_ISO09W050
 70
     0
  3
_____ . . _____ . . _____ . . ____ .. ____
 72
    65
 73
     6
 40
22.5
 49
12.0
 74
     0
 49
-1.5
 74
     0
 49
3.0
 74
     0
 49
-1.5
 74
     0
 49
3.0
 74
     0
 49
-1.5
 74
     0
  0
LTYPE
  5
3C6
330
5
100
AcDbSymbolTableRecord
100
AcDbLinetypeTableRecord
  2
AM_ISO08W050x2
 70
     0
  3
__ . __ . __ . __ . __ . __
 72
    65
 73
     4
 40
9.0
 49
6.0
 74
     0
 49
-0.75
 74
     0
 49
1.5
 74
     0
 49
-0.75
 74
     0
  0
LTYPE
  5
3C7
330
5
100
AcDbSymbolTableRecord
100
AcDbLinetypeTableRecord
  2
AM_ISO02W050x2
 70
     0
  3
 _ _ _ _ _ _ _ _ _ _ _ _
 72
    65
 73
     2
 40
3.75
 49
3.0
 74
     0
 49
-0.75
 74
     0
  0
LTYPE
  5
3C8
330
5
100
AcDbSymbolTableRecord
100
AcDbLinetypeTableRecord
  2
ACISOWELD
 70
     0
  3
_ _ _ _ _
 72
    65
 73
     2
 40
2.0
 49
2.0
 74
     0
 49
-1.0
 74
     0
  0
LTYPE
  5
3C9
330
5
100
AcDbSymbolTableRecord
100
AcDbLinetypeTableRecord
  2
ACISOTGB
 70
     0
  3
__ . . __ . .
 72
    65
 73
     6
 40
9.0
 49
4.0
 74
     0
 49
-1.0
 74
     0
 49
1.0
 74
     0
 49
-1.0
 74
     0
 49
1.0
 74
     0
 49
-1.0
 74
     0
  0
LTYPE
  5
3CA
330
5
100
AcDbSymbolTableRecord
100
AcDbLinetypeTableRecord
  2
ACISOTGL
 70
     0
  3
_ _ _ _ _
 72
    65
 73
     2
 40
3.0
 49
2.0
 74
     0
 49
-1.0
 74
     0
  0
LTYPE
  5
4CB1
330
5
100
AcDbSymbolTableRecord
100
AcDbLinetypeTableRecord
  2
Amzigzag2
 70
     0
  3
/\/-/\/-/\/-/\/-/\/-/\/
 72
    65
 73
     2
 40
0.4401
 49
0.0001
 74
     4
 75
   135
340
4CB4
 46
0.0016
 50
0.0
 44
0.0
 45
0.0
 49
-0.4400000000000001
 74
     0
  0
ENDTAB
  0
TABLE
  2
LAYER
  5
2
102
{ACAD_XDICTIONARY
360
256
102
}
330
0
100
AcDbSymbolTable
 70
    15
  0
LAYER
  5
5C
102
{ACAD_XDICTIONARY
360
1A2
102
}
330
2
100
AcDbSymbolTableRecord
100
AcDbLayerTableRecord
  2
0
 70
     0
 62
     7
  6
CONTINUOUS
370
    -3
390
F
347
21
348
0
  0
LAYER
  5
4B04
102
{ACAD_XDICTIONARY
360
4C06
102
}
330
2
100
AcDbSymbolTableRecord
100
AcDbLayerTableRecord
  2
AM_11 ( Phanton)
 70
     0
 62
     3
  6
AM_ISO09W050
370
    25
390
F
347
21
348
0
1001
AcAecLayerStandard
1000

1000

  0
LAYER
  5
4B2C
102
{ACAD_XDICTIONARY
360
4C08
102
}
330
2
100
AcDbSymbolTableRecord
100
AcDbLayerTableRecord
  2
Defpoints
 70
     0
 62
     7
  6
CONTINUOUS
290
     0
370
    -3
390
F
347
21
348
0
  0
LAYER
  5
4B75
102
{ACAD_XDICTIONARY
360
4C0A
102
}
330
2
100
AcDbSymbolTableRecord
100
AcDbLayerTableRecord
  2
AM_5 ( Bemassung)
 70
     0
 62
     3
  6
CONTINUOUS
370
    25
390
F
347
21
348
0
1001
AcAecLayerStandard
1000

1000

  0
LAYER
  5
4C37
330
2
100
AcDbSymbolTableRecord
100
AcDbLayerTableRecord
  2
AM_0
 70
     0
 62
     7
  6
CONTINUOUS
370
    50
390
F
347
21
348
0
1001
AcAecLayerStandard
1000

1000

  0
LAYER
  5
4C38
330
2
100
AcDbSymbolTableRecord
100
AcDbLayerTableRecord
  2
AM_3
 70
     0
 62
     6
  6
CONTINUOUS
370
    25
390
F
347
21
348
0
1001
AcAecLayerStandard
1000

1000

  0
LAYER
  5
4C39
330
2
100
AcDbSymbolTableRecord
100
AcDbLayerTableRecord
  2
AM_7
 70
     0
 62
     4
  6
CONTINUOUS
370
    25
390
F
347
21
348
0
1001
AcAecLayerStandard
1000

1000

  0
LAYER
  5
4C3A
330
2
100
AcDbSymbolTableRecord
100
AcDbLayerTableRecord
  2
AM_0 ( Kontur 0.5 )
 70
     0
 62
     7
  6
CONTINUOUS
370
    50
390
F
347
21
348
0
1001
AcAecLayerStandard
1000

1000

  0
LAYER
  5
4C3B
102
{ACAD_XDICTIONARY
360
4C3C
102
}
330
2
100
AcDbSymbolTableRecord
100
AcDbLayerTableRecord
  2
AM_2 ( Kontur 0.25)
 70
     0
 62
     5
  6
CONTINUOUS
370
    25
390
F
347
21
348
0
1001
AcAecLayerStandard
1000

1000

  0
LAYER
  5
4C3D
102
{ACAD_XDICTIONARY
360
4C3E
102
}
330
2
100
AcDbSymbolTableRecord
100
AcDbLayerTableRecord
  2
AM_3 ( Verdeckt )
 70
     0
 62
     6
  6
AM_ISO02W050
370
    25
390
F
347
21
348
0
1001
AcAecLayerStandard
1000

1000

  0
LAYER
  5
4C8C
330
2
100
AcDbSymbolTableRecord
100
AcDbLayerTableRecord
  2
AM_7 (Mittellinie)
 70
     0
 62
     4
  6
AM_ISO08W050
370
    25
390
F
347
21
348
0
1001
AcAecLayerStandard
1000

1000

  0
LAYER
  5
4CC4
330
2
100
AcDbSymbolTableRecord
100
AcDbLayerTableRecord
  2
AM_BOR ( Zeichnungsrahmen)
 70
     0
 62
     7
  6
CONTINUOUS
370
    25
390
F
347
21
348
0
1001
AcAecLayerStandard
1000

1000

  0
LAYER
  5
4CCB
102
{ACAD_XDICTIONARY
360
4CCC
102
}
330
2
100
AcDbSymbolTableRecord
100
AcDbLayerTableRecord
  2
AM_BOR
 70
     0
 62
     7
  6
CONTINUOUS
370
    50
390
F
347
21
348
0
1001
AcAecLayerStandard
1000

1000

  0
LAYER
  5
4EBA
330
2
100
AcDbSymbolTableRecord
100
AcDbLayerTableRecord
  2
AM_6 ( Text)
 70
     0
 62
     6
  6
CONTINUOUS
370
    25
390
F
347
21
348
0
1001
AcAecLayerStandard
1000

1000

  0
LAYER
  5
50D4
330
2
100
AcDbSymbolTableRecord
100
AcDbLayerTableRecord
  2
AM_CL ( Konstruktionlinien)
 70
     0
 62
     1
  6
Amconstr
370
    25
390
F
347
21
348
0
1001
AcAecLayerStandard
1000

1000

  0
ENDTAB
  0
TABLE
  2
STYLE
  5
3
330
0
100
AcDbSymbolTable
 70
    11
  0
STYLE
  5
5D
330
3
100
AcDbSymbolTableRecord
100
AcDbTextStyleTableRecord
  2
STANDARD
 70
     0
 40
0.0
 41
1.0
 50
0.0
 71
     0
 42
3.438283852916356
  3
ARIALUNI.TTF
  4

1001
ACAD
1000
@Arial Unicode MS
1071
       34
  0
STYLE
  5
174
330
3
100
AcDbSymbolTableRecord
100
AcDbTextStyleTableRecord
  2
ACANSTS
 70
     0
 40
1.0
 41
1.0
 50
0.0
 71
     0
 42
3.5
  3
romans.shx
  4

  0
STYLE
  5
182
330
3
100
AcDbSymbolTableRecord
100
AcDbTextStyleTableRecord
  2
ACANSGDT
 70
     0
 40
0.0
 41
1.0
 50
0.0
 71
     0
 42
3.5
  3
amgdt.shx
  4

  0
STYLE
  5
25A
330
3
100
AcDbSymbolTableRecord
100
AcDbTextStyleTableRecord
  2
ACDINTS
 70
     0
 40
1.0
 41
1.0
 50
0.0
 71
     0
 42
3.5
  3
isocp.shx
  4

  0
STYLE
  5
269
330
3
100
AcDbSymbolTableRecord
100
AcDbTextStyleTableRecord
  2
ACDINGDT
 70
     0
 40
0.0
 41
1.0
 50
0.0
 71
     0
 42
3.5
  3
amgdt.shx
  4

  0
STYLE
  5
2A8
330
3
100
AcDbSymbolTableRecord
100
AcDbTextStyleTableRecord
  2

 70
     1
 40
0.0
 41
1.0
 50
0.0
 71
     0
 42
2.5
  3
genltshp.shx
  4

  0
STYLE
  5
3CB
330
3
100
AcDbSymbolTableRecord
100
AcDbTextStyleTableRecord
  2
ACISOTS
 70
     0
 40
1.0
 41
1.0
 50
0.0
 71
     0
 42
2.5
  3
ARIALN.TTF
  4

1001
ACAD
1000
Arial Narrow
1071
       34
  0
STYLE
  5
3CC
330
3
100
AcDbSymbolTableRecord
100
AcDbTextStyleTableRecord
  2
ACISOGDT
 70
     0
 40
0.0
 41
1.0
 50
0.0
 71
     0
 42
2.5
  3
amgdt.shx
  4

  0
STYLE
  5
4A84
330
3
100
AcDbSymbolTableRecord
100
AcDbTextStyleTableRecord
  2
Stil1
 70
     0
 40
0.0
 41
1.0
 50
0.0
 71
     0
 42
424.4729518289081
  3
ARIALUNI.TTF
  4

1001
ACAD
1000
@Arial Unicode MS
1071
       34
  0
STYLE
  5
4CB4
330
3
100
AcDbSymbolTableRecord
100
AcDbTextStyleTableRecord
  2

 70
     1
 40
0.0
 41
1.0
 50
0.0
 71
     0
 42
0.2
  3
ltypeshp.shx
  4

  0
ENDTAB
  0
TABLE
  2
VIEW
  5
6
330
0
100
AcDbSymbolTable
 70
     6
  0
VIEW
  5
51B
330
6
100
AcDbSymbolTableRecord
100
AcDbViewTableRecord
  2
AM_VIEW1
 70
     0
 40
148.5
 10
3807.715239988831
 20
8289.039412291927
 41
236.4739336492889
 11
0.0
 21
0.0
 31
1.0
 12
0.0
 22
0.0
 32
0.0
 42
50.0
 43
0.0
 44
0.0
 50
0.0
 71
     0
281
     0
 72
     0
 73
     0
  0
VIEW
  5
51C
330
6
100
AcDbSymbolTableRecord
100
AcDbViewTableRecord
  2
AM_VIEW2
 70
     0
 40
148.5
 10
3781.241306339542
 20
8289.039412291927
 41
236.4739336492889
 11
0.0
 21
0.0
 31
1.0
 12
0.0
 22
0.0
 32
0.0
 42
50.0
 43
0.0
 44
0.0
 50
0.0
 71
     0
281
     0
 72
     0
 73
     0
  0
VIEW
  5
51D
330
6
100
AcDbSymbolTableRecord
100
AcDbViewTableRecord
  2
AM_VIEW3
 70
     0
 40
148.5
 10
3807.715239988831
 20
8140.539412291927
 41
236.4739336492889
 11
0.0
 21
0.0
 31
1.0
 12
0.0
 22
0.0
 32
0.0
 42
50.0
 43
0.0
 44
0.0
 50
0.0
 71
     0
281
     0
 72
     0
 73
     0
  0
VIEW
  5
51E
330
6
100
AcDbSymbolTableRecord
100
AcDbViewTableRecord
  2
AM_VIEW4
 70
     0
 40
148.5
 10
3781.241306339542
 20
8140.539412291927
 41
236.4739336492889
 11
0.0
 21
0.0
 31
1.0
 12
0.0
 22
0.0
 32
0.0
 42
50.0
 43
0.0
 44
0.0
 50
0.0
 71
     0
281
     0
 72
     0
 73
     0
  0
VIEW
  5
51F
330
6
100
AcDbSymbolTableRecord
100
AcDbViewTableRecord
  2
AM_VIEW5
 70
     0
 40
148.5
 10
3794.478273164187
 20
8214.789412291928
 41
236.4739336492894
 11
0.0
 21
0.0
 31
1.0
 12
0.0
 22
0.0
 32
0.0
 42
50.0
 43
0.0
 44
0.0
 50
0.0
 71
     0
281
     0
 72
     0
 73
     0
  0
VIEW
  5
520
330
6
100
AcDbSymbolTableRecord
100
AcDbViewTableRecord
  2
AM_VIEW6
 70
     0
 40
296.9970299999996
 10
3794.478273164187
 20
8214.789412291928
 41
472.9431378199051
 11
0.0
 21
0.0
 31
1.0
 12
0.0
 22
0.0
 32
0.0
 42
50.0
 43
0.0
 44
0.0
 50
0.0
 71
     0
281
     0
 72
     0
 73
     0
  0
ENDTAB
  0
TABLE
  2
UCS
  5
7
330
0
100
AcDbSymbolTable
 70
     0
  0
ENDTAB
  0
TABLE
  2
APPID
  5
9
330
0
100
AcDbSymbolTable
 70
    73
  0
APPID
  5
5E
330
9
100
AcDbSymbolTableRecord
100
AcDbRegAppTableRecord
  2
ACAD
 70
     0
  0
APPID
  5
65
330
9
100
AcDbSymbolTableRecord
100
AcDbRegAppTableRecord
  2
AcadAnnotative
 70
     0
  0
APPID
  5
6F
330
9
100
AcDbSymbolTableRecord
100
AcDbRegAppTableRecord
  2
ACAD_MLEADERVER
 70
     0
  0
APPID
  5
111
330
9
100
AcDbSymbolTableRecord
100
AcDbRegAppTableRecord
  2
MCAD_NO_VIS
 70
     0
  0
APPID
  5
112
330
9
100
AcDbSymbolTableRecord
100
AcDbRegAppTableRecord
  2
ACAD_TEMP_GRAPHIC
 70
     0
  0
APPID
  5
141
330
9
100
AcDbSymbolTableRecord
100
AcDbRegAppTableRecord
  2
AD_DRAW
 70
     0
  0
APPID
  5
144
330
9
100
AcDbSymbolTableRecord
100
AcDbRegAppTableRecord
  2
ACATTRIBSERVICES
 70
     0
  0
APPID
  5
165
330
9
100
AcDbSymbolTableRecord
100
AcDbRegAppTableRecord
  2
DESIGNERASSEMBLIES
 70
     0
  0
APPID
  5
16B
330
9
100
AcDbSymbolTableRecord
100
AcDbRegAppTableRecord
  2
ACADM_DIM_EDIT
 70
     0
  0
APPID
  5
16C
330
9
100
AcDbSymbolTableRecord
100
AcDbRegAppTableRecord
  2
AMDT_DM_ADJ
 70
     0
  0
APPID
  5
1C8
330
9
100
AcDbSymbolTableRecord
100
AcDbRegAppTableRecord
  2
ACAD_DSTYLE_DIMARC_LENGTH_SYMBOL
 70
     0
  0
APPID
  5
24A
330
9
100
AcDbSymbolTableRecord
100
AcDbRegAppTableRecord
  2
AcAecLayerStandard
 70
     0
  0
APPID
  5
280
330
9
100
AcDbSymbolTableRecord
100
AcDbRegAppTableRecord
  2
ACAD_DSTYLE_DIMJOGGED_JOGANGLE_SYMBOL
 70
     0
  0
APPID
  5
281
330
9
100
AcDbSymbolTableRecord
100
AcDbRegAppTableRecord
  2
AcadAnnoPO
 70
     0
  0
APPID
  5
282
330
9
100
AcDbSymbolTableRecord
100
AcDbRegAppTableRecord
  2
ACAD_EXEMPT_FROM_CAD_STANDARDS
 70
     0
  0
APPID
  5
283
330
9
100
AcDbSymbolTableRecord
100
AcDbRegAppTableRecord
  2
GENIUS_GENODEF_13
 70
     0
  0
APPID
  5
284
330
9
100
AcDbSymbolTableRecord
100
AcDbRegAppTableRecord
  2
GENIUS_GENOBJ-N-CRS_13
 70
     0
  0
APPID
  5
285
330
9
100
AcDbSymbolTableRecord
100
AcDbRegAppTableRecord
  2
GENIUS_GENOENT_13
 70
     0
  0
APPID
  5
286
330
9
100
AcDbSymbolTableRecord
100
AcDbRegAppTableRecord
  2
GENIUS_GENOLIS_13
 70
     0
  0
APPID
  5
287
330
9
100
AcDbSymbolTableRecord
100
AcDbRegAppTableRecord
  2
GENIUS_GENOREF_13
 70
     0
  0
APPID
  5
288
330
9
100
AcDbSymbolTableRecord
100
AcDbRegAppTableRecord
  2
GEVID1190879659
 70
     0
  0
APPID
  5
289
330
9
100
AcDbSymbolTableRecord
100
AcDbRegAppTableRecord
  2
GEVDC
 70
     0
  0
APPID
  5
28A
330
9
100
AcDbSymbolTableRecord
100
AcDbRegAppTableRecord
  2
GENIUS_GENBH_13
 70
     0
  0
APPID
  5
28B
330
9
100
AcDbSymbolTableRecord
100
AcDbRegAppTableRecord
  2
GENIUS_GENOBJ-NBEHI-BHF_13
 70
     0
  0
APPID
  5
28C
330
9
100
AcDbSymbolTableRecord
100
AcDbRegAppTableRecord
  2
GENIUS_GENOBJ-NBEHI-BHB_13
 70
     0
  0
APPID
  5
28D
330
9
100
AcDbSymbolTableRecord
100
AcDbRegAppTableRecord
  2
GEVID1190879660
 70
     0
  0
APPID
  5
28E
330
9
100
AcDbSymbolTableRecord
100
AcDbRegAppTableRecord
  2
GEVID1190879661
 70
     0
  0
APPID
  5
28F
330
9
100
AcDbSymbolTableRecord
100
AcDbRegAppTableRecord
  2
ACAD_DSTYLE_DIMRADIAL_EXTENSION
 70
     0
  0
APPID
  5
290
330
9
100
AcDbSymbolTableRecord
100
AcDbRegAppTableRecord
  2
GEVID1190879662
 70
     0
  0
APPID
  5
291
330
9
100
AcDbSymbolTableRecord
100
AcDbRegAppTableRecord
  2
GEVID1190879663
 70
     0
  0
APPID
  5
292
330
9
100
AcDbSymbolTableRecord
100
AcDbRegAppTableRecord
  2
GEVID1190879664
 70
     0
  0
APPID
  5
293
330
9
100
AcDbSymbolTableRecord
100
AcDbRegAppTableRecord
  2
GEVID1190879665
 70
     0
  0
APPID
  5
294
330
9
100
AcDbSymbolTableRecord
100
AcDbRegAppTableRecord
  2
GEVID1190879666
 70
     0
  0
APPID
  5
295
330
9
100
AcDbSymbolTableRecord
100
AcDbRegAppTableRecord
  2
GENIUS_GENOBJ-N-CEN_13
 70
     0
  0
APPID
  5
296
330
9
100
AcDbSymbolTableRecord
100
AcDbRegAppTableRecord
  2
GENIUS_GENCEN_19
 70
     0
  0
APPID
  5
297
330
9
100
AcDbSymbolTableRecord
100
AcDbRegAppTableRecord
  2
GEVID1190879667
 70
     0
  0
APPID
  5
298
330
9
100
AcDbSymbolTableRecord
100
AcDbRegAppTableRecord
  2
GENIUS_GENOBJ-N-CRC_13
 70
     0
  0
APPID
  5
299
330
9
100
AcDbSymbolTableRecord
100
AcDbRegAppTableRecord
  2
GENIUS_GENCRC_14
 70
     0
  0
APPID
  5
29A
330
9
100
AcDbSymbolTableRecord
100
AcDbRegAppTableRecord
  2
ACAD_PSEXT
 70
     0
  0
APPID
  5
29B
330
9
100
AcDbSymbolTableRecord
100
AcDbRegAppTableRecord
  2
GEVID1190888456
 70
     0
  0
APPID
  5
29C
330
9
100
AcDbSymbolTableRecord
100
AcDbRegAppTableRecord
  2
GEVID1190888457
 70
     0
  0
APPID
  5
29D
330
9
100
AcDbSymbolTableRecord
100
AcDbRegAppTableRecord
  2
GEVID1190888458
 70
     0
  0
APPID
  5
29E
330
9
100
AcDbSymbolTableRecord
100
AcDbRegAppTableRecord
  2
GEVID1190888459
 70
     0
  0
APPID
  5
29F
330
9
100
AcDbSymbolTableRecord
100
AcDbRegAppTableRecord
  2
GEVID1190888460
 70
     0
  0
APPID
  5
2A0
330
9
100
AcDbSymbolTableRecord
100
AcDbRegAppTableRecord
  2
GEVID1190888461
 70
     0
  0
APPID
  5
2A1
330
9
100
AcDbSymbolTableRecord
100
AcDbRegAppTableRecord
  2
GEVID1190888462
 70
     0
  0
APPID
  5
2A2
330
9
100
AcDbSymbolTableRecord
100
AcDbRegAppTableRecord
  2
ACAD_DSTYLE_DIMJAG
 70
     0
  0
APPID
  5
2A3
330
9
100
AcDbSymbolTableRecord
100
AcDbRegAppTableRecord
  2
ACAD_DSTYLE_DIMTALN
 70
     0
  0
APPID
  5
390
330
9
100
AcDbSymbolTableRecord
100
AcDbRegAppTableRecord
  2
GENIUS_GENBLLY_14
 70
     0
  0
APPID
  5
3D5
330
9
100
AcDbSymbolTableRecord
100
AcDbRegAppTableRecord
  2
DCO15
 70
     0
  0
APPID
  5
3D6
330
9
100
AcDbSymbolTableRecord
100
AcDbRegAppTableRecord
  2
GENIUS_GENREC_14
 70
     0
  0
APPID
  5
3D7
330
9
100
AcDbSymbolTableRecord
100
AcDbRegAppTableRecord
  2
GENIUS_GENOBJ-N-REC_13
 70
     0
  0
APPID
  5
519
330
9
100
AcDbSymbolTableRecord
100
AcDbRegAppTableRecord
  2
GENIUS_GENOBJ-N-TIT_13
 70
     0
  0
APPID
  5
51A
330
9
100
AcDbSymbolTableRecord
100
AcDbRegAppTableRecord
  2
GENIUS_GENTITLE_13
 70
     0
  0
APPID
  5
521
330
9
100
AcDbSymbolTableRecord
100
AcDbRegAppTableRecord
  2
GENIUS_GENSCREG_15
 70
     0
  0
APPID
  5
522
330
9
100
AcDbSymbolTableRecord
100
AcDbRegAppTableRecord
  2
GENIUS_GENOBJ-N-SDF_13
 70
     0
  0
APPID
  5
5BA
330
9
100
AcDbSymbolTableRecord
100
AcDbRegAppTableRecord
  2
ACAD_DSTYLE_DIMINSPECT
 70
     0
  0
APPID
  5
986
330
9
100
AcDbSymbolTableRecord
100
AcDbRegAppTableRecord
  2
GENIUS_GENDIMSH_14
 70
     0
  0
APPID
  5
AFA
330
9
100
AcDbSymbolTableRecord
100
AcDbRegAppTableRecord
  2
GENIUS_GENOBJ-N-HTC_13
 70
     0
  0
APPID
  5
AFB
330
9
100
AcDbSymbolTableRecord
100
AcDbRegAppTableRecord
  2
GENIUS_GENHATCH_13
 70
     0
  0
APPID
  5
B3E
330
9
100
AcDbSymbolTableRecord
100
AcDbRegAppTableRecord
  2
ACAUTHENVIRON
 70
     0
  0
APPID
  5
B42
330
9
100
AcDbSymbolTableRecord
100
AcDbRegAppTableRecord
  2
AcDbDynamicBlockTrueName
 70
     0
  0
APPID
  5
B43
330
9
100
AcDbSymbolTableRecord
100
AcDbRegAppTableRecord
  2
AcDbDynamicBlockGUID
 70
     0
  0
APPID
  5
B45
330
9
100
AcDbSymbolTableRecord
100
AcDbRegAppTableRecord
  2
ACDBBLOCKREPETAG
 70
     0
  0
APPID
  5
10B2
330
9
100
AcDbSymbolTableRecord
100
AcDbRegAppTableRecord
  2
EAR3_SAP_ACAD
 70
     0
  0
APPID
  5
119F
330
9
100
AcDbSymbolTableRecord
100
AcDbRegAppTableRecord
  2
CADDESKTOPMDT
 70
     0
  0
APPID
  5
1317
330
9
100
AcDbSymbolTableRecord
100
AcDbRegAppTableRecord
  2
GENIUS_GENOBJ-N-FIL_13
 70
     0
  0
APPID
  5
299A
330
9
100
AcDbSymbolTableRecord
100
AcDbRegAppTableRecord
  2
GENIUS_GENTRA_14
 70
     0
  0
APPID
  5
4418
330
9
100
AcDbSymbolTableRecord
100
AcDbRegAppTableRecord
  2
GENIUS_GENDTOL_13
 70
     0
  0
APPID
  5
49BF
330
9
100
AcDbSymbolTableRecord
100
AcDbRegAppTableRecord
  2
GENIUS_AMGTXT_16
 70
     0
  0
APPID
  5
4C3F
330
9
100
AcDbSymbolTableRecord
100
AcDbRegAppTableRecord
  2
GENIUS_GENFIL_13
 70
     0
  0
APPID
  5
4C40
330
9
100
AcDbSymbolTableRecord
100
AcDbRegAppTableRecord
  2
GENIUS_GENOBJ-N-CHA_13
 70
     0
  0
APPID
  5
4FCA
330
9
100
AcDbSymbolTableRecord
100
AcDbRegAppTableRecord
  2
ACAD_NAV_VCDISPLAY
 70
     0
  0
ENDTAB
  0
TABLE
  2
DIMSTYLE
  5
A
330
0
100
AcDbSymbolTable
 70
    32
100
AcDbDimStyleTable
 71
     5
340
4A7A
340
276
340
27B
340
27C
340
3CE
  0
DIMSTYLE
105
18F
330
A
100
AcDbSymbolTableRecord
100
AcDbDimStyleTableRecord
  2
AM_ANSI
 70
     0
  4
mm
 41
0.1
 42
0.05
 43
0.5
 44
0.1
 47
0.1
 48
0.1
 78
     7
 79
     2
 90
     1
140
0.12
141
0.0
146
0.71
147
0.06
176
   256
177
   256
178
     2
274
     4
284
     7
340
5D
371
    -1
372
    -1
  0
DIMSTYLE
105
190
330
A
100
AcDbSymbolTableRecord
100
AcDbDimStyleTableRecord
  2
AM_ANSI$3
 70
     0
  4
mm
 41
0.1
 42
0.05
 43
0.5
 44
0.1
 47
0.1
 48
0.1
 78
     7
 79
     2
 90
     1
140
0.12
141
0.0
146
0.71
147
0.06
176
   256
177
   256
178
     2
274
     4
284
     7
288
     1
289
     0
340
5D
371
    -1
372
    -1
  0
DIMSTYLE
105
191
330
A
100
AcDbSymbolTableRecord
100
AcDbDimStyleTableRecord
  2
AM_ANSI$4
 70
     0
  4
mm
 41
0.1
 42
0.05
 43
0.5
 44
0.1
 47
0.1
 48
0.1
 78
     7
 79
     2
 90
     1
140
0.12
141
0.0
146
0.71
147
0.06
176
   256
177
   256
178
     2
274
     4
284
     7
288
     1
289
     0
340
5D
371
    -1
372
    -1
  0
DIMSTYLE
105
192
330
A
100
AcDbSymbolTableRecord
100
AcDbDimStyleTableRecord
  2
AM_ANSI$7
 70
     0
  4
mm
 41
0.1
 42
0.05
 43
0.5
 44
0.1
 47
0.1
 48
0.1
 78
     7
 79
     2
 90
     1
140
0.24
141
0.0
146
0.71
147
0.06
176
   256
177
   256
178
     2
274
     4
284
     7
340
5D
371
    -1
372
    -1
  0
DIMSTYLE
105
193
330
A
100
AcDbSymbolTableRecord
100
AcDbDimStyleTableRecord
  2
AM_ANSI$SF
 70
     0
  4
mm
 41
0.1
 42
0.05
 43
0.5
 44
0.1
 47
0.1
 48
0.1
 75
     1
 76
     1
 78
     7
 79
     2
 90
     1
140
0.12
141
0.0
146
0.71
147
0.06
176
   256
177
   256
178
     2
274
     4
284
     7
340
5D
371
    -1
372
    -1
  0
DIMSTYLE
105
198
330
A
100
AcDbSymbolTableRecord
100
AcDbDimStyleTableRecord
  2
AM_ANSI$SH
 70
     0
  4
mm
 41
0.1
 42
0.05
 43
0.5
 44
0.1
 47
0.1
 48
0.1
 75
     1
 76
     1
 78
     7
 79
     2
 90
     1
140
0.12
141
0.0
146
0.71
147
0.06
173
     1
176
   256
177
   256
178
     2
274
     4
284
     7
340
5D
343
194
371
    -1
372
    -1
  0
DIMSTYLE
105
276
330
A
100
AcDbSymbolTableRecord
100
AcDbDimStyleTableRecord
  2
AM_DIN
 70
     0
  4
"
 41
5.0
 42
1.0
 43
10.0
 44
1.0
 47
0.1
 48
0.1
 50
90.0
 73
     0
 74
     0
 77
     1
 78
     8
 79
     2
140
5.0
141
0.0
143
0.0393701
146
0.71
147
1.5
172
     1
176
   256
177
   256
178
     2
271
     2
272
     2
283
     0
284
     8
340
5D
371
    -1
372
    -1
  0
DIMSTYLE
105
277
330
A
100
AcDbSymbolTableRecord
100
AcDbDimStyleTableRecord
  2
AM_DIN$3
 70
     0
  4
"
 41
3.5
 42
1.0
 43
10.0
 44
1.0
 47
0.1
 48
0.1
 50
90.0
 73
     0
 77
     1
 78
     8
 79
     2
140
3.5
141
0.0
143
0.0393701
146
0.71
147
1.5
176
   256
177
   256
178
     2
271
     2
272
     2
283
     0
284
     8
288
     1
289
     0
340
5D
371
    -1
372
    -1
  0
DIMSTYLE
105
278
330
A
100
AcDbSymbolTableRecord
100
AcDbDimStyleTableRecord
  2
AM_DIN$4
 70
     0
  4
"
 41
4.0
 42
1.0
 43
10.0
 44
1.0
 47
0.1
 48
0.1
 50
90.0
 73
     0
 77
     1
 78
     8
 79
     2
140
3.5
141
0.0
143
0.0393701
146
0.71
147
1.5
176
   256
177
   256
178
     2
271
     2
272
     2
283
     0
284
     8
288
     1
289
     0
340
5D
371
    -1
372
    -1
  0
DIMSTYLE
105
279
330
A
100
AcDbSymbolTableRecord
100
AcDbDimStyleTableRecord
  2
AM_DIN$6
 70
     0
  4
"
 41
4.0
 42
0.0
 43
10.0
 44
1.0
 47
0.1
 48
0.1
 50
90.0
 73
     0
 74
     0
 78
     8
 79
     2
140
3.5
141
0.0
143
0.0393701
146
0.71
147
1.5
172
     1
176
   256
177
   256
178
     2
271
     2
272
     2
283
     0
284
     8
340
5D
371
    -1
372
    -1
  0
DIMSTYLE
105
27A
330
A
100
AcDbSymbolTableRecord
100
AcDbDimStyleTableRecord
  2
AM_DIN$7
 70
     0
  4
"
 41
4.0
 42
1.0
 43
10.0
 44
1.0
 47
0.1
 48
0.1
 50
90.0
 73
     0
 74
     0
 77
     1
 78
     8
 79
     2
140
5.0
141
0.0
143
0.0393701
146
0.71
147
1.5
172
     1
176
   256
177
   256
178
     2
271
     2
272
     2
283
     0
284
     8
340
5D
371
    -1
372
    -1
  0
DIMSTYLE
105
27B
330
A
100
AcDbSymbolTableRecord
100
AcDbDimStyleTableRecord
  2
AM_DIN$SF
 70
     0
  4
"
 41
4.0
 42
1.0
 43
10.0
 44
1.0
 47
0.1
 48
0.1
 50
90.0
 73
     0
 74
     0
 75
     1
 76
     1
 77
     1
 78
     8
 79
     2
140
3.5
141
0.0
143
0.0393701
146
0.71
147
1.5
172
     1
176
   256
177
   256
178
     2
271
     2
272
     2
283
     0
284
     8
340
5D
371
    -1
372
    -1
  0
DIMSTYLE
105
27C
330
A
100
AcDbSymbolTableRecord
100
AcDbDimStyleTableRecord
  2
AM_DIN$SH
 70
     0
  4
"
 41
4.0
 42
1.0
 43
10.0
 44
1.0
 47
0.1
 48
0.1
 50
90.0
 73
     0
 74
     0
 75
     1
 76
     1
 77
     1
 78
     8
 79
     2
140
3.5
141
0.0
143
0.0393701
144
2.0
146
0.71
147
1.5
172
     1
173
     1
176
   256
177
   256
178
     2
271
     2
272
     2
283
     0
284
     8
340
5D
343
194
371
    -1
372
    -1
  0
DIMSTYLE
105
32F
330
A
100
AcDbSymbolTableRecord
100
AcDbDimStyleTableRecord
  2
AM_DIN$0
 70
     0
  4
"
 41
4.0
 42
0.0
 43
10.0
 44
1.0
 47
0.1
 48
0.1
 50
90.0
 73
     0
 74
     0
 77
     1
 78
     8
 79
     2
140
3.5
141
0.0
143
0.0393701
146
0.71
147
1.5
172
     1
176
   256
177
   256
178
     2
271
     2
272
     2
283
     0
284
     8
340
5D
371
    -1
372
    -1
  0
DIMSTYLE
105
330
330
A
100
AcDbSymbolTableRecord
100
AcDbDimStyleTableRecord
  2
AM_DIN$2
 70
     0
  4
"
 41
4.0
 42
0.0
 43
10.0
 44
1.0
 47
0.1
 48
0.1
 50
90.0
 73
     0
 74
     0
 77
     1
 78
     8
 79
     2
140
3.5
141
0.0
143
0.0393701
146
0.71
147
1.5
172
     1
176
   256
177
   256
178
     2
271
     2
272
     2
283
     0
284
     8
340
5D
371
    -1
372
    -1
  0
DIMSTYLE
105
3CE
330
A
100
AcDbSymbolTableRecord
100
AcDbDimStyleTableRecord
  2
AM_ISO
 70
     0
  4
"
 41
2.5
 42
1.0
 43
10.0
 44
1.0
 47
0.1
 48
0.1
 73
     0
 74
     0
 77
     1
 78
     8
 79
     2
 90
     1
140
3.5
141
0.0
143
0.0393701
146
0.71
147
1.5
172
     1
176
   256
177
   256
178
     2
271
     2
272
     3
274
     4
283
     0
284
     8
340
5D
371
    -1
372
    -1
1001
ACAD_DSTYLE_DIMJOGGED_JOGANGLE_SYMBOL
1070
   384
1040
0.7853981633974483
  0
DIMSTYLE
105
3CF
330
A
100
AcDbSymbolTableRecord
100
AcDbDimStyleTableRecord
  2
AM_ISO$3
 70
     0
  4
"
 41
2.5
 42
1.0
 43
10.0
 44
1.0
 47
0.1
 48
0.1
 73
     0
 77
     1
 78
     8
 79
     2
 90
     1
140
3.5
141
0.0
143
0.0393701
146
0.71
147
1.5
176
   256
177
   256
178
     2
271
     2
272
     3
274
     4
283
     0
284
     8
288
     1
289
     0
340
5D
371
    -1
372
    -1
1001
ACAD_DSTYLE_DIMJOGGED_JOGANGLE_SYMBOL
1070
   384
1040
0.7853981633974483
  0
DIMSTYLE
105
3D0
330
A
100
AcDbSymbolTableRecord
100
AcDbDimStyleTableRecord
  2
AM_ISO$4
 70
     0
  4
"
 41
2.5
 42
1.0
 43
10.0
 44
1.0
 47
0.1
 48
0.1
 73
     0
 77
     1
 78
     8
 79
     2
 90
     1
140
3.5
141
0.0
143
0.0393701
146
0.71
147
1.5
176
   256
177
   256
178
     2
271
     2
272
     3
274
     4
283
     0
284
     8
288
     1
289
     0
340
5D
371
    -1
372
    -1
1001
ACAD_DSTYLE_DIMJOGGED_JOGANGLE_SYMBOL
1070
   384
1040
0.7853981633974483
  0
DIMSTYLE
105
3D1
330
A
100
AcDbSymbolTableRecord
100
AcDbDimStyleTableRecord
  2
AM_ISO$6
 70
     0
  4
"
 41
2.5
 42
1.0
 43
10.0
 44
1.0
 47
0.1
 48
0.1
 73
     0
 74
     0
 78
     8
 79
     2
 90
     1
140
3.5
141
0.0
143
0.0393701
146
0.71
147
1.5
172
     1
176
   256
177
   256
178
     2
271
     2
272
     3
274
     4
283
     0
284
     8
340
5D
371
    -1
372
    -1
1001
ACAD_DSTYLE_DIMJOGGED_JOGANGLE_SYMBOL
1070
   384
1040
0.7853981633974483
  0
DIMSTYLE
105
3D2
330
A
100
AcDbSymbolTableRecord
100
AcDbDimStyleTableRecord
  2
AM_ISO$7
 70
     0
  4
"
 41
2.5
 42
1.0
 43
10.0
 44
1.0
 47
0.1
 48
0.1
 73
     0
 74
     0
 77
     1
 78
     8
 79
     2
 90
     1
140
5.0
141
0.0
143
0.0393701
146
0.71
147
1.5
172
     1
176
   256
177
   256
178
     2
271
     2
272
     3
274
     4
283
     0
284
     8
340
5D
371
    -1
372
    -1
1001
ACAD_DSTYLE_DIMJOGGED_JOGANGLE_SYMBOL
1070
   384
1040
0.7853981633974483
  0
DIMSTYLE
105
3D3
330
A
100
AcDbSymbolTableRecord
100
AcDbDimStyleTableRecord
  2
AM_ISO$SF
 70
     0
  4
"
 41
2.5
 42
1.0
 43
10.0
 44
1.0
 47
0.1
 48
0.1
 73
     0
 74
     0
 75
     1
 76
     1
 77
     1
 78
     8
 79
     2
 90
     1
140
3.5
141
0.0
143
0.0393701
146
0.71
147
1.5
172
     1
176
   256
177
   256
178
     2
271
     2
272
     3
274
     4
283
     0
284
     8
340
5D
371
    -1
372
    -1
1001
ACAD_DSTYLE_DIMJOGGED_JOGANGLE_SYMBOL
1070
   384
1040
0.7853981633974483
  0
DIMSTYLE
105
3D4
330
A
100
AcDbSymbolTableRecord
100
AcDbDimStyleTableRecord
  2
AM_ISO$SH
 70
     0
  4
"
 41
2.5
 42
1.0
 43
10.0
 44
1.0
 47
0.1
 48
0.1
 73
     0
 74
     0
 75
     1
 76
     1
 77
     1
 78
     8
 79
     2
 90
     1
140
3.5
141
0.0
143
0.0393701
144
2.0
146
0.71
147
1.5
172
     1
173
     1
176
   256
177
   256
178
     2
271
     2
272
     3
274
     4
283
     0
284
     8
340
5D
343
194
371
    -1
372
    -1
1001
ACAD_DSTYLE_DIMJOGGED_JOGANGLE_SYMBOL
1070
   384
1040
0.7853981633974483
  0
DIMSTYLE
105
115A
102
{ACAD_REACTORS
330
259
102
}
330
A
100
AcDbSymbolTableRecord
100
AcDbDimStyleTableRecord
  2
STANDARD
 70
     0
 41
2.68
140
3.5
178
     6
340
5D
  0
DIMSTYLE
105
4A7A
330
A
100
AcDbSymbolTableRecord
100
AcDbDimStyleTableRecord
  2
BENUTZERDEFINIERTE NORM
 70
     0
  4
"
 40
5.0
 41
2.5
 42
0.0
 43
10.0
 44
1.0
 47
0.1
 48
0.1
 50
90.0
 73
     0
 74
     0
 77
     1
 78
     8
 79
     2
140
3.5
141
0.0
143
0.0393701
146
0.71
147
1.5
172
     1
176
   256
177
   256
178
     6
271
     2
272
     2
283
     0
284
     8
340
5D
371
    -1
372
    -1
1001
ACAD_DSTYLE_DIMJAG
1070
   388
1040
1.5
1001
ACAD_DSTYLE_DIMTALN
1070
   392
1070
     0
  0
DIMSTYLE
105
4A7B
330
A
100
AcDbSymbolTableRecord
100
AcDbDimStyleTableRecord
  2
BENUTZERDEFINIERTE NORM$3
 70
     0
  4
"
 40
5.0
 41
2.5
 42
0.0
 43
10.0
 44
1.0
 47
0.1
 48
0.1
 50
90.0
 73
     0
 77
     1
 78
     8
 79
     2
140
3.5
141
0.0
143
0.0393701
146
0.71
147
1.5
176
   256
177
   256
178
     6
271
     2
272
     2
283
     0
284
     8
288
     1
289
     0
340
5D
371
    -1
372
    -1
  0
DIMSTYLE
105
4A7C
330
A
100
AcDbSymbolTableRecord
100
AcDbDimStyleTableRecord
  2
BENUTZERDEFINIERTE NORM$4
 70
     0
  4
"
 40
5.0
 41
2.5
 42
0.0
 43
10.0
 44
1.0
 47
0.1
 48
0.1
 50
90.0
 73
     0
 77
     1
 78
     8
 79
     2
140
3.5
141
0.0
143
0.0393701
146
0.71
147
1.5
176
   256
177
   256
178
     6
271
     2
272
     2
283
     0
284
     8
288
     1
289
     0
340
5D
371
    -1
372
    -1
  0
DIMSTYLE
105
4A7D
330
A
100
AcDbSymbolTableRecord
100
AcDbDimStyleTableRecord
  2
BENUTZERDEFINIERTE NORM$6
 70
     0
  4
"
 40
5.0
 41
2.5
 42
0.0
 43
10.0
 44
1.0
 47
0.1
 48
0.1
 50
90.0
 73
     0
 74
     0
 78
     8
 79
     2
140
3.5
141
0.0
143
0.0393701
146
0.71
147
1.5
172
     1
176
   256
177
   256
178
     6
271
     2
272
     2
283
     0
284
     8
340
5D
371
    -1
372
    -1
  0
DIMSTYLE
105
4A7E
330
A
100
AcDbSymbolTableRecord
100
AcDbDimStyleTableRecord
  2
BENUTZERDEFINIERTE NORM$7
 70
     0
  4
"
 40
5.0
 41
2.5
 42
0.0
 43
10.0
 44
1.0
 47
0.1
 48
0.1
 50
90.0
 73
     0
 74
     0
 77
     1
 78
     8
 79
     2
140
5.0
141
0.0
143
0.0393701
146
0.71
147
1.5
172
     1
176
   256
177
   256
178
     6
271
     2
272
     2
283
     0
284
     8
340
5D
371
    -1
372
    -1
  0
DIMSTYLE
105
4A7F
330
A
100
AcDbSymbolTableRecord
100
AcDbDimStyleTableRecord
  2
BENUTZERDEFINIERTE NORM$SF
 70
     0
  4
"
 40
5.0
 41
2.5
 42
1.0
 43
10.0
 44
1.0
 47
0.1
 48
0.1
 50
90.0
 73
     0
 74
     0
 75
     1
 76
     1
 77
     1
 78
     8
 79
     2
140
3.5
141
0.0
143
0.0393701
146
0.71
147
1.5
172
     1
176
   256
177
   256
178
     6
271
     2
272
     3
274
     4
283
     0
284
     8
340
5D
371
    -1
372
    -1
  0
DIMSTYLE
105
4A80
330
A
100
AcDbSymbolTableRecord
100
AcDbDimStyleTableRecord
  2
BENUTZERDEFINIERTE NORM$SH
 70
     0
  4
"
 40
5.0
 41
2.5
 42
1.0
 43
10.0
 44
1.0
 47
0.1
 48
0.1
 50
90.0
 73
     0
 74
     0
 75
     1
 76
     1
 77
     1
 78
     8
 79
     2
140
3.5
141
0.0
143
0.0393701
144
2.0
146
0.71
147
1.5
172
     1
173
     1
176
   256
177
   256
178
     6
271
     2
272
     3
274
     4
283
     0
284
     8
340
5D
343
194
371
    -1
372
    -1
  0
DIMSTYLE
105
4B76
102
{ACAD_REACTORS
330
4DC2
330
4E4B
330
4E7E
330
4EBE
330
4F2D
330
50EC
102
}
330
A
100
AcDbSymbolTableRecord
100
AcDbDimStyleTableRecord
  2
BENUTZERDEFINIERTE NORM$0
 70
     0
  4
"
 40
5.0
 41
2.5
 42
0.0
 43
10.0
 44
1.0
 47
0.1
 48
0.1
 50
90.0
 73
     0
 74
     0
 77
     1
 78
     8
 79
     2
140
3.5
141
0.0
143
0.0393701
146
0.71
147
1.5
172
     1
176
   256
177
   256
178
     6
271
     2
272
     2
283
     0
284
     8
340
5D
371
    -1
372
    -1
  0
ENDTAB
  0
TABLE
  2
BLOCK_RECORD
  5
1
330
0
100
AcDbSymbolTable
 70
    21
  0
BLOCK_RECORD
  5
74
102
{ACAD_XDICTIONARY
360
A88
102
}
330
1
100
AcDbSymbolTableRecord
100
AcDbBlockTableRecord
  2
*Model_Space
340
77
 70
     0
280
     1
281
     0
  0
BLOCK_RECORD
  5
70
330
1
100
AcDbSymbolTableRecord
100
AcDbBlockTableRecord
  2
*Paper_Space
340
73
 70
     0
280
     1
281
     0
  0
BLOCK_RECORD
  5
194
330
1
100
AcDbSymbolTableRecord
100
AcDbBlockTableRecord
  2
GENAXEH
340
0
310
2800000020000000200000000100080000000000000400000000000000000000000000000000000000000000000080000080000000808000800000008000800080800000C0C0C000C0DCC000F0CAA6000020400000206000002080000020A0000020C0000020E00000400000004020000040400000406000004080000040A0
310
000040C0000040E00000600000006020000060400000606000006080000060A0000060C0000060E00000800000008020000080400000806000008080000080A0000080C0000080E00000A0000000A0200000A0400000A0600000A0800000A0A00000A0C00000A0E00000C0000000C0200000C0400000C0600000C0800000C0
310
A00000C0C00000C0E00000E0000000E0200000E0400000E0600000E0800000E0A00000E0C00000E0E00040000000400020004000400040006000400080004000A0004000C0004000E00040200000402020004020400040206000402080004020A0004020C0004020E000404000004040200040404000404060004040800040
310
40A0004040C0004040E00040600000406020004060400040606000406080004060A0004060C0004060E00040800000408020004080400040806000408080004080A0004080C0004080E00040A0000040A0200040A0400040A0600040A0800040A0A00040A0C00040A0E00040C0000040C0200040C0400040C0600040C08000
310
40C0A00040C0C00040C0E00040E0000040E0200040E0400040E0600040E0800040E0A00040E0C00040E0E00080000000800020008000400080006000800080008000A0008000C0008000E00080200000802020008020400080206000802080008020A0008020C0008020E00080400000804020008040400080406000804080
310
008040A0008040C0008040E00080600000806020008060400080606000806080008060A0008060C0008060E00080800000808020008080400080806000808080008080A0008080C0008080E00080A0000080A0200080A0400080A0600080A0800080A0A00080A0C00080A0E00080C0000080C0200080C0400080C0600080C0
310
800080C0A00080C0C00080C0E00080E0000080E0200080E0400080E0600080E0800080E0A00080E0C00080E0E000C0000000C0002000C0004000C0006000C0008000C000A000C000C000C000E000C0200000C0202000C0204000C0206000C0208000C020A000C020C000C020E000C0400000C0402000C0404000C0406000C0
310
408000C040A000C040C000C040E000C0600000C0602000C0604000C0606000C0608000C060A000C060C000C060E000C0800000C0802000C0804000C0806000C0808000C080A000C080C000C080E000C0A00000C0A02000C0A04000C0A06000C0A08000C0A0A000C0A0C000C0A0E000C0C00000C0C02000C0C04000C0C06000
310
C0C08000C0C0A000F0FBFF00A4A0A000808080000000FF0000FF000000FFFF00FF000000FF00FF00FFFF0000FFFFFF0000000000000000000000000000000000000000000000000000000000000000000000000000000000000000000000000000000000000000000000000000000000000000000000000000000000000000
310
00000000000000000000000000000000000000000000000000000000000000000000000000000000000000000000000000000000000000000000000000000000000000000000000000000000000000000000000000000000000000000000000000000000000000000000000000000000000000000000000000000000000000
310
00000000000000000000000000000000000000000000000000000000000000000000000000000000000000000000000000000000000000000000000000000000000000000000000000000000000000000000000000000000000000000000000000000000000000000000000000000000000000000000000000000000000000
310
00000000000000000000000000000000000000000000000000000000000000000000000000000000000000000000000000000000000000000000000000000000000000000000000000000000000000000000000000000000000000000000000000000000000000000000000000000000000000000000000000000000000000
310
0000000000000000000000000000000000000000000000000000000000000000000000000000000000000000000000000000000000FFFFFFFFFFFFFFFFFFFFFFFFFFFFFFFFFFFFFFFFFFFFFFFFFFFFFFFFFFFF0000000000000000000000000000000000000000000000000000000000000000000000000000000000000000
310
00000000000000000000000000000000000000000000000000000000000000000000000000000000000000000000000000000000000000000000000000000000000000000000000000000000000000000000000000000000000000000000000000000000000000000000000000000000000000000000000000000000000000
310
00000000000000000000000000000000000000000000000000000000000000000000000000000000000000000000000000000000000000000000000000000000000000000000000000000000000000000000000000000000000000000000000000000000000000000000000000000000000000000000000000000000000000
310
00000000000000000000000000000000000000000000000000000000000000000000000000000000000000000000000000000000000000000000000000000000000000000000000000000000000000000000000000000000000000000000000000000000000000000000000000000000000000000000000000000000000000
310
0000000000000000000000000000000000000000000000000000000000000000000000000000000000000000000000000000000000000000
 70
     0
280
     1
281
     0
  0
BLOCK_RECORD
  5
4CB5
330
1
100
AcDbSymbolTableRecord
100
AcDbBlockTableRecord
  2
DIN_A4
340
0
 70
     0
280
     1
281
     0
  0
BLOCK_RECORD
  5
4CCD
102
{ACAD_XDICTIONARY
360
4D49
102
}
330
1
100
AcDbSymbolTableRecord
100
AcDbBlockTableRecord
  2
OASESAP8
340
0
 70
     0
280
     1
281
     0
  0
BLOCK_RECORD
  5
4DC3
330
1
100
AcDbSymbolTableRecord
100
AcDbBlockTableRecord
  2
*D5
340
0
 70
     0
280
     1
281
     0
  0
BLOCK_RECORD
  5
4DF6
330
1
100
AcDbSymbolTableRecord
100
AcDbBlockTableRecord
  2
*D6
340
0
 70
     0
280
     1
281
     0
  0
BLOCK_RECORD
  5
4E4C
330
1
100
AcDbSymbolTableRecord
100
AcDbBlockTableRecord
  2
*D7
340
0
 70
     0
280
     1
281
     0
  0
BLOCK_RECORD
  5
4E7F
330
1
100
AcDbSymbolTableRecord
100
AcDbBlockTableRecord
  2
*D8
340
0
 70
     0
280
     1
281
     0
  0
BLOCK_RECORD
  5
4EBF
330
1
100
AcDbSymbolTableRecord
100
AcDbBlockTableRecord
  2
*D9
340
0
 70
     0
280
     1
281
     0
  0
BLOCK_RECORD
  5
4EF2
330
1
100
AcDbSymbolTableRecord
100
AcDbBlockTableRecord
  2
*D10
340
0
 70
     0
280
     1
281
     0
  0
BLOCK_RECORD
  5
4F2E
330
1
100
AcDbSymbolTableRecord
100
AcDbBlockTableRecord
  2
*D11
340
0
 70
     0
280
     1
281
     0
  0
BLOCK_RECORD
  5
4F61
330
1
100
AcDbSymbolTableRecord
100
AcDbBlockTableRecord
  2
*D12
340
0
 70
     0
280
     1
281
     0
  0
BLOCK_RECORD
  5
50ED
330
1
100
AcDbSymbolTableRecord
100
AcDbBlockTableRecord
  2
*D13
340
0
 70
     0
280
     1
281
     0
  0
BLOCK_RECORD
  5
5214
330
1
100
AcDbSymbolTableRecord
100
AcDbBlockTableRecord
  2
_ACMFILLED15
340
0
 70
     0
280
     1
281
     0
  0
BLOCK_RECORD
  5
5222
330
1
100
AcDbSymbolTableRecord
100
AcDbBlockTableRecord
  2
_ACMNONE
340
0
 70
     0
280
     1
281
     0
  0
BLOCK_RECORD
  5
5226
330
1
100
AcDbSymbolTableRecord
100
AcDbBlockTableRecord
  2
_ACMFILLED
340
0
 70
     0
280
     1
281
     0
  0
BLOCK_RECORD
  5
5230
330
1
100
AcDbSymbolTableRecord
100
AcDbBlockTableRecord
  2
_ACMFILLEDHALF
340
0
 70
     0
280
     1
281
     0
  0
BLOCK_RECORD
  5
5254
330
1
100
AcDbSymbolTableRecord
100
AcDbBlockTableRecord
  2
_ACMFILLED30
340
0
 70
     0
280
     1
281
     0
  0
BLOCK_RECORD
  5
5262
330
1
100
AcDbSymbolTableRecord
100
AcDbBlockTableRecord
  2
*D19
340
0
 70
     0
280
     1
281
     0
  0
ENDTAB
  0
ENDSEC
  0
SECTION
  2
BLOCKS
  0
BLOCK
  5
75
330
74
100
AcDbEntity
  8
0
100
AcDbBlockBegin
  2
*Model_Space
 70
     0
 10
0.0
 20
0.0
 30
0.0
  3
*Model_Space
  1

  0
ENDBLK
  5
76
330
74
100
AcDbEntity
  8
0
100
AcDbBlockEnd
  0
BLOCK
  5
71
330
70
100
AcDbEntity
 67
     1
  8
0
100
AcDbBlockBegin
  2
*Paper_Space
 70
     0
 10
0.0
 20
0.0
 30
0.0
  3
*Paper_Space
  1

  0
ENDBLK
  5
72
330
70
100
AcDbEntity
 67
     1
  8
0
100
AcDbBlockEnd
  0
BLOCK
  5
196
330
194
100
AcDbEntity
  8
0
100
AcDbBlockBegin
  2
GENAXEH
 70
     0
 10
0.0
 20
0.0
 30
0.0
  3
GENAXEH
  1

  0
LINE
  5
195
330
194
100
AcDbEntity
  8
0
100
AcDbLine
 10
-1.0
 20
0.0
 30
0.0
 11
1.0
 21
0.0
 31
0.0
  0
ENDBLK
  5
197
330
194
100
AcDbEntity
  8
0
100
AcDbBlockEnd
  0
BLOCK
  5
4CC2
330
4CB5
100
AcDbEntity
  8
0
100
AcDbBlockBegin
  2
DIN_A4
 70
     0
 10
0.0
 20
0.0
 30
0.0
  3
DIN_A4
  1

  0
LINE
  5
4CB6
330
4CB5
100
AcDbEntity
  8
AM_BOR ( Zeichnungsrahmen)
 62
     7
370
    25
100
AcDbLine
 10
0.0
 20
0.0
 30
0.0
 11
210.0
 21
0.0
 31
0.0
  0
LINE
  5
4CB7
330
4CB5
100
AcDbEntity
  8
AM_BOR ( Zeichnungsrahmen)
 62
     7
370
    25
100
AcDbLine
 10
210.0
 20
297.0
 30
0.0
 11
0.0
 21
297.0
 31
0.0
  0
LINE
  5
4CB8
330
4CB5
100
AcDbEntity
  8
AM_BOR ( Zeichnungsrahmen)
 62
     7
370
    25
100
AcDbLine
 10
0.0
 20
297.0
 30
0.0
 11
0.0
 21
0.0
 31
0.0
  0
LINE
  5
4CB9
330
4CB5
100
AcDbEntity
  8
0
370
    50
100
AcDbLine
 10
10.0
 20
5.0
 30
0.0
 11
205.0
 21
5.0
 31
0.0
  0
LINE
  5
4CBA
330
4CB5
100
AcDbEntity
  8
AM_BOR ( Zeichnungsrahmen)
 62
     7
370
    25
100
AcDbLine
 10
205.0
 20
292.0
 30
0.0
 11
10.0
 21
292.0
 31
0.0
  0
LINE
  5
4CBB
330
4CB5
100
AcDbEntity
  8
AM_BOR ( Zeichnungsrahmen)
 62
     7
370
    25
100
AcDbLine
 10
10.0
 20
5.0
 30
0.0
 11
10.0
 21
292.0
 31
0.0
  0
TEXT
  5
4CBC
330
4CB5
100
AcDbEntity
  8
0
 60
     1
100
AcDbText
 10
210.0
 20
297.0
 30
0.0
 40
3.5
  1
!GENTITLE-MAX
  7
ACDINTS
100
AcDbText
  0
TEXT
  5
4CBD
330
4CB5
100
AcDbEntity
  8
0
 60
     1
100
AcDbText
 10
205.0
 20
287.0
 30
0.0
 40
3.5
  1
!GENTITLE-RU
  7
ACDINTS
100
AcDbText
  0
TEXT
  5
4CBE
330
4CB5
100
AcDbEntity
  8
0
 60
     1
100
AcDbText
 10
15.0
 20
59.99
 30
0.0
 40
3.5
  1
!GENTITLE-LL
  7
ACDINTS
100
AcDbText
  0
TEXT
  5
4CBF
330
4CB5
100
AcDbEntity
  8
0
 60
     1
100
AcDbText
 10
205.0
 20
5.0
 30
0.0
 40
3.5
  1
!GENTITLE-INSERT
  7
ACDINTS
100
AcDbText
  0
LINE
  5
4CC0
330
4CB5
100
AcDbEntity
  8
AM_BOR ( Zeichnungsrahmen)
 62
     7
370
    25
100
AcDbLine
 10
210.0
 20
0.0
 30
0.0
 11
210.0
 21
297.0
 31
0.0
  0
LINE
  5
4CC1
330
4CB5
100
AcDbEntity
  8
0
370
    50
100
AcDbLine
 10
205.0
 20
292.0
 30
0.0
 11
205.0
 21
5.0
 31
0.0
  0
ENDBLK
  5
4CC3
330
4CB5
100
AcDbEntity
  8
0
100
AcDbBlockEnd
  0
BLOCK
  5
4D4B
330
4CCD
100
AcDbEntity
  8
0
100
AcDbBlockBegin
  2
OASESAP8
 70
     2
 10
0.0
 20
0.0
 30
0.0
  3
OASESAP8
  1

  0
LINE
  5
4CCE
330
4CCD
100
AcDbEntity
  8
AM_BOR
100
AcDbLine
 10
-185.3400019824074
 20
33.77777828507033
 30
0.0
 11
-122.0000018322025
 21
33.77777828507033
 31
0.0
1001
ACDBBLOCKREPETAG
1070
     1
1071
        0
1005
4CCE
  0
TEXT
  5
4CCF
330
4CCD
100
AcDbEntity
  8
AM_BOR
100
AcDbText
 10
-130.884127702302
 20
1.441833153863171
 30
0.0
 40
1.6
  1
OASE GmbH Fountain Technology
 41
1.199999999999999
100
AcDbText
1001
ACDBBLOCKREPETAG
1070
     1
1071
        1
1005
4CCF
  0
TEXT
  5
4CD0
330
4CCD
100
AcDbEntity
  8
AM_BOR
100
AcDbText
 10
-87.82273727668412
 20
58.20037405680993
 30
0.0
 40
1.440000021626625
  1
Projekt
 41
1.199999999999999
100
AcDbText
1001
ACDBBLOCKREPETAG
1070
     1
1071
        2
1005
4CD0
  0
TEXT
  5
4CD1
330
4CCD
100
AcDbEntity
  8
AM_BOR
100
AcDbText
 10
-151.3560218411947
 20
41.68146972886051
 30
0.0
 40
1.600000024029584
  1
Eckenbearbeitung nach DIN 6784
 41
1.199999999999999
100
AcDbText
1001
ACDBBLOCKREPETAG
1070
     1
1071
        6
1005
4CD1
  0
LINE
  5
4CD2
330
4CCD
100
AcDbEntity
  8
AM_BOR
100
AcDbLine
 10
-88.00000132160494
 20
16.88888914254039
 30
0.0
 11
0.0
 21
16.88888914254039
 31
0.0
1001
ACDBBLOCKREPETAG
1070
     1
1071
       11
1005
4CD2
  0
LINE
  5
4CD3
330
4CCD
100
AcDbEntity
  8
AM_BOR
100
AcDbLine
 10
-185.3400019824074
 20
8.444444575710349
 30
0.0
 11
-132.0000019824074
 21
8.444444575710349
 31
0.0
1001
ACDBBLOCKREPETAG
1070
     1
1071
       12
1005
4CD3
  0
LINE
  5
4CD4
330
4CCD
100
AcDbEntity
  8
AM_BOR
100
AcDbLine
 10
-185.3400019824074
 20
12.66666685913014
 30
0.0
 11
-88.00000132160493
 21
12.66666685913014
 31
0.0
1001
ACDBBLOCKREPETAG
1070
     1
1071
       13
1005
4CD4
  0
TEXT
  5
4CD5
330
4CCD
100
AcDbEntity
  8
AM_BOR
100
AcDbText
 10
-131.5598447471348
 20
22.4000810384905
 30
0.0
 40
1.800000027033282
  1
Proj.L.
 41
1.199999999999999
100
AcDbText
1001
ACDBBLOCKREPETAG
1070
     1
1071
       18
1005
4CD5
  0
TEXT
  5
4CD6
330
4CCD
100
AcDbEntity
  8
AM_BOR
100
AcDbText
 10
-131.8087627661939
 20
26.46517089813561
 30
0.0
 40
1.641600024654353
  1
Gepr.
 41
1.199999999999999
100
AcDbText
1001
ACDBBLOCKREPETAG
1070
     1
1071
       19
1005
4CD6
1001
GENIUS_GENTRA_14
1002
{
1070
     1
1000
GENTRATX{5.5},%s,(GENMSG gentitis 65)
1000
Gepr.
1000
DEU
1070
     0
1040
1.199999999999999
1070
     0
1002
}
  0
TEXT
  5
4CD7
330
4CCD
100
AcDbEntity
  8
AM_BOR
100
AcDbText
 10
-131.6206887428197
 20
30.48106969648098
 30
0.0
 40
1.800000027033282
  1
Bearb.
 41
1.1
100
AcDbText
1001
ACDBBLOCKREPETAG
1070
     1
1071
       20
1005
4CD7
  0
TEXT
  5
4CD8
330
4CCD
100
AcDbEntity
  8
AM_BOR
100
AcDbText
 10
-11.44560272419767
 20
14.32530757084146
 30
0.0
 40
2.00000003003698
  1
Blatt
 41
1.199999999999999
100
AcDbText
1001
ACDBBLOCKREPETAG
1070
     1
1071
       21
1005
4CD8
  0
TEXT
  5
4CD9
330
4CCD
100
AcDbEntity
  8
AM_BOR
100
AcDbText
 10
-120.9539416485713
 20
34.46014955931605
 30
0.0
 40
2.00000003003698
  1
Datum
 41
1.199999999999999
100
AcDbText
1001
ACDBBLOCKREPETAG
1070
     1
1071
       22
1005
4CD9
  0
TEXT
  5
4CDA
330
4CCD
100
AcDbEntity
  8
AM_BOR
100
AcDbText
 10
-87.41602340510757
 20
48.67191507381704
 30
0.0
 40
2.00000003003698
  1
Massstab:
 41
1.199999999999999
100
AcDbText
1001
ACDBBLOCKREPETAG
1070
     1
1071
       23
1005
4CDA
  0
LINE
  5
4CDB
330
4CCD
100
AcDbEntity
  8
AM_BOR
100
AcDbLine
 10
-122.0000018322025
 20
21.11111142817026
 30
0.0
 11
-122.0000018322025
 21
38.0000005707002
 31
0.0
1001
ACDBBLOCKREPETAG
1070
     1
1071
       24
1005
4CDB
  0
LINE
  5
4CDC
330
4CCD
100
AcDbEntity
  8
AM_BOR
100
AcDbLine
 10
-139.6200019824074
 20
-0.0077777143696647
 30
0.0
 11
-139.6200019824074
 21
37.99222285633053
 31
0.0
1001
ACDBBLOCKREPETAG
1070
     1
1071
       25
1005
4CDC
  0
LINE
  5
4CDD
330
4CCD
100
AcDbEntity
  8
AM_BOR
100
AcDbLine
 10
-152.3200019824074
 20
-0.0077777143696656
 30
0.0
 11
-152.3200019824074
 21
53.00000079598021
 31
0.0
1001
ACDBBLOCKREPETAG
1070
     1
1071
       26
1005
4CDD
  0
LINE
  5
4CDE
330
4CCD
100
AcDbEntity
  8
AM_BOR
100
AcDbLine
 10
-177.7200019824074
 20
0.0
 30
0.0
 11
-177.7200019824074
 21
38.0000005707002
 31
0.0
1001
ACDBBLOCKREPETAG
1070
     1
1071
       27
1005
4CDE
  0
LINE
  5
4CDF
330
4CCD
100
AcDbEntity
  8
AM_BOR
100
AcDbLine
 10
-107.0000016069025
 20
21.11111142817026
 30
0.0
 11
-107.0000016069025
 21
38.0000005707002
 31
0.0
1001
ACDBBLOCKREPETAG
1070
     1
1071
       28
1005
4CDF
  0
LINE
  5
4CE0
330
4CCD
100
AcDbEntity
  8
AM_BOR
100
AcDbLine
 10
-13.00000019519939
 20
8.444444571260191
 30
0.0
 11
0.0
 21
8.444444571260191
 31
0.0
1001
ACDBBLOCKREPETAG
1070
     1
1071
       29
1005
4CE0
  0
LINE
  5
4CE1
330
4CCD
100
AcDbEntity
  8
AM_BOR
100
AcDbLine
 10
-185.3400019824074
 20
4.222222285630323
 30
0.0
 11
0.0
 21
4.222222285630323
 31
0.0
1001
ACDBBLOCKREPETAG
1070
     1
1071
       30
1005
4CE1
  0
LINE
  5
4CE2
330
4CCD
100
AcDbEntity
  8
AM_BOR
100
AcDbLine
 10
-185.3400019824074
 20
16.88888914254039
 30
0.0
 11
-132.0000019824074
 21
16.88888914254039
 31
0.0
1001
ACDBBLOCKREPETAG
1070
     1
1071
       31
1005
4CE2
  0
LINE
  5
4CE3
330
4CCD
100
AcDbEntity
  8
AM_BOR
100
AcDbLine
 10
-185.3400019824074
 20
21.11111142817026
 30
0.0
 11
-88.00000132160494
 21
21.11111142817026
 31
0.0
1001
ACDBBLOCKREPETAG
1070
     1
1071
       32
1005
4CE3
  0
LINE
  5
4CE4
330
4CCD
100
AcDbEntity
  8
AM_BOR
100
AcDbLine
 10
-185.3400019824074
 20
25.33333371380014
 30
0.0
 11
-88.00000132160494
 21
25.33333371380013
 31
0.0
1001
ACDBBLOCKREPETAG
1070
     1
1071
       33
1005
4CE4
  0
LINE
  5
4CE5
330
4CCD
100
AcDbEntity
  8
AM_BOR
100
AcDbLine
 10
-185.3400019824074
 20
29.55555599943
 30
0.0
 11
-88.00000132160494
 21
29.55555599943
 31
0.0
1001
ACDBBLOCKREPETAG
1070
     1
1071
       34
1005
4CE5
  0
LINE
  5
4CE6
330
4CCD
100
AcDbEntity
  8
AM_BOR
100
AcDbLine
 10
-122.0000018322025
 20
33.77777828507033
 30
0.0
 11
-88.00000132160494
 21
33.77777828507033
 31
0.0
1001
ACDBBLOCKREPETAG
1070
     1
1071
       35
1005
4CE6
  0
LINE
  5
4CE7
330
4CCD
100
AcDbEntity
  8
AM_BOR
100
AcDbLine
 10
-88.00000132160493
 20
45.92760216890009
 30
0.0
 11
0.0
 21
45.92760216890008
 31
0.0
1001
ACDBBLOCKREPETAG
1070
     1
1071
       36
1005
4CE7
  0
LINE
  5
4CE8
330
4CCD
100
AcDbEntity
  8
AM_BOR
100
AcDbLine
 10
-185.3400019824074
 20
38.0000005707002
 30
0.0
 11
0.0
 21
38.0000005707002
 31
0.0
1001
ACDBBLOCKREPETAG
1070
     1
1071
       37
1005
4CE8
  0
LINE
  5
4CE9
330
4CCD
100
AcDbEntity
  8
AM_BOR
100
AcDbLine
 10
-13.00000019519939
 20
4.222222285630323
 30
0.0
 11
-13.00000019519939
 21
16.88888914254039
 31
0.0
1001
ACDBBLOCKREPETAG
1070
     1
1071
       38
1005
4CE9
  0
LINE
  5
4CEA
330
4CCD
100
AcDbEntity
  8
AM_BOR
100
AcDbLine
 10
-88.00000132160494
 20
0.0
 30
0.0
 11
-88.00000132160493
 21
59.90013639952638
 31
0.0
1001
ACDBBLOCKREPETAG
1070
     1
1071
       39
1005
4CEA
  0
LINE
  5
4CEB
330
4CCD
100
AcDbEntity
  8
AM_BOR
100
AcDbLine
 10
-132.0000019824074
 20
0.0
 30
0.0
 11
-132.0000019824074
 21
38.0000005707002
 31
0.0
1001
ACDBBLOCKREPETAG
1070
     1
1071
       40
1005
4CEB
  0
LINE
  5
4CEC
330
4CCD
100
AcDbEntity
  8
AM_BOR
100
AcDbLine
 10
-185.3400019824074
 20
0.2384938820300704
 30
0.0
 11
-185.3400019824074
 21
59.90013639952639
 31
0.0
1001
ACDBBLOCKREPETAG
1070
     1
1071
       41
1005
4CEC
  0
LINE
  5
4CED
330
4CCD
100
AcDbEntity
  8
AM_BOR
100
AcDbLine
 10
-185.3400019824074
 20
53.00000079598021
 30
0.0
 11
0.0
 21
53.00000079598021
 31
0.0
1001
ACDBBLOCKREPETAG
1070
     1
1071
       42
1005
4CED
  0
TEXT
  5
4CEE
330
4CCD
100
AcDbEntity
  8
AM_BOR
100
AcDbText
 10
-86.15426068430679
 20
1.189060355630317
 30
0.0
 40
2.000000060073969
  1
Autocad Mechanical 2008
 41
1.199999999999999
100
AcDbText
1001
ACDBBLOCKREPETAG
1070
     1
1071
       43
1005
4CEE
  0
POINT
  5
4CEF
330
4CCD
100
AcDbEntity
  8
AM_BOR
100
AcDbPoint
 10
0.0
 20
0.0
 30
0.0
1001
ACDBBLOCKREPETAG
1070
     1
1071
       44
1005
4CEF
  0
POINT
  5
4CF0
330
4CCD
100
AcDbEntity
  8
AM_BOR
100
AcDbPoint
 10
0.0
 20
0.0
 30
0.0
1001
ACDBBLOCKREPETAG
1070
     1
1071
       45
1005
4CF0
  0
ATTDEF
  5
4CF1
330
4CCD
100
AcDbEntity
  8
AM_BOR
100
AcDbText
 10
-71.51262676360079
 20
48.65001922868322
 30
0.0
 40
2.0
  1

100
AcDbAttributeDefinition
280
     0
  3
Massstab
  2
GEN-TITLE-SCA
 70
     0
280
     1
1001
ACDBBLOCKREPETAG
1070
     1
1071
       67
1005
0
  0
ATTDEF
  5
4CF2
330
4CCD
100
AcDbEntity
  8
AM_BOR
100
AcDbText
 10
-42.65618887579386
 20
48.59490079608424
 30
0.0
 40
2.4
  1

100
AcDbAttributeDefinition
280
     0
  3
Werkstoff
  2
WERKSTOFF{13}
 70
     0
280
     1
1001
ACDBBLOCKREPETAG
1070
     1
1071
       68
1005
0
  0
ATTDEF
  5
4CF3
330
4CCD
100
AcDbEntity
  8
AM_BOR
100
AcDbText
 10
-85.71534332195199
 20
6.455888134994324
 30
0.0
 40
5.0
  1

100
AcDbAttributeDefinition
280
     0
  3
Zeichnungsnummer
  2
ZEICHNUNGSNUMMER
 70
     0
280
     1
1001
ACDBBLOCKREPETAG
1070
     1
1071
       69
1005
0
  0
ATTDEF
  5
4CF4
330
4CCD
100
AcDbEntity
  8
AM_BOR
100
AcDbText
 10
-31.2290184429927
 20
6.455888134994324
 30
0.0
 40
5.0
  1

100
AcDbAttributeDefinition
280
     0
  3
Aenderungsindex
  2
AENDERUNS-INDEX
 70
     0
280
     1
1001
ACDBBLOCKREPETAG
1070
     1
1071
       70
1005
0
  0
ATTDEF
  5
4CF5
330
4CCD
100
AcDbEntity
  8
AM_BOR
100
AcDbText
 10
-86.1749039994172
 20
30.98841502357578
 30
0.0
 40
5.0
  1

100
AcDbAttributeDefinition
280
     0
  3
Bezeichnung1
  2
BEZEICHNUNG{16,1}
 70
     0
280
     1
1001
ACDBBLOCKREPETAG
1070
     1
1071
       71
1005
0
  0
ATTDEF
  5
4CF6
330
4CCD
100
AcDbEntity
  8
AM_BOR
100
AcDbText
 10
-86.1749039994172
 20
21.4940968560025
 30
0.0
 40
5.0
  1

100
AcDbAttributeDefinition
280
     0
  3
Bezeichnung 2
  2
BEZEICHNUNG2{16,1}
 70
     0
280
     1
1001
ACDBBLOCKREPETAG
1070
     1
1071
      100
1005
0
  0
ATTDEF
  5
4CF7
330
4CCD
100
AcDbEntity
  8
AM_BOR
100
AcDbText
 10
-119.6084273696554
 20
5.730447391784122
 30
0.0
 40
3.5
  1

100
AcDbAttributeDefinition
280
     0
  3
Materialnr.
  2
SAP-MATNR
 70
     0
280
     1
1001
ACDBBLOCKREPETAG
1070
     1
1071
       73
1005
0
  0
LINE
  5
4CF8
330
4CCD
100
AcDbEntity
  8
AM_BOR
100
AcDbLine
 10
0.0000000000756646
 20
59.90013639952639
 30
0.0
 11
0.0
 21
0.0
 31
0.0
1001
ACDBBLOCKREPETAG
1070
     1
1071
       75
1005
4CF8
  0
ATTDEF
  5
4CF9
330
4CCD
100
AcDbEntity
  8
AM_BOR
100
AcDbText
 10
-86.25221828481818
 20
39.50139881471519
 30
0.0
 40
3.6
  1

100
AcDbAttributeDefinition
280
     0
  3
Projektnummer
  2
PROJEKTNUMMER{13}
 70
     0
280
     1
1001
ACDBBLOCKREPETAG
1070
     1
1071
       74
1005
0
  0
TEXT
  5
4CFA
330
4CCD
100
AcDbEntity
  8
AM_BOR
100
AcDbText
 10
-105.9539414232713
 20
34.46014955931605
 30
0.0
 40
2.00000003003698
  1
Name
 41
1.199999999999999
100
AcDbText
1001
ACDBBLOCKREPETAG
1070
     1
1071
       77
1005
4CFA
  0
ATTDEF
  5
4CFB
330
4CCD
100
AcDbEntity
  8
AM_BOR
100
AcDbText
 10
-80.06480237688576
 20
54.40716984566695
 30
0.0
 40
4.561919999999999
  1

100
AcDbAttributeDefinition
280
     0
  3
Projekt
  2
POJEKT{16}
 70
     0
280
     1
1001
ACDBBLOCKREPETAG
1070
     1
1071
       76
1005
0
  0
ATTDEF
  5
4CFC
330
4CCD
100
AcDbEntity
  8
AM_BOR
100
AcDbText
 10
-105.8805938982175
 20
22.28032905055784
 30
0.0
 40
2.0
  1

100
AcDbAttributeDefinition
280
     0
  3
Projektleiter
  2
POJEKTLEITER{8}
 70
     0
280
     1
1001
ACDBBLOCKREPETAG
1070
     1
1071
       81
1005
0
  0
TEXT
  5
4CFD
330
4CCD
100
AcDbEntity
  8
AM_BOR
100
AcDbText
 10
-58.62015410501851
 20
48.63704845080146
 30
0.0
 40
2.400000036044375
  1
Material:
 41
1.199999999999999
100
AcDbText
1001
ACDBBLOCKREPETAG
1070
     1
1071
       80
1005
4CFD
  0
LINE
  5
4CFE
330
4CCD
100
AcDbEntity
  8
AM_BOR
100
AcDbLine
 10
-185.3400019824074
 20
59.90013639952639
 30
0.0
 11
0.0000000000756586
 21
59.90013639952639
 31
0.0
1001
ACDBBLOCKREPETAG
1070
     1
1071
       83
1005
4CFE
  0
ATTDEF
  5
4CFF
330
4CCD
100
AcDbEntity
  8
AM_BOR
370
   200
100
AcDbText
 10
-181.7933248046407
 20
55.55122663137243
 30
0.0
 40
3.0
  1

100
AcDbAttributeDefinition
280
     0
  3
Zeichnungsart
  2
ZEICHNUNGSART{22}
 70
     0
280
     1
1001
ACDBBLOCKREPETAG
1070
     1
1071
       82
1005
0
  0
TEXT
  5
4D00
330
4CCD
100
AcDbEntity
  8
AM_BOR
100
AcDbText
 10
-151.380074764322
 20
44.58410914258997
 30
0.0
 40
1.600000024029584
  1
Oberflächen nach DIN ISO 1302
 41
1.199999999999999
100
AcDbText
1001
ACDBBLOCKREPETAG
1070
     1
1071
      101
1005
4D00
  0
TEXT
  5
4D01
330
4CCD
100
AcDbEntity
  8
AM_BOR
100
AcDbText
 10
-151.2864965010435
 20
47.39372358624331
 30
0.0
 40
1.600000024029584
  1
Form/Lagetoleranzen nach DIN ISO 1101
 41
1.199999999999999
100
AcDbText
1001
ACDBBLOCKREPETAG
1070
     1
1071
      102
1005
4D01
  0
TEXT
  5
4D02
330
4CCD
100
AcDbEntity
  8
AM_BOR
100
AcDbText
 10
-151.2757596725531
 20
50.34408339700104
 30
0.0
 40
1.600000024029584
  1
Freimasstoleranzen nach DIN ISO 2768 m-A
 41
1.199999999999999
100
AcDbText
1001
ACDBBLOCKREPETAG
1070
     1
1071
      103
1005
4D02
  0
TEXT
  5
4D03
330
4CCD
100
AcDbEntity
  8
AM_BOR
100
AcDbText
 10
-151.4439433516451
 20
38.95712746720818
 30
0.0
 40
1.600000024029584
  1
Schweisskonstruktion nach DIN EN ISO 13920-B
 41
1.199999999999999
100
AcDbText
1001
ACDBBLOCKREPETAG
1070
     1
1071
      104
1005
4D03
  0
ATTDEF
  5
4D04
330
4CCD
100
AcDbEntity
  8
AM_BOR
100
AcDbText
 10
-121.4665441936572
 20
30.32447266962089
 30
0.0
 40
2.0
  1

100
AcDbAttributeDefinition
280
     0
  3
Datum
  2
GEN-TITLE-DAT
 70
     0
280
     1
1001
ACDBBLOCKREPETAG
1070
     1
1071
       78
1005
0
  0
ATTDEF
  5
4D05
330
4CCD
100
AcDbEntity
  8
AM_BOR
100
AcDbText
 10
-106.6894696866938
 20
26.14295440168508
 30
0.0
 40
2.0
  1

100
AcDbAttributeDefinition
280
     0
  3
Prüfer
  2
GEPR_VON
 70
     0
280
     1
1001
ACDBBLOCKREPETAG
1070
     1
1071
      105
1005
0
  0
ATTDEF
  5
4D06
330
4CCD
100
AcDbEntity
  8
AM_BOR
100
AcDbText
 10
-121.7267411423133
 20
26.11684517636604
 30
0.0
 40
2.0
  1

100
AcDbAttributeDefinition
280
     0
  3
Prüfdatum
  2
GEPR_AM
 70
     0
280
     1
1001
ACDBBLOCKREPETAG
1070
     1
1071
       79
1005
0
  0
ATTDEF
  5
4D07
330
4CCD
100
AcDbEntity
  8
AM_BOR
100
AcDbText
 10
-42.4457749541926
 20
38.92347765925475
 30
0.0
 40
3.6
  1

100
AcDbAttributeDefinition
280
     0
  3
VK_Beleg
  2
VK_BELEG{12}
 70
     0
280
     1
1001
ACDBBLOCKREPETAG
1070
     1
1071
      106
1005
0
  0
ATTDEF
  5
4D08
330
4CCD
100
AcDbEntity
  8
AM_BOR
100
AcDbText
 10
-7.917386630408827
 20
10.48463023463267
 30
0.0
 40
2.0
  1
1
100
AcDbAttributeDefinition
280
     0
  3
Blatt
  2
BLATT
 70
     0
280
     1
1001
ACDBBLOCKREPETAG
1070
     1
1071
      107
1005
0
  0
ATTDEF
  5
4D09
330
4CCD
100
AcDbEntity
  8
AM_BOR
100
AcDbText
 10
-182.4417068470376
 20
4.91474881261638
 30
0.0
 40
2.0
  1

100
AcDbAttributeDefinition
280
     0
  3
CN 1
  2
CN_INDEX_1
 70
     0
280
     1
1001
ACDBBLOCKREPETAG
1070
     1
1071
      108
1005
0
  0
ATTDEF
  5
4D0A
330
4CCD
100
AcDbEntity
  8
AM_BOR
100
AcDbText
 10
-182.5191964129061
 20
9.082688092545652
 30
0.0
 40
2.0
  1

100
AcDbAttributeDefinition
280
     0
  3
CN 2
  2
CN_INDEX_2
 70
     0
280
     1
1001
ACDBBLOCKREPETAG
1070
     1
1071
      109
1005
0
  0
ATTDEF
  5
4D0B
330
4CCD
100
AcDbEntity
  8
AM_BOR
100
AcDbText
 10
-182.5191964129061
 20
13.30491037596545
 30
0.0
 40
2.0
  1

100
AcDbAttributeDefinition
280
     0
  3
CN 3
  2
CN_INDEX_3
 70
     0
280
     1
1001
ACDBBLOCKREPETAG
1070
     1
1071
      110
1005
0
  0
ATTDEF
  5
4D0C
330
4CCD
100
AcDbEntity
  8
AM_BOR
100
AcDbText
 10
-182.5191964129061
 20
17.52713265937569
 30
0.0
 40
2.0
  1

100
AcDbAttributeDefinition
280
     0
  3
CN 4
  2
CN_INDEX_4
 70
     0
280
     1
1001
ACDBBLOCKREPETAG
1070
     1
1071
      111
1005
0
  0
ATTDEF
  5
4D0D
330
4CCD
100
AcDbEntity
  8
AM_BOR
100
AcDbText
 10
-182.5191964129061
 20
21.74935494500557
 30
0.0
 40
2.0
  1

100
AcDbAttributeDefinition
280
     0
  3
CN 5
  2
CN_INDEX_5
 70
     0
280
     1
1001
ACDBBLOCKREPETAG
1070
     1
1071
      112
1005
0
  0
ATTDEF
  5
4D0E
330
4CCD
100
AcDbEntity
  8
AM_BOR
100
AcDbText
 10
-182.5191964129061
 20
25.97157723063544
 30
0.0
 40
2.0
  1

100
AcDbAttributeDefinition
280
     0
  3
CN 6
  2
CN_INDEX_6
 70
     0
280
     1
1001
ACDBBLOCKREPETAG
1070
     1
1071
      113
1005
0
  0
ATTDEF
  5
4D0F
330
4CCD
100
AcDbEntity
  8
AM_BOR
100
AcDbText
 10
-182.5191964129061
 20
30.1937995162653
 30
0.0
 40
2.0
  1

100
AcDbAttributeDefinition
280
     0
  3
CN 7
  2
CN_INDEX_7
 70
     0
280
     1
1001
ACDBBLOCKREPETAG
1070
     1
1071
      114
1005
0
  0
ATTDEF
  5
4D10
330
4CCD
100
AcDbEntity
  8
AM_BOR
100
AcDbText
 10
-182.5191964129061
 20
34.41602180190563
 30
0.0
 40
2.0
  1

100
AcDbAttributeDefinition
280
     0
  3
CN 8
  2
CN_INDEX_8
 70
     0
280
     1
1001
ACDBBLOCKREPETAG
1070
     1
1071
      115
1005
0
  0
ATTDEF
  5
4D11
330
4CCD
100
AcDbEntity
  8
AM_BOR
100
AcDbText
 10
-177.375281616186
 20
5.055792586602763
 30
0.0
 40
2.0
  1

100
AcDbAttributeDefinition
280
     0
  3
AENDERUNGSGRUND 1
  2
CN_GRUND_1{12}
 70
     0
280
     1
1001
ACDBBLOCKREPETAG
1070
     1
1071
      116
1005
0
  0
ATTDEF
  5
4D12
330
4CCD
100
AcDbEntity
  8
AM_BOR
100
AcDbText
 10
-177.0544632267495
 20
9.499887017944558
 30
0.0
 40
2.0
  1

100
AcDbAttributeDefinition
280
     0
  3
AENDERUNGSGRUND 2
  2
CN_GRUND_2{12}
 70
     0
280
     1
1001
ACDBBLOCKREPETAG
1070
     1
1071
      117
1005
0
  0
ATTDEF
  5
4D13
330
4CCD
100
AcDbEntity
  8
AM_BOR
100
AcDbText
 10
-177.0544632267495
 20
13.72210930136435
 30
0.0
 40
2.0
  1

100
AcDbAttributeDefinition
280
     0
  3
AENDERUNGSGRUND 3
  2
CN_GRUND_3{12}
 70
     0
280
     1
1001
ACDBBLOCKREPETAG
1070
     1
1071
      118
1005
0
  0
ATTDEF
  5
4D14
330
4CCD
100
AcDbEntity
  8
AM_BOR
100
AcDbText
 10
-177.0544632267495
 20
17.9443315847746
 30
0.0
 40
2.0
  1

100
AcDbAttributeDefinition
280
     0
  3
AENDERUNGSGRUND 4
  2
CN_GRUND_4{12}
 70
     0
280
     1
1001
ACDBBLOCKREPETAG
1070
     1
1071
      119
1005
0
  0
ATTDEF
  5
4D15
330
4CCD
100
AcDbEntity
  8
AM_BOR
100
AcDbText
 10
-177.0544632267495
 20
22.16655387040447
 30
0.0
 40
2.0
  1

100
AcDbAttributeDefinition
280
     0
  3
AENDERUNGSGRUND 5
  2
CN_GRUND_5{12}
 70
     0
280
     1
1001
ACDBBLOCKREPETAG
1070
     1
1071
      120
1005
0
  0
ATTDEF
  5
4D16
330
4CCD
100
AcDbEntity
  8
AM_BOR
100
AcDbText
 10
-177.0544632267495
 20
26.38877615603434
 30
0.0
 40
2.0
  1

100
AcDbAttributeDefinition
280
     0
  3
AENDERUNGSGRUND 6
  2
CN_GRUND_6{12}
 70
     0
280
     1
1001
ACDBBLOCKREPETAG
1070
     1
1071
      121
1005
0
  0
ATTDEF
  5
4D17
330
4CCD
100
AcDbEntity
  8
AM_BOR
100
AcDbText
 10
-177.0544632267495
 20
30.61099844166421
 30
0.0
 40
2.0
  1

100
AcDbAttributeDefinition
280
     0
  3
AENDERUNGSGRUND 7
  2
CN_GRUND_7{12}
 70
     0
280
     1
1001
ACDBBLOCKREPETAG
1070
     1
1071
      122
1005
0
  0
ATTDEF
  5
4D18
330
4CCD
100
AcDbEntity
  8
AM_BOR
100
AcDbText
 10
-177.0544632267495
 20
34.83322072730454
 30
0.0
 40
2.0
  1

100
AcDbAttributeDefinition
280
     0
  3
AENDERUNGSGRUND 8
  2
CN_GRUND_8{12}
 70
     0
280
     1
1001
ACDBBLOCKREPETAG
1070
     1
1071
      123
1005
0
  0
ATTDEF
  5
4D19
330
4CCD
100
AcDbEntity
  8
AM_BOR
100
AcDbText
 10
-139.2752815320209
 20
34.57848397178208
 30
0.0
 40
2.0
  1

100
AcDbAttributeDefinition
280
     0
  3
CE8
  2
CN_ERSTELLER_8
 70
     0
280
     1
1001
ACDBBLOCKREPETAG
1070
     1
1071
      124
1005
0
  0
ATTDEF
  5
4D1A
330
4CCD
100
AcDbEntity
  8
AM_BOR
100
AcDbText
 10
-139.1199747843967
 20
30.45025035695159
 30
0.0
 40
2.0
  1

100
AcDbAttributeDefinition
280
     0
  3
CE7
  2
CN_ERSTELLER_7
 70
     0
280
     1
1001
ACDBBLOCKREPETAG
1070
     1
1071
      125
1005
0
  0
ATTDEF
  5
4D1B
330
4CCD
100
AcDbEntity
  8
AM_BOR
100
AcDbText
 10
-139.1199747843967
 20
26.22802807132172
 30
0.0
 40
2.0
  1

100
AcDbAttributeDefinition
280
     0
  3
CE6
  2
CN_ERSTELLER_6
 70
     0
280
     1
1001
ACDBBLOCKREPETAG
1070
     1
1071
      126
1005
0
  0
ATTDEF
  5
4D1C
330
4CCD
100
AcDbEntity
  8
AM_BOR
100
AcDbText
 10
-139.1199747843967
 20
22.00580578569185
 30
0.0
 40
2.0
  1

100
AcDbAttributeDefinition
280
     0
  3
CE5
  2
CN_ERSTELLER_5
 70
     0
280
     1
1001
ACDBBLOCKREPETAG
1070
     1
1071
      127
1005
0
  0
ATTDEF
  5
4D1D
330
4CCD
100
AcDbEntity
  8
AM_BOR
100
AcDbText
 10
-139.1199747843967
 20
17.78358350006198
 30
0.0
 40
2.0
  1

100
AcDbAttributeDefinition
280
     0
  3
CE4
  2
CN_ERSTELLER_4
 70
     0
280
     1
1001
ACDBBLOCKREPETAG
1070
     1
1071
      128
1005
0
  0
ATTDEF
  5
4D1E
330
4CCD
100
AcDbEntity
  8
AM_BOR
100
AcDbText
 10
-139.1199747843967
 20
13.56136121665173
 30
0.0
 40
2.0
  1

100
AcDbAttributeDefinition
280
     0
  3
CE3
  2
CN_ERSTELLER_3
 70
     0
280
     1
1001
ACDBBLOCKREPETAG
1070
     1
1071
      129
1005
0
  0
ATTDEF
  5
4D1F
330
4CCD
100
AcDbEntity
  8
AM_BOR
100
AcDbText
 10
-139.1199747843967
 20
9.339138933231936
 30
0.0
 40
2.0
  1

100
AcDbAttributeDefinition
280
     0
  3
CE2
  2
CN_ERSTELLER_2
 70
     0
280
     1
1001
ACDBBLOCKREPETAG
1070
     1
1071
      130
1005
0
  0
ATTDEF
  5
4D20
330
4CCD
100
AcDbEntity
  8
AM_BOR
100
AcDbText
 10
-139.1199747843967
 20
5.11691664315191
 30
0.0
 40
2.0
  1

100
AcDbAttributeDefinition
280
     0
  3
CE1
  2
CN_ERSTELLER_1
 70
     0
280
     1
1001
ACDBBLOCKREPETAG
1070
     1
1071
      131
1005
0
  0
ATTDEF
  5
4D21
330
4CCD
100
AcDbEntity
  8
AM_BOR
100
AcDbText
 10
-151.8199747843967
 20
5.11691664315191
 30
0.0
 40
2.0
  1

100
AcDbAttributeDefinition
280
     0
  3
CED1
  2
CN_ERSTELLDATUM_1
 70
     0
280
     1
1001
ACDBBLOCKREPETAG
1070
     1
1071
      132
1005
0
  0
ATTDEF
  5
4D22
330
4CCD
100
AcDbEntity
  8
AM_BOR
100
AcDbText
 10
-151.6989380287537
 20
9.41238845376074
 30
0.0
 40
2.0
  1

100
AcDbAttributeDefinition
280
     0
  3
CED2
  2
CN_ERSTELLDATUM_2
 70
     0
280
     1
1001
ACDBBLOCKREPETAG
1070
     1
1071
      133
1005
0
  0
ATTDEF
  5
4D23
330
4CCD
100
AcDbEntity
  8
AM_BOR
100
AcDbText
 10
-151.6989380287537
 20
13.63461073718054
 30
0.0
 40
2.0
  1

100
AcDbAttributeDefinition
280
     0
  3
CED3
  2
CN_ERSTELLDATUM_3
 70
     0
280
     1
1001
ACDBBLOCKREPETAG
1070
     1
1071
      134
1005
0
  0
ATTDEF
  5
4D24
330
4CCD
100
AcDbEntity
  8
AM_BOR
100
AcDbText
 10
-151.6989380287537
 20
17.85683302059078
 30
0.0
 40
2.0
  1

100
AcDbAttributeDefinition
280
     0
  3
CED4
  2
CN_ERSTELLDATUM_4
 70
     0
280
     1
1001
ACDBBLOCKREPETAG
1070
     1
1071
      135
1005
0
  0
ATTDEF
  5
4D25
330
4CCD
100
AcDbEntity
  8
AM_BOR
100
AcDbText
 10
-151.6989380287537
 20
22.07905530622065
 30
0.0
 40
2.0
  1

100
AcDbAttributeDefinition
280
     0
  3
CED5
  2
CN_ERSTELLDATUM_5
 70
     0
280
     1
1001
ACDBBLOCKREPETAG
1070
     1
1071
      136
1005
0
  0
ATTDEF
  5
4D26
330
4CCD
100
AcDbEntity
  8
AM_BOR
100
AcDbText
 10
-151.6989380287537
 20
26.30127759185052
 30
0.0
 40
2.0
  1

100
AcDbAttributeDefinition
280
     0
  3
CED6
  2
CN_ERSTELLDATUM_6
 70
     0
280
     1
1001
ACDBBLOCKREPETAG
1070
     1
1071
      137
1005
0
  0
LINE
  5
4D27
330
4CCD
100
AcDbEntity
  8
AM_BOR
100
AcDbLine
 10
-44.00000066080246
 20
45.92760216890008
 30
0.0
 11
-44.00000066080247
 21
38.0000005707002
 31
0.0
1001
ACDBBLOCKREPETAG
1070
     1
1071
      138
1005
4D27
  0
ATTDEF
  5
4D28
330
4CCD
100
AcDbEntity
  8
AM_BOR
100
AcDbText
 10
-151.6989380287537
 20
30.52349987748039
 30
0.0
 40
2.0
  1

100
AcDbAttributeDefinition
280
     0
  3
CED7
  2
CN_ERSTELLDATUM_7
 70
     0
280
     1
1001
ACDBBLOCKREPETAG
1070
     1
1071
      139
1005
0
  0
TEXT
  5
4D29
330
4CCD
100
AcDbEntity
  8
AM_BOR ( Zeichnungsrahmen)
 62
     7
370
    25
100
AcDbText
 10
-184.45335038526
 20
1.438493882030073
 30
0.0
 40
2.0
  1
Zust.
 72
     1
 11
-181.3483026362832
 21
1.438493882030073
 31
0.0
100
AcDbText
1001
ACDBBLOCKREPETAG
1070
     1
1071
      140
1005
4D29
1001
GENIUS_GENTRA_14
1002
{
1070
     1
1000
GENTRATX,%s,(GENMSG gendwg 60)
1000
Zust.
1000
DEU
1070
     0
1040
1.0
1070
     0
1002
}
  0
TEXT
  5
4D2A
330
4CCD
100
AcDbEntity
  8
AM_BOR ( Zeichnungsrahmen)
 62
     7
370
    25
100
AcDbText
 10
-150.4488082825471
 20
1.438493882030059
 30
0.0
 40
2.0
  1
Datum
 72
     1
 11
-146.3342107382087
 21
1.438493882030059
 31
0.0
100
AcDbText
1001
ACDBBLOCKREPETAG
1070
     1
1071
      141
1005
4D2A
1001
GENIUS_GENTRA_14
1002
{
1070
     1
1000
GENTRATX,%s,(GENMSG gendwg 62)
1000
Datum
1000
DEU
1070
     0
1040
1.0
1070
     0
1002
}
  0
TEXT
  5
4D2B
330
4CCD
100
AcDbEntity
  8
AM_BOR ( Zeichnungsrahmen)
 62
     7
370
    25
100
AcDbText
 10
-177.351305743272
 20
1.438493882030059
 30
0.0
 40
2.0
  1
Änderungen
 72
     1
 11
-169.7401188401342
 21
1.438493882030059
 31
0.0
100
AcDbText
1001
ACDBBLOCKREPETAG
1070
     1
1071
      142
1005
4D2B
1001
GENIUS_GENTRA_14
1002
{
1070
     1
1000
GENTRATX,%s,(GENMSG gendwg 61)
1000
Änderungen
1000
DEU
1070
     0
1040
1.0
1070
     0
1002
}
  0
TEXT
  5
4D2C
330
4CCD
100
AcDbEntity
  8
AM_BOR ( Zeichnungsrahmen)
 62
     7
370
    25
100
AcDbText
 10
-139.0423371526658
 20
1.438493882028575
 30
0.0
 40
2.0
  1
Name
 41
0.929411990040222
100
AcDbText
1001
ACDBBLOCKREPETAG
1070
     1
1071
      143
1005
4D2C
1001
GENIUS_GENTRA_14
1002
{
1070
     1
1000
GENTRATX{3.31},%s,(GENMSG gendwg 63)
1000
Name
1000
DEU
1070
     0
1040
1.0
1070
     0
1002
}
  0
ATTDEF
  5
4D2D
330
4CCD
100
AcDbEntity
  8
AM_BOR
100
AcDbText
 10
-151.6989380287537
 20
34.74572216312072
 30
0.0
 40
2.0
  1

100
AcDbAttributeDefinition
280
     0
  3
CED8
  2
CN_ERSTELLDATUM_8
 70
     0
280
     1
1001
ACDBBLOCKREPETAG
1070
     1
1071
      144
1005
0
  0
TEXT
  5
4D2E
330
4CCD
100
AcDbEntity
  8
AM_BOR
100
AcDbText
 10
-85.43612293404317
 20
14.37673137362816
 30
0.0
 40
2.00000003003698
  1
SAP Document No.
 41
1.199999999999999
100
AcDbText
1001
ACDBBLOCKREPETAG
1070
     1
1071
      145
1005
4D2E
  0
TEXT
  5
4D2F
330
4CCD
100
AcDbEntity
  8
AM_BOR
100
AcDbText
 10
-122.2980352139722
 20
10.08716226564962
 30
0.0
 40
2.00000003003698
  1
Id.No / Material  
 41
1.199999999999999
100
AcDbText
1001
ACDBBLOCKREPETAG
1070
     1
1071
      146
1005
4D2F
  0
TEXT
  5
4D30
330
4CCD
100
AcDbEntity
  8
AM_BOR
100
AcDbText
 10
-45.15481270592011
 20
14.37673137362816
 30
0.0
 40
2.00000003003698
  1
Document Version
 41
1.199999999999999
100
AcDbText
1001
ACDBBLOCKREPETAG
1070
     1
1071
      147
1005
4D30
  0
TEXT
  5
4D31
330
4CCD
100
AcDbEntity
  8
AM_BOR
100
AcDbText
 10
-42.49848128737608
 20
43.74242164564679
 30
0.0
 40
2.00000003003698
  1
Offers - Orders No / Pos.
 41
1.199999999999999
100
AcDbText
1001
ACDBBLOCKREPETAG
1070
     1
1071
      148
1005
4D31
  0
ATTDEF
  5
4D32
330
4CCD
100
AcDbEntity
  8
AM_BOR
100
AcDbText
 10
-106.5281052664257
 20
30.43322603038649
 30
0.0
 40
2.0
  1

100
AcDbAttributeDefinition
280
     0
  3
Name
  2
GEN-TITLE-NAME
 70
     0
280
     1
1001
ACDBBLOCKREPETAG
1070
     1
1071
      149
1005
0
  0
ATTDEF
  5
4D33
330
4CCD
100
AcDbEntity
  8
AM_BOR
100
AcDbText
 10
-151.6989380287537
 20
22.07905530622065
 30
0.0
 40
2.0
  1

100
AcDbAttributeDefinition
280
     0
  3
CED5
  2
CN_ERSTELLDATUM_5
 70
     0
280
     1
1001
ACDBBLOCKREPETAG
1070
     1
1071
      150
1005
0
  0
ATTDEF
  5
4D34
330
4CCD
100
AcDbEntity
  8
AM_BOR
100
AcDbText
 10
-151.6989380287537
 20
26.30127759185052
 30
0.0
 40
2.0
  1

100
AcDbAttributeDefinition
280
     0
  3
CED6
  2
CN_ERSTELLDATUM_6
 70
     0
280
     1
1001
ACDBBLOCKREPETAG
1070
     1
1071
      151
1005
0
  0
ATTDEF
  5
4D35
330
4CCD
100
AcDbEntity
  8
AM_BOR
100
AcDbText
 10
-151.6989380287537
 20
30.52349987748039
 30
0.0
 40
2.0
  1

100
AcDbAttributeDefinition
280
     0
  3
CED7
  2
CN_ERSTELLDATUM_7
 70
     0
280
     1
1001
ACDBBLOCKREPETAG
1070
     1
1071
      152
1005
0
  0
ATTDEF
  5
4D36
330
4CCD
100
AcDbEntity
  8
AM_BOR
100
AcDbText
 10
-151.6989380287537
 20
34.74572216312072
 30
0.0
 40
2.0
  1

100
AcDbAttributeDefinition
280
     0
  3
CED8
  2
CN_ERSTELLDATUM_8
 70
     0
280
     1
1001
ACDBBLOCKREPETAG
1070
     1
1071
      153
1005
0
  0
ATTDEF
  5
4D37
330
4CCD
100
AcDbEntity
  8
AM_BOR
100
AcDbText
 10
-176.5296497881917
 20
26.38877615603434
 30
0.0
 40
2.0
  1

100
AcDbAttributeDefinition
280
     0
  3
AENDERUNGSGRUND 6
  2
CN_GRUND_6{12}
 70
     0
280
     1
1001
ACDBBLOCKREPETAG
1070
     1
1071
      154
1005
0
  0
ATTDEF
  5
4D38
330
4CCD
100
AcDbEntity
  8
AM_BOR
100
AcDbText
 10
-176.9900254892366
 20
30.24715732304549
 30
0.0
 40
2.0
  1

100
AcDbAttributeDefinition
280
     0
  3
AENDERUNGSGRUND 7
  2
CN_GRUND_7{12}
 70
     0
280
     1
1001
ACDBBLOCKREPETAG
1070
     1
1071
      155
1005
0
  0
ATTDEF
  5
4D39
330
4CCD
100
AcDbEntity
  8
AM_BOR
100
AcDbText
 10
-176.5296497881917
 20
34.83322072730454
 30
0.0
 40
2.0
  1

100
AcDbAttributeDefinition
280
     0
  3
AENDERUNGSGRUND 8
  2
CN_GRUND_8{12}
 70
     0
280
     1
1001
ACDBBLOCKREPETAG
1070
     1
1071
      156
1005
0
  0
ATTDEF
  5
4D3A
330
4CCD
100
AcDbEntity
  8
AM_BOR
100
AcDbText
 10
-139.1199747843967
 20
22.00580578569185
 30
0.0
 40
2.0
  1

100
AcDbAttributeDefinition
280
     0
  3
CE5
  2
CN_ERSTELLER_5
 70
     0
280
     1
1001
ACDBBLOCKREPETAG
1070
     1
1071
      157
1005
0
  0
ATTDEF
  5
4D3B
330
4CCD
100
AcDbEntity
  8
AM_BOR
100
AcDbText
 10
-139.1199747843967
 20
26.22802807132172
 30
0.0
 40
2.0
  1

100
AcDbAttributeDefinition
280
     0
  3
CE6
  2
CN_ERSTELLER_6
 70
     0
280
     1
1001
ACDBBLOCKREPETAG
1070
     1
1071
      158
1005
0
  0
ATTDEF
  5
4D3C
330
4CCD
100
AcDbEntity
  8
AM_BOR
100
AcDbText
 10
-139.1199747843967
 20
30.45025035695159
 30
0.0
 40
2.0
  1

100
AcDbAttributeDefinition
280
     0
  3
CE7
  2
CN_ERSTELLER_7
 70
     0
280
     1
1001
ACDBBLOCKREPETAG
1070
     1
1071
      159
1005
0
  0
TEXT
  5
4D3D
330
4CCD
100
AcDbEntity
  8
AM_BOR
100
AcDbText
 10
-128.6393677478436
 20
19.1487673346287
 30
0.0
 40
1.154205483573934
  1
Copyright according to DIN 34 / ISO 16016
100
AcDbText
1001
ACDBBLOCKREPETAG
1070
     1
1071
      160
1005
4D3D
  0
TEXT
  5
4D3E
330
4CCD
100
AcDbEntity
  8
AM_BOR
100
AcDbText
 10
-128.7222569611483
 20
17.41300591102624
 30
0.0
 40
1.154205483573934
  1
Reprint with our permission only!
100
AcDbText
1001
ACDBBLOCKREPETAG
1070
     1
1071
      161
1005
4D3E
  0
TEXT
  5
4D3F
330
4CCD
100
AcDbEntity
  8
AM_BOR
100
AcDbText
 10
-128.651691557238
 20
15.43748322428479
 30
0.0
 40
1.154205483573934
  1
Schutzvermerk nach DIN 34 / ISO 16016 beachten
100
AcDbText
1001
ACDBBLOCKREPETAG
1070
     1
1071
      162
1005
4D3F
  0
TEXT
  5
4D40
330
4CCD
100
AcDbEntity
  8
AM_BOR
100
AcDbText
 10
-128.7440387726074
 20
13.81178587705742
 30
0.0
 40
1.154205483573934
  1
Nachdruck nur mit unserer Genehmigung!
100
AcDbText
1001
ACDBBLOCKREPETAG
1070
     1
1071
      163
1005
4D40
  0
HATCH
  5
4D41
330
4CCD
100
AcDbEntity
  8
AM_BOR
 62
   123
420
  3784885
100
AcDbHatch
 10
0.0
 20
0.0
 30
0.0
210
0.0
220
0.0
230
1.0
  2
SOLID
 70
     1
 71
     0
 91
       14
 92
        7
 72
     1
 73
     1
 93
        4
 10
-159.0903778103951
 20
39.59494383570694
 42
-0.2120320915404438
 10
-159.0903778103951
 20
42.70801643285671
 42
0.0
 10
-180.9984115809842
 20
42.70801643285671
 42
-0.2120320915404437
 10
-180.9984115809842
 20
39.59494383570694
 42
0.0
 97
        0
 92
       22
 72
     0
 73
     1
 93
       41
 10
-170.4173134944525
 20
42.23945428920932
 10
-169.9840409756095
 20
42.23945428920932
 10
-169.7083887470394
 20
41.22408637280114
 10
-169.6944595120882
 20
41.15737266854785
 10
-169.6856621005349
 20
41.11558496368459
 10
-169.6709997479509
 20
41.04447255365045
 10
-169.653181028316
 20
40.95368193455788
 10
-169.6424081604135
 20
41.02981020106912
 10
-169.6314113959757
 20
41.09652390532467
 10
-169.6174821610216
 20
41.17350125638735
 10
-169.6057522789535
 20
41.22408637280115
 10
-169.3616241084391
 20
42.23945428920932
 10
-168.9232197661919
 20
42.23945428920933
 10
-168.6812909485641
 20
41.23581625486727
 10
-168.6651623607216
 20
41.1647038448364
 10
-168.6556318315425
 20
41.11265249316618
 10
-168.6439019494758
 20
41.04154008313508
 10
-168.6309938165433
 20
40.95441018584168
 10
-168.6160434795674
 20
41.03200955396405
 10
-168.6021142446126
 20
41.10385508161537
 10
-168.5999148917251
 20
41.11558496368282
 10
-168.5830531862543
 20
41.19476166763453
 10
-168.5727895394456
 20
41.24021496064332
 10
-168.303002251909
 20
42.23945428920932
 10
-167.8682634978075
 20
42.23945428920932
 10
-168.4408283661941
 20
40.23950939681717
 10
-168.8169177099613
 20
40.23950939681717
 10
-169.0955024090482
 20
41.41396383875655
 10
-169.1101647616317
 20
41.48507624878664
 10
-169.1226277613276
 20
41.55765489407506
 10
-169.1321582905069
 20
41.63023353936377
 10
-169.1394894667983
 20
41.70867712568617
 10
-169.1416888196863
 20
41.73067065456114
 10
-169.1504862312364
 20
41.65296018586788
 10
-169.161482995674
 20
41.57818218769391
 10
-169.1629492309324
 20
41.56718542325541
 10
-169.1761453482577
 20
41.49167430744994
 10
-169.1908077008412
 20
41.41689630927347
 10
-169.1915408184701
 20
41.41249760349902
 10
-169.4671930470404
 20
40.23950939681717
 10
-169.8454817436952
 20
40.23950939681717
 97
        0
 92
       22
 72
     0
 73
     1
 93
      126
 10
-171.3960255294025
 20
40.23950939681718
 10
-171.6709446403435
 20
40.23950939681718
 10
-171.7022133531894
 20
40.37388035201977
 10
-171.7039349336564
 20
40.43671803906498
 10
-171.7039349336564
 20
40.48657003784951
 10
-171.744256403261
 20
40.42278880411124
 10
-171.7926421667869
 20
40.36633874666464
 10
-171.8490922242334
 20
40.31721986550983
 10
-171.9210868146267
 20
40.27005099594173
 10
-172.0015806911019
 20
40.23437757341295
 10
-172.0704937482444
 20
40.21238404453765
 10
-172.1438055111621
 20
40.19625545669579
 10
-172.2222490974838
 20
40.1867249275165
 10
-172.3021589190641
 20
40.18379245699979
 10
-172.3828018582735
 20
40.1867249275165
 10
-172.460512326966
 20
40.19478922143743
 10
-172.5352903251421
 20
40.20871845639179
 10
-172.6071358528013
 20
40.22777951475037
 10
-172.6753157923145
 20
40.25197239651315
 10
-172.7405632613112
 20
40.28203021930939
 10
-172.8021451421622
 20
40.31721986550978
 10
-172.8615276701253
 20
40.35827445274366
 10
-172.9172446099428
 20
40.40519398101095
 10
-172.9775086599135
 20
40.46378402959365
 10
-173.031610960094
 20
40.52835774271243
 10
-173.0719324296992
 20
40.58554091778833
 10
-173.1085883111577
 20
40.64565656338086
 10
-173.1408454868417
 20
40.70870467949035
 10
-173.1687039567503
 20
40.77541838374513
 10
-173.192896838513
 20
40.84433144088754
 10
-173.2119578968714
 20
40.91691008617563
 10
-173.2273533670842
 20
40.99168808435245
 10
-173.2383501315218
 20
41.07013167067377
 10
-173.2449481901843
 20
41.15150772751255
 10
-173.247204422888
 20
41.2379966478163
 10
-173.2449481901844
 20
41.32598972325578
 10
-173.2383501315218
 20
41.40883201535308
 10
-173.2280864847134
 20
41.48800871930332
 10
-173.2134241321299
 20
41.56351983510958
 10
-173.1943630737713
 20
41.63609848039747
 10
-173.1709033096378
 20
41.70574465516876
 10
-173.1430448397289
 20
41.77172524179482
 10
-173.1115207816742
 20
41.8347733579042
 10
-173.0755980178448
 20
41.89415588586746
 10
-173.0352765482403
 20
41.9498728256845
 10
-172.9864126261646
 20
42.00754827469206
 10
-172.9341063154142
 20
42.05910735243172
 10
-172.8798556108548
 20
42.10529376307013
 10
-172.8219393181498
 20
42.14561523267475
 10
-172.7610905549284
 20
42.1815379965044
 10
-172.6965762035607
 20
42.21159581930066
 10
-172.6283962640475
 20
42.23725493632173
 10
-172.5572838540174
 20
42.25851534756789
 10
-172.4832389734706
 20
42.27391081778058
 10
-172.4047953871487
 20
42.28417446458906
 10
-172.3241524479395
 20
42.29003940562246
 10
-172.2713679786384
 20
42.29077252325163
 10
-172.1870594512834
 20
42.28857317036412
 10
-172.1064165120742
 20
42.28050887644319
 10
-172.0294391610105
 20
42.26804587674719
 10
-171.9561273980931
 20
42.25045105364698
 10
-171.8864812233213
 20
42.22699128951332
 10
-171.8205006366954
 20
42.19913281960463
 10
-171.7589187558446
 20
42.16614252629164
 10
-171.6886984528091
 20
42.12049932931865
 10
-171.6247582297054
 20
42.06497229346552
 10
-171.5749062309213
 20
42.01218782416467
 10
-171.5309191731708
 20
41.95500464908896
 10
-171.4927970564536
 20
41.89342276823825
 10
-171.46053988077
 20
41.82744218161214
 10
-171.4341476461195
 20
41.75632977158232
 10
-171.4136203525028
 20
41.68081865577739
 10
-171.4011573528067
 20
41.61630430440971
 10
-171.8205006366954
 20
41.61630430440971
 10
-171.8476259889749
 20
41.6918154202148
 10
-171.8842818704336
 20
41.75779600684065
 10
-171.9304682810718
 20
41.81351294665812
 10
-171.9766546917099
 20
41.85383441626274
 10
-172.0367703373022
 20
41.88975718009233
 10
-172.1049502768157
 20
41.91468317948435
 10
-172.1797282749916
 20
41.93007864969703
 10
-172.2618374494594
 20
41.93521047310127
 10
-172.2633036847177
 20
41.93521047310127
 10
-172.3446797415563
 20
41.93081176732622
 10
-172.4194577397322
 20
41.91688253237189
 10
-172.489103914504
 20
41.89415588586738
 10
-172.5521520306131
 20
41.86189871018362
 10
-172.6093352056886
 20
41.82084412294989
 10
-172.659920322102
 20
41.77025900653641
 10
-172.6731164394272
 20
41.75486353632384
 10
-172.7105054385149
 20
41.70207906702329
 10
-172.7427626141988
 20
41.64342965668913
 10
-172.7691548488492
 20
41.57891530532161
 10
-172.7904152600953
 20
41.50853601292098
 10
-172.805810730308
 20
41.43229177948639
 10
-172.8153412594872
 20
41.35091572264795
 10
-172.8190068476333
 20
41.26294160715043
 10
-172.8197399652623
 20
41.24314743115937
 10
-172.8168074947456
 20
41.15517331565769
 10
-172.8080100831955
 20
41.07306414119027
 10
-172.7940808482412
 20
40.9960867901267
 10
-172.7735535546241
 20
40.92424126246724
 10
-172.747894437603
 20
40.85826067584163
 10
-172.7163703795486
 20
40.79814503024936
 10
-172.6797144980897
 20
40.74316120806105
 10
-172.6687177336518
 20
40.72996509073563
 10
-172.6188657348681
 20
40.67644750380607
 10
-172.5631487950507
 20
40.63172732842632
 10
-172.5015669141999
 20
40.59653768222588
 10
-172.4341200923158
 20
40.57087856520474
 10
-172.3615414470273
 20
40.5532837421045
 10
-172.2830978607054
 20
40.54595256581275
 10
-172.25230692028
 20
40.54521944818358
 10
-172.1731302163291
 20
40.5503512715878
 10
-172.0990853357824
 20
40.56647985942965
 10
-172.0316385138981
 20
40.59213897645082
 10
-171.968590397789
 20
40.62952797553888
 10
-171.9253364576676
 20
40.66471762173923
 10
-171.8747513412544
 20
40.71750209103994
 10
-171.8344298716497
 20
40.77688461900334
 10
-171.8029058135952
 20
40.84359832325822
 10
-171.7809122847199
 20
40.91691008617588
 10
-171.7706486379114
 20
40.97922508465575
 10
-172.2237153327422
 20
40.97922508465576
 10
-172.2237153327422
 20
41.32159101748095
 10
-171.3960255294025
 20
41.32159101748096
 97
        0
 92
       22
 72
     0
 73
     1
 93
       31
 10
-173.5550569473258
 20
40.23950939681717
 10
-173.9773327017312
 20
40.23950939681717
 10
-174.6195437448893
 20
41.36777742811839
 10
-174.6554665087176
 20
41.43522425000308
 10
-174.6906561549198
 20
41.50340418951617
 10
-174.703119154618
 20
41.52906330653958
 10
-174.7361094479277
 20
41.59651012842099
 10
-174.7683666236117
 20
41.66688942082294
 10
-174.7837620938249
 20
41.70207906702338
 10
-174.7727653293876
 20
41.61703742204046
 10
-174.763967917837
 20
41.542259423861
 10
-174.7588360944329
 20
41.4924074250792
 10
-174.7522380357702
 20
41.40736578009435
 10
-174.7507718005119
 20
41.35678066368111
 10
-174.7507718005119
 20
40.23950939681717
 10
-175.1569189670754
 20
40.23950939681717
 10
-175.1569189670754
 20
42.23945428920932
 10
-174.7251126834908
 20
42.23945428920932
 10
-174.0777698169284
 20
41.1016557287283
 10
-174.0506444646499
 20
41.04593878891245
 10
-174.0169210537048
 20
40.97555949650781
 10
-173.9861301132843
 20
40.91031202751608
 10
-173.9531398199684
 20
40.84066585274172
 10
-173.9245482324305
 20
40.77835085426151
 10
-173.9362781144972
 20
40.86046002872798
 10
-173.9458086436764
 20
40.93450490927565
 10
-173.9502073494517
 20
40.97409326125207
 10
-173.9560722904851
 20
41.05693555334853
 10
-173.9582716433726
 20
41.1177843165702
 10
-173.9582716433726
 20
42.23945428920932
 10
-173.5550569473258
 20
42.23945428920932
 97
        0
 92
       22
 72
     0
 73
     1
 93
        8
 10
-167.799350440665
 20
40.23950939681717
 10
-167.0852938698476
 20
42.23945428920933
 10
-166.6051018227373
 20
42.23945428920933
 10
-165.8895790166615
 20
40.23950939681717
 10
-166.345578182009
 20
40.23950939681717
 10
-166.4797387081482
 20
40.6507883867849
 10
-167.2128563373243
 20
40.65078838678491
 10
-167.3470168634634
 20
40.23950939681717
 97
        0
 92
        6
 72
     0
 73
     1
 93
        9
 10
-167.0984899871728
 20
41.00928290745198
 10
-166.8922695751385
 20
41.65972721781092
 10
-166.8748891102749
 20
41.73287000744648
 10
-166.8726897573866
 20
41.7424005366274
 10
-166.8602267576906
 20
41.81864477006226
 10
-166.8448312874775
 20
41.74533300714358
 10
-166.8411656993318
 20
41.72993753693158
 10
-166.8177059351986
 20
41.65442642112632
 10
-166.6051018227373
 20
41.00928290745198
 97
        0
 92
       22
 72
     0
 73
     1
 93
        4
 10
-175.5205453111467
 20
40.23950939681717
 10
-175.9318243011144
 20
40.23950939681717
 10
-175.9318243011144
 20
42.23945428920931
 10
-175.5205453111467
 20
42.23945428920933
 97
        0
 92
       22
 72
     0
 73
     1
 93
        8
 10
-165.8096691950813
 20
41.8824260038006
 10
-165.8096691950813
 20
42.23945428920932
 10
-164.2173377045111
 20
42.23945428920932
 10
-164.2173377045111
 20
41.8824260038006
 10
-164.8089636312561
 20
41.8824260038006
 10
-164.8089636312561
 20
40.23950939681717
 10
-165.2202426212238
 20
40.23950939681717
 10
-165.2202426212238
 20
41.88242600380061
 97
        0
 92
       22
 72
     0
 73
     1
 93
       13
 10
-176.1341647667671
 20
42.23945428920933
 10
-176.8152310442715
 20
40.23950939681717
 10
-177.2103814463974
 20
40.23950939681717
 10
-177.8980457825645
 20
42.23945428920932
 10
-177.4574420874297
 20
42.23945428920932
 10
-177.062291685304
 20
41.06206737675367
 10
-177.0380988035408
 20
40.98509002568945
 10
-177.0271020391033
 20
40.94550167371342
 10
-177.0088534371606
 20
40.8551276450448
 10
-176.9912923110316
 20
40.94820161352862
 10
-176.9655201582525
 20
41.04300631839406
 10
-176.9589220995898
 20
41.06206737675297
 10
-176.5733022266434
 20
42.23945428920932
 97
        0
 92
       22
 72
     0
 73
     1
 93
       12
 10
-163.9578140637827
 20
42.23945428920933
 10
-162.5069742756434
 20
42.23945428920932
 10
-162.5069742756434
 20
41.89195653297989
 10
-163.5524000148484
 20
41.89195653297988
 10
-163.5524000148484
 20
41.46528207279946
 10
-162.5971477440321
 20
41.46528207279946
 10
-162.597147744032
 20
41.12364925760343
 10
-163.5524000148484
 20
41.12364925760343
 10
-163.5524000148484
 20
40.60900068192188
 10
-162.4541898063428
 20
40.60900068192188
 10
-162.4541898063428
 20
40.23950939681717
 10
-163.9578140637827
 20
40.23950939681717
 97
        0
 92
       22
 72
     0
 73
     1
 93
        4
 10
-178.1047849539921
 20
40.23950939681717
 10
-178.5160639439598
 20
40.23950939681717
 10
-178.5160639439598
 20
42.23945428920931
 10
-178.1047849539921
 20
42.23945428920933
 97
        0
 92
       22
 72
     0
 73
     1
 93
        6
 10
-178.7858512314967
 20
40.60900068192188
 10
-178.7858512314967
 20
40.23950939681718
 10
-180.1714435506393
 20
40.23950939681717
 10
-180.1714435506393
 20
42.23945428920931
 10
-179.7601645606715
 20
42.23945428920932
 10
-179.7601645606716
 20
40.60900068192188
 97
        0
 92
       22
 72
     0
 73
     1
 93
       55
 10
-162.1301518142469
 20
42.23945428920933
 10
-161.2599411884149
 20
42.23945428920931
 10
-161.1639027789929
 20
42.23798805395097
 10
-161.0773948987502
 20
42.23358934817591
 10
-161.001883782945
 20
42.22625817188414
 10
-160.9373694315776
 20
42.21599452507567
 10
-160.8853180799061
 20
42.20426464300888
 10
-160.8127394346177
 20
42.17787240835852
 10
-160.7460257303627
 20
42.14194964452892
 10
-160.6784160337553
 20
42.0901990125578
 10
-160.6250613215487
 20
42.02978264726506
 10
-160.5840067343148
 20
41.96600141352679
 10
-160.5568813820352
 20
41.90515265030497
 10
-160.5363540884183
 20
41.83697271079156
 10
-160.5231579710931
 20
41.76292783024478
 10
-160.5171464065339
 20
41.66931918210827
 10
-160.522424853464
 20
41.58184777583843
 10
-160.5356209707892
 20
41.50487042477502
 10
-160.5583476172936
 20
41.43669048526159
 10
-160.593271866721
 20
41.37160438405597
 10
-160.6411899093906
 20
41.31425984118917
 10
-160.6961737315787
 20
41.26807343055108
 10
-160.7621543182045
 20
41.22995131383403
 10
-160.839131669268
 20
41.19989349103775
 10
-160.839131669268
 20
41.19916037340856
 10
-160.7621543182045
 20
41.17350125638743
 10
-160.6983730844662
 20
41.13537913967025
 10
-160.6415439088194
 20
41.07770176737194
 10
-160.6103989689652
 20
41.01368161322727
 10
-160.5898716753482
 20
40.94770102660119
 10
-160.5759424403939
 20
40.8699905579086
 10
-160.5683816019455
 20
40.77623616114933
 10
-160.5583476172935
 20
40.52615838982482
 10
-160.5583476172936
 20
40.5070973314664
 10
-160.5488170881144
 20
40.41252515730284
 10
-160.5253573239807
 20
40.34507833541851
 10
-160.4879683248927
 20
40.30475686581385
 10
-160.4806371486009
 20
40.30035816003877
 10
-160.480637148601
 20
40.23950939681717
 10
-160.9315044905441
 20
40.23950939681717
 10
-160.9601880662256
 20
40.31818434725781
 10
-160.9740253130363
 20
40.40812645152748
 10
-160.9791571364407
 20
40.48950250836668
 10
-160.9842889598449
 20
40.70137350319837
 10
-160.9923532537657
 20
40.79667879499083
 10
-161.009948076866
 20
40.87365614605459
 10
-161.0356071938873
 20
40.93010620350107
 10
-161.0539351346166
 20
40.95356596763465
 10
-161.1023208981422
 20
40.98728937857671
 10
-161.1705008376556
 20
41.00781667219363
 10
-161.2577418355274
 20
41.01734720137292
 10
-161.2819347172903
 20
41.01734720137292
 10
-161.7174065890209
 20
41.01734720137292
 10
-161.7174065890209
 20
40.23950939681717
 10
-162.1301518142469
 20
40.23950939681717
 97
        0
 92
        6
 72
     0
 73
     1
 93
       15
 10
-161.7174065890209
 20
41.36484495760234
 10
-161.7174065890209
 20
41.8948890034966
 10
-161.219986277625
 20
41.8948890034966
 10
-161.1294462504217
 20
41.88535847431732
 10
-161.0605331932792
 20
41.86336494544203
 10
-161.0062824887201
 20
41.82817529924157
 10
-160.9659610191155
 20
41.7790564180868
 10
-160.9403019020943
 20
41.71234271383183
 10
-160.9315044905441
 20
41.63023353936401
 10
-160.9388356668359
 20
41.55032371778398
 10
-160.9637616662279
 20
41.48214377827056
 10
-161.0082251665567
 20
41.42577041178223
 10
-161.0700637224585
 20
41.39123719225266
 10
-161.1419092501177
 20
41.37144301626493
 10
-161.2284171303604
 20
41.36484495760234
 97
        0
 75
     0
 76
     1
 47
0.032705451459055
 98
       14
 10
-170.6669769587966
 20
41.06509349370128
 10
-170.6669769587966
 20
41.06509349370128
 10
-170.6669769587966
 20
41.06509349370128
 10
-170.6669769587966
 20
41.06509349370128
 10
-170.6669769587966
 20
41.06509349370128
 10
-170.6669769587966
 20
41.06509349370128
 10
-170.6669769587966
 20
41.06509349370128
 10
-170.6669769587966
 20
41.06509349370128
 10
-170.6669769587966
 20
41.06509349370128
 10
-170.6669769587966
 20
41.06509349370128
 10
-170.6669769587966
 20
41.06509349370128
 10
-170.6669769587966
 20
41.06509349370128
 10
-170.6669769587966
 20
41.06509349370128
 10
-170.6669769587966
 20
41.06509349370128
450
        1
451
        0
460
0.0
461
0.0
452
        0
462
0.5299999713897705
453
        2
463
0.0
 63
   123
421
  3784885
463
1.0
 63
   123
421
  3784885
470
LINEAR
1001
ACAD
1010
0.0
1020
0.0
1030
0.0
1001
ACDBBLOCKREPETAG
1070
     1
1071
      164
1005
4D41
  0
HATCH
  5
4D42
330
4CCD
100
AcDbEntity
  8
AM_BOR
 62
   123
420
  3784885
100
AcDbHatch
 10
0.0
 20
0.0
 30
0.0
210
0.0
220
0.0
230
1.0
  2
SOLID
 70
     1
 71
     0
 91
        2
 92
        7
 72
     0
 73
     1
 93
        7
 10
-158.5974339722946
 20
48.31852789685665
 10
-158.5409104150879
 20
47.79119360236695
 10
-158.0967813425871
 20
47.68984318829683
 10
-157.4926664740909
 20
48.08157129524667
 10
-156.8579093464927
 20
49.09804534342623
 10
-157.0356346813845
 20
49.29649823506673
 10
-157.6869970430911
 20
48.97023880637647
 97
        0
 92
        7
 72
     0
 73
     1
 93
        7
 10
-157.4507081829928
 20
50.16023406980679
 10
-156.8466499208865
 20
50.55196032042651
 10
-156.2119482337933
 20
51.56846784929662
 10
-156.3896782088908
 20
51.76688491870657
 10
-157.0410097306871
 20
51.44055838470686
 10
-157.9515262152912
 20
50.78887146175652
 10
-157.8949377358862
 20
50.26155813017653
 97
        0
 75
     0
 76
     1
 47
0.0180176529319187
 98
        3
 10
-157.7872217268443
 20
48.40469096149684
 10
-157.8773433459794
 20
48.38667302315298
 10
-157.156369855084
 20
50.81905633500355
450
        1
451
        0
460
0.0
461
0.0
452
        0
462
0.5299999713897705
453
        2
463
0.0
 63
   123
421
  3784885
463
1.0
 63
   123
421
  3784885
470
LINEAR
1001
ACAD
1010
0.0
1020
0.0
1030
0.0
1001
ACDBBLOCKREPETAG
1070
     1
1071
      165
1005
4D42
  0
HATCH
  5
4D43
330
4CCD
100
AcDbEntity
  8
AM_BOR
 62
   154
420
  1724830
100
AcDbHatch
 10
0.0
 20
0.0
 30
0.0
210
0.0
220
0.0
230
1.0
  2
SOLID
 70
     1
 71
     0
 91
        6
 92
        7
 72
     0
 73
     1
 93
       24
 10
-163.1792158876909
 20
46.71124108927684
 10
-162.8317195423863
 20
46.93734942412675
 10
-161.2107512767893
 20
47.41243559912655
 10
-160.1129984281928
 20
48.11271948044666
 10
-159.5531617954897
 20
48.86941244126679
 10
-159.4717119667897
 20
49.58406677412668
 10
-159.751145355089
 20
50.07162062699666
 10
-160.4958330393914
 20
50.28529193729713
 10
-161.7083169637902
 20
49.95431712734664
 10
-162.9206689461847
 20
49.15026483470674
 10
-163.8834606751901
 20
47.96105665623684
 10
-164.3497719393911
 20
46.73586308208665
 10
-164.3969139358873
 20
46.01523293743678
 10
-164.1424001215914
 20
45.2993942887469
 10
-163.5106108648891
 20
44.82776209809702
 10
-162.5249374656909
 20
44.68657931470665
 10
-161.2438906509909
 20
45.10081129022679
 10
-159.8753877417897
 20
46.04204954416667
 10
-159.8844590604916
 20
46.54213255219696
 10
-160.0549805691902
 20
46.70339950024701
 10
-161.1167995106865
 20
45.77349347570675
 10
-162.2712320490885
 20
45.30388230987677
 10
-162.9158419949948
 20
45.31943884287642
 10
-163.2391081631925
 20
45.68285767943637
 97
        0
 92
       22
 72
     0
 73
     1
 93
        7
 10
-162.6066191544872
 20
47.5296019698671
 10
-162.5630249958907
 20
48.03960205209698
 10
-161.4846277578894
 20
49.22882222012679
 10
-160.6404912705896
 20
49.71804251480666
 10
-160.2286330969858
 20
49.68377038281682
 10
-160.2997054704887
 20
49.09934187651643
 10
-161.2713369686883
 20
48.16007355246661
 97
        0
 92
        7
 72
     0
 73
     1
 93
       52
 10
-165.3680094183931
 20
49.46909119591682
 10
-165.1941204044909
 20
50.12584720943634
 10
-164.7939291538845
 20
50.32750522733652
 10
-164.4300123229899
 20
50.70221777861702
 10
-164.8985227090873
 20
50.82255382299666
 10
-165.7627125486891
 20
50.44700683140669
 10
-169.4734266782891
 20
46.54590157662656
 10
-170.4154555764893
 20
45.68378528312626
 10
-170.8209780958917
 20
45.52564669454653
 10
-170.2710892491873
 20
47.78588385097619
 10
-170.0923353941892
 20
48.87351872783657
 10
-170.1722715182899
 20
49.34594790056681
 10
-170.3714065370935
 20
49.74589194428692
 10
-170.6944830956912
 20
50.05468114510673
 10
-171.1462438391885
 20
50.25364578912643
 10
-171.7314314128947
 20
50.32411616244685
 10
-173.6308808582891
 20
49.87714106323673
 10
-175.50573385709
 20
49.3901492748168
 10
-175.7551561074881
 20
49.39158456892469
 10
-175.8820264555629
 20
48.87313868601456
 10
-172.5025823266901
 20
49.68994983770648
 10
-171.7976565824923
 20
49.79776136926687
 10
-171.4831421857947
 20
49.6787086089966
 10
-171.3594750308897
 20
49.24333065793685
 10
-174.5267687407889
 20
47.61516956662663
 10
-175.1914243210907
 20
47.2257821931666
 10
-175.6447857611842
 20
46.63872190934666
 10
-175.7790034385892
 20
46.12024349635698
 10
-175.6621855425895
 20
45.43270177766678
 10
-175.2174063199912
 20
44.93229835418646
 10
-174.5057991447887
 20
44.69215292666689
 10
-173.5405387451887
 20
44.82664933245672
 10
-172.4391062568888
 20
45.51113368864656
 10
-172.0753756407925
 20
45.19348674746644
 10
-171.67817136269
 20
44.75585769082676
 10
-171.1619618838871
 20
44.69286894103646
 10
-170.1433986920877
 20
45.18679932458684
 10
-168.3643377477913
 20
47.01135290114654
 10
-166.3620151172931
 20
49.27155849203646
 10
-166.2285226223888
 20
49.37409637992635
 10
-166.4861116388914
 20
46.46591806335637
 10
-166.7372487328888
 20
45.67290224650649
 10
-167.0830503987876
 20
45.29169618315649
 10
-167.4371709702885
 20
45.2083656181066
 10
-167.8426227155927
 20
45.41506766908644
 10
-168.1238171859862
 20
46.00842285754692
 10
-168.8758192869849
 20
45.54276305569686
 10
-168.4069485460917
 20
44.97309531327657
 10
-167.6913681892896
 20
44.70261480903667
 10
-166.8331043319907
 20
44.76512879243677
 10
-166.3588689223892
 20
44.97559348575665
 10
-165.9760594220919
 20
45.30101369892687
 97
        0
 92
       22
 72
     0
 73
     1
 93
        9
 10
-171.3039658751935
 20
48.05491061427659
 10
-172.06692224719
 20
46.6198639222166
 10
-172.9811378504877
 20
45.70432051797655
 10
-173.7173709457914
 20
45.3887771420563
 10
-174.3182372937866
 20
45.52612888811647
 10
-174.5516954064936
 20
46.0712458546967
 10
-174.291462324289
 20
46.76249391369668
 10
-172.8618214871886
 20
47.53317143111661
 10
-171.5139293532905
 20
48.16309870194704
 97
        0
 92
        7
 72
     0
 73
     1
 93
       37
 10
-176.0152601917857
 20
48.32868930869682
 10
-175.8820264555629
 20
48.87313868601453
 10
-176.1361467437876
 20
48.81171784951669
 10
-177.0127243640794
 20
48.96062188426068
 10
-177.6083354602873
 20
47.55424044988695
 10
-178.6492225869863
 20
46.12303698135701
 10
-179.6004275379876
 20
45.39977432506696
 10
-180.4149196538913
 20
45.19686234765634
 10
-180.9780782084838
 20
45.3854768016867
 10
-181.3531542931872
 20
46.15075647728681
 10
-181.2461765485918
 20
47.68133446351685
 10
-180.5902118515863
 20
49.38360628733655
 10
-179.5561837432891
 20
50.81679833008678
 10
-178.5321315597887
 20
51.61961933061682
 10
-177.6851758750912
 20
51.85431542209692
 10
-177.6294080540887
 20
51.85325723265663
 10
-177.0178464191907
 20
51.63265273577639
 10
-176.6617378098875
 20
50.88370917822658
 10
-176.8121760628912
 20
49.53673958212234
 10
-176.5271786153884
 20
49.39602715315681
 10
-175.7551561074881
 20
49.3915845689247
 10
-175.6595137205935
 20
49.78241979929681
 10
-175.7520638876943
 20
50.95694755852668
 10
-176.1885394445911
 20
51.77434604606691
 10
-177.0006371085895
 20
52.27311025383681
 10
-178.2107005215861
 20
52.32537305135696
 10
-179.5528497024919
 20
51.82275944483663
 10
-180.8458180739892
 20
50.75265704980669
 10
-181.8349167085893
 20
49.30996533073678
 10
-182.3646363845895
 20
47.8111927676168
 10
-182.4012608124889
 20
46.49584215683669
 10
-182.0247482459875
 20
45.49561679701667
 10
-181.3754928978945
 20
44.90721964278685
 10
-180.3946850340857
 20
44.68409602908645
 10
-179.3964633933923
 20
44.83963169772681
 10
-178.0964236678905
 20
45.52294258034674
 10
-176.9113810675903
 20
46.72548127834655
 97
        0
 92
       23
 72
     0
 73
     1
 93
       10
 10
-177.3973375892878
 20
50.14432986894692
 10
-177.4316297692916
 20
50.68888445899704
 10
-178.158521001786
 20
50.25740769359658
 10
-178.2622332652884
 20
50.11348414810659
 10
-177.8356695246896
 20
49.38843775433671
 10
-177.1824026695889
 20
48.98944509821689
 10
-177.0127243640794
 20
48.96062188426068
 10
-176.8277356239909
 20
49.39742491107647
 10
-176.8121760628913
 20
49.53673958212234
 10
-177.1048761346886
 20
49.68125504505672
 97
        0
 75
     0
 76
     1
 47
0.0323232688425598
 98
        6
 10
-163.4431920496866
 20
47.14565483534278
 10
-163.4431920496866
 20
47.14565483534278
 10
-165.8360003653998
 20
49.02040429807062
 10
-165.8360003653998
 20
49.02040429807062
 10
-176.2479494239395
 20
48.34161588573249
 10
-177.2180069800484
 20
49.66686963004571
450
        1
451
        0
460
0.0
461
0.0
452
        0
462
0.3499999940395355
453
        2
463
0.0
 63
   154
421
  1724830
463
1.0
 63
   154
421
  1724830
470
LINEAR
1001
ACAD
1010
0.0
1020
0.0
1030
0.0
1001
ACDBBLOCKREPETAG
1070
     1
1071
      166
1005
4D43
  0
HATCH
  5
4D44
330
4CCD
100
AcDbEntity
  8
AM_BOR
 62
   154
420
  1724830
100
AcDbHatch
 10
0.0
 20
0.0
 30
0.0
210
0.0
220
0.0
230
1.0
  2
SOLID
 70
     1
 71
     0
 91
        1
 92
        7
 72
     0
 73
     1
 93
        7
 10
-176.5271786153884
 20
49.39602715315681
 10
-176.8121760628912
 20
49.53673958212235
 10
-176.8277356239908
 20
49.39742491107659
 10
-177.0127243640794
 20
48.96062188426069
 10
-176.1361467437877
 20
48.8117178495167
 10
-175.8820264555629
 20
48.87313868601456
 10
-175.7551561074881
 20
49.3915845689247
 97
        0
 75
     0
 76
     1
 47
0.0226559921220775
 98
        1
 10
-176.2840394833299
 20
49.16903645936685
450
        1
451
        0
460
0.0
461
0.0
452
        1
462
0.3499999940395355
453
        2
463
0.0
 63
   154
421
  1724830
463
1.0
 63
   154
421
  1658778
470
LINEAR
1001
ACAD
1010
0.0
1020
0.0
1030
0.0
1001
ACDBBLOCKREPETAG
1070
     1
1071
      167
1005
4D44
  0
TEXT
  5
4D45
330
4CCD
100
AcDbEntity
  8
AM_0
100
AcDbText
 10
-185.1677349473596
 20
61.722285377312
 30
0.0
 40
2.5
  1
Alle scharfen Kanten leicht entgratet  /
100
AcDbText
1001
ACDBBLOCKREPETAG
1070
     1
1071
      168
1005
4D45
  0
TEXT
  5
4D46
330
4CCD
100
AcDbEntity
  8
AM_0
100
AcDbText
 10
-124.6513144576422
 20
61.73169971443048
 30
0.0
 40
2.5
  1
all square edges slightly deburring
100
AcDbText
1001
ACDBBLOCKREPETAG
1070
     1
1071
      169
1005
4D46
  0
ATTDEF
  5
4D47
330
4CCD
100
AcDbEntity
  8
AM_BOR
100
AcDbText
 10
-139.1199747843967
 20
34.67247264259191
 30
0.0
 40
2.0
  1

100
AcDbAttributeDefinition
280
     0
  3
CE8
  2
CN_ERSTELLER_8
 70
     0
280
     1
1001
ACDBBLOCKREPETAG
1070
     1
1071
      170
1005
0
  0
TEXT
  5
4D48
330
4CCD
100
AcDbEntity
  8
AM_0
100
AcDbText
 10
-185.0387037081413
 20
66.6236496165892
 30
0.0
 40
2.5
  1
Oberfläche fettfrei /  surface free of grease
100
AcDbText
1001
ACDBBLOCKREPETAG
1070
     1
1071
      168
1005
4D45
  0
ENDBLK
  5
4D4C
330
4CCD
100
AcDbEntity
  8
0
100
AcDbBlockEnd
  0
BLOCK
  5
4DC4
330
4DC3
100
AcDbEntity
  8
0
100
AcDbBlockBegin
  2
*D5
 70
     1
 10
0.0
 20
0.0
 30
0.0
  3
*D5
  1

  0
LINE
  5
508A
330
4DC3
100
AcDbEntity
  8
AM_5 ( Bemassung)
440
 16777216
100
AcDbLine
 10
3767.413537349957
 20
8257.136529175264
 30
0.0
 11
3767.413537349957
 21
8236.145003724448
 31
0.0
  0
LINE
  5
508B
330
4DC3
100
AcDbEntity
  8
AM_5 ( Bemassung)
440
 16777216
100
AcDbLine
 10
3827.023538245209
 20
8257.136529175264
 30
0.0
 11
3827.023538245209
 21
8236.145003724448
 31
0.0
  0
LINE
  5
508C
330
4DC3
100
AcDbEntity
  8
AM_5 ( Bemassung)
440
 16777216
100
AcDbLine
 10
3769.913537349957
 20
8237.145003724448
 30
0.0
 11
3824.523538245209
 21
8237.145003724448
 31
0.0
  0
SOLID
  5
508D
330
4DC3
100
AcDbEntity
  8
AM_5 ( Bemassung)
440
 16777216
100
AcDbTrace
 10
3769.913537349957
 20
8237.561670391114
 30
0.0
 11
3769.913537349957
 21
8236.728337057781
 31
0.0
 12
3767.413537349957
 22
8237.145003724448
 32
0.0
 13
3767.413537349957
 23
8237.145003724448
 33
0.0
  0
SOLID
  5
508E
330
4DC3
100
AcDbEntity
  8
AM_5 ( Bemassung)
440
 16777216
100
AcDbTrace
 10
3824.523538245209
 20
8237.561670391114
 30
0.0
 11
3824.523538245209
 21
8236.728337057781
 31
0.0
 12
3827.023538245209
 22
8237.145003724448
 32
0.0
 13
3827.023538245209
 23
8237.145003724448
 33
0.0
  0
MTEXT
  5
508F
330
4DC3
100
AcDbEntity
  8
AM_5 ( Bemassung)
 62
     6
440
 16777216
100
AcDbMText
 10
3797.218537797583
 20
8240.454689945458
 30
0.0
 40
3.5
 41
0.0
 46
0.0
 71
     5
 72
     1
  1
 G 2
 73
     1
 44
1.0
  0
POINT
  5
5090
330
4DC3
100
AcDbEntity
  8
Defpoints
 62
     0
440
 16777216
100
AcDbPoint
 10
3767.413537349957
 20
8257.136529175264
 30
0.0
  0
POINT
  5
5091
330
4DC3
100
AcDbEntity
  8
Defpoints
 62
     0
440
 16777216
100
AcDbPoint
 10
3827.023538245209
 20
8257.136529175264
 30
0.0
  0
POINT
  5
5092
330
4DC3
100
AcDbEntity
  8
Defpoints
 62
     0
440
 16777216
100
AcDbPoint
 10
3827.023538245209
 20
8237.145003724448
 30
0.0
  0
ENDBLK
  5
4DC5
330
4DC3
100
AcDbEntity
  8
0
100
AcDbBlockEnd
  0
BLOCK
  5
4DF7
330
4DF6
100
AcDbEntity
  8
0
100
AcDbBlockBegin
  2
*D6
 70
     1
 10
0.0
 20
0.0
 30
0.0
  3
*D6
  1

  0
LINE
  5
51A1
330
4DF6
100
AcDbEntity
  8
AM_5 ( Bemassung)
440
 16777216
100
AcDbLine
 10
3822.168537797583
 20
8319.136529175265
 30
0.0
 11
3822.168537797583
 21
8339.543854520691
 31
0.0
  0
LINE
  5
51A2
330
4DF6
100
AcDbEntity
  8
AM_5 ( Bemassung)
440
 16777216
100
AcDbLine
 10
3772.268537797583
 20
8319.136529175265
 30
0.0
 11
3772.268537797583
 21
8339.543854520691
 31
0.0
  0
LINE
  5
51A3
330
4DF6
100
AcDbEntity
  8
AM_5 ( Bemassung)
440
 16777216
100
AcDbLine
 10
3819.668537797583
 20
8338.543854520692
 30
0.0
 11
3774.768537797583
 21
8338.543854520692
 31
0.0
  0
SOLID
  5
51A4
330
4DF6
100
AcDbEntity
  8
AM_5 ( Bemassung)
440
 16777216
100
AcDbTrace
 10
3819.668537797583
 20
8338.960521187358
 30
0.0
 11
3819.668537797583
 21
8338.127187854025
 31
0.0
 12
3822.168537797583
 22
8338.543854520692
 32
0.0
 13
3822.168537797583
 23
8338.543854520692
 33
0.0
  0
SOLID
  5
51A5
330
4DF6
100
AcDbEntity
  8
AM_5 ( Bemassung)
440
 16777216
100
AcDbTrace
 10
3774.768537797583
 20
8338.960521187358
 30
0.0
 11
3774.768537797583
 21
8338.127187854025
 31
0.0
 12
3772.268537797583
 22
8338.543854520692
 32
0.0
 13
3772.268537797583
 23
8338.543854520692
 33
0.0
  0
MTEXT
  5
51A6
330
4DF6
100
AcDbEntity
  8
AM_5 ( Bemassung)
 62
     6
440
 16777216
100
AcDbMText
 10
3797.218537797583
 20
8341.858315639383
 30
0.0
 40
3.5
 41
0.0
 46
0.0
 71
     5
 72
     1
  1
%%C49
 73
     1
 44
1.0
  0
POINT
  5
51A7
330
4DF6
100
AcDbEntity
  8
Defpoints
 62
     0
440
 16777216
100
AcDbPoint
 10
3822.168537797583
 20
8319.136529175265
 30
0.0
  0
POINT
  5
51A8
330
4DF6
100
AcDbEntity
  8
Defpoints
 62
     0
440
 16777216
100
AcDbPoint
 10
3772.268537797583
 20
8319.136529175265
 30
0.0
  0
POINT
  5
51A9
330
4DF6
100
AcDbEntity
  8
Defpoints
 62
     0
440
 16777216
100
AcDbPoint
 10
3772.268537797583
 20
8338.543854520692
 30
0.0
  0
ENDBLK
  5
4DF8
330
4DF6
100
AcDbEntity
  8
0
100
AcDbBlockEnd
  0
BLOCK
  5
4E4D
330
4E4C
100
AcDbEntity
  8
0
100
AcDbBlockBegin
  2
*D7
 70
     1
 10
0.0
 20
0.0
 30
0.0
  3
*D7
  1

  0
LINE
  5
5282
330
4E4C
100
AcDbEntity
  8
AM_5 ( Bemassung)
440
 16777216
100
AcDbLine
 10
3826.185754778715
 20
8319.136529175265
 30
0.0
 11
3826.185754778715
 21
8333.210470024155
 31
0.0
  0
LINE
  5
5283
330
4E4C
100
AcDbEntity
  8
AM_5 ( Bemassung)
440
 16777216
100
AcDbLine
 10
3768.251320816451
 20
8319.136529175265
 30
0.0
 11
3768.251320816451
 21
8333.210470024155
 31
0.0
  0
LINE
  5
5284
330
4E4C
100
AcDbEntity
  8
AM_5 ( Bemassung)
440
 16777216
100
AcDbLine
 10
3823.685754778715
 20
8332.210470024156
 30
0.0
 11
3770.751320816451
 21
8332.210470024156
 31
0.0
  0
SOLID
  5
5285
330
4E4C
100
AcDbEntity
  8
AM_5 ( Bemassung)
440
 16777216
100
AcDbTrace
 10
3823.685754778715
 20
8332.627136690822
 30
0.0
 11
3823.685754778715
 21
8331.79380335749
 31
0.0
 12
3826.185754778715
 22
8332.210470024156
 32
0.0
 13
3826.185754778715
 23
8332.210470024156
 33
0.0
  0
SOLID
  5
5286
330
4E4C
100
AcDbEntity
  8
AM_5 ( Bemassung)
440
 16777216
100
AcDbTrace
 10
3770.751320816451
 20
8332.627136690822
 30
0.0
 11
3770.751320816451
 21
8331.79380335749
 31
0.0
 12
3768.251320816451
 22
8332.210470024156
 32
0.0
 13
3768.251320816451
 23
8332.210470024156
 33
0.0
  0
MTEXT
  5
5287
330
4E4C
100
AcDbEntity
  8
AM_5 ( Bemassung)
 62
     6
440
 16777216
100
AcDbMText
 10
3796.675051820775
 20
8335.470019819517
 30
0.0
 40
3.5
 41
0.0
 46
0.0
 71
     5
 72
     1
  1
NPT 2
 73
     1
 44
1.0
  0
POINT
  5
5288
330
4E4C
100
AcDbEntity
  8
Defpoints
 62
     0
440
 16777216
100
AcDbPoint
 10
3826.185754778715
 20
8319.136529175265
 30
0.0
  0
POINT
  5
5289
330
4E4C
100
AcDbEntity
  8
Defpoints
 62
     0
440
 16777216
100
AcDbPoint
 10
3768.251320816451
 20
8319.136529175265
 30
0.0
  0
POINT
  5
528A
330
4E4C
100
AcDbEntity
  8
Defpoints
 62
     0
440
 16777216
100
AcDbPoint
 10
3768.251320816451
 20
8332.210470024156
 30
0.0
  0
ENDBLK
  5
4E4E
330
4E4C
100
AcDbEntity
  8
0
100
AcDbBlockEnd
  0
BLOCK
  5
4E80
330
4E7F
100
AcDbEntity
  8
0
100
AcDbBlockBegin
  2
*D8
 70
     1
 10
0.0
 20
0.0
 30
0.0
  3
*D8
  1

  0
LINE
  5
518F
330
4E7F
100
AcDbEntity
  8
AM_5 ( Bemassung)
440
 16777216
100
AcDbLine
 10
3827.023538245209
 20
8257.136529175264
 30
0.0
 11
3877.976204492113
 21
8257.136529175264
 31
0.0
  0
LINE
  5
5190
330
4E7F
100
AcDbEntity
  8
AM_5 ( Bemassung)
440
 16777216
100
AcDbLine
 10
3826.185754778715
 20
8319.136529175265
 30
0.0
 11
3877.976204492113
 21
8319.136529175265
 31
0.0
  0
LINE
  5
5191
330
4E7F
100
AcDbEntity
  8
AM_5 ( Bemassung)
440
 16777216
100
AcDbLine
 10
3876.976204492113
 20
8259.636529175265
 30
0.0
 11
3876.976204492113
 21
8316.636529175264
 31
0.0
  0
SOLID
  5
5192
330
4E7F
100
AcDbEntity
  8
AM_5 ( Bemassung)
440
 16777216
100
AcDbTrace
 10
3876.559537825446
 20
8259.636529175265
 30
0.0
 11
3877.392871158779
 21
8259.636529175265
 31
0.0
 12
3876.976204492113
 22
8257.136529175264
 32
0.0
 13
3876.976204492113
 23
8257.136529175264
 33
0.0
  0
SOLID
  5
5193
330
4E7F
100
AcDbEntity
  8
AM_5 ( Bemassung)
440
 16777216
100
AcDbTrace
 10
3876.559537825446
 20
8316.636529175264
 30
0.0
 11
3877.392871158779
 21
8316.636529175264
 31
0.0
 12
3876.976204492113
 22
8319.136529175265
 32
0.0
 13
3876.976204492113
 23
8319.136529175265
 33
0.0
  0
MTEXT
  5
5194
330
4E7F
100
AcDbEntity
  8
AM_5 ( Bemassung)
 62
     6
440
 16777216
100
AcDbMText
 10
3873.688005310665
 20
8288.136529175265
 30
0.0
 40
3.5
 41
0.0
 46
0.0
 71
     5
 72
     1
  1
62
 11
0.0000000000000001
 21
1.0
 31
0.0
 73
     1
 44
1.0
  0
POINT
  5
5195
330
4E7F
100
AcDbEntity
  8
Defpoints
 62
     0
440
 16777216
100
AcDbPoint
 10
3827.023538245209
 20
8257.136529175264
 30
0.0
  0
POINT
  5
5196
330
4E7F
100
AcDbEntity
  8
Defpoints
 62
     0
440
 16777216
100
AcDbPoint
 10
3826.185754778715
 20
8319.136529175265
 30
0.0
  0
POINT
  5
5197
330
4E7F
100
AcDbEntity
  8
Defpoints
 62
     0
440
 16777216
100
AcDbPoint
 10
3876.976204492113
 20
8319.136529175265
 30
0.0
  0
ENDBLK
  5
4E81
330
4E7F
100
AcDbEntity
  8
0
100
AcDbBlockEnd
  0
BLOCK
  5
4EC0
330
4EBF
100
AcDbEntity
  8
0
100
AcDbBlockBegin
  2
*D9
 70
     1
 10
0.0
 20
0.0
 30
0.0
  3
*D9
  1

  0
LINE
  5
5131
330
4EBF
100
AcDbEntity
  8
AM_5 ( Bemassung)
440
 16777216
100
AcDbLine
 10
3767.418537797583
 20
8257.167277448269
 30
0.0
 11
3737.232081610649
 21
8257.167277448269
 31
0.0
  0
LINE
  5
5132
330
4EBF
100
AcDbEntity
  8
AM_5 ( Bemassung)
440
 16777216
100
AcDbLine
 10
3767.418537797583
 20
8274.136529175263
 30
0.0
 11
3737.232081610649
 21
8274.136529175263
 31
0.0
  0
LINE
  5
5133
330
4EBF
100
AcDbEntity
  8
AM_5 ( Bemassung)
440
 16777216
100
AcDbLine
 10
3738.232081610649
 20
8259.667277448269
 30
0.0
 11
3738.232081610649
 21
8271.636529175266
 31
0.0
  0
SOLID
  5
5134
330
4EBF
100
AcDbEntity
  8
AM_5 ( Bemassung)
440
 16777216
100
AcDbTrace
 10
3737.815414943983
 20
8259.667277448269
 30
0.0
 11
3738.648748277315
 21
8259.667277448269
 31
0.0
 12
3738.232081610649
 22
8257.167277448269
 32
0.0
 13
3738.232081610649
 23
8257.167277448269
 33
0.0
  0
SOLID
  5
5135
330
4EBF
100
AcDbEntity
  8
AM_5 ( Bemassung)
440
 16777216
100
AcDbTrace
 10
3737.815414943983
 20
8271.636529175266
 30
0.0
 11
3738.648748277315
 21
8271.636529175266
 31
0.0
 12
3738.232081610649
 22
8274.136529175263
 32
0.0
 13
3738.232081610649
 23
8274.136529175263
 33
0.0
  0
MTEXT
  5
5136
330
4EBF
100
AcDbEntity
  8
AM_5 ( Bemassung)
 62
     6
440
 16777216
100
AcDbMText
 10
3734.973725539706
 20
8265.651903311766
 30
0.0
 40
3.5
 41
0.0
 46
0.0
 71
     5
 72
     1
  1
17
 11
0.0000000000000001
 21
1.0
 31
0.0
 73
     1
 44
1.0
  0
POINT
  5
5137
330
4EBF
100
AcDbEntity
  8
Defpoints
 62
     0
440
 16777216
100
AcDbPoint
 10
3767.418537797583
 20
8257.167277448269
 30
0.0
  0
POINT
  5
5138
330
4EBF
100
AcDbEntity
  8
Defpoints
 62
     0
440
 16777216
100
AcDbPoint
 10
3767.418537797583
 20
8274.136529175263
 30
0.0
  0
POINT
  5
5139
330
4EBF
100
AcDbEntity
  8
Defpoints
 62
     0
440
 16777216
100
AcDbPoint
 10
3738.232081610649
 20
8274.136529175263
 30
0.0
  0
ENDBLK
  5
4EC1
330
4EBF
100
AcDbEntity
  8
0
100
AcDbBlockEnd
  0
BLOCK
  5
4EF3
330
4EF2
100
AcDbEntity
  8
0
100
AcDbBlockBegin
  2
*D10
 70
     1
 10
0.0
 20
0.0
 30
0.0
  3
*D10
  1

  0
LINE
  5
5143
330
4EF2
100
AcDbEntity
  8
AM_5 ( Bemassung)
440
 16777216
100
AcDbLine
 10
3769.072711751881
 20
8257.136529175264
 30
0.0
 11
3727.232081610645
 21
8257.136529175264
 31
0.0
  0
LINE
  5
5144
330
4EF2
100
AcDbEntity
  8
AM_5 ( Bemassung)
440
 16777216
100
AcDbLine
 10
3767.418537797583
 20
8277.136529175264
 30
0.0
 11
3727.232081610645
 21
8277.136529175264
 31
0.0
  0
LINE
  5
5145
330
4EF2
100
AcDbEntity
  8
AM_5 ( Bemassung)
440
 16777216
100
AcDbLine
 10
3728.232081610645
 20
8259.636529175265
 30
0.0
 11
3728.232081610645
 21
8274.636529175266
 31
0.0
  0
SOLID
  5
5146
330
4EF2
100
AcDbEntity
  8
AM_5 ( Bemassung)
440
 16777216
100
AcDbTrace
 10
3727.815414943979
 20
8259.636529175265
 30
0.0
 11
3728.648748277311
 21
8259.636529175265
 31
0.0
 12
3728.232081610645
 22
8257.136529175264
 32
0.0
 13
3728.232081610645
 23
8257.136529175264
 33
0.0
  0
SOLID
  5
5147
330
4EF2
100
AcDbEntity
  8
AM_5 ( Bemassung)
440
 16777216
100
AcDbTrace
 10
3727.815414943979
 20
8274.636529175266
 30
0.0
 11
3728.648748277311
 21
8274.636529175266
 31
0.0
 12
3728.232081610645
 22
8277.136529175264
 32
0.0
 13
3728.232081610645
 23
8277.136529175264
 33
0.0
  0
MTEXT
  5
5148
330
4EF2
100
AcDbEntity
  8
AM_5 ( Bemassung)
 62
     6
440
 16777216
100
AcDbMText
 10
3724.943882429198
 20
8267.136529175266
 30
0.0
 40
3.5
 41
0.0
 46
0.0
 71
     5
 72
     1
  1
20
 11
0.0000000000000001
 21
1.0
 31
0.0
 73
     1
 44
1.0
  0
POINT
  5
5149
330
4EF2
100
AcDbEntity
  8
Defpoints
 62
     0
440
 16777216
100
AcDbPoint
 10
3769.072711751881
 20
8257.136529175264
 30
0.0
  0
POINT
  5
514A
330
4EF2
100
AcDbEntity
  8
Defpoints
 62
     0
440
 16777216
100
AcDbPoint
 10
3767.418537797583
 20
8277.136529175264
 30
0.0
  0
POINT
  5
514B
330
4EF2
100
AcDbEntity
  8
Defpoints
 62
     0
440
 16777216
100
AcDbPoint
 10
3728.232081610645
 20
8277.136529175264
 30
0.0
  0
ENDBLK
  5
4EF4
330
4EF2
100
AcDbEntity
  8
0
100
AcDbBlockEnd
  0
BLOCK
  5
4F2F
330
4F2E
100
AcDbEntity
  8
0
100
AcDbBlockBegin
  2
*D11
 70
     1
 10
0.0
 20
0.0
 30
0.0
  3
*D11
  1

  0
LINE
  5
5155
330
4F2E
100
AcDbEntity
  8
AM_5 ( Bemassung)
440
 16777216
100
AcDbLine
 10
3825.568537797583
 20
8257.136529175264
 30
0.0
 11
3861.790721504234
 21
8257.136529175264
 31
0.0
  0
LINE
  5
5156
330
4F2E
100
AcDbEntity
  8
AM_5 ( Bemassung)
440
 16777216
100
AcDbLine
 10
3827.368537797583
 20
8288.091385235317
 30
0.0
 11
3861.790721504234
 21
8288.091385235317
 31
0.0
  0
LINE
  5
5157
330
4F2E
100
AcDbEntity
  8
AM_5 ( Bemassung)
440
 16777216
100
AcDbLine
 10
3860.790721504233
 20
8259.636529175265
 30
0.0
 11
3860.790721504233
 21
8285.591385235317
 31
0.0
  0
SOLID
  5
5158
330
4F2E
100
AcDbEntity
  8
AM_5 ( Bemassung)
440
 16777216
100
AcDbTrace
 10
3860.374054837567
 20
8259.636529175265
 30
0.0
 11
3861.2073881709
 21
8259.636529175265
 31
0.0
 12
3860.790721504233
 22
8257.136529175264
 32
0.0
 13
3860.790721504233
 23
8257.136529175264
 33
0.0
  0
SOLID
  5
5159
330
4F2E
100
AcDbEntity
  8
AM_5 ( Bemassung)
440
 16777216
100
AcDbTrace
 10
3860.374054837567
 20
8285.591385235317
 30
0.0
 11
3861.2073881709
 21
8285.591385235317
 31
0.0
 12
3860.790721504233
 22
8288.091385235317
 32
0.0
 13
3860.790721504233
 23
8288.091385235317
 33
0.0
  0
MTEXT
  5
515A
330
4F2E
100
AcDbEntity
  8
AM_5 ( Bemassung)
 62
     6
440
 16777216
100
AcDbMText
 10
3857.502522322786
 20
8272.613957205292
 30
0.0
 40
3.5
 41
0.0
 46
0.0
 71
     5
 72
     1
  1
31
 11
0.0000000000000001
 21
1.0
 31
0.0
 73
     1
 44
1.0
  0
POINT
  5
515B
330
4F2E
100
AcDbEntity
  8
Defpoints
 62
     0
440
 16777216
100
AcDbPoint
 10
3825.568537797583
 20
8257.136529175264
 30
0.0
  0
POINT
  5
515C
330
4F2E
100
AcDbEntity
  8
Defpoints
 62
     0
440
 16777216
100
AcDbPoint
 10
3827.368537797583
 20
8288.091385235317
 30
0.0
  0
POINT
  5
515D
330
4F2E
100
AcDbEntity
  8
Defpoints
 62
     0
440
 16777216
100
AcDbPoint
 10
3860.790721504233
 20
8288.091385235317
 30
0.0
  0
ENDBLK
  5
4F30
330
4F2E
100
AcDbEntity
  8
0
100
AcDbBlockEnd
  0
BLOCK
  5
4F62
330
4F61
100
AcDbEntity
  8
0
100
AcDbBlockBegin
  2
*D12
 70
     1
 10
0.0
 20
0.0
 30
0.0
  3
*D12
  1

  0
LINE
  5
5169
330
4F61
100
AcDbEntity
  8
AM_5 ( Bemassung)
440
 16777216
100
AcDbLine
 10
3823.168537797584
 20
8277.136529175264
 30
0.0
 11
3849.412656803445
 21
8277.136529175264
 31
0.0
  0
LINE
  5
516A
330
4F61
100
AcDbEntity
  8
AM_5 ( Bemassung)
440
 16777216
100
AcDbLine
 10
3822.168537797583
 20
8278.136529175265
 30
0.0
 11
3849.412656803445
 21
8278.136529175265
 31
0.0
  0
LINE
  5
516B
330
4F61
100
AcDbEntity
  8
AM_5 ( Bemassung)
440
 16777216
100
AcDbLine
 10
3848.412656803446
 20
8274.636529175266
 30
0.0
 11
3848.412656803446
 21
8272.136529175265
 31
0.0
  0
LINE
  5
516C
330
4F61
100
AcDbEntity
  8
AM_5 ( Bemassung)
440
 16777216
100
AcDbLine
 10
3848.412656803446
 20
8280.636529175264
 30
0.0
 11
3848.412656803446
 21
8297.835028493137
 31
0.0
  0
LINE
  5
516D
330
4F61
100
AcDbEntity
  8
AM_5 ( Bemassung)
440
 16777216
100
AcDbLine
 10
3848.412656803446
 20
8277.136529175264
 30
0.0
 11
3848.412656803446
 21
8278.136529175265
 31
0.0
  0
SOLID
  5
516E
330
4F61
100
AcDbEntity
  8
AM_5 ( Bemassung)
440
 16777216
100
AcDbTrace
 10
3847.995990136779
 20
8274.636529175266
 30
0.0
 11
3848.829323470112
 21
8274.636529175266
 31
0.0
 12
3848.412656803446
 22
8277.136529175264
 32
0.0
 13
3848.412656803446
 23
8277.136529175264
 33
0.0
  0
SOLID
  5
516F
330
4F61
100
AcDbEntity
  8
AM_5 ( Bemassung)
440
 16777216
100
AcDbTrace
 10
3847.995990136779
 20
8280.636529175264
 30
0.0
 11
3848.829323470112
 21
8280.636529175264
 31
0.0
 12
3848.412656803446
 22
8278.136529175265
 32
0.0
 13
3848.412656803446
 23
8278.136529175265
 33
0.0
  0
MTEXT
  5
5170
330
4F61
100
AcDbEntity
  8
AM_5 ( Bemassung)
 62
     6
440
 16777216
100
AcDbMText
 10
3845.124457621998
 20
8290.485778834201
 30
0.0
 40
3.5
 41
0.0
 46
0.0
 71
     5
 72
     1
  1
1x45°
 11
0.0000000000000001
 21
1.0
 31
0.0
 73
     1
 44
1.0
  0
POINT
  5
5171
330
4F61
100
AcDbEntity
  8
Defpoints
 62
     0
440
 16777216
100
AcDbPoint
 10
3823.168537797584
 20
8277.136529175264
 30
0.0
  0
POINT
  5
5172
330
4F61
100
AcDbEntity
  8
Defpoints
 62
     0
440
 16777216
100
AcDbPoint
 10
3822.168537797583
 20
8278.136529175265
 30
0.0
  0
POINT
  5
5173
330
4F61
100
AcDbEntity
  8
Defpoints
 62
     0
440
 16777216
100
AcDbPoint
 10
3848.412656803446
 20
8278.136529175265
 30
0.0
  0
ENDBLK
  5
4F63
330
4F61
100
AcDbEntity
  8
0
100
AcDbBlockEnd
  0
BLOCK
  5
50EE
330
50ED
100
AcDbEntity
  8
0
100
AcDbBlockBegin
  2
*D13
 70
     1
 10
0.0
 20
0.0
 30
0.0
  3
*D13
  1

  0
LINE
  5
511F
330
50ED
100
AcDbEntity
  8
AM_5 ( Bemassung)
440
 16777216
100
AcDbLine
 10
3797.218537797583
 20
8215.781811235379
 30
0.0
 11
3737.718817314509
 21
8215.781811235379
 31
0.0
  0
LINE
  5
5120
330
50ED
100
AcDbEntity
  8
AM_5 ( Bemassung)
440
 16777216
100
AcDbLine
 10
3797.218537797583
 20
8150.781811235379
 30
0.0
 11
3737.718817314509
 21
8150.781811235379
 31
0.0
  0
LINE
  5
5121
330
50ED
100
AcDbEntity
  8
AM_5 ( Bemassung)
440
 16777216
100
AcDbLine
 10
3738.71881731451
 20
8213.281811235377
 30
0.0
 11
3738.71881731451
 21
8153.281811235379
 31
0.0
  0
SOLID
  5
5122
330
50ED
100
AcDbEntity
  8
AM_5 ( Bemassung)
440
 16777216
100
AcDbTrace
 10
3738.302150647843
 20
8213.281811235377
 30
0.0
 11
3739.135483981176
 21
8213.281811235377
 31
0.0
 12
3738.71881731451
 22
8215.781811235379
 32
0.0
 13
3738.71881731451
 23
8215.781811235379
 33
0.0
  0
SOLID
  5
5123
330
50ED
100
AcDbEntity
  8
AM_5 ( Bemassung)
440
 16777216
100
AcDbTrace
 10
3738.302150647843
 20
8153.281811235379
 30
0.0
 11
3739.135483981176
 21
8153.281811235379
 31
0.0
 12
3738.71881731451
 22
8150.781811235379
 32
0.0
 13
3738.71881731451
 23
8150.781811235379
 33
0.0
  0
MTEXT
  5
5124
330
50ED
100
AcDbEntity
  8
AM_5 ( Bemassung)
 62
     6
440
 16777216
100
AcDbMText
 10
3735.409131093499
 20
8183.28181123538
 30
0.0
 40
3.5
 41
0.0
 46
0.0
 71
     5
 72
     1
  1
SW 65
 11
0.0000000000000001
 21
1.0
 31
0.0
 73
     1
 44
1.0
  0
POINT
  5
5125
330
50ED
100
AcDbEntity
  8
Defpoints
 62
     0
440
 16777216
100
AcDbPoint
 10
3797.218537797583
 20
8215.781811235379
 30
0.0
  0
POINT
  5
5126
330
50ED
100
AcDbEntity
  8
Defpoints
 62
     0
440
 16777216
100
AcDbPoint
 10
3797.218537797583
 20
8150.781811235379
 30
0.0
  0
POINT
  5
5127
330
50ED
100
AcDbEntity
  8
Defpoints
 62
     0
440
 16777216
100
AcDbPoint
 10
3738.71881731451
 20
8150.781811235379
 30
0.0
  0
ENDBLK
  5
50EF
330
50ED
100
AcDbEntity
  8
0
100
AcDbBlockEnd
  0
BLOCK
  5
5215
330
5214
100
AcDbEntity
  8
0
100
AcDbBlockBegin
  2
_ACMFILLED15
 70
     0
 10
0.0
 20
0.0
 30
0.0
  3
_ACMFILLED15
  1

  0
TRACE
  5
5217
330
5214
100
AcDbEntity
  8
AM_2 ( Kontur 0.25)
 62
     0
100
AcDbTrace
 10
-1.0
 20
-0.131652497
 30
0.0
 11
-1.0
 21
0.131652497
 31
0.0
 12
0.0
 22
0.0
 32
0.0
 13
0.0
 23
0.0
 33
0.0
  0
ENDBLK
  5
5216
330
5214
100
AcDbEntity
  8
0
100
AcDbBlockEnd
  0
BLOCK
  5
5223
330
5222
100
AcDbEntity
  8
0
100
AcDbBlockBegin
  2
_ACMNONE
 70
     0
 10
0.0
 20
0.0
 30
0.0
  3
_ACMNONE
  1

  0
LINE
  5
5225
330
5222
100
AcDbEntity
  8
AM_2 ( Kontur 0.25)
 62
     0
100
AcDbLine
 10
-1.0
 20
0.0
 30
0.0
 11
0.0
 21
0.0
 31
0.0
  0
ENDBLK
  5
5224
330
5222
100
AcDbEntity
  8
0
100
AcDbBlockEnd
  0
BLOCK
  5
5227
330
5226
100
AcDbEntity
  8
0
100
AcDbBlockBegin
  2
_ACMFILLED
 70
     0
 10
0.0
 20
0.0
 30
0.0
  3
_ACMFILLED
  1

  0
TRACE
  5
5229
330
5226
100
AcDbEntity
  8
AM_2 ( Kontur 0.25)
 62
     0
100
AcDbTrace
 10
-1.0
 20
-0.166666666
 30
0.0
 11
-1.0
 21
0.166666666
 31
0.0
 12
0.0
 22
0.0
 32
0.0
 13
0.0
 23
0.0
 33
0.0
  0
ENDBLK
  5
5228
330
5226
100
AcDbEntity
  8
0
100
AcDbBlockEnd
  0
BLOCK
  5
5231
330
5230
100
AcDbEntity
  8
0
100
AcDbBlockBegin
  2
_ACMFILLEDHALF
 70
     0
 10
0.0
 20
0.0
 30
0.0
  3
_ACMFILLEDHALF
  1

  0
TRACE
  5
5233
330
5230
100
AcDbEntity
  8
AM_2 ( Kontur 0.25)
 62
     0
100
AcDbTrace
 10
-0.8
 20
0.0
 30
0.0
 11
-1.0
 21
0.166666666
 31
0.0
 12
0.0
 22
0.0
 32
0.0
 13
0.0
 23
0.0
 33
0.0
  0
LINE
  5
5234
330
5230
100
AcDbEntity
  8
AM_2 ( Kontur 0.25)
 62
     0
100
AcDbLine
 10
-1.0
 20
0.0
 30
0.0
 11
-0.8
 21
0.0
 31
0.0
  0
ENDBLK
  5
5232
330
5230
100
AcDbEntity
  8
0
100
AcDbBlockEnd
  0
BLOCK
  5
5255
330
5254
100
AcDbEntity
  8
0
100
AcDbBlockBegin
  2
_ACMFILLED30
 70
     0
 10
0.0
 20
0.0
 30
0.0
  3
_ACMFILLED30
  1

  0
TRACE
  5
5257
330
5254
100
AcDbEntity
  8
AM_2 ( Kontur 0.25)
 62
     0
100
AcDbTrace
 10
-1.0
 20
-0.26794919
 30
0.0
 11
-1.0
 21
0.26794919
 31
0.0
 12
0.0
 22
0.0
 32
0.0
 13
0.0
 23
0.0
 33
0.0
  0
ENDBLK
  5
5256
330
5254
100
AcDbEntity
  8
0
100
AcDbBlockEnd
  0
BLOCK
  5
5263
330
5262
100
AcDbEntity
  8
0
100
AcDbBlockBegin
  2
*D19
 70
     1
 10
0.0
 20
0.0
 30
0.0
  3
*D19
  1

  0
LINE
  5
5279
330
5262
100
AcDbEntity
  8
AM_5 ( Bemassung)
440
 16777216
100
AcDbLine
 10
3772.268537797583
 20
8288.136529175265
 30
0.0
 11
3751.825198340263
 21
8288.136529175265
 31
0.0
  0
LINE
  5
527A
330
5262
100
AcDbEntity
  8
AM_5 ( Bemassung)
440
 16777216
100
AcDbLine
 10
3771.268537797583
 20
8277.136529175264
 30
0.0
 11
3751.825198340263
 21
8277.136529175264
 31
0.0
  0
LINE
  5
527B
330
5262
100
AcDbEntity
  8
AM_5 ( Bemassung)
440
 16777216
100
AcDbLine
 10
3752.825198340263
 20
8285.636529175265
 30
0.0
 11
3752.825198340263
 21
8279.636529175265
 31
0.0
  0
SOLID
  5
527C
330
5262
100
AcDbEntity
  8
AM_5 ( Bemassung)
440
 16777216
100
AcDbTrace
 10
3752.408531673597
 20
8285.636529175265
 30
0.0
 11
3753.24186500693
 21
8285.636529175265
 31
0.0
 12
3752.825198340263
 22
8288.136529175265
 32
0.0
 13
3752.825198340263
 23
8288.136529175265
 33
0.0
  0
SOLID
  5
527D
330
5262
100
AcDbEntity
  8
AM_5 ( Bemassung)
440
 16777216
100
AcDbTrace
 10
3752.408531673597
 20
8279.636529175265
 30
0.0
 11
3753.24186500693
 21
8279.636529175265
 31
0.0
 12
3752.825198340263
 22
8277.136529175264
 32
0.0
 13
3752.825198340263
 23
8277.136529175264
 33
0.0
  0
MTEXT
  5
527E
330
5262
100
AcDbEntity
  8
AM_5 ( Bemassung)
 62
     6
440
 16777216
100
AcDbMText
 10
3749.566842269321
 20
8282.636529175265
 30
0.0
 40
3.5
 41
0.0
 46
0.0
 71
     5
 72
     1
  1
11
 11
0.0000000000000001
 21
1.0
 31
0.0
 73
     1
 44
1.0
  0
POINT
  5
527F
330
5262
100
AcDbEntity
  8
Defpoints
 62
     0
440
 16777216
100
AcDbPoint
 10
3772.268537797583
 20
8288.136529175265
 30
0.0
  0
POINT
  5
5280
330
5262
100
AcDbEntity
  8
Defpoints
 62
     0
440
 16777216
100
AcDbPoint
 10
3771.268537797583
 20
8277.136529175264
 30
0.0
  0
POINT
  5
5281
330
5262
100
AcDbEntity
  8
Defpoints
 62
     0
440
 16777216
100
AcDbPoint
 10
3752.825198340263
 20
8277.136529175264
 30
0.0
  0
ENDBLK
  5
5264
330
5262
100
AcDbEntity
  8
0
100
AcDbBlockEnd
  0
ENDSEC
  0
SECTION
  2
ENTITIES
  0
LINE
  5
4C6A
330
74
100
AcDbEntity
  8
AM_0
100
AcDbLine
 10
3815.982421828054
 20
8258.136529190283
 30
0.0
 11
3815.982421828054
 21
8287.136529160248
 31
0.0
  0
ARC
  5
4C6B
102
{ACAD_REACTORS
330
4ECC
102
}
330
74
100
AcDbEntity
  8
AM_0
100
AcDbCircle
 10
3769.072711751881
 20
8301.646946510411
 30
0.0
 40
44.5104173351459
100
AcDbArc
 50
257.8318861220054
 51
282.1681138779947
  0
ARC
  5
4C6C
330
74
100
AcDbEntity
  8
AM_0
100
AcDbCircle
 10
-3825.364363843285
 20
8301.646946510411
 30
0.0
 40
44.5104173351459
210
0.0
220
0.0
230
-1.0
100
AcDbArc
 50
257.8318861220054
 51
282.1681138779947
  0
LINE
  5
4C6D
330
74
100
AcDbEntity
  8
AM_0
100
AcDbLine
 10
3778.454653767118
 20
8258.136529190283
 30
0.0
 11
3778.454653767118
 21
8287.136529160248
 31
0.0
  0
LINE
  5
4C6E
330
74
100
AcDbEntity
  8
AM_0
100
AcDbLine
 10
3834.746305858519
 20
8258.136529190284
 30
0.0
 11
3834.746305858519
 21
8287.136529160248
 31
0.0
  0
ARC
  5
4C6F
330
74
100
AcDbEntity
  8
AM_0
100
AcDbCircle
 10
3797.218537797583
 20
8433.678198493321
 30
0.0
 40
176.541669318056
100
AcDbArc
 50
263.8987442036993
 51
276.1012557963007
  0
LINE
  5
4C70
330
74
100
AcDbEntity
  8
AM_7 (Mittellinie)
  6
AM_ISO08W050x2
100
AcDbLine
 10
3797.218537797583
 20
8252.146470860941
 30
0.0
 11
3797.218537797583
 21
8325.192619207376
 31
0.0
  0
LINE
  5
4C71
330
74
100
AcDbEntity
  8
AM_0
100
AcDbLine
 10
3759.690769736647
 20
8258.136529190284
 30
0.0
 11
3759.690769736647
 21
8287.136529160248
 31
0.0
  0
LINE
  5
4C72
330
74
100
AcDbEntity
  8
AM_0
100
AcDbLine
 10
3825.364363843285
 20
8257.136529175264
 30
0.0
 11
3769.072711751881
 21
8257.136529175264
 31
0.0
  0
ARC
  5
4C73
330
74
100
AcDbEntity
  8
AM_0
100
AcDbCircle
 10
-3769.072711751884
 20
8243.626111840118
 30
0.0
 40
44.5104173351459
210
0.0
220
0.0
230
-1.0
100
AcDbArc
 50
77.83188612200534
 51
102.1681138779946
  0
ARC
  5
4C74
330
74
100
AcDbEntity
  8
AM_0
100
AcDbCircle
 10
-3797.218537797586
 20
8111.594859857209
 30
0.0
 40
176.541669318056
210
0.0
220
0.0
230
-1.0
100
AcDbArc
 50
83.89874420369933
 51
96.10125579630068
  0
LINE
  5
4C75
330
74
100
AcDbEntity
  8
AM_0
100
AcDbLine
 10
3825.364363843288
 20
8288.136529175265
 30
0.0
 11
3769.072711751884
 21
8288.136529175265
 31
0.0
  0
LINE
  5
4C76
330
74
100
AcDbEntity
  8
AM_0
100
AcDbLine
 10
3827.368537797583
 20
8289.636529175265
 30
0.0
 11
3767.068537797583
 21
8289.636529175265
 31
0.0
  0
ARC
  5
4C77
330
74
100
AcDbEntity
  8
AM_0
100
AcDbCircle
 10
3825.364363843288
 20
8243.626111840118
 30
0.0
 40
44.5104173351459
100
AcDbArc
 50
77.83188612200534
 51
102.1681138779946
  0
LINE
  5
4C78
102
{ACAD_REACTORS
330
4DD0
102
}
330
74
100
AcDbEntity
  8
AM_3
100
AcDbLine
 10
3827.023538245209
 20
8257.136529175264
 30
0.0
 11
3767.413537349957
 21
8257.136529175264
 31
0.0
  0
LINE
  5
4C79
330
74
100
AcDbEntity
  8
AM_3 ( Verdeckt )
100
AcDbLine
 10
3827.018537797584
 20
8257.136529175264
 30
0.0
 11
3827.018537797584
 21
8277.136529175264
 31
0.0
  0
LINE
  5
4C7A
102
{ACAD_REACTORS
330
4F3B
102
}
330
74
100
AcDbEntity
  8
AM_3 ( Verdeckt )
100
AcDbLine
 10
3825.568537797583
 20
8257.136529175264
 30
0.0
 11
3825.568537797583
 21
8274.136529175263
 31
0.0
  0
LINE
  5
4C7B
330
74
100
AcDbEntity
  8
AM_3 ( Verdeckt )
100
AcDbLine
 10
3768.868537797583
 20
8257.136529175264
 30
0.0
 11
3768.868537797583
 21
8274.136529175263
 31
0.0
  0
LINE
  5
4C7C
102
{ACAD_REACTORS
330
4ECC
102
}
330
74
100
AcDbEntity
  8
AM_3 ( Verdeckt )
100
AcDbLine
 10
3767.418537797583
 20
8257.136529175264
 30
0.0
 11
3767.418537797583
 21
8277.136529175264
 31
0.0
  0
LINE
  5
4C7D
102
{ACAD_REACTORS
330
4ECC
102
}
330
74
100
AcDbEntity
  8
AM_3 ( Verdeckt )
  6
AM_ISO02W050x2
100
AcDbLine
 10
3767.418537797583
 20
8274.136529175263
 30
0.0
 11
3827.018537797584
 21
8274.136529175263
 31
0.0
  0
LINE
  5
4C7E
330
74
100
AcDbEntity
  8
AM_3 ( Verdeckt )
  6
AM_ISO02W050x2
100
AcDbLine
 10
3823.168537797584
 20
8277.136529175264
 30
0.0
 11
3827.018537797584
 21
8277.136529175264
 31
0.0
  0
LINE
  5
4C7F
330
74
100
AcDbEntity
  8
AM_0 ( Kontur 0.5 )
100
AcDbLine
 10
3767.068537797583
 20
8289.636529175265
 30
0.0
 11
3767.068537797583
 21
8288.091385235317
 31
0.0
  0
LINE
  5
4C80
102
{ACAD_REACTORS
330
4F3B
102
}
330
74
100
AcDbEntity
  8
AM_0 ( Kontur 0.5 )
100
AcDbLine
 10
3827.368537797583
 20
8289.636529175265
 30
0.0
 11
3827.368537797583
 21
8288.091385235317
 31
0.0
  0
LINE
  5
4C81
330
74
100
AcDbEntity
  8
AM_0 ( Kontur 0.5 )
100
AcDbLine
 10
3767.068537797583
 20
8289.636529175265
 30
0.0
 11
3768.251320816451
 21
8319.136529175265
 31
0.0
  0
LINE
  5
4C82
330
74
100
AcDbEntity
  8
AM_2 ( Kontur 0.25)
100
AcDbLine
 10
3769.066932177098
 20
8289.556404872312
 30
0.0
 11
3770.252927726981
 21
8319.136529175265
 31
0.0
  0
LINE
  5
4C83
330
74
100
AcDbEntity
  8
AM_3 ( Verdeckt )
  6
AM_ISO02W050x2
100
AcDbLine
 10
3772.268537797583
 20
8319.136529175265
 30
0.0
 11
3772.268537797583
 21
8278.136529175265
 31
0.0
  0
LINE
  5
4C84
330
74
100
AcDbEntity
  8
AM_3 ( Verdeckt )
  6
AM_ISO02W050x2
100
AcDbLine
 10
3771.268537797583
 20
8277.136529175264
 30
0.0
 11
3772.268537797583
 21
8278.136529175265
 31
0.0
1001
GENIUS_GENFIL_13
1070
     0
1040
1.0
1040
1.0
1040
0.0
1040
0.0
1002
{
1002
}
1001
GENIUS_GENODEF_13
1002
{
1000
HIER
1070
     0
1002
}
1002
{
1000
MANEDIT
1070
     0
1002
}
1002
{
1000
NOSEL
1070
     0
1002
}
1002
{
1000
BEHIND
1070
     0
1002
}
1002
{
1000
OTHER
1070
     0
1002
}
1002
{
1000
REACTOR
1002
}
1001
GENIUS_GENOBJ-N-CHA_13
1002
{
1000
OWNER
1000
GEN
1002
}
  0
LINE
  5
4C85
330
74
100
AcDbEntity
  8
AM_0 ( Kontur 0.5 )
100
AcDbLine
 10
3827.368537797583
 20
8289.636529175265
 30
0.0
 11
3826.185754778715
 21
8319.136529175265
 31
0.0
  0
LINE
  5
4C86
330
74
100
AcDbEntity
  8
AM_2 ( Kontur 0.25)
100
AcDbLine
 10
3825.370143418068
 20
8289.556404872312
 30
0.0
 11
3824.184147868186
 21
8319.136529175265
 31
0.0
  0
LINE
  5
4C87
330
74
100
AcDbEntity
  8
AM_3 ( Verdeckt )
  6
AM_ISO02W050x2
100
AcDbLine
 10
3822.168537797583
 20
8319.136529175265
 30
0.0
 11
3822.168537797583
 21
8278.136529175265
 31
0.0
  0
LINE
  5
4C88
330
74
100
AcDbEntity
  8
AM_3 ( Verdeckt )
  6
AM_ISO02W050x2
100
AcDbLine
 10
3823.168537797584
 20
8277.136529175264
 30
0.0
 11
3822.168537797583
 21
8278.136529175265
 31
0.0
1001
GENIUS_GENFIL_13
1070
     0
1040
1.0
1040
1.0
1040
0.0
1040
0.0
1002
{
1002
}
1001
GENIUS_GENODEF_13
1002
{
1000
HIER
1070
     0
1002
}
1002
{
1000
MANEDIT
1070
     0
1002
}
1002
{
1000
NOSEL
1070
     0
1002
}
1002
{
1000
BEHIND
1070
     0
1002
}
1002
{
1000
OTHER
1070
     0
1002
}
1002
{
1000
REACTOR
1002
}
1001
GENIUS_GENOBJ-N-CHA_13
1002
{
1000
OWNER
1000
GEN
1002
}
  0
LINE
  5
4C89
330
74
100
AcDbEntity
  8
AM_3 ( Verdeckt )
  6
AM_ISO02W050x2
100
AcDbLine
 10
3772.268537797583
 20
8278.136529175265
 30
0.0
 11
3822.168537797583
 21
8278.136529175265
 31
0.0
  0
LINE
  5
4C8A
330
74
100
AcDbEntity
  8
AM_3 ( Verdeckt )
  6
AM_ISO02W050x2
100
AcDbLine
 10
3767.418537797583
 20
8277.136529175264
 30
0.0
 11
3823.168537797584
 21
8277.136529175264
 31
0.0
  0
LINE
  5
4C8B
102
{ACAD_REACTORS
330
4E59
102
}
330
74
100
AcDbEntity
  8
AM_0 ( Kontur 0.5 )
100
AcDbLine
 10
3768.251320816451
 20
8319.136529175265
 30
0.0
 11
3826.185754778715
 21
8319.136529175265
 31
0.0
  0
DIMENSION
  5
4DC2
102
{ACAD_XDICTIONARY
360
4DCF
102
}
102
{ACAD_REACTORS
330
4DD0
102
}
330
74
100
AcDbEntity
  8
AM_5 ( Bemassung)
100
AcDbDimension
280
     0
  2
*D5
 10
3827.023538245209
 20
8237.145003724448
 30
0.0
 11
3797.218537797583
 21
8240.454689945458
 31
0.0
 70
    32
  1
 G 2
 71
     5
 42
59.61000089525214
 73
     0
 74
     0
 75
     0
  3
BENUTZERDEFINIERTE NORM$0
100
AcDbAlignedDimension
 13
3767.413537349957
 23
8257.136529175264
 33
0.0
 14
3827.023538245209
 24
8257.136529175264
 34
0.0
 50
0.0000000000002036
100
AcDbRotatedDimension
1001
ACAD
1000
DSTYLE
1002
{
1070
    40
1040
1.0
1002
}
1001
ACAD_DSTYLE_DIMINSPECT
1070
   396
1000
100%
1070
   395
1000

1070
   394
1070
    33
1070
   393
1070
     0
  0
DIMENSION
  5
4E4B
102
{ACAD_XDICTIONARY
360
4E58
102
}
102
{ACAD_REACTORS
330
4E59
102
}
330
74
100
AcDbEntity
  8
AM_5 ( Bemassung)
100
AcDbDimension
280
     0
  2
*D7
 10
3768.251320816451
 20
8332.210470024156
 30
0.0
 11
3796.675051820775
 21
8332.210470024156
 31
0.0
 70
   160
  1
NPT 2
 71
     5
 42
57.93443396226485
 73
     0
 74
     0
 75
     0
  3
BENUTZERDEFINIERTE NORM$0
100
AcDbAlignedDimension
 13
3826.185754778715
 23
8319.136529175265
 33
0.0
 14
3768.251320816451
 24
8319.136529175265
 34
0.0
100
AcDbRotatedDimension
1001
ACAD_DSTYLE_DIMINSPECT
1070
   396
1000
100%
1070
   395
1000

1070
   394
1070
    33
1070
   393
1070
     0
1001
ACAD
1000
DSTYLE
1002
{
1070
    40
1040
1.0
1002
}
  0
DIMENSION
  5
4E7E
330
74
100
AcDbEntity
  8
AM_5 ( Bemassung)
100
AcDbDimension
280
     0
  2
*D8
 10
3876.976204492113
 20
8319.136529175265
 30
0.0
 11
3873.688005310665
 21
8288.136529175265
 31
0.0
 70
    32
  1
<>
 71
     5
 42
62.0
 73
     0
 74
     0
 75
     0
  3
BENUTZERDEFINIERTE NORM$0
100
AcDbAlignedDimension
 13
3827.023538245209
 23
8257.136529175264
 33
0.0
 14
3826.185754778715
 24
8319.136529175265
 34
0.0
 50
90.0
100
AcDbRotatedDimension
1001
ACAD
1000
DSTYLE
1002
{
1070
    40
1040
1.0
1002
}
1001
ACAD_DSTYLE_DIMINSPECT
1070
   396
1000
100%
1070
   395
1000

1070
   394
1070
    33
1070
   393
1070
     0
  0
DIMENSION
  5
4EBE
102
{ACAD_XDICTIONARY
360
4ECB
102
}
102
{ACAD_REACTORS
330
4ECC
102
}
330
74
100
AcDbEntity
  8
AM_5 ( Bemassung)
100
AcDbDimension
280
     0
  2
*D9
 10
3738.232081610649
 20
8274.136529175263
 30
0.0
 11
3734.973725539706
 21
8265.651903311766
 31
0.0
 70
    32
  1
17
 71
     5
 42
16.96925172699593
 73
     0
 74
     0
 75
     0
  3
BENUTZERDEFINIERTE NORM$0
100
AcDbAlignedDimension
 13
3767.418537797583
 23
8257.167277448269
 33
0.0
 14
3767.418537797583
 24
8274.136529175263
 34
0.0
 50
90.0
100
AcDbRotatedDimension
1001
ACAD
1000
DSTYLE
1002
{
1070
    40
1040
1.0
1002
}
1001
ACAD_DSTYLE_DIMINSPECT
1070
   396
1000
100%
1070
   395
1000

1070
   394
1070
    33
1070
   393
1070
     0
  0
DIMENSION
  5
4F2D
102
{ACAD_XDICTIONARY
360
4F3A
102
}
102
{ACAD_REACTORS
330
4F3B
102
}
330
74
100
AcDbEntity
  8
AM_5 ( Bemassung)
100
AcDbDimension
280
     0
  2
*D11
 10
3860.790721504233
 20
8288.091385235317
 30
0.0
 11
3857.502522322786
 21
8272.613957205292
 31
0.0
 70
    32
  1
31
 71
     5
 42
30.95485606005241
 73
     0
 74
     0
 75
     0
  3
BENUTZERDEFINIERTE NORM$0
100
AcDbAlignedDimension
 13
3825.568537797583
 23
8257.136529175264
 33
0.0
 14
3827.368537797583
 24
8288.091385235317
 34
0.0
 50
90.0
100
AcDbRotatedDimension
1001
ACAD
1000
DSTYLE
1002
{
1070
    40
1040
1.0
1002
}
1001
ACAD_DSTYLE_DIMINSPECT
1070
   396
1000
100%
1070
   395
1000

1070
   394
1070
    33
1070
   393
1070
     0
  0
LWPOLYLINE
  5
50D7
102
{ACAD_REACTORS
330
50FA
102
}
330
74
100
AcDbEntity
  8
AM_0 ( Kontur 0.5 )
100
AcDbPolyline
 90
        6
 70
     1
 43
0.0
 10
3778.45465404892
 20
8215.781811235379
 10
3759.690770300257
 20
8183.28181123538
 10
3778.45465404892
 20
8150.781811235379
 10
3815.982421546246
 20
8150.781811235379
 10
3834.746305294909
 20
8183.28181123538
 10
3815.982421546246
 20
8215.781811235379
  0
CIRCLE
  5
50DF
330
74
100
AcDbEntity
  8
AM_0 ( Kontur 0.5 )
100
AcDbCircle
 10
3797.218537797583
 20
8183.28181123538
 30
0.0
 40
28.96721698113243
  0
CIRCLE
  5
50E0
330
74
100
AcDbEntity
  8
AM_0 ( Kontur 0.5 )
100
AcDbCircle
 10
3797.218537797583
 20
8183.28181123538
 30
0.0
 40
24.95000000000028
  0
CIRCLE
  5
50E1
330
74
100
AcDbEntity
  8
AM_3 ( Verdeckt )
  6
AM_ISO02W050x2
100
AcDbCircle
 10
3797.218537797583
 20
8183.28181123538
 30
0.0
 40
29.80500044762584
  0
CIRCLE
  5
50E2
330
74
100
AcDbEntity
  8
AM_3 ( Verdeckt )
  6
AM_ISO02W050x2
100
AcDbCircle
 10
3797.218537797583
 20
8183.28181123538
 30
0.0
 40
28.4719244961468
  0
CIRCLE
  5
50E3
330
74
100
AcDbEntity
  8
AM_3 ( Verdeckt )
  6
AM_ISO02W050x2
100
AcDbCircle
 10
3797.218537797583
 20
8183.28181123538
 30
0.0
 40
25.95000000000073
  0
LINE
  5
50E5
330
74
100
AcDbEntity
  8
AM_7 (Mittellinie)
  6
AM_ISO08W050x2
100
AcDbLine
 10
3797.218537797583
 20
8183.28181123538
 30
0.0
 11
3837.078519536913
 21
8183.28181123538
 31
0.0
1001
GENIUS_GENOREF_13
1005
50E9
  0
LINE
  5
50E6
102
{ACAD_REACTORS
330
50FA
102
}
330
74
100
AcDbEntity
  8
AM_7 (Mittellinie)
  6
AM_ISO08W050x2
100
AcDbLine
 10
3797.218537797583
 20
8183.28181123538
 30
0.0
 11
3797.218537797583
 21
8223.141792974708
 31
0.0
1001
GENIUS_GENOREF_13
1005
50E9
  0
LINE
  5
50E7
330
74
100
AcDbEntity
  8
AM_7 (Mittellinie)
  6
AM_ISO08W050x2
100
AcDbLine
 10
3797.218537797583
 20
8183.28181123538
 30
0.0
 11
3757.358556058254
 21
8183.28181123538
 31
0.0
1001
GENIUS_GENOREF_13
1005
50E9
  0
LINE
  5
50E8
102
{ACAD_REACTORS
330
50FA
102
}
330
74
100
AcDbEntity
  8
AM_7 (Mittellinie)
  6
AM_ISO08W050x2
100
AcDbLine
 10
3797.218537797583
 20
8183.28181123538
 30
0.0
 11
3797.218537797583
 21
8143.42182949605
 31
0.0
1001
GENIUS_GENOREF_13
1005
50E9
  0
POINT
  5
50E9
330
74
100
AcDbEntity
  8
0
  6
AM_ISO02W050x2
 60
     1
100
AcDbPoint
 10
0.0
 20
0.0
 30
0.0
1001
GENIUS_GENOLIS_13
1002
{
1000
ENT
1005
50E8
1005
50E7
1005
50E6
1005
50E5
1002
}
1001
GENIUS_GENOENT_13
1002
{
1000
MYREF
1005
50E9
1002
}
1002
{
1000
GRP
1005
0
1002
}
1001
GENIUS_GENOBJ-N-CRS_13
1002
{
1000
OWNER
1000
GEN
1002
}
1001
GENIUS_GENODEF_13
1002
{
1000
HIER
1070
    10
1002
}
1002
{
1000
MANEDIT
1070
     0
1002
}
1002
{
1000
NOSEL
1070
     0
1002
}
1002
{
1000
BEHIND
1070
     0
1002
}
1002
{
1000
OTHER
1070
     0
1002
}
1002
{
1000
REACTOR
1002
}
  0
DIMENSION
  5
50EC
102
{ACAD_XDICTIONARY
360
50F9
102
}
102
{ACAD_REACTORS
330
50FA
102
}
330
74
100
AcDbEntity
  8
AM_5 ( Bemassung)
100
AcDbDimension
280
     0
  2
*D13
 10
3738.71881731451
 20
8150.781811235379
 30
0.0
 11
3735.409131093499
 21
8183.28181123538
 31
0.0
 70
    32
  1
SW <>
 71
     5
 42
64.99999999999818
 73
     0
 74
     0
 75
     0
  3
BENUTZERDEFINIERTE NORM$0
100
AcDbAlignedDimension
 13
3797.218537797583
 23
8215.781811235379
 33
0.0
 14
3797.218537797583
 24
8150.781811235379
 34
0.0
 50
90.0
100
AcDbRotatedDimension
1001
ACAD
1000
DSTYLE
1002
{
1070
    40
1040
1.0
1002
}
1001
ACAD_DSTYLE_DIMINSPECT
1070
   396
1000
100%
1070
   395
1000

1070
   394
1070
    33
1070
   393
1070
     0
  0
ENDSEC
  0
SECTION
  2
OBJECTS
  0
DICTIONARY
  5
C
330
0
100
AcDbDictionary
281
     1
  3
ACAD_CIP_PREVIOUS_PRODUCT_INFO
350
4FBA
  3
ACAD_COLOR
350
6A
  3
ACAD_DETAILVIEWSTYLE
350
51F1
  3
ACAD_FIELDLIST
350
521C
  3
ACAD_GROUP
350
D
  3
ACAD_LAYOUT
350
69
  3
ACAD_MATERIAL
350
10
  3
ACAD_MLEADERSTYLE
350
6D
  3
ACAD_MLINESTYLE
350
66
  3
ACAD_PLOTSETTINGS
350
68
  3
ACAD_PLOTSTYLENAME
350
E
  3
ACAD_RENDER_RAPIDRT_SETTINGS
350
529B
  3
ACAD_SCALELIST
350
3A
  3
ACAD_SECTIONVIEWSTYLE
350
51EF
  3
ACAD_TABLESTYLE
350
6B
  3
ACAD_VISUALSTYLE
350
29
  3
ACDB_RECOMPOSE_DATA
350
52BB
  3
AcDbVariableDictionary
350
1C9
  3
AcmDictionary
350
166
  3
AMG
350
10C
  3
AMGPDM
350
4025
  3
AMGSNAPSETTINGS
350
19B
  3
ASE_INDEX_DICTIONARY
350
988
  0
DICTIONARY
  5
1B6
330
8
100
AcDbDictionary
280
     1
281
     1
  0
DICTIONARY
  5
256
330
2
100
AcDbDictionary
280
     1
281
     1
  3
ACAD_LAYERSTATES
360
1319
  3
AMLAYER_GROUPCOLORS
360
257
  0
DICTIONARY
  5
1A2
330
5C
100
AcDbDictionary
280
     1
281
     1
  3
ADSK_XREC_LAYER_RECONCILED
360
4C05
  0
DICTIONARY
  5
4C06
330
4B04
100
AcDbDictionary
280
     1
281
     1
  3
ADSK_XREC_LAYER_RECONCILED
360
4C07
  0
DICTIONARY
  5
4C08
330
4B2C
100
AcDbDictionary
280
     1
281
     1
  3
ADSK_XREC_LAYER_RECONCILED
360
4C09
  0
DICTIONARY
  5
4C0A
330
4B75
100
AcDbDictionary
280
     1
281
     1
  3
ADSK_XREC_LAYER_RECONCILED
360
4C0B
  0
DICTIONARY
  5
4C3C
330
4C3B
100
AcDbDictionary
280
     1
281
     1
  0
DICTIONARY
  5
4C3E
330
4C3D
100
AcDbDictionary
280
     1
281
     1
  0
DICTIONARY
  5
4CCC
330
4CCB
100
AcDbDictionary
280
     1
281
     1
  0
DICTIONARY
  5
A88
330
74
100
AcDbDictionary
280
     1
281
     1
  3
ACAD_SORTENTS
360
A89
  0
DICTIONARY
  5
4D49
330
4CCD
100
AcDbDictionary
280
     1
281
     1
  3
ACAD_SORTENTS
360
4D4A
  0
DICTIONARY
  5
4DCF
330
4DC2
100
AcDbDictionary
280
     1
281
     1
  3
ACAD_DIMASSOC
360
4DD0
  0
DICTIONARY
  5
4E58
330
4E4B
100
AcDbDictionary
280
     1
281
     1
  3
ACAD_DIMASSOC
360
4E59
  0
DICTIONARY
  5
4ECB
330
4EBE
100
AcDbDictionary
280
     1
281
     1
  3
ACAD_DIMASSOC
360
4ECC
  0
DICTIONARY
  5
4F3A
330
4F2D
100
AcDbDictionary
280
     1
281
     1
  3
ACAD_DIMASSOC
360
4F3B
  0
DICTIONARY
  5
50F9
330
50EC
100
AcDbDictionary
280
     1
281
     1
  3
ACAD_DIMASSOC
360
50FA
  0
XRECORD
  5
4FBA
102
{ACAD_REACTORS
330
C
102
}
330
C
100
AcDbXrecord
280
     1
300
AMECH_PP
300
2016
300
PDSU_F_S
  0
DICTIONARY
  5
6A
102
{ACAD_REACTORS
330
C
102
}
330
C
100
AcDbDictionary
281
     1
  0
DICTIONARY
  5
51F1
102
{ACAD_REACTORS
330
C
102
}
330
C
100
AcDbDictionary
281
     1
  3
Metric50
350
51F2
  0
FIELDLIST
  5
521C
102
{ACAD_REACTORS
330
C
102
}
330
C
100
AcDbIdSet
 90
       22
330
521A
330
521B
330
521D
330
522C
330
522D
330
522E
330
522F
330
5238
330
5239
330
523A
330
523E
330
523F
330
5240
330
5244
330
5245
330
5246
330
524B
330
524C
330
524D
330
5251
330
5252
330
5253
100
AcDbFieldList
  0
DICTIONARY
  5
D
102
{ACAD_REACTORS
330
C
102
}
330
C
100
AcDbDictionary
281
     1
  0
DICTIONARY
  5
69
102
{ACAD_REACTORS
330
C
102
}
330
C
100
AcDbDictionary
281
     1
  3
Layout1
350
73
  3
Model
350
77
  0
DICTIONARY
  5
10
102
{ACAD_REACTORS
330
C
102
}
330
C
100
AcDbDictionary
281
     1
  3
ByBlock
350
19
  3
ByLayer
350
11
  3
Global
350
21
  0
DICTIONARY
  5
6D
102
{ACAD_REACTORS
330
C
102
}
330
C
100
AcDbDictionary
281
     1
  3
Standard
350
4B2B
  0
DICTIONARY
  5
66
102
{ACAD_REACTORS
330
C
102
}
330
C
100
AcDbDictionary
281
     1
  3
Standard
350
67
  0
DICTIONARY
  5
68
102
{ACAD_REACTORS
330
C
102
}
330
C
100
AcDbDictionary
281
     1
  0
ACDBDICTIONARYWDFLT
  5
E
102
{ACAD_REACTORS
330
C
102
}
330
C
100
AcDbDictionary
281
     1
  3
Normal
350
F
100
AcDbDictionaryWithDefault
340
F
  0
DICTIONARY
  5
529B
102
{ACAD_REACTORS
330
C
102
}
330
C
100
AcDbDictionary
281
     1
  3
Hoch
350
529E
  3
Mittagsqualität
350
52A0
  3
Mittel
350
529D
  3
Morgenqualität
350
529F
  3
Nachtqualität
350
52A1
  3
Niedrig
350
529C
  0
DICTIONARY
  5
3A
102
{ACAD_REACTORS
330
C
102
}
330
C
100
AcDbDictionary
281
     1
  3
*A1
350
1318
  3
*A2
350
160C
  3
A0
350
3B
  3
A1
350
3C
  3
A2
350
3D
  3
A3
350
3E
  3
A4
350
3F
  3
A5
350
40
  3
A6
350
41
  3
A7
350
42
  3
A8
350
43
  3
A9
350
44
  3
B0
350
45
  3
B1
350
46
  3
B2
350
47
  3
B3
350
48
  3
B4
350
49
  3
B5
350
4A
  3
B6
350
4B
  3
B7
350
4C
  3
B8
350
4D
  3
B9
350
4E
  3
C0
350
4F
  3
C1
350
50
  3
C2
350
51
  3
C3
350
52
  3
C4
350
53
  3
C5
350
54
  3
C6
350
55
  3
C7
350
56
  3
C8
350
57
  3
C9
350
58
  3
D0
350
59
  3
D1
350
5A
  3
D2
350
5B
  0
DICTIONARY
  5
51EF
102
{ACAD_REACTORS
330
C
102
}
330
C
100
AcDbDictionary
281
     1
  3
Metric50
350
51F0
  0
DICTIONARY
  5
6B
102
{ACAD_REACTORS
330
C
102
}
330
C
100
AcDbDictionary
281
     1
  3
Standard
350
6C
  0
DICTIONARY
  5
29
102
{ACAD_REACTORS
330
C
102
}
330
C
100
AcDbDictionary
281
     1
  3
2dWireframe
350
2F
  3
3D Hidden
350
31
  3
3dWireframe
350
30
  3
Basic
350
2E
  3
Brighten
350
35
  3
ColorChange
350
39
  3
Conceptual
350
32
  3
Dim
350
34
  3
EdgeColorOff
350
4FB0
  3
Facepattern
350
38
  3
Flat
350
2A
  3
FlatWithEdges
350
2B
  3
Gouraud
350
2C
  3
GouraudWithEdges
350
2D
  3
Hidden
350
4FA8
  3
JitterOff
350
4FAE
  3
Linepattern
350
37
  3
OverhangOff
350
4FAF
  3
Realistic
350
33
  3
Shaded
350
4FAD
  3
Shaded with edges
350
4FAC
  3
Shades of Gray
350
4FA9
  3
Sketchy
350
4FAA
  3
Thicken
350
36
  3
Wireframe
350
4FA7
  3
X-Ray
350
4FAB
  0
XRECORD
  5
52BB
102
{ACAD_REACTORS
330
C
102
}
330
C
100
AcDbXrecord
280
     1
 90
        1
330
6C
330
51F0
330
51F2
  0
DICTIONARY
  5
1C9
102
{ACAD_REACTORS
330
C
102
}
330
C
100
AcDbDictionary
281
     1
  3
CANNOSCALE
350
1CC
  3
CMLEADERSTYLE
350
1CB
  3
CTABLESTYLE
350
1CA
  3
CVIEWDETAILSTYLE
350
52B4
  3
CVIEWSECTIONSTYLE
350
52B5
  3
DIMASSOC
350
1CF
  3
INDEXCTL
350
1CE
  3
LAYEREVAL
350
5002
  3
LAYERNOTIFY
350
5003
  3
LIGHTINGUNITS
350
2D3
  3
MSLTSCALE
350
2D2
  3
SORTENTS
350
1CD
  0
DICTIONARY
  5
166
102
{ACAD_REACTORS
330
C
102
}
330
C
100
AcDbDictionary
281
     1
  3
AcmBOM
350
2B6
  3
AcmStdDictionary
350
171
  3
AMDTSECTSYM_ARROWCOLOR
350
186
  0
DICTIONARY
  5
10C
102
{ACAD_REACTORS
330
C
102
}
330
C
100
AcDbDictionary
281
     1
  0
DICTIONARY
  5
4025
102
{ACAD_REACTORS
330
C
102
}
330
C
100
AcDbDictionary
281
     1
  3
SAP_VERSION
350
51B7
  0
DICTIONARY
  5
19B
102
{ACAD_REACTORS
330
C
102
}
330
C
100
AcDbDictionary
281
     1
  0
DICTIONARY
  5
988
102
{ACAD_REACTORS
330
C
102
}
330
C
100
AcDbDictionary
281
     1
  3
ASEBlockHierarchyIndexRecord
350
989
1001
DCO15
1040
1624348201.082
  0
DICTIONARY
  5
1319
102
{ACAD_REACTORS
330
256
102
}
330
256
100
AcDbDictionary
281
     1
  0
DICTIONARY
  5
257
102
{ACAD_REACTORS
330
256
102
}
330
256
100
AcDbDictionary
280
     1
281
     1
  3
Basislayergruppe
360
4B03
  0
XRECORD
  5
4C05
102
{ACAD_REACTORS
330
1A2
102
}
330
1A2
100
AcDbXrecord
280
     1
290
     1
  0
XRECORD
  5
4C07
102
{ACAD_REACTORS
330
4C06
102
}
330
4C06
100
AcDbXrecord
280
     1
290
     1
  0
XRECORD
  5
4C09
102
{ACAD_REACTORS
330
4C08
102
}
330
4C08
100
AcDbXrecord
280
     1
290
     1
  0
XRECORD
  5
4C0B
102
{ACAD_REACTORS
330
4C0A
102
}
330
4C0A
100
AcDbXrecord
280
     1
290
     1
  0
SORTENTSTABLE
  5
A89
102
{ACAD_REACTORS
330
A88
102
}
330
A88
100
AcDbSortentsTable
330
74
331
4C78
  5
4C7A
331
4C83
  5
4C85
331
4C6A
  5
4C6C
331
4C75
  5
4C77
331
4DC2
  5
4E4B
331
4C80
  5
4C82
331
4C72
  5
4C74
331
4F2D
  5
50D5
331
4C7F
  5
4C81
331
4E4B
  5
4EBE
331
4C8A
  5
4CC6
331
4C7C
  5
4C7E
331
4C6E
  5
4C70
331
4C87
  5
4C89
331
4C79
  5
4C7B
331
4C6B
  5
4C6D
331
4C84
  5
4C86
331
4C76
  5
4C78
331
4C81
  5
4C83
331
4C73
  5
4C75
331
4C70
  5
4C72
331
4C8B
  5
4D4F
331
4C7D
  5
4C7F
331
4C6F
  5
4C71
331
4C88
  5
4C8A
331
4C7A
  5
4C7C
331
4C6C
  5
4C6E
331
4C85
  5
4C87
331
4C77
  5
4C79
331
4EBE
  5
4F2D
331
4C82
  5
4C84
331
4C74
  5
4C76
331
4C71
  5
4C73
331
4E7E
  5
4EF1
331
4C7E
  5
4C80
331
4C89
  5
4C8B
331
4C7B
  5
4C7D
331
4C6D
  5
4C6F
331
4C86
  5
4C88
  0
SORTENTSTABLE
  5
4D4A
102
{ACAD_REACTORS
330
4D49
102
}
330
4D49
100
AcDbSortentsTable
330
4CCD
331
4CF5
  5
4CFA
331
4D34
  5
4D38
331
4D16
  5
4D1A
331
4D07
  5
4D0B
331
4D25
  5
4D29
331
4D43
  5
4CF2
331
4D29
  5
4D2D
331
4D0B
  5
4D0F
331
4CFC
  5
4D00
331
4D1A
  5
4D1E
331
4D38
  5
4D3C
331
4D3D
  5
4D41
331
4D1F
  5
4D23
331
4D01
  5
4D05
331
4D10
  5
4D14
331
4D2E
  5
4D32
331
4CF4
  5
4CF9
331
4D33
  5
4D37
331
4D15
  5
4D19
331
4D06
  5
4D0A
331
4D24
  5
4D28
331
4D42
  5
4CF4
331
4D28
  5
4D2C
331
4D0A
  5
4D0E
331
4CFB
  5
4CFF
331
4D19
  5
4D1D
331
4D3C
  5
4D40
331
4D1E
  5
4D22
331
4D2D
  5
4D31
331
4D00
  5
4D04
331
4D0F
  5
4D13
331
4CF3
  5
4CF8
331
4D32
  5
4D36
331
4D41
  5
4CF1
331
4D14
  5
4D18
331
4D23
  5
4D27
331
4D05
  5
4D09
331
4D37
  5
4D3B
331
4D09
  5
4D0D
331
4D18
  5
4D1C
331
4CFA
  5
4CFE
331
4D3B
  5
4D3F
331
4D1D
  5
4D21
331
4D2C
  5
4D30
331
4CFF
  5
4D03
331
4D0E
  5
4D12
331
4CF2
  5
4CF7
331
4D31
  5
4D35
331
4D13
  5
4D17
331
4D22
  5
4D26
331
4D04
  5
4D08
331
4D40
  5
4D44
331
4CF7
  5
4CFC
331
4D27
  5
4D2B
331
4D36
  5
4D3A
331
4D08
  5
4D0C
331
4CF9
  5
4CFD
331
4D3A
  5
4D3E
331
4D1C
  5
4D20
331
4CFE
  5
4D02
331
4D0D
  5
4D11
331
4D2B
  5
4D2F
331
4CF1
  5
4CF6
331
4D30
  5
4D34
331
4D3F
  5
4D43
331
4D12
  5
4D16
331
4D21
  5
4D25
331
4D03
  5
4D07
331
4CF6
  5
4CFB
331
4D44
  5
4CF3
331
4D26
  5
4D2A
331
4D17
  5
4D1B
331
4D35
  5
4D39
331
4CF8
  5
4CF5
331
4D39
  5
4D3D
331
4D1B
  5
4D1F
331
4CFD
  5
4D01
331
4D0C
  5
4D10
331
4D2A
  5
4D2E
331
4D2F
  5
4D33
331
4D11
  5
4D15
331
4D02
  5
4D06
331
4D20
  5
4D24
331
4D3E
  5
4D42
  0
DIMASSOC
  5
4DD0
102
{ACAD_REACTORS
330
4DCF
102
}
330
4DCF
100
AcDbDimAssoc
330
4DC2
 90
        3
 70
     0
 71
     0
  1
AcDbOsnapPointRef
 72
     1
331
4C78
 73
     0
 91
        0
 40
0.0
 10
0.0
 20
0.0
 30
2.000000000000000E+50
 75
     0
  1
AcDbOsnapPointRef
 72
    13
331
4C78
 73
     0
 91
        0
 40
0.0
 10
0.0
 20
0.0
 30
2.000000000000000E+50
 75
     0
  0
DIMASSOC
  5
4E59
102
{ACAD_REACTORS
330
4E58
102
}
330
4E58
100
AcDbDimAssoc
330
4E4B
 90
        3
 70
     0
 71
     0
  1
AcDbOsnapPointRef
 72
     1
331
4C8B
 73
     0
 91
        0
 40
0.0
 10
0.0
 20
0.0
 30
2.000000000000000E+50
 75
     0
  1
AcDbOsnapPointRef
 72
    13
331
4C8B
 73
     0
 91
        0
 40
0.0
 10
0.0
 20
0.0
 30
2.000000000000000E+50
 75
     0
  0
DIMASSOC
  5
4ECC
102
{ACAD_REACTORS
330
4ECB
102
}
330
4ECB
100
AcDbDimAssoc
330
4EBE
 90
        3
 70
     0
 71
     0
  1
AcDbOsnapPointRef
 72
     6
331
4C6B
 73
     0
 91
        0
 40
4.675216671840534
 10
0.0
 20
0.0
 30
0.0
332
4C7C
 74
     0
 92
        0
 75
     0
  1
AcDbOsnapPointRef
 72
    13
331
4C7D
 73
     0
 91
        0
 40
0.0
 10
0.0
 20
0.0
 30
2.000000000000000E+50
 75
     0
  0
DIMASSOC
  5
4F3B
102
{ACAD_REACTORS
330
4F3A
102
}
330
4F3A
100
AcDbDimAssoc
330
4F2D
 90
        3
 70
     0
 71
     0
  1
AcDbOsnapPointRef
 72
    13
331
4C7A
 73
     0
 91
        0
 40
0.0
 10
0.0
 20
0.0
 30
2.000000000000000E+50
 75
     0
  1
AcDbOsnapPointRef
 72
     1
331
4C80
 73
     0
 91
        0
 40
0.0
 10
0.0
 20
0.0
 30
2.000000000000000E+50
 75
     0
  0
DIMASSOC
  5
50FA
102
{ACAD_REACTORS
330
50F9
102
}
330
50F9
100
AcDbDimAssoc
330
50EC
 90
        3
 70
     0
 71
     0
  1
AcDbOsnapPointRef
 72
    11
331
50D7
 73
     2
 91
        6
 40
0.5
 10
0.0
 20
0.0
 30
0.0
332
50E6
 74
     0
 92
        0
 75
     0
  1
AcDbOsnapPointRef
 72
    11
331
50D7
 73
     2
 91
        3
 40
0.5
 10
0.0
 20
0.0
 30
0.0
332
50E8
 74
     0
 92
        0
 75
     0
  0
ACDBDETAILVIEWSTYLE
  5
51F2
102
{ACAD_XDICTIONARY
360
52B9
102
}
102
{ACAD_REACTORS
330
51F1
330
5208
330
520C
330
5210
330
5220
102
}
330
51F1
100
AcDbModelDocViewStyle
 70
     0
  3
Metric50
290
     0
100
AcDbDetailViewStyle
 70
     0
 71
     0
 90
        3
 71
     1
340
5D
 62
   256
 40
5.0
340
0
 62
   256
 40
5.0
300

 40
0.0
280
     1
 71
     2
340
64
 90
       25
 62
   256
 71
     3
340
5D
 62
   256
 40
5.0
 90
        0
 40
15.0
 90
        1
300
%<\AcVar ViewDetailId>% (%<\AcVar ViewScale \f "%sn">%)
 71
     4
340
64
 90
       25
 62
   256
340
64
 90
       25
 62
   256
280
     0
  0
LAYOUT
  5
73
102
{ACAD_REACTORS
330
69
102
}
330
69
100
AcDbPlotSettings
  1

  2
\\OASE42\HP DesignJet 500 42+HPGL2 Card
  4

  6

 40
0.0
 41
0.0
 42
0.0
 43
0.0
 44
0.0
 45
0.0
 46
0.0
 47
0.0
 48
0.0
 49
0.0
140
0.0
141
0.0
142
1.0
143
1.0
 70
   688
 72
     0
 73
     0
 74
     5
  7
C:\Dokumente und Einstellungen\guzb562\Anwendungsdaten\Autodesk\Autodesk Mechanical Desktop 2008\R17.1\deu\Plot Styles\OASE.ctb
 75
    16
147
1.0
 76
     0
 77
     2
 78
   300
148
0.0
149
0.0
100
AcDbLayout
  1
Layout1
 70
     1
 71
     1
 10
0.0
 20
0.0
 11
12.0
 21
9.0
 12
0.0
 22
0.0
 32
0.0
 14
1.000000000000000E+20
 24
1.000000000000000E+20
 34
1.000000000000000E+20
 15
-1.000000000000000E+20
 25
-1.000000000000000E+20
 35
-1.000000000000000E+20
146
0.0
 13
0.0
 23
0.0
 33
0.0
 16
1.0
 26
0.0
 36
0.0
 17
0.0
 27
1.0
 37
0.0
 76
     0
330
70
  0
LAYOUT
  5
77
102
{ACAD_REACTORS
330
69
102
}
330
69
100
AcDbPlotSettings
  1

  2
none_device
  4
ISO_A4_(210.00_x_297.00_MM)
  6

 40
7.5
 41
20.0
 42
7.5
 43
20.0
 44
210.0
 45
297.0
 46
0.0
 47
0.0
 48
0.0
 49
0.0
140
0.0
141
0.0
142
1.0
143
13.11151541627037
 70
 11952
 72
     1
 73
     1
 74
     0
  7
C:\Dokumente und Einstellungen\guzb562\Anwendungsdaten\Autodesk\Autodesk Mechanical Desktop 2008\R17.1\deu\Plot Styles\OASE.ctb
 75
     0
147
0.0762688345512737
 76
     0
 77
     2
 78
   300
148
-3076.547796556637
149
-1333.24533121364
100
AcDbLayout
  1
Model
 70
     1
 71
     0
 10
0.0
 20
0.0
 11
12.0
 21
9.0
 12
0.0
 22
0.0
 32
0.0
 14
0.0
 24
0.0
 34
0.0
 15
0.0
 25
0.0
 35
0.0
146
0.0
 13
0.0
 23
0.0
 33
0.0
 16
1.0
 26
0.0
 36
0.0
 17
0.0
 27
1.0
 37
0.0
 76
     0
330
74
331
82
1001
ACAD_PSEXT
1000
Kein
1000
Kein
1000
Nicht anwendbar
1000
Das Layout wird erst geplottet, wenn ein neuer Plotter-Konfigurationsname ausgewählt wird.
1070
     0
  0
MATERIAL
  5
19
102
{ACAD_XDICTIONARY
360
1A
102
}
102
{ACAD_REACTORS
330
10
102
}
330
10
100
AcDbMaterial
  1
ByBlock
 72
     0
 43
0.0208333333333333
 43
0.0
 43
0.0
 43
0.0
 43
0.0
 43
0.0208333333333333
 43
0.0
 43
0.0
 43
0.0
 43
0.0
 43
1.0
 43
0.0
 43
0.0
 43
0.0
 43
0.0
 43
1.0
 77
     0
 47
0.0208333333333333
 47
0.0
 47
0.0
 47
0.0
 47
0.0
 47
0.0208333333333333
 47
0.0
 47
0.0
 47
0.0
 47
0.0
 47
1.0
 47
0.0
 47
0.0
 47
0.0
 47
0.0
 47
1.0
171
     0
 49
0.0208333333333333
 49
0.0
 49
0.0
 49
0.0
 49
0.0
 49
0.0208333333333333
 49
0.0
 49
0.0
 49
0.0
 49
0.0
 49
1.0
 49
0.0
 49
0.0
 49
0.0
 49
0.0
 49
1.0
175
     0
142
0.0208333333333333
142
0.0
142
0.0
142
0.0
142
0.0
142
0.0208333333333333
142
0.0
142
0.0
142
0.0
142
0.0
142
1.0
142
0.0
142
0.0
142
0.0
142
0.0
142
1.0
179
     0
144
0.0208333333333333
144
0.0
144
0.0
144
0.0
144
0.0
144
0.0208333333333333
144
0.0
144
0.0
144
0.0
144
0.0
144
1.0
144
0.0
144
0.0
144
0.0
144
0.0
144
1.0
147
0.0208333333333333
147
0.0
147
0.0
147
0.0
147
0.0
147
0.0208333333333333
147
0.0
147
0.0
147
0.0
147
0.0
147
1.0
147
0.0
147
0.0
147
0.0
147
0.0
147
1.0
  0
MATERIAL
  5
11
102
{ACAD_XDICTIONARY
360
12
102
}
102
{ACAD_REACTORS
330
10
102
}
330
10
100
AcDbMaterial
  1
ByLayer
 72
     0
 43
0.0208333333333333
 43
0.0
 43
0.0
 43
0.0
 43
0.0
 43
0.0208333333333333
 43
0.0
 43
0.0
 43
0.0
 43
0.0
 43
1.0
 43
0.0
 43
0.0
 43
0.0
 43
0.0
 43
1.0
 77
     0
 47
0.0208333333333333
 47
0.0
 47
0.0
 47
0.0
 47
0.0
 47
0.0208333333333333
 47
0.0
 47
0.0
 47
0.0
 47
0.0
 47
1.0
 47
0.0
 47
0.0
 47
0.0
 47
0.0
 47
1.0
171
     0
 49
0.0208333333333333
 49
0.0
 49
0.0
 49
0.0
 49
0.0
 49
0.0208333333333333
 49
0.0
 49
0.0
 49
0.0
 49
0.0
 49
1.0
 49
0.0
 49
0.0
 49
0.0
 49
0.0
 49
1.0
175
     0
142
0.0208333333333333
142
0.0
142
0.0
142
0.0
142
0.0
142
0.0208333333333333
142
0.0
142
0.0
142
0.0
142
0.0
142
1.0
142
0.0
142
0.0
142
0.0
142
0.0
142
1.0
179
     0
144
0.0208333333333333
144
0.0
144
0.0
144
0.0
144
0.0
144
0.0208333333333333
144
0.0
144
0.0
144
0.0
144
0.0
144
1.0
144
0.0
144
0.0
144
0.0
144
0.0
144
1.0
147
0.0208333333333333
147
0.0
147
0.0
147
0.0
147
0.0
147
0.0208333333333333
147
0.0
147
0.0
147
0.0
147
0.0
147
1.0
147
0.0
147
0.0
147
0.0
147
0.0
147
1.0
  0
MATERIAL
  5
21
102
{ACAD_XDICTIONARY
360
22
102
}
102
{ACAD_REACTORS
330
10
102
}
330
10
100
AcDbMaterial
  1
Global
 72
     0
 43
0.0208333333333333
 43
0.0
 43
0.0
 43
0.0
 43
0.0
 43
0.0208333333333333
 43
0.0
 43
0.0
 43
0.0
 43
0.0
 43
1.0
 43
0.0
 43
0.0
 43
0.0
 43
0.0
 43
1.0
 77
     0
 47
0.0208333333333333
 47
0.0
 47
0.0
 47
0.0
 47
0.0
 47
0.0208333333333333
 47
0.0
 47
0.0
 47
0.0
 47
0.0
 47
1.0
 47
0.0
 47
0.0
 47
0.0
 47
0.0
 47
1.0
171
     0
 49
0.0208333333333333
 49
0.0
 49
0.0
 49
0.0
 49
0.0
 49
0.0208333333333333
 49
0.0
 49
0.0
 49
0.0
 49
0.0
 49
1.0
 49
0.0
 49
0.0
 49
0.0
 49
0.0
 49
1.0
175
     0
142
0.0208333333333333
142
0.0
142
0.0
142
0.0
142
0.0
142
0.0208333333333333
142
0.0
142
0.0
142
0.0
142
0.0
142
1.0
142
0.0
142
0.0
142
0.0
142
0.0
142
1.0
179
     0
144
0.0208333333333333
144
0.0
144
0.0
144
0.0
144
0.0
144
0.0208333333333333
144
0.0
144
0.0
144
0.0
144
0.0
144
1.0
144
0.0
144
0.0
144
0.0
144
0.0
144
1.0
147
0.0208333333333333
147
0.0
147
0.0
147
0.0
147
0.0
147
0.0208333333333333
147
0.0
147
0.0
147
0.0
147
0.0
147
1.0
147
0.0
147
0.0
147
0.0
147
0.0
147
1.0
  0
MLEADERSTYLE
  5
4B2B
102
{ACAD_REACTORS
330
6D
102
}
330
6D
100
AcDbMLeaderStyle
179
     2
170
     2
171
     1
172
     0
 90
        2
 40
0.0
 41
0.0
173
     1
 91
-1056964608
340
62
 92
       -2
290
     1
 42
2.0
291
     1
 43
0.36
  3
Standard
 44
4.0
300

342
5D
174
     1
178
     6
175
     1
176
     0
 93
-1056964608
 45
4.0
292
     0
297
     0
 46
4.0
 94
-1056964608
 47
1.0
 49
1.0
140
1.0
293
     1
141
0.0
294
     1
177
     0
142
1.0
295
     0
296
     0
143
0.125
271
     0
272
     9
273
     9
298
     0
  0
MLINESTYLE
  5
67
102
{ACAD_REACTORS
330
66
102
}
330
66
100
AcDbMlineStyle
  2
STANDARD
 70
     0
  3

 62
   256
 51
90.0
 52
90.0
 71
     2
 49
0.5
 62
   256
  6
BYLAYER
 49
-0.5
 62
   256
  6
BYLAYER
  0
ACDBPLACEHOLDER
  5
F
102
{ACAD_REACTORS
330
E
102
}
330
E
  0
RAPIDRTRENDERSETTINGS
  5
529E
102
{ACAD_REACTORS
330
529B
102
}
330
529B
100
AcDbRenderSettings
 90
        2
  1
Hoch
290
     1
290
     0
290
     1
290
     1
  1

  1
Wendet 10 Render-Ebenen an
 90
        2
100
AcDbRapidRTRenderSettings
 90
        3
 70
     0
 90
       10
 90
        1
 70
     2
 70
     2
 40
3.0
 40
3.0
290
     1
  0
RAPIDRTRENDERSETTINGS
  5
52A0
102
{ACAD_REACTORS
330
529B
102
}
330
529B
100
AcDbRenderSettings
 90
        2
  1
Mittagsqualität
290
     1
290
     0
290
     1
290
     1
  1

  1
Rendert für 60 Minuten
 90
        4
100
AcDbRapidRTRenderSettings
 90
        3
 70
     1
 90
        1
 90
       60
 70
     2
 70
     2
 40
3.0
 40
3.0
290
     1
  0
RAPIDRTRENDERSETTINGS
  5
529D
102
{ACAD_REACTORS
330
529B
102
}
330
529B
100
AcDbRenderSettings
 90
        2
  1
Mittel
290
     1
290
     0
290
     1
290
     1
  1

  1
Wendet 5 Render-Ebenen an
 90
        1
100
AcDbRapidRTRenderSettings
 90
        3
 70
     0
 90
        5
 90
        1
 70
     1
 70
     2
 40
3.0
 40
3.0
290
     1
  0
RAPIDRTRENDERSETTINGS
  5
529F
102
{ACAD_REACTORS
330
529B
102
}
330
529B
100
AcDbRenderSettings
 90
        2
  1
Morgenqualität
290
     1
290
     0
290
     1
290
     1
  1

  1
Rendert für 10 Minuten
 90
        3
100
AcDbRapidRTRenderSettings
 90
        3
 70
     1
 90
        1
 90
       10
 70
     1
 70
     2
 40
3.0
 40
3.0
290
     1
  0
RAPIDRTRENDERSETTINGS
  5
52A1
102
{ACAD_REACTORS
330
529B
102
}
330
529B
100
AcDbRenderSettings
 90
        2
  1
Nachtqualität
290
     1
290
     0
290
     1
290
     1
  1

  1
Rendert für 12 Stunden
 90
        5
100
AcDbRapidRTRenderSettings
 90
        3
 70
     1
 90
        1
 90
      720
 70
     2
 70
     2
 40
3.0
 40
3.0
290
     1
  0
RAPIDRTRENDERSETTINGS
  5
529C
102
{ACAD_REACTORS
330
529B
102
}
330
529B
100
AcDbRenderSettings
 90
        2
  1
Niedrig
290
     1
290
     0
290
     1
290
     1
  1

  1
Wendet 1 Render-Ebene an
 90
        0
100
AcDbRapidRTRenderSettings
 90
        3
 70
     0
 90
        1
 90
        1
 70
     0
 70
     2
 40
3.0
 40
3.0
290
     1
  0
SCALE
  5
1318
102
{ACAD_REACTORS
330
3A
102
}
330
3A
100
AcDbScale
 70
     0
300
1:200
140
1.0
141
200.0
290
     0
  0
SCALE
  5
160C
102
{ACAD_REACTORS
330
3A
102
}
330
3A
100
AcDbScale
 70
     0
300
1:2.5
140
1.0
141
2.5
290
     0
  0
SCALE
  5
3B
102
{ACAD_REACTORS
330
3A
102
}
330
3A
100
AcDbScale
 70
     0
300
1:1
140
1.0
141
1.0
290
     1
  0
SCALE
  5
3C
102
{ACAD_REACTORS
330
3A
102
}
330
3A
100
AcDbScale
 70
     0
300
1:2
140
1.0
141
2.0
290
     0
  0
SCALE
  5
3D
102
{ACAD_REACTORS
330
3A
102
}
330
3A
100
AcDbScale
 70
     0
300
1:4
140
1.0
141
4.0
290
     0
  0
SCALE
  5
3E
102
{ACAD_REACTORS
330
3A
102
}
330
3A
100
AcDbScale
 70
     0
300
1:5
140
1.0
141
5.0
290
     0
  0
SCALE
  5
3F
102
{ACAD_REACTORS
330
3A
102
}
330
3A
100
AcDbScale
 70
     0
300
1:8
140
1.0
141
8.0
290
     0
  0
SCALE
  5
40
102
{ACAD_REACTORS
330
3A
102
}
330
3A
100
AcDbScale
 70
     0
300
1:10
140
1.0
141
10.0
290
     0
  0
SCALE
  5
41
102
{ACAD_REACTORS
330
3A
102
}
330
3A
100
AcDbScale
 70
     0
300
1:16
140
1.0
141
16.0
290
     0
  0
SCALE
  5
42
102
{ACAD_REACTORS
330
3A
102
}
330
3A
100
AcDbScale
 70
     0
300
1:20
140
1.0
141
20.0
290
     0
  0
SCALE
  5
43
102
{ACAD_REACTORS
330
3A
102
}
330
3A
100
AcDbScale
 70
     0
300
1:30
140
1.0
141
30.0
290
     0
  0
SCALE
  5
44
102
{ACAD_REACTORS
330
3A
102
}
330
3A
100
AcDbScale
 70
     0
300
1:40
140
1.0
141
40.0
290
     0
  0
SCALE
  5
45
102
{ACAD_REACTORS
330
3A
102
}
330
3A
100
AcDbScale
 70
     0
300
1:50
140
1.0
141
50.0
290
     0
  0
SCALE
  5
46
102
{ACAD_REACTORS
330
3A
102
}
330
3A
100
AcDbScale
 70
     0
300
1:100
140
1.0
141
100.0
290
     0
  0
SCALE
  5
47
102
{ACAD_REACTORS
330
3A
102
}
330
3A
100
AcDbScale
 70
     0
300
2:1
140
2.0
141
1.0
290
     0
  0
SCALE
  5
48
102
{ACAD_REACTORS
330
3A
102
}
330
3A
100
AcDbScale
 70
     0
300
4:1
140
4.0
141
1.0
290
     0
  0
SCALE
  5
49
102
{ACAD_REACTORS
330
3A
102
}
330
3A
100
AcDbScale
 70
     0
300
8:1
140
8.0
141
1.0
290
     0
  0
SCALE
  5
4A
102
{ACAD_REACTORS
330
3A
102
}
330
3A
100
AcDbScale
 70
     0
300
10:1
140
10.0
141
1.0
290
     0
  0
SCALE
  5
4B
102
{ACAD_REACTORS
330
3A
102
}
330
3A
100
AcDbScale
 70
     0
300
100:1
140
100.0
141
1.0
290
     0
  0
SCALE
  5
4C
102
{ACAD_REACTORS
330
3A
102
}
330
3A
100
AcDbScale
 70
     0
300
1/128" = 1'-0"
140
0.0078125
141
12.0
290
     0
  0
SCALE
  5
4D
102
{ACAD_REACTORS
330
3A
102
}
330
3A
100
AcDbScale
 70
     0
300
1/64" = 1'-0"
140
0.015625
141
12.0
290
     0
  0
SCALE
  5
4E
102
{ACAD_REACTORS
330
3A
102
}
330
3A
100
AcDbScale
 70
     0
300
1/32" = 1'-0"
140
0.03125
141
12.0
290
     0
  0
SCALE
  5
4F
102
{ACAD_REACTORS
330
3A
102
}
330
3A
100
AcDbScale
 70
     0
300
1/16" = 1'-0"
140
0.0625
141
12.0
290
     0
  0
SCALE
  5
50
102
{ACAD_REACTORS
330
3A
102
}
330
3A
100
AcDbScale
 70
     0
300
3/32" = 1'-0"
140
0.09375
141
12.0
290
     0
  0
SCALE
  5
51
102
{ACAD_REACTORS
330
3A
102
}
330
3A
100
AcDbScale
 70
     0
300
1/8" = 1'-0"
140
0.125
141
12.0
290
     0
  0
SCALE
  5
52
102
{ACAD_REACTORS
330
3A
102
}
330
3A
100
AcDbScale
 70
     0
300
3/16" = 1'-0"
140
0.1875
141
12.0
290
     0
  0
SCALE
  5
53
102
{ACAD_REACTORS
330
3A
102
}
330
3A
100
AcDbScale
 70
     0
300
1/4" = 1'-0"
140
0.25
141
12.0
290
     0
  0
SCALE
  5
54
102
{ACAD_REACTORS
330
3A
102
}
330
3A
100
AcDbScale
 70
     0
300
3/8" = 1'-0"
140
0.375
141
12.0
290
     0
  0
SCALE
  5
55
102
{ACAD_REACTORS
330
3A
102
}
330
3A
100
AcDbScale
 70
     0
300
1/2" = 1'-0"
140
0.5
141
12.0
290
     0
  0
SCALE
  5
56
102
{ACAD_REACTORS
330
3A
102
}
330
3A
100
AcDbScale
 70
     0
300
3/4" = 1'-0"
140
0.75
141
12.0
290
     0
  0
SCALE
  5
57
102
{ACAD_REACTORS
330
3A
102
}
330
3A
100
AcDbScale
 70
     0
300
1" = 1'-0"
140
1.0
141
12.0
290
     0
  0
SCALE
  5
58
102
{ACAD_REACTORS
330
3A
102
}
330
3A
100
AcDbScale
 70
     0
300
1-1/2" = 1'-0"
140
1.5
141
12.0
290
     0
  0
SCALE
  5
59
102
{ACAD_REACTORS
330
3A
102
}
330
3A
100
AcDbScale
 70
     0
300
3" = 1'-0"
140
3.0
141
12.0
290
     0
  0
SCALE
  5
5A
102
{ACAD_REACTORS
330
3A
102
}
330
3A
100
AcDbScale
 70
     0
300
6" = 1'-0"
140
6.0
141
12.0
290
     0
  0
SCALE
  5
5B
102
{ACAD_REACTORS
330
3A
102
}
330
3A
100
AcDbScale
 70
     0
300
1'-0" = 1'-0"
140
12.0
141
12.0
290
     0
  0
ACDBSECTIONVIEWSTYLE
  5
51F0
102
{ACAD_XDICTIONARY
360
52B7
102
}
102
{ACAD_REACTORS
330
51EF
330
5207
330
520B
330
520F
330
521F
102
}
330
51EF
100
AcDbModelDocViewStyle
 70
     0
  3
Metric50
290
     0
100
AcDbSectionViewStyle
 70
     0
 71
     0
 90
      102
 71
     1
340
5D
 62
   256
 40
5.0
340
0
340
0
 62
   256
 40
5.0
300
I, O, Q, S, X, Z
 40
10.0
 90
        0
 40
2.5
 90
        0
 71
     2
340
64
 90
       25
 62
   256
340
64
 90
       50
 62
   256
 40
5.0
 40
2.5
 40
5.0
 71
     3
340
5D
 62
   256
 40
5.0
 90
        0
 40
15.0
 90
        1
300
%<\AcVar ViewSectionStartId>%-%<\AcVar ViewSectionEndId>% (%<\AcVar ViewScale \f "%sn">%)
 71
     4
 62
   256
 62
   257
300
ANSI31
 40
1.0
 90
        0
290
     0
290
     0
 90
        6
 40
0.0
 40
1.570796326794896
 40
0.2617993877991494
 40
1.308996938995747
 40
-0.2617993877991494
 40
1.832595714594046
  0
TABLESTYLE
  5
6C
102
{ACAD_XDICTIONARY
360
1B2
102
}
102
{ACAD_REACTORS
330
6B
102
}
330
6B
100
AcDbTableStyle
280
     0
  3
Standard
 70
     0
 71
     0
 40
0.06
 41
0.06
280
     0
281
     0
  7
STANDARD
140
0.18
170
     2
 62
     0
 63
     7
283
     0
 90
      512
 91
        0
  1

274
    -2
284
     1
 64
     0
275
    -2
285
     1
 65
     0
276
    -2
286
     1
 66
     0
277
    -2
287
     1
 67
     0
278
    -2
288
     1
 68
     0
279
    -2
289
     1
 69
     0
  7
STANDARD
140
0.25
170
     5
 62
     0
 63
     7
283
     0
 90
      512
 91
        0
  1

274
    -2
284
     1
 64
     0
275
    -2
285
     1
 65
     0
276
    -2
286
     1
 66
     0
277
    -2
287
     1
 67
     0
278
    -2
288
     1
 68
     0
279
    -2
289
     1
 69
     0
  7
STANDARD
140
0.18
170
     5
 62
     0
 63
     7
283
     0
 90
      512
 91
        0
  1

274
    -2
284
     1
 64
     0
275
    -2
285
     1
 65
     0
276
    -2
286
     1
 66
     0
277
    -2
287
     1
 67
     0
278
    -2
288
     1
 68
     0
279
    -2
289
     1
 69
     0
  0
VISUALSTYLE
  5
2F
102
{ACAD_REACTORS
330
29
102
}
330
29
100
AcDbVisualStyle
  2
2dWireframe
 70
     4
177
     3
291
     0
 70
    58
 90
        0
176
     1
 90
        2
176
     1
 90
        0
176
     1
 90
        0
176
     1
 40
0.6
176
     1
 40
30.0
176
     1
 62
     7
176
     1
 90
        1
176
     1
 90
        4
176
     1
 62
     7
176
     1
 62
   257
176
     1
 90
        1
176
     1
 90
        1
176
     1
 40
1.0
176
     1
 90
        0
176
     1
 62
   257
176
     1
 40
1.0
176
     1
 90
        1
176
     1
 90
        6
176
     1
 90
        2
176
     1
 62
     7
176
     1
 90
        5
176
     1
 90
        0
176
     1
 90
        0
176
     1
290
     0
176
     1
 90
        1
176
     1
 40
0.0
176
     1
 90
        0
176
     1
290
     1
176
     1
290
     1
176
     1
290
     0
176
     1
290
     0
176
     1
290
     0
176
     1
290
     0
176
     1
290
     0
176
     1
290
     0
176
     1
290
     0
176
     1
 90
       50
176
     1
 40
0.0
176
     1
 40
1.0
176
     1
 90
        0
176
     1
 62
    18
420
        0
176
     1
 90
       50
176
     1
 90
        3
176
     1
 62
     5
420
      255
176
     1
290
     0
176
     1
 90
       50
176
     1
 90
       50
176
     1
 90
       50
176
     1
290
     0
176
     1
 90
       50
176
     1
 62
   256
176
     0
 40
1.0
176
     0
 90
        2
176
     1
  1
strokes_ogs.tif
176
     1
290
     0
176
     1
 40
1.0
176
     1
 40
1.0
176
     1
  0
VISUALSTYLE
  5
31
102
{ACAD_REACTORS
330
29
102
}
330
29
100
AcDbVisualStyle
  2
3D Hidden
 70
     6
177
     3
291
     0
 70
    58
 90
        1
176
     1
 90
        2
176
     1
 90
        2
176
     1
 90
        0
176
     1
 40
0.6
176
     1
 40
30.0
176
     1
 62
     7
176
     1
 90
        2
176
     1
 90
        2
176
     1
 62
     7
176
     1
 62
   257
176
     1
 90
        2
176
     1
 90
        1
176
     1
 40
40.0
176
     1
 90
        0
176
     1
 62
   257
176
     1
 40
1.0
176
     1
 90
        1
176
     1
 90
        6
176
     1
 90
        2
176
     1
 62
     7
176
     1
 90
        3
176
     1
 90
        0
176
     1
 90
        0
176
     1
290
     0
176
     1
 90
        1
176
     1
 40
0.0
176
     1
 90
        0
176
     1
290
     0
176
     1
290
     1
176
     1
290
     1
176
     1
290
     0
176
     1
290
     0
176
     1
290
     0
176
     1
290
     0
176
     1
290
     0
176
     1
290
     0
176
     1
 90
       50
176
     1
 40
0.0
176
     1
 40
1.0
176
     1
 90
        0
176
     1
 62
    18
420
        0
176
     1
 90
       50
176
     1
 90
        3
176
     1
 62
     5
420
      255
176
     1
290
     0
176
     1
 90
       50
176
     1
 90
       50
176
     1
 90
       50
176
     1
290
     0
176
     1
 90
       50
176
     1
 62
   256
176
     0
 40
1.0
176
     0
 90
        2
176
     1
  1
strokes_ogs.tif
176
     1
290
     0
176
     1
 40
1.0
176
     1
 40
1.0
176
     1
  0
VISUALSTYLE
  5
30
102
{ACAD_REACTORS
330
29
102
}
330
29
100
AcDbVisualStyle
  2
3dWireframe
 70
     5
177
     3
291
     0
 70
    58
 90
        0
176
     1
 90
        2
176
     1
 90
        0
176
     1
 90
        0
176
     1
 40
0.6
176
     1
 40
30.0
176
     1
 62
     7
176
     1
 90
        1
176
     1
 90
        4
176
     1
 62
     7
176
     1
 62
   257
176
     1
 90
        1
176
     1
 90
        1
176
     1
 40
1.0
176
     1
 90
        0
176
     1
 62
   257
176
     1
 40
1.0
176
     1
 90
        1
176
     1
 90
        6
176
     1
 90
        2
176
     1
 62
     7
176
     1
 90
        5
176
     1
 90
        0
176
     1
 90
        0
176
     1
290
     0
176
     1
 90
        1
176
     1
 40
0.0
176
     1
 90
        0
176
     1
290
     0
176
     1
290
     1
176
     1
290
     1
176
     1
290
     0
176
     1
290
     0
176
     1
290
     0
176
     1
290
     0
176
     1
290
     0
176
     1
290
     0
176
     1
 90
       50
176
     1
 40
0.0
176
     1
 40
1.0
176
     1
 90
        0
176
     1
 62
    18
420
        0
176
     1
 90
       50
176
     1
 90
        3
176
     1
 62
     5
420
      255
176
     1
290
     0
176
     1
 90
       50
176
     1
 90
       50
176
     1
 90
       50
176
     1
290
     0
176
     1
 90
       50
176
     1
 62
   256
176
     0
 40
1.0
176
     0
 90
        2
176
     1
  1
strokes_ogs.tif
176
     1
290
     0
176
     1
 40
1.0
176
     1
 40
1.0
176
     1
  0
VISUALSTYLE
  5
2E
102
{ACAD_REACTORS
330
29
102
}
330
29
100
AcDbVisualStyle
  2
Basic
 70
     7
177
     3
291
     1
 70
    58
 90
        1
176
     1
 90
        0
176
     1
 90
        1
176
     1
 90
        0
176
     1
 40
0.6
176
     1
 40
30.0
176
     1
 62
     7
176
     1
 90
        0
176
     1
 90
        4
176
     1
 62
     7
176
     1
 62
   257
176
     1
 90
        1
176
     1
 90
        1
176
     1
 40
1.0
176
     1
 90
        8
176
     1
 62
     7
176
     1
 40
1.0
176
     1
 90
        1
176
     1
 90
        6
176
     1
 90
        2
176
     1
 62
     7
176
     1
 90
        5
176
     1
 90
        0
176
     1
 90
        0
176
     1
290
     0
176
     1
 90
        1
176
     1
 40
0.0
176
     1
 90
        0
176
     1
290
     0
176
     1
290
     1
176
     1
290
     1
176
     1
290
     0
176
     1
290
     0
176
     1
290
     0
176
     1
290
     0
176
     1
290
     0
176
     1
290
     0
176
     1
 90
       50
176
     1
 40
0.0
176
     1
 40
1.0
176
     1
 90
        0
176
     1
 62
    18
420
        0
176
     1
 90
       50
176
     1
 90
        3
176
     1
 62
     5
420
      255
176
     1
290
     0
176
     1
 90
       50
176
     1
 90
       50
176
     1
 90
       50
176
     1
290
     0
176
     1
 90
       50
176
     1
 62
   256
176
     0
 40
1.0
176
     0
 90
        2
176
     1
  1
strokes_ogs.tif
176
     1
290
     0
176
     1
 40
1.0
176
     1
 40
1.0
176
     1
  0
VISUALSTYLE
  5
35
102
{ACAD_REACTORS
330
29
102
}
330
29
100
AcDbVisualStyle
  2
Brighten
 70
    12
177
     3
291
     1
 70
    58
 90
        2
176
     1
 90
        2
176
     1
 90
        0
176
     1
 90
        0
176
     1
 40
0.6
176
     1
 40
30.0
176
     1
 62
     7
176
     1
 90
        1
176
     1
 90
        4
176
     1
 62
     7
176
     1
 62
   257
176
     1
 90
        1
176
     1
 90
        1
176
     1
 40
1.0
176
     1
 90
        8
176
     1
 62
     7
176
     1
 40
1.0
176
     1
 90
        1
176
     1
 90
        6
176
     1
 90
        2
176
     1
 62
     7
176
     1
 90
        5
176
     1
 90
        0
176
     1
 90
        0
176
     1
290
     0
176
     1
 90
        1
176
     1
 40
50.0
176
     1
 90
        0
176
     1
290
     0
176
     1
290
     1
176
     1
290
     1
176
     1
290
     0
176
     1
290
     0
176
     1
290
     0
176
     1
290
     0
176
     1
290
     0
176
     1
290
     0
176
     1
 90
       50
176
     1
 40
0.0
176
     1
 40
1.0
176
     1
 90
        0
176
     1
 62
    18
420
        0
176
     1
 90
       50
176
     1
 90
        3
176
     1
 62
     5
420
      255
176
     1
290
     0
176
     1
 90
       50
176
     1
 90
       50
176
     1
 90
       50
176
     1
290
     0
176
     1
 90
       50
176
     1
 62
   256
176
     0
 40
1.0
176
     0
 90
        2
176
     1
  1
strokes_ogs.tif
176
     1
290
     0
176
     1
 40
1.0
176
     1
 40
1.0
176
     1
  0
VISUALSTYLE
  5
39
102
{ACAD_REACTORS
330
29
102
}
330
29
100
AcDbVisualStyle
  2
ColorChange
 70
    16
177
     3
291
     1
 70
    58
 90
        2
176
     1
 90
        2
176
     1
 90
        3
176
     1
 90
        0
176
     1
 40
0.6
176
     1
 40
30.0
176
     1
 62
     8
176
     1
 90
        1
176
     1
 90
        4
176
     1
 62
     7
176
     1
 62
   257
176
     1
 90
        1
176
     1
 90
        1
176
     1
 40
1.0
176
     1
 90
        8
176
     1
 62
     8
176
     1
 40
1.0
176
     1
 90
        1
176
     1
 90
        6
176
     1
 90
        2
176
     1
 62
     7
176
     1
 90
        5
176
     1
 90
        0
176
     1
 90
        0
176
     1
290
     0
176
     1
 90
        1
176
     1
 40
0.0
176
     1
 90
        0
176
     1
290
     0
176
     1
290
     1
176
     1
290
     1
176
     1
290
     0
176
     1
290
     0
176
     1
290
     0
176
     1
290
     0
176
     1
290
     0
176
     1
290
     0
176
     1
 90
       50
176
     1
 40
0.0
176
     1
 40
1.0
176
     1
 90
        0
176
     1
 62
    18
420
        0
176
     1
 90
       50
176
     1
 90
        3
176
     1
 62
     5
420
      255
176
     1
290
     0
176
     1
 90
       50
176
     1
 90
       50
176
     1
 90
       50
176
     1
290
     0
176
     1
 90
       50
176
     1
 62
   256
176
     0
 40
1.0
176
     0
 90
        2
176
     1
  1
strokes_ogs.tif
176
     1
290
     0
176
     1
 40
1.0
176
     1
 40
1.0
176
     1
  0
VISUALSTYLE
  5
32
102
{ACAD_REACTORS
330
29
102
}
330
29
100
AcDbVisualStyle
  2
Conceptual
 70
     9
177
     3
291
     0
 70
    58
 90
        3
176
     1
 90
        2
176
     1
 90
        0
176
     1
 90
        0
176
     1
 40
0.6
176
     1
 40
30.0
176
     1
 62
     7
176
     1
 90
        2
176
     1
 90
        2
176
     1
 62
     7
176
     1
 62
   257
176
     1
 90
        1
176
     1
 90
        1
176
     1
 40
40.0
176
     1
 90
        8
176
     1
 62
     7
176
     1
 40
1.0
176
     1
 90
        1
176
     1
 90
        6
176
     1
 90
        2
176
     1
 62
     7
176
     1
 90
        3
176
     1
 90
        0
176
     1
 90
        0
176
     1
290
     0
176
     1
 90
        1
176
     1
 40
0.0
176
     1
 90
        0
176
     1
290
     0
176
     1
290
     1
176
     1
290
     1
176
     1
290
     0
176
     1
290
     0
176
     1
290
     0
176
     1
290
     0
176
     1
290
     0
176
     1
290
     0
176
     1
 90
       50
176
     1
 40
0.0
176
     1
 40
1.0
176
     1
 90
        0
176
     1
 62
    18
420
        0
176
     1
 90
       50
176
     1
 90
        3
176
     1
 62
     5
420
      255
176
     1
290
     0
176
     1
 90
       50
176
     1
 90
       50
176
     1
 90
       50
176
     1
290
     0
176
     1
 90
       50
176
     1
 62
   256
176
     0
 40
1.0
176
     0
 90
        2
176
     1
  1
strokes_ogs.tif
176
     1
290
     0
176
     1
 40
1.0
176
     1
 40
1.0
176
     1
  0
VISUALSTYLE
  5
34
102
{ACAD_REACTORS
330
29
102
}
330
29
100
AcDbVisualStyle
  2
Dim
 70
    11
177
     3
291
     1
 70
    58
 90
        2
176
     1
 90
        2
176
     1
 90
        0
176
     1
 90
        0
176
     1
 40
0.6
176
     1
 40
30.0
176
     1
 62
     7
176
     1
 90
        1
176
     1
 90
        4
176
     1
 62
     7
176
     1
 62
   257
176
     1
 90
        1
176
     1
 90
        1
176
     1
 40
1.0
176
     1
 90
        8
176
     1
 62
     7
176
     1
 40
1.0
176
     1
 90
        1
176
     1
 90
        6
176
     1
 90
        2
176
     1
 62
     7
176
     1
 90
        5
176
     1
 90
        0
176
     1
 90
        0
176
     1
290
     0
176
     1
 90
        1
176
     1
 40
-50.0
176
     1
 90
        0
176
     1
290
     0
176
     1
290
     1
176
     1
290
     1
176
     1
290
     0
176
     1
290
     0
176
     1
290
     0
176
     1
290
     0
176
     1
290
     0
176
     1
290
     0
176
     1
 90
       50
176
     1
 40
0.0
176
     1
 40
1.0
176
     1
 90
        0
176
     1
 62
    18
420
        0
176
     1
 90
       50
176
     1
 90
        3
176
     1
 62
     5
420
      255
176
     1
290
     0
176
     1
 90
       50
176
     1
 90
       50
176
     1
 90
       50
176
     1
290
     0
176
     1
 90
       50
176
     1
 62
   256
176
     0
 40
1.0
176
     0
 90
        2
176
     1
  1
strokes_ogs.tif
176
     1
290
     0
176
     1
 40
1.0
176
     1
 40
1.0
176
     1
  0
VISUALSTYLE
  5
4FB0
102
{ACAD_REACTORS
330
29
102
}
330
29
100
AcDbVisualStyle
  2
EdgeColorOff
 70
    22
177
     3
291
     1
 70
    58
 90
        2
176
     0
 90
        2
176
     0
 90
        0
176
     0
 90
        0
176
     0
 40
0.6
176
     0
 40
30.0
176
     0
 62
     7
420
 16777215
176
     0
 90
        1
176
     0
 90
        4
176
     0
 62
     7
176
     0
 62
   257
176
     0
 90
        1
176
     0
 90
        1
176
     0
 40
1.0
176
     0
 90
        8
176
     2
 62
     7
176
     0
 40
1.0
176
     0
 90
        1
176
     0
 90
        6
176
     0
 90
        2
176
     0
 62
     7
176
     0
 90
        5
176
     0
 90
        0
176
     0
 90
        0
176
     0
290
     0
176
     0
 90
        1
176
     0
 40
0.0
176
     0
 90
        0
176
     0
290
     0
176
     0
290
     1
176
     0
290
     1
176
     0
290
     0
176
     0
290
     0
176
     0
290
     0
176
     1
290
     0
176
     1
290
     0
176
     1
290
     0
176
     1
 90
       50
176
     1
 40
0.0
176
     1
 40
1.0
176
     1
 90
        0
176
     1
 62
    18
420
        0
176
     1
 90
       50
176
     1
 90
        3
176
     1
 62
     5
420
      255
176
     1
290
     0
176
     1
 90
       50
176
     1
 90
       50
176
     1
 90
       50
176
     1
290
     0
176
     1
 90
       50
176
     1
 62
   256
176
     0
 40
1.0
176
     0
 90
        2
176
     1
  1
strokes_ogs.tif
176
     1
290
     0
176
     1
 40
1.0
176
     1
 40
1.0
176
     1
  0
VISUALSTYLE
  5
38
102
{ACAD_REACTORS
330
29
102
}
330
29
100
AcDbVisualStyle
  2
Facepattern
 70
    15
177
     3
291
     1
 70
    58
 90
        2
176
     1
 90
        2
176
     1
 90
        0
176
     1
 90
        0
176
     1
 40
0.6
176
     1
 40
30.0
176
     1
 62
     7
176
     1
 90
        1
176
     1
 90
        4
176
     1
 62
     7
176
     1
 62
   257
176
     1
 90
        1
176
     1
 90
        1
176
     1
 40
1.0
176
     1
 90
        8
176
     1
 62
     7
176
     1
 40
1.0
176
     1
 90
        1
176
     1
 90
        6
176
     1
 90
        2
176
     1
 62
     7
176
     1
 90
        5
176
     1
 90
        0
176
     1
 90
        0
176
     1
290
     0
176
     1
 90
        1
176
     1
 40
0.0
176
     1
 90
        0
176
     1
290
     0
176
     1
290
     1
176
     1
290
     1
176
     1
290
     0
176
     1
290
     0
176
     1
290
     0
176
     1
290
     0
176
     1
290
     0
176
     1
290
     0
176
     1
 90
       50
176
     1
 40
0.0
176
     1
 40
1.0
176
     1
 90
        0
176
     1
 62
    18
420
        0
176
     1
 90
       50
176
     1
 90
        3
176
     1
 62
     5
420
      255
176
     1
290
     0
176
     1
 90
       50
176
     1
 90
       50
176
     1
 90
       50
176
     1
290
     0
176
     1
 90
       50
176
     1
 62
   256
176
     0
 40
1.0
176
     0
 90
        2
176
     1
  1
strokes_ogs.tif
176
     1
290
     0
176
     1
 40
1.0
176
     1
 40
1.0
176
     1
  0
VISUALSTYLE
  5
2A
102
{ACAD_REACTORS
330
29
102
}
330
29
100
AcDbVisualStyle
  2
Flat
 70
     0
177
     3
291
     1
 70
    58
 90
        2
176
     1
 90
        1
176
     1
 90
        1
176
     1
 90
        2
176
     1
 40
0.6
176
     1
 40
30.0
176
     1
 62
     7
176
     1
 90
        0
176
     1
 90
        4
176
     1
 62
     7
176
     1
 62
   257
176
     1
 90
        1
176
     1
 90
        1
176
     1
 40
1.0
176
     1
 90
        8
176
     1
 62
     7
176
     1
 40
1.0
176
     1
 90
        1
176
     1
 90
        6
176
     1
 90
        2
176
     1
 62
     7
176
     1
 90
        5
176
     1
 90
        0
176
     1
 90
        0
176
     1
290
     0
176
     1
 90
       13
176
     1
 40
0.0
176
     1
 90
        0
176
     1
290
     0
176
     1
290
     1
176
     1
290
     1
176
     1
290
     0
176
     1
290
     0
176
     1
290
     0
176
     1
290
     0
176
     1
290
     0
176
     1
290
     0
176
     1
 90
       50
176
     1
 40
0.0
176
     1
 40
1.0
176
     1
 90
        0
176
     1
 62
    18
420
        0
176
     1
 90
       50
176
     1
 90
        3
176
     1
 62
     5
420
      255
176
     1
290
     0
176
     1
 90
       50
176
     1
 90
       50
176
     1
 90
       50
176
     1
290
     0
176
     1
 90
       50
176
     1
 62
   256
176
     0
 40
1.0
176
     0
 90
        2
176
     1
  1
strokes_ogs.tif
176
     1
290
     0
176
     1
 40
1.0
176
     1
 40
1.0
176
     1
  0
VISUALSTYLE
  5
2B
102
{ACAD_REACTORS
330
29
102
}
330
29
100
AcDbVisualStyle
  2
FlatWithEdges
 70
     1
177
     3
291
     1
 70
    58
 90
        2
176
     1
 90
        1
176
     1
 90
        1
176
     1
 90
        2
176
     1
 40
0.6
176
     1
 40
30.0
176
     1
 62
     7
176
     1
 90
        1
176
     1
 90
        4
176
     1
 62
     7
176
     1
 62
   257
176
     1
 90
        1
176
     1
 90
        1
176
     1
 40
1.0
176
     1
 90
        0
176
     1
 62
   257
176
     1
 40
1.0
176
     1
 90
        1
176
     1
 90
        6
176
     1
 90
        2
176
     1
 62
     7
176
     1
 90
        5
176
     1
 90
        0
176
     1
 90
        0
176
     1
290
     0
176
     1
 90
       13
176
     1
 40
0.0
176
     1
 90
        0
176
     1
290
     0
176
     1
290
     1
176
     1
290
     1
176
     1
290
     0
176
     1
290
     0
176
     1
290
     0
176
     1
290
     0
176
     1
290
     0
176
     1
290
     0
176
     1
 90
       50
176
     1
 40
0.0
176
     1
 40
1.0
176
     1
 90
        0
176
     1
 62
    18
420
        0
176
     1
 90
       50
176
     1
 90
        3
176
     1
 62
     5
420
      255
176
     1
290
     0
176
     1
 90
       50
176
     1
 90
       50
176
     1
 90
       50
176
     1
290
     0
176
     1
 90
       50
176
     1
 62
   256
176
     0
 40
1.0
176
     0
 90
        2
176
     1
  1
strokes_ogs.tif
176
     1
290
     0
176
     1
 40
1.0
176
     1
 40
1.0
176
     1
  0
VISUALSTYLE
  5
2C
102
{ACAD_REACTORS
330
29
102
}
330
29
100
AcDbVisualStyle
  2
Gouraud
 70
     2
177
     3
291
     1
 70
    58
 90
        2
176
     1
 90
        2
176
     1
 90
        1
176
     1
 90
        2
176
     1
 40
0.6
176
     1
 40
30.0
176
     1
 62
     7
176
     1
 90
        0
176
     1
 90
        4
176
     1
 62
     7
176
     1
 62
   257
176
     1
 90
        1
176
     1
 90
        1
176
     1
 40
1.0
176
     1
 90
        0
176
     1
 62
     7
176
     1
 40
1.0
176
     1
 90
        1
176
     1
 90
        6
176
     1
 90
        2
176
     1
 62
     7
176
     1
 90
        5
176
     1
 90
        0
176
     1
 90
        0
176
     1
290
     0
176
     1
 90
       13
176
     1
 40
0.0
176
     1
 90
        0
176
     1
290
     0
176
     1
290
     1
176
     1
290
     1
176
     1
290
     0
176
     1
290
     0
176
     1
290
     0
176
     1
290
     0
176
     1
290
     0
176
     1
290
     0
176
     1
 90
       50
176
     1
 40
0.0
176
     1
 40
1.0
176
     1
 90
        0
176
     1
 62
    18
420
        0
176
     1
 90
       50
176
     1
 90
        3
176
     1
 62
     5
420
      255
176
     1
290
     0
176
     1
 90
       50
176
     1
 90
       50
176
     1
 90
       50
176
     1
290
     0
176
     1
 90
       50
176
     1
 62
   256
176
     0
 40
1.0
176
     0
 90
        2
176
     1
  1
strokes_ogs.tif
176
     1
290
     0
176
     1
 40
1.0
176
     1
 40
1.0
176
     1
  0
VISUALSTYLE
  5
2D
102
{ACAD_REACTORS
330
29
102
}
330
29
100
AcDbVisualStyle
  2
GouraudWithEdges
 70
     3
177
     3
291
     1
 70
    58
 90
        2
176
     1
 90
        2
176
     1
 90
        1
176
     1
 90
        2
176
     1
 40
0.6
176
     1
 40
30.0
176
     1
 62
     7
176
     1
 90
        1
176
     1
 90
        4
176
     1
 62
     7
176
     1
 62
   257
176
     1
 90
        1
176
     1
 90
        1
176
     1
 40
1.0
176
     1
 90
        0
176
     1
 62
   257
176
     1
 40
1.0
176
     1
 90
        1
176
     1
 90
        6
176
     1
 90
        2
176
     1
 62
     7
176
     1
 90
        5
176
     1
 90
        0
176
     1
 90
        0
176
     1
290
     0
176
     1
 90
       13
176
     1
 40
0.0
176
     1
 90
        0
176
     1
290
     0
176
     1
290
     1
176
     1
290
     1
176
     1
290
     0
176
     1
290
     0
176
     1
290
     0
176
     1
290
     0
176
     1
290
     0
176
     1
290
     0
176
     1
 90
       50
176
     1
 40
0.0
176
     1
 40
1.0
176
     1
 90
        0
176
     1
 62
    18
420
        0
176
     1
 90
       50
176
     1
 90
        3
176
     1
 62
     5
420
      255
176
     1
290
     0
176
     1
 90
       50
176
     1
 90
       50
176
     1
 90
       50
176
     1
290
     0
176
     1
 90
       50
176
     1
 62
   256
176
     0
 40
1.0
176
     0
 90
        2
176
     1
  1
strokes_ogs.tif
176
     1
290
     0
176
     1
 40
1.0
176
     1
 40
1.0
176
     1
  0
VISUALSTYLE
  5
4FA8
102
{ACAD_REACTORS
330
29
102
}
330
29
100
AcDbVisualStyle
  2
Hidden
 70
     6
177
     3
291
     0
 70
    58
 90
        1
176
     1
 90
        2
176
     1
 90
        2
176
     1
 90
        0
176
     1
 40
0.6
176
     1
 40
30.0
176
     1
 62
     7
420
 16777215
176
     1
 90
        2
176
     1
 90
        2
176
     1
 62
     7
176
     1
 62
   257
176
     1
 90
        2
176
     1
 90
        1
176
     1
 40
40.0
176
     1
 90
        0
176
     1
 62
   257
176
     1
 40
1.0
176
     1
 90
        1
176
     1
 90
        6
176
     1
 90
        2
176
     1
 62
     7
176
     1
 90
        3
176
     1
 90
        0
176
     1
 90
        0
176
     1
290
     0
176
     1
 90
        1
176
     1
 40
0.0
176
     1
 90
        0
176
     1
290
     0
176
     1
290
     1
176
     1
290
     1
176
     1
290
     0
176
     1
290
     0
176
     1
290
     0
176
     1
290
     0
176
     1
290
     0
176
     1
290
     0
176
     1
 90
       50
176
     1
 40
0.0
176
     1
 40
1.0
176
     1
 90
        0
176
     1
 62
    18
420
        0
176
     1
 90
       50
176
     1
 90
        3
176
     1
 62
     5
420
      255
176
     1
290
     0
176
     1
 90
       50
176
     1
 90
       50
176
     1
 90
       50
176
     1
290
     0
176
     1
 90
       50
176
     1
 62
   256
176
     0
 40
1.0
176
     0
 90
        2
176
     1
  1
strokes_ogs.tif
176
     1
290
     0
176
     1
 40
1.0
176
     1
 40
1.0
176
     1
  0
VISUALSTYLE
  5
4FAE
102
{ACAD_REACTORS
330
29
102
}
330
29
100
AcDbVisualStyle
  2
JitterOff
 70
    20
177
     3
291
     1
 70
    58
 90
        2
176
     0
 90
        2
176
     0
 90
        0
176
     0
 90
        0
176
     0
 40
0.6
176
     0
 40
30.0
176
     0
 62
     7
420
 16777215
176
     0
 90
        1
176
     0
 90
        4
176
     0
 62
     7
176
     0
 62
   257
176
     0
 90
        1
176
     0
 90
        1
176
     0
 40
1.0
176
     0
 90
       10
176
     2
 62
     7
176
     0
 40
1.0
176
     0
 90
        1
176
     0
 90
        6
176
     0
 90
        2
176
     0
 62
     7
176
     0
 90
        5
176
     0
 90
        0
176
     0
 90
        0
176
     0
290
     0
176
     0
 90
        1
176
     0
 40
0.0
176
     0
 90
        0
176
     0
290
     0
176
     0
290
     1
176
     0
290
     1
176
     0
290
     0
176
     0
290
     0
176
     0
290
     0
176
     1
290
     0
176
     1
290
     0
176
     1
290
     0
176
     1
 90
       50
176
     1
 40
0.0
176
     1
 40
1.0
176
     1
 90
        0
176
     1
 62
    18
420
        0
176
     1
 90
       50
176
     1
 90
        3
176
     1
 62
     5
420
      255
176
     1
290
     0
176
     1
 90
       50
176
     1
 90
       50
176
     1
 90
       50
176
     1
290
     0
176
     1
 90
       50
176
     1
 62
   256
176
     0
 40
1.0
176
     0
 90
        2
176
     1
  1
strokes_ogs.tif
176
     1
290
     0
176
     1
 40
1.0
176
     1
 40
1.0
176
     1
  0
VISUALSTYLE
  5
37
102
{ACAD_REACTORS
330
29
102
}
330
29
100
AcDbVisualStyle
  2
Linepattern
 70
    14
177
     3
291
     1
 70
    58
 90
        2
176
     1
 90
        2
176
     1
 90
        0
176
     1
 90
        0
176
     1
 40
0.6
176
     1
 40
30.0
176
     1
 62
     7
176
     1
 90
        1
176
     1
 90
        4
176
     1
 62
     7
176
     1
 62
   257
176
     1
 90
        7
176
     1
 90
        7
176
     1
 40
1.0
176
     1
 90
        8
176
     1
 62
     7
176
     1
 40
1.0
176
     1
 90
        1
176
     1
 90
        6
176
     1
 90
        2
176
     1
 62
     7
176
     1
 90
        5
176
     1
 90
        0
176
     1
 90
        0
176
     1
290
     0
176
     1
 90
        1
176
     1
 40
0.0
176
     1
 90
        0
176
     1
290
     0
176
     1
290
     1
176
     1
290
     1
176
     1
290
     0
176
     1
290
     0
176
     1
290
     0
176
     1
290
     0
176
     1
290
     0
176
     1
290
     0
176
     1
 90
       50
176
     1
 40
0.0
176
     1
 40
1.0
176
     1
 90
        0
176
     1
 62
    18
420
        0
176
     1
 90
       50
176
     1
 90
        3
176
     1
 62
     5
420
      255
176
     1
290
     0
176
     1
 90
       50
176
     1
 90
       50
176
     1
 90
       50
176
     1
290
     0
176
     1
 90
       50
176
     1
 62
   256
176
     0
 40
1.0
176
     0
 90
        2
176
     1
  1
strokes_ogs.tif
176
     1
290
     0
176
     1
 40
1.0
176
     1
 40
1.0
176
     1
  0
VISUALSTYLE
  5
4FAF
102
{ACAD_REACTORS
330
29
102
}
330
29
100
AcDbVisualStyle
  2
OverhangOff
 70
    21
177
     3
291
     1
 70
    58
 90
        2
176
     0
 90
        2
176
     0
 90
        0
176
     0
 90
        0
176
     0
 40
0.6
176
     0
 40
30.0
176
     0
 62
     7
420
 16777215
176
     0
 90
        1
176
     0
 90
        4
176
     0
 62
     7
176
     0
 62
   257
176
     0
 90
        1
176
     0
 90
        1
176
     0
 40
1.0
176
     0
 90
        9
176
     2
 62
     7
176
     0
 40
1.0
176
     0
 90
        1
176
     0
 90
        6
176
     0
 90
        2
176
     0
 62
     7
176
     0
 90
        5
176
     0
 90
        0
176
     0
 90
        0
176
     0
290
     0
176
     0
 90
        1
176
     0
 40
0.0
176
     0
 90
        0
176
     0
290
     0
176
     0
290
     1
176
     0
290
     1
176
     0
290
     0
176
     0
290
     0
176
     0
290
     0
176
     1
290
     0
176
     1
290
     0
176
     1
290
     0
176
     1
 90
       50
176
     1
 40
0.0
176
     1
 40
1.0
176
     1
 90
        0
176
     1
 62
    18
420
        0
176
     1
 90
       50
176
     1
 90
        3
176
     1
 62
     5
420
      255
176
     1
290
     0
176
     1
 90
       50
176
     1
 90
       50
176
     1
 90
       50
176
     1
290
     0
176
     1
 90
       50
176
     1
 62
   256
176
     0
 40
1.0
176
     0
 90
        2
176
     1
  1
strokes_ogs.tif
176
     1
290
     0
176
     1
 40
1.0
176
     1
 40
1.0
176
     1
  0
VISUALSTYLE
  5
33
102
{ACAD_REACTORS
330
29
102
}
330
29
100
AcDbVisualStyle
  2
Realistic
 70
     8
177
     3
291
     0
 70
    58
 90
        2
176
     1
 90
        2
176
     1
 90
        0
176
     1
 90
        0
176
     1
 40
0.6
176
     1
 40
30.0
176
     1
 62
     7
176
     1
 90
        1
176
     1
 90
        0
176
     1
 62
     7
176
     1
 62
   257
176
     1
 90
        1
176
     1
 90
        1
176
     1
 40
1.0
176
     1
 90
        8
176
     1
 62
     8
176
     1
 40
1.0
176
     1
 90
        1
176
     1
 90
        6
176
     1
 90
        2
176
     1
 62
     7
176
     1
 90
        5
176
     1
 90
        0
176
     1
 90
        0
176
     1
290
     0
176
     1
 90
       13
176
     1
 40
0.0
176
     1
 90
        0
176
     1
290
     0
176
     1
290
     1
176
     1
290
     1
176
     1
290
     0
176
     1
290
     0
176
     1
290
     0
176
     1
290
     0
176
     1
290
     0
176
     1
290
     0
176
     1
 90
       50
176
     1
 40
0.0
176
     1
 40
1.0
176
     1
 90
        0
176
     1
 62
    18
420
        0
176
     1
 90
       50
176
     1
 90
        3
176
     1
 62
     5
420
      255
176
     1
290
     0
176
     1
 90
       50
176
     1
 90
       50
176
     1
 90
       50
176
     1
290
     0
176
     1
 90
       50
176
     1
 62
   256
176
     0
 40
1.0
176
     0
 90
        2
176
     1
  1
strokes_ogs.tif
176
     1
290
     0
176
     1
 40
1.0
176
     1
 40
1.0
176
     1
  0
VISUALSTYLE
  5
4FAD
102
{ACAD_REACTORS
330
29
102
}
330
29
100
AcDbVisualStyle
  2
Shaded
 70
    27
177
     3
291
     0
 70
    58
 90
        2
176
     1
 90
        2
176
     1
 90
        1
176
     1
 90
        2
176
     1
 40
0.6
176
     1
 40
30.0
176
     1
 62
     7
420
 16777215
176
     1
 90
        0
176
     1
 90
        4
176
     1
 62
     7
176
     1
 62
   257
176
     1
 90
        1
176
     1
 90
        1
176
     1
 40
1.0
176
     1
 90
        8
176
     1
 62
   257
176
     1
 40
1.0
176
     1
 90
        1
176
     1
 90
        6
176
     1
 90
        2
176
     1
 62
     8
420
  7895160
176
     1
 90
        3
176
     1
 90
        0
176
     1
 90
        0
176
     1
290
     0
176
     1
 90
        5
176
     1
 40
0.0
176
     1
 90
        0
176
     1
290
     0
176
     1
290
     1
176
     1
290
     1
176
     1
290
     0
176
     1
290
     0
176
     1
290
     0
176
     1
290
     0
176
     1
290
     0
176
     1
290
     0
176
     1
 90
       50
176
     1
 40
0.0
176
     1
 40
1.0
176
     1
 90
        0
176
     1
 62
    18
420
        0
176
     1
 90
       50
176
     1
 90
        3
176
     1
 62
     5
420
      255
176
     1
290
     0
176
     1
 90
       50
176
     1
 90
       50
176
     1
 90
       50
176
     1
290
     0
176
     1
 90
       50
176
     1
 62
   256
176
     0
 40
1.0
176
     0
 90
        2
176
     1
  1
strokes_ogs.tif
176
     1
290
     0
176
     1
 40
1.0
176
     1
 40
1.0
176
     1
  0
VISUALSTYLE
  5
4FAC
102
{ACAD_REACTORS
330
29
102
}
330
29
100
AcDbVisualStyle
  2
Shaded with edges
 70
    26
177
     3
291
     0
 70
    58
 90
        2
176
     1
 90
        2
176
     1
 90
        1
176
     1
 90
        2
176
     1
 40
0.6
176
     1
 40
30.0
176
     1
 62
     7
420
 16777215
176
     1
 90
        1
176
     1
 90
       10
176
     1
 62
     7
176
     1
 62
   257
176
     1
 90
        2
176
     1
 90
        1
176
     1
 40
1.0
176
     1
 90
        8
176
     1
 62
   257
176
     1
 40
1.0
176
     1
 90
        1
176
     1
 90
        6
176
     1
 90
        2
176
     1
 62
     7
176
     1
 90
        3
176
     1
 90
        0
176
     1
 90
        0
176
     1
290
     0
176
     1
 90
        5
176
     1
 40
0.0
176
     1
 90
        0
176
     1
290
     0
176
     1
290
     1
176
     1
290
     1
176
     1
290
     0
176
     1
290
     0
176
     1
290
     0
176
     1
290
     0
176
     1
290
     0
176
     1
290
     0
176
     1
 90
       50
176
     1
 40
0.0
176
     1
 40
1.0
176
     1
 90
        0
176
     1
 62
    18
420
        0
176
     1
 90
       50
176
     1
 90
        3
176
     1
 62
     5
420
      255
176
     1
290
     0
176
     1
 90
       50
176
     1
 90
       50
176
     1
 90
       50
176
     1
290
     0
176
     1
 90
       50
176
     1
 62
   256
176
     0
 40
1.0
176
     0
 90
        2
176
     1
  1
strokes_ogs.tif
176
     1
290
     0
176
     1
 40
1.0
176
     1
 40
1.0
176
     1
  0
VISUALSTYLE
  5
4FA9
102
{ACAD_REACTORS
330
29
102
}
330
29
100
AcDbVisualStyle
  2
Shades of Gray
 70
    23
177
     3
291
     0
 70
    58
 90
        2
176
     1
 90
        2
176
     1
 90
        3
176
     1
 90
        0
176
     1
 40
0.6
176
     1
 40
30.0
176
     1
 62
     7
420
 16777215
176
     1
 90
        2
176
     1
 90
        2
176
     1
 62
     7
176
     1
 62
     7
176
     1
 90
        1
176
     1
 90
        1
176
     1
 40
40.0
176
     1
 90
        8
176
     1
 62
     7
176
     1
 40
1.0
176
     1
 90
        1
176
     1
 90
        6
176
     1
 90
        2
176
     1
 62
     7
176
     1
 90
        3
176
     1
 90
        0
176
     1
 90
        0
176
     1
290
     0
176
     1
 90
        1
176
     1
 40
0.0
176
     1
 90
        0
176
     1
290
     0
176
     1
290
     1
176
     1
290
     1
176
     1
290
     0
176
     1
290
     0
176
     1
290
     0
176
     1
290
     0
176
     1
290
     0
176
     1
290
     0
176
     1
 90
       50
176
     1
 40
0.0
176
     1
 40
1.0
176
     1
 90
        0
176
     1
 62
    18
420
        0
176
     1
 90
       50
176
     1
 90
        3
176
     1
 62
     5
420
      255
176
     1
290
     0
176
     1
 90
       50
176
     1
 90
       50
176
     1
 90
       50
176
     1
290
     0
176
     1
 90
       50
176
     1
 62
   256
176
     0
 40
1.0
176
     0
 90
        2
176
     1
  1
strokes_ogs.tif
176
     1
290
     0
176
     1
 40
1.0
176
     1
 40
1.0
176
     1
  0
VISUALSTYLE
  5
4FAA
102
{ACAD_REACTORS
330
29
102
}
330
29
100
AcDbVisualStyle
  2
Sketchy
 70
    24
177
     3
291
     0
 70
    58
 90
        1
176
     1
 90
        2
176
     1
 90
        2
176
     1
 90
        0
176
     1
 40
0.6
176
     1
 40
30.0
176
     1
 62
     7
420
 16777215
176
     1
 90
        2
176
     1
 90
        2
176
     1
 62
     7
176
     1
 62
     7
176
     1
 90
        1
176
     1
 90
        1
176
     1
 40
40.0
176
     1
 90
       11
176
     1
 62
     7
176
     1
 40
1.0
176
     1
 90
        1
176
     1
 90
        6
176
     1
 90
        2
176
     1
 62
     7
176
     1
 90
        6
176
     1
 90
        0
176
     1
 90
        0
176
     1
290
     0
176
     1
 90
        1
176
     1
 40
0.0
176
     1
 90
        0
176
     1
290
     0
176
     1
290
     1
176
     1
290
     1
176
     1
290
     0
176
     1
290
     0
176
     1
290
     0
176
     1
290
     0
176
     1
290
     0
176
     1
290
     0
176
     1
 90
       50
176
     1
 40
0.0
176
     1
 40
1.0
176
     1
 90
        0
176
     1
 62
    18
420
        0
176
     1
 90
       50
176
     1
 90
        3
176
     1
 62
     5
420
      255
176
     1
290
     0
176
     1
 90
       50
176
     1
 90
       50
176
     1
 90
       50
176
     1
290
     0
176
     1
 90
       50
176
     1
 62
   256
176
     0
 40
1.0
176
     0
 90
        2
176
     1
  1
strokes_ogs.tif
176
     1
290
     0
176
     1
 40
1.0
176
     1
 40
1.0
176
     1
  0
VISUALSTYLE
  5
36
102
{ACAD_REACTORS
330
29
102
}
330
29
100
AcDbVisualStyle
  2
Thicken
 70
    13
177
     3
291
     1
 70
    58
 90
        2
176
     1
 90
        2
176
     1
 90
        0
176
     1
 90
        0
176
     1
 40
0.6
176
     1
 40
30.0
176
     1
 62
     7
176
     1
 90
        1
176
     1
 90
        4
176
     1
 62
     7
176
     1
 62
   257
176
     1
 90
        1
176
     1
 90
        1
176
     1
 40
1.0
176
     1
 90
       12
176
     1
 62
     7
176
     1
 40
1.0
176
     1
 90
        1
176
     1
 90
        6
176
     1
 90
        2
176
     1
 62
     7
176
     1
 90
        5
176
     1
 90
        0
176
     1
 90
        0
176
     1
290
     0
176
     1
 90
        1
176
     1
 40
0.0
176
     1
 90
        0
176
     1
290
     0
176
     1
290
     1
176
     1
290
     1
176
     1
290
     0
176
     1
290
     0
176
     1
290
     0
176
     1
290
     0
176
     1
290
     0
176
     1
290
     0
176
     1
 90
       50
176
     1
 40
0.0
176
     1
 40
1.0
176
     1
 90
        0
176
     1
 62
    18
420
        0
176
     1
 90
       50
176
     1
 90
        3
176
     1
 62
     5
420
      255
176
     1
290
     0
176
     1
 90
       50
176
     1
 90
       50
176
     1
 90
       50
176
     1
290
     0
176
     1
 90
       50
176
     1
 62
   256
176
     0
 40
1.0
176
     0
 90
        2
176
     1
  1
strokes_ogs.tif
176
     1
290
     0
176
     1
 40
1.0
176
     1
 40
1.0
176
     1
  0
VISUALSTYLE
  5
4FA7
102
{ACAD_REACTORS
330
29
102
}
330
29
100
AcDbVisualStyle
  2
Wireframe
 70
     5
177
     3
291
     0
 70
    58
 90
        0
176
     1
 90
        2
176
     1
 90
        0
176
     1
 90
        0
176
     1
 40
0.6
176
     1
 40
30.0
176
     1
 62
     7
420
 16777215
176
     1
 90
        1
176
     1
 90
        4
176
     1
 62
     7
176
     1
 62
   257
176
     1
 90
        1
176
     1
 90
        1
176
     1
 40
1.0
176
     1
 90
        0
176
     1
 62
   257
176
     1
 40
1.0
176
     1
 90
        1
176
     1
 90
        6
176
     1
 90
        2
176
     1
 62
     7
176
     1
 90
        3
176
     1
 90
        0
176
     1
 90
        0
176
     1
290
     0
176
     1
 90
        1
176
     1
 40
0.0
176
     1
 90
        0
176
     1
290
     0
176
     1
290
     1
176
     1
290
     1
176
     1
290
     0
176
     1
290
     0
176
     1
290
     0
176
     1
290
     0
176
     1
290
     0
176
     1
290
     0
176
     1
 90
       50
176
     1
 40
0.0
176
     1
 40
1.0
176
     1
 90
        0
176
     1
 62
    18
420
        0
176
     1
 90
       50
176
     1
 90
        3
176
     1
 62
     5
420
      255
176
     1
290
     0
176
     1
 90
       50
176
     1
 90
       50
176
     1
 90
       50
176
     1
290
     0
176
     1
 90
       50
176
     1
 62
   256
176
     0
 40
1.0
176
     0
 90
        2
176
     1
  1
strokes_ogs.tif
176
     1
290
     0
176
     1
 40
1.0
176
     1
 40
1.0
176
     1
  0
VISUALSTYLE
  5
4FAB
102
{ACAD_REACTORS
330
29
102
}
330
29
100
AcDbVisualStyle
  2
X-Ray
 70
    25
177
     3
291
     0
 70
    58
 90
        2
176
     1
 90
        2
176
     1
 90
        1
176
     1
 90
        1
176
     1
 40
0.5
176
     1
 40
30.0
176
     1
 62
     7
420
 16777215
176
     1
 90
        1
176
     1
 90
        0
176
     1
 62
     7
176
     1
 62
   257
176
     1
 90
        1
176
     1
 90
        1
176
     1
 40
1.0
176
     1
 90
        8
176
     1
 62
     7
176
     1
 40
1.0
176
     1
 90
        1
176
     1
 90
        6
176
     1
 90
        2
176
     1
 62
     7
176
     1
 90
        3
176
     1
 90
        0
176
     1
 90
        0
176
     1
290
     0
176
     1
 90
       13
176
     1
 40
0.0
176
     1
 90
        0
176
     1
290
     0
176
     1
290
     1
176
     1
290
     1
176
     1
290
     0
176
     1
290
     0
176
     1
290
     0
176
     1
290
     0
176
     1
290
     0
176
     1
290
     0
176
     1
 90
       50
176
     1
 40
0.0
176
     1
 40
1.0
176
     1
 90
        0
176
     1
 62
    18
420
        0
176
     1
 90
       50
176
     1
 90
        3
176
     1
 62
     5
420
      255
176
     1
290
     0
176
     1
 90
       50
176
     1
 90
       50
176
     1
 90
       50
176
     1
290
     0
176
     1
 90
       50
176
     1
 62
   256
176
     0
 40
1.0
176
     0
 90
        2
176
     1
  1
strokes_ogs.tif
176
     1
290
     0
176
     1
 40
1.0
176
     1
 40
1.0
176
     1
  0
DICTIONARYVAR
  5
1CC
102
{ACAD_REACTORS
330
1C9
102
}
330
1C9
100
DictionaryVariables
280
     0
  1
1:1
  0
DICTIONARYVAR
  5
1CB
102
{ACAD_REACTORS
330
1C9
102
}
330
1C9
100
DictionaryVariables
280
     0
  1
STANDARD
  0
DICTIONARYVAR
  5
1CA
102
{ACAD_REACTORS
330
1C9
102
}
330
1C9
100
DictionaryVariables
280
     0
  1
STANDARD
  0
DICTIONARYVAR
  5
52B4
102
{ACAD_REACTORS
330
1C9
102
}
330
1C9
100
DictionaryVariables
280
     0
  1
Metric50
  0
DICTIONARYVAR
  5
52B5
102
{ACAD_REACTORS
330
1C9
102
}
330
1C9
100
DictionaryVariables
280
     0
  1
Metric50
  0
DICTIONARYVAR
  5
1CF
102
{ACAD_REACTORS
330
1C9
102
}
330
1C9
100
DictionaryVariables
280
     0
  1
1
  0
DICTIONARYVAR
  5
1CE
102
{ACAD_REACTORS
330
1C9
102
}
330
1C9
100
DictionaryVariables
280
     0
  1
0
  0
DICTIONARYVAR
  5
5002
102
{ACAD_REACTORS
330
1C9
102
}
330
1C9
100
DictionaryVariables
280
     0
  1
1
  0
DICTIONARYVAR
  5
5003
102
{ACAD_REACTORS
330
1C9
102
}
330
1C9
100
DictionaryVariables
280
     0
  1
15
  0
DICTIONARYVAR
  5
2D3
102
{ACAD_REACTORS
330
1C9
102
}
330
1C9
100
DictionaryVariables
280
     0
  1
0
  0
DICTIONARYVAR
  5
2D2
102
{ACAD_REACTORS
330
1C9
102
}
330
1C9
100
DictionaryVariables
280
     0
  1
0
  0
DICTIONARYVAR
  5
1CD
102
{ACAD_REACTORS
330
1C9
102
}
330
1C9
100
DictionaryVariables
280
     0
  1
127
  0
DICTIONARY
  5
2B6
102
{ACAD_REACTORS
330
166
102
}
330
166
100
AcDbDictionary
281
     1
  0
DICTIONARY
  5
171
102
{ACAD_REACTORS
330
166
102
}
330
166
100
AcDbDictionary
281
     1
  0
XRECORD
  5
186
102
{ACAD_REACTORS
330
166
102
}
330
166
100
AcDbXrecord
280
     1
 90
-1023410169
  0
XRECORD
  5
51B7
102
{ACAD_REACTORS
330
4025
102
}
330
4025
100
AcDbXrecord
280
     1
 90
        0
302
{
302
{
300
MatBom2.0.1.
301
PS!ACADMPP!PV!18.2s (LMS Tech)!AVMa!2!AVMi!0!AVBu!0
303
}
303
}
  0
XRECORD
  5
989
102
{ACAD_REACTORS
330
988
102
}
330
988
100
AcDbXrecord
280
     1
330
0
  0
XRECORD
  5
4B03
102
{ACAD_REACTORS
330
257
102
}
330
257
100
AcDbXrecord
280
     1
 90
-1073741824
  0
DICTIONARY
  5
52B9
330
51F2
100
AcDbDictionary
280
     1
281
     1
  3
ACAD_XREC_ROUNDTRIP
360
52BA
  0
DICTIONARY
  5
1A
330
19
100
AcDbDictionary
280
     1
281
     1
  3
BUMPTILE
360
1C
  3
DIFFUSETILE
360
1B
  3
OPACITYTILE
360
1F
  3
REFLECTIONTILE
360
1E
  3
REFRACTIONTILE
360
20
  3
SPECULARTILE
360
1D
  0
DICTIONARY
  5
12
330
11
100
AcDbDictionary
280
     1
281
     1
  3
BUMPTILE
360
14
  3
DIFFUSETILE
360
13
  3
OPACITYTILE
360
17
  3
REFLECTIONTILE
360
16
  3
REFRACTIONTILE
360
18
  3
SPECULARTILE
360
15
  0
DICTIONARY
  5
22
330
21
100
AcDbDictionary
280
     1
281
     1
  3
BUMPTILE
360
24
  3
DIFFUSETILE
360
23
  3
FBXASSET
360
52AB
  3
OPACITYTILE
360
27
  3
REFLECTIONTILE
360
26
  3
REFRACTIONTILE
360
28
  3
SPECULARTILE
360
25
  0
DICTIONARY
  5
52B7
330
51F0
100
AcDbDictionary
280
     1
281
     1
  3
ACAD_XREC_ROUNDTRIP
360
52B8
  0
DICTIONARY
  5
1B2
330
6C
100
AcDbDictionary
280
     1
281
     1
  3
ACAD_ROUNDTRIP_2008_TABLESTYLE_CELLSTYLEMAP
360
52B6
  0
XRECORD
  5
52BA
102
{ACAD_REACTORS
330
52B9
102
}
330
52B9
100
AcDbXrecord
280
     1
102
DISPLAYNAME
  1
Metric50
102
FLAGS
 90
        0
  0
XRECORD
  5
1C
102
{ACAD_REACTORS
330
1A
102
}
330
1A
100
AcDbXrecord
280
     1
270
     1
271
     1
  0
XRECORD
  5
1B
102
{ACAD_REACTORS
330
1A
102
}
330
1A
100
AcDbXrecord
280
     1
270
     1
271
     1
  0
XRECORD
  5
1F
102
{ACAD_REACTORS
330
1A
102
}
330
1A
100
AcDbXrecord
280
     1
270
     1
271
     1
  0
XRECORD
  5
1E
102
{ACAD_REACTORS
330
1A
102
}
330
1A
100
AcDbXrecord
280
     1
270
     1
271
     1
  0
XRECORD
  5
20
102
{ACAD_REACTORS
330
1A
102
}
330
1A
100
AcDbXrecord
280
     1
270
     1
271
     1
  0
XRECORD
  5
1D
102
{ACAD_REACTORS
330
1A
102
}
330
1A
100
AcDbXrecord
280
     1
270
     1
271
     1
  0
XRECORD
  5
14
102
{ACAD_REACTORS
330
12
102
}
330
12
100
AcDbXrecord
280
     1
270
     1
271
     1
  0
XRECORD
  5
13
102
{ACAD_REACTORS
330
12
102
}
330
12
100
AcDbXrecord
280
     1
270
     1
271
     1
  0
XRECORD
  5
17
102
{ACAD_REACTORS
330
12
102
}
330
12
100
AcDbXrecord
280
     1
270
     1
271
     1
  0
XRECORD
  5
16
102
{ACAD_REACTORS
330
12
102
}
330
12
100
AcDbXrecord
280
     1
270
     1
271
     1
  0
XRECORD
  5
18
102
{ACAD_REACTORS
330
12
102
}
330
12
100
AcDbXrecord
280
     1
270
     1
271
     1
  0
XRECORD
  5
15
102
{ACAD_REACTORS
330
12
102
}
330
12
100
AcDbXrecord
280
     1
270
     1
271
     1
  0
XRECORD
  5
24
102
{ACAD_REACTORS
330
22
102
}
330
22
100
AcDbXrecord
280
     1
270
     1
271
     1
  0
XRECORD
  5
23
102
{ACAD_REACTORS
330
22
102
}
330
22
100
AcDbXrecord
280
     1
270
     1
271
     1
  0
XRECORD
  5
52AB
102
{ACAD_REACTORS
330
22
102
}
330
22
100
AcDbXrecord
280
     1
 70
     1
 90
1959938040
 71
     1
  1
AEB710F6-DBC5-42F7-B9A1-0E0A28F7DBDB
311
504B03041400060808005A570F4B87A08DE044010000A80100004F00000041384134364243312D304531432D343643452D413346422D3642453844313837434644332F4173736574446174612F446566696E6974696F6E4974657261746F7250726F706572746965732E62696E4D50BB4A034114BD6A502C4405496D612793
311
7D649DD9084167767603824D040B1B99AC93CDC23E426617DB94FE87958DBD8D7F60E5875808B67A0723788773CF65EEEBCC3C00C0F7CA308435C412FD0EF248577A91A757E94C970A36ED4D514F5471841167D277E92026091594045E5F9090C5110922E653162512691DEBB610524F555B3476E4656E525D14AAD2756BF6
311
F162B5E3B0540DEE5245CF366D03585A22E02F61ECA4EC579115798F5077F3D333658C6E860E0F794045E41137F650068D62C2FB892054C4A1F4422BA9EF8CB5A9DB45AA8DC363C13C37A1448AE884047EC2881870DBED723F4C98145238CDACB55F7360654C2A95178EEBAC24DCCEAB6CF71938CCF14850D02000BA700D1E
311
32C0D3C5DBF11E8C6B55E65506E7F8A60E7CBC4E479FAECDF4B0E2EBBD837EC316FFB397C710C650E3B41272A820C35C176E7E00504B03041400060808005A570F4BF0697725F8000000300200004500000041384134364243312D304531432D343643452D413346422D3642453844313837434644332F4173736574446174
311
612F496E7374616E636550726F706572746965732E62696EEB606060F80F0540260323103700495E20ED9E9A975A94991C9C9C919A9BA802147074753237347033D375717236D535317233D775B27434D43570357034B2703377717271624768046931363471713532B5D435353131D635313332D475727372D13534373670
311
367376B67474B5042A03DBCBA019D37FE8ABC6157B20CD04146B0062181F4C03F940F0C11EA29A8141C08141002C0426541C106CAC2CA046088033B02A030AC2157C6006F21A8018AAF50194E6010A610250382264E08660284CD9E98021862280A91564B406929A0FF62C401E28B6F88038B83CB1243943D7A928312F2535
311
0524432C88002A046105202E03053A010000504B03041400060808005A570F4B88E57597CD3F0000904100006B00000041384134364243312D304531432D343643452D413346422D3642453844313837434644332F5265736F75726365732F41454237313046362D444243352D343246372D423941312D3045304132384637
311
444244422F7468756D626E61696C2F302F67656E657269635F706E67355B773CD4FF1FBF73E71C0E67EF7576C9DEF3EC995D46C6A1EC5046649CBDF79E192942562825CE965D8A868C2842C8DE9FDFD1F7E7F138F7078FCF6B3F5FCFD7EBFDFEC41B196891913091804020321D6D7513FC77D8C5070EC3FFEE51B21F068154
311
CC75D455CC028A3EA68992803810109FDDE5D5CEC5521B28A1B422BF80741695D5B529DA1C2D058AD2388BDA9F476F7C2CADC939304173DBF48A452BF8A700C0C70C3D121C1AA15A5270C22E2B9E28763651F7DA0D12CE11077B2ECD0D560B5E3DE2368B1E65C5E1C87384A4CC5F2D9FB8BE39E9B77C753783A37998F5CEF1
311
B4FEE553463245C9712270880DF339E0B882A6BA713D865F6F384C842D440934EF264F4A304F8DE4EEFA1E2BF5E2D91F5ADD9613D6E31DDB33ED31DB1D7916CAF091286EA3D31B9CFECB78BB0060245B943C4C040119FF780A74DD308BA9D028678674EB5504ECF284EE814DAED07440BAF649BE4B55DA2890F4D73E2D489A
311
59EE54FDB0A85B59F2F52C4858A02705C4815A792B0C4A996A2023ECB195073E115E3E3647F64243A8338F2000BCB58DA5692C7E7C3D413F963FEDF3CF00FBB0F831A9D51360FECA43819F527B89FA260EB63C5DA676830AA3626A3693B23F1A17A0DFFCE3EE164E31B5365EDF0C89EF64D8E38AB0BA9A1117D7C3A0EC44F4
311
4F4023095E80BA610DE336D0F99593A88BFC5306E72DF98F7FD132ED95878DF2964EA7E43071359FD83B2BDF9C6B5BDF768F0F3C0FC351199526F53D9460A34511F75D1B63E488178569472C91A94497807A3FD4A390C6558F26D416365C3656DE6E769DA9D8FC73774E1709812842DD8EF96AED1960F79D21B395CDDFE6F9
311
2CB4EB962A4668C76990E2EF29798C8941D67DA50F4A5F947872460F1F6FDB794E8A29FD7AC0C0D6E0714339CE258FB17AE8535221E3464A10F29A0BE5EEECEFC5675926A89F49EB14E5711894F6586DB5754EB4D5DA9C6437EBA57DB97A24F8B8A8DB295FFD73266CF57E82694DF5166DDF93573AFE9C9C5EB05F8FEF8E89
311
E0A8917B0B3724DB7BEBB53252581EFC3E38166BA131A3A5B42FE2AD00A769BBFA4458D2DE7822F8C4F63D0B8E21B285AE13325F3410A435C648C9D91FDEB109E73CEDA7BC796961AF79175E1A3CE4C5E8B0D009B0C9E29EFD98BC8E97554E3D8D838424E270F7685226E5AC268E021EDE3522D583E8F20C0BDE2959EF5BBF
311
EEDAB32FE9A3ED0E39F211A86AA9DEBFC68182EDED132AB8BB794442D2D7EA9F4D8BFF52BC4D55BB165124EE90A42D101E67BBBB292FFB4F66DE5BF2300E44546757DA7CEF8932BFC9F92A0707953491A55C5A5ACEDABD9FA1AEA01BAC3DC5A24E22E7C47213493996EFBC369D086ED9397C9BA6C7F9855C7BD5E15BFC8C53
311
DB3D2A4C5901A57ACD2FBDF4D1676E95338B2C2BCE65FDA4C64F5FEFDC7D9CA5AA1FCF11E193F2FDABF0F4916BF13FB916A224380E6462A9815F2300DC49CC4DF8D055CEF76462F4B7A7ACA7365C2707891370BC1D0AA6203C44CCAB47084FEC057F27FFCD57F89B8B9852459798A675C66BD7CE572CAF71FF7E6D7ECF7BF6
311
2CAB7B3F1107DCD04DC55A3F9961700286141C94A4F771FEB2BCDA2DDEE0CB0BAE402FF1DB0100F8E475DFFFC074DDB4498AB7D186A7654DDB1CB680D703D47CEB4E72F8CB13D86A4AA68116E26387B93FD6738779B34FEDB8E517EDF2BAF28D9BE93A1D3A164320E07D42E514725C29515FF361754213EDE06B079A2E99EB
311
1CA82A02019EADEEB87B9AF005BD04BBCECB14AACD6B24EFBE482194A97DD32400685FF1FEF1544D1B14EFB1E7F08E6D2CD2AF52DE757F35F5E62332EE88EA26417AD5C3E0E319D68F25414E6D672BD4522B278C57D18F0113921C71D96527E091F00CEB15AE23D24667369BD3CEFA10C7549D930890BA4366F4EBC55F01F7
311
46109F98ABCDD5A3EE06619C6AD78AB33E48E4C9BD21BF7478B385EC05C4F8987E2C1BFA0A60EBEDAA0AE0B015C2720ECE180FB6F2DEFBEB822D96338C9B63822183BBF52FB664A7AE57003AABCE512BF77E7E31BDA2E739AC4C131657DDFE5225E900FB56CC01CDE808FA4A9C9DA16AC679656BB64796283D89812B8F9113
311
6AE18EE5EBBAF47A73BE3C153EB5D4CD491B4BFB4FE690A4CF9ABA08C0D8AA64220C438C96EA6CA80B58FE5761E697B3A292EB9FBDA502FA863E49FE694ADDFFF9D62C520BDD1A22014147A0903A05B9B729F54272EF83931FEEC057BFF8C8055C279EAC5C0011804828734024F6CFA319C9CC6867C727184465CD9BB7ED38
311
6AFFD96B294A85E3802FAE47244602D8273615952B98C4F23F7EAE4463D9D638EEE374A20959E0FE519C4CFB0FBFE5DD80C2AA3F9DB961D1BDE57E67C9BB47B77FDD74EE3094F5DBBE3EBC1FBDB7393F5116263009E2EFE1AF9A221B2AE234C902BF70E9F280ED23E73908361565964333A3F01D0B006AF32FB21AA1316744
311
B489D5A198E85299241735BE559675130955C902A8ED761FC0DBE337A9F91919AF5CE32AF902ADF9AB2615E00E8A94586BA1A90839B61832FF1BFB76D2EFADE6DB1BA04CCAD3DA649E7E2A0219F592E22F2AD54847EEA8E42271011E9074F8F3DD9FBA6CDF88FFC9FC7E811AD1CA8F4557CE4AFC7BBEDCF0114A48689F20A5
311
84520C74DA8127124B767E2FB91A6B186246727BE63C9445BAE02088D58B8EFDC0F1072407CD9B89A13F6303B4A928F593AD489B58E6869325790ADC406036C591729FE14021F94B7796BB11848D463536A092A26F077F94639F7CEEE2A724C66EC885F4A24F8B8A0AC321F8FD149BA529460FAA34E4663C02D41FDF80BCA2
311
22D42F0ABFF8490F4FA74C673807C2051D8E467B47B616072860069A9A303ABA9B319D58404461401B0A0F9BE5E1E151C14BC33B32ABE03DDE91708DFAEB15E7C0D593C86BB7D7EC17BE56E57975F077BFD5525F3A1A361D584A75E08CF29FC7B44B2B3085014F3A5A14517377C3F6B8F37E59514C3B12F8AACDEDDA4DFC49
311
BE5710101534CD6FB6DE15B50F11A09472AABA727F0C49D9CB906B158030065F48EB3625E010CEC1D511D0053474B11E6A4F01C0D6EF1BED3A944FDEC70E0DDCDC756C86545910E0DAE3BE3AA9A404574C2995CD5CAF9549226BC94B4F4F0F5F9086F418F6B32346464610D8BC7391D3C3A3CCF04CFC1FB2A3A3170E369511
311
868F14EEA4E5E438CC73DB1F3248AA94B6B2FF33B222FF3D1E7BF146CAD229770158063BCE4F5391964DF62F7E52A7BE0EEA829C9E13C4C147D6F93FE59E111DAB5E4594D6F3CD1AD375EE039930EFE5AF2BB2D41C83C7DABD8C659BAFBE8FAB392CA634F3D15C1D945DB4588D2B0824A4EC928AAC565557CA2F0DAA588CA5
311
BE30B3A8004F7BF005E96CBF891D7F18112A3619FDF530DC8AA64954258E1811789B5189B49B4EB53F5F89F7D37523894F3EB57B373763C91E502F52CC99EB7BDDF933FC324C4FFC2561DFFA7339FAFDD0A4BFBE6D3A8FF9ED1FC49898139864602458968913181918F719CCF5A68B2EE9C1FF050E34E63107003B8120FA98
311
2C21B30A874E4F5E4B38D5A8290C4B8D9BE48A0BE31EA995BDC37AC6DE90BA17D259DEF53605D55922FEB1855D915B659FBEB350EE0DFB2F9F766E1C84CC8964B75D08667445EAB966015F63A18A9E0A325C1B3DC628C0D3CB60F767FA93CC65F25458BD23C3B312716E5F40E5858AC06EBA9AB14F95DB99147B8320692015
311
41D09A0D856E12C629CF32683760EE855537D1901988D5EBC156676C7DD51D7207CF3267AF1D76C2AD867315E44618015313A98B19941C696FED3461CAA9B5415F918556D7802EDACEFD6B2E45853A9735DFC9DBF7E440F9319F8B6805A973BCCDC76C069A9144E51F187EDCC12FC31B5DEAAF0A76137199B106EC84ADA6B6
311
EE697D4E6A96E007417F4E880E8B1E89B4BCE9D81EF611E2ED8F0C1A6C25F620FAFAAB656A7C42D464880E8AFAB0E0FC8EA38CA9A8AEEAEE3E4648BA4680270A89743CDD3E6C6CBF34B7B640EFA285ABC7EA0A1E28F3CC963D114A80123EE66D0AF7D5380EB41909B605AB4765B709B808590458157E69BA1378FEC4B48CAF
311
6A730E3BE3C5EF2DD1A5EAF94B1DDE50CEB55DDFD7EE9A16747FA4B223359FB1FCC69E1194892BABB93A1D5C4E807AC0EA2E30180811E77A2291F6E7F7FAA5E0F60215BC6024E48DE436C511F0628B8CA189982D4D83CCA17D305A7E923C37941CFDFDCD93ACAF735EF5F0E61BBD3E6C41A59B242790D3A3BAC7064DCD89AA
311
2E37214EC839820949D5CAA31E240D2948E48F690298974A96BA9A8432BC90F5071D6537C9666EA4564796B7AFFFA548077BEEA75F63083435074BA182F3699557397F71548383FDA8CA34D99B981E72835ECDA5DDDC151315173D05A21F651AAF8524E88209E2E7A737ED1045800CE3390050BCFB8BE588DF111617874C62
311
575039CA588EEFDEFEFE319B739DE2EDC147092A262611E159650E787917885EF08F1F51B8F2D8A71D60B58B190FEF9541A1BE94BC19FEA50784DA1419FE4B0FB51B8D36B5FF8E1286FD8AF42B91E59A5F1CC4D60174E764045FD8C57B18209B217F89A62252BD20BE0E63E12B8E8F029FE19E0E8D0870F58721A557082250
311
D5424F7909369376E41666C0EE77CD87CB283F661D5FB6D0DA023CB67320A20DC7BE661E9E1BFE5463085C557DA1FF9BE835733766C3D139F2CF9E2208873AD0EB4814DE9E6BF2CAF81614D4D43906ED1C05A3265CABBFE192770FC2F64F940CB6B17B5F166F133C9AEEAD2641807C3E69515171DD74C4A85311513D6EC953
311
0B3B601B6BA3EBFF3B5C3D2F7D69765141E345F75433953D013ADDF8F6AA7DC3F4A7563FE5C7D367937E2900D7EAD0F9FC9A4A1A9B5BDF1FEF08532660C01C5D6DE22199AA774383E306DAB87E301ABB7D213887F9869D4942D0D71E94B27EDF216A318BD488D45DF84529EF575AF3C3938C0AAA0215B01994153E2054A0B8
311
94DA5C784980633AAD48576957CF4AEAEAFADC7C587368551C73DBE1E57C58AC713303A8BFC258BD04B51724459FF9E24C03A81E0E0679CEB9B348C0DC998FEB9C6D6EFA77D247CC8F92D3848599ED89A23218D0636465AD1CEEB7DC140D7426F83491C4E8E8281C2FB35240918FFECE880CA2A42D70E8B20B34DF5221C7DB
311
0CF90ECCB9C745B37A47E9B716FF7A97B7A252C1F3814DC7B1E1A7F72B8751D524EF7CAE45B0C73B3BE7D08ED39781B380DDFC9AA4A4749C9493DB5BAD07A6EA6C092FBD0E85DB004DF06B8C9D3089C5320187E4CE1846158C7EA7DDAE8AD9AFFF21AA3A1026BB06A259845E8232DEE62811A4DA9CEAB3A4887320B76E2AE5
311
615EAB7BDF738CBDD01F1E64064BC13D9EC53576751CA8CACD58B3CEB0E6CA585BD089B2A59B9FC101403387AADBDBE70586B93D64BF3AD4453EF9C3B6A93817E8346991798601344F79A83C51F3D50F7BF2683A3605F51A72449489E0EE6169C749C60B1035651103AEE24D24E51A759C840DD3FC6504DA6FE107510E447B
311
43461C79D22970B75DE5E1BD3007D1AFC619A4A4A69B5626AF5E9B8374E20677F77E2F8E73DF868E8BEC7EBA7B6A75EEF7205E1AB9486CB642741D6E03FF13FCCEDB1C4AC129886268B01CDF4B124AF797CF784F3C6DEC97A17D4B558070A0F1C04DA4FF9BDBF34159AEFE958479824B3F58EBD1E19088A2AFDE501B6F2052
311
368A3FD0E650A179EFAB1561E1D27527077136E652676C3670F42DCB3352F48F6BC86D2C3B0051727E41A0A4DC6CE2BE9D47F5CAA2935A3C0539AF080665997194ABECD723B08129CC5B6B21D2E7D54CD4D12610E7E9FB8306771A89576C7A982002775ED44F3F744CF21EEBB27A631671D921938AAEE3EB0D19CD1E083727
311
F607823E817BF599DCED5394E37EEBC2E88782E638920CA641EF74D4CDFCDEF06F4278ECB18E31E7E9876F2D783C8BF429C75395F57E98C2B495A3DA077EB3AC3C158608B6B57FE3EA48484D9A480096FCEE0DE880950E7E5A5714131C5C41AAA29FD19AE81AC145FA1B9E85C7169A5AB837B213493DF7E9AA4B5FBF9CDEB3
311
6EBD21EF1181B7CF7366AB2A951D01E37AF4EB835D1BE8C117CFBE7625D2EBCDB0B20C5A4B45CED0BCDE3EE8DA9DA78C2E21DEAAFFD1197E463C33CC6A80FB785669B856EFF7A8CCCA2841B5A5369173320B1170C368B2748D81062EA0296E5E2D95D7667A4A46D98A6FF475C76AAB0A8C8D45E226FAFC9FE0133EA9F60111
311
F99CA81ACE03A1D14C89E8B0D69079C91464FA1D99E651D0EAF606F345C42A8A1AA9BA391031582B96D5B4176A77AADB01F12FD298A75DEEBB2C82F0B8650E880722F8DDD90C56A7A058E5FDEF1AC93545BA27367C76F5D8F9690CB6F8DAE141EDD7971F0FB548A2AE435F224D6E5954CA155512F7332029D5A1230854B79F
311
258EC5FFDB09F5F6343A8EB193229B7F7E79B3E48F8E183860B38C8269D1B53738FF1E0BACF6AADA6D4869E9DE708E79B5DADCC09B1BC76F649731CFAF59A83FD8BAE4C749D66FA87A3810D4D62FFE826FA400C0F325D2BC0F3CA35F5847B82A2ACC7961745C823E4D863D54460AF792CE6F79B5C7A33B25C3AEA6CDE15A91
311
9B6367D781E9D44F61BF828672594A3E1D9EDD6DF179A81F27EAC05B936575D73E05C209DDD2115CFB705DF9BBF3C911589B3640735E9E618FC9C36A7326C82B2205E244C55D56FDB9D5DC93CE958D4BF8174D2B3DA54CB3C09F2C2A6DFF73D23B2197355761AD421EC581284A7EF8DE2CE3497C0C804D49B41DFD6A736084
311
4E5BEFFB495CFCDB97A4595911CDBA623274CE852B5E278AF0BEB1770E9D37CD977B2766A7DED0E94B840E1E95E8C77DE5CB6354AF7871427C28ADBEEF7BA0A28E19DE9ACD75F379FE373EAE6DDDAE3834692F9C2B03B4FCA8FCA9ABE8EEEBEBB725B88A7C90941E850682CA04061A7DF0CE82ED49BFAFFD42C309818FAE14
311
755CAAE78B0F73243ECCCAD7DF58FCB9CDFAE7A4D3E6671A613639130D056C8383C8F4FCF4808C331E544DD26E4755D09EA05253B3049A1E32587CC25D72E073E2CD96D04A71BBCB0038FEC3F53D254199C3CDC67CD66640269431860225392B2CB3ECD0B4498AAE78BA1994246AE1EE78F2EDFB79F6C6CB6B5E279C4D373F
311
BC21CB2698C9ACBBEB6A4BB6B39E16AB0E421CCBFC7654D81ED86022F9BB522146F9F4772E2D0E4FA70120C95A85A417BF5078B232F4754363EB1750B2AC2148EB46B1EA72AD9B4D23ADCBC589D70106C3EC2ABEEED84DFE28E718C6C83502C28E9FDD3B09DA0A6F6F7B72B706A31C9E2A331EE70DA56A083D2177BFD63C55
311
B11D8D949FAFCF90B23A1E24B9B5018B9A17E99F2890EC302F330FE7936E2C23F0D237EC8916F5166AB84B62A21BB0B950146962D754F92CC2C8877BED8FC7B7B25726DD19545392570B3A2C66B58F027BEF412E552D12A588C4A3CC5C3193FCB3485EFFF700D0B9EEC077754A33DC1FB9E25AF814628F91DDFECB667D3F76
311
90803F38D13F8AE39353523BB08FC6760144AFA2CE28236F65EDBB3D5F59A57D612B99E3D7E5F8A851666BF9B5A6658EFC96EEB37A378ABB0EB3FDDF1303AF32C41BD1C8560745D7BD81066B0D6313359CF488563D3BA3F8E2185D1FAA3EBA1397C9D0E3DD232180A4DCADB6AF25DB3AC3CC26589C8239E66E81547BC7E2F3
311
28F9884764CA37EB5DBE390DFC03A5246B456A7C3684C4377D0EEF9A350680FA9A077E8B2957B489E09AB1AD41316944C2254B5984830F691C93CAA767EECF976FA5647538830B5E63236A6F0365C1E0F3E327F24FE35EDDBD7360B0F7374837409F7A6311BECC12B7026D4FA1AE204FA3F5FE904B1F420C7A9044AE58E403
311
E7C4848E7DA25DC9EDAC79DD756FAA26B9EA83ACE8A214A2612A22AFA19DAE7DBAC5F8CDE1292A485F98DAC731A29FE01A3966E96BCB9FB5A4C8830E1B9AF0C54B87FBE221A097036E5D28D1F869F810C06A9BB0AC0612F69AEBAF893C6E7AD59460208BAB3A6B09CA4F6BDDAB8CF0D1F84B72487498395A70DCD754796E27
311
1099A567A55CF242BBED64696378BB6CF25EF0FCDB589F3A82F1116D010A9AB9FA4358809EE0C973A2B4229BAA876A70B03AB49CBA7FBE71DB1832FFD32F9BF2C8E98075CACAFB36921235D0F552B6A67E94E094097A5D7DF681B40623DA535ADA7A9AD8E9A62407D7C9A5AE51D62A17A83A23728DE86BB56115804D3F2675
311
F2C6B87541A0FC497BF0CA86420F558C9859EBE9FAD62747E323E3AADC03FDCDDFE7407B09DA90B44E3185723C5381EAEF589765E2F7A099BA46695BAD60CEF3491B8A171F5F56444F7CE9455312C3498C74173AEA0214EC029833B34B650CBB5A5508D5091665309642791708ECF27CF11DB3D797D6CFE474453BD4BFADB7
311
68094B2147814D81C7CBAF8228DCAF5564B5891F5EF6A860EB2E323CB82AB868D8EA048880D63B0DE5341F1B3D53297B928A11E15F25E5148990F710747C3509ED14909C552EBE3973246FCE55D00564D8310BC3EBC5085D08D806799B77D6C57FDF5E55837F9E934F09C03C729271B64F12D0A9F9E938107CAF7BF1EC8CF1
311
BB9B42363D33070F4CACB425E605DDB0A34A12BB936DE286B9887A4E2E558F0886498BFF49C311D96C277CF6A9FC0D75AD0ECC5226D7E0E3572012E56D7FDE4410CEC7A6D0F997F225A2055B8B92E3956E875AE4993CB3D4C9063AF98FD45E1BAB165640A43439A2C9181A7C355B297C0A0CCFFAE19B6FA3C2BA238A885FBC
311
98B8F6DAF4B94B97304878DF4D8BFF6A4AEDF79E90ED4E68F00CD7299F4E0D83E35601AF0CBEF18C1E870E74758FA91F5131075004DB3CFCF09AE1DABC11957FD9808C92E8A678CE9DBE40DDA0E0D1D505AAFBCBA208232BFB6FB3704E8985E61ADE53DE74152F5C7DE74B1DEDCD37DC3E8FB30D7EBA8B9EFFC3606BF90B8D
311
438279CB7709FC7C00D327F41817EEA71CD9E49FE9C8C9A81C70915D9F0F15958EC5AA4C3BBFAF46986B90F188BDB24B89DE3C6F29EC3E6F66D84856EE96A35E657CA41B41EFD8DBFA16AD6E91439EA92B40B21C053249F51AE50EB0B24C770FFAF40DF12C8436366819C48E36547D4E7B72FE2BBF10828583057814A668BD
311
F183F6B2E58DFB151103E56303E63D00F39C27C4661605DB644D19175D02E3F0241E8FC3458D17AAAADB117CE9EEA690D0DB01E634878C04C2C9310B69FCAB831151E3AD293BEF6E46B0ABCECB50F5939B39C613D41E81FAE8D34CAE3C4566B761D37185FE864AC32FCB71AEF39DAA5BAB88609BB980CD2F07A8F941653B52
311
9567726E2B2A58D079DD57E1E5E31426CF184A04D7B03B985F276D47406AF276FE32E3328BA866EB1FD39BEF57863A317634AA5FE467409B3873F5069EF0D71AF00AD189D17BA1974ECDB2D623E9E14086386A6AAB5807825C37B015BFE892AFD154920EC437EB945D958E18622E1E0FE2FA06557CE4BB9BBD05A2D40E774D
311
A2B65473791E314B7D6C886820B2FCFE4AA272B3B8B15E7344A145E8AF919B5454D89D36D413E87211186BF6F645E5EC94DCCE8E1C799022E4EC9BC86D7A0F2AFB1FC4B2CE48F84B3F49ECE65BAD24CADCC07EFF39AB06BE9E6B27A059938EA7208838455383DDBCFCD967DDE4650EF92A14FF933C975DB20BD7FEEBC44875
311
76485963D757D16340D9599FEB362F775F38CA4185A86F74B629C81B133644A3B18FD056E997E0734F9BE26D11C0AAFC669E2AC9FC41D281F8B2E1C35AE27BCE05F3DA295488096688719D974DF1B5D182DB7792288697F8763CFB43562C1CDEE11C4AABD5C22B6E33F6F389CFC3477C5919DC0D533F8A7A1846B7ADB60ABD
311
C26C43D0CFC8910B7C15EE22675BD02702ED39DB77A87A192CA7A543E6205B979B9F5A6B512A3CA799E198B2D5797C0AF8D1D872CA455D4D431A7879D4DD76110B5FF7F4176B54477A9EB5E4A5D11214FDA585F0382751D8E2582BA5D2075053298FEB8F1537304E32CB22C2E2B693DC0A760B1DFCA751BDC445AFDCBB1282
311
0ED85F6D5298933C7EF1211E9E057684056CDA3FEF3BB6052355E162DF27C59E965A8DDB7F9437EB72CDDA3A090DE65A5B2F50326247B7EC67B73ACC7047FC9B353D6EE990F772207C6EC52B39DC2F3C0754821DAB559F7C1809C7D0DD5B0499D0442E0A6E391B3D5DB46D11E731E6794EC77523FBDAA242ED67F9FA1FB684
311
255671F63C9BCFE6E7E896D51001A6113EF2298BA494E0B0980D1FA5B9D60796554C02256B1E0345FB7C6186B6A19D2DCA270416262845FA4F42DB5D9B0A0B6F07FCA2E56C242522E001E0CEB734AF310FC8BFB57E38E03AACE93B3326A2197891E68452B26A6307FDABFEE0223D3C03C3C73D2D5BC054C8311F12004CAE48
311
8E5C29287F8156A2CAA4AD0D7BE6B97264E4139F437CE73ADF52E5134C52B819777C18B323A5924E4F67AFD13B1CDC3A61793A79FAF5C0CEB718E441071E797C6DCCB9EFCF7E4A1E9F3DF3C2F9C9E8294E9586868788C972857FB0556D7A26941A7EEB9B580AD78EC40B85DC906B4120A563CA3B87797ED612D3B035962BB7
311
5F6515A393F4CB057F564CDF54F2E5A024514E6A1F901DB80C7E70B1FC05E356A7E72FABF4775B3E3FB8F70A2A8E7B6A94542BB304157978CCC999E707A29CC795E67A59CC546A5D47B368954CA7B6E75EC9E1F6FC73CE3B4F71F8CB1A6B15923D61EAAEB14626AAA9D04A26EB9C66CD1BE86CA31A5D8703DE04CD1EBCE4F5
311
CCB62F93909AD11E55799A781A956ED27D3E738F4538CB04ADABC7DAEF20BC35BA6A90BCC1DC61BA05F20D8832FFB9BC9B15E2DB838A0AFBB7E0C82A562127E0446894F427794C3037186F622BF24DE1B00AA10A23BFA47B2A180D6DA5AD6F7326FEB8C100C2D7142EB2A0B2A9D1008A09BA343D70E054AB69E2A7EDB783CB
311
D92537FAF4A44D1296AC2792729104B3276C276C951D0CF3CF3F1E6B017720A7B8505A5FF9589365979678C36F1BAF759EAF57C60F1FF5FE9DCF5F8E764FF25A2D06CF25117A8FED51884C13B2B750DB0E4F5E3D64124FCF11F0AD8F1CC3B3DA4B38ED22BF1CB2585EE6BFEBBA63FBFD44F9537B9B37BDD6B358720F98A812
311
5AED4349CCFEB0E135F19E208A04CA7E2B10711185D72E381F448036EF57C9F874E54A971CA37A639E986AC0226DC5AA00D5B14FEA9192234B3DE617814FC221C92F33F1D392F297731B567FD98FD91D989379AF567A65B8ADF177591DB90FBEA99BF4ED11B16E50A0AB1DBF1156D034BBE04D69D08F939D8E92BF525A1DDA
311
FF80ECBC95D8F45D3FDD289FD23F7D8B452F8EBB34EC082DEEE68E18EDDF072060FAD2AB1504DD4879BF67099FC58F6E9DEFBF645D16334A3E9A127C6F1AF6132CF287E433B43A0EE93812B4AA0B194E03EE3FF91EF9C6ED0074A2F6EB18A96A7C9890B1FCDA1F2095E944DB911ED54C60DF16FB74C8CE9BDC7C54C4F14078
311
CF73C2FFF1F1BBCCD7CF64F71407EA1683DBC410D226627F66E509060D5C0AFD611DE681D509DB8DD12FB1265B03C6F5C55FF4C30BD94187FF692B4F152982502F193098A789526A038AB529A52BC0DC4FB6285CBAC10A8B8DB75DCD9BDABBB221E27D1F8DA9F5EE5926A1C8AA9BA9BC09239C6A7F12914EA3B59EFF7AAEC3
311
FFCCE56F1C5C2980AD072793527565E774F4631DB178CEEC691B1F367BEA0CF2907E1D6B854D527065979DDEF002D8B2ACEA7CE21AE297737EDE1D45B31233B73FEA35BCFDD0B09721FDBAF6432681F2FD10C3E9EFB246FD6E854B344ACC9D8A0EEF876A7314B49B6A499FC650B099D650DBFEC7638ADFD245E2B7839DA5AC
311
5F7D5623FC0ECEEC8653FC9B2BDD1AD4D00A566FBA7186DD3C9CD26512551637498CADB950FEC71ADB9A5524285DE328B8EC7EC75D2345AEC6A27C42AF6D9B92155315C80DBFCABBB7DA0FAE425C4FB896B15C9BFAC4FE67DF5A23D30C93DA4D8F36FB15D100050DA6062E22AEC5F4DAC4F6FEEF97AE05DE63C6D38F9E068A
311
20BC5E3B6BCD75320C5090924E7F93640A7735B1A43451C2D91EE62C6238B797349E59890AF3A520DF4A87095F3ABEC2E61F0593416CE46CDCBE0E00E2523FCCD04408588B5B6C9DB6459C786CE378770B54F51DA3A5E1DF2A3349BEAAC234A6CF8993B598B3B25B4B113E353A4D750FA7534749430F3EBF2512E7EA3FD43C
311
6AB9A1F765A58463B306721A15D224FAFE8C6F5E3432D57EE697DA0DD5A9D4866A8BCCAAA9DFF1F06047851408FEC060471D0E3EB86BFAF46E4B5E60311DC3E3CEA147C75CF971BE74689507154FF2D2E92F15CDB2B9182B11459FD8ACAC5A85F174BC94A7F4EE4C4F5CAFA7C02E37BF0BC77B7DCD0C047BC316F562A01A44
311
1AFA7931CC84A28CB9F4AA367EB515778F29BFE61195FA671F4352E5E46E3A64773F1F76EE5EB36D7BCE9BCEAD837A4D77F8DB8C92AEEF6711920D7C7D0F76B0FD0EB7AB83724CD35BCA7D36DDDF5FBB7FF6F04A91F3E2BB3B8F1A43CD659639507FF6331C5F697BCC782AE57D757A27D97F1AB9E0AEDB43F92F1B2AACDF5F
311
EC8ADBAF9F814E2027003BA2F9E144B1938A7A04050AE5D953B82C45619165C813A10E76DD6906B3C16438064D14CDA713AEC420034613E1AC7241904A49FBF87409AFB1FCB9B72FE7933A87D8FBEDACECE4EDCF6A4FE9FB94D5DEB74FAB7CFEAE17EE965DF980DCCA2D04134994F9A2E94D2265DA4FE6AA7B7AC15FACAC2B
311
5ABBCD7DFF542C5314FDAB2E1B9D8B65220B8E2B638BE008E8DCA22678C820C5053664D15E89F2D735B51A84955E81A443545E9FF787BE0FA700A76D136C27DA179A7C6E8939E01BE756E19CB292798063D8B97F44E8A27BCF3A614FEB8BE974A718E86F7EC99B53CA35FA24F61F2B07266684623A3D4CF073E511F3A10A8F
311
DAFAF0078C577F4DF9D339FE7862E5FA47CF4344209E5BF76D783B1B48E152AD281B15FCB934DCDA49CEC5706B1EE8B460F435324A5CAD154725E21AB8044B75A557A79F6C807B9340AA3D92503E866F4274412926C8C504E4D5EF8C0E68DD0B028781A6B4054F11CF18941F101C57CCC796773ABC8DED9CD91FE5788806C0
311
5E548895354AEAC96546D55B0E94A59F148D061F42AA398D822CDECA4CDE79E13469BDCC44FDC990F366BA5978C15F97ED80CBFD73B0CD9B8B83A4F6845BDFBFAF034019473FB9A63BD55D3A4A7284757071574029A4D016DCCBE95DD679EF3C4880BF169422F8C89B68A988D2B13793CAED4F74DE7486C72DC94DF46B8E93
311
D8E02EFCB1FF9B3BA10C8AE7F653DF94F4AF466CDDCEF5776687F7C4C14B63E4EED1719DC2EC482D7DBCC7AE518CDE3D5FF86D39000EC3673C0044E1D308BF05F74D1B5F033A7D1BE7F74BC55BBE3E4A20F920946CA0271EB17BD2B80E5660ACB8A29A79F5E4BBA49D4D945B6EEF4A7EFEAA65E5555BBB57A7E15D2F83C69F
311
30BBB978D2B39F1F26FC097424D39BB33CA3D87ABF64E307938B685BAD44F71556A30B7E712CA4FE600613C3E554B69ADE949A7CFE214DF1FFF05CB82151EC6FC31950239F94CF7AD39DC473F6EA356E5EC2C4EFA04383CEFE985A127484366FBEE3C0EC4FEA363E4F6632AE781392FD45D67B63FB8DF70E82734F431FD344
311
3172A0E30A83D60982D55FA6A2CF86DBA8382502ACC6CDEF3B907982EED1160E14863FA242F9757347E1544275CCDCF71ECD5F8621CBEA326B8BA884AD7F825781923E66971F04010D574C541D8427A438A37EEF8AF88240EED7362C953F5A81DE2D56109CDE2524EA0F5D2F87308C0C47BD97AD605878AB8589E17CA83930
311
CB5E0DCCD75853D68B1AB136594926DE426C367428E9334AFAFF90ECE221BB5DC9E5BB53D2CDEF954EAA9CD814F0E5725F1965DD458E5F8487683AD86B9D0076BE3EE91EB1CECC5331A67A3F79D8B27587C12EC2A6A70474749F27B4C0BBAFB94B34189E88DC18964BE4121B9137FD516C7755356E50D6714E31ACD222621E
311
BBCD1CFF81D87479056A9DA0E0B8EA19D24CF937DA89F78E8650CCBDC110AAB6C4E46DCBFD0446BA9E2060E81F314AC2031E88135E5476AC0160EF5C0DD2EEF1B8B5CB2D198BE9A554A9093B5F7D7E4B5407DDFCA1D9C152FD97F55BFFFDFE802954DFEC8995B983E28AC92F1971E28F531DC407A1280EB125F64A72E617EF
311
B27DFBCEDCDA2D6F2BDADA36873EE46B9BE1782998C63DA7182BC383FB6FD15DA472B175D7E8B4FC88F38D6E07FEAA3FA3CBB8F6B449ECF14D2175E5C5CCA3A42ABF24CA6C9395AF74535F4DDB38CB84F56614B0FD32D7E19CA5CF988DB4449C40E23DF2B16772594554579094450F56F253CD25EA7F77366FB1CFE79696C4
311
28BB64D5A41E986189427E5E4D7E2DAE3D5BB4972B3DC44EAABDDDD63A2264ECFA5C786EB0EE1FDC5BE34FA0F08376869FD1E61EA06CAE15191135445EE8F0394161C3266A596AA035572BB0C8876180D8B9C77D307DF9DCDF7365ABDA6F3A2366436457A4DFC1F259666569A9E4A79C817BDD5610E5200FCE894A358EC728
311
58D50EF67545DA81C6FACE3D457BAF70367E1E6BDD9A952FB4F56247F58F523B97E640246051A72F79BE42FFA0B3187F63097F91C48B868586F714B0EBD5A00A8412C1236E1298F60C72BE6C96B82B404CADAA304AE9F303176B14BA53FBC2D5E86377E35542019E24D97B96A49B2C0E5006E7795954DEAF5DA58958839043
311
C6C70BD3B1B33B6DC5C31316D8A6923F142E26F6711A2258AF977DDF1F970ECC4F1F2B434B96D81BEB6E89BF3BBB3C7C8CC80505070723D6D7D7D3C8CA27CA164A26024FED94B12A86031867241DA53D929636DA600F050BC40CE48B8BA03D69224720DEE2ED2127390BDF5E6EA64527BBD4C4C63FA76BB801FEEC0E61218E
311
C98A8A86CD8313781617877E66692839B9468CF4DB8E50A73986E558E309C0D6F676F921BE02F1185454DC75B111572FF9D27D85EA14C05AD7271225B391C4275659CA4A43759D0BA44639BE4C30A84DB7F67A41399FB95CBF923B1B1672ABC807C1590557FB18D811983FA97F5E609516D62281D38B1281F68FC75528C35E
311
4CD7DF0F7DBB5E5DD69C414EBEA2F4A5B241B996BA77AE6C772E367408C633EA3E438B68563EA8BE7667F3A4C4FDEEA52ABD78A2820F443B7914A15F180018D231E64519C56A12F6CA7C8DAE18F06F6B769DBF92329EF6A5D18FBCE600F36BD8E8198DE5CDAA96181F3A756EBA5501CEE58F497EA4F418A2B82565B9BCC611
311
713C0B708CCA1F398B78C5F7D03B3437CC18F13061F55C7BEDADD5ACB1DB0E36D3CE47FF6EA1A563A57E9649EA5D14D1A50EAA457463381C073777EF1600607BAF6428A7DDC079D47A204EF1E1F1F0589FB054D45E02CE623B3823C317C601E589E22B1E88B448524B86A82828E32345EC18AE17214B42F8C41C6D428016D9
311
BA31DDCB47572561E5A402E5BA4FCE55F78AF7268524AA04130F3A20BA5D1E9F9948EA48FC8F5314FDB35E21898198060034ACE5E3E2BBCA34092518F275190AF65F45867FF0900AA4B81F25427414C372BF51DC29AA855C5428EE1EEDD6B849AD60F6E73475C2D2523F8A2772C840A478DED18A8C5C91B085F255DC4F54EA
311
7AA8947354FD17ECF8FB3B4A0DE7B483CAF3A1165EE05BBA413E5C1FEF3DE1D6B8F2F3F3251C17D9FCAB48A9AAF63AC773A0E413BBC46A9ADF84A566FC920E4D8C52C9769EE3301CADEEEDD92B312E02E2A7E35B7F1E7D203FE5A7D75578B06E99D0E46FFADB8FDA17ED8880390DA29094202D6F645F76F6F96409CDA05495
311
A96E84B04A00D1A6C6C81D7F3DE9376E828CCF144EE50E364ACCE7237EA0BFB5607ED1AC3CFE73794E5B61739D14DF1743441B1AC98F00ECEDE9E7301FA29755FBEFA68C91EF2B314CF510537EF1ABFC9A762496280B546F5EDAAF8A5B387D469FC9A878A92828C88608453ACEC6094DCA54111E7AD5B2663DFE2DD151B7F1
311
23B9F4FEF8EE36AB125FD7AD52A59B1B765B3E3F73E3F73DEA93875004D2AFFE3CDE9493B87A9904DD052028949041A91DC0E1BA47BA714343FD5B25E0A6A09503AFC17C790058A836A324FE31D7893512E28230332F153181C1E018E1124EBE1BA262AA428A518237D1EA7275E48C5C561BD19ED6912EDD8367DA0F31E40E
311
EAE9683DA9257525AEA7B632B97119E17145A90231768A4F3B9120FF32E8319B015E3CBE26F1A754177D8185345817C096B0CE443A955D13AC15E1FB5DEEA0239EC32A3C92241A237B0B02FFCB4F93CF2B02570C8D192E2F2A68CEEB42F12E6F8CEEFF46C251E22B4341C56FB08CCE550E7A9D6F4D6564B9EA52A83D5BF2C6
311
E03FA19D2775E15A8A7ACF30A13C259EE7F5EF2AC3BA354F1500E1A07FC63FB4686E2F12EC69719F9ECF5FE3F35598DF2CE944008CE78F0911BA5BE5D0A34E0098FF038669C26030BA9B300303039852A8F6F496341737CA7E0D2E3AAA36DE0A70AA7D9CA0D54D9AD84B18A44C9E625475E1C97B93BEBB38DCE7D227E67A2D
311
00F531436136355F243D1FC0D712C5765754FA22FCFFAE97919161F46D6E61ACB37D83777B385889770B50765B127768443A5C4D3A4E35A3151111F146B7CA116F918A049F1C272F2CD7976C69A0068773451659A97E0F4A08FE604C3FF6CE7385DB19F4D3ABC8A0D80DA8A42096AC377DB49382B36E270B6FA7570188B4B7
311
D1DDDDA82ACA487CCA5D38BD3BD039ADBAFA4ACFF27809239B722081E2EB9F145320553D183F28471C388BC8814E5045676767AB58A8E72D1CED2CA731379515D2E533E4CF0B39DFC625F97AC4836831A4DE330E87A8126FA17EBE583D614E71E22A8DBF2825599743E0640037303E8E1B1E8EA4E1ABFA4F62907B5E4E0E5D
311
CFDAB417C36C6848A2B8D15F1E505434C0707E16B1CFC2A1C36A42BBF55734F8F4301DDC2A5110CEE8C0747F69519265012A2174BF4E955ECD4FDE095A3ABC70536B7AD0B9D7892F81287D667C108703C9B66A221E9A0929D030008F77FF6F5D2108EF5706FC87A3069B976F7C9FC3239D13D283CDEA83597461079FEEE049
311
B0F392889898B7D87D31F8D60ED7B56B91823A8E4EDDB36C6172ECEE42BD42B12CD67994FA0F0DFAE9389356F4CD4425A4B8AA55CBF7ECD585C6A2C2316791E43D5C06841ADBB226A87FD61515FFBB0167B74E56BD7F3E90A57A97FEDCBDF483A0D6699A8C0849CAEB4947FAA90D8E332D9DEBD9F4738C37DA0CAF9CF3DAA6
311
8BCB67C420459C7A64498D6E848E5CADE92BB6901F607AA331104A67F7CD650EE169B1DAE94D2C31C2F993632259B6957E246EFE4C5481107B07118607700040E5812A2A2A38DA0076875258C753F60E0F2662C748EDD5F3F3686B8FC3BD6FE631ECCAA1E8B1C1E565AD117E54893E79F4672E32F9E46B2A183DFDCF3EECB4
311
D4D077DBEA0DA254D256045109670050129E9B9B1A9E4A11344D61497A992778095151510C4BB7EF2009B63AA4360635312E4CF668B7E0D3D85A8688E2BD83B569439892ADB63461930D428E0DE42E4AC57CE48DA5CC1449530D8BD3D6A0F08DF20C8E8F570F2CFFFCEA286E30969B4654D498A58D9DA782E19FE3F0021818
311
38925592C4A1EF0B332D88B61A92C644547BED490D3A42CFFAB70E36D961F694F6307F72FF15A1C79D5B1B5CEFD353D9E2B52566DEC8F8F09CB3E8359C0F68EBBB7898243E34E12A015B2685AB303C04D3A9E00671FF3DFF0A184E4A2ABEB2B666AF5B3A209C73D8EF29DCDB069C9F391EEE9DD0F74C7BCDE16F8F02E3B881
311
6122BBEB50665775B600549D8BB33A54A6BF940C028118BC6878C79958D6784F9DEAA6E26748386FFAF8D0D0101E2847B6563F5D8DC1D78F787BE00E2C941AE12148D4A81599FE8F68D4DA5CDED75530ADE138240300EE13B0FC13A1687FED6774662C05A2B7DFB186732F0D7A93545D8B0A6390AE5054D9CB582DA846D7A0
311
61B3358B45E2B52DDE63E114397EDB7E09233A579155D795BE76102CF277F4DF8B188C4F2879BEAE3C08347124BF9ED23B128259FE107D31E34A652F090B30B39E0D9AF917B76A2806135621A8A60681F16AF216514BBD02711585B5B1AE823F4B2D0369EA5B6BCB863072727FFC871CA6C9AB79A814D989057E9470A3D238
311
BC87CBB4A0EA49AFE2B86F22E499793CAA9047080450166BDC357524561E258C77CB697F1ABB32562CF87C3B7AA12F911EF19FB3E5C02222E887D08202A60A17151F5E053A86B437771088B4FEE14D652C43E8D939995D34545E12E2FF93D4E366EAD25F10CB7DED141563C3D0C447AF06078A91135FD4B9611583CB4BF3BD
311
167F2399CEAB0E0100F8FFC305F00F1711717173138B4B48C83022295DE657EFEDD97F238ECA80F528AFB4F8D67AD4E2594B9A3AA86D7487EFC313BA95745C186F0CDD84CC12DC9CB0424B42203D351FD9C0A3AF10CC7F388E0329279087386421F194F4A29464C1DEF7EF8BE515E4A199DCD5B909342598D8FE6A231F7133
311
6248D5CEC5454455C7BE383B3BC7B260FED27F703FDC39A170F3827239102F59D4DEE7FEF82EAA1A5E4BA94DCC4CC44E7E2EDE20F24244E4454369D2E87C3F823F193FD4FD27E1C23984B01898D15ABC20711A8A558054951A6AE280096BA36CBA439603B7B0B4C45F248C14B2383B4B5CD8ECECE4FF859AD4A6CA2326D020
311
EF090F4041D28DB66E5256B56232CC52829DE8060BAE6BBF37D4B7469B822454FE93210A3E8D15E69FFCF01123222611C51C4FD0A041A0CFA2471CF6BE38D2B20FA4C3525B5B8B586759475CF80ADFE67A284AC24651E52B8E683D24C2622642F27E7C3C22783BCF63648BC398BD6CD0D9C97E7E7E3EACB6126DB7A6C1FD9F
311
1031302EE67ED96F22B77C7CA0239BB324207559B105E4693EB26EC46182A92C9C0DBD24F29B31C5C5AC1F84300E0E17CEEAC15F5736FA4A98971E2F1423BFCD68D4BBD5F86E74B40A369F39507C88FCDB35D2DD8DEBEA4AF999E23CF2816D204200DF6E611781B9884C1AC8888B4DE397320472959434323A5A36B22A8E1F
311
721A270DF3BD65E4A31C11FF048AFB0D8B7B6881423793963A23CFCE935FC189ED36FAE35C46DA3574C979E4394BE52084F3081837BE033396D2EBD80F1F691B273F660D2B32FA27A33B1DE4ADA5F0FA4651511102DFA410DDA86E065272CA314D5249DF91B06BB92807B28EFD54F08F7B525252782CD276DD02E6B0319B13
311
DF87B1F6361AD6B28FC0D711CF445429B9E5A433CD493051C49A9E03DDB1B147D880253514A5DED88009018620EE229101C041950E2D8AA8E1F5F5438E0C0C0C60EEDEE9E3E0C051948C69F84BB7B2A48A1F3C8EB9E6864687F4F4F6F6E2FA87608ADAF9C5E117B7C1A737E710769DA1D15ECE6A84502AA855398712D5FB51
311
BE92E4EF824969CE18278798AC303C2C7980DD2500ADF8FB1E6D6C2FAAFF9987178923334A244758BAA01A9A1B70FA5097D01E1CC2A58DAD0EC94CE6430AA9B0C10D75E3C6BAC670EFBADEE1607739CE0FC18A2587E3EC3058562014C64219C69BC269082D5C2F4A659278D585755912176D78A1B641719C2A394CED495A1A
311
C5D583FD2F5EDD93308EA7EAE8A6DD396598BDBD3D4CFED62D18A5BDFDE0DD5C80D1A89BA62697B131AE7CE9A6594138582F1B37D68F1749AC7CB67A70695D48A4A056AC1FBD4E82358CEAE38F54B95A9016F9000F9879C0D9D131768635CA798895F27D6F1614F11F2838A83611AA51C9A3DDB539D42979C29F10465655C1
311
7BEC3E2760B80DCBF609198C7B171A531905F3EC218D696025975E986C6B4C666666787271F202805577DD5A3EF0CAFAF91B62DC4B2DB4217A7606282F31D8DDBC290593BAA93EA6353AFA9939B877978481E15CFC9F2755CDC00C538F63A4BA3E80AE009B73CA0185687D339A507D165B74290D6EE46D5C58148F020C3668
311
ABE9EF2F7549170DC80DB41FFC1D678FF19AEB10C7133832B104B80F691B3138F97A92D26E551F1F110400D45AC71A9B9AC41A1A1B1DAEED0B0810638EFFB511D46B121C6FEA0F38CD00E03CFFEB9713FE1F9C263E4DDEC160D0497FA9A132BA608584057FB15380825DE6C7FC3C667EE947D488A09898D8E939C4953BF4EC
311
9836344D2CC6B2971B2A21A572B06096F4982D2CC7232D46E8EA69DC83722E267754D777F97F96D5DA74E1E75178084D0E70F12AD33E5F71EF2AFA599B2BEBF60A5BE475F444F240CBFE8143C334E7ED9150FEEFEF7EB020C4DBED388DD1D6A167A76F3CBF119B578AE8CFA7736ACAFA4440A1C47185638A0D2F3EB5BDDEFD
311
A958FB13CE4AA4923D5BF840392D45544329525749734866684BF7F8D9D54D892E19BCA9F829A0F8BFCBEEA6CFDFC61D74EA1A645ED7A1FF241739F15694BD835B66FEC5677E40FE69BD3F91AE402F036537218A401CB0828604AD189E575015C6F3F6BBC8AC79CF6C70653847254B31551EFCBEB5978B9DB85D58D0FA41A9
311
DFE9C624834AA04949D24B5AE6D299E072D152D12097920F14AA92C31C3B97E28B6C2E6E9C23D63043ECBBC0A60FDF5BD0C33C127EA8A3308B8B6AFFEB28B4455BF6E7AF4FC6222728357EB8E46E85053E6A8843AB23295BF838ABDA94658FEF3F832F147046B4ACD6F7D48E8FCC9618582961C898D1C7A253C91BFECBDA6B
311
A18A1FCF70755DCCEE2222F41B76D23CA98D0CB3D95F0CF66D57FFF65E2A90F5DF40FC3187621E981BD0BC1D992787212688976B94A8F0C6EF646624B570B78E068826F87CE27041A95C9A4871FF65CC17FCB1639629AD6A9517000D63AC231F3D741CB8430777E7ECF80CE7A3F73C0F162F7E56AA71F4DA80A33CD6ACEE78
311
E2C11FAC03DAFCE929B106F8F6B3ED2DC71FF994BD9CEF4E9A94896EF1B6E2B7B4978168BCF0847A3D2A4F1B0500B926E634B174548E9FBAD27153FB5FC36799B1E6C7C38A94E1F9E996796D7B485E635D5287A2AE76FBD11A341DB3F8F810385BB7296391973DC6C37C452A9305AEBBE0CDB6C566DB59FE60C8E94B1FD090
311
354BF51439FFD1B48D725228FFA88C84F686F547107A7A235665A4593B7C34D748C1AC8D56DD5DA861EEFBADDECBBD65117E65851F90351AEB65F0EFCFF4BCFEF24CB7A5879699FAC437A7AF9099186CF006BB923A59E37D7A36A29FD8D2CBB914A5E9D0A8FD212FBF796AE9A67958FF1D5D8B85F78F96219D4714EB919929
311
241B6C018AAE0C02069F8D919961EC5DDFBFB7573E3AC8E08BFB7C8534BE6DE045B3CD63DBD71F7638BA2309CAE398EA3A7D8F98BBBC7AEB367EFA5CFA27A9F8F2F52FE878058E6209C026453F8E7E8A237DFC389E9590F6059B397CFD65183BBF936E86896612A5B5FEE49DAC8455D026218AFEBEC12B3523A45B57B82C9C
311
97E02ACFA1184DB18E48CF615DBF39C3CC6F0B4AE6BBEEA2E39D944E290302FA3DE33FA7E40296E2EF7BF1CD855BBECFAD0FD622BEE9746FC4FDFDE545AE6E3BC234CADF83A0FB76DFB145BF3828AE3436368AC24989454F8FF70A177672C711CAA1A76107218CF948CA01F873520E7A2B118EBB161ABAD432932029628B67
311
61590C98AB590C8C8C79798CE9F715BA696E839E9131A4BB68BE923F1747FBFF165331FFDD4D05997ACD168F12CA75348DAC04C7F509FE83898A8B421181AF492861CE81E4A2DD0A30850CFA95E05F097FF70F9E777310D584A75BA7018922E271DAB1D785671157685B7D383D3E074DDB4F1E44EF04B07BAAC75A062077C5
311
4B9752C738C9D804D402E02851F3F89605AF189738C18C021D2139EAF72513824E10DDD3047BACC8521ED7E98B257D1166903B1B08FA6F918FD7E162913FEC7D0EF4787E29C35FBA8C6E2C9C20E9AB30AE42CA2A01A090E7D010C1B5BF9CEE2A304BF3A987FB40D836979B79E18D70F257DA61E808472DD85B82761825779D
311
6B90CAEB0F23360C6F80A7D7D77545E95B3DFF0CF96A827F9B5BCECD2C9698718417EF80FEEDEE938AFF55859D0D540B7FE09435583A6F04874A0C7E8CF234DF4879722000167F5872CEC6BF3EF7E5A8CC8121E6A359227C8A29C95212F9F735BC72A887D56B8F309FC525BFB4FD767AAEC4AEFF249CFBBD2DE1AB9969A615
311
5C7D8DABC307E47324C1F916C7BCFF40ABA5644E9FFB9238D19ADADA49D9610F01ABBA57E4DFCBDCCBB2B93C8953206C91DE01B0E2651A6D6C31721915B31F7B7CBCE55466F6D70402788FA91D73BE4ADCBA99A35F17D6B83383704917D6833F0FA3CD45C926ADB8BC17999A4A0AFBCE2541F7B8CF4C2F5FBA611B3E626D64
311
407CB32C122DFF4EF8674D6EDBB86C8F7C6A16D50FA685E2CCA34F8F7D1D8265BB0042E9D7F1F666F7BE5FAA5184DF58E12122A42EF02F461B3F369AC746F96528AD208512AB56844CF75B97F352DF7995024FB02855385854F3798670D01CAC771AC3E1889EC25F61A20C1F8CAB46898817F9C47E2CDA1F286BF2F3582987
311
09FE567C91133E2638C8B53975E753EA8BFD3578B5F7186B7BF084EBA3F77BAC3132A5779902EC22AF2D2E79F42D324E083386DAEE9810D1B44A5DAA54513C7A71E52A4AB9257D975B621308FE4D2141CC3DCFE946C154A3C1DFCCA7629EC69ACFA831634ADDA93C0388D2A9A2DDAFCF957C6995BCE7FBB6DC4EBAE79E63EB
311
08E9A25F52F67076F7093CA545CA3053B5BF576DEAD4E0017143C5F759F32B2D6F145B52B67B48909B7C7FCA6586EE385A2189C16932CB6DDFD9152AE317C430492A578ED27B72D85D40C7C93C097939E1B50F4D67F05334FE9DC362C30B7FF561B95259138ECFD9274C8D695C31B14D4EAA9F3D7FA8DDF652F8C5DEFA2328
311
4C799B7D94416DEE81E05A866302DC70192A5368EA65E1CED8BF107A1E2D3119A71E85DC1A7B0C1E93274CE04DD0F2ABC8AC7C987FDB002B6F81757B43502EF7A0D92E416494FAEEA4C9C090CD9557AA4D532F4996A272B94355C5A0E4974EEA9627476F30809B94D8D8D860062E02204643BEC7D0438AF800FC7E2B26955D
311
595421E83C69E1A07E0E3122285835F014AD538188CF9737CE76D464A353FA55A001AB2526B84E985083693BC76FE211CA1D000679C889E3C009832C87E1AC2EDD05C302557422DF0800E316FCAC86978A371F025A6C7DAA9F333E7BD160403A1A06EA75AA9888FF01504B03041400060808005A570F4B28BB58AF80010000
311
9E0500003D00000041384134364243312D304531432D343643452D413346422D3642453844313837434644332F536368656D61732F436F6D6D6F6E536368656D612E786D6CBD544D4FC23018BEFB2B96DE15493C78601010A34B880709DEDFB52FD0D8B54BD70DF6EFED3AC0B12E6442E2716BFB3CEFF3D18E26FB440405EA
311
8C2B1992E1C323095052C5B8DC842437EBFB673219DF8DA659866649B798C078B48AE6410122242F2A4994AC7F93815DF85C049C8564CA0A901499DD886B2EB9B1E02448F358701A9235880C49A0119892A20C89D1B9FD768815CAD268CB5E0355B40B1E47F3E37A2020464BED06AA57CE8FCC20C3C3446D46761A2632A8C1
311
283D07031EFF2AE7CCB1BFEEE916E406DFAC8E36FFD99A9D60A6944090EEDC3B670C7DC13DE86B6B2C5C240D6E503BB85ACD579D513F1B9F9A69DC9CC22AFA80C426D40AF0B21EA168559156B6276F0F726A6BFF04DCD513A87A62CAD41FB24FCB2858B3952E3D852084DA25B9303C15687973CC8E8AAE11DF2836C38C6A9E
311
765E8C1BA1BFB1DC29CDFE518C8B5A7655A4ED7E77291ABEB80DBD82EC866ADE1B8D05AF9E35CF09D7A061F38A986D9EC412B8F0F65E5D81534D9B231D1E5A8FE577A241F3A5FD01504B03041400060808005A570F4B2CCEBD668A040000E01200003E00000041384134364243312D304531432D343643452D413346422D36
311
42453844313837434644332F536368656D61732F47656E65726963536368656D612E786D6CD5586D6FDB380CFE7EBF42F0F7A649B70E1B90744856B4970F450FCD7A5F05459613EDE4174872DADCAF3F522F8ED3B88D2F1D06AC4050DBA2493EE4438AF2F8EB73AEC8466823CB62928C06C384888297A92C5693A4B6D9D9E7
311
E4EBD51FE3A931C22EF85AE4EC6AFC38BF261BA626C9AD288496DC3F4FCEAFC63366845F7A10452AF41DB320C0D44EC26EAB20918735565582695670811A6A49643A49A6E9069FA4604A64B29016DC4B48552F95E4932463CA888468C1D2B250DB4962750DF7CE273069CE8363F1FF4EDB00E0A21999574AE4A2B00C353B93
311
F3BD4777B8A61ED8F604ABFEDD79CE56A2B7BDFBDBC50996E0ADDE16FED26223C5D30956C29BDF4A55EA686E5E58B112DA45CE67F76F4FA27EFA3FB672FD7372FC388FAECDCA5209E693CAD167BADCD272F943701B3812F8A3D852008B1D2E32DB927B2F833C6EA95879925356D254582695095A3CE982924720BE5774A3CB
311
9CDCDB350427D2DF20DA1B5532EBE2D5D6288D75D4F7E4FD9890A0EF8E3D93EBB8F8BA4758158EF6FB90A6F9520281C93DE7AAC6D24607DA296BB96018123F821A7D6A5C5884050C475DA4865442732C8B95684A50165CBB3A32F25F783A4A480ED59AD7F924B968AEA50131F46303223E6A397B0E52976030DC1DCA81D7E7
311
C1EDEEA42C19FF27635C505E2BD5198A599020DF50A2330FCB3AAF28CB0124108429553EF1B228802E2265D8F7CC2401042B155BCC7070F1E5C55F13B4A9577362CCCE46C32174E010C3C378C44841A4BDA00FE3A12006CE11EE6AEC59894D3526DDE1CD59D503ECC324017F8061B7F162162FA62EDD81AE3308617770796D
311
CBDAD2B2625C5AE8A63DE20B2C8AA5E95E76E5730823955956E33E705425A2187C185D36489A1B44D3DCEC2172F6BA2105C3546287A7194B2331768EBBE64F6E70A9930ABE0ADEA89E9E2C38523B810287AD67A54A039C1606EAFE68F8304610BB9093DBDDABC0B2AE4E290DCDA15376D7E39F72B556F0B32EAB5D3D498B4C
311
41ABADEC3A1434C422D87E8025A84BDCB2B1417ED750FAE4DA8976863974C577C7F902D3F156AD354DEA3540DE6BEAE2BEA52F7A2EB4CA43802ECE5BF2CE2EDC9347179FFB023CE412E60BE16DA0BE29B374988A553F561DC04615DD35F7D2C8979F60E5955CE93DF29DED8AFA1EE6642D53418086C03C47C377910F75F7E8
311
F5EF665F70B60FFB22AEDF897D119E8423C773E819A3C1E55E550599EE6EDCA34D0C86FD72057DF2CD46F16A470682471C164E4346D5306BF12D7D12D82CFF673D41636C347443FEB51B50D72EA171A8E4A58623A4A16E0FA2B8B10A0D23268D87C33896EE8FB73305A74BF224EDBADFA0BD674AB354D63DB7BD5D83426761
311
C077DE767728235446A552754EB93B755891C3C4CC6CADE37CF0E912A7BB38DBA010F9DE1282EDF470CA69A9CDA482E334C4A6EA4107987980B17E72F31730EBF88BBD39E7C629F56797A3C0009C2C5AE7951D9A05A02773440F02EEB4DE396A3B6A570C72CCFBCD823B0B8ED3F1D5CEDDFED772FA70236C83FB7D86C385D5
311
70B87107535572A60A96035F8F7C6A7192F13007246BBE0521855E6AC46F3E27689CEE7D186A6FD679D98CDCAD13333E04EBE7ED6F55FF01504B03041400060808005A570F4B6180134D5F0100006B0300004500000041384134364243312D304531432D343643452D413346422D3642453844313837434644332F53636865
311
6D61732F52656E6465724D6174657269616C536368656D612E786D6CA5934D6FC2300C86EFFB1551EEE343DBA41D1A103009551ADAD40EAE28A4A68D9426284961FCFBE5A340113B2071746D3F765EBF4DC6BFB5407BD0862B49F0B037C0082453059725C18DDD3EBFE3F1E829991803366715D474942CD30FB4A782E00C64
311
017A412D684E454CE3FE28995203B162A6EA5AC94B66997D225E109CD63B0135484BAD1B3C07E9080CA35DB3119C11BCA5C200461A68A1A438126C75E3E230D40FF81FB3F03C91D1E3A3A0AF79FE28E25BC39EC3E17E4C2A2D94A0833A51AF55BCCA7D88572FCBAC529C4140B020FC3AAFA886621DCED7EAD7664CC86024E8
311
06DC297DA1BB393E4156543457A4537DB8817349A70F8ACBF09B3EEE2CB2F33E91B65D60786E4E3B39B77E3FEEEF5650424525DA657FB8B46BE6BF064646F0A0F7327C0BC1BC1B4CBBC1C419FA3CCB23500007872A2580CAAE5461865565294E4EDB4617B62FF579DF9A5B2F54E834076A597573A020912FED777F9B3F504B
311
03041400060808005A570F4B63FA5FFA51000000570000004700000041384134364243312D304531432D343643452D413346422D3642453844313837434644332F4173736574446174612F41737365745461626C654F66436F6E74656E74732E62696E536160607074753237347033D375717236D535317233D775B27434D4
311
3570357034B27033777172711202AACB4D2C492DCA4CCC492C28484D2C4ACC4B4E050A82012F90744FCD03CA26072767A4E6260200504B03041400060808005A570F4BF865834058000000680000004500000041384134364243312D304531432D343643452D413346422D3642453844313837434644332F41737365744461
311
74612F53747265616D56657273696F6E5461626C652E696E66558CBD0A80300C06F73E4B117FB66E451741D041DC5BF98480A492E4FDD18EAEC7DD4555D89EF28DF51A0B1BD8340C4DE7DD848B988C0ACF0649566493F2408C508DDEBB99D5129FF8F1AF8CF5B9503E20FAE5A16B5AF702504B03041400060808005A570F4B
311
C95E456337010000A20400003600000041384134364243312D304531432D343643452D413346422D3642453844313837434644332F4173736574446174612F636E782E786D6CCD94316BC3301085FF8A1174B4641B424390154ABB646AA1A143B78B7C4E4464C948E7D2FEFB4A898796944E19B21EDFDD3D3DF44EAE3F075B
311
7C6088C6BB96D5BC62053AED3BE3F62D9BA82F97AC582B19BCA71F182B1C0CD8B25C664AEE839FC6B9D4610F93CD556BDC712E3EC488B4859DC5E7FED13B42479115DA428C2D8BFA80037098C877188FBC03025EF380D14F41639A4466C079920E08841D534D55DF97D5B2AC17DBBA5A2D96AB45F32E452695DC796F67DEA4
311
65C18F774DA5CF7B99AAA4C88092533033955FC3D45F2AF9CE382912A964A4905C993BE86B4C1D308ED668A0649EF09A90CA04210C529C61254576E197174FD81B6772CB264903F2E12509C440066FD093FFD45EDF9B8D8B044EE32D3B72A9F1FA3EBC9E7ED1DB3996A7DCDC5E5A2E3572E3FA2B64459CCE498A4EBE2EEA1B
311
504B03041400060808005A570F4B23571E22E6000000600100006700000041384134364243312D304531432D343643452D413346422D3642453844313837434644332F5265736F75726365732F41454237313046362D444243352D343246372D423941312D3045304132384637444244422F7468756D626E61696C2F302F63
311
6E782E786D6C4D90C16EC4200C447F2542EA3181448A1AAD08FB137BEAA5A2C49BA2058CC054EDDF175A0E7B1A6BFC6479465EBFBD1BBE20658B6167F324D800C1E061C3B9B342F77163C355C984484F181B82F6B0B3663325CF842576EB80BB2EAEB9CE8647374F0890AC798FE16483713AE79D65F3095E4FBA101E901FD3
311
A1494FF39420634906EA01B21EFA019340131C4C2D627E1DC536CEEB6D169775BBACCB9BE48D54F203D175DE068284F1651106EB18EA3F42F206285992ED540BC1D4D37392D7A5929952CDDF21FA8915D2313A6B34D59A381A021A2B04DA4BFE0F2BC95BDE2A7F65546DDDA85F504B03041400060808005A570F4BA233C234
311
5D000000800000006500000041384134364243312D304531432D343643452D413346422D3642453844313837434644332F5265736F75726365732F41454237313046362D444243352D343246372D423941312D3045304132384637444244422F7468756D626E61696C2F636E782E786D6C4D8B490E80201004BF42E6EE76F3
311
C0F216234B883063108CCF170C074F95AE5473F5C4C06E932E4F28601967600677D21E9D8092EDB002539227A2FCCB80E1168D80A6417297A89C5D6963B7129A0D1E8F2EE73AA7B62BBEB8B27DE50B504B03041400060808005A570F4BBE89762363000000880000005B00000041384134364243312D304531432D34364345
311
2D413346422D3642453844313837434644332F5265736F75726365732F41454237313046362D444243352D343246372D423941312D3045304132384637444244422F636E782E786D6C4DCC3B0E80201004D0AB90EDFD75167CCE820A4A845D83603CBE602CAC26799919AEEEE0D965E2E908050C6D0FCCE04C8BC355404EB6
311
198129C92351FAD580A10E464065907C8D948F8F166375F655BDC3FDC3B4E530A176BE7057BDC43B2A593FE403504B03041400060808005A570F4B1C437B0F7E000000A30000003600000041384134364243312D304531432D343643452D413346422D3642453844313837434644332F5265736F75726365732F636E782E78
311
6D6C4D8CD10AC22018465F45FE7B4B47E502E7D09CEF319A1B92D3B0193D7E1ABBE8EA83C3770EEF3FAB476F9B5E2E860EE88100B2E11E2717960EF236E316502F788A71FBBB010AE36A3BA818045F52CCCF1D4D761EB3AFD4BBF0D8A11C14A3C45CB056B7333E3586617595149381C8A6354C2BAD8A71AC4A995FAF6CCD8B
311
2F504B03041400060808005A570F4BFD41EDA00B010000550300003400000041384134364243312D304531432D343643452D413346422D3642453844313837434644332F536368656D61732F636E782E786D6CCD93316FC3201085FF8A85D4D1802D59B5224C860E9DBAB49DBA51B82428C05980ABF6DF175C0F89D4AD1DB2
311
C1D3A7D37B0F4EEC3FBD6B3E20268B61221DE5A481A0D1D8709CC8920FED489ABD1411315F60A409CAC344AA4CA438465CE64D3270508BABAAB3E1BC890FE83D86177D02AF48A39D4A692269BD52B5643490CED4A8AC684723245CA28632215B0FDB041D41653044F6BCBB6FF9D876C36BC777C3B81BFA37C12A29C53BA2DB
311
781B32449CEF7AAEB11C4331C405AB80144BB41B55531079E98E963E042B841429C7D2C246E6AFB9906A9E9DD52A97B2D80AFE3052B01AF62AF223048856DF6AE62B7BFF16FA198281F8545E2A5AE56E35FB6F2EFF56015B37A07C83BA10F21B504B03041400060808005A570F4BE3603EBE7A000000C20000002C00000041
311
384134364243312D304531432D343643452D413346422D3642453844313837434644332F636E782E786D6C6DCD410EC2201085E1AB90D9DBEACE05D09878023D01A1D34A8419C380F1F82DA68B9AB8FDFEC93C3D7C52546FCC12980C9CBA232824CF63A0D9402DD3E10C6AB03A3397DD192872090D3406ABE7CCF5B5D18893
311
ABB1690CF4DCF02282E5EA8A5BB96FFE536F285CB347F95BEFFE81C9ED5AFF9D5B1FB575BB00504B03041400060808005A570F4BF8E033E17E000000A300000007000000636E782E786D6C4D8C410E83201405AF42FE9E56A2A12C000388F730150DA94243A5E9F10B8D8BAE5E327933BCFFEC1B7ABBF4F23108209706900B
311
F738FBB00AC8C78219A05EF214E3F1770314A6DD09A818245F53CCCF13CD6E99F256E9E6C3E3848AA98E6A43706389C11D3516AB76D4986ACB06C26E661CDA625CAB52E6D72B5BF3F20B504B03041400060808005A570F4BCA1DF9C9A900000073010000130000005B436F6E74656E745F54797065735D2E786D6CA590410E
311
C2300C04BF12E5DEBA70400835E500FC800F84E0B411AD13252E2ABF27A55740421CEDDDD9B55CEFA7A117778CC979527255565220197F75D42A39B22DB652EC9BFAFC089844F65252B2630E3B80643A1C742A7D40CA8AF571D09CC7D842D0E6A65B8475556DC07862242E78CE904D7D44ABC79EC569CAEBA537E3521C16DF
311
5CA5A40EA17746733E0B6615DE7217475F386F18B9481C510F1F021CD9FF027EA0E1F5C4E609504B03041400060808005A570F4B3DEE336E64000000790000001B0000006175746F6465736B2D64657369676E2D7061636B6167652E786D6C35CBC10E83200C00D05F21DCA56CA76D41FC96062B120735B69A7DBE268BB777
311
7961F8D5AF396893C2ADB70FE7ADA196782C2DF776D7A97B5933C430F15651E5469C55D70F80A4992A3ADC954792C525AE70A1E4D6AD9816CC044FEFDF01FE3FDE907802504B03041400060808005A570F4B96A37691F9000000960100003700000041384134364243312D304531432D343643452D413346422D3642453844
311
313837434644332F4173736574446174612F636F72652E786D6C8550CB6E833010FC15B4770386129CC83802A27E414FBD59B643AD041BF951F5F36B27546A4F3DED6A76766677E8F96BBD179FCA796DCD00B8ACA1504658A9CD32400C5744A03833EAAC0DBF685018BEAA01320C8C2ECEC66D87843541998C1A2BD50E72EF
311
558042DC533380171F6AE5258F2131FCADDCB8B8F14595B87CF2188D51CB7D55CBA4A6AF5A3960637B9C0F6DDFA2CB84097A997A82C66EECD17420641E6B32BF1E3B5AE56546835E7FDC85533C2809ACA9718F6A8270F786EB53474E5DF34EABCC64D407977EDE4DF377C92E5F7DE181D3EA39FDA31A37F9BF6AD426B4CDAE
311
FADCF0C0703AF23160B4CA29A5F28830D59C28FB06504B03041400060808005A570F4B04D8FEABF40000008E0100006800000041384134364243312D304531432D343643452D413346422D3642453844313837434644332F5265736F75726365732F41454237313046362D444243352D343246372D423941312D3045304132
311
384637444244422F7468756D626E61696C2F302F636F72652E786D6C8550CB6E833010FC15B477830D253891710454FD829E7AB38C43AC041BF951F5F36B27546A4F3DED6A76667677D8F96BBD179FCA796D4D0FA4C4502823EDACCDD2430C1744A13873E6AC0DBF685018B1AA1E320C9C2DCEC66D87A43541998C1A3BAB1D
311
14DEAB0085BCA7A6072FAF6A15A5882131FCADDC84BC894595A47CF2388B51CFBB54CFC94D5FB472C087E6381D9AAE41AF23A1E865EC281ADAA143E381D269C0747A3BB6ACCA62CE825E7FB64BA7445033F01A930E618A48FB4EF0A9A5A7B6FE60556672E6834B3FEF4BF377C031AB9EE81FB7B8CDFFBB456D4253EF6E4F85
311
074ED2718F0167554E27954774A9E624F937504B03041400060808005A570F4BF66D4793FA000000960100006600000041384134364243312D304531432D343643452D413346422D3642453844313837434644332F5265736F75726365732F41454237313046362D444243352D343246372D423941312D3045304132384637
311
444244422F7468756D626E61696C2F636F72652E786D6C8550CB6E833010FC15B4770386109CC83802AA7E414FBDB9C62156C0467E54FDFCDA0995DA534FBB9A9D99DD1D7AF95A97EC535AA78CEE00E72564520B33293D7710FC1511C82E8C5A63FC2F1A649AAFB2830403A3B33561DB2161B4973AA1DA4C7207B973D24326
311
96D874E0C44DAE3CE7C14786BBE71B17773ECB1CE74F1EA321A86997AA29BAA9AB9216585F9FC663DDD6E865C0041D8696A0BEE95B341C0919FB928CAFA7861649CCA857EBCF766125F772025695B8452541B879C3E5B921E7A67AA7456232EABC8D3FEF4BD377C0FC2DAC1F9AAB8516CFE91FD7B04DFFBB06A57D5DEDAE4F
311
850386E3918F01A3454A29964784B1A644D937504B03041400060808005A570F4BA902BEEE0C010000B10100005C00000041384134364243312D304531432D343643452D413346422D3642453844313837434644332F5265736F75726365732F41454237313046362D444243352D343246372D423941312D30453041323846
311
37444244422F636F72652E786D6C8590C16E842018845FC5704741576537C806757D829E7A23CA5AB22B1881A68F5F586DD29E7AFAC930C3C73FF4FAB53C934FB959657403708A4022F56826A5E706787787042457463763DC2F1B48B4586403A20C189D37E3D7431A8D765247559B491EA2B0563A908CCF7068801D3FE422
311
52E15D70D847BA8AF1216699E274F731EABD9A8EA89AC26BEAAEE406182FCE5D55D405EC5B4CE0A9AD09E425AF615B11D27144BAE15CD22C8619756AF9A18F9B144E4E80E508D7101188CB378C2E25B994F93BCDA29351EBB6B0F3018DDB05DCADAD311AAA80EB4A78CA87403A730CD10DF19C0C75DFF62DCDF6E01FA05FA7
311
FF815E6957E407704F58C070F8FFEB82D12C1618C6ABDD3063D9EC1B504B03041400060808005A570F4B02FF11CCFB000000960100003700000041384134364243312D304531432D343643452D413346422D3642453844313837434644332F5265736F75726365732F636F72652E786D6C8550CB6E833010FC15B477030E25
311
3891710454FD80AAA7DE2CB3A156821DF951F5F36B27546A4F3DED6A76667677F8E96BBD169FE8BCB6A6075AD650A05176D666E921863361509C0477D6865F34288C5CB1870C83E08BB3F1B641CA9A8026A3C6CEB881D27B0C50A86B6A7AF0EA035759CA1812C35FCA9B5417B96049CB074FF018F5BC49F59CDCF459A30331
311
348769DF740D791E29234F63C7C8D00E1D19F78C4D43CDA69743CBAB2C163CE8F567BB722803CE207635ED48CD086DDF687D6CD9B1DDBDF32A3305F7C1A59FB7A5F93B10AFE86D740A3DAF1ED33FAEF136FFEF1AB509CD6E737D283C089A8EBC0F04AF724AA9DC234C35272ABE01504B03041400060808005A570F4B28ED7F
311
F1F7000000940100003500000041384134364243312D304531432D343643452D413346422D3642453844313837434644332F536368656D61732F636F72652E786D6C8550CB6E833010FC15B4770386129CC83802AAFE407BEACD320EB5126CE447D5CFAF0D546A4F3DED6A76667677E8F56B79649FD23A657407382F21935A
311
9849E9B983E06F88407665D41AE37FD120D37C911D2418189DAD09EB0109A3BDD409D5669207C89D931E32F1884D074E7CC885E73CF8C870F77CE5E2CE6799E37CE7311A829A0EA99AA29BBA296981F5F5793CD56D8D9E074CD0D3D012D4377D8B861321635F92F1E5DCD0228919F56AF9D92EACE45E4EC0AA12B7A8240837
311
6FB8BC34E4D254EFB4484C469DB7F1E76369FA0ED8EB76A7A3C53EFBE319D6E97FCFA0B4AFABC373573860389EB80D182D5246B16C01C69AF264DF504B03041400060808005A570F4BFDE27E6002010000D80100002D00000041384134364243312D304531432D343643452D413346422D3642453844313837434644332F63
311
6F72652E786D6C95914D6E83301085AF82BC3760080445C611107282AEBA73F1845A0936F24FD5E3D72E544A77EDCAD6F3FB66FC66E8F97379241F60ACD4AA4524CD51026AD242AAB945DEDD70839233A3466BF7644389E20BB428CA88D1D968BFEED2A495031555A505EC22B7161C4AA647B8B4C84EEFB0F0947B171CF69E
311
AE7CBAF31952926E3E469D5C7ED0C9007720102B7272C4798349F542F253D59CAAE29566D1C9A897CA95C5DE0C963710895E5D88143042B3ED39D8BC14BB498AF04979936010EB9AEE50F703C1F948067CA8871177E5B5C7753F3617D21C87EBA50C4502CCA875268C662F1287F0577C037F45F3ABF867B48DB0883D85CAE2
311
9C19CDBE9710CEB813F605504B03041400060808005A570F4BD2043B0907010000B201000008000000636F72652E786D6C8D50C16E842014FC15F2EEA8685DD90DB2519B7E414FBD51612D590523B069FFBEB06B93F6D6D32333F3DE0CC3CE9FCB8C6E6A73DA9A164856005266B4529BA985E02F98023A73B659EB7FC90019
311
B1A816120C9C4D9B0DEB0E8DD67865126AAC543B289C531ED038C7470B6EFC508BC844F051E1AED92AC6AB985446B2878E33AF979FD57153C22B09BC2C48830B8A49FD4A8A534D4F75F9C6F2A4E42C042D772B2DA3BBBE68B501EFAAE370A89A0A3FF784E2A7BEA1B8ABBB06F7074A87AEA0C3CBB166795AE6CCF92DFE793F
311
12737AE4C42DF9B2FC4171F66EEDBC0B622889AC99BF80172C4FC49FD06195FF08AD8DAFCAFDE063C3012731D09D88C6A9C138EEF5C699DAE6DF504B010214001400060808005A570F4B87A08DE044010000A80100004F000000000000000000000000000000000041384134364243312D304531432D343643452D41334642
311
2D3642453844313837434644332F4173736574446174612F446566696E6974696F6E4974657261746F7250726F706572746965732E62696E504B010214001400060808005A570F4BF0697725F8000000300200004500000000000000000000000000B101000041384134364243312D304531432D343643452D413346422D36
311
42453844313837434644332F4173736574446174612F496E7374616E636550726F706572746965732E62696E504B010214001400060808005A570F4B88E57597CD3F0000904100006B000000000000000000000000000C03000041384134364243312D304531432D343643452D413346422D3642453844313837434644332F
311
5265736F75726365732F41454237313046362D444243352D343246372D423941312D3045304132384637444244422F7468756D626E61696C2F302F67656E657269635F706E67504B010214001400060808005A570F4B28BB58AF800100009E0500003D000000000000000000000000006243000041384134364243312D3045
311
31432D343643452D413346422D3642453844313837434644332F536368656D61732F436F6D6D6F6E536368656D612E786D6C504B010214001400060808005A570F4B2CCEBD668A040000E01200003E000000000000000000000000003D45000041384134364243312D304531432D343643452D413346422D36424538443138
311
37434644332F536368656D61732F47656E65726963536368656D612E786D6C504B010214001400060808005A570F4B6180134D5F0100006B0300004500000000000000000000000000234A000041384134364243312D304531432D343643452D413346422D3642453844313837434644332F536368656D61732F52656E6465
311
724D6174657269616C536368656D612E786D6C504B010214001400060808005A570F4B63FA5FFA51000000570000004700000000000000000000000000E54B000041384134364243312D304531432D343643452D413346422D3642453844313837434644332F4173736574446174612F41737365745461626C654F66436F6E
311
74656E74732E62696E504B010214001400060808005A570F4BF8658340580000006800000045000000000000000000000000009B4C000041384134364243312D304531432D343643452D413346422D3642453844313837434644332F4173736574446174612F53747265616D56657273696F6E5461626C652E696E66504B01
311
0214001400060808005A570F4BC95E456337010000A20400003600000000000000000000000000564D000041384134364243312D304531432D343643452D413346422D3642453844313837434644332F4173736574446174612F636E782E786D6C504B010214001400060808005A570F4B23571E22E6000000600100006700
311
000000000000000000000000E14E000041384134364243312D304531432D343643452D413346422D3642453844313837434644332F5265736F75726365732F41454237313046362D444243352D343246372D423941312D3045304132384637444244422F7468756D626E61696C2F302F636E782E786D6C504B010214001400
311
060808005A570F4BA233C2345D0000008000000065000000000000000000000000004C50000041384134364243312D304531432D343643452D413346422D3642453844313837434644332F5265736F75726365732F41454237313046362D444243352D343246372D423941312D3045304132384637444244422F7468756D62
311
6E61696C2F636E782E786D6C504B010214001400060808005A570F4BBE89762363000000880000005B000000000000000000000000002C51000041384134364243312D304531432D343643452D413346422D3642453844313837434644332F5265736F75726365732F41454237313046362D444243352D343246372D423941
311
312D3045304132384637444244422F636E782E786D6C504B010214001400060808005A570F4B1C437B0F7E000000A300000036000000000000000000000000000852000041384134364243312D304531432D343643452D413346422D3642453844313837434644332F5265736F75726365732F636E782E786D6C504B010214
311
001400060808005A570F4BFD41EDA00B010000550300003400000000000000000000000000DA52000041384134364243312D304531432D343643452D413346422D3642453844313837434644332F536368656D61732F636E782E786D6C504B010214001400060808005A570F4BE3603EBE7A000000C20000002C0000000000
311
00000000000000003754000041384134364243312D304531432D343643452D413346422D3642453844313837434644332F636E782E786D6C504B010214001400060808005A570F4BF8E033E17E000000A30000000700000000000000000000000000FB540000636E782E786D6C504B010214001400060808005A570F4BCA1D
311
F9C9A90000007301000013000000000000000000000000009E5500005B436F6E74656E745F54797065735D2E786D6C504B010214001400060808005A570F4B3DEE336E64000000790000001B00000000000000000000000000785600006175746F6465736B2D64657369676E2D7061636B6167652E786D6C504B0102140014
311
00060808005A570F4B96A37691F90000009601000037000000000000000000000000001557000041384134364243312D304531432D343643452D413346422D3642453844313837434644332F4173736574446174612F636F72652E786D6C504B010214001400060808005A570F4B04D8FEABF40000008E0100006800000000
311
0000000000000000006358000041384134364243312D304531432D343643452D413346422D3642453844313837434644332F5265736F75726365732F41454237313046362D444243352D343246372D423941312D3045304132384637444244422F7468756D626E61696C2F302F636F72652E786D6C504B0102140014000608
311
08005A570F4BF66D4793FA000000960100006600000000000000000000000000DD59000041384134364243312D304531432D343643452D413346422D3642453844313837434644332F5265736F75726365732F41454237313046362D444243352D343246372D423941312D3045304132384637444244422F7468756D626E61
311
696C2F636F72652E786D6C504B010214001400060808005A570F4BA902BEEE0C010000B10100005C000000000000000000000000005B5B000041384134364243312D304531432D343643452D413346422D3642453844313837434644332F5265736F75726365732F41454237313046362D444243352D343246372D42394131
311
2D3045304132384637444244422F636F72652E786D6C504B010214001400060808005A570F4B02FF11CCFB000000960100003700000000000000000000000000E15C000041384134364243312D304531432D343643452D413346422D3642453844313837434644332F5265736F75726365732F636F72652E786D6C504B0102
311
14001400060808005A570F4B28ED7FF1F7000000940100003500000000000000000000000000315E000041384134364243312D304531432D343643452D413346422D3642453844313837434644332F536368656D61732F636F72652E786D6C504B010214001400060808005A570F4BFDE27E6002010000D80100002D000000
311
000000000000000000007B5F000041384134364243312D304531432D343643452D413346422D3642453844313837434644332F636F72652E786D6C504B010214001400060808005A570F4BD2043B0907010000B20100000800000000000000000000000000C8600000636F72652E786D6C504B0506000000001A001A00210B
311
0000F56100000000
310
504B03041400060808005A570F4B000000000000000000000000370000006662782F35424235434342332D383131332D343232412D423937302D4445464542344341453636342F617474726962757465732E62696E504B03041400060808005A570F4B000000000000000000000000350000006662782F3542423543434233
310
2D383131332D343232412D423937302D4445464542344341453636342F76657274696365732E62696E504B03041400060808005A570F4BF270F1330600000004000000360000006662782F35424235434342332D383131332D343232412D423937302D4445464542344341453636342F747269616E676C65732E62696E6366
310
60600000504B03041400060808005A570F4B88E57597CD3F000090410000420000006662782F35424235434342332D383131332D343232412D423937302D4445464542344341453636342F7265736F75726365732F322F305F67656E657269632E706E67355B773CD4FF1FBF73E71C0E67EF7576C9DEF3EC995D46C6A1EC50
310
46649CBDF79E192942562825CE965D8A868C2842C8DE9FDFD1F7E7F138F7078FCF6B3F5FCFD7EBFDFEC41B196891913091804020321D6D7513FC77D8C5070EC3FFEE51B21F068154CC75D455CC028A3EA68992803810109FDDE5D5CEC5521B28A1B422BF80741695D5B529DA1C2D058AD2388BDA9F476F7C2CADC939304173
310
DBF48A452BF8A700C0C70C3D121C1AA15A5270C22E2B9E28763651F7DA0D12CE11077B2ECD0D560B5E3DE2368B1E65C5E1C87384A4CC5F2D9FB8BE39E9B77C753783A37998F5CEF1B4FEE553463245C9712270880DF339E0B882A6BA713D865F6F384C842D440934EF264F4A304F8DE4EEFA1E2BF5E2D91F5ADD9613D6E31D
310
DB33ED31DB1D7916CAF091286EA3D31B9CFECB78BB0060245B943C4C040119FF780A74DD308BA9D028678674EB5504ECF284EE814DAED07440BAF649BE4B55DA2890F4D73E2D489A59EE54FDB0A85B59F2F52C4858A02705C4815A792B0C4A996A2023ECB195073E115E3E3647F64243A8338F2000BCB58DA5692C7E7C3D41
310
3F963FEDF3CF00FBB0F831A9D51360FECA43819F527B89FA260EB63C5DA676830AA3626A3693B23F1A17A0DFFCE3EE164E31B5365EDF0C89EF64D8E38AB0BA9A1117D7C3A0EC44F44F4023095E80BA610DE336D0F99593A88BFC5306E72DF98F7FD132ED95878DF2964EA7E43071359FD83B2BDF9C6B5BDF768F0F3C0FC351
310
199526F53D9460A34511F75D1B63E488178569472C91A94497807A3FD4A390C6558F26D416365C3656DE6E769DA9D8FC73774E1709812842DD8EF96AED1960F79D21B395CDDFE6F92CB4EB962A4668C76990E2EF29798C8941D67DA50F4A5F947872460F1F6FDB794E8A29FD7AC0C0D6E0714339CE258FB17AE8535221E346
310
4A10F29A0BE5EEECEFC5675926A89F49EB14E5711894F6586DB5754EB4D5DA9C6437EBA57DB97A24F8B8A8DB295FFD73266CF57E82694DF5166DDF93573AFE9C9C5EB05F8FEF8E89E0A8917B0B3724DB7BEBB53252581EFC3E38166BA131A3A5B42FE2AD00A769BBFA4458D2DE7822F8C4F63D0B8E21B285AE13325F3410A4
310
35C648C9D91FDEB109E73CEDA7BC796961AF79175E1A3CE4C5E8B0D009B0C9E29EFD98BC8E97554E3D8D838424E270F7685226E5AC268E021EDE3522D583E8F20C0BDE2959EF5BBFEEDAB32FE9A3ED0E39F211A86AA9DEBFC68182EDED132AB8BB794442D2D7EA9F4D8BFF52BC4D55BB165124EE90A42D101E67BBBB292FFB
310
4F66DE5BF2300E44546757DA7CEF8932BFC9F92A0707953491A55C5A5ACEDABD9FA1AEA01BAC3DC5A24E22E7C47213493996EFBC369D086ED9397C9BA6C7F9855C7BD5E15BFC8C53DB3D2A4C5901A57ACD2FBDF4D1676E95338B2C2BCE65FDA4C64F5FEFDC7D9CA5AA1FCF11E193F2FDABF0F4916BF13FB916A224380E6462
310
A9815F2300DC49CC4DF8D055CEF76462F4B7A7ACA7365C2707891370BC1D0AA6203C44CCAB47084FEC057F27FFCD57F89B8B9852459798A675C66BD7CE572CAF71FF7E6D7ECF7BF62CAB7B3F1107DCD04DC55A3F9961700286141C94A4F771FEB2BCDA2DDEE0CB0BAE402FF1DB0100F8E475DFFFC074DDB4498AB7D186A765
310
4DDB1CB680D703D47CEB4E72F8CB13D86A4AA68116E26387B93FD6738779B34FEDB8E517EDF2BAF28D9BE93A1D3A164320E07D42E514725C29515FF361754213EDE06B079A2E99EB1CA82A02019EADEEB87B9AF005BD04BBCECB14AACD6B24EFBE482194A97DD32400685FF1FEF1544D1B14EFB1E7F08E6D2CD2AF52DE757F
310
35F5E62332EE88EA26417AD5C3E0E319D68F25414E6D672BD4522B278C57D18F0113921C71D96527E091F00CEB15AE23D24667369BD3CEFA10C7549D930890BA4366F4EBC55F01F746109F98ABCDD5A3EE06619C6AD78AB33E48E4C9BD21BF7478B385EC05C4F8987E2C1BFA0A60EBEDAA0AE0B015C2720ECE180FB6F2DEFB
310
EB822D96338C9B63822183BBF52FB664A7AE57003AABCE512BF77E7E31BDA2E739AC4C131657DDFE5225E900FB56CC01CDE808FA4A9C9DA16AC679656BB64796283D89812B8F91136AE18EE5EBBAF47A73BE3C153EB5D4CD491B4BFB4FE690A4CF9ABA08C0D8AA64220C438C96EA6CA80B58FE5761E697B3A292EB9FBDA502
310
FA863E49FE694ADDFFF9D62C520BDD1A22014147A0903A05B9B729F54272EF83931FEEC057BFF8C8055C279EAC5C0011804828734024F6CFA319C9CC6867C727184465CD9BB7ED386AFFD96B294A85E3802FAE47244602D8273615952B98C4F23F7EAE4463D9D638EEE374A20959E0FE519C4CFB0FBFE5DD80C2AA3F9DB961
310
D1BDE57E67C9BB47B77FDD74EE3094F5DBBE3EBC1FBDB7393F5116263009E2EFE1AF9A221B2AE234C902BF70E9F280ED23E73908361565964333A3F01D0B006AF32FB21AA1316744B489D5A198E85299241735BE559675130955C902A8ED761FC0DBE337A9F91919AF5CE32AF902ADF9AB2615E00E8A94586BA1A90839B618
310
32FF1BFB76D2EFADE6DB1BA04CCAD3DA649E7E2A0219F592E22F2AD54847EEA8E42271011E9074F8F3DD9FBA6CDF88FFC9FC7E811AD1CA8F4557CE4AFC7BBEDCF0114A48689F20A584520C74DA8127124B767E2FB91A6B186246727BE63C9445BAE02088D58B8EFDC0F1072407CD9B89A13F6303B4A928F593AD489B58E686
310
9325790ADC406036C591729FE14021F94B7796BB11848D463536A092A26F077F94639F7CEEE2A724C66EC885F4A24F8B8A0AC321F8FD149BA529460FAA34E4663C02D41FDF80BCA222D42F0ABFF8490F4FA74C673807C2051D8E467B47B616072860069A9A303ABA9B319D58404461401B0A0F9BE5E1E151C14BC33B32ABE0
310
3DDE91708DFAEB15E7C0D593C86BB7D7EC17BE56E57975F077BFD5525F3A1A361D584A75E08CF29FC7B44B2B3085014F3A5A14517377C3F6B8F37E59514C3B12F8AACDEDDA4DFC49BE5710101534CD6FB6DE15B50F11A09472AABA727F0C49D9CB906B158030065F48EB3625E010CEC1D511D0053474B11E6A4F01C0D6EF1B
310
ED3A944FDEC70E0DDCDC756C86545910E0DAE3BE3AA9A404574C2995CD5CAF9549226BC94B4F4F0F5F9086F418F6B32346464610D8BC7391D3C3A3CCF04CFC1FB2A3A3170E369511868F14EEA4E5E438CC73DB1F3248AA94B6B2FF33B222FF3D1E7BF146CAD229770158063BCE4F5391964DF62F7E52A7BE0EEA829C9E13C4
310
C147D6F93FE59E111DAB5E4594D6F3CD1AD375EE039930EFE5AF2BB2D41C83C7DABD8C659BAFBE8FAB392CA634F3D15C1D945DB4588D2B0824A4EC928AAC565557CA2F0DAA588CA5BE30B3A8004F7BF005E96CBF891D7F18112A3619FDF530DC8AA64954258E1811789B5189B49B4EB53F5F89F7D37523894F3EB57B373763
310
C91E502F52CC99EB7BDDF933FC324C4FFC2561DFFA7339FAFDD0A4BFBE6D3A8FF9ED1FC49898139864602458968913181918F719CCF5A68B2EE9C1FF050E34E63107003B8120FA982C21B30A874E4F5E4B38D5A8290C4B8D9BE48A0BE31EA995BDC37AC6DE90BA17D259DEF53605D55922FEB1855D915B659FBEB350EE0DFB
310
2F9F766E1C84CC8964B75D08667445EAB966015F63A18A9E0A325C1B3DC628C0D3CB60F767FA93CC65F25458BD23C3B312716E5F40E5858AC06EBA9AB14F95DB99147B832069201541D09A0D856E12C629CF32683760EE855537D1901988D5EBC156676C7DD51D7207CF3267AF1D76C2AD867315E44618015313A98B19941C
310
696FED3461CAA9B5415F918556D7802EDACEFD6B2E45853A9735DFC9DBF7E440F9319F8B6805A973BCCDC76C069A9144E51F187EDCC12FC31B5DEAAF0A76137199B106EC84ADA6B6EE697D4E6A96E007417F4E880E8B1E89B4BCE9D81EF611E2ED8F0C1A6C25F620FAFAAB656A7C42D464880E8AFAB0E0FC8EA38CA9A8AEEA
310
EE3E4648BA4680270A89743CDD3E6C6CBF34B7B640EFA285ABC7EA0A1E28F3CC963D114A80123EE66D0AF7D5380EB41909B605AB4765B709B808590458157E69BA1378FEC4B48CAF6A730E3BE3C5EF2DD1A5EAF94B1DDE50CEB55DDFD7EE9A16747FA4B223359FB1FCC69E1194892BABB93A1D5C4E807AC0EA2E30180811E7
310
7A2291F6E7F7FAA5E0F60215BC6024E48DE436C511F0628B8CA189982D4D83CCA17D305A7E923C37941CFDFDCD93ACAF735EF5F0E61BBD3E6C41A59B242790D3A3BAC7064DCD89AA2E37214EC839820949D5CAA31E240D2948E48F690298974A96BA9A8432BC90F5071D6537C9666EA4564796B7AFFFA548077BEEA75F6308
310
3435074BA182F3699557397F71548383FDA8CA34D99B981E72835ECDA5DDDC151315173D05A21F651AAF8524E88209E2E7A737ED1045800CE3390050BCFB8BE588DF111617874C62575039CA588EEFDEFEFE319B739DE2EDC147092A262611E159650E787917885EF08F1F51B8F2D8A71D60B58B190FEF9541A1BE94BC19FE
310
A50784DA1419FE4B0FB51B8D36B5FF8E1286FD8AF42B91E59A5F1CC4D60174E764045FD8C57B18209B217F89A62252BD20BE0E63E12B8E8F029FE19E0E8D0870F58721A557082250D5424F7909369376E41666C0EE77CD87CB283F661D5FB6D0DA023CB67320A20DC7BE661E9E1BFE5463085C557DA1FF9BE835733766C3D1
310
39F2CF9E2208873AD0EB4814DE9E6BF2CAF81614D4D43906ED1C05A3265CABBFE192770FC2F64F940CB6B17B5F166F133C9AEEAD2641807C3E69515171DD74C4A85311513D6EC9530B3B601B6BA3EBFF3B5C3D2F7D69765141E345F75433953D013ADDF8F6AA7DC3F4A7563FE5C7D367937E2900D7EAD0F9FC9A4A1A9B5BDF
310
1FEF08532660C01C5D6DE22199AA774383E306DAB87E301ABB7D213887F9869D4942D0D71E94B27EDF216A318BD488D45DF84529EF575AF3C3938C0AAA0215B01994153E2054A0B894DA5C784980633AAD48576957CF4AEAEAFADC7C587368551C73DBE1E57C58AC713303A8BFC258BD04B51724459FF9E24C03A81E0E0679
310
CEB9B348C0DC998FEB9C6D6EFA77D247CC8F92D3848599ED89A23218D0636465AD1CEEB7DC140D7426F83491C4E8E8281C2FB35240918FFECE880CA2A42D70E8B20B34DF5221C7DB0CF90ECCB9C745B37A47E9B716FF7A97B7A252C1F3814DC7B1E1A7F72B8751D524EF7CAE45B0C73B3BE7D08ED39781B380DDFC9AA4A474
310
9C9493DB5BAD07A6EA6C092FBD0E85DB004DF06B8C9D3089C5320187E4CE1846158C7EA7DDAE8AD9AFFF21AA3A1026BB06A259845E8232DEE62811A4DA9CEAB3A4887320B76E2AE5615EAB7BDF738CBDD01F1E64064BC13D9EC53576751CA8CACD58B3CEB0E6CA585BD089B2A59B9FC101403387AADBDBE70586B93D64BF3A
310
D4453EF9C3B6A93817E8346991798601344F79A83C51F3D50F7BF2683A3605F51A72449489E0EE6169C749C60B1035651103AEE24D24E51A759C840DD3FC6504DA6FE107510E447B43461C79D22970B75DE5E1BD3007D1AFC619A4A4A69B5626AF5E9B8374E20677F77E2F8E73DF868E8BEC7EBA7B6A75EEF7205E1AB9486C
310
B642741D6E03FF13FCCEDB1C4AC129886268B01CDF4B124AF797CF784F3C6DEC97A17D4B558070A0F1C04DA4FF9BDBF34159AEFE958479824B3F58EBD1E19088A2AFDE501B6F2052368A3FD0E650A179EFAB1561E1D27527077136E652676C3670F42DCB3352F48F6BC86D2C3B0051727E41A0A4DC6CE2BE9D47F5CAA2935A
310
3C0539AF080665997194ABECD723B08129CC5B6B21D2E7D54CD4D12610E7E9FB8306771A89576C7A982002775ED44F3F744CF21EEBB27A631671D921938AAEE3EB0D19CD1E083727F607823E817BF599DCED5394E37EEBC2E88782E638920CA641EF74D4CDFCDEF06F4278ECB18E31E7E9876F2D783C8BF429C75395F57E98
310
C2B495A3DA077EB3AC3C158608B6B57FE3EA48484D9A480096FCEE0DE880950E7E5A5714131C5C41AAA29FD19AE81AC145FA1B9E85C7169A5AB837B213493DF7E9AA4B5FBF9CDEB36EBD21EF1181B7CF7366AB2A951D01E37AF4EB835D1BE8C117CFBE7625D2EBCDB0B20C5A4B45CED0BCDE3EE8DA9DA78C2E21DEAAFFD119
310
7E463C33CC6A80FB785669B856EFF7A8CCCA2841B5A5369173320B1170C368B2748D81062EA0296E5E2D95D7667A4A46D98A6FF475C76AAB0A8C8D45E226FAFC9FE0133EA9F60111F99CA81ACE03A1D14C89E8B0D69079C91464FA1D99E651D0EAF606F345C42A8A1AA9BA391031582B96D5B4176A77AADB01F12FD298A75D
310
EEBB2C82F0B8650E880722F8DDD90C56A7A058E5FDEF1AC93545BA27367C76F5D8F9690CB6F8DAE141EDD7971F0FB548A2AE435F224D6E5954CA155512F7332029D5A1230854B79F258EC5FFDB09F5F6343A8EB193229B7F7E79B3E48F8E183860B38C8269D1B53738FF1E0BACF6AADA6D4869E9DE708E79B5DADCC09B1BC7
310
6F649731CFAF59A83FD8BAE4C749D66FA87A3810D4D62FFE826FA400C0F325D2BC0F3CA35F5847B82A2ACC7961745C823E4D863D54460AF792CE6F79B5C7A33B25C3AEA6CDE15A919B6367D781E9D44F61BF828672594A3E1D9EDD6DF179A81F27EAC05B936575D73E05C209DDD2115CFB705DF9BBF3C911589B3640735E9E
310
618FC9C36A7326C82B2205E244C55D56FDB9D5DC93CE958D4BF8174D2B3DA54CB3C09F2C2A6DFF73D23B2197355761AD421EC581284A7EF8DE2CE3497C0C804D49B41DFD6A7360844E5BEFFB495CFCDB97A4595911CDBA623274CE852B5E278AF0BEB1770E9D37CD977B2766A7DED0E94B840E1E95E8C77DE5CB6354AF7871
310
427C28ADBEEF7BA0A28E19DE9ACD75F379FE373EAE6DDDAE3834692F9C2B03B4FCA8FCA9ABE8EEEBEBB725B88A7C90941E850682CA04061A7DF0CE82ED49BFAFFD42C309818FAE14755CAAE78B0F73243ECCCAD7DF58FCB9CDFAE7A4D3E6671A613639130D056C8383C8F4FCF4808C331E544DD26E4755D09EA05253B3049A
310
1E32587CC25D72E073E2CD96D04A71BBCB0038FEC3F53D254199C3CDC67CD66640269431860225392B2CB3ECD0B4498AAE78BA1994246AE1EE78F2EDFB79F6C6CB6B5E279C4D373FBC21CB2698C9ACBBEB6A4BB6B39E16AB0E421CCBFC7654D81ED86022F9BB522146F9F4772E2D0E4FA70120C95A85A417BF5078B232F475
310
4363EB1750B2AC2148EB46B1EA72AD9B4D23ADCBC589D70106C3EC2ABEEED84DFE28E718C6C83502C28E9FDD3B09DA0A6F6F7B72B706A31C9E2A331EE70DA56A083D2177BFD63C55B11D8D949FAFCF90B23A1E24B9B5018B9A17E99F2890EC302F330FE7936E2C23F0D237EC8916F5166AB84B62A21BB0B950146962D754F9
310
2CC2C8877BED8FC7B7B25726DD19545392570B3A2C66B58F027BEF412E552D12A588C4A3CC5C3193FCB3485EFFF700D0B9EEC077754A33DC1FB9E25AF814628F91DDFECB667D3F7690803F38D13F8AE39353523BB08FC6760144AFA2CE28236F65EDBB3D5F59A57D612B99E3D7E5F8A851666BF9B5A6658EFC96EEB37A378A
310
BB0EB3FDDF1303AF32C41BD1C8560745D7BD81066B0D6313359CF488563D3BA3F8E2185D1FAA3EBA1397C9D0E3DD232180A4DCADB6AF25DB3AC3CC26589C8239E66E81547BC7E2F328F9884764CA37EB5DBE390DFC03A5246B456A7C3684C4377D0EEF9A350680FA9A077E8B2957B489E09AB1AD41316944C2254B5984830F
310
691C93CAA767EECF976FA5647538830B5E63236A6F0365C1E0F3E327F24FE35EDDBD7360B0F7374837409F7A6311BECC12B7026D4FA1AE204FA3F5FE904B1F420C7A9044AE58E403E7C4848E7DA25DC9EDAC79DD756FAA26B9EA83ACE8A214A2612A22AFA19DAE7DBAC5F8CDE1292A485F98DAC731A29FE01A3966E96BCB9F
310
B5A4C8830E1B9AF0C54B87FBE221A097036E5D28D1F869F810C06A9BB0AC0612F69AEBAF893C6E7AD59460208BAB3A6B09CA4F6BDDAB8CF0D1F84B72487498395A70DCD754796E271099A567A55CF242BBED64696378BB6CF25EF0FCDB589F3A82F1116D010A9AB9FA4358809EE0C973A2B4229BAA876A70B03AB49CBA7FBE
310
71DB1832FFD32F9BF2C8E98075CACAFB36921235D0F552B6A67E94E094097A5D7DF681B40623DA535ADA7A9AD8E9A62407D7C9A5AE51D62A17A83A23728DE86BB56115804D3F2675F2C6B87541A0FC497BF0CA86420F558C9859EBE9FAD62747E323E3AADC03FDCDDFE7407B09DA90B44E3185723C5381EAEF589765E2F7A0
310
99BA46695BAD60CEF3491B8A171F5F56444F7CE9455312C3498C74173AEA0214EC029833B34B650CBB5A5508D5091665309642791708ECF27CF11DB3D797D6CFE474453BD4BFADB768094B2147814D81C7CBAF8228DCAF5564B5891F5EF6A860EB2E323CB82AB868D8EA048880D63B0DE5341F1B3D53297B928A11E15F25E5
310
148990F710747C3509ED14909C552EBE3973246FCE55D00564D8310BC3EBC5085D08D806799B77D6C57FDF5E55837F9E934F09C03C729271B64F12D0A9F9E938107CAF7BF1EC8CF1BB9B42363D33070F4CACB425E605DDB0A34A12BB936DE286B9887A4E2E558F0886498BFF49C311D96C277CF6A9FC0D75AD0ECC5226D7E0
310
E3572012E56D7FDE4410CEC7A6D0F997F225A2055B8B92E3956E875AE4993CB3D4C9063AF98FD45E1BAB165640A43439A2C9181A7C355B297C0A0CCFFAE19B6FA3C2BA238A885FBC98B8F6DAF4B94B97304878DF4D8BFF6A4AEDF79E90ED4E68F00CD7299F4E0D83E35601AF0CBEF18C1E870E74758FA91F5131075004DB3C
310
FCF09AE1DABC11957FD9808C92E8A678CE9DBE40DDA0E0D1D505AAFBCBA208232BFB6FB3704E8985E61ADE53DE74152F5C7DE74B1DEDCD37DC3E8FB30D7EBA8B9EFFC3606BF90B8D438279CB7709FC7C00D327F41817EEA71CD9E49FE9C8C9A81C70915D9F0F15958EC5AA4C3BBFAF46986B90F188BDB24B89DE3C6F29EC3E
310
6F66D84856EE96A35E657CA41B41EFD8DBFA16AD6E91439EA92B40B21C053249F51AE50EB0B24C770FFAF40DF12C8436366819C48E36547D4E7B72FE2BBF10828583057814A668BDF183F6B2E58DFB151103E56303E63D00F39C27C4661605DB644D19175D02E3F0241E8FC3458D17AAAADB117CE9EEA690D0DB01E634878C
310
04C2C9310B69FCAB831151E3AD293BEF6E46B0ABCECB50F5939B39C613D41E81FAE8D34CAE3C4566B761D37185FE864AC32FCB71AEF39DAA5BAB88609BB980CD2F07A8F941653B529567726E2B2A58D079DD57E1E5E31426CF184A04D7B03B985F276D47406AF276FE32E3328BA866EB1FD39BEF57863A317634AA5FE46740
310
9B3873F5069EF0D71AF00AD189D17BA1974ECDB2D623E9E14086386A6AAB5807825C37B015BFE892AFD154920EC437EB945D958E18622E1E0FE2FA06557CE4BB9BBD05A2D40E774DA2B65473791E314B7D6C886820B2FCFE4AA272B3B8B15E7344A145E8AF919B5454D89D36D413E87211186BF6F645E5EC94DCCE8E1C7990
310
22E4EC9BC86D7A0F2AFB1FC4B2CE48F84B3F49ECE65BAD24CADCC07EFF39AB06BE9E6B27A059938EA7208838455383DDBCFCD967DDE4650EF92A14FF933C975DB20BD7FEEBC4487576485963D757D16340D9599FEB362F775F38CA4185A86F74B629C81B133644A3B18FD056E997E0734F9BE26D11C0AAFC669E2AC9FC41D2
310
81F8B2E1C35AE27BCE05F3DA295488096688719D974DF1B5D182DB7792288697F8763CFB43562C1CDEE11C4AABD5C22B6E33F6F389CFC3477C5919DC0D533F8A7A1846B7ADB60ABDC26C43D0CFC8910B7C15EE22675BD02702ED39DB77A87A192CA7A543E6205B979B9F5A6B512A3CA799E198B2D5797C0AF8D1D872CA455D
310
4D431A7879D4DD76110B5FF7F4176B54477A9EB5E4A5D11214FDA585F0382751D8E2582BA5D2075053298FEB8F1537304E32CB22C2E2B693DC0A760B1DFCA751BDC445AFDCBB12820ED85F6D5298933C7EF1211E9E057684056CDA3FEF3BB6052355E162DF27C59E965A8DDB7F9437EB72CDDA3A090DE65A5B2F50326247B7
310
EC67B73ACC7047FC9B353D6EE990F772207C6EC52B39DC2F3C0754821DAB559F7C1809C7D0DD5B0499D0442E0A6E391B3D5DB46D11E731E6794EC77523FBDAA242ED67F9FA1FB684255671F63C9BCFE6E7E896D51001A6113EF2298BA494E0B0980D1FA5B9D60796554C02256B1E0345FB7C6186B6A19D2DCA270416262845
310
FA4F42DB5D9B0A0B6F07FCA2E56C242522E001E0CEB734AF310FC8BFB57E38E03AACE93B3326A2197891E68452B26A6307FDABFEE0223D3C03C3C73D2D5BC054C8311F12004CAE488E5C29287F8156A2CAA4AD0D7BE6B97264E4139F437CE73ADF52E5134C52B819777C18B323A5924E4F67AFD13B1CDC3A61793A79FAF5C0
310
CEB718E441071E797C6DCCB9EFCF7E4A1E9F3DF3C2F9C9E8294E9586868788C972857FB0556D7A26941A7EEB9B580AD78EC40B85DC906B4120A563CA3B87797ED612D3B035962BB75F6515A393F4CB057F564CDF54F2E5A024514E6A1F901DB80C7E70B1FC05E356A7E72FABF4775B3E3FB8F70A2A8E7B6A94542BB3041579
310
78CCC999E707A29CC795E67A59CC546A5D47B368954CA7B6E75EC9E1F6FC73CE3B4F71F8CB1A6B15923D61EAAEB14626AAA9D04A26EB9C66CD1BE86CA31A5D8703DE04CD1EBCE4F5CCB62F93909AD11E55799A781A956ED27D3E738F4538CB04ADABC7DAEF20BC35BA6A90BCC1DC61BA05F20D8832FFB9BC9B15E2DB838A0A
310
FBB7E0C82A562127E0446894F427794C3037186F622BF24DE1B00AA10A23BFA47B2A180D6DA5AD6F7326FEB8C100C2D7142EB2A0B2A9D1008A09BA343D70E054AB69E2A7EDB783CBD92537FAF4A44D1296AC2792729104B3276C276C951D0CF3CF3F1E6B017720A7B8505A5FF9589365979678C36F1BAF759EAF57C60F1FF5
310
FE9DCF5F8E764FF25A2D06CF25117A8FED51884C13B2B750DB0E4F5E3D64124FCF11F0AD8F1CC3B3DA4B38ED22BF1CB2585EE6BFEBBA63FBFD44F9537B9B37BDD6B358720F98A8125AED4349CCFEB0E135F19E208A04CA7E2B10711185D72E381F448036EF57C9F874E54A971CA37A639E986AC0226DC5AA00D5B14FEA9192
310
234B3DE617814FC221C92F33F1D392F297731B567FD98FD91D989379AF567A65B8ADF177591DB90FBEA99BF4ED11B16E50A0AB1DBF1156D034BBE04D69D08F939D8E92BF525A1DDAFF80ECBC95D8F45D3FDD289FD23F7D8B452F8EBB34EC082DEEE68E18EDDF072060FAD2AB1504DD4879BF67099FC58F6E9DEFBF645D1633
310
4A3E9A127C6F1AF6132CF287E433B43A0EE93812B4AA0B194E03EE3FF91EF9C6ED0074A2F6EB18A96A7C9890B1FCDA1F2095E944DB911ED54C60DF16FB74C8CE9BDC7C54C4F14078CF73C2FFF1F1BBCCD7CF64F71407EA1683DBC410D226627F66E509060D5C0AFD611DE681D509DB8DD12FB1265B03C6F5C55FF4C30BD941
310
87FF692B4F152982502F193098A789526A038AB529A52BC0DC4FB6285CBAC10A8B8DB75DCD9BDABBB221E27D1F8DA9F5EE5926A1C8AA9BA9BC09239C6A7F12914EA3B59EFF7AAEC3FFCCE56F1C5C2980AD072793527565E774F4631DB178CEEC691B1F367BEA0CF2907E1D6B854D527065979DDEF002D8B2ACEA7CE21AE297
310
737EDE1D45B31233B73FEA35BCFDD0B09721FDBAF6432681F2FD10C3E9EFB246FD6E854B344ACC9D8A0EEF876A7314B49B6A499FC650B099D650DBFEC7638ADFD245E2B7839DA5AC5F7D5623FC0ECEEC8653FC9B2BDD1AD4D00A566FBA7186DD3C9CD26512551637498CADB950FEC71ADB9A5524285DE328B8EC7EC75D2345
310
AEC6A27C42AF6D9B92155315C80DBFCABBB7DA0FAE425C4FB896B15C9BFAC4FE67DF5A23D30C93DA4D8F36FB15D100050DA6062E22AEC5F4DAC4F6FEEF97AE05DE63C6D38F9E068A20BC5E3B6BCD75320C5090924E7F93640A7735B1A43451C2D91EE62C6238B797349E59890AF3A520DF4A87095F3ABEC2E61F0593416CE4
310
6CDCBE0E00E2523FCCD04408588B5B6C9DB6459C786CE378770B54F51DA3A5E1DF2A3349BEAAC234A6CF8993B598B3B25B4B113E353A4D750FA7534749430F3EBF2512E7EA3FD43C6AB9A1F765A58463B306721A15D224FAFE8C6F5E3432D57EE697DA0DD5A9D4866A8BCCAAA9DFF1F06047851408FEC060471D0E3EB86BFA
310
F46E4B5E60311DC3E3CEA147C75CF971BE74689507154FF2D2E92F15CDB2B9182B11459FD8ACAC5A85F174BC94A7F4EE4C4F5CAFA7C02E37BF0BC77B7DCD0C047BC316F562A01A441AFA7931CC84A28CB9F4AA367EB515778F29BFE61195FA671F4352E5E46E3A64773F1F76EE5EB36D7BCE9BCEAD837A4D77F8DB8C92AEEF
310
6711920D7C7D0F76B0FD0EB7AB83724CD35BCA7D36DDDF5FBB7FF6F04A91F3E2BB3B8F1A43CD659639507FF6331C5F697BCC782AE57D757A27D97F1AB9E0AEDB43F92F1B2AACDF5FEC8ADBAF9F814E2027003BA2F9E144B1938A7A04050AE5D953B82C45619165C813A10E76DD6906B3C16438064D14CDA713AEC420034613
310
E1AC7241904A49FBF87409AFB1FCB9B72FE7933A87D8FBEDACECE4EDCF6A4FE9FB94D5DEB74FAB7CFEAE17EE965DF980DCCA2D04134994F9A2E94D2265DA4FE6AA7B7AC15FACAC2B5ABBCD7DFF542C5314FDAB2E1B9D8B65220B8E2B638BE008E8DCA22678C820C5053664D15E89F2D735B51A84955E81A443545E9FF787BE
310
0FA700A76D136C27DA179A7C6E8939E01BE756E19CB292798063D8B97F44E8A27BCF3A614FEB8BE974A718E86F7EC99B53CA35FA24F61F2B07266684623A3D4CF073E511F3A10A8FDAFAF0078C577F4DF9D339FE7862E5FA47CF4344209E5BF76D783B1B48E152AD281B15FCB934DCDA49CEC5706B1EE8B460F435324A5CAD
310
154725E21AB8044B75A557A79F6C807B9340AA3D92503E866F4274412926C8C504E4D5EF8C0E68DD0B028781A6B4054F11CF18941F101C57CCC796773ABC8DED9CD91FE5788806C05E548895354AEAC96546D55B0E94A59F148D061F42AA398D822CDECA4CDE79E13469BDCC44FDC990F366BA5978C15F97ED80CBFD73B0CD
310
9B8B83A4F6845BDFBFAF034019473FB9A63BD55D3A4A7284757071574029A4D016DCCBE95DD679EF3C4880BF169422F8C89B68A988D2B13793CAED4F74DE7486C72DC94DF46B8E93D8E02EFCB1FF9B3BA10C8AE7F653DF94F4AF466CDDCEF5776687F7C4C14B63E4EED1719DC2EC482D7DBCC7AE518CDE3D5FF86D39000EC3
310
673C0044E1D308BF05F74D1B5F033A7D1BE7F74BC55BBE3E4A20F920946CA0271EB17BD2B80E5660ACB8A29A79F5E4BBA49D4D945B6EEF4A7EFEAA65E5555BBB57A7E15D2F83C69F30BBB978D2B39F1F26FC097424D39BB33CA3D87ABF64E307938B685BAD44F71556A30B7E712CA4FE600613C3E554B69ADE949A7CFE214D
310
F1FFF05CB82151EC6FC31950239F94CF7AD39DC473F6EA356E5EC2C4EFA04383CEFE985A127484366FBEE3C0EC4FEA363E4F6632AE781392FD45D67B63FB8DF70E82734F431FD3443172A0E30A83D60982D55FA6A2CF86DBA8382502ACC6CDEF3B907982EED1160E14863FA242F9757347E1544275CCDCF71ECD5F8621CBEA
310
326B8BA884AD7F825781923E66971F04010D574C541D8427A438A37EEF8AF88240EED7362C953F5A81DE2D56109CDE2524EA0F5D2F87308C0C47BD97AD605878AB8589E17CA83930CB5E0DCCD75853D68B1AB136594926DE426C367428E9334AFAFF90ECE221BB5DC9E5BB53D2CDEF954EAA9CD814F0E5725F1965DD458E5F
310
8487683AD86B9D0076BE3EE91EB1CECC5331A67A3F79D8B27587C12EC2A6A70474749F27B4C0BBAFB94B34189E88DC18964BE4121B9137FD516C7755356E50D6714E31ACD222621EBBCD1CFF81D87479056A9DA0E0B8EA19D24CF937DA89F78E8650CCBDC110AAB6C4E46DCBFD0446BA9E2060E81F314AC2031E88135E5476
310
AC0160EF5C0DD2EEF1B8B5CB2D198BE9A554A9093B5F7D7E4B5407DDFCA1D9C152FD97F55BFFFDFE802954DFEC8995B983E28AC92F1971E28F531DC407A1280EB125F64A72E617EFB27DFBCEDCDA2D6F2BDADA36873EE46B9BE1782998C63DA7182BC383FB6FD15DA472B175D7E8B4FC88F38D6E07FEAA3FA3CBB8F6B449EC
310
F14D2175E5C5CCA3A42ABF24CA6C9395AF74535F4DDB38CB84F56614B0FD32D7E19CA5CF988DB4449C40E23DF2B16772594554579094450F56F253CD25EA7F77366FB1CFE79696C428BB64D5A41E986189427E5E4D7E2DAE3D5BB4972B3DC44EAABDDDD63A2264ECFA5C786EB0EE1FDC5BE34FA0F08376869FD1E61EA06CAE
310
15191135445EE8F0394161C3266A596AA035572BB0C8876180D8B9C77D307DF9DCDF7365ABDA6F3A2366436457A4DFC1F259666569A9E4A79C817BDD5610E5200FCE894A358EC72858D50EF67545DA81C6FACE3D457BAF70367E1E6BDD9A952FB4F56247F58F523B97E640246051A72F79BE42FFA0B3187F63097F91C48B86
310
8586F714B0EBD5A00A8412C1236E1298F60C72BE6C96B82B404CADAA304AE9F303176B14BA53FBC2D5E86377E35542019E24D97B96A49B2C0E5006E7795954DEAF5DA58958839043C6C70BD3B1B33B6DC5C31316D8A6923F142E26F6711A2258AF977DDF1F970ECC4F1F2B434B96D81BEB6E89BF3BBB3C7C8CC80505070723
310
D6D7D7D3C8CA27CA164A26024FED94B12A86031867241DA53D929636DA600F050BC40CE48B8BA03D69224720DEE2ED2127390BDF5E6EA64527BBD4C4C63FA76BB801FEEC0E61218EC98A8A86CD8313781617877E66692839B9468CF4DB8E50A73986E558E309C0D6F676F921BE02F1185454DC75B111572FF9D27D85EA14C0
310
5AD7271225B391C4275659CA4A43759D0BA44639BE4C30A84DB7F67A41399FB95CBF923B1B1672ABC807C1590557FB18D811983FA97F5E609516D62281D38B1281F68FC75528C35E4CD7DF0F7DBB5E5DD69C414EBEA2F4A5B241B996BA77AE6C772E367408C633EA3E438B68563EA8BE7667F3A4C4FDEEA52ABD78A2820F44
310
3B7914A15F180018D231E64519C56A12F6CA7C8DAE18F06F6B769DBF92329EF6A5D18FBCE600F36BD8E8198DE5CDAA96181F3A756EBA5501CEE58F497EA4F418A2B82565B9BCC611713C0B708CCA1F398B78C5F7D03B3437CC18F13061F55C7BEDADD5ACB1DB0E36D3CE47FF6EA1A563A57E9649EA5D14D1A50EAA45746338
310
1C073777EF1600607BAF6428A7DDC079D47A204EF1E1F1F0589FB054D45E02CE623B3823C317C601E589E22B1E88B448524B86A82828E32345EC18AE17214B42F8C41C6D428016D9BA31DDCB47572561E5A402E5BA4FCE55F78AF7268524AA04130F3A20BA5D1E9F9948EA48FC8F5314FDB35E21898198060034ACE5E3E2BB
310
CA34092518F275190AF65F45867FF0900AA4B81F25427414C372BF51DC29AA855C5428EE1EEDD6B849AD60F6E73475C2D2523F8A2772C840A478DED18A8C5C91B085F255DC4F54EA7AA8947354FD17ECF8FB3B4A0DE7B483CAF3A1165EE05BBA413E5C1FEF3DE1D6B8F2F3F3251C17D9FCAB48A9AAF63AC773A0E413BBC46A
310
9ADF84A566FC920E4D8C52C9769EE3301CADEEEDD92B312E02E2A7E35B7F1E7D203FE5A7D75578B06E99D0E46FFADB8FDA17ED8880390DA29094202D6F645F76F6F96409CDA05495A96E84B04A00D1A6C6C81D7F3DE9376E828CCF144EE50E364ACCE7237EA0BFB5607ED1AC3CFE73794E5B61739D14DF1743441B1AC98F00
310
ECEDE9E7301FA29755FBEFA68C91EF2B314CF510537EF1ABFC9A762496280B546F5EDAAF8A5B387D469FC9A878A92828C88608453ACEC6094DCA54111E7AD5B2663DFE2DD151B7F123B9F4FEF8EE36AB125FD7AD52A59B1B765B3E3F73E3F73DEA93875004D2AFFE3CDE9493B87A9904DD052028949041A91DC0E1BA47BA71
310
4343FD5B25E0A6A09503AFC17C790058A836A324FE31D7893512E28230332F153181C1E018E1124EBE1BA262AA428A518237D1EA7275E48C5C561BD19ED6912EDD8367DA0F31E40EEAE9683DA9257525AEA7B632B97119E17145A90231768A4F3B9120FF32E8319B015E3CBE26F1A754177D8185345817C096B0CE443A955D
310
13AC15E1FB5DEEA0239EC32A3C92241A237B0B02FFCB4F93CF2B02570C8D192E2F2A68CEEB42F12E6F8CEEFF46C251E22B4341C56FB08CCE550E7A9D6F4D6564B9EA52A83D5BF2C6E03FA19D2775E15A8A7ACF30A13C259EE7F5EF2AC3BA354F1500E1A07FC63FB4686E2F12EC69719F9ECF5FE3F35598DF2CE944008CE78F
310
0911BA5BE5D0A34E0098FF038669C26030BA9B300303039852A8F6F496341737CA7E0D2E3AAA36DE0A70AA7D9CA0D54D9AD84B18A44C9E625475E1C97B93BEBB38DCE7D227E67A2D00F531436136355F243D1FC0D712C5765754FA22FCFFAE97919161F46D6E61ACB37D83777B385889770B50765B127768443A5C4D3A4E35
310
A3151111F146B7CA116F918A049F1C272F2CD7976C69A0068773451659A97E0F4A08FE604C3FF6CE7385DB19F4D3ABC8A0D80DA8A42096AC377DB49382B36E270B6FA7570188B4B7D1DDDDA82ACA487CCA5D38BD3BD039ADBAFA4ACFF27809239B722081E2EB9F145320553D183F28471C388BC8814E5045676767AB58A8E7
310
2D1CED2CA731379515D2E533E4CF0B39DFC625F97AC4836831A4DE330E87A8126FA17EBE583D614E71E22A8DBF2825599743E0640037303E8E1B1E8EA4E1ABFA4F62907B5E4E0E5DCFDAB417C36C6848A2B8D15F1E505434C0707E16B1CFC2A1C36A42BBF55734F8F4301DDC2A5110CEE8C0747F69519265012A2174BF4E95
310
5ECD4FDE095A3ABC70536B7AD0B9D7892F81287D667C108703C9B66A221E9A0929D030008F77FF6F5D2108EF5706FC87A3069B976F7C9FC3239D13D283CDEA83597461079FEEE049B0F392889898B7D87D31F8D60ED7B56B91823A8E4EDDB36C6172ECEE42BD42B12CD67994FA0F0DFAE9389356F4CD4425A4B8AA55CBF7EC
310
D585C6A2C2316791E43D5C06841ADBB226A87FD61515FFBB0167B74E56BD7F3E90A57A97FEDCBDF483A0D6699A8C0849CAEB4947FAA90D8E332D9DEBD9F4738C37DA0CAF9CF3DAA68BCB67C420459C7A64498D6E848E5CADE92BB6901F607AA331104A67F7CD650EE169B1DAE94D2C31C2F993632259B6957E246EFE4C5481
310
107B07118607700040E5812A2A2A38DA0076875258C753F60E0F2662C748EDD5F3F3686B8FC3BD6FE631ECCAA1E8B1C1E565AD117E54893E79F4672E32F9E46B2A183DFDCF3EECB4D4D077DBEA0DA254D256045109670050129E9B9B1A9E4A11344D61497A992778095151510C4BB7EF2009B63AA4360635312E4CF668B7E0
310
D3D85A8688E2BD83B569439892ADB63461930D428E0DE42E4AC57CE48DA5CC1449530D8BD3D6A0F08DF20C8E8F570F2CFFFCEA286E30969B4654D498A58D9DA782E19FE3F002181838925592C4A1EF0B332D88B61A92C644547BED490D3A42CFFAB70E36D961F694F6307F72FF15A1C79D5B1B5CEFD353D9E2B52566DEC8F8
310
F09CB3E8359C0F68EBBB7898243E34E12A015B2685AB303C04D3A9E00671FF3DFF0A184E4A2ABEB2B666AF5B3A209C73D8EF29DCDB069C9F391EEE9DD0F74C7BCDE16F8F02E3B8816122BBEB50665775B600549D8BB33A54A6BF940C028118BC6878C79958D6784F9DEAA6E26748386FFAF8D0D0101E2847B6563F5D8DC1D7
310
8F787BE00E2C941AE12148D4A81599FE8F68D4DA5CDED75530ADE138240300EE13B0FC13A1687FED6774662C05A2B7DFB186732F0D7A93545D8B0A6390AE5054D9CB582DA846D7A061B3358B45E2B52DDE63E114397EDB7E09233A579155D795BE76102CF277F4DF8B188C4F2879BEAE3C08347124BF9ED23B128259FE107D
310
31E34A652F090B30B39E0D9AF917B76A2806135621A8A60681F16AF216514BBD02711585B5B1AE823F4B2D0369EA5B6BCB863072727FFC871CA6C9AB79A814D989057E9470A3D238BC87CBB4A0EA49AFE2B86F22E499793CAA9047080450166BDC357524561E258C77CB697F1ABB32562CF87C3B7AA12F911EF19FB3E5C022
310
22E887D08202A60A17151F5E053A86B437771088B4FEE14D652C43E8D939995D34545E12E2FF93D4E366EAD25F10CB7DED141563C3D0C447AF06078A91135FD4B9611583CB4BF3BD167F2399CEAB0E0100F8FFC305F00F1711717173138B4B48C83022295DE657EFEDD97F238ECA80F528AFB4F8D67AD4E2594B9A3AA86D74
310
87EFC313BA95745C186F0CDD84CC12DC9CB0424B42203D351FD9C0A3AF10CC7F388E0329279087386421F194F4A29464C1DEF7EF8BE515E4A199DCD5B909342598D8FE6A231F71336248D5CEC5454455C7BE383B3BC7B260FED27F703FDC39A170F3827239102F59D4DEE7FEF82EAA1A5E4BA94DCC4CC44E7E2EDE20F24244
310
E4454369D2E87C3F823F193FD4FD27E1C23984B01898D15ABC20711A8A558054951A6AE280096BA36CBA439603B7B0B4C45F248C14B2383B4B5CD8ECECE4FF859AD4A6CA2326D020EF090F4041D28DB66E5256B56232CC52829DE8060BAE6BBF37D4B7469B822454FE93210A3E8D15E69FFCF01123222611C51C4FD0A041A0
310
CFA2471CF6BE38D2B20FA4C3525B5B8B586759475CF80ADFE67A284AC24651E52B8E683D24C2622642F27E7C3C22783BCF63648BC398BD6CD0D9C97E7E7E3EACB6126DB7A6C1FD9F1031302EE67ED96F22B77C7CA0239BB324207559B105E4693EB26EC46182A92C9C0DBD24F29B31C5C5AC1F84300E0E17CEEAC15F5736FA
310
4A98971E2F1423BFCD68D4BBD5F86E74B40A369F39507C88FCDB35D2DD8DEBEA4AF999E23CF2816D204200DF6E611781B9884C1AC8888B4DE397320472959434323A5A36B22A8E1F721A270DF3BD65E4A31C11FF048AFB0D8B7B6881423793963A23CFCE935FC189ED36FAE35C46DA3574C979E4394BE52084F3081837BE03
310
3396D2EBD80F1F691B273F660D2B32FA27A33B1DE4ADA5F0FA4651511102DFA410DDA86E065272CA314D5249DF91B06BB92807B28EFD54F08F7B525252782CD276DD02E6B0319B13DF87B1F6361AD6B28FC0D711CF445429B9E5A433CD493051C49A9E03DDB1B147D880253514A5DED88009018620EE229101C041950E2D8A
310
A8E1F5F5438E0C0C0C60EEDEE9E3E0C051948C69F84BB7B2A48A1F3C8EB9E6864687F4F4F6F6E2FA87608ADAF9C5E117B7C1A737E710769DA1D15ECE6A84502AA855398712D5FB51BE92E4EF824969CE18278798AC303C2C7980DD2500ADF8FB1E6D6C2FAAFF9987178923334A244758BAA01A9A1B70FA5097D01E1CC2A58D
310
AD0EC94CE6430AA9B0C10D75E3C6BAC670EFBADEE1607739CE0FC18A2587E3EC3058562014C64219C69BC269082D5C2F4A659278D585755912176D78A1B641719C2A394CED495A1AC5D583FD2F5EDD93308EA7EAE8A6DD396598BDBD3D4CFED62D18A5BDFDE0DD5C80D1A89BA62697B131AE7CE9A6594138582F1B37D68F17
310
49AC7CB67A70695D48A4A056AC1FBD4E82358CEAE38F54B95A9016F9000F9879C0D9D131768635CA798895F27D6F1614F11F2838A83611AA51C9A3DDB539D42979C29F10465655C17BEC3E2760B80DCBF609198C7B171A531905F3EC218D696025975E986C6B4C666666787271F202805577DD5A3EF0CAFAF91B62DC4B2DB4
310
217A7606282F31D8DDBC290593BAA93EA6353AFA9939B877978481E15CFC9F2755CDC00C538F63A4BA3E80AE009B73CA0185687D339A507D165B74290D6EE46D5C58148F020C3668ABE9EF2F7549170DC80DB41FFC1D678FF19AEB10C7133832B104B80F691B3138F97A92D26E551F1F110400D45AC71A9B9AC41A1A1B1DAE
310
ED0B0810638EFFB511D46B121C6FEA0F38CD00E03CFFEB9713FE1F9C263E4DDEC160D0497FA9A132BA608584057FB15380825DE6C7FC3C667EE947D488A09898D8E939C4953BF4EC9836344D2CC6B2971B2A21A572B06096F4982D2CC7232D46E8EA69DC83722E267754D777F97F96D5DA74E1E75178084D0E70F12AD33E5F
310
71EF2AFA599B2BEBF60A5BE475F444F240CBFE8143C334E7ED9150FEEFEF7EB020C4DBED388DD1D6A167A76F3CBF119B578AE8CFA7736ACAFA4440A1C47185638A0D2F3EB5BDDEFDA958FB13CE4AA4923D5BF840392D45544329525749734866684BF7F8D9D54D892E19BCA9F829A0F8BFCBEEA6CFDFC61D74EA1A645ED7A1
310
FF241739F15694BD835B66FEC5677E40FE69BD3F91AE402F036537218A401CB0828604AD189E575015C6F3F6BBC8AC79CF6C70653847254B31551EFCBEB5978B9DB85D58D0FA41A9DFE9C624834AA04949D24B5AE6D299E072D152D12097920F14AA92C31C3B97E28B6C2E6E9C23D63043ECBBC0A60FDF5BD0C33C127EA8A3
310
308B8B6AFFEB28B4455BF6E7AF4FC6222728357EB8E46E85053E6A8843AB23295BF838ABDA94658FEF3F832F147046B4ACD6F7D48E8FCC9618582961C898D1C7A253C91BFECBDA6BA18A1FCF70755DCCEE2222F41B76D23CA98D0CB3D95F0CF66D57FFF65E2A90F5DF40FC3187621E981BD0BC1D992787212688976B94A8F0
310
C6EF646624B570B78E068826F87CE27041A95C9A4871FF65CC17FCB1639629AD6A9517000D63AC231F3D741CB8430777E7ECF80CE7A3F73C0F162F7E56AA71F4DA80A33CD6ACEE78E2C11FAC03DAFCE929B106F8F6B3ED2DC71FF994BD9CEF4E9A94896EF1B6E2B7B4978168BCF0847A3D2A4F1B0500B926E634B174548E9F
310
BAD27153FB5FC36799B1E6C7C38A94E1F9E996796D7B485E635D5287A2AE76FBD11A341DB3F8F810385BB7296391973DC6C37C452A9305AEBBE0CDB6C566DB59FE60C8E94B1FD090354BF51439FFD1B48D725228FFA88C84F686F547107A7A235665A4593B7C34D748C1AC8D56DD5DA861EEFBADDECBBD65117E65851F9035
310
1AEB65F0EFCFF4BCFEF24CB7A5879699FAC437A7AF9099186CF006BB923A59E37D7A36A29FD8D2CBB914A5E9D0A8FD212FBF796AE9A67958FF1D5D8B85F78F96219D4714EB919929241B6C018AAE0C02069F8D919961EC5DDFBFB7573E3AC8E08BFB7C8534BE6DE045B3CD63DBD71F7638BA2309CAE398EA3A7D8F98BBBC7A
310
EB367EFA5CFA27A9F8F2F52FE878058E6209C026453F8E7E8A237DFC389E9590F6059B397CFD65183BBF936E86896612A5B5FEE49DAC8455D026218AFEBEC12B3523A45B57B82C9C97E02ACFA1184DB18E48CF615DBF39C3CC6F0B4AE6BBEEA2E39D944E290302FA3DE33FA7E40296E2EF7BF1CD855BBECFAD0FD622BEE974
310
6FC4FDFDE545AE6E3BC234CADF83A0FB76DFB145BF3828AE3436368AC24989454F8FF70A177672C711CAA1A76107218CF948CA01F873520E7A2B118EBB161ABAD432932029628B6761590C98AB590C8C8C79798CE9F715BA696E839E9131A4BB68BE923F1747FBFF165331FFDD4D05997ACD168F12CA75348DAC04C7F509FE
310
83898A8B421181AF492861CE81E4A2DD0A30850CFA95E05F097FF70F9E777310D584A75BA7018922E271DAB1D785671157685B7D383D3E074DDB4F1E44EF04B07BAAC75A062077C54B9752C738C9D804D402E02851F3F89605AF189738C18C021D2139EAF72513824E10DDD3047BACC8521ED7E98B257D1166903B1B08FA6F
310
918FD7E162913FEC7D0EF4787E29C35FBA8C6E2C9C20E9AB30AE42CA2A01A090E7D010C1B5BF9CEE2A304BF3A987FB40D836979B79E18D70F257DA61E808472DD85B82761825779D6B90CAEB0F23360C6F80A7D7D77545E95B3DFF0CF96A827F9B5BCECD2C9698718417EF80FEEDEE938AFF55859D0D540B7FE09435583A6F
310
04874A0C7E8CF234DF4879722000167F5872CEC6BF3EF7E5A8CC8121E6A359227C8A29C95212F9F735BC72A887D56B8F309FC525BFB4FD767AAEC4AEFF249CFBBD2DE1AB9969A6155C7D8DABC307E47324C1F916C7BCFF40ABA5644E9FFB9238D19ADADA49D9610F01ABBA57E4DFCBDCCBB2B93C8953206C91DE01B0E2651A
310
6D6C31721915B31F7B7CBCE55466F6D70402788FA91D73BE4ADCBA99A35F17D6B83383704917D6833F0FA3CD45C926ADB8BC17999A4A0AFBCE2541F7B8CF4C2F5FBA611B3E626D64407CB32C122DFF4EF8674D6EDBB86C8F7C6A16D50FA685E2CCA34F8F7D1D8265BB0042E9D7F1F666F7BE5FAA5184DF58E12122A42EF02F
310
461B3F369AC746F96528AD208512AB56844CF75B97F352DF7995024FB02855385854F3798670D01CAC771AC3E1889EC25F61A20C1F8CAB46898817F9C47E2CDA1F286BF2F358298709FE567C91133E2638C8B53975E753EA8BFD3578B5F7186B7BF084EBA3F77BAC3132A5779902EC22AF2D2E79F42D324E083386DAEE9810
310
D1B44A5DAA54513C7A71E52A4AB9257D975B621308FE4D2141CC3DCFE946C154A3C1DFCCA7629EC69ACFA831634ADDA93C0388D2A9A2DDAFCF957C6995BCE7FBB6DC4EBAE79E63EB08E9A25F52F67076F7093CA545CA3053B5BF576DEAD4E0017143C5F759F32B2D6F145B52B67B48909B7C7FCA6586EE385A2189C16932CB
310
6DDFD9152AE317C430492A578ED27B72D85D40C7C93C097939E1B50F4D67F05334FE9DC362C30B7FF561B95259138ECFD9274C8D695C31B14D4EAA9F3D7FA8DDF652F8C5DEFA23284C799B7D94416DEE81E05A866302DC70192A5368EA65E1CED8BF107A1E2D3119A71E85DC1A7B0C1E93274CE04DD0F2ABC8AC7C987FDB00
310
2B6F81757B43502EF7A0D92E416494FAEEA4C9C090CD9557AA4D532F4996A272B94355C5A0E4974EEA9627476F30809B94D8D8D860062E02204643BEC7D0438AF800FC7E2B26955D595421E83C69E1A07E0E3122285835F014AD538188CF9737CE76D464A353FA55A001AB2526B84E985083693BC76FE211CA1D000679C889
310
E3C009832C87E1AC2EDD05C302557422DF0800E316FCAC86978A371F025A6C7DAA9F333E7BD160403A1A06EA75AA9888FF01504B03041400060808005A570F4B51464CB48900000043010000360000006662782F35424235434342332D383131332D343232412D423937302D4445464542344341453636342F646972656374
310
6F72792E786D6C9D8F310EC2300C45AF127987122606C71DD918B841D4B851A43646695A717C52A85029031293A5A76FBF6FACEF7DA7264E43906840EF0FA03836E242F406C6DCEE4EA06AC22492573150D1F66C60C640E8938CB705396EEDD86DE9B5042FE27813D640EA63BB001C722AF6E55CB61E4863F58284D5D3F53D
310
D715CE1C3985E63FD7F1B7EBDD617E9F1E504B03041400060808005A570F4BCBC981A23D070000201C0000340000006662782F35424235434342332D383131332D343232412D423937302D4445464542344341453636342F6F626A656374732E786D6CDD59596FDB3810FE2B84F665F7C13A7C252E1C173EE2C028D21635BA
310
D837819669871BEA0025254E7FFD0E29521615D9567A00C52640EC50E470E69B7B347E7F08197A223CA571746379B66B211205F19646FB1B2BCF769D6B0BBD9FA0318FE3ACB2CF42110EC98D2596ADC978CFE33C514B5BB2C339ABAF2E67FFA0342011B150C0709ADE5869F040426CE33C8BB7247DB4B738C3F67E77B03DBB
310
D86892DD739C3CD4AE4A30275106ACC27A045414079EF92F88E44CC68ED8606CEBB5DBD63DB3CD91829B8CD228CD7014BCE2AA765DF70457B5EB7A5E7F71DB1D8C3A837EBFD7E90FBB5E67B69C2D3ADE55CF9D0FE7F3D1F47664A1C97813C7AC544042A22D68F1C59A7863473C29C5572834F11DC45144028566D3862D5174
310
2949EB9818C07A52B48A420A592B0BBD96C29FD8D60A148325036D2D9CFEAC5A6FBCF9174048DB58294F89B0F234E3A06B857DE10FEED829560DBDD0148538239C628618DD70CC4141B0B550904146788B20850466528B9A5E955730ECCBBED4C4E52E674CF8AF35919EE6833F922C959CD16F841FB9AFDE063C81B4398DB2
310
6B256CF6920089D1D8918BC5B35E573D2C80443B86F7602D20A6D8D4EBD6F09A8B58B05A58930FCBCD612DE243F3E5098F13C2336179D29995DF690D564C0B8CAF052805AEA6EE8EA87C01E83F02F2252F680C9AE3F4D03FF4B5EC1C47E92EE6216807B9A8E3C21F1789AFAFBE8D9DF2F0042123569EC214DCF627616A8861
310
DC5D8174327E02A38F794F09B70E30039BBEA791F0733014C462588278BFDB1CACC90A82292CC229CC407AF81D3BE22B828F820EC49B9A869AC26F0B456987A9FBD951577760339C06A5AA0C194FE13BF829F84E17EB0FEB9CEF7040EE95632FC88E46348364DACC9001BAE1F25F571FA547DEB17883D9F1B4B129806BF6B1
310
881B0D6A592BB520A917E044A4E1423372E59E82B733862312E7A95A6F8A5341CC62EE6F5EFCC2851BEFFA5BDB4071993280C65806C93DE03411985813A5AD3210DA1541C1C2305716B82FB4EA6FF230F17118E79108B5AF4DB1CE07C4196189405552D386ADBD5693DDD2DD2E4F217835929C1B402A7FD6840B0BEF431C6B
310
E297931DC79044E3C8A79083C1591A6F302E28C13BCF734AD8CEA78CE5A1BFA30CF2881FE2E404FD96125433D72379798EF9B691A06959DA27B50D09C015B01A249DAD8A98AF74CAC9131565A6CC673A1B183B541D6A4DFA27D285C8140D806A6394663EBD9D5D79EE72D859CCE6834EBFBBBCEACC4653AFE3DEBAD3EEF5F2
310
6A315BCCEA7CEA6855CD77A04A51E618FE973DE4E126C294C1032136DE26EFDECBEC79E340687406B3D9603E9FF53AD79E07D55AB73B85BBAFDCCEE276793BEBCFA7B7C361DFE1248D731E90D4E93AAEAF4D3289F6A7B8D2DCBD8EA150D65C4E765A5F7561FEC731B49E130C25FEAE41B48C5D0D0561DB202A8ED643280E1E
310
458AF203A8FA1ADDA71644EB7C34C5B937C665D7EEB9F2C7F3465D77D4BD1E0D4B633F1BA8E53D3F1CE79A2408A0EFCC333F4E7040B3E6845AC3A5659C7E536EB17BDE00013AE5DFF292F379465DE2D310EF89BFC3A24B68088C972468CC617B16A7298D482ABBBC57D55F8DA66B433165E6DC0623A4A91F920C7F8FFDC9B6
310
A166D3109B990FFD6826260217AB82D2A05507728AA2E87E21714BF95FFC1487092B3ADD4B18785D0D81EE719A2C4E302DAE78027BF371E6BB5B22071797A897ECEBFAA0516B75EAA3EF267F021E5DD7FC4278F415ED4B277BE08DC4CF350495E1C0EB5D69455CC24A5F95893E8EE5D079062FFE33A1FB875685663B9D544A
310
B6A2A8CE48086D2CCE72DECA5F8703F7D5452A2ED41CA272D31B8B43D9BFE90E0ED0930DDCA9F2B6720DD4A1348239572B415E49D168C2521772A62746576FF0EBB3CAAE52FDE178F9CB2BE6AAF38572F8731907A8968B00ACA28F51533756DD463D943EE32C8040BA969F9D1978C4966C8F8D9941AEA944D7F5E9A5EA7925
310
026A08135B2CE2ECBDF8C2BE60503574CFA97357146D4EB1BE1289CD86E1F4910F836993D6A7BB758D0AACB43EFD5960449E6B14D4EA5C74C367487D5D1D7BFE1A0525D1D7D599E3BF4547A1155819A3C134388D1985A13CD9A23D89217BC3D8A145B7C14392CAAC0CC6AB82947E23D0E2F4533153CDF086E9D3C10386C134
310
53BD581EC0501432E68DA5D6D11F3006159348399CB21FA10D5331CC4239A73716586C46A1DBB23730CE92C34349BD36AE04C7C6D15EE4FBE254F9FFF1984007A2D251AE724F1B5C9464863341619BC8F70450F5150F26E3EF175DB38370065F3779560A735C384AA340D02F040AE160EAF7A8E03D4041715E2ECF967B0C48
310
5A4DE6CFDA4141B59361BE97E3F50ADED3C567474CC6579F50C2F2BD50E7B9EED7A0D4115D37CB8B29D4180C438999605143CEDF399F790CAF9842B4A46004E8CFC3F5F02F671E87611C154BCE54BDA842EB0778EDB475F4C80FDA78D71B3A720AA0C6FAFE06A7C4C6DBF4111640B59C8AD96801B161006534AD1880D688D0
310
051C33F6AF1648D54695094935EC0A78E44C1F8123897739C26DAA1B2A0348F005E04A3E3C7ED10B6387C3107CF21F504B03041400060808005A570F4BD1D85A76E1000000550100003C0000006662782F35424235434342332D383131332D343232412D423937302D4445464542344341453636342F7265736F7572636573
310
2F322F636E782E786D6C4D90CD6AC33010845F45087AB42C194C4D909597C8A997A0CA1B5744D21AFD94E4ED2BA52AF4B4CBCCC7323BF2FCF08E7C434C16C34A05E3944030B8D9B0AFB4E4DBB05072563222E67F1825417B586993A9927BC4727469839B2EAEA9CE867B17F9758700D19AEB11764A8CD329AD34992FF09AE9
310
92718374679BCE9A091621618906EA896C3DF4132682CEB0513571F13EF06510F345F0D3BC9CE6E9438E8D54F213D175DE860C118FB7891BAC6BA889B81C1BA06489B653ED8D6AFCC563359E1CABAD64CAB176D0B1FC3C2A66BDDE617C21BFAE92637BB28E570375B642D40F504B03041400060808005A570F4BFF15A4A45D
310
000000800000003A0000006662782F35424235434342332D383131332D343232412D423937302D4445464542344341453636342F7265736F75726365732F636E782E786D6C4D8B3B0E80201005AF42B6F75B59F0390B113044D83508C6E30BC6C26AF226F3B8BA6360974DA7271430F523308B2B198F9B80925DB700539227
310
A2FCCB80A18E5640D320F996A81C9F32D6E9129A0D1EF74FCE750E6D57BC7165FBCA07504B03041400060808005A570F4B452944744201000056050000300000006662782F35424235434342332D383131332D343232412D423937302D4445464542344341453636342F636E782E786D6CCD94CF6A032110C65F65117A5CF7
310
0F8486E01AE8A14FD043E9CD75275B1B57171D4BF3F6D5D4242D25B487407293F1277CDFCCE7B0F5C7A48B77705E59D39186D6A40023EDA0CCD891809B72498A3567CE5AFC8691C288093A92CA84B3D1D930E7D2001B1174AA6A65B6B928109DEA03822785D4C2FB8E78F90A93A022A01DC06FE92050D0863AF0363809F13D
310
AA09F27BE940200C84B775735FD6CBB2593C35F56AB15C2DDA17562592B3DE5A9D7965109C9DEFDA5ADA7834514ECDAA0470169CCA54F240F8491BED956155BCE7CC47BD66CC1CEEE6C4CDB35652606C5465250296110231B1EA0BE6AC4A8E7FF87E7C783E6988A741399068DDEE6A6D68CEB5E1288DC644FCAF0B7BF02FF3
310
B67F8B96AF37F7B386B3B08BD93D24D7C7E8FE4E42CC9330A3BEC50F709476F9FCC7C5824ADEA2E983B20B79AEF62B300E3E6D44FE09504B03041400060808005A570F4B13ED50467F000000A30000000B0000006662782F636E782E786D6C4D8CD10E822018465F85FDF794289A6D8013A2F77089CE89D0485A8F1F342FBA
310
FAB6B3EF1CD67D368BDE26BC16EF38905301C8B8871F17377388FB845B409D60C1FBFDEF06C80D9BE190310836071F9F071ACD34449BA95DDC7AC05ACA5A2959E196900AD3B2ECB1BC5E0A7CD3772DA9EA75D3D0649CB392E6D74B9BF3E20B504B03041400060808005A570F4BA6D797065F0000008200000007000000636E
310
782E786D6C4DCB3B0E80201045D1AD90E9FD7516806B51190811670C8A61F982B1B0BAC9C97B72CA7B1037C6D3332918DA1E04D2CAC69353902EDB8C20262D23F3F59B81A079470595414B17391D1F19B4730A5583A7ED43BBE4025D9592775E5ADFFA01504B03041400060808005A570F4BECFD112DA80000002601000013
310
0000005B436F6E74656E745F54797065735D2E786D6C7D4F4B0EC22010BD0A61DF525D18634ABB506FE00510A79458060253536F2FD89D5197F3FED3F68B9BD80362B21E25DFD40D6780DADF2C1AC9671AAA3D677DD75E9E0112CB5A4C928F44E12044D22338956A1F003333F8E814E5331A1194BE2B0362DB343BA13D1220
310
55543278D79E6050F344ECBC6478EDCD76CE8EABAE5449AE4298AC56946789C28AAFBEABC53F3EAF09A84A1441B91F0101CD4780756578C173A578FFDDBD00504B03041400060808005A570F4B3DEE336E64000000790000001B0000006175746F6465736B2D64657369676E2D7061636B6167652E786D6C35CBC10E83200C
310
00D05F21DCA56CA76D41FC96062B120735B69A7DBE268BB7777961F8D5AF396893C2ADB70FE7ADA196782C2DF776D7A97B5933C430F15651E5469C55D70F80A4992A3ADC954792C525AE70A1E4D6AD9816CC044FEFDF01FE3FDE907802504B03041400060808005A570F4B9077CE1CF40000008E0100003D0000006662782F
310
35424235434342332D383131332D343232412D423937302D4445464542344341453636342F7265736F75726365732F322F636F72652E786D6C8550CB6E833010FC15B477836D425E328E22025FD0536F9671A89560233FAA7E7EED40A5F6D4D3AE66676677875DBEE667F1A99CD7D6B4404A0C8532D28EDA4C2DC470474728
310
2E9C396BC32F1A1446CCAA850C036793B371D920694D5026A3C68E6A0385F72A40219FA969C1CB0F358B52C49018FE512E423EC4A44A52AE3CCE62D4E326D56372D377AD1C70DC0CB7A1C618F5F5618776747F42A76BD3A3FADADD06DA51B2EF7A5665316741CF3FDBA55322A81138C5E480F01191E68DE073733C37F49D55
310
99C9990F2EFDBC2DCDDF253AAB56F48F5B5CC6FFDDA236A1A69BDBAAF0C0493AEE35E0ACCAE9A4F28A2ED59C24FF06504B03041400060808005A570F4BE6377E5BF9000000960100003B0000006662782F35424235434342332D383131332D343232412D423937302D4445464542344341453636342F7265736F7572636573
310
2F636F72652E786D6C8550CB6EC32010FC156BEFD880E3BC8489A224FE829E7A437893A2C410F1A8FAF985D895DA534FBB9A9D99DD1D71F89A1ED527FA609CED81D5142AB4DA8DC6DE7A48F14AB6501DA4F0CEC55F34A8AC9AB08702831437EFD27381B4B3116D41AD1B7101550818A1D28FDCF410F4074EAA56296646B8D7
310
4FA5EFEA8635AB679E14299971919A31BB99AB410F9276C3796829259776B3222BBEDE91DDB1BB90F6783A0FFCC4D9FA74114D114B11CDF4B35D7B541147909CB20DA15BC2BA3746F7DD76DFF177D114A61421FAFCF3B2B47C07D26370C96B0CA299A77F5CD373FCDF35191B5BBEB8CE8A0092E5235F03299A92522EAF0873
310
2D89CA6F504B03041400060808005A570F4B47580D7CF3000000B1010000310000006662782F35424235434342332D383131332D343232412D423937302D4445464542344341453636342F636F72652E786D6C8D50CB6EC32010FC156BEFD8C68FC48D3051ECBA5FD0536F08888B1283C5A3EAE71762576A6F392D9A9D6166
310
879CBF977BF625AD5346F780F31232A9B9114ACF3D047F451D64674AAC31FE0F0D32CD16D943828192D99AB0EE1037DA4B9D506D84DC41E69CF490F17B7CF4E0F8A75C58CE828F0C77CB57C66F6C9639CE371E255E2DBF526E25F35200AD4A7C44658770FB8ECB53DB9DDAEA8314894949084AEC564A44777555D2026D87A1
310
1DC7A1461DC6356AAAEA82869763895EA7B76968C6CB743834A448624A9CB7F1E6FD9374DDB3F24DF82F7358C5139995F675B51B6E0A0714C73C8F0525452A308E47BB71A6B2E90F504B03041400060808005A570F4B7895CFF254010000DD0200000C0000006662782F636F72652E786D6C8D52DB8E832014FC15C33B8A5A
310
7B0BD234BD7CC13EED1B457449150C82E9E72F7889EBC376372648E69C337366023EBD9A3AE8B9EE849239884304022E992A84AC72604D09F7203811AC95323FDA402069C373E0614070A5956D27882969B8F4A854059F40DA75DC8080D5EE92838E7DF18686D41AD7D13DC396B227AD781887631FC1D68A621A15856313A5
310
E01A1094DDAFF71421784B771BB849B60778386737989E2FD77B7249E2EDE586233F4CB011CDACCE34A78617802428DE41B48771F611A363B63F66C9278E7C27C19DD1CEF324EADD01523E5E381AF1159F6D8BBFF9AC90264D26BE71A2032476EB0D0582239F8FFB0DE1AD3374C22E3F431FF56CE1E9A09E33A3F4C6550A65
310
97524F6BCB1D350A860F4763D5310F04BFF1246F78DE73B8A0A8ACDC6AD4B8EBC31AAFBEDEA9E51AF6E61548A51B5A2FCB8D2B2EE722B4B2348F33552BFD9FE9D9EA1C66E41F26F906504B03041400060808005A570F4BAA5DF32708010000B201000008000000636F72652E786D6C8D50C18E832014FC15C21D05ADAD6D90
310
A6B1FA057BDA1B2BD4922A18C066F7EF172A9BECDEF6F4C8CCBC37C3D0F3E73C81A7B44E19DD40926108A41E8C507A6CE0EA6FA886E0CCA835C6FF9241A0F92C1B1861C8E868CDBA246830DA4B1D516D844C20774E7A0886293C1AE886BB9C79C6571F14EE912D7C78F0516624DB748C7A35FFAC0E56722F0564052607846B
310
44AA37824F557DAA8A779A4725A3EBAA44B25222B8AB9B9216325CF5D7BEC41875E5618776C5FE888E97AA43E5A5BDF6455B907DDBD13C2E33EABC0D7F4E47424E0F1C7F465F9A6F14A31FC64C4910420960F4F4154C681E893FA1D745FC23B4D2BE2CD2C16DC3414642A017118C638361BCEA0D33B6CDBE01504B01021400
310
1400060808005A570F4B0000000000000000000000003700000000000000000000000000000000006662782F35424235434342332D383131332D343232412D423937302D4445464542344341453636342F617474726962757465732E62696E504B010214001400060808005A570F4B00000000000000000000000035000000
310
00000000000000000000550000006662782F35424235434342332D383131332D343232412D423937302D4445464542344341453636342F76657274696365732E62696E504B010214001400060808005A570F4BF270F13306000000040000003600000000000000000000000000A80000006662782F35424235434342332D38
310
3131332D343232412D423937302D4445464542344341453636342F747269616E676C65732E62696E504B010214001400060808005A570F4B88E57597CD3F0000904100004200000000000000000000000000020100006662782F35424235434342332D383131332D343232412D423937302D4445464542344341453636342F
310
7265736F75726365732F322F305F67656E657269632E706E67504B010214001400060808005A570F4B51464CB4890000004301000036000000000000000000000000002F4100006662782F35424235434342332D383131332D343232412D423937302D4445464542344341453636342F6469726563746F72792E786D6C504B
310
010214001400060808005A570F4BCBC981A23D070000201C000034000000000000000000000000000C4200006662782F35424235434342332D383131332D343232412D423937302D4445464542344341453636342F6F626A656374732E786D6C504B010214001400060808005A570F4BD1D85A76E1000000550100003C0000
310
00000000000000000000009B4900006662782F35424235434342332D383131332D343232412D423937302D4445464542344341453636342F7265736F75726365732F322F636E782E786D6C504B010214001400060808005A570F4BFF15A4A45D000000800000003A00000000000000000000000000D64A00006662782F3542
310
4235434342332D383131332D343232412D423937302D4445464542344341453636342F7265736F75726365732F636E782E786D6C504B010214001400060808005A570F4B45294474420100005605000030000000000000000000000000008B4B00006662782F35424235434342332D383131332D343232412D423937302D44
310
45464542344341453636342F636E782E786D6C504B010214001400060808005A570F4B13ED50467F000000A30000000B000000000000000000000000001B4D00006662782F636E782E786D6C504B010214001400060808005A570F4BA6D797065F000000820000000700000000000000000000000000C34D0000636E782E78
310
6D6C504B010214001400060808005A570F4BECFD112DA8000000260100001300000000000000000000000000474E00005B436F6E74656E745F54797065735D2E786D6C504B010214001400060808005A570F4B3DEE336E64000000790000001B00000000000000000000000000204F00006175746F6465736B2D6465736967
310
6E2D7061636B6167652E786D6C504B010214001400060808005A570F4B9077CE1CF40000008E0100003D00000000000000000000000000BD4F00006662782F35424235434342332D383131332D343232412D423937302D4445464542344341453636342F7265736F75726365732F322F636F72652E786D6C504B0102140014
310
00060808005A570F4BE6377E5BF9000000960100003B000000000000000000000000000C5100006662782F35424235434342332D383131332D343232412D423937302D4445464542344341453636342F7265736F75726365732F636F72652E786D6C504B010214001400060808005A570F4B47580D7CF3000000B101000031
310
000000000000000000000000005E5200006662782F35424235434342332D383131332D343232412D423937302D4445464542344341453636342F636F72652E786D6C504B010214001400060808005A570F4B7895CFF254010000DD0200000C00000000000000000000000000A05300006662782F636F72652E786D6C504B01
310
0214001400060808005A570F4BAA5DF32708010000B201000008000000000000000000000000001E550000636F72652E786D6C504B050600000000120012002D0600004C5600000000
  0
XRECORD
  5
27
102
{ACAD_REACTORS
330
22
102
}
330
22
100
AcDbXrecord
280
     1
270
     1
271
     1
  0
XRECORD
  5
26
102
{ACAD_REACTORS
330
22
102
}
330
22
100
AcDbXrecord
280
     1
270
     1
271
     1
  0
XRECORD
  5
28
102
{ACAD_REACTORS
330
22
102
}
330
22
100
AcDbXrecord
280
     1
270
     1
271
     1
  0
XRECORD
  5
25
102
{ACAD_REACTORS
330
22
102
}
330
22
100
AcDbXrecord
280
     1
270
     1
271
     1
  0
XRECORD
  5
52B8
102
{ACAD_REACTORS
330
52B7
102
}
330
52B7
100
AcDbXrecord
280
     1
102
DISPLAYNAME
  1
Metric50
102
FLAGS
 90
        0
  0
CELLSTYLEMAP
  5
52B6
102
{ACAD_REACTORS
330
1B2
102
}
330
1B2
100
AcDbCellStyleMap
 90
        3
300
CELLSTYLE
  1
TABLEFORMAT_BEGIN
 90
        5
170
     1
 91
        0
 92
    32768
 62
   257
 93
        1
300
CONTENTFORMAT
  1
CONTENTFORMAT_BEGIN
 90
        0
 91
        0
 92
      512
 93
        0
300

 40
0.0
140
1.0
 94
        5
 62
     0
340
5D
144
0.25
309
CONTENTFORMAT_END
171
     0
 94
        0
309
TABLEFORMAT_END
  1
CELLSTYLE_BEGIN
 90
        1
 91
        1
300
_TITLE
309
CELLSTYLE_END
300
CELLSTYLE
  1
TABLEFORMAT_BEGIN
 90
        5
170
     1
 91
        0
 92
        0
 62
   257
 93
        1
300
CONTENTFORMAT
  1
CONTENTFORMAT_BEGIN
 90
        0
 91
        0
 92
      512
 93
        0
300

 40
0.0
140
1.0
 94
        5
 62
     0
340
5D
144
0.18
309
CONTENTFORMAT_END
171
     0
 94
        0
309
TABLEFORMAT_END
  1
CELLSTYLE_BEGIN
 90
        2
 91
        1
300
_HEADER
309
CELLSTYLE_END
300
CELLSTYLE
  1
TABLEFORMAT_BEGIN
 90
        5
170
     1
 91
        0
 92
        0
 62
   257
 93
        1
300
CONTENTFORMAT
  1
CONTENTFORMAT_BEGIN
 90
        0
 91
        0
 92
      512
 93
        0
300

 40
0.0
140
1.0
 94
        2
 62
     0
340
5D
144
0.18
309
CONTENTFORMAT_END
171
     0
 94
        0
309
TABLEFORMAT_END
  1
CELLSTYLE_BEGIN
 90
        3
 91
        2
300
_DATA
309
CELLSTYLE_END
  0
ENDSEC
  0
EOF
