  0
SECTION
  2
HEADER
  9
$ACADVER
  1
AC1027
  9
$ACADMAINTVER
 70
   105
  9
$DWGCODEPAGE
  3
ANSI_1252
  9
$TITLE
  1
Adapter G 30 / NPT 30 Silber
  9
$AUTHOR
  1
GUZB562
  9
$LASTSAVEDBY
  1
guzb562
  9
$CUSTOMPROPERTYTAG
  1
AD_ERP_PART_NO
  9
$CUSTOMPROPERTY
  1
20061
  9
$REQUIREDVERSIONS
160
                 0
  9
$INSBASE
 10
0.0
 20
0.0
 30
0.0
  9
$EXTMIN
 10
3555.909652715407
 20
7768.024115298922
 30
0.0
  9
$EXTMAX
 10
3765.909652715407
 20
8065.024115298923
 30
0.0
  9
$LIMMIN
 10
3555.909652715407
 20
7768.024115298922
  9
$LIMMAX
 10
3765.909652715407
 20
8065.024115298923
  9
$ORTHOMODE
 70
     1
  9
$REGENMODE
 70
     1
  9
$FILLMODE
 70
     1
  9
$QTEXTMODE
 70
     0
  9
$MIRRTEXT
 70
     0
  9
$LTSCALE
 40
1.0
  9
$ATTMODE
 70
     1
  9
$TEXTSIZE
 40
424.4729518289081
  9
$TRACEWID
 40
1.0
  9
$TEXTSTYLE
  7
Stil1
  9
$CLAYER
  8
AM_0 ( Kontur 0.5 )
  9
$CELTYPE
  6
ByLayer
  9
$CECOLOR
 62
   256
  9
$CELTSCALE
 40
1.0
  9
$DISPSILH
 70
     0
  9
$DIMSCALE
 40
5.0
  9
$DIMASZ
 40
2.5
  9
$DIMEXO
 40
0.0
  9
$DIMDLI
 40
10.0
  9
$DIMRND
 40
0.0
  9
$DIMDLE
 40
0.0
  9
$DIMEXE
 40
1.0
  9
$DIMTP
 40
0.1
  9
$DIMTM
 40
0.1
  9
$DIMTXT
 40
3.5
  9
$DIMCEN
 40
0.0
  9
$DIMTSZ
 40
0.0
  9
$DIMTOL
 70
     0
  9
$DIMLIM
 70
     0
  9
$DIMTIH
 70
     0
  9
$DIMTOH
 70
     0
  9
$DIMSE1
 70
     0
  9
$DIMSE2
 70
     0
  9
$DIMTAD
 70
     1
  9
$DIMZIN
 70
     8
  9
$DIMBLK
  1

  9
$DIMASO
 70
     1
  9
$DIMSHO
 70
     1
  9
$DIMPOST
  1

  9
$DIMAPOST
  1
"
  9
$DIMALT
 70
     0
  9
$DIMALTD
 70
     2
  9
$DIMALTF
 40
0.0393701
  9
$DIMLFAC
 40
1.0
  9
$DIMTOFL
 70
     1
  9
$DIMTVP
 40
0.0
  9
$DIMTIX
 70
     0
  9
$DIMSOXD
 70
     0
  9
$DIMSAH
 70
     0
  9
$DIMBLK1
  1

  9
$DIMBLK2
  1

  9
$DIMSTYLE
  2
BENUTZERDEFINIERTE NORM
  9
$DIMCLRD
 70
   256
  9
$DIMCLRE
 70
   256
  9
$DIMCLRT
 70
     6
  9
$DIMTFAC
 40
0.71
  9
$DIMGAP
 40
1.5
  9
$DIMJUST
 70
     0
  9
$DIMSD1
 70
     0
  9
$DIMSD2
 70
     0
  9
$DIMTOLJ
 70
     0
  9
$DIMTZIN
 70
     8
  9
$DIMALTZ
 70
     0
  9
$DIMALTTZ
 70
     0
  9
$DIMUPT
 70
     0
  9
$DIMDEC
 70
     2
  9
$DIMTDEC
 70
     2
  9
$DIMALTU
 70
     2
  9
$DIMALTTD
 70
     2
  9
$DIMTXSTY
  7
STANDARD
  9
$DIMAUNIT
 70
     0
  9
$DIMADEC
 70
     0
  9
$DIMALTRND
 40
0.0
  9
$DIMAZIN
 70
     2
  9
$DIMDSEP
 70
    46
  9
$DIMATFIT
 70
     3
  9
$DIMFRAC
 70
     0
  9
$DIMLDRBLK
  1

  9
$DIMLUNIT
 70
     2
  9
$DIMLWD
 70
    -1
  9
$DIMLWE
 70
    -1
  9
$DIMTMOVE
 70
     0
  9
$DIMFXL
 40
1.0
  9
$DIMFXLON
 70
     0
  9
$DIMJOGANG
 40
1.570796326794896
  9
$DIMTFILL
 70
     0
  9
$DIMTFILLCLR
 70
     0
  9
$DIMARCSYM
 70
     0
  9
$DIMLTYPE
  6

  9
$DIMLTEX1
  6

  9
$DIMLTEX2
  6

  9
$DIMTXTDIRECTION
 70
     0
  9
$LUNITS
 70
     2
  9
$LUPREC
 70
     2
  9
$SKETCHINC
 40
1.0
  9
$FILLETRAD
 40
1.0
  9
$AUNITS
 70
     0
  9
$AUPREC
 70
     0
  9
$MENU
  1
ACAD
  9
$ELEVATION
 40
0.0
  9
$PELEVATION
 40
0.0
  9
$THICKNESS
 40
0.0
  9
$LIMCHECK
 70
     0
  9
$CHAMFERA
 40
2.5
  9
$CHAMFERB
 40
2.5
  9
$CHAMFERC
 40
0.0
  9
$CHAMFERD
 40
0.0
  9
$SKPOLY
 70
     0
  9
$TDCREATE
 40
2455790.486839803
  9
$TDUCREATE
 40
2455790.403506470
  9
$TDUPDATE
 40
2457981.459752361
  9
$TDUUPDATE
 40
2457981.376419028
  9
$TDINDWG
 40
0.0083268519
  9
$TDUSRTIMER
 40
0.0083264931
  9
$USRTIMER
 70
     1
  9
$ANGBASE
 50
0.0
  9
$ANGDIR
 70
     0
  9
$PDMODE
 70
     0
  9
$PDSIZE
 40
0.0
  9
$PLINEWID
 40
0.0
  9
$SPLFRAME
 70
     0
  9
$SPLINETYPE
 70
     6
  9
$SPLINESEGS
 70
    12
  9
$HANDSEED
  5
52BB
  9
$SURFTAB1
 70
     6
  9
$SURFTAB2
 70
     6
  9
$SURFTYPE
 70
     6
  9
$SURFU
 70
     6
  9
$SURFV
 70
     6
  9
$UCSBASE
  2

  9
$UCSNAME
  2

  9
$UCSORG
 10
0.0
 20
0.0
 30
0.0
  9
$UCSXDIR
 10
1.0
 20
0.0
 30
0.0
  9
$UCSYDIR
 10
0.0
 20
1.0
 30
0.0
  9
$UCSORTHOREF
  2

  9
$UCSORTHOVIEW
 70
     0
  9
$UCSORGTOP
 10
0.0
 20
0.0
 30
0.0
  9
$UCSORGBOTTOM
 10
0.0
 20
0.0
 30
0.0
  9
$UCSORGLEFT
 10
0.0
 20
0.0
 30
0.0
  9
$UCSORGRIGHT
 10
0.0
 20
0.0
 30
0.0
  9
$UCSORGFRONT
 10
0.0
 20
0.0
 30
0.0
  9
$UCSORGBACK
 10
0.0
 20
0.0
 30
0.0
  9
$PUCSBASE
  2

  9
$PUCSNAME
  2

  9
$PUCSORG
 10
0.0
 20
0.0
 30
0.0
  9
$PUCSXDIR
 10
1.0
 20
0.0
 30
0.0
  9
$PUCSYDIR
 10
0.0
 20
1.0
 30
0.0
  9
$PUCSORTHOREF
  2

  9
$PUCSORTHOVIEW
 70
     0
  9
$PUCSORGTOP
 10
0.0
 20
0.0
 30
0.0
  9
$PUCSORGBOTTOM
 10
0.0
 20
0.0
 30
0.0
  9
$PUCSORGLEFT
 10
0.0
 20
0.0
 30
0.0
  9
$PUCSORGRIGHT
 10
0.0
 20
0.0
 30
0.0
  9
$PUCSORGFRONT
 10
0.0
 20
0.0
 30
0.0
  9
$PUCSORGBACK
 10
0.0
 20
0.0
 30
0.0
  9
$USERI1
 70
     0
  9
$USERI2
 70
     0
  9
$USERI3
 70
     0
  9
$USERI4
 70
     0
  9
$USERI5
 70
     0
  9
$USERR1
 40
0.0
  9
$USERR2
 40
0.0
  9
$USERR3
 40
0.0
  9
$USERR4
 40
0.0
  9
$USERR5
 40
0.0
  9
$WORLDVIEW
 70
     1
  9
$SHADEDGE
 70
     3
  9
$SHADEDIF
 70
    70
  9
$TILEMODE
 70
     1
  9
$MAXACTVP
 70
    64
  9
$PINSBASE
 10
0.0
 20
0.0
 30
0.0
  9
$PLIMCHECK
 70
     0
  9
$PEXTMIN
 10
1.000000000000000E+20
 20
1.000000000000000E+20
 30
1.000000000000000E+20
  9
$PEXTMAX
 10
-1.000000000000000E+20
 20
-1.000000000000000E+20
 30
-1.000000000000000E+20
  9
$PLIMMIN
 10
0.0
 20
0.0
  9
$PLIMMAX
 10
12.0
 20
9.0
  9
$UNITMODE
 70
     0
  9
$VISRETAIN
 70
     1
  9
$PLINEGEN
 70
     0
  9
$PSLTSCALE
 70
     1
  9
$TREEDEPTH
 70
  3020
  9
$CMLSTYLE
  2
Standard
  9
$CMLJUST
 70
     0
  9
$CMLSCALE
 40
1.0
  9
$PROXYGRAPHICS
 70
     1
  9
$MEASUREMENT
 70
     1
  9
$CELWEIGHT
370
    -1
  9
$ENDCAPS
280
     0
  9
$JOINSTYLE
280
     0
  9
$LWDISPLAY
290
     0
  9
$INSUNITS
 70
     4
  9
$HYPERLINKBASE
  1

  9
$STYLESHEET
  1

  9
$XEDIT
290
     1
  9
$CEPSNTYPE
380
     0
  9
$PSTYLEMODE
290
     1
  9
$FINGERPRINTGUID
  2
{5CBAC9A5-2931-4D6F-BE19-8C5906D94288}
  9
$VERSIONGUID
  2
{927FA8E6-DEF2-46E3-ADA3-30CDDC7317BC}
  9
$EXTNAMES
290
     1
  9
$PSVPSCALE
 40
0.0
  9
$OLESTARTUP
290
     0
  9
$SORTENTS
280
   127
  9
$INDEXCTL
280
     0
  9
$HIDETEXT
280
     0
  9
$XCLIPFRAME
280
     0
  9
$HALOGAP
280
     0
  9
$OBSCOLOR
 70
   257
  9
$OBSLTYPE
280
     0
  9
$INTERSECTIONDISPLAY
280
     0
  9
$INTERSECTIONCOLOR
 70
   257
  9
$DIMASSOC
280
     2
  9
$PROJECTNAME
  1

  9
$CAMERADISPLAY
290
     0
  9
$LENSLENGTH
 40
50.0
  9
$CAMERAHEIGHT
 40
0.0
  9
$STEPSPERSEC
 40
2.0
  9
$STEPSIZE
 40
6.0
  9
$3DDWFPREC
 40
2.0
  9
$PSOLWIDTH
 40
0.25
  9
$PSOLHEIGHT
 40
4.0
  9
$LOFTANG1
 40
1.570796326794896
  9
$LOFTANG2
 40
1.570796326794896
  9
$LOFTMAG1
 40
0.0
  9
$LOFTMAG2
 40
0.0
  9
$LOFTPARAM
 70
     7
  9
$LOFTNORMALS
280
     1
  9
$LATITUDE
 40
37.795
  9
$LONGITUDE
 40
-122.394
  9
$NORTHDIRECTION
 40
0.0
  9
$TIMEZONE
 70
 -8000
  9
$LIGHTGLYPHDISPLAY
280
     1
  9
$TILEMODELIGHTSYNCH
280
     1
  9
$CMATERIAL
347
11
  9
$SOLIDHIST
280
     1
  9
$SHOWHIST
280
     1
  9
$DWFFRAME
280
     2
  9
$DGNFRAME
280
     0
  9
$REALWORLDSCALE
290
     1
  9
$INTERFERECOLOR
 62
     1
  9
$INTERFEREOBJVS
345
33
  9
$INTERFEREVPVS
346
30
  9
$CSHADOW
280
     0
  9
$SHADOWPLANELOCATION
 40
0.0
  0
ENDSEC
  0
SECTION
  2
CLASSES
  0
CLASS
  1
ACDBDICTIONARYWDFLT
  2
AcDbDictionaryWithDefault
  3
ObjectDBX Classes
 90
        0
 91
        1
280
     0
281
     0
  0
CLASS
  1
MATERIAL
  2
AcDbMaterial
  3
ObjectDBX Classes
 90
     1153
 91
        3
280
     0
281
     0
  0
CLASS
  1
VISUALSTYLE
  2
AcDbVisualStyle
  3
ObjectDBX Classes
 90
     4095
 91
       26
280
     0
281
     0
  0
CLASS
  1
SCALE
  2
AcDbScale
  3
ObjectDBX Classes
 90
     1153
 91
       35
280
     0
281
     0
  0
CLASS
  1
TABLESTYLE
  2
AcDbTableStyle
  3
ObjectDBX Classes
 90
     4095
 91
        1
280
     0
281
     0
  0
CLASS
  1
MLEADERSTYLE
  2
AcDbMLeaderStyle
  3
ACDB_MLEADERSTYLE_CLASS
 90
     4095
 91
        1
280
     0
281
     0
  0
CLASS
  1
AMGSETTINGSOBJ
  2
AmgSettingsObj
  3
"AcadM|Product Description: AutoCAD Mechanical|Company: Autodesk, Inc."
 90
     1024
 91
        4
280
     0
281
     0
  0
CLASS
  1
ACME_DOCUMENT
  2
AcMeDbDoc
  3
AcMeServices
 90
     1024
 91
        2
280
     0
281
     0
  0
CLASS
  1
ACMESCOPE
  2
AcMeScope
  3
AcMeServices
 90
     1024
 91
        1
280
     0
281
     0
  0
CLASS
  1
ACMECOMMANDHISTORY
  2
AcMeCommandHistory
  3
AcMeServices
 90
     1024
 91
        1
280
     0
281
     0
  0
CLASS
  1
ACIMSYSVARMAN
  2
AcImSysVarManager
  3
AcMeServices
 90
     1024
 91
        4
280
     0
281
     0
  0
CLASS
  1
ACIMINTSYSVAR
  2
AcImIntSysVar
  3
AcMeServices
 90
     1024
 91
       29
280
     0
281
     0
  0
CLASS
  1
ACMEDRAWINGMAN
  2
AcMeDrawingMan
  3
AcMeServices
 90
     1024
 91
        0
280
     0
281
     0
  0
CLASS
  1
ACMEVIEW
  2
AcMeView
  3
AcMeServices
 90
     1024
 91
        0
280
     0
281
     0
  0
CLASS
  1
ACDBENTITYCACHE
  2
AcMeEntityCache
  3
AcMeServices
 90
     1024
 91
        1
280
     0
281
     0
  0
CLASS
  1
GSMANAGER
  2
AcMeGSManager
  3
AcMeServices
 90
     1024
 91
        0
280
     0
281
     0
  0
CLASS
  1
AMDTINTERNALREACTOR
  2
AmdtInternalReactor
  3
AcMeServices
 90
     1024
 91
        0
280
     0
281
     0
  0
CLASS
  1
ACMESTATEMGR
  2
AcMeStateMgr
  3
AcMeServices
 90
     1024
 91
        1
280
     0
281
     0
  0
CLASS
  1
ACGREFMASTER
  2
AcGrefMaster
  3
AcAttribServices
 90
     1024
 91
        1
280
     0
281
     0
  0
CLASS
  1
AM_DRAWING_MGR
  2
AcDmDwgMgr
  3
AcMechDwgViewMgmt
 90
     1024
 91
        0
280
     0
281
     0
  0
CLASS
  1
AM_DWG_DOCUMENT
  2
AcDmDwgDocument
  3
AcMechDwgViewMgmt
 90
     1024
 91
        0
280
     0
281
     0
  0
CLASS
  1
AM_DWG_SHEET
  2
AcDmSheet
  3
AcMechDwgViewMgmt
 90
     1024
 91
        0
280
     0
281
     0
  0
CLASS
  1
AM_VIEWDIMPARMAP
  2
AcDmViewDimParMap
  3
AcMechDwgViewMgmt
 90
     1024
 91
        0
280
     0
281
     0
  0
CLASS
  1
ACIMREALSYSVAR
  2
AcImRealSysVar
  3
AcMeServices
 90
     1024
 91
        1
280
     0
281
     0
  0
CLASS
  1
AM_DWGMGR_NAME
  2
AcDmDwgMgrName
  3
AcMechDwgViewMgmt
 90
     1024
 91
        0
280
     0
281
     0
  0
CLASS
  1
ACME_DATABASE
  2
AcMeDbDatabase
  3
AcMeServices
 90
     1024
 91
        1
280
     0
281
     0
  0
CLASS
  1
ACRFINSADJUSTERMGR
  2
AcRfInsAdjusterMgr
  3
AcMeServices
 90
     1024
 91
        1
280
     0
281
     0
  0
CLASS
  1
ACGREFACADMASTER
  2
AcGrefacadMaster
  3
AcGrefServices
 90
     1024
 91
        1
280
     0
281
     0
  0
CLASS
  1
AMDTMENUSTATEMGR
  2
AmdtMenuStateMgr
  3
McadcomServices
 90
     1024
 91
        1
280
     0
281
     0
  0
CLASS
  1
AMDTMCOMMENUSTATE
  2
AmdtMcomMenuState
  3
McadcomServices
 90
     1024
 91
        1
280
     0
281
     0
  0
CLASS
  1
AMIMASTER
  2
AmiMaster
  3
AmiServices
 90
     1024
 91
        1
280
     0
281
     0
  0
CLASS
  1
MAPIAMMOUDLE
  2
MApiAmModule
  3
MApiAmServices
 90
     1024
 91
        1
280
     0
281
     0
  0
CLASS
  1
ACIMSTRSYSVAR
  2
AcImStrSysVar
  3
AcMeServices
 90
     1024
 91
        5
280
     0
281
     0
  0
CLASS
  1
AMDTADMENUSTATE
  2
AmdtAdMenuState
  3
DesignerServices
 90
     1024
 91
        0
280
     0
281
     0
  0
CLASS
  1
ADAPPL
  2
AcAdAppl
  3
DesignerAssemblies
 90
     1024
 91
        0
280
     0
281
     0
  0
CLASS
  1
DEPMGR
  2
AcAdDepMgr
  3
DesignerAssemblies
 90
     1024
 91
        0
280
     0
281
     0
  0
CLASS
  1
PARAMMGR
  2
AcAdParamMgr
  3
DesignerAssemblies
 90
     1024
 91
        0
280
     0
281
     0
  0
CLASS
  1
PARAMSCOPE
  2
AcAdParamScope
  3
DesignerAssemblies
 90
     1024
 91
        0
280
     0
281
     0
  0
CLASS
  1
NAMEDAPPL
  2
AcAdNamedAppl
  3
DesignerAssemblies
 90
     1024
 91
        0
280
     0
281
     0
  0
CLASS
  1
AMDTDMMENUSTATE
  2
AmdtDmMenuState
  3
AcMechDwgViewMgmt
 90
     1024
 91
        0
280
     0
281
     0
  0
CLASS
  1
AMDTAMMENUSTATE
  2
AmdtAmMenuState
  3
DesignerAssemblies
 90
     1024
 91
        1
280
     0
281
     0
  0
CLASS
  1
ACAMPROJECT
  2
AcAmProject
  3
DesignerAssemblies
 90
     1024
 91
        1
280
     0
281
     0
  0
CLASS
  1
ACAMGRCOMPDEF
  2
AcAmGrCompDef
  3
DesignerAssemblies
 90
     1024
 91
        1
280
     0
281
     0
  0
CLASS
  1
ACCMCONTEXT
  2
AcCmContext
  3
DesignerAssemblies
 90
     1024
 91
        1
280
     0
281
     0
  0
CLASS
  1
ACAMCOMPDEF
  2
AcAmCompDef
  3
DesignerAssemblies
 90
     1024
 91
        1
280
     0
281
     0
  0
CLASS
  1
ACAMCOMPDEFMGR
  2
AcAmCompDefMgr
  3
DesignerAssemblies
 90
     1024
 91
        1
280
     0
281
     0
  0
CLASS
  1
AMCONTEXTMGR
  2
AcAmContextMgr
  3
DesignerAssemblies
 90
     1024
 91
        1
280
     0
281
     0
  0
CLASS
  1
ACAMCONTEXTMODELER
  2
AcAmContextModeler
  3
DesignerAssemblies
 90
     1024
 91
        1
280
     0
281
     0
  0
CLASS
  1
ACMDATADICTIONARY
  2
AcmDataDictionary
  3
"AcmSymBB|Product Description: AutoCAD Mechanical|Company: Autodesk, Inc."
 90
     1024
 91
        1
280
     0
281
     0
  0
CLASS
  1
CATALOGSTATE
  2
AcAmCatalogState
  3
DesignerAssemblies
 90
     1024
 91
        0
280
     0
281
     0
  0
CLASS
  1
ACAMGRCOMPDEFSET
  2
AcAmGrCompDefSet
  3
DesignerAssemblies
 90
     1024
 91
        1
280
     0
281
     0
  0
CLASS
  1
AMDTBROWSERDBTAB
  2
AmdtBrowserDbTab
  3
McadcomServices
 90
     1024
 91
        1
280
     0
281
     0
  0
CLASS
  1
CBROWSERAPPOBJECT
  2
CBrowserAppObject
  3
McadcomServices
 90
     1024
 91
        2
280
     0
281
     0
  0
CLASS
  1
DM_PLACEHOLDER
  2
AcDmSelsetPlaceholder
  3
McadcomServices
 90
     1024
 91
        1
280
     0
281
     0
  0
CLASS
  1
ACMSTANDARDANSI
  2
AcmStandardANSI
  3
"Amdt_StdImp|Product Description: AutoCAD Mechanical|Company: Autodesk, Inc."
 90
     1024
 91
        1
280
     0
281
     0
  0
CLASS
  1
AMGOBJPROPCFG
  2
AmgObjPropCfg
  3
"AmgLay|Product Description: AutoCAD Mechanical|Company: Autodesk, Inc."
 90
     1024
 91
        1
280
     0
281
     0
  0
CLASS
  1
ACMSURFSTANDARDANSI
  2
AcmSurfTextStdANSI
  3
"Amdt_StdImp|Product Description: AutoCAD Mechanical|Company: Autodesk, Inc."
 90
     1024
 91
        1
280
     0
281
     0
  0
CLASS
  1
ACMFCFSTANDARDANSI
  2
AcmFCFStdANSI
  3
"Amdt_StdImp|Product Description: AutoCAD Mechanical|Company: Autodesk, Inc."
 90
     1024
 91
        1
280
     0
281
     0
  0
CLASS
  1
ACMWELDSTANDARDANSI
  2
AcmWeldingStdANSI
  3
"Amdt_StdImp|Product Description: AutoCAD Mechanical|Company: Autodesk, Inc."
 90
     1024
 91
        1
280
     0
281
     0
  0
CLASS
  1
ACMIDSTANDARDANSI
  2
AcmIdStdANSI
  3
"Amdt_StdImp|Product Description: AutoCAD Mechanical|Company: Autodesk, Inc."
 90
     1024
 91
        1
280
     0
281
     0
  0
CLASS
  1
ACMDATUMSTANDARDANSI
  2
AcmDatumStdANSI
  3
"Amdt_StdImp|Product Description: AutoCAD Mechanical|Company: Autodesk, Inc."
 90
     1024
 91
        1
280
     0
281
     0
  0
CLASS
  1
ACMBOMSTANDARDANSI
  2
AcmBOMStdANSI
  3
"Amdt_StdImp|Product Description: AutoCAD Mechanical|Company: Autodesk, Inc."
 90
     1024
 91
        1
280
     0
281
     0
  0
CLASS
  1
ACMDETAILSTANDARDANSI
  2
AmdtDetailSymStdANSI
  3
"Amdt_StdImp|Product Description: AutoCAD Mechanical|Company: Autodesk, Inc."
 90
     1024
 91
        1
280
     0
281
     0
  0
CLASS
  1
ACMSECTIONSTANDARDANSI
  2
AmdtSectionSymStdANSI
  3
"Amdt_StdImp|Product Description: AutoCAD Mechanical|Company: Autodesk, Inc."
 90
     1024
 91
        1
280
     0
281
     0
  0
CLASS
  1
ACMCENTERLINESTANDARDANSI
  2
AmdtCenterLineStdANSI
  3
"Amdt_StdImp|Product Description: AutoCAD Mechanical|Company: Autodesk, Inc."
 90
     1024
 91
        1
280
     0
281
     0
  0
CLASS
  1
ACMTHREADLINESTANDARDANSI
  2
AmdtThreadLineStdANSI
  3
"Amdt_StdImp|Product Description: AutoCAD Mechanical|Company: Autodesk, Inc."
 90
     1024
 91
        1
280
     0
281
     0
  0
CLASS
  1
ACMNOTESTANDARDANSI
  2
AmdtNoteStdANSI
  3
"Amdt_StdImp|Product Description: AutoCAD Mechanical|Company: Autodesk, Inc."
 90
     1024
 91
        1
280
     0
281
     0
  0
CLASS
  1
ACMTAPERSTANDARDANSI
  2
AcmTaperStdANSI
  3
"Amdt_StdImp|Product Description: AutoCAD Mechanical|Company: Autodesk, Inc."
 90
     1024
 91
        1
280
     0
281
     0
  0
CLASS
  1
ACMANOOTATIONVIEWSTANDARDANSI
  2
AmdtAnViewStdANSI
  3
"Amdt_StdImp|Product Description: AutoCAD Mechanical|Company: Autodesk, Inc."
 90
     1024
 91
        1
280
     0
281
     0
  0
CLASS
  1
AMDTNOTETEMPLATEDB
  2
AmdtNoteTemplateDB
  3
AcmSymBB|Product Description: AutoCAD Mechanical|Company: Autodesk, Inc.
 90
     1024
 91
       24
280
     0
281
     0
  0
CLASS
  1
ACAMGLAYSTD
  2
AcAmgLayStd
  3
"AmgLay|Product Description: AutoCAD Mechanical|Company: Autodesk, Inc."
 90
     1024
 91
        4
280
     0
281
     0
  0
CLASS
  1
ACAMGDIMSTD
  2
AcAmgDimStd
  3
"AmgDim|Product Description: AutoCAD Mechanical|Company: Autodesk, Inc."
 90
     1024
 91
        4
280
     0
281
     0
  0
CLASS
  1
ACAMGHOLECHARTSTDANSI
  2
AcAmgHoleChartStdANSI
  3
AmgDim|Product Description: AutoCAD Mechanical|Company: Autodesk, Inc.
 90
     1024
 91
        1
280
     0
281
     0
  0
CLASS
  1
ACAMGTITLESTD
  2
AcAmgTitleStd
  3
"AmgTitle|Product Description: AutoCAD Mechanical|Company: Autodesk, Inc."
 90
     1024
 91
        4
280
     0
281
     0
  0
CLASS
  1
ACAMGFILTERDAT
  2
AcAmgFilterDat
  3
"AcadM|Product Description: AutoCAD Mechanical|Company: Autodesk, Inc."
 90
     1024
 91
        0
280
     0
281
     0
  0
CLASS
  1
CELLSTYLEMAP
  2
AcDbCellStyleMap
  3
ObjectDBX Classes
 90
     1152
 91
        2
280
     0
281
     0
  0
CLASS
  1
DICTIONARYVAR
  2
AcDbDictionaryVar
  3
ObjectDBX Classes
 90
        0
 91
       14
280
     0
281
     0
  0
CLASS
  1
ACMDATAENTRYPART
  2
AcmDataEntryPart
  3
AcmSymBB|Product Description: AutoCAD Mechanical|Company: Autodesk, Inc.
 90
     1024
 91
       12
280
     0
281
     0
  0
CLASS
  1
ACMPARTREF
  2
AcmPartRef
  3
"AcmSymBB|Product Description: AutoCAD Mechanical|Company: Autodesk, Inc."
 90
     1024
 91
        0
280
     0
281
     1
  0
CLASS
  1
ACDBLINERES
  2
AcDbLineRes
  3
AcGrefServices
 90
     1024
 91
        4
280
     0
281
     0
  0
CLASS
  1
ACMSTANDARDDIN
  2
AcmStandardDIN
  3
"Amdt_StdImp|Product Description: AutoCAD Mechanical|Company: Autodesk, Inc."
 90
     1024
 91
        2
280
     0
281
     0
  0
CLASS
  1
AMDTEDGESTANDARDDIN13715
  2
AmdtEdgeStdDIN13715
  3
"Amdt_StdImp|Product Description: AutoCAD Mechanical|Company: Autodesk, Inc."
 90
     1024
 91
        2
280
     0
281
     0
  0
CLASS
  1
ACMSURFSTANDARDDIN2002
  2
AcmSurfTextStdDIN2002
  3
"Amdt_StdImp|Product Description: AutoCAD Mechanical|Company: Autodesk, Inc."
 90
     1024
 91
        2
280
     0
281
     0
  0
CLASS
  1
ACMFCFSTANDARDDIN
  2
AcmFCFStdDIN
  3
"Amdt_StdImp|Product Description: AutoCAD Mechanical|Company: Autodesk, Inc."
 90
     1024
 91
        2
280
     0
281
     0
  0
CLASS
  1
ACMWELDSTANDARDDIN
  2
AcmWeldingStdDIN
  3
"Amdt_StdImp|Product Description: AutoCAD Mechanical|Company: Autodesk, Inc."
 90
     1024
 91
        2
280
     0
281
     0
  0
CLASS
  1
ACMIDSTANDARDDIN
  2
AcmIdStdDIN
  3
"Amdt_StdImp|Product Description: AutoCAD Mechanical|Company: Autodesk, Inc."
 90
     1024
 91
        2
280
     0
281
     0
  0
CLASS
  1
ACMDATUMSTANDARDDIN
  2
AcmDatumStdDIN
  3
"Amdt_StdImp|Product Description: AutoCAD Mechanical|Company: Autodesk, Inc."
 90
     1024
 91
        2
280
     0
281
     0
  0
CLASS
  1
ACMBOMSTANDARDDIN
  2
AcmBOMStdDIN
  3
"Amdt_StdImp|Product Description: AutoCAD Mechanical|Company: Autodesk, Inc."
 90
     1024
 91
        2
280
     0
281
     0
  0
CLASS
  1
ACMDETAILSTANDARDDIN
  2
AmdtDetailSymStdDIN
  3
"Amdt_StdImp|Product Description: AutoCAD Mechanical|Company: Autodesk, Inc."
 90
     1024
 91
        2
280
     0
281
     0
  0
CLASS
  1
ACMSECTIONSTANDARDDIN
  2
AmdtSectionSymStdDIN
  3
"Amdt_StdImp|Product Description: AutoCAD Mechanical|Company: Autodesk, Inc."
 90
     1024
 91
        2
280
     0
281
     0
  0
CLASS
  1
ACMCENTERLINESTANDARDDIN
  2
AmdtCenterLineStdDIN
  3
"Amdt_StdImp|Product Description: AutoCAD Mechanical|Company: Autodesk, Inc."
 90
     1024
 91
        2
280
     0
281
     0
  0
CLASS
  1
ACMTHREADLINESTANDARDDIN
  2
AmdtThreadLineStdDIN
  3
"Amdt_StdImp|Product Description: AutoCAD Mechanical|Company: Autodesk, Inc."
 90
     1024
 91
        2
280
     0
281
     0
  0
CLASS
  1
ACMNOTESTANDARDDIN
  2
AmdtNoteStdDIN
  3
"Amdt_StdImp|Product Description: AutoCAD Mechanical|Company: Autodesk, Inc."
 90
     1024
 91
        2
280
     0
281
     0
  0
CLASS
  1
ACMTAPERSTANDARDDIN
  2
AcmTaperStdDIN
  3
"Amdt_StdImp|Product Description: AutoCAD Mechanical|Company: Autodesk, Inc."
 90
     1024
 91
        2
280
     0
281
     0
  0
CLASS
  1
ACMANOOTATIONVIEWSTANDARDDIN
  2
AmdtAnViewStdDIN
  3
"Amdt_StdImp|Product Description: AutoCAD Mechanical|Company: Autodesk, Inc."
 90
     1024
 91
        2
280
     0
281
     0
  0
CLASS
  1
ACAMGHOLECHARTSTDDIN
  2
AcAmgHoleChartStdDIN
  3
AmgDim|Product Description: AutoCAD Mechanical|Company: Autodesk, Inc.
 90
     1024
 91
        2
280
     0
281
     0
  0
CLASS
  1
ACMDATAENTRYBLOCK
  2
AcmDataEntryBlock
  3
AcmSymBB|Product Description: AutoCAD Mechanical|Company: Autodesk, Inc.
 90
     1024
 91
        5
280
     0
281
     0
  0
CLASS
  1
ACMBOM
  2
AcmBom
  3
"AcmSymBB|Product Description: AutoCAD Mechanical|Company: Autodesk, Inc."
 90
     1024
 91
        1
280
     0
281
     0
  0
CLASS
  1
AMDTFORMULAUPDATEDISPATCHER
  2
AmdtFormulaUpdateDispatcher
  3
AcMeServices
 90
     1024
 91
        1
280
     0
281
     0
  0
CLASS
  1
ACMBOMROW
  2
AcmBomRow
  3
"AcmSymBB|Product Description: AutoCAD Mechanical|Company: Autodesk, Inc."
 90
     1024
 91
        0
280
     0
281
     0
  0
CLASS
  1
ACMPARTLIST
  2
AcmPartList
  3
"AcmSymBB|Product Description: AutoCAD Mechanical|Company: Autodesk, Inc."
 90
     1024
 91
        0
280
     0
281
     1
  0
CLASS
  1
CAMSSTRUCTBTNSTATE
  2
StructBtnState
  3
DesignerAssemblies
 90
     1024
 91
        1
280
     0
281
     0
  0
CLASS
  1
ACRFATTGENMGR
  2
AcRfAttGeneralMgr
  3
AcAttribServices
 90
     1024
 91
        1
280
     0
281
     0
  0
CLASS
  1
ACRFOBJATTMGR
  2
AcRfObjAttGroupMgr
  3
AcAttribServices
 90
     1024
 91
        1
280
     0
281
     0
  0
CLASS
  1
ACRFMCADAPIATTHOLDER
  2
AcRfMCADAPIAttHolder
  3
AcAttribServices
 90
     1024
 91
        1
280
     0
281
     0
  0
CLASS
  1
AMDTSYSATTR
  2
AmdtSystemAttribute
  3
AcAttribServices
 90
     1024
 91
        7
280
     0
281
     0
  0
CLASS
  1
SORTENTSTABLE
  2
AcDbSortentsTable
  3
ObjectDBX Classes
 90
        0
 91
        2
280
     0
281
     0
  0
CLASS
  1
ACMSTANDARDISO
  2
AcmStandardISO
  3
"Amdt_StdImp|Product Description: AutoCAD Mechanical|Company: Autodesk, Inc."
 90
     1024
 91
        1
280
     0
281
     0
  0
CLASS
  1
AMDTEDGESTANDARDISO
  2
AmdtEdgeStdISO
  3
"Amdt_StdImp|Product Description: AutoCAD Mechanical|Company: Autodesk, Inc."
 90
     1024
 91
        1
280
     0
281
     0
  0
CLASS
  1
ACMSURFSTANDARDISO2002
  2
AcmSurfTextStdISO2002
  3
"Amdt_StdImp|Product Description: AutoCAD Mechanical|Company: Autodesk, Inc."
 90
     1024
 91
        1
280
     0
281
     0
  0
CLASS
  1
ACMFCFSTANDARDISO
  2
AcmFCFStdISO
  3
"Amdt_StdImp|Product Description: AutoCAD Mechanical|Company: Autodesk, Inc."
 90
     1024
 91
        1
280
     0
281
     0
  0
CLASS
  1
ACMWELDSTANDARDISO
  2
AcmWeldingStdISO
  3
"Amdt_StdImp|Product Description: AutoCAD Mechanical|Company: Autodesk, Inc."
 90
     1024
 91
        1
280
     0
281
     0
  0
CLASS
  1
ACMIDSTANDARDISO
  2
AcmIdStdISO
  3
"Amdt_StdImp|Product Description: AutoCAD Mechanical|Company: Autodesk, Inc."
 90
     1024
 91
        1
280
     0
281
     0
  0
CLASS
  1
ACMDATUMSTANDARDISO
  2
AcmDatumStdISO
  3
"Amdt_StdImp|Product Description: AutoCAD Mechanical|Company: Autodesk, Inc."
 90
     1024
 91
        1
280
     0
281
     0
  0
CLASS
  1
ACMBOMSTANDARDISO
  2
AcmBOMStdISO
  3
"Amdt_StdImp|Product Description: AutoCAD Mechanical|Company: Autodesk, Inc."
 90
     1024
 91
        1
280
     0
281
     0
  0
CLASS
  1
ACMDETAILSTANDARDISO
  2
AmdtDetailSymStdISO
  3
"Amdt_StdImp|Product Description: AutoCAD Mechanical|Company: Autodesk, Inc."
 90
     1024
 91
        1
280
     0
281
     0
  0
CLASS
  1
ACMSECTIONSTANDARDISO2001
  2
AmdtSectionSymStdISO2001
  3
"Amdt_StdImp|Product Description: AutoCAD Mechanical|Company: Autodesk, Inc."
 90
     1024
 91
        1
280
     0
281
     0
  0
CLASS
  1
ACMCENTERLINESTANDARDISO
  2
AmdtCenterLineStdISO
  3
"Amdt_StdImp|Product Description: AutoCAD Mechanical|Company: Autodesk, Inc."
 90
     1024
 91
        1
280
     0
281
     0
  0
CLASS
  1
ACMNOTESTANDARDISO
  2
AmdtNoteStdISO
  3
"Amdt_StdImp|Product Description: AutoCAD Mechanical|Company: Autodesk, Inc."
 90
     1024
 91
        1
280
     0
281
     0
  0
CLASS
  1
ACAMGHOLECHARTSTDISO
  2
AcAmgHoleChartStdISO
  3
AmgDim|Product Description: AutoCAD Mechanical|Company: Autodesk, Inc.
 90
     1024
 91
        1
280
     0
281
     0
  0
CLASS
  1
ACMTHREADLINESTANDARDISO
  2
AmdtThreadLineStdISO
  3
"Amdt_StdImp|Product Description: AutoCAD Mechanical|Company: Autodesk, Inc."
 90
     1024
 91
        1
280
     0
281
     0
  0
CLASS
  1
ACMTAPERSTANDARDISO
  2
AcmTaperStdISO
  3
"Amdt_StdImp|Product Description: AutoCAD Mechanical|Company: Autodesk, Inc."
 90
     1024
 91
        1
280
     0
281
     0
  0
CLASS
  1
ACMANOOTATIONVIEWSTANDARDISO
  2
AmdtAnViewStdISO
  3
"Amdt_StdImp|Product Description: AutoCAD Mechanical|Company: Autodesk, Inc."
 90
     1024
 91
        1
280
     0
281
     0
  0
CLASS
  1
ACMSTANDARDGB
  2
AcmStandardGB
  3
"Amdt_StdImp|Product Description: AutoCAD Mechanical|Company: Autodesk, Inc."
 90
     1024
 91
        0
280
     0
281
     0
  0
CLASS
  1
ACMSURFSTANDARDGB
  2
AcmSurfTextStdGB
  3
"Amdt_StdImp|Product Description: AutoCAD Mechanical|Company: Autodesk, Inc."
 90
     1024
 91
        0
280
     0
281
     0
  0
CLASS
  1
ACMFCFSTANDARDGB
  2
AcmFCFStdGB
  3
"Amdt_StdImp|Product Description: AutoCAD Mechanical|Company: Autodesk, Inc."
 90
     1024
 91
        0
280
     0
281
     0
  0
CLASS
  1
ACMWELDSTANDARDGB
  2
AcmWeldingStdGB
  3
"Amdt_StdImp|Product Description: AutoCAD Mechanical|Company: Autodesk, Inc."
 90
     1024
 91
        0
280
     0
281
     0
  0
CLASS
  1
ACMIDSTANDARDGB
  2
AcmIdStdGB
  3
"Amdt_StdImp|Product Description: AutoCAD Mechanical|Company: Autodesk, Inc."
 90
     1024
 91
        0
280
     0
281
     0
  0
CLASS
  1
ACMDATUMSTANDARDGB
  2
AcmDatumStdGB
  3
"Amdt_StdImp|Product Description: AutoCAD Mechanical|Company: Autodesk, Inc."
 90
     1024
 91
        0
280
     0
281
     0
  0
CLASS
  1
ACMBOMSTANDARDGB
  2
AcmBOMStdGB
  3
"Amdt_StdImp|Product Description: AutoCAD Mechanical|Company: Autodesk, Inc."
 90
     1024
 91
        0
280
     0
281
     0
  0
CLASS
  1
ACMDETAILSTANDARDGB
  2
AmdtDetailSymStdGB
  3
"Amdt_StdImp|Product Description: AutoCAD Mechanical|Company: Autodesk, Inc."
 90
     1024
 91
        0
280
     0
281
     0
  0
CLASS
  1
ACMSECTIONSTANDARDGB1998
  2
AmdtSectionSymStdGB1998
  3
"Amdt_StdImp|Product Description: AutoCAD Mechanical|Company: Autodesk, Inc."
 90
     1024
 91
        0
280
     0
281
     0
  0
CLASS
  1
ACMCENTERLINESTANDARDGB
  2
AmdtCenterLineStdGB
  3
"Amdt_StdImp|Product Description: AutoCAD Mechanical|Company: Autodesk, Inc."
 90
     1024
 91
        0
280
     0
281
     0
  0
CLASS
  1
ACMTHREADLINESTANDARDGB
  2
AmdtThreadLineStdGB
  3
"Amdt_StdImp|Product Description: AutoCAD Mechanical|Company: Autodesk, Inc."
 90
     1024
 91
        0
280
     0
281
     0
  0
CLASS
  1
ACMNOTESTANDARDGB
  2
AmdtNoteStdGB
  3
"Amdt_StdImp|Product Description: AutoCAD Mechanical|Company: Autodesk, Inc."
 90
     1024
 91
        0
280
     0
281
     0
  0
CLASS
  1
ACMTAPERSTANDARDGB
  2
AcmTaperStdGB
  3
"Amdt_StdImp|Product Description: AutoCAD Mechanical|Company: Autodesk, Inc."
 90
     1024
 91
        0
280
     0
281
     0
  0
CLASS
  1
ACMANOOTATIONVIEWSTANDARDGB
  2
AmdtAnViewStdGB
  3
"Amdt_StdImp|Product Description: AutoCAD Mechanical|Company: Autodesk, Inc."
 90
     1024
 91
        0
280
     0
281
     0
  0
CLASS
  1
ACAMGHOLECHARTSTDGB
  2
AcAmgHoleChartStdGB
  3
AmgDim|Product Description: AutoCAD Mechanical|Company: Autodesk, Inc.
 90
     1024
 91
        0
280
     0
281
     0
  0
CLASS
  1
ACMSTANDARDCSN
  2
AcmStandardCSN
  3
"Amdt_StdImp|Product Description: AutoCAD Mechanical|Company: Autodesk, Inc."
 90
     1024
 91
        0
280
     0
281
     0
  0
CLASS
  1
ACMSURFSTANDARDCSN
  2
AcmSurfTextStdCSN
  3
"Amdt_StdImp|Product Description: AutoCAD Mechanical|Company: Autodesk, Inc."
 90
     1024
 91
        0
280
     0
281
     0
  0
CLASS
  1
ACMFCFSTANDARDCSN
  2
AcmFCFStdCSN
  3
"Amdt_StdImp|Product Description: AutoCAD Mechanical|Company: Autodesk, Inc."
 90
     1024
 91
        0
280
     0
281
     0
  0
CLASS
  1
ACMWELDSTANDARDCSN
  2
AcmWeldingStdCSN
  3
"Amdt_StdImp|Product Description: AutoCAD Mechanical|Company: Autodesk, Inc."
 90
     1024
 91
        0
280
     0
281
     0
  0
CLASS
  1
ACMIDSTANDARDCSN
  2
AcmIdStdCSN
  3
"Amdt_StdImp|Product Description: AutoCAD Mechanical|Company: Autodesk, Inc."
 90
     1024
 91
        0
280
     0
281
     0
  0
CLASS
  1
ACMDATUMSTANDARDCSN
  2
AcmDatumStdCSN
  3
"Amdt_StdImp|Product Description: AutoCAD Mechanical|Company: Autodesk, Inc."
 90
     1024
 91
        0
280
     0
281
     0
  0
CLASS
  1
ACMBOMSTANDARDCSN
  2
AcmBOMStdCSN
  3
"Amdt_StdImp|Product Description: AutoCAD Mechanical|Company: Autodesk, Inc."
 90
     1024
 91
        0
280
     0
281
     0
  0
CLASS
  1
ACMDETAILSTANDARDCSN
  2
AmdtDetailSymStdCSN
  3
"Amdt_StdImp|Product Description: AutoCAD Mechanical|Company: Autodesk, Inc."
 90
     1024
 91
        0
280
     0
281
     0
  0
CLASS
  1
ACMSECTIONSTANDARDCSN2002
  2
AmdtSectionSymStdCSN2002
  3
"Amdt_StdImp|Product Description: AutoCAD Mechanical|Company: Autodesk, Inc."
 90
     1024
 91
        0
280
     0
281
     0
  0
CLASS
  1
ACMCENTERLINESTANDARDCSN
  2
AmdtCenterLineStdCSN
  3
"Amdt_StdImp|Product Description: AutoCAD Mechanical|Company: Autodesk, Inc."
 90
     1024
 91
        0
280
     0
281
     0
  0
CLASS
  1
ACMTHREADLINESTANDARDCSN
  2
AmdtThreadLineStdCSN
  3
"Amdt_StdImp|Product Description: AutoCAD Mechanical|Company: Autodesk, Inc."
 90
     1024
 91
        0
280
     0
281
     0
  0
CLASS
  1
ACMNOTESTANDARDCSN
  2
AmdtNoteStdCSN
  3
"Amdt_StdImp|Product Description: AutoCAD Mechanical|Company: Autodesk, Inc."
 90
     1024
 91
        0
280
     0
281
     0
  0
CLASS
  1
ACMTAPERSTANDARDCSN
  2
AcmTaperStdCSN
  3
"Amdt_StdImp|Product Description: AutoCAD Mechanical|Company: Autodesk, Inc."
 90
     1024
 91
        0
280
     0
281
     0
  0
CLASS
  1
ACMANOOTATIONVIEWSTANDARDCSN
  2
AmdtAnViewStdCSN
  3
"Amdt_StdImp|Product Description: AutoCAD Mechanical|Company: Autodesk, Inc."
 90
     1024
 91
        0
280
     0
281
     0
  0
CLASS
  1
ACAMGHOLECHARTSTDCSN
  2
AcAmgHoleChartStdCSN
  3
AmgDim|Product Description: AutoCAD Mechanical|Company: Autodesk, Inc.
 90
     1024
 91
        0
280
     0
281
     0
  0
CLASS
  1
DIMASSOC
  2
AcDbDimAssoc
  3
"AcDbDimAssoc|Product Desc:     AcDim ARX App For Dimension|Company:          Autodesk, Inc.|WEB Address:      www.autodesk.com"
 90
        0
 91
        8
280
     0
281
     0
  0
CLASS
  1
ACDBCIRCARCRES
  2
AcDbCircArcRes
  3
AcGrefServices
 90
     1024
 91
        1
280
     0
281
     0
  0
CLASS
  1
ACDB_BLKREFOBJECTCONTEXTDATA_CLASS
  2
AcDbBlkRefObjectContextData
  3
ObjectDBX Classes
 90
     1153
 91
        0
280
     0
281
     0
  0
CLASS
  1
ACAD_EVALUATION_GRAPH
  2
AcDbEvalGraph
  3
ObjectDBX Classes
 90
     1153
 91
        0
280
     0
281
     0
  0
CLASS
  1
ACAECUSTOBJ
  2
AcAeEditorObj
  3
AcAeEditorObj
 90
     1024
 91
        0
280
     0
281
     0
  0
CLASS
  1
ACDB_DYNAMICBLOCKPURGEPREVENTER_VERSION
  2
AcDbDynamicBlockPurgePreventer
  3
ObjectDBX Classes
 90
     1153
 91
        0
280
     0
281
     0
  0
CLASS
  1
AMDTNOTE
  2
AmdtNote
  3
"AcmSymBB|Product Description: AutoCAD Mechanical|Company: Autodesk, Inc."
 90
     1024
 91
        0
280
     0
281
     1
  0
CLASS
  1
ACDBSECTIONVIEWSTYLE
  2
AcDbSectionViewStyle
  3
ObjectDBX Classes
 90
     1025
 91
        5
280
     0
281
     0
  0
CLASS
  1
ACDBDETAILVIEWSTYLE
  2
AcDbDetailViewStyle
  3
ObjectDBX Classes
 90
     1025
 91
        5
280
     0
281
     0
  0
CLASS
  1
ACMSECTIONSTANDARDCUSTOM
  2
AmdtSectionSymStdCustom
  3
"Amdt_StdImp|Product Description: AutoCAD Mechanical|Company: Autodesk, Inc."
 90
     1024
 91
        4
280
     0
281
     0
  0
CLASS
  1
ACMDETAILTANDARDCUSTOM
  2
AmdtDetailSymStdCustom
  3
"Amdt_StdImp|Product Description: AutoCAD Mechanical|Company: Autodesk, Inc."
 90
     1024
 91
        4
280
     0
281
     0
  0
CLASS
  1
FIELD
  2
AcDbField
  3
ObjectDBX Classes
 90
     1152
 91
       22
280
     0
281
     0
  0
CLASS
  1
FIELDLIST
  2
AcDbFieldList
  3
ObjectDBX Classes
 90
     1152
 91
        1
280
     0
281
     0
  0
CLASS
  1
EXACXREFPANELOBJECT
  2
ExAcXREFPanelObject
  3
EXAC_ESW
 90
     1025
 91
        1
280
     0
281
     0
  0
CLASS
  1
NPOCOLLECTION
  2
AcDbImpNonPersistentObjectsCollection
  3
ObjectDBX Classes
 90
     1153
 91
        1
280
     0
281
     0
  0
ENDSEC
  0
SECTION
  2
TABLES
  0
TABLE
  2
VPORT
  5
8
102
{ACAD_XDICTIONARY
360
1B6
102
}
330
0
100
AcDbSymbolTable
 70
     1
  0
VPORT
  5
82
330
8
100
AcDbSymbolTableRecord
100
AcDbViewportTableRecord
  2
*Active
 70
     0
 10
0.0
 20
0.0
 11
1.0
 21
1.0
 12
3696.459542273657
 22
7938.651416256082
 13
0.0
 23
0.0
 14
2.5
 24
2.5
 15
10.0
 25
10.0
 16
0.0
 26
0.0
 36
1.0
 17
0.0
 27
0.0
 37
0.0
 40
308.6727283854202
 41
2.195499296765119
 42
50.0
 43
0.0
 44
0.0
 50
0.0
 51
0.0
 71
     0
 72
 10000
 73
     1
 74
     1
 75
     0
 76
     0
 77
     0
 78
     0
281
     0
 65
     1
110
0.0
120
0.0
130
0.0
111
1.0
121
0.0
131
0.0
112
0.0
122
1.0
132
0.0
 79
     0
146
0.0
348
2F
 60
     3
 61
     5
292
     1
282
     1
141
0.0
142
0.0
 63
   250
421
  3355443
1001
ACAD_NAV_VCDISPLAY
1070
     3
  0
ENDTAB
  0
TABLE
  2
LTYPE
  5
5
330
0
100
AcDbSymbolTable
 70
    24
  0
LTYPE
  5
62
330
5
100
AcDbSymbolTableRecord
100
AcDbLinetypeTableRecord
  2
ByBlock
 70
     0
  3

 72
    65
 73
     0
 40
0.0
  0
LTYPE
  5
63
330
5
100
AcDbSymbolTableRecord
100
AcDbLinetypeTableRecord
  2
ByLayer
 70
     0
  3

 72
    65
 73
     0
 40
0.0
  0
LTYPE
  5
64
330
5
100
AcDbSymbolTableRecord
100
AcDbLinetypeTableRecord
  2
CONTINUOUS
 70
     0
  3
Solid line
 72
    65
 73
     0
 40
0.0
  0
LTYPE
  5
78
330
5
100
AcDbSymbolTableRecord
100
AcDbLinetypeTableRecord
  2
DASHED
 70
     0
  3
Dashed line
 72
    65
 73
     2
 40
0.75
 49
0.5
 74
     0
 49
-0.25
 74
     0
  0
LTYPE
  5
79
330
5
100
AcDbSymbolTableRecord
100
AcDbLinetypeTableRecord
  2
CENTER
 70
     0
  3
Center line
 72
    65
 73
     4
 40
2.0
 49
1.25
 74
     0
 49
-0.25
 74
     0
 49
0.25
 74
     0
 49
-0.25
 74
     0
  0
LTYPE
  5
13E
330
5
100
AcDbSymbolTableRecord
100
AcDbLinetypeTableRecord
  2
HIDDEN
 70
     0
  3
Verdeckt
 72
    65
 73
     2
 40
0.375
 49
0.25
 74
     0
 49
-0.125
 74
     0
  0
LTYPE
  5
13F
330
5
100
AcDbSymbolTableRecord
100
AcDbLinetypeTableRecord
  2
PHANTOM2
 70
     0
  3
Phantom (.5x) ___ _ _ ___ _ _ ___ _ _ ___ _ _
 72
    65
 73
     6
 40
1.25
 49
0.625
 74
     0
 49
-0.125
 74
     0
 49
0.125
 74
     0
 49
-0.125
 74
     0
 49
0.125
 74
     0
 49
-0.125
 74
     0
  0
LTYPE
  5
183
330
5
100
AcDbSymbolTableRecord
100
AcDbLinetypeTableRecord
  2
ACANSTGB
 70
     0
  3
__ . . __ . .
 72
    65
 73
     6
 40
0.35433070866
 49
0.15748031496
 74
     0
 49
-0.03937007874
 74
     0
 49
0.03937007874
 74
     0
 49
-0.03937007874
 74
     0
 49
0.03937007874
 74
     0
 49
-0.03937007874
 74
     0
  0
LTYPE
  5
184
330
5
100
AcDbSymbolTableRecord
100
AcDbLinetypeTableRecord
  2
ACANSTGL
 70
     0
  3
_ _ _ _ _
 72
    65
 73
     2
 40
0.11811023622
 49
0.07874015748
 74
     0
 49
-0.03937007874
 74
     0
  0
LTYPE
  5
26A
330
5
100
AcDbSymbolTableRecord
100
AcDbLinetypeTableRecord
  2
ACDINWELD
 70
     0
  3
_ _ _ _ _
 72
    65
 73
     2
 40
2.0
 49
2.0
 74
     0
 49
-1.0
 74
     0
  0
LTYPE
  5
26B
330
5
100
AcDbSymbolTableRecord
100
AcDbLinetypeTableRecord
  2
ACDINTGB
 70
     0
  3
__ . . __ . .
 72
    65
 73
     6
 40
9.0
 49
4.0
 74
     0
 49
-1.0
 74
     0
 49
1.0
 74
     0
 49
-1.0
 74
     0
 49
1.0
 74
     0
 49
-1.0
 74
     0
  0
LTYPE
  5
26C
330
5
100
AcDbSymbolTableRecord
100
AcDbLinetypeTableRecord
  2
ACDINTGL
 70
     0
  3
_ _ _ _ _
 72
    65
 73
     2
 40
3.0
 49
2.0
 74
     0
 49
-1.0
 74
     0
  0
LTYPE
  5
2A6
330
5
100
AcDbSymbolTableRecord
100
AcDbLinetypeTableRecord
  2
Amconstr
 70
     0
  3
_______________________
 72
    65
 73
     2
 40
9999.0
 49
9999.0
 74
     0
 49
0.0
 74
     0
  0
LTYPE
  5
2A7
330
5
100
AcDbSymbolTableRecord
100
AcDbLinetypeTableRecord
  2
Amzigzag
 70
     0
  3
/\/-/\/-/\/-/\/-/\/-/\/
 72
    65
 73
     2
 40
11.0001
 49
0.0001
 74
     4
 75
   136
340
2A8
 46
0.04
 50
0.0
 44
0.0
 45
0.0
 49
-11.0
 74
     0
  0
LTYPE
  5
38A
330
5
100
AcDbSymbolTableRecord
100
AcDbLinetypeTableRecord
  2
HIDDEN2
 70
     0
  3
Hidden (.5x) _ _ _ _ _ _ _ _ _ _ _ _ _ _ _ _ _
 72
    65
 73
     2
 40
0.1875
 49
0.125
 74
     0
 49
-0.0625
 74
     0
  0
LTYPE
  5
38B
330
5
100
AcDbSymbolTableRecord
100
AcDbLinetypeTableRecord
  2
CENTER2
 70
     0
  3
Center (.5x) ___ _ ___ _ ___ _ ___ _ ___ _ ___
 72
    65
 73
     4
 40
1.125
 49
0.75
 74
     0
 49
-0.125
 74
     0
 49
0.125
 74
     0
 49
-0.125
 74
     0
  0
LTYPE
  5
3C3
330
5
100
AcDbSymbolTableRecord
100
AcDbLinetypeTableRecord
  2
AM_ISO02W050
 70
     0
  3
__ __ __ __ __ __ __ __ __ __ __ __ __ __ __
 72
    65
 73
     2
 40
7.5
 49
6.0
 74
     0
 49
-1.5
 74
     0
  0
LTYPE
  5
3C4
330
5
100
AcDbSymbolTableRecord
100
AcDbLinetypeTableRecord
  2
AM_ISO08W050
 70
     0
  3
____ . ____ . ____ . ____ . ____ . ____ . ____
 72
    65
 73
     4
 40
18.0
 49
12.0
 74
     0
 49
-1.5
 74
     0
 49
3.0
 74
     0
 49
-1.5
 74
     0
  0
LTYPE
  5
3C5
330
5
100
AcDbSymbolTableRecord
100
AcDbLinetypeTableRecord
  2
AM_ISO09W050
 70
     0
  3
_____ . . _____ . . _____ . . ____ .. ____
 72
    65
 73
     6
 40
22.5
 49
12.0
 74
     0
 49
-1.5
 74
     0
 49
3.0
 74
     0
 49
-1.5
 74
     0
 49
3.0
 74
     0
 49
-1.5
 74
     0
  0
LTYPE
  5
3C6
330
5
100
AcDbSymbolTableRecord
100
AcDbLinetypeTableRecord
  2
AM_ISO08W050x2
 70
     0
  3
__ . __ . __ . __ . __ . __
 72
    65
 73
     4
 40
9.0
 49
6.0
 74
     0
 49
-0.75
 74
     0
 49
1.5
 74
     0
 49
-0.75
 74
     0
  0
LTYPE
  5
3C7
330
5
100
AcDbSymbolTableRecord
100
AcDbLinetypeTableRecord
  2
AM_ISO02W050x2
 70
     0
  3
 _ _ _ _ _ _ _ _ _ _ _ _
 72
    65
 73
     2
 40
3.75
 49
3.0
 74
     0
 49
-0.75
 74
     0
  0
LTYPE
  5
3C8
330
5
100
AcDbSymbolTableRecord
100
AcDbLinetypeTableRecord
  2
ACISOWELD
 70
     0
  3
_ _ _ _ _
 72
    65
 73
     2
 40
2.0
 49
2.0
 74
     0
 49
-1.0
 74
     0
  0
LTYPE
  5
3C9
330
5
100
AcDbSymbolTableRecord
100
AcDbLinetypeTableRecord
  2
ACISOTGB
 70
     0
  3
__ . . __ . .
 72
    65
 73
     6
 40
9.0
 49
4.0
 74
     0
 49
-1.0
 74
     0
 49
1.0
 74
     0
 49
-1.0
 74
     0
 49
1.0
 74
     0
 49
-1.0
 74
     0
  0
LTYPE
  5
3CA
330
5
100
AcDbSymbolTableRecord
100
AcDbLinetypeTableRecord
  2
ACISOTGL
 70
     0
  3
_ _ _ _ _
 72
    65
 73
     2
 40
3.0
 49
2.0
 74
     0
 49
-1.0
 74
     0
  0
LTYPE
  5
4CB9
330
5
100
AcDbSymbolTableRecord
100
AcDbLinetypeTableRecord
  2
Amzigzag2
 70
     0
  3
/\/-/\/-/\/-/\/-/\/-/\/
 72
    65
 73
     2
 40
0.4401
 49
0.0001
 74
     4
 75
   135
340
4CBC
 46
0.0016
 50
0.0
 44
0.0
 45
0.0
 49
-0.4400000000000001
 74
     0
  0
ENDTAB
  0
TABLE
  2
LAYER
  5
2
102
{ACAD_XDICTIONARY
360
256
102
}
330
0
100
AcDbSymbolTable
 70
    14
  0
LAYER
  5
5C
102
{ACAD_XDICTIONARY
360
1A2
102
}
330
2
100
AcDbSymbolTableRecord
100
AcDbLayerTableRecord
  2
0
 70
     0
 62
     7
  6
CONTINUOUS
370
    -3
390
F
347
21
348
0
  0
LAYER
  5
4B04
102
{ACAD_XDICTIONARY
360
4C06
102
}
330
2
100
AcDbSymbolTableRecord
100
AcDbLayerTableRecord
  2
AM_11 ( Phanton)
 70
     0
 62
     3
  6
AM_ISO09W050
370
    25
390
F
347
21
348
0
1001
AcAecLayerStandard
1000

1000

  0
LAYER
  5
4B2C
102
{ACAD_XDICTIONARY
360
4C08
102
}
330
2
100
AcDbSymbolTableRecord
100
AcDbLayerTableRecord
  2
Defpoints
 70
     0
 62
     7
  6
CONTINUOUS
290
     0
370
    -3
390
F
347
21
348
0
  0
LAYER
  5
4B75
102
{ACAD_XDICTIONARY
360
4C0A
102
}
330
2
100
AcDbSymbolTableRecord
100
AcDbLayerTableRecord
  2
AM_5 ( Bemassung)
 70
     0
 62
     3
  6
CONTINUOUS
370
    25
390
F
347
21
348
0
1001
AcAecLayerStandard
1000

1000

  0
LAYER
  5
4C37
330
2
100
AcDbSymbolTableRecord
100
AcDbLayerTableRecord
  2
AM_0 ( Kontur 0.5 )
 70
     0
 62
     7
  6
CONTINUOUS
370
    50
390
F
347
21
348
0
1001
AcAecLayerStandard
1000

1000

  0
LAYER
  5
4C38
330
2
100
AcDbSymbolTableRecord
100
AcDbLayerTableRecord
  2
AM_6 ( Text)
 70
     0
 62
     6
  6
CONTINUOUS
370
    25
390
F
347
21
348
0
1001
AcAecLayerStandard
1000

1000

  0
LAYER
  5
4C46
330
2
100
AcDbSymbolTableRecord
100
AcDbLayerTableRecord
  2
AM_0
 70
     0
 62
     7
  6
CONTINUOUS
370
    50
390
F
347
21
348
0
1001
AcAecLayerStandard
1000

1000

  0
LAYER
  5
4C47
330
2
100
AcDbSymbolTableRecord
100
AcDbLayerTableRecord
  2
AM_7
 70
     0
 62
     4
  6
CONTINUOUS
370
    25
390
F
347
21
348
0
1001
AcAecLayerStandard
1000

1000

  0
LAYER
  5
4C48
102
{ACAD_XDICTIONARY
360
4C49
102
}
330
2
100
AcDbSymbolTableRecord
100
AcDbLayerTableRecord
  2
AM_2 ( Kontur 0.25)
 70
     0
 62
     5
  6
CONTINUOUS
370
    25
390
F
347
21
348
0
1001
AcAecLayerStandard
1000

1000

  0
LAYER
  5
4C4A
102
{ACAD_XDICTIONARY
360
4C4B
102
}
330
2
100
AcDbSymbolTableRecord
100
AcDbLayerTableRecord
  2
AM_3 ( Verdeckt )
 70
     0
 62
     6
  6
AM_ISO02W050
370
    25
390
F
347
21
348
0
1001
AcAecLayerStandard
1000

1000

  0
LAYER
  5
4CCC
330
2
100
AcDbSymbolTableRecord
100
AcDbLayerTableRecord
  2
AM_BOR ( Zeichnungsrahmen)
 70
     0
 62
     7
  6
CONTINUOUS
370
    25
390
F
347
21
348
0
1001
AcAecLayerStandard
1000

1000

  0
LAYER
  5
4CD3
102
{ACAD_XDICTIONARY
360
4CD4
102
}
330
2
100
AcDbSymbolTableRecord
100
AcDbLayerTableRecord
  2
AM_BOR
 70
     0
 62
     7
  6
CONTINUOUS
370
    50
390
F
347
21
348
0
1001
AcAecLayerStandard
1000

1000

  0
LAYER
  5
4E7D
330
2
100
AcDbSymbolTableRecord
100
AcDbLayerTableRecord
  2
AM_7 (Mittellinie)
 70
     0
 62
     4
  6
AM_ISO08W050
370
    25
390
F
347
21
348
0
1001
AcAecLayerStandard
1000

1000

  0
LAYER
  5
50D9
330
2
100
AcDbSymbolTableRecord
100
AcDbLayerTableRecord
  2
AM_CL ( Konstruktionlinien)
 70
     0
 62
     1
  6
Amconstr
370
    25
390
F
347
21
348
0
1001
AcAecLayerStandard
1000

1000

  0
ENDTAB
  0
TABLE
  2
STYLE
  5
3
330
0
100
AcDbSymbolTable
 70
    10
  0
STYLE
  5
5D
330
3
100
AcDbSymbolTableRecord
100
AcDbTextStyleTableRecord
  2
STANDARD
 70
     0
 40
0.0
 41
1.0
 50
0.0
 71
     0
 42
424.4729518289081
  3
ARIALUNI.TTF
  4

1001
ACAD
1000
@Arial Unicode MS
1071
       34
  0
STYLE
  5
174
330
3
100
AcDbSymbolTableRecord
100
AcDbTextStyleTableRecord
  2
ACANSTS
 70
     0
 40
1.0
 41
1.0
 50
0.0
 71
     0
 42
3.5
  3
romans.shx
  4

  0
STYLE
  5
182
330
3
100
AcDbSymbolTableRecord
100
AcDbTextStyleTableRecord
  2
ACANSGDT
 70
     0
 40
0.0
 41
1.0
 50
0.0
 71
     0
 42
3.5
  3
amgdt.shx
  4

  0
STYLE
  5
25A
330
3
100
AcDbSymbolTableRecord
100
AcDbTextStyleTableRecord
  2
ACDINTS
 70
     0
 40
1.0
 41
1.0
 50
0.0
 71
     0
 42
3.5
  3
isocp.shx
  4

  0
STYLE
  5
269
330
3
100
AcDbSymbolTableRecord
100
AcDbTextStyleTableRecord
  2
ACDINGDT
 70
     0
 40
0.0
 41
1.0
 50
0.0
 71
     0
 42
3.5
  3
amgdt.shx
  4

  0
STYLE
  5
2A8
330
3
100
AcDbSymbolTableRecord
100
AcDbTextStyleTableRecord
  2

 70
     1
 40
0.0
 41
1.0
 50
0.0
 71
     0
 42
2.5
  3
genltshp.shx
  4

  0
STYLE
  5
3CB
330
3
100
AcDbSymbolTableRecord
100
AcDbTextStyleTableRecord
  2
ACISOTS
 70
     0
 40
1.0
 41
1.0
 50
0.0
 71
     0
 42
2.5
  3
ARIALN.TTF
  4

1001
ACAD
1000
Arial Narrow
1071
       34
  0
STYLE
  5
3CC
330
3
100
AcDbSymbolTableRecord
100
AcDbTextStyleTableRecord
  2
ACISOGDT
 70
     0
 40
0.0
 41
1.0
 50
0.0
 71
     0
 42
2.5
  3
amgdt.shx
  4

  0
STYLE
  5
4A84
330
3
100
AcDbSymbolTableRecord
100
AcDbTextStyleTableRecord
  2
Stil1
 70
     0
 40
0.0
 41
1.0
 50
0.0
 71
     0
 42
424.4729518289081
  3
ARIALUNI.TTF
  4

1001
ACAD
1000
@Arial Unicode MS
1071
       34
  0
STYLE
  5
4CBC
330
3
100
AcDbSymbolTableRecord
100
AcDbTextStyleTableRecord
  2

 70
     1
 40
0.0
 41
1.0
 50
0.0
 71
     0
 42
0.2
  3
ltypeshp.shx
  4

  0
ENDTAB
  0
TABLE
  2
VIEW
  5
6
330
0
100
AcDbSymbolTable
 70
     6
  0
VIEW
  5
51B
330
6
100
AcDbSymbolTableRecord
100
AcDbViewTableRecord
  2
AM_VIEW1
 70
     0
 40
148.5
 10
3674.146619540052
 20
7990.774115298922
 41
236.4739336492889
 11
0.0
 21
0.0
 31
1.0
 12
0.0
 22
0.0
 32
0.0
 42
50.0
 43
0.0
 44
0.0
 50
0.0
 71
     0
281
     0
 72
     0
 73
     0
  0
VIEW
  5
51C
330
6
100
AcDbSymbolTableRecord
100
AcDbViewTableRecord
  2
AM_VIEW2
 70
     0
 40
148.5
 10
3647.672685890763
 20
7990.774115298922
 41
236.4739336492889
 11
0.0
 21
0.0
 31
1.0
 12
0.0
 22
0.0
 32
0.0
 42
50.0
 43
0.0
 44
0.0
 50
0.0
 71
     0
281
     0
 72
     0
 73
     0
  0
VIEW
  5
51D
330
6
100
AcDbSymbolTableRecord
100
AcDbViewTableRecord
  2
AM_VIEW3
 70
     0
 40
148.5
 10
3674.146619540052
 20
7842.274115298922
 41
236.4739336492889
 11
0.0
 21
0.0
 31
1.0
 12
0.0
 22
0.0
 32
0.0
 42
50.0
 43
0.0
 44
0.0
 50
0.0
 71
     0
281
     0
 72
     0
 73
     0
  0
VIEW
  5
51E
330
6
100
AcDbSymbolTableRecord
100
AcDbViewTableRecord
  2
AM_VIEW4
 70
     0
 40
148.5
 10
3647.672685890763
 20
7842.274115298922
 41
236.4739336492889
 11
0.0
 21
0.0
 31
1.0
 12
0.0
 22
0.0
 32
0.0
 42
50.0
 43
0.0
 44
0.0
 50
0.0
 71
     0
281
     0
 72
     0
 73
     0
  0
VIEW
  5
51F
330
6
100
AcDbSymbolTableRecord
100
AcDbViewTableRecord
  2
AM_VIEW5
 70
     0
 40
148.5
 10
3660.909652715407
 20
7916.524115298923
 41
236.4739336492894
 11
0.0
 21
0.0
 31
1.0
 12
0.0
 22
0.0
 32
0.0
 42
50.0
 43
0.0
 44
0.0
 50
0.0
 71
     0
281
     0
 72
     0
 73
     0
  0
VIEW
  5
520
330
6
100
AcDbSymbolTableRecord
100
AcDbViewTableRecord
  2
AM_VIEW6
 70
     0
 40
296.9970300000004
 10
3660.909652715407
 20
7916.524115298923
 41
472.9431378199051
 11
0.0
 21
0.0
 31
1.0
 12
0.0
 22
0.0
 32
0.0
 42
50.0
 43
0.0
 44
0.0
 50
0.0
 71
     0
281
     0
 72
     0
 73
     0
  0
ENDTAB
  0
TABLE
  2
UCS
  5
7
330
0
100
AcDbSymbolTable
 70
     0
  0
ENDTAB
  0
TABLE
  2
APPID
  5
9
330
0
100
AcDbSymbolTable
 70
    73
  0
APPID
  5
5E
330
9
100
AcDbSymbolTableRecord
100
AcDbRegAppTableRecord
  2
ACAD
 70
     0
  0
APPID
  5
65
330
9
100
AcDbSymbolTableRecord
100
AcDbRegAppTableRecord
  2
AcadAnnotative
 70
     0
  0
APPID
  5
6F
330
9
100
AcDbSymbolTableRecord
100
AcDbRegAppTableRecord
  2
ACAD_MLEADERVER
 70
     0
  0
APPID
  5
111
330
9
100
AcDbSymbolTableRecord
100
AcDbRegAppTableRecord
  2
MCAD_NO_VIS
 70
     0
  0
APPID
  5
112
330
9
100
AcDbSymbolTableRecord
100
AcDbRegAppTableRecord
  2
ACAD_TEMP_GRAPHIC
 70
     0
  0
APPID
  5
141
330
9
100
AcDbSymbolTableRecord
100
AcDbRegAppTableRecord
  2
AD_DRAW
 70
     0
  0
APPID
  5
144
330
9
100
AcDbSymbolTableRecord
100
AcDbRegAppTableRecord
  2
ACATTRIBSERVICES
 70
     0
  0
APPID
  5
165
330
9
100
AcDbSymbolTableRecord
100
AcDbRegAppTableRecord
  2
DESIGNERASSEMBLIES
 70
     0
  0
APPID
  5
16B
330
9
100
AcDbSymbolTableRecord
100
AcDbRegAppTableRecord
  2
ACADM_DIM_EDIT
 70
     0
  0
APPID
  5
16C
330
9
100
AcDbSymbolTableRecord
100
AcDbRegAppTableRecord
  2
AMDT_DM_ADJ
 70
     0
  0
APPID
  5
1C8
330
9
100
AcDbSymbolTableRecord
100
AcDbRegAppTableRecord
  2
ACAD_DSTYLE_DIMARC_LENGTH_SYMBOL
 70
     0
  0
APPID
  5
24A
330
9
100
AcDbSymbolTableRecord
100
AcDbRegAppTableRecord
  2
AcAecLayerStandard
 70
     0
  0
APPID
  5
280
330
9
100
AcDbSymbolTableRecord
100
AcDbRegAppTableRecord
  2
ACAD_DSTYLE_DIMJOGGED_JOGANGLE_SYMBOL
 70
     0
  0
APPID
  5
281
330
9
100
AcDbSymbolTableRecord
100
AcDbRegAppTableRecord
  2
AcadAnnoPO
 70
     0
  0
APPID
  5
282
330
9
100
AcDbSymbolTableRecord
100
AcDbRegAppTableRecord
  2
ACAD_EXEMPT_FROM_CAD_STANDARDS
 70
     0
  0
APPID
  5
283
330
9
100
AcDbSymbolTableRecord
100
AcDbRegAppTableRecord
  2
GENIUS_GENODEF_13
 70
     0
  0
APPID
  5
284
330
9
100
AcDbSymbolTableRecord
100
AcDbRegAppTableRecord
  2
GENIUS_GENOBJ-N-CRS_13
 70
     0
  0
APPID
  5
285
330
9
100
AcDbSymbolTableRecord
100
AcDbRegAppTableRecord
  2
GENIUS_GENOENT_13
 70
     0
  0
APPID
  5
286
330
9
100
AcDbSymbolTableRecord
100
AcDbRegAppTableRecord
  2
GENIUS_GENOLIS_13
 70
     0
  0
APPID
  5
287
330
9
100
AcDbSymbolTableRecord
100
AcDbRegAppTableRecord
  2
GENIUS_GENOREF_13
 70
     0
  0
APPID
  5
288
330
9
100
AcDbSymbolTableRecord
100
AcDbRegAppTableRecord
  2
GEVID1190879659
 70
     0
  0
APPID
  5
289
330
9
100
AcDbSymbolTableRecord
100
AcDbRegAppTableRecord
  2
GEVDC
 70
     0
  0
APPID
  5
28A
330
9
100
AcDbSymbolTableRecord
100
AcDbRegAppTableRecord
  2
GENIUS_GENBH_13
 70
     0
  0
APPID
  5
28B
330
9
100
AcDbSymbolTableRecord
100
AcDbRegAppTableRecord
  2
GENIUS_GENOBJ-NBEHI-BHF_13
 70
     0
  0
APPID
  5
28C
330
9
100
AcDbSymbolTableRecord
100
AcDbRegAppTableRecord
  2
GENIUS_GENOBJ-NBEHI-BHB_13
 70
     0
  0
APPID
  5
28D
330
9
100
AcDbSymbolTableRecord
100
AcDbRegAppTableRecord
  2
GEVID1190879660
 70
     0
  0
APPID
  5
28E
330
9
100
AcDbSymbolTableRecord
100
AcDbRegAppTableRecord
  2
GEVID1190879661
 70
     0
  0
APPID
  5
28F
330
9
100
AcDbSymbolTableRecord
100
AcDbRegAppTableRecord
  2
ACAD_DSTYLE_DIMRADIAL_EXTENSION
 70
     0
  0
APPID
  5
290
330
9
100
AcDbSymbolTableRecord
100
AcDbRegAppTableRecord
  2
GEVID1190879662
 70
     0
  0
APPID
  5
291
330
9
100
AcDbSymbolTableRecord
100
AcDbRegAppTableRecord
  2
GEVID1190879663
 70
     0
  0
APPID
  5
292
330
9
100
AcDbSymbolTableRecord
100
AcDbRegAppTableRecord
  2
GEVID1190879664
 70
     0
  0
APPID
  5
293
330
9
100
AcDbSymbolTableRecord
100
AcDbRegAppTableRecord
  2
GEVID1190879665
 70
     0
  0
APPID
  5
294
330
9
100
AcDbSymbolTableRecord
100
AcDbRegAppTableRecord
  2
GEVID1190879666
 70
     0
  0
APPID
  5
295
330
9
100
AcDbSymbolTableRecord
100
AcDbRegAppTableRecord
  2
GENIUS_GENOBJ-N-CEN_13
 70
     0
  0
APPID
  5
296
330
9
100
AcDbSymbolTableRecord
100
AcDbRegAppTableRecord
  2
GENIUS_GENCEN_19
 70
     0
  0
APPID
  5
297
330
9
100
AcDbSymbolTableRecord
100
AcDbRegAppTableRecord
  2
GEVID1190879667
 70
     0
  0
APPID
  5
298
330
9
100
AcDbSymbolTableRecord
100
AcDbRegAppTableRecord
  2
GENIUS_GENOBJ-N-CRC_13
 70
     0
  0
APPID
  5
299
330
9
100
AcDbSymbolTableRecord
100
AcDbRegAppTableRecord
  2
GENIUS_GENCRC_14
 70
     0
  0
APPID
  5
29A
330
9
100
AcDbSymbolTableRecord
100
AcDbRegAppTableRecord
  2
ACAD_PSEXT
 70
     0
  0
APPID
  5
29B
330
9
100
AcDbSymbolTableRecord
100
AcDbRegAppTableRecord
  2
GEVID1190888456
 70
     0
  0
APPID
  5
29C
330
9
100
AcDbSymbolTableRecord
100
AcDbRegAppTableRecord
  2
GEVID1190888457
 70
     0
  0
APPID
  5
29D
330
9
100
AcDbSymbolTableRecord
100
AcDbRegAppTableRecord
  2
GEVID1190888458
 70
     0
  0
APPID
  5
29E
330
9
100
AcDbSymbolTableRecord
100
AcDbRegAppTableRecord
  2
GEVID1190888459
 70
     0
  0
APPID
  5
29F
330
9
100
AcDbSymbolTableRecord
100
AcDbRegAppTableRecord
  2
GEVID1190888460
 70
     0
  0
APPID
  5
2A0
330
9
100
AcDbSymbolTableRecord
100
AcDbRegAppTableRecord
  2
GEVID1190888461
 70
     0
  0
APPID
  5
2A1
330
9
100
AcDbSymbolTableRecord
100
AcDbRegAppTableRecord
  2
GEVID1190888462
 70
     0
  0
APPID
  5
2A2
330
9
100
AcDbSymbolTableRecord
100
AcDbRegAppTableRecord
  2
ACAD_DSTYLE_DIMJAG
 70
     0
  0
APPID
  5
2A3
330
9
100
AcDbSymbolTableRecord
100
AcDbRegAppTableRecord
  2
ACAD_DSTYLE_DIMTALN
 70
     0
  0
APPID
  5
390
330
9
100
AcDbSymbolTableRecord
100
AcDbRegAppTableRecord
  2
GENIUS_GENBLLY_14
 70
     0
  0
APPID
  5
3D5
330
9
100
AcDbSymbolTableRecord
100
AcDbRegAppTableRecord
  2
DCO15
 70
     0
  0
APPID
  5
3D6
330
9
100
AcDbSymbolTableRecord
100
AcDbRegAppTableRecord
  2
GENIUS_GENREC_14
 70
     0
  0
APPID
  5
3D7
330
9
100
AcDbSymbolTableRecord
100
AcDbRegAppTableRecord
  2
GENIUS_GENOBJ-N-REC_13
 70
     0
  0
APPID
  5
519
330
9
100
AcDbSymbolTableRecord
100
AcDbRegAppTableRecord
  2
GENIUS_GENOBJ-N-TIT_13
 70
     0
  0
APPID
  5
51A
330
9
100
AcDbSymbolTableRecord
100
AcDbRegAppTableRecord
  2
GENIUS_GENTITLE_13
 70
     0
  0
APPID
  5
521
330
9
100
AcDbSymbolTableRecord
100
AcDbRegAppTableRecord
  2
GENIUS_GENSCREG_15
 70
     0
  0
APPID
  5
522
330
9
100
AcDbSymbolTableRecord
100
AcDbRegAppTableRecord
  2
GENIUS_GENOBJ-N-SDF_13
 70
     0
  0
APPID
  5
5BA
330
9
100
AcDbSymbolTableRecord
100
AcDbRegAppTableRecord
  2
ACAD_DSTYLE_DIMINSPECT
 70
     0
  0
APPID
  5
986
330
9
100
AcDbSymbolTableRecord
100
AcDbRegAppTableRecord
  2
GENIUS_GENDIMSH_14
 70
     0
  0
APPID
  5
AFA
330
9
100
AcDbSymbolTableRecord
100
AcDbRegAppTableRecord
  2
GENIUS_GENOBJ-N-HTC_13
 70
     0
  0
APPID
  5
AFB
330
9
100
AcDbSymbolTableRecord
100
AcDbRegAppTableRecord
  2
GENIUS_GENHATCH_13
 70
     0
  0
APPID
  5
B3E
330
9
100
AcDbSymbolTableRecord
100
AcDbRegAppTableRecord
  2
ACAUTHENVIRON
 70
     0
  0
APPID
  5
B42
330
9
100
AcDbSymbolTableRecord
100
AcDbRegAppTableRecord
  2
AcDbDynamicBlockTrueName
 70
     0
  0
APPID
  5
B43
330
9
100
AcDbSymbolTableRecord
100
AcDbRegAppTableRecord
  2
AcDbDynamicBlockGUID
 70
     0
  0
APPID
  5
B45
330
9
100
AcDbSymbolTableRecord
100
AcDbRegAppTableRecord
  2
ACDBBLOCKREPETAG
 70
     0
  0
APPID
  5
10B2
330
9
100
AcDbSymbolTableRecord
100
AcDbRegAppTableRecord
  2
EAR3_SAP_ACAD
 70
     0
  0
APPID
  5
119F
330
9
100
AcDbSymbolTableRecord
100
AcDbRegAppTableRecord
  2
CADDESKTOPMDT
 70
     0
  0
APPID
  5
1317
330
9
100
AcDbSymbolTableRecord
100
AcDbRegAppTableRecord
  2
GENIUS_GENOBJ-N-FIL_13
 70
     0
  0
APPID
  5
299A
330
9
100
AcDbSymbolTableRecord
100
AcDbRegAppTableRecord
  2
GENIUS_GENTRA_14
 70
     0
  0
APPID
  5
4418
330
9
100
AcDbSymbolTableRecord
100
AcDbRegAppTableRecord
  2
GENIUS_GENDTOL_13
 70
     0
  0
APPID
  5
49BF
330
9
100
AcDbSymbolTableRecord
100
AcDbRegAppTableRecord
  2
GENIUS_AMGTXT_16
 70
     0
  0
APPID
  5
4C4C
330
9
100
AcDbSymbolTableRecord
100
AcDbRegAppTableRecord
  2
GENIUS_GENFIL_13
 70
     0
  0
APPID
  5
4C4D
330
9
100
AcDbSymbolTableRecord
100
AcDbRegAppTableRecord
  2
GENIUS_GENOBJ-N-CHA_13
 70
     0
  0
APPID
  5
5019
330
9
100
AcDbSymbolTableRecord
100
AcDbRegAppTableRecord
  2
ACAD_NAV_VCDISPLAY
 70
     0
  0
ENDTAB
  0
TABLE
  2
DIMSTYLE
  5
A
330
0
100
AcDbSymbolTable
 70
    31
100
AcDbDimStyleTable
 71
     5
340
4A7A
340
276
340
27B
340
27C
340
3CE
  0
DIMSTYLE
105
18F
330
A
100
AcDbSymbolTableRecord
100
AcDbDimStyleTableRecord
  2
AM_ANSI
 70
     0
  4
mm
 41
0.1
 42
0.05
 43
0.5
 44
0.1
 47
0.1
 48
0.1
 78
     7
 79
     2
 90
     1
140
0.12
141
0.0
146
0.71
147
0.06
176
   256
177
   256
178
     2
274
     4
284
     7
340
5D
371
    -1
372
    -1
  0
DIMSTYLE
105
190
330
A
100
AcDbSymbolTableRecord
100
AcDbDimStyleTableRecord
  2
AM_ANSI$3
 70
     0
  4
mm
 41
0.1
 42
0.05
 43
0.5
 44
0.1
 47
0.1
 48
0.1
 78
     7
 79
     2
 90
     1
140
0.12
141
0.0
146
0.71
147
0.06
176
   256
177
   256
178
     2
274
     4
284
     7
288
     1
289
     0
340
5D
371
    -1
372
    -1
  0
DIMSTYLE
105
191
330
A
100
AcDbSymbolTableRecord
100
AcDbDimStyleTableRecord
  2
AM_ANSI$4
 70
     0
  4
mm
 41
0.1
 42
0.05
 43
0.5
 44
0.1
 47
0.1
 48
0.1
 78
     7
 79
     2
 90
     1
140
0.12
141
0.0
146
0.71
147
0.06
176
   256
177
   256
178
     2
274
     4
284
     7
288
     1
289
     0
340
5D
371
    -1
372
    -1
  0
DIMSTYLE
105
192
330
A
100
AcDbSymbolTableRecord
100
AcDbDimStyleTableRecord
  2
AM_ANSI$7
 70
     0
  4
mm
 41
0.1
 42
0.05
 43
0.5
 44
0.1
 47
0.1
 48
0.1
 78
     7
 79
     2
 90
     1
140
0.24
141
0.0
146
0.71
147
0.06
176
   256
177
   256
178
     2
274
     4
284
     7
340
5D
371
    -1
372
    -1
  0
DIMSTYLE
105
193
330
A
100
AcDbSymbolTableRecord
100
AcDbDimStyleTableRecord
  2
AM_ANSI$SF
 70
     0
  4
mm
 41
0.1
 42
0.05
 43
0.5
 44
0.1
 47
0.1
 48
0.1
 75
     1
 76
     1
 78
     7
 79
     2
 90
     1
140
0.12
141
0.0
146
0.71
147
0.06
176
   256
177
   256
178
     2
274
     4
284
     7
340
5D
371
    -1
372
    -1
  0
DIMSTYLE
105
198
330
A
100
AcDbSymbolTableRecord
100
AcDbDimStyleTableRecord
  2
AM_ANSI$SH
 70
     0
  4
mm
 41
0.1
 42
0.05
 43
0.5
 44
0.1
 47
0.1
 48
0.1
 75
     1
 76
     1
 78
     7
 79
     2
 90
     1
140
0.12
141
0.0
146
0.71
147
0.06
173
     1
176
   256
177
   256
178
     2
274
     4
284
     7
340
5D
343
194
371
    -1
372
    -1
  0
DIMSTYLE
105
276
330
A
100
AcDbSymbolTableRecord
100
AcDbDimStyleTableRecord
  2
AM_DIN
 70
     0
  4
"
 41
5.0
 42
1.0
 43
10.0
 44
1.0
 47
0.1
 48
0.1
 50
90.0
 73
     0
 74
     0
 77
     1
 78
     8
 79
     2
140
5.0
141
0.0
143
0.0393701
146
0.71
147
1.5
172
     1
176
   256
177
   256
178
     2
271
     2
272
     2
283
     0
284
     8
340
5D
371
    -1
372
    -1
  0
DIMSTYLE
105
277
330
A
100
AcDbSymbolTableRecord
100
AcDbDimStyleTableRecord
  2
AM_DIN$3
 70
     0
  4
"
 41
3.5
 42
1.0
 43
10.0
 44
1.0
 47
0.1
 48
0.1
 50
90.0
 73
     0
 77
     1
 78
     8
 79
     2
140
3.5
141
0.0
143
0.0393701
146
0.71
147
1.5
176
   256
177
   256
178
     2
271
     2
272
     2
283
     0
284
     8
288
     1
289
     0
340
5D
371
    -1
372
    -1
  0
DIMSTYLE
105
278
330
A
100
AcDbSymbolTableRecord
100
AcDbDimStyleTableRecord
  2
AM_DIN$4
 70
     0
  4
"
 41
4.0
 42
1.0
 43
10.0
 44
1.0
 47
0.1
 48
0.1
 50
90.0
 73
     0
 77
     1
 78
     8
 79
     2
140
3.5
141
0.0
143
0.0393701
146
0.71
147
1.5
176
   256
177
   256
178
     2
271
     2
272
     2
283
     0
284
     8
288
     1
289
     0
340
5D
371
    -1
372
    -1
  0
DIMSTYLE
105
279
330
A
100
AcDbSymbolTableRecord
100
AcDbDimStyleTableRecord
  2
AM_DIN$6
 70
     0
  4
"
 41
4.0
 42
0.0
 43
10.0
 44
1.0
 47
0.1
 48
0.1
 50
90.0
 73
     0
 74
     0
 78
     8
 79
     2
140
3.5
141
0.0
143
0.0393701
146
0.71
147
1.5
172
     1
176
   256
177
   256
178
     2
271
     2
272
     2
283
     0
284
     8
340
5D
371
    -1
372
    -1
  0
DIMSTYLE
105
27A
330
A
100
AcDbSymbolTableRecord
100
AcDbDimStyleTableRecord
  2
AM_DIN$7
 70
     0
  4
"
 41
4.0
 42
1.0
 43
10.0
 44
1.0
 47
0.1
 48
0.1
 50
90.0
 73
     0
 74
     0
 77
     1
 78
     8
 79
     2
140
5.0
141
0.0
143
0.0393701
146
0.71
147
1.5
172
     1
176
   256
177
   256
178
     2
271
     2
272
     2
283
     0
284
     8
340
5D
371
    -1
372
    -1
  0
DIMSTYLE
105
27B
330
A
100
AcDbSymbolTableRecord
100
AcDbDimStyleTableRecord
  2
AM_DIN$SF
 70
     0
  4
"
 41
4.0
 42
1.0
 43
10.0
 44
1.0
 47
0.1
 48
0.1
 50
90.0
 73
     0
 74
     0
 75
     1
 76
     1
 77
     1
 78
     8
 79
     2
140
3.5
141
0.0
143
0.0393701
146
0.71
147
1.5
172
     1
176
   256
177
   256
178
     2
271
     2
272
     2
283
     0
284
     8
340
5D
371
    -1
372
    -1
  0
DIMSTYLE
105
27C
330
A
100
AcDbSymbolTableRecord
100
AcDbDimStyleTableRecord
  2
AM_DIN$SH
 70
     0
  4
"
 41
4.0
 42
1.0
 43
10.0
 44
1.0
 47
0.1
 48
0.1
 50
90.0
 73
     0
 74
     0
 75
     1
 76
     1
 77
     1
 78
     8
 79
     2
140
3.5
141
0.0
143
0.0393701
144
2.0
146
0.71
147
1.5
172
     1
173
     1
176
   256
177
   256
178
     2
271
     2
272
     2
283
     0
284
     8
340
5D
343
194
371
    -1
372
    -1
  0
DIMSTYLE
105
32F
330
A
100
AcDbSymbolTableRecord
100
AcDbDimStyleTableRecord
  2
AM_DIN$0
 70
     0
  4
"
 41
4.0
 42
0.0
 43
10.0
 44
1.0
 47
0.1
 48
0.1
 50
90.0
 73
     0
 74
     0
 77
     1
 78
     8
 79
     2
140
3.5
141
0.0
143
0.0393701
146
0.71
147
1.5
172
     1
176
   256
177
   256
178
     2
271
     2
272
     2
283
     0
284
     8
340
5D
371
    -1
372
    -1
  0
DIMSTYLE
105
330
330
A
100
AcDbSymbolTableRecord
100
AcDbDimStyleTableRecord
  2
AM_DIN$2
 70
     0
  4
"
 41
4.0
 42
0.0
 43
10.0
 44
1.0
 47
0.1
 48
0.1
 50
90.0
 73
     0
 74
     0
 77
     1
 78
     8
 79
     2
140
3.5
141
0.0
143
0.0393701
146
0.71
147
1.5
172
     1
176
   256
177
   256
178
     2
271
     2
272
     2
283
     0
284
     8
340
5D
371
    -1
372
    -1
  0
DIMSTYLE
105
3CE
330
A
100
AcDbSymbolTableRecord
100
AcDbDimStyleTableRecord
  2
AM_ISO
 70
     0
  4
"
 41
2.5
 42
1.0
 43
10.0
 44
1.0
 47
0.1
 48
0.1
 73
     0
 74
     0
 77
     1
 78
     8
 79
     2
 90
     1
140
3.5
141
0.0
143
0.0393701
146
0.71
147
1.5
172
     1
176
   256
177
   256
178
     2
271
     2
272
     3
274
     4
283
     0
284
     8
340
5D
371
    -1
372
    -1
1001
ACAD_DSTYLE_DIMJOGGED_JOGANGLE_SYMBOL
1070
   384
1040
0.7853981633974483
  0
DIMSTYLE
105
3CF
330
A
100
AcDbSymbolTableRecord
100
AcDbDimStyleTableRecord
  2
AM_ISO$3
 70
     0
  4
"
 41
2.5
 42
1.0
 43
10.0
 44
1.0
 47
0.1
 48
0.1
 73
     0
 77
     1
 78
     8
 79
     2
 90
     1
140
3.5
141
0.0
143
0.0393701
146
0.71
147
1.5
176
   256
177
   256
178
     2
271
     2
272
     3
274
     4
283
     0
284
     8
288
     1
289
     0
340
5D
371
    -1
372
    -1
1001
ACAD_DSTYLE_DIMJOGGED_JOGANGLE_SYMBOL
1070
   384
1040
0.7853981633974483
  0
DIMSTYLE
105
3D0
330
A
100
AcDbSymbolTableRecord
100
AcDbDimStyleTableRecord
  2
AM_ISO$4
 70
     0
  4
"
 41
2.5
 42
1.0
 43
10.0
 44
1.0
 47
0.1
 48
0.1
 73
     0
 77
     1
 78
     8
 79
     2
 90
     1
140
3.5
141
0.0
143
0.0393701
146
0.71
147
1.5
176
   256
177
   256
178
     2
271
     2
272
     3
274
     4
283
     0
284
     8
288
     1
289
     0
340
5D
371
    -1
372
    -1
1001
ACAD_DSTYLE_DIMJOGGED_JOGANGLE_SYMBOL
1070
   384
1040
0.7853981633974483
  0
DIMSTYLE
105
3D1
330
A
100
AcDbSymbolTableRecord
100
AcDbDimStyleTableRecord
  2
AM_ISO$6
 70
     0
  4
"
 41
2.5
 42
1.0
 43
10.0
 44
1.0
 47
0.1
 48
0.1
 73
     0
 74
     0
 78
     8
 79
     2
 90
     1
140
3.5
141
0.0
143
0.0393701
146
0.71
147
1.5
172
     1
176
   256
177
   256
178
     2
271
     2
272
     3
274
     4
283
     0
284
     8
340
5D
371
    -1
372
    -1
1001
ACAD_DSTYLE_DIMJOGGED_JOGANGLE_SYMBOL
1070
   384
1040
0.7853981633974483
  0
DIMSTYLE
105
3D2
330
A
100
AcDbSymbolTableRecord
100
AcDbDimStyleTableRecord
  2
AM_ISO$7
 70
     0
  4
"
 41
2.5
 42
1.0
 43
10.0
 44
1.0
 47
0.1
 48
0.1
 73
     0
 74
     0
 77
     1
 78
     8
 79
     2
 90
     1
140
5.0
141
0.0
143
0.0393701
146
0.71
147
1.5
172
     1
176
   256
177
   256
178
     2
271
     2
272
     3
274
     4
283
     0
284
     8
340
5D
371
    -1
372
    -1
1001
ACAD_DSTYLE_DIMJOGGED_JOGANGLE_SYMBOL
1070
   384
1040
0.7853981633974483
  0
DIMSTYLE
105
3D3
330
A
100
AcDbSymbolTableRecord
100
AcDbDimStyleTableRecord
  2
AM_ISO$SF
 70
     0
  4
"
 41
2.5
 42
1.0
 43
10.0
 44
1.0
 47
0.1
 48
0.1
 73
     0
 74
     0
 75
     1
 76
     1
 77
     1
 78
     8
 79
     2
 90
     1
140
3.5
141
0.0
143
0.0393701
146
0.71
147
1.5
172
     1
176
   256
177
   256
178
     2
271
     2
272
     3
274
     4
283
     0
284
     8
340
5D
371
    -1
372
    -1
1001
ACAD_DSTYLE_DIMJOGGED_JOGANGLE_SYMBOL
1070
   384
1040
0.7853981633974483
  0
DIMSTYLE
105
3D4
330
A
100
AcDbSymbolTableRecord
100
AcDbDimStyleTableRecord
  2
AM_ISO$SH
 70
     0
  4
"
 41
2.5
 42
1.0
 43
10.0
 44
1.0
 47
0.1
 48
0.1
 73
     0
 74
     0
 75
     1
 76
     1
 77
     1
 78
     8
 79
     2
 90
     1
140
3.5
141
0.0
143
0.0393701
144
2.0
146
0.71
147
1.5
172
     1
173
     1
176
   256
177
   256
178
     2
271
     2
272
     3
274
     4
283
     0
284
     8
340
5D
343
194
371
    -1
372
    -1
1001
ACAD_DSTYLE_DIMJOGGED_JOGANGLE_SYMBOL
1070
   384
1040
0.7853981633974483
  0
DIMSTYLE
105
115A
102
{ACAD_REACTORS
330
259
102
}
330
A
100
AcDbSymbolTableRecord
100
AcDbDimStyleTableRecord
  2
STANDARD
 70
     0
 41
2.68
140
3.5
178
     6
340
5D
  0
DIMSTYLE
105
4A7A
330
A
100
AcDbSymbolTableRecord
100
AcDbDimStyleTableRecord
  2
BENUTZERDEFINIERTE NORM
 70
     0
  4
"
 40
5.0
 41
2.5
 42
0.0
 43
10.0
 44
1.0
 47
0.1
 48
0.1
 50
90.0
 73
     0
 74
     0
 77
     1
 78
     8
 79
     2
140
3.5
141
0.0
143
0.0393701
146
0.71
147
1.5
172
     1
176
   256
177
   256
178
     6
271
     2
272
     2
283
     0
284
     8
340
5D
371
    -1
372
    -1
1001
ACAD_DSTYLE_DIMJAG
1070
   388
1040
1.5
1001
ACAD_DSTYLE_DIMTALN
1070
   392
1070
     0
  0
DIMSTYLE
105
4A7B
330
A
100
AcDbSymbolTableRecord
100
AcDbDimStyleTableRecord
  2
BENUTZERDEFINIERTE NORM$3
 70
     0
  4
"
 40
5.0
 41
2.5
 42
0.0
 43
10.0
 44
1.0
 47
0.1
 48
0.1
 50
90.0
 73
     0
 77
     1
 78
     8
 79
     2
140
3.5
141
0.0
143
0.0393701
146
0.71
147
1.5
176
   256
177
   256
178
     6
271
     2
272
     2
283
     0
284
     8
288
     1
289
     0
340
5D
371
    -1
372
    -1
  0
DIMSTYLE
105
4A7C
330
A
100
AcDbSymbolTableRecord
100
AcDbDimStyleTableRecord
  2
BENUTZERDEFINIERTE NORM$4
 70
     0
  4
"
 40
5.0
 41
2.5
 42
0.0
 43
10.0
 44
1.0
 47
0.1
 48
0.1
 50
90.0
 73
     0
 77
     1
 78
     8
 79
     2
140
3.5
141
0.0
143
0.0393701
146
0.71
147
1.5
176
   256
177
   256
178
     6
271
     2
272
     2
283
     0
284
     8
288
     1
289
     0
340
5D
371
    -1
372
    -1
  0
DIMSTYLE
105
4A7D
330
A
100
AcDbSymbolTableRecord
100
AcDbDimStyleTableRecord
  2
BENUTZERDEFINIERTE NORM$6
 70
     0
  4
"
 40
5.0
 41
2.5
 42
0.0
 43
10.0
 44
1.0
 47
0.1
 48
0.1
 50
90.0
 73
     0
 74
     0
 78
     8
 79
     2
140
3.5
141
0.0
143
0.0393701
146
0.71
147
1.5
172
     1
176
   256
177
   256
178
     6
271
     2
272
     2
283
     0
284
     8
340
5D
371
    -1
372
    -1
  0
DIMSTYLE
105
4A7E
330
A
100
AcDbSymbolTableRecord
100
AcDbDimStyleTableRecord
  2
BENUTZERDEFINIERTE NORM$7
 70
     0
  4
"
 40
5.0
 41
2.5
 42
0.0
 43
10.0
 44
1.0
 47
0.1
 48
0.1
 50
90.0
 73
     0
 74
     0
 77
     1
 78
     8
 79
     2
140
5.0
141
0.0
143
0.0393701
146
0.71
147
1.5
172
     1
176
   256
177
   256
178
     6
271
     2
272
     2
283
     0
284
     8
340
5D
371
    -1
372
    -1
  0
DIMSTYLE
105
4A7F
330
A
100
AcDbSymbolTableRecord
100
AcDbDimStyleTableRecord
  2
BENUTZERDEFINIERTE NORM$SF
 70
     0
  4
"
 40
5.0
 41
2.5
 42
1.0
 43
10.0
 44
1.0
 47
0.1
 48
0.1
 50
90.0
 73
     0
 74
     0
 75
     1
 76
     1
 77
     1
 78
     8
 79
     2
140
3.5
141
0.0
143
0.0393701
146
0.71
147
1.5
172
     1
176
   256
177
   256
178
     6
271
     2
272
     3
274
     4
283
     0
284
     8
340
5D
371
    -1
372
    -1
  0
DIMSTYLE
105
4A80
330
A
100
AcDbSymbolTableRecord
100
AcDbDimStyleTableRecord
  2
BENUTZERDEFINIERTE NORM$SH
 70
     0
  4
"
 40
5.0
 41
2.5
 42
1.0
 43
10.0
 44
1.0
 47
0.1
 48
0.1
 50
90.0
 73
     0
 74
     0
 75
     1
 76
     1
 77
     1
 78
     8
 79
     2
140
3.5
141
0.0
143
0.0393701
144
2.0
146
0.71
147
1.5
172
     1
173
     1
176
   256
177
   256
178
     6
271
     2
272
     3
274
     4
283
     0
284
     8
340
5D
343
194
371
    -1
372
    -1
  0
DIMSTYLE
105
4B76
102
{ACAD_REACTORS
330
4DDB
330
4E0E
330
4EB2
330
4EEE
330
4F86
330
50F1
102
}
330
A
100
AcDbSymbolTableRecord
100
AcDbDimStyleTableRecord
  2
BENUTZERDEFINIERTE NORM$0
 70
     0
  4
"
 40
5.0
 41
2.5
 42
0.0
 43
10.0
 44
1.0
 47
0.1
 48
0.1
 50
90.0
 73
     0
 74
     0
 77
     1
 78
     8
 79
     2
140
3.5
141
0.0
143
0.0393701
146
0.71
147
1.5
172
     1
176
   256
177
   256
178
     6
271
     2
272
     2
283
     0
284
     8
340
5D
371
    -1
372
    -1
  0
ENDTAB
  0
TABLE
  2
BLOCK_RECORD
  5
1
330
0
100
AcDbSymbolTable
 70
    19
  0
BLOCK_RECORD
  5
74
102
{ACAD_XDICTIONARY
360
A88
102
}
330
1
100
AcDbSymbolTableRecord
100
AcDbBlockTableRecord
  2
*Model_Space
340
77
 70
     0
280
     1
281
     0
  0
BLOCK_RECORD
  5
70
330
1
100
AcDbSymbolTableRecord
100
AcDbBlockTableRecord
  2
*Paper_Space
340
73
 70
     0
280
     1
281
     0
  0
BLOCK_RECORD
  5
194
330
1
100
AcDbSymbolTableRecord
100
AcDbBlockTableRecord
  2
GENAXEH
340
0
310
2800000020000000200000000100080000000000000400000000000000000000000000000000000000000000000080000080000000808000800000008000800080800000C0C0C000C0DCC000F0CAA6000020400000206000002080000020A0000020C0000020E00000400000004020000040400000406000004080000040A0
310
000040C0000040E00000600000006020000060400000606000006080000060A0000060C0000060E00000800000008020000080400000806000008080000080A0000080C0000080E00000A0000000A0200000A0400000A0600000A0800000A0A00000A0C00000A0E00000C0000000C0200000C0400000C0600000C0800000C0
310
A00000C0C00000C0E00000E0000000E0200000E0400000E0600000E0800000E0A00000E0C00000E0E00040000000400020004000400040006000400080004000A0004000C0004000E00040200000402020004020400040206000402080004020A0004020C0004020E000404000004040200040404000404060004040800040
310
40A0004040C0004040E00040600000406020004060400040606000406080004060A0004060C0004060E00040800000408020004080400040806000408080004080A0004080C0004080E00040A0000040A0200040A0400040A0600040A0800040A0A00040A0C00040A0E00040C0000040C0200040C0400040C0600040C08000
310
40C0A00040C0C00040C0E00040E0000040E0200040E0400040E0600040E0800040E0A00040E0C00040E0E00080000000800020008000400080006000800080008000A0008000C0008000E00080200000802020008020400080206000802080008020A0008020C0008020E00080400000804020008040400080406000804080
310
008040A0008040C0008040E00080600000806020008060400080606000806080008060A0008060C0008060E00080800000808020008080400080806000808080008080A0008080C0008080E00080A0000080A0200080A0400080A0600080A0800080A0A00080A0C00080A0E00080C0000080C0200080C0400080C0600080C0
310
800080C0A00080C0C00080C0E00080E0000080E0200080E0400080E0600080E0800080E0A00080E0C00080E0E000C0000000C0002000C0004000C0006000C0008000C000A000C000C000C000E000C0200000C0202000C0204000C0206000C0208000C020A000C020C000C020E000C0400000C0402000C0404000C0406000C0
310
408000C040A000C040C000C040E000C0600000C0602000C0604000C0606000C0608000C060A000C060C000C060E000C0800000C0802000C0804000C0806000C0808000C080A000C080C000C080E000C0A00000C0A02000C0A04000C0A06000C0A08000C0A0A000C0A0C000C0A0E000C0C00000C0C02000C0C04000C0C06000
310
C0C08000C0C0A000F0FBFF00A4A0A000808080000000FF0000FF000000FFFF00FF000000FF00FF00FFFF0000FFFFFF0000000000000000000000000000000000000000000000000000000000000000000000000000000000000000000000000000000000000000000000000000000000000000000000000000000000000000
310
00000000000000000000000000000000000000000000000000000000000000000000000000000000000000000000000000000000000000000000000000000000000000000000000000000000000000000000000000000000000000000000000000000000000000000000000000000000000000000000000000000000000000
310
00000000000000000000000000000000000000000000000000000000000000000000000000000000000000000000000000000000000000000000000000000000000000000000000000000000000000000000000000000000000000000000000000000000000000000000000000000000000000000000000000000000000000
310
00000000000000000000000000000000000000000000000000000000000000000000000000000000000000000000000000000000000000000000000000000000000000000000000000000000000000000000000000000000000000000000000000000000000000000000000000000000000000000000000000000000000000
310
0000000000000000000000000000000000000000000000000000000000000000000000000000000000000000000000000000000000FFFFFFFFFFFFFFFFFFFFFFFFFFFFFFFFFFFFFFFFFFFFFFFFFFFFFFFFFFFF0000000000000000000000000000000000000000000000000000000000000000000000000000000000000000
310
00000000000000000000000000000000000000000000000000000000000000000000000000000000000000000000000000000000000000000000000000000000000000000000000000000000000000000000000000000000000000000000000000000000000000000000000000000000000000000000000000000000000000
310
00000000000000000000000000000000000000000000000000000000000000000000000000000000000000000000000000000000000000000000000000000000000000000000000000000000000000000000000000000000000000000000000000000000000000000000000000000000000000000000000000000000000000
310
00000000000000000000000000000000000000000000000000000000000000000000000000000000000000000000000000000000000000000000000000000000000000000000000000000000000000000000000000000000000000000000000000000000000000000000000000000000000000000000000000000000000000
310
0000000000000000000000000000000000000000000000000000000000000000000000000000000000000000000000000000000000000000
 70
     0
280
     1
281
     0
  0
BLOCK_RECORD
  5
4CBD
330
1
100
AcDbSymbolTableRecord
100
AcDbBlockTableRecord
  2
DIN_A4
340
0
 70
     0
280
     1
281
     0
  0
BLOCK_RECORD
  5
4CD5
102
{ACAD_XDICTIONARY
360
4D51
102
}
330
1
100
AcDbSymbolTableRecord
100
AcDbBlockTableRecord
  2
OASESAP8
340
0
 70
     0
280
     1
281
     0
  0
BLOCK_RECORD
  5
4D97
330
1
100
AcDbSymbolTableRecord
100
AcDbBlockTableRecord
  2
*D4
340
0
 70
     0
280
     1
281
     0
  0
BLOCK_RECORD
  5
4DDC
330
1
100
AcDbSymbolTableRecord
100
AcDbBlockTableRecord
  2
*D5
340
0
 70
     0
280
     1
281
     0
  0
BLOCK_RECORD
  5
4E0F
330
1
100
AcDbSymbolTableRecord
100
AcDbBlockTableRecord
  2
*D6
340
0
 70
     0
280
     1
281
     0
  0
BLOCK_RECORD
  5
4EB3
330
1
100
AcDbSymbolTableRecord
100
AcDbBlockTableRecord
  2
*D8
340
0
 70
     0
280
     1
281
     0
  0
BLOCK_RECORD
  5
4EEF
330
1
100
AcDbSymbolTableRecord
100
AcDbBlockTableRecord
  2
*D9
340
0
 70
     0
280
     1
281
     0
  0
BLOCK_RECORD
  5
4F2B
330
1
100
AcDbSymbolTableRecord
100
AcDbBlockTableRecord
  2
*D10
340
0
 70
     0
280
     1
281
     0
  0
BLOCK_RECORD
  5
4F87
330
1
100
AcDbSymbolTableRecord
100
AcDbBlockTableRecord
  2
*D11
340
0
 70
     0
280
     1
281
     0
  0
BLOCK_RECORD
  5
4FBA
330
1
100
AcDbSymbolTableRecord
100
AcDbBlockTableRecord
  2
*D12
340
0
 70
     0
280
     1
281
     0
  0
BLOCK_RECORD
  5
50F2
330
1
100
AcDbSymbolTableRecord
100
AcDbBlockTableRecord
  2
*D13
340
0
 70
     0
280
     1
281
     0
  0
BLOCK_RECORD
  5
5255
330
1
100
AcDbSymbolTableRecord
100
AcDbBlockTableRecord
  2
_ACMFILLED15
340
0
 70
     0
280
     1
281
     0
  0
BLOCK_RECORD
  5
5263
330
1
100
AcDbSymbolTableRecord
100
AcDbBlockTableRecord
  2
_ACMNONE
340
0
 70
     0
280
     1
281
     0
  0
BLOCK_RECORD
  5
5267
330
1
100
AcDbSymbolTableRecord
100
AcDbBlockTableRecord
  2
_ACMFILLED
340
0
 70
     0
280
     1
281
     0
  0
BLOCK_RECORD
  5
5271
330
1
100
AcDbSymbolTableRecord
100
AcDbBlockTableRecord
  2
_ACMFILLEDHALF
340
0
 70
     0
280
     1
281
     0
  0
BLOCK_RECORD
  5
5295
330
1
100
AcDbSymbolTableRecord
100
AcDbBlockTableRecord
  2
_ACMFILLED30
340
0
 70
     0
280
     1
281
     0
  0
ENDTAB
  0
ENDSEC
  0
SECTION
  2
BLOCKS
  0
BLOCK
  5
75
330
74
100
AcDbEntity
  8
0
100
AcDbBlockBegin
  2
*Model_Space
 70
     0
 10
0.0
 20
0.0
 30
0.0
  3
*Model_Space
  1

  0
ENDBLK
  5
76
330
74
100
AcDbEntity
  8
0
100
AcDbBlockEnd
  0
BLOCK
  5
71
330
70
100
AcDbEntity
 67
     1
  8
0
100
AcDbBlockBegin
  2
*Paper_Space
 70
     0
 10
0.0
 20
0.0
 30
0.0
  3
*Paper_Space
  1

  0
ENDBLK
  5
72
330
70
100
AcDbEntity
 67
     1
  8
0
100
AcDbBlockEnd
  0
BLOCK
  5
196
330
194
100
AcDbEntity
  8
0
100
AcDbBlockBegin
  2
GENAXEH
 70
     0
 10
0.0
 20
0.0
 30
0.0
  3
GENAXEH
  1

  0
LINE
  5
195
330
194
100
AcDbEntity
  8
0
100
AcDbLine
 10
-1.0
 20
0.0
 30
0.0
 11
1.0
 21
0.0
 31
0.0
  0
ENDBLK
  5
197
330
194
100
AcDbEntity
  8
0
100
AcDbBlockEnd
  0
BLOCK
  5
4CCA
330
4CBD
100
AcDbEntity
  8
0
100
AcDbBlockBegin
  2
DIN_A4
 70
     0
 10
0.0
 20
0.0
 30
0.0
  3
DIN_A4
  1

  0
LINE
  5
4CBE
330
4CBD
100
AcDbEntity
  8
AM_BOR ( Zeichnungsrahmen)
 62
     7
370
    25
100
AcDbLine
 10
0.0
 20
0.0
 30
0.0
 11
210.0
 21
0.0
 31
0.0
  0
LINE
  5
4CBF
330
4CBD
100
AcDbEntity
  8
AM_BOR ( Zeichnungsrahmen)
 62
     7
370
    25
100
AcDbLine
 10
210.0
 20
297.0
 30
0.0
 11
0.0
 21
297.0
 31
0.0
  0
LINE
  5
4CC0
330
4CBD
100
AcDbEntity
  8
AM_BOR ( Zeichnungsrahmen)
 62
     7
370
    25
100
AcDbLine
 10
0.0
 20
297.0
 30
0.0
 11
0.0
 21
0.0
 31
0.0
  0
LINE
  5
4CC1
330
4CBD
100
AcDbEntity
  8
0
370
    50
100
AcDbLine
 10
10.0
 20
5.0
 30
0.0
 11
205.0
 21
5.0
 31
0.0
  0
LINE
  5
4CC2
330
4CBD
100
AcDbEntity
  8
AM_BOR ( Zeichnungsrahmen)
 62
     7
370
    25
100
AcDbLine
 10
205.0
 20
292.0
 30
0.0
 11
10.0
 21
292.0
 31
0.0
  0
LINE
  5
4CC3
330
4CBD
100
AcDbEntity
  8
AM_BOR ( Zeichnungsrahmen)
 62
     7
370
    25
100
AcDbLine
 10
10.0
 20
5.0
 30
0.0
 11
10.0
 21
292.0
 31
0.0
  0
TEXT
  5
4CC4
330
4CBD
100
AcDbEntity
  8
0
 60
     1
100
AcDbText
 10
210.0
 20
297.0
 30
0.0
 40
3.5
  1
!GENTITLE-MAX
  7
ACDINTS
100
AcDbText
  0
TEXT
  5
4CC5
330
4CBD
100
AcDbEntity
  8
0
 60
     1
100
AcDbText
 10
205.0
 20
287.0
 30
0.0
 40
3.5
  1
!GENTITLE-RU
  7
ACDINTS
100
AcDbText
  0
TEXT
  5
4CC6
330
4CBD
100
AcDbEntity
  8
0
 60
     1
100
AcDbText
 10
15.0
 20
59.99
 30
0.0
 40
3.5
  1
!GENTITLE-LL
  7
ACDINTS
100
AcDbText
  0
TEXT
  5
4CC7
330
4CBD
100
AcDbEntity
  8
0
 60
     1
100
AcDbText
 10
205.0
 20
5.0
 30
0.0
 40
3.5
  1
!GENTITLE-INSERT
  7
ACDINTS
100
AcDbText
  0
LINE
  5
4CC8
330
4CBD
100
AcDbEntity
  8
AM_BOR ( Zeichnungsrahmen)
 62
     7
370
    25
100
AcDbLine
 10
210.0
 20
0.0
 30
0.0
 11
210.0
 21
297.0
 31
0.0
  0
LINE
  5
4CC9
330
4CBD
100
AcDbEntity
  8
0
370
    50
100
AcDbLine
 10
205.0
 20
292.0
 30
0.0
 11
205.0
 21
5.0
 31
0.0
  0
ENDBLK
  5
4CCB
330
4CBD
100
AcDbEntity
  8
0
100
AcDbBlockEnd
  0
BLOCK
  5
4D53
330
4CD5
100
AcDbEntity
  8
0
100
AcDbBlockBegin
  2
OASESAP8
 70
     2
 10
0.0
 20
0.0
 30
0.0
  3
OASESAP8
  1

  0
LINE
  5
4CD6
330
4CD5
100
AcDbEntity
  8
AM_BOR
100
AcDbLine
 10
-185.3400019824074
 20
33.77777828507033
 30
0.0
 11
-122.0000018322025
 21
33.77777828507033
 31
0.0
1001
ACDBBLOCKREPETAG
1070
     1
1071
        0
1005
4CD6
  0
TEXT
  5
4CD7
330
4CD5
100
AcDbEntity
  8
AM_BOR
100
AcDbText
 10
-130.884127702302
 20
1.441833153863171
 30
0.0
 40
1.6
  1
OASE GmbH Fountain Technology
 41
1.199999999999999
100
AcDbText
1001
ACDBBLOCKREPETAG
1070
     1
1071
        1
1005
4CD7
  0
TEXT
  5
4CD8
330
4CD5
100
AcDbEntity
  8
AM_BOR
100
AcDbText
 10
-87.82273727668412
 20
58.20037405680993
 30
0.0
 40
1.440000021626625
  1
Projekt
 41
1.199999999999999
100
AcDbText
1001
ACDBBLOCKREPETAG
1070
     1
1071
        2
1005
4CD8
  0
TEXT
  5
4CD9
330
4CD5
100
AcDbEntity
  8
AM_BOR
100
AcDbText
 10
-151.3560218411947
 20
41.68146972886051
 30
0.0
 40
1.600000024029584
  1
Eckenbearbeitung nach DIN 6784
 41
1.199999999999999
100
AcDbText
1001
ACDBBLOCKREPETAG
1070
     1
1071
        6
1005
4CD9
  0
LINE
  5
4CDA
330
4CD5
100
AcDbEntity
  8
AM_BOR
100
AcDbLine
 10
-88.00000132160494
 20
16.88888914254039
 30
0.0
 11
0.0
 21
16.88888914254039
 31
0.0
1001
ACDBBLOCKREPETAG
1070
     1
1071
       11
1005
4CDA
  0
LINE
  5
4CDB
330
4CD5
100
AcDbEntity
  8
AM_BOR
100
AcDbLine
 10
-185.3400019824074
 20
8.444444575710349
 30
0.0
 11
-132.0000019824074
 21
8.444444575710349
 31
0.0
1001
ACDBBLOCKREPETAG
1070
     1
1071
       12
1005
4CDB
  0
LINE
  5
4CDC
330
4CD5
100
AcDbEntity
  8
AM_BOR
100
AcDbLine
 10
-185.3400019824074
 20
12.66666685913014
 30
0.0
 11
-88.00000132160493
 21
12.66666685913014
 31
0.0
1001
ACDBBLOCKREPETAG
1070
     1
1071
       13
1005
4CDC
  0
TEXT
  5
4CDD
330
4CD5
100
AcDbEntity
  8
AM_BOR
100
AcDbText
 10
-131.5598447471348
 20
22.4000810384905
 30
0.0
 40
1.800000027033282
  1
Proj.L.
 41
1.199999999999999
100
AcDbText
1001
ACDBBLOCKREPETAG
1070
     1
1071
       18
1005
4CDD
  0
TEXT
  5
4CDE
330
4CD5
100
AcDbEntity
  8
AM_BOR
100
AcDbText
 10
-131.8087627661939
 20
26.46517089813561
 30
0.0
 40
1.641600024654353
  1
Gepr.
 41
1.199999999999999
100
AcDbText
1001
ACDBBLOCKREPETAG
1070
     1
1071
       19
1005
4CDE
1001
GENIUS_GENTRA_14
1002
{
1070
     1
1000
GENTRATX{5.5},%s,(GENMSG gentitis 65)
1000
Gepr.
1000
DEU
1070
     0
1040
1.199999999999999
1070
     0
1002
}
  0
TEXT
  5
4CDF
330
4CD5
100
AcDbEntity
  8
AM_BOR
100
AcDbText
 10
-131.6206887428197
 20
30.48106969648098
 30
0.0
 40
1.800000027033282
  1
Bearb.
 41
1.1
100
AcDbText
1001
ACDBBLOCKREPETAG
1070
     1
1071
       20
1005
4CDF
  0
TEXT
  5
4CE0
330
4CD5
100
AcDbEntity
  8
AM_BOR
100
AcDbText
 10
-11.44560272419767
 20
14.32530757084146
 30
0.0
 40
2.00000003003698
  1
Blatt
 41
1.199999999999999
100
AcDbText
1001
ACDBBLOCKREPETAG
1070
     1
1071
       21
1005
4CE0
  0
TEXT
  5
4CE1
330
4CD5
100
AcDbEntity
  8
AM_BOR
100
AcDbText
 10
-120.9539416485713
 20
34.46014955931605
 30
0.0
 40
2.00000003003698
  1
Datum
 41
1.199999999999999
100
AcDbText
1001
ACDBBLOCKREPETAG
1070
     1
1071
       22
1005
4CE1
  0
TEXT
  5
4CE2
330
4CD5
100
AcDbEntity
  8
AM_BOR
100
AcDbText
 10
-87.41602340510757
 20
48.67191507381704
 30
0.0
 40
2.00000003003698
  1
Massstab:
 41
1.199999999999999
100
AcDbText
1001
ACDBBLOCKREPETAG
1070
     1
1071
       23
1005
4CE2
  0
LINE
  5
4CE3
330
4CD5
100
AcDbEntity
  8
AM_BOR
100
AcDbLine
 10
-122.0000018322025
 20
21.11111142817026
 30
0.0
 11
-122.0000018322025
 21
38.0000005707002
 31
0.0
1001
ACDBBLOCKREPETAG
1070
     1
1071
       24
1005
4CE3
  0
LINE
  5
4CE4
330
4CD5
100
AcDbEntity
  8
AM_BOR
100
AcDbLine
 10
-139.6200019824074
 20
-0.0077777143696647
 30
0.0
 11
-139.6200019824074
 21
37.99222285633053
 31
0.0
1001
ACDBBLOCKREPETAG
1070
     1
1071
       25
1005
4CE4
  0
LINE
  5
4CE5
330
4CD5
100
AcDbEntity
  8
AM_BOR
100
AcDbLine
 10
-152.3200019824074
 20
-0.0077777143696656
 30
0.0
 11
-152.3200019824074
 21
53.00000079598021
 31
0.0
1001
ACDBBLOCKREPETAG
1070
     1
1071
       26
1005
4CE5
  0
LINE
  5
4CE6
330
4CD5
100
AcDbEntity
  8
AM_BOR
100
AcDbLine
 10
-177.7200019824074
 20
0.0
 30
0.0
 11
-177.7200019824074
 21
38.0000005707002
 31
0.0
1001
ACDBBLOCKREPETAG
1070
     1
1071
       27
1005
4CE6
  0
LINE
  5
4CE7
330
4CD5
100
AcDbEntity
  8
AM_BOR
100
AcDbLine
 10
-107.0000016069025
 20
21.11111142817026
 30
0.0
 11
-107.0000016069025
 21
38.0000005707002
 31
0.0
1001
ACDBBLOCKREPETAG
1070
     1
1071
       28
1005
4CE7
  0
LINE
  5
4CE8
330
4CD5
100
AcDbEntity
  8
AM_BOR
100
AcDbLine
 10
-13.00000019519939
 20
8.444444571260191
 30
0.0
 11
0.0
 21
8.444444571260191
 31
0.0
1001
ACDBBLOCKREPETAG
1070
     1
1071
       29
1005
4CE8
  0
LINE
  5
4CE9
330
4CD5
100
AcDbEntity
  8
AM_BOR
100
AcDbLine
 10
-185.3400019824074
 20
4.222222285630323
 30
0.0
 11
0.0
 21
4.222222285630323
 31
0.0
1001
ACDBBLOCKREPETAG
1070
     1
1071
       30
1005
4CE9
  0
LINE
  5
4CEA
330
4CD5
100
AcDbEntity
  8
AM_BOR
100
AcDbLine
 10
-185.3400019824074
 20
16.88888914254039
 30
0.0
 11
-132.0000019824074
 21
16.88888914254039
 31
0.0
1001
ACDBBLOCKREPETAG
1070
     1
1071
       31
1005
4CEA
  0
LINE
  5
4CEB
330
4CD5
100
AcDbEntity
  8
AM_BOR
100
AcDbLine
 10
-185.3400019824074
 20
21.11111142817026
 30
0.0
 11
-88.00000132160494
 21
21.11111142817026
 31
0.0
1001
ACDBBLOCKREPETAG
1070
     1
1071
       32
1005
4CEB
  0
LINE
  5
4CEC
330
4CD5
100
AcDbEntity
  8
AM_BOR
100
AcDbLine
 10
-185.3400019824074
 20
25.33333371380014
 30
0.0
 11
-88.00000132160494
 21
25.33333371380013
 31
0.0
1001
ACDBBLOCKREPETAG
1070
     1
1071
       33
1005
4CEC
  0
LINE
  5
4CED
330
4CD5
100
AcDbEntity
  8
AM_BOR
100
AcDbLine
 10
-185.3400019824074
 20
29.55555599943
 30
0.0
 11
-88.00000132160494
 21
29.55555599943
 31
0.0
1001
ACDBBLOCKREPETAG
1070
     1
1071
       34
1005
4CED
  0
LINE
  5
4CEE
330
4CD5
100
AcDbEntity
  8
AM_BOR
100
AcDbLine
 10
-122.0000018322025
 20
33.77777828507033
 30
0.0
 11
-88.00000132160494
 21
33.77777828507033
 31
0.0
1001
ACDBBLOCKREPETAG
1070
     1
1071
       35
1005
4CEE
  0
LINE
  5
4CEF
330
4CD5
100
AcDbEntity
  8
AM_BOR
100
AcDbLine
 10
-88.00000132160493
 20
45.92760216890009
 30
0.0
 11
0.0
 21
45.92760216890008
 31
0.0
1001
ACDBBLOCKREPETAG
1070
     1
1071
       36
1005
4CEF
  0
LINE
  5
4CF0
330
4CD5
100
AcDbEntity
  8
AM_BOR
100
AcDbLine
 10
-185.3400019824074
 20
38.0000005707002
 30
0.0
 11
0.0
 21
38.0000005707002
 31
0.0
1001
ACDBBLOCKREPETAG
1070
     1
1071
       37
1005
4CF0
  0
LINE
  5
4CF1
330
4CD5
100
AcDbEntity
  8
AM_BOR
100
AcDbLine
 10
-13.00000019519939
 20
4.222222285630323
 30
0.0
 11
-13.00000019519939
 21
16.88888914254039
 31
0.0
1001
ACDBBLOCKREPETAG
1070
     1
1071
       38
1005
4CF1
  0
LINE
  5
4CF2
330
4CD5
100
AcDbEntity
  8
AM_BOR
100
AcDbLine
 10
-88.00000132160494
 20
0.0
 30
0.0
 11
-88.00000132160493
 21
59.90013639952638
 31
0.0
1001
ACDBBLOCKREPETAG
1070
     1
1071
       39
1005
4CF2
  0
LINE
  5
4CF3
330
4CD5
100
AcDbEntity
  8
AM_BOR
100
AcDbLine
 10
-132.0000019824074
 20
0.0
 30
0.0
 11
-132.0000019824074
 21
38.0000005707002
 31
0.0
1001
ACDBBLOCKREPETAG
1070
     1
1071
       40
1005
4CF3
  0
LINE
  5
4CF4
330
4CD5
100
AcDbEntity
  8
AM_BOR
100
AcDbLine
 10
-185.3400019824074
 20
0.2384938820300704
 30
0.0
 11
-185.3400019824074
 21
59.90013639952639
 31
0.0
1001
ACDBBLOCKREPETAG
1070
     1
1071
       41
1005
4CF4
  0
LINE
  5
4CF5
330
4CD5
100
AcDbEntity
  8
AM_BOR
100
AcDbLine
 10
-185.3400019824074
 20
53.00000079598021
 30
0.0
 11
0.0
 21
53.00000079598021
 31
0.0
1001
ACDBBLOCKREPETAG
1070
     1
1071
       42
1005
4CF5
  0
TEXT
  5
4CF6
330
4CD5
100
AcDbEntity
  8
AM_BOR
100
AcDbText
 10
-86.15426068430679
 20
1.189060355630317
 30
0.0
 40
2.000000060073969
  1
Autocad Mechanical 2008
 41
1.199999999999999
100
AcDbText
1001
ACDBBLOCKREPETAG
1070
     1
1071
       43
1005
4CF6
  0
POINT
  5
4CF7
330
4CD5
100
AcDbEntity
  8
AM_BOR
100
AcDbPoint
 10
0.0
 20
0.0
 30
0.0
1001
ACDBBLOCKREPETAG
1070
     1
1071
       44
1005
4CF7
  0
POINT
  5
4CF8
330
4CD5
100
AcDbEntity
  8
AM_BOR
100
AcDbPoint
 10
0.0
 20
0.0
 30
0.0
1001
ACDBBLOCKREPETAG
1070
     1
1071
       45
1005
4CF8
  0
ATTDEF
  5
4CF9
330
4CD5
100
AcDbEntity
  8
AM_BOR
100
AcDbText
 10
-71.51262676360079
 20
48.65001922868322
 30
0.0
 40
2.0
  1

100
AcDbAttributeDefinition
280
     0
  3
Massstab
  2
GEN-TITLE-SCA
 70
     0
280
     1
1001
ACDBBLOCKREPETAG
1070
     1
1071
       67
1005
0
  0
ATTDEF
  5
4CFA
330
4CD5
100
AcDbEntity
  8
AM_BOR
100
AcDbText
 10
-42.65618887579386
 20
48.59490079608424
 30
0.0
 40
2.4
  1

100
AcDbAttributeDefinition
280
     0
  3
Werkstoff
  2
WERKSTOFF{13}
 70
     0
280
     1
1001
ACDBBLOCKREPETAG
1070
     1
1071
       68
1005
0
  0
ATTDEF
  5
4CFB
330
4CD5
100
AcDbEntity
  8
AM_BOR
100
AcDbText
 10
-85.71534332195199
 20
6.455888134994324
 30
0.0
 40
5.0
  1

100
AcDbAttributeDefinition
280
     0
  3
Zeichnungsnummer
  2
ZEICHNUNGSNUMMER
 70
     0
280
     1
1001
ACDBBLOCKREPETAG
1070
     1
1071
       69
1005
0
  0
ATTDEF
  5
4CFC
330
4CD5
100
AcDbEntity
  8
AM_BOR
100
AcDbText
 10
-31.2290184429927
 20
6.455888134994324
 30
0.0
 40
5.0
  1

100
AcDbAttributeDefinition
280
     0
  3
Aenderungsindex
  2
AENDERUNS-INDEX
 70
     0
280
     1
1001
ACDBBLOCKREPETAG
1070
     1
1071
       70
1005
0
  0
ATTDEF
  5
4CFD
330
4CD5
100
AcDbEntity
  8
AM_BOR
100
AcDbText
 10
-86.1749039994172
 20
30.98841502357578
 30
0.0
 40
5.0
  1

100
AcDbAttributeDefinition
280
     0
  3
Bezeichnung1
  2
BEZEICHNUNG{16,1}
 70
     0
280
     1
1001
ACDBBLOCKREPETAG
1070
     1
1071
       71
1005
0
  0
ATTDEF
  5
4CFE
330
4CD5
100
AcDbEntity
  8
AM_BOR
100
AcDbText
 10
-86.1749039994172
 20
21.4940968560025
 30
0.0
 40
5.0
  1

100
AcDbAttributeDefinition
280
     0
  3
Bezeichnung 2
  2
BEZEICHNUNG2{16,1}
 70
     0
280
     1
1001
ACDBBLOCKREPETAG
1070
     1
1071
      100
1005
0
  0
ATTDEF
  5
4CFF
330
4CD5
100
AcDbEntity
  8
AM_BOR
100
AcDbText
 10
-119.6084273696554
 20
5.730447391784122
 30
0.0
 40
3.5
  1

100
AcDbAttributeDefinition
280
     0
  3
Materialnr.
  2
SAP-MATNR
 70
     0
280
     1
1001
ACDBBLOCKREPETAG
1070
     1
1071
       73
1005
0
  0
LINE
  5
4D00
330
4CD5
100
AcDbEntity
  8
AM_BOR
100
AcDbLine
 10
0.0000000000756646
 20
59.90013639952639
 30
0.0
 11
0.0
 21
0.0
 31
0.0
1001
ACDBBLOCKREPETAG
1070
     1
1071
       75
1005
4D00
  0
ATTDEF
  5
4D01
330
4CD5
100
AcDbEntity
  8
AM_BOR
100
AcDbText
 10
-86.25221828481818
 20
39.50139881471519
 30
0.0
 40
3.6
  1

100
AcDbAttributeDefinition
280
     0
  3
Projektnummer
  2
PROJEKTNUMMER{13}
 70
     0
280
     1
1001
ACDBBLOCKREPETAG
1070
     1
1071
       74
1005
0
  0
TEXT
  5
4D02
330
4CD5
100
AcDbEntity
  8
AM_BOR
100
AcDbText
 10
-105.9539414232713
 20
34.46014955931605
 30
0.0
 40
2.00000003003698
  1
Name
 41
1.199999999999999
100
AcDbText
1001
ACDBBLOCKREPETAG
1070
     1
1071
       77
1005
4D02
  0
ATTDEF
  5
4D03
330
4CD5
100
AcDbEntity
  8
AM_BOR
100
AcDbText
 10
-80.06480237688576
 20
54.40716984566695
 30
0.0
 40
4.561919999999999
  1

100
AcDbAttributeDefinition
280
     0
  3
Projekt
  2
POJEKT{16}
 70
     0
280
     1
1001
ACDBBLOCKREPETAG
1070
     1
1071
       76
1005
0
  0
ATTDEF
  5
4D04
330
4CD5
100
AcDbEntity
  8
AM_BOR
100
AcDbText
 10
-105.8805938982175
 20
22.28032905055784
 30
0.0
 40
2.0
  1

100
AcDbAttributeDefinition
280
     0
  3
Projektleiter
  2
POJEKTLEITER{8}
 70
     0
280
     1
1001
ACDBBLOCKREPETAG
1070
     1
1071
       81
1005
0
  0
TEXT
  5
4D05
330
4CD5
100
AcDbEntity
  8
AM_BOR
100
AcDbText
 10
-58.62015410501851
 20
48.63704845080146
 30
0.0
 40
2.400000036044375
  1
Material:
 41
1.199999999999999
100
AcDbText
1001
ACDBBLOCKREPETAG
1070
     1
1071
       80
1005
4D05
  0
LINE
  5
4D06
330
4CD5
100
AcDbEntity
  8
AM_BOR
100
AcDbLine
 10
-185.3400019824074
 20
59.90013639952639
 30
0.0
 11
0.0000000000756586
 21
59.90013639952639
 31
0.0
1001
ACDBBLOCKREPETAG
1070
     1
1071
       83
1005
4D06
  0
ATTDEF
  5
4D07
330
4CD5
100
AcDbEntity
  8
AM_BOR
370
   200
100
AcDbText
 10
-181.7933248046407
 20
55.55122663137243
 30
0.0
 40
3.0
  1

100
AcDbAttributeDefinition
280
     0
  3
Zeichnungsart
  2
ZEICHNUNGSART{22}
 70
     0
280
     1
1001
ACDBBLOCKREPETAG
1070
     1
1071
       82
1005
0
  0
TEXT
  5
4D08
330
4CD5
100
AcDbEntity
  8
AM_BOR
100
AcDbText
 10
-151.380074764322
 20
44.58410914258997
 30
0.0
 40
1.600000024029584
  1
Oberflächen nach DIN ISO 1302
 41
1.199999999999999
100
AcDbText
1001
ACDBBLOCKREPETAG
1070
     1
1071
      101
1005
4D08
  0
TEXT
  5
4D09
330
4CD5
100
AcDbEntity
  8
AM_BOR
100
AcDbText
 10
-151.2864965010435
 20
47.39372358624331
 30
0.0
 40
1.600000024029584
  1
Form/Lagetoleranzen nach DIN ISO 1101
 41
1.199999999999999
100
AcDbText
1001
ACDBBLOCKREPETAG
1070
     1
1071
      102
1005
4D09
  0
TEXT
  5
4D0A
330
4CD5
100
AcDbEntity
  8
AM_BOR
100
AcDbText
 10
-151.2757596725531
 20
50.34408339700104
 30
0.0
 40
1.600000024029584
  1
Freimasstoleranzen nach DIN ISO 2768 m-A
 41
1.199999999999999
100
AcDbText
1001
ACDBBLOCKREPETAG
1070
     1
1071
      103
1005
4D0A
  0
TEXT
  5
4D0B
330
4CD5
100
AcDbEntity
  8
AM_BOR
100
AcDbText
 10
-151.4439433516451
 20
38.95712746720818
 30
0.0
 40
1.600000024029584
  1
Schweisskonstruktion nach DIN EN ISO 13920-B
 41
1.199999999999999
100
AcDbText
1001
ACDBBLOCKREPETAG
1070
     1
1071
      104
1005
4D0B
  0
ATTDEF
  5
4D0C
330
4CD5
100
AcDbEntity
  8
AM_BOR
100
AcDbText
 10
-121.4665441936572
 20
30.32447266962089
 30
0.0
 40
2.0
  1

100
AcDbAttributeDefinition
280
     0
  3
Datum
  2
GEN-TITLE-DAT
 70
     0
280
     1
1001
ACDBBLOCKREPETAG
1070
     1
1071
       78
1005
0
  0
ATTDEF
  5
4D0D
330
4CD5
100
AcDbEntity
  8
AM_BOR
100
AcDbText
 10
-106.6894696866938
 20
26.14295440168508
 30
0.0
 40
2.0
  1

100
AcDbAttributeDefinition
280
     0
  3
Prüfer
  2
GEPR_VON
 70
     0
280
     1
1001
ACDBBLOCKREPETAG
1070
     1
1071
      105
1005
0
  0
ATTDEF
  5
4D0E
330
4CD5
100
AcDbEntity
  8
AM_BOR
100
AcDbText
 10
-121.7267411423133
 20
26.11684517636604
 30
0.0
 40
2.0
  1

100
AcDbAttributeDefinition
280
     0
  3
Prüfdatum
  2
GEPR_AM
 70
     0
280
     1
1001
ACDBBLOCKREPETAG
1070
     1
1071
       79
1005
0
  0
ATTDEF
  5
4D0F
330
4CD5
100
AcDbEntity
  8
AM_BOR
100
AcDbText
 10
-42.4457749541926
 20
38.92347765925475
 30
0.0
 40
3.6
  1

100
AcDbAttributeDefinition
280
     0
  3
VK_Beleg
  2
VK_BELEG{12}
 70
     0
280
     1
1001
ACDBBLOCKREPETAG
1070
     1
1071
      106
1005
0
  0
ATTDEF
  5
4D10
330
4CD5
100
AcDbEntity
  8
AM_BOR
100
AcDbText
 10
-7.917386630408827
 20
10.48463023463267
 30
0.0
 40
2.0
  1
1
100
AcDbAttributeDefinition
280
     0
  3
Blatt
  2
BLATT
 70
     0
280
     1
1001
ACDBBLOCKREPETAG
1070
     1
1071
      107
1005
0
  0
ATTDEF
  5
4D11
330
4CD5
100
AcDbEntity
  8
AM_BOR
100
AcDbText
 10
-182.4417068470376
 20
4.91474881261638
 30
0.0
 40
2.0
  1

100
AcDbAttributeDefinition
280
     0
  3
CN 1
  2
CN_INDEX_1
 70
     0
280
     1
1001
ACDBBLOCKREPETAG
1070
     1
1071
      108
1005
0
  0
ATTDEF
  5
4D12
330
4CD5
100
AcDbEntity
  8
AM_BOR
100
AcDbText
 10
-182.5191964129061
 20
9.082688092545652
 30
0.0
 40
2.0
  1

100
AcDbAttributeDefinition
280
     0
  3
CN 2
  2
CN_INDEX_2
 70
     0
280
     1
1001
ACDBBLOCKREPETAG
1070
     1
1071
      109
1005
0
  0
ATTDEF
  5
4D13
330
4CD5
100
AcDbEntity
  8
AM_BOR
100
AcDbText
 10
-182.5191964129061
 20
13.30491037596545
 30
0.0
 40
2.0
  1

100
AcDbAttributeDefinition
280
     0
  3
CN 3
  2
CN_INDEX_3
 70
     0
280
     1
1001
ACDBBLOCKREPETAG
1070
     1
1071
      110
1005
0
  0
ATTDEF
  5
4D14
330
4CD5
100
AcDbEntity
  8
AM_BOR
100
AcDbText
 10
-182.5191964129061
 20
17.52713265937569
 30
0.0
 40
2.0
  1

100
AcDbAttributeDefinition
280
     0
  3
CN 4
  2
CN_INDEX_4
 70
     0
280
     1
1001
ACDBBLOCKREPETAG
1070
     1
1071
      111
1005
0
  0
ATTDEF
  5
4D15
330
4CD5
100
AcDbEntity
  8
AM_BOR
100
AcDbText
 10
-182.5191964129061
 20
21.74935494500557
 30
0.0
 40
2.0
  1

100
AcDbAttributeDefinition
280
     0
  3
CN 5
  2
CN_INDEX_5
 70
     0
280
     1
1001
ACDBBLOCKREPETAG
1070
     1
1071
      112
1005
0
  0
ATTDEF
  5
4D16
330
4CD5
100
AcDbEntity
  8
AM_BOR
100
AcDbText
 10
-182.5191964129061
 20
25.97157723063544
 30
0.0
 40
2.0
  1

100
AcDbAttributeDefinition
280
     0
  3
CN 6
  2
CN_INDEX_6
 70
     0
280
     1
1001
ACDBBLOCKREPETAG
1070
     1
1071
      113
1005
0
  0
ATTDEF
  5
4D17
330
4CD5
100
AcDbEntity
  8
AM_BOR
100
AcDbText
 10
-182.5191964129061
 20
30.1937995162653
 30
0.0
 40
2.0
  1

100
AcDbAttributeDefinition
280
     0
  3
CN 7
  2
CN_INDEX_7
 70
     0
280
     1
1001
ACDBBLOCKREPETAG
1070
     1
1071
      114
1005
0
  0
ATTDEF
  5
4D18
330
4CD5
100
AcDbEntity
  8
AM_BOR
100
AcDbText
 10
-182.5191964129061
 20
34.41602180190563
 30
0.0
 40
2.0
  1

100
AcDbAttributeDefinition
280
     0
  3
CN 8
  2
CN_INDEX_8
 70
     0
280
     1
1001
ACDBBLOCKREPETAG
1070
     1
1071
      115
1005
0
  0
ATTDEF
  5
4D19
330
4CD5
100
AcDbEntity
  8
AM_BOR
100
AcDbText
 10
-177.375281616186
 20
5.055792586602763
 30
0.0
 40
2.0
  1

100
AcDbAttributeDefinition
280
     0
  3
AENDERUNGSGRUND 1
  2
CN_GRUND_1{12}
 70
     0
280
     1
1001
ACDBBLOCKREPETAG
1070
     1
1071
      116
1005
0
  0
ATTDEF
  5
4D1A
330
4CD5
100
AcDbEntity
  8
AM_BOR
100
AcDbText
 10
-177.0544632267495
 20
9.499887017944558
 30
0.0
 40
2.0
  1

100
AcDbAttributeDefinition
280
     0
  3
AENDERUNGSGRUND 2
  2
CN_GRUND_2{12}
 70
     0
280
     1
1001
ACDBBLOCKREPETAG
1070
     1
1071
      117
1005
0
  0
ATTDEF
  5
4D1B
330
4CD5
100
AcDbEntity
  8
AM_BOR
100
AcDbText
 10
-177.0544632267495
 20
13.72210930136435
 30
0.0
 40
2.0
  1

100
AcDbAttributeDefinition
280
     0
  3
AENDERUNGSGRUND 3
  2
CN_GRUND_3{12}
 70
     0
280
     1
1001
ACDBBLOCKREPETAG
1070
     1
1071
      118
1005
0
  0
ATTDEF
  5
4D1C
330
4CD5
100
AcDbEntity
  8
AM_BOR
100
AcDbText
 10
-177.0544632267495
 20
17.9443315847746
 30
0.0
 40
2.0
  1

100
AcDbAttributeDefinition
280
     0
  3
AENDERUNGSGRUND 4
  2
CN_GRUND_4{12}
 70
     0
280
     1
1001
ACDBBLOCKREPETAG
1070
     1
1071
      119
1005
0
  0
ATTDEF
  5
4D1D
330
4CD5
100
AcDbEntity
  8
AM_BOR
100
AcDbText
 10
-177.0544632267495
 20
22.16655387040447
 30
0.0
 40
2.0
  1

100
AcDbAttributeDefinition
280
     0
  3
AENDERUNGSGRUND 5
  2
CN_GRUND_5{12}
 70
     0
280
     1
1001
ACDBBLOCKREPETAG
1070
     1
1071
      120
1005
0
  0
ATTDEF
  5
4D1E
330
4CD5
100
AcDbEntity
  8
AM_BOR
100
AcDbText
 10
-177.0544632267495
 20
26.38877615603434
 30
0.0
 40
2.0
  1

100
AcDbAttributeDefinition
280
     0
  3
AENDERUNGSGRUND 6
  2
CN_GRUND_6{12}
 70
     0
280
     1
1001
ACDBBLOCKREPETAG
1070
     1
1071
      121
1005
0
  0
ATTDEF
  5
4D1F
330
4CD5
100
AcDbEntity
  8
AM_BOR
100
AcDbText
 10
-177.0544632267495
 20
30.61099844166421
 30
0.0
 40
2.0
  1

100
AcDbAttributeDefinition
280
     0
  3
AENDERUNGSGRUND 7
  2
CN_GRUND_7{12}
 70
     0
280
     1
1001
ACDBBLOCKREPETAG
1070
     1
1071
      122
1005
0
  0
ATTDEF
  5
4D20
330
4CD5
100
AcDbEntity
  8
AM_BOR
100
AcDbText
 10
-177.0544632267495
 20
34.83322072730454
 30
0.0
 40
2.0
  1

100
AcDbAttributeDefinition
280
     0
  3
AENDERUNGSGRUND 8
  2
CN_GRUND_8{12}
 70
     0
280
     1
1001
ACDBBLOCKREPETAG
1070
     1
1071
      123
1005
0
  0
ATTDEF
  5
4D21
330
4CD5
100
AcDbEntity
  8
AM_BOR
100
AcDbText
 10
-139.2752815320209
 20
34.57848397178208
 30
0.0
 40
2.0
  1

100
AcDbAttributeDefinition
280
     0
  3
CE8
  2
CN_ERSTELLER_8
 70
     0
280
     1
1001
ACDBBLOCKREPETAG
1070
     1
1071
      124
1005
0
  0
ATTDEF
  5
4D22
330
4CD5
100
AcDbEntity
  8
AM_BOR
100
AcDbText
 10
-139.1199747843967
 20
30.45025035695159
 30
0.0
 40
2.0
  1

100
AcDbAttributeDefinition
280
     0
  3
CE7
  2
CN_ERSTELLER_7
 70
     0
280
     1
1001
ACDBBLOCKREPETAG
1070
     1
1071
      125
1005
0
  0
ATTDEF
  5
4D23
330
4CD5
100
AcDbEntity
  8
AM_BOR
100
AcDbText
 10
-139.1199747843967
 20
26.22802807132172
 30
0.0
 40
2.0
  1

100
AcDbAttributeDefinition
280
     0
  3
CE6
  2
CN_ERSTELLER_6
 70
     0
280
     1
1001
ACDBBLOCKREPETAG
1070
     1
1071
      126
1005
0
  0
ATTDEF
  5
4D24
330
4CD5
100
AcDbEntity
  8
AM_BOR
100
AcDbText
 10
-139.1199747843967
 20
22.00580578569185
 30
0.0
 40
2.0
  1

100
AcDbAttributeDefinition
280
     0
  3
CE5
  2
CN_ERSTELLER_5
 70
     0
280
     1
1001
ACDBBLOCKREPETAG
1070
     1
1071
      127
1005
0
  0
ATTDEF
  5
4D25
330
4CD5
100
AcDbEntity
  8
AM_BOR
100
AcDbText
 10
-139.1199747843967
 20
17.78358350006198
 30
0.0
 40
2.0
  1

100
AcDbAttributeDefinition
280
     0
  3
CE4
  2
CN_ERSTELLER_4
 70
     0
280
     1
1001
ACDBBLOCKREPETAG
1070
     1
1071
      128
1005
0
  0
ATTDEF
  5
4D26
330
4CD5
100
AcDbEntity
  8
AM_BOR
100
AcDbText
 10
-139.1199747843967
 20
13.56136121665173
 30
0.0
 40
2.0
  1

100
AcDbAttributeDefinition
280
     0
  3
CE3
  2
CN_ERSTELLER_3
 70
     0
280
     1
1001
ACDBBLOCKREPETAG
1070
     1
1071
      129
1005
0
  0
ATTDEF
  5
4D27
330
4CD5
100
AcDbEntity
  8
AM_BOR
100
AcDbText
 10
-139.1199747843967
 20
9.339138933231936
 30
0.0
 40
2.0
  1

100
AcDbAttributeDefinition
280
     0
  3
CE2
  2
CN_ERSTELLER_2
 70
     0
280
     1
1001
ACDBBLOCKREPETAG
1070
     1
1071
      130
1005
0
  0
ATTDEF
  5
4D28
330
4CD5
100
AcDbEntity
  8
AM_BOR
100
AcDbText
 10
-139.1199747843967
 20
5.11691664315191
 30
0.0
 40
2.0
  1

100
AcDbAttributeDefinition
280
     0
  3
CE1
  2
CN_ERSTELLER_1
 70
     0
280
     1
1001
ACDBBLOCKREPETAG
1070
     1
1071
      131
1005
0
  0
ATTDEF
  5
4D29
330
4CD5
100
AcDbEntity
  8
AM_BOR
100
AcDbText
 10
-151.8199747843967
 20
5.11691664315191
 30
0.0
 40
2.0
  1

100
AcDbAttributeDefinition
280
     0
  3
CED1
  2
CN_ERSTELLDATUM_1
 70
     0
280
     1
1001
ACDBBLOCKREPETAG
1070
     1
1071
      132
1005
0
  0
ATTDEF
  5
4D2A
330
4CD5
100
AcDbEntity
  8
AM_BOR
100
AcDbText
 10
-151.6989380287537
 20
9.41238845376074
 30
0.0
 40
2.0
  1

100
AcDbAttributeDefinition
280
     0
  3
CED2
  2
CN_ERSTELLDATUM_2
 70
     0
280
     1
1001
ACDBBLOCKREPETAG
1070
     1
1071
      133
1005
0
  0
ATTDEF
  5
4D2B
330
4CD5
100
AcDbEntity
  8
AM_BOR
100
AcDbText
 10
-151.6989380287537
 20
13.63461073718054
 30
0.0
 40
2.0
  1

100
AcDbAttributeDefinition
280
     0
  3
CED3
  2
CN_ERSTELLDATUM_3
 70
     0
280
     1
1001
ACDBBLOCKREPETAG
1070
     1
1071
      134
1005
0
  0
ATTDEF
  5
4D2C
330
4CD5
100
AcDbEntity
  8
AM_BOR
100
AcDbText
 10
-151.6989380287537
 20
17.85683302059078
 30
0.0
 40
2.0
  1

100
AcDbAttributeDefinition
280
     0
  3
CED4
  2
CN_ERSTELLDATUM_4
 70
     0
280
     1
1001
ACDBBLOCKREPETAG
1070
     1
1071
      135
1005
0
  0
ATTDEF
  5
4D2D
330
4CD5
100
AcDbEntity
  8
AM_BOR
100
AcDbText
 10
-151.6989380287537
 20
22.07905530622065
 30
0.0
 40
2.0
  1

100
AcDbAttributeDefinition
280
     0
  3
CED5
  2
CN_ERSTELLDATUM_5
 70
     0
280
     1
1001
ACDBBLOCKREPETAG
1070
     1
1071
      136
1005
0
  0
ATTDEF
  5
4D2E
330
4CD5
100
AcDbEntity
  8
AM_BOR
100
AcDbText
 10
-151.6989380287537
 20
26.30127759185052
 30
0.0
 40
2.0
  1

100
AcDbAttributeDefinition
280
     0
  3
CED6
  2
CN_ERSTELLDATUM_6
 70
     0
280
     1
1001
ACDBBLOCKREPETAG
1070
     1
1071
      137
1005
0
  0
LINE
  5
4D2F
330
4CD5
100
AcDbEntity
  8
AM_BOR
100
AcDbLine
 10
-44.00000066080246
 20
45.92760216890008
 30
0.0
 11
-44.00000066080247
 21
38.0000005707002
 31
0.0
1001
ACDBBLOCKREPETAG
1070
     1
1071
      138
1005
4D2F
  0
ATTDEF
  5
4D30
330
4CD5
100
AcDbEntity
  8
AM_BOR
100
AcDbText
 10
-151.6989380287537
 20
30.52349987748039
 30
0.0
 40
2.0
  1

100
AcDbAttributeDefinition
280
     0
  3
CED7
  2
CN_ERSTELLDATUM_7
 70
     0
280
     1
1001
ACDBBLOCKREPETAG
1070
     1
1071
      139
1005
0
  0
TEXT
  5
4D31
330
4CD5
100
AcDbEntity
  8
AM_BOR ( Zeichnungsrahmen)
 62
     7
370
    25
100
AcDbText
 10
-184.45335038526
 20
1.438493882030073
 30
0.0
 40
2.0
  1
Zust.
 72
     1
 11
-181.3483026362832
 21
1.438493882030073
 31
0.0
100
AcDbText
1001
ACDBBLOCKREPETAG
1070
     1
1071
      140
1005
4D31
1001
GENIUS_GENTRA_14
1002
{
1070
     1
1000
GENTRATX,%s,(GENMSG gendwg 60)
1000
Zust.
1000
DEU
1070
     0
1040
1.0
1070
     0
1002
}
  0
TEXT
  5
4D32
330
4CD5
100
AcDbEntity
  8
AM_BOR ( Zeichnungsrahmen)
 62
     7
370
    25
100
AcDbText
 10
-150.4488082825471
 20
1.438493882030059
 30
0.0
 40
2.0
  1
Datum
 72
     1
 11
-146.3342107382087
 21
1.438493882030059
 31
0.0
100
AcDbText
1001
ACDBBLOCKREPETAG
1070
     1
1071
      141
1005
4D32
1001
GENIUS_GENTRA_14
1002
{
1070
     1
1000
GENTRATX,%s,(GENMSG gendwg 62)
1000
Datum
1000
DEU
1070
     0
1040
1.0
1070
     0
1002
}
  0
TEXT
  5
4D33
330
4CD5
100
AcDbEntity
  8
AM_BOR ( Zeichnungsrahmen)
 62
     7
370
    25
100
AcDbText
 10
-177.351305743272
 20
1.438493882030059
 30
0.0
 40
2.0
  1
Änderungen
 72
     1
 11
-169.7401188401342
 21
1.438493882030059
 31
0.0
100
AcDbText
1001
ACDBBLOCKREPETAG
1070
     1
1071
      142
1005
4D33
1001
GENIUS_GENTRA_14
1002
{
1070
     1
1000
GENTRATX,%s,(GENMSG gendwg 61)
1000
Änderungen
1000
DEU
1070
     0
1040
1.0
1070
     0
1002
}
  0
TEXT
  5
4D34
330
4CD5
100
AcDbEntity
  8
AM_BOR ( Zeichnungsrahmen)
 62
     7
370
    25
100
AcDbText
 10
-139.0423371526658
 20
1.438493882028575
 30
0.0
 40
2.0
  1
Name
 41
0.929411990040222
100
AcDbText
1001
ACDBBLOCKREPETAG
1070
     1
1071
      143
1005
4D34
1001
GENIUS_GENTRA_14
1002
{
1070
     1
1000
GENTRATX{3.31},%s,(GENMSG gendwg 63)
1000
Name
1000
DEU
1070
     0
1040
1.0
1070
     0
1002
}
  0
ATTDEF
  5
4D35
330
4CD5
100
AcDbEntity
  8
AM_BOR
100
AcDbText
 10
-151.6989380287537
 20
34.74572216312072
 30
0.0
 40
2.0
  1

100
AcDbAttributeDefinition
280
     0
  3
CED8
  2
CN_ERSTELLDATUM_8
 70
     0
280
     1
1001
ACDBBLOCKREPETAG
1070
     1
1071
      144
1005
0
  0
TEXT
  5
4D36
330
4CD5
100
AcDbEntity
  8
AM_BOR
100
AcDbText
 10
-85.43612293404317
 20
14.37673137362816
 30
0.0
 40
2.00000003003698
  1
SAP Document No.
 41
1.199999999999999
100
AcDbText
1001
ACDBBLOCKREPETAG
1070
     1
1071
      145
1005
4D36
  0
TEXT
  5
4D37
330
4CD5
100
AcDbEntity
  8
AM_BOR
100
AcDbText
 10
-122.2980352139722
 20
10.08716226564962
 30
0.0
 40
2.00000003003698
  1
Id.No / Material  
 41
1.199999999999999
100
AcDbText
1001
ACDBBLOCKREPETAG
1070
     1
1071
      146
1005
4D37
  0
TEXT
  5
4D38
330
4CD5
100
AcDbEntity
  8
AM_BOR
100
AcDbText
 10
-45.15481270592011
 20
14.37673137362816
 30
0.0
 40
2.00000003003698
  1
Document Version
 41
1.199999999999999
100
AcDbText
1001
ACDBBLOCKREPETAG
1070
     1
1071
      147
1005
4D38
  0
TEXT
  5
4D39
330
4CD5
100
AcDbEntity
  8
AM_BOR
100
AcDbText
 10
-42.49848128737608
 20
43.74242164564679
 30
0.0
 40
2.00000003003698
  1
Offers - Orders No / Pos.
 41
1.199999999999999
100
AcDbText
1001
ACDBBLOCKREPETAG
1070
     1
1071
      148
1005
4D39
  0
ATTDEF
  5
4D3A
330
4CD5
100
AcDbEntity
  8
AM_BOR
100
AcDbText
 10
-106.5281052664257
 20
30.43322603038649
 30
0.0
 40
2.0
  1

100
AcDbAttributeDefinition
280
     0
  3
Name
  2
GEN-TITLE-NAME
 70
     0
280
     1
1001
ACDBBLOCKREPETAG
1070
     1
1071
      149
1005
0
  0
ATTDEF
  5
4D3B
330
4CD5
100
AcDbEntity
  8
AM_BOR
100
AcDbText
 10
-151.6989380287537
 20
22.07905530622065
 30
0.0
 40
2.0
  1

100
AcDbAttributeDefinition
280
     0
  3
CED5
  2
CN_ERSTELLDATUM_5
 70
     0
280
     1
1001
ACDBBLOCKREPETAG
1070
     1
1071
      150
1005
0
  0
ATTDEF
  5
4D3C
330
4CD5
100
AcDbEntity
  8
AM_BOR
100
AcDbText
 10
-151.6989380287537
 20
26.30127759185052
 30
0.0
 40
2.0
  1

100
AcDbAttributeDefinition
280
     0
  3
CED6
  2
CN_ERSTELLDATUM_6
 70
     0
280
     1
1001
ACDBBLOCKREPETAG
1070
     1
1071
      151
1005
0
  0
ATTDEF
  5
4D3D
330
4CD5
100
AcDbEntity
  8
AM_BOR
100
AcDbText
 10
-151.6989380287537
 20
30.52349987748039
 30
0.0
 40
2.0
  1

100
AcDbAttributeDefinition
280
     0
  3
CED7
  2
CN_ERSTELLDATUM_7
 70
     0
280
     1
1001
ACDBBLOCKREPETAG
1070
     1
1071
      152
1005
0
  0
ATTDEF
  5
4D3E
330
4CD5
100
AcDbEntity
  8
AM_BOR
100
AcDbText
 10
-151.6989380287537
 20
34.74572216312072
 30
0.0
 40
2.0
  1

100
AcDbAttributeDefinition
280
     0
  3
CED8
  2
CN_ERSTELLDATUM_8
 70
     0
280
     1
1001
ACDBBLOCKREPETAG
1070
     1
1071
      153
1005
0
  0
ATTDEF
  5
4D3F
330
4CD5
100
AcDbEntity
  8
AM_BOR
100
AcDbText
 10
-176.5296497881917
 20
26.38877615603434
 30
0.0
 40
2.0
  1

100
AcDbAttributeDefinition
280
     0
  3
AENDERUNGSGRUND 6
  2
CN_GRUND_6{12}
 70
     0
280
     1
1001
ACDBBLOCKREPETAG
1070
     1
1071
      154
1005
0
  0
ATTDEF
  5
4D40
330
4CD5
100
AcDbEntity
  8
AM_BOR
100
AcDbText
 10
-176.9900254892366
 20
30.24715732304549
 30
0.0
 40
2.0
  1

100
AcDbAttributeDefinition
280
     0
  3
AENDERUNGSGRUND 7
  2
CN_GRUND_7{12}
 70
     0
280
     1
1001
ACDBBLOCKREPETAG
1070
     1
1071
      155
1005
0
  0
ATTDEF
  5
4D41
330
4CD5
100
AcDbEntity
  8
AM_BOR
100
AcDbText
 10
-176.5296497881917
 20
34.83322072730454
 30
0.0
 40
2.0
  1

100
AcDbAttributeDefinition
280
     0
  3
AENDERUNGSGRUND 8
  2
CN_GRUND_8{12}
 70
     0
280
     1
1001
ACDBBLOCKREPETAG
1070
     1
1071
      156
1005
0
  0
ATTDEF
  5
4D42
330
4CD5
100
AcDbEntity
  8
AM_BOR
100
AcDbText
 10
-139.1199747843967
 20
22.00580578569185
 30
0.0
 40
2.0
  1

100
AcDbAttributeDefinition
280
     0
  3
CE5
  2
CN_ERSTELLER_5
 70
     0
280
     1
1001
ACDBBLOCKREPETAG
1070
     1
1071
      157
1005
0
  0
ATTDEF
  5
4D43
330
4CD5
100
AcDbEntity
  8
AM_BOR
100
AcDbText
 10
-139.1199747843967
 20
26.22802807132172
 30
0.0
 40
2.0
  1

100
AcDbAttributeDefinition
280
     0
  3
CE6
  2
CN_ERSTELLER_6
 70
     0
280
     1
1001
ACDBBLOCKREPETAG
1070
     1
1071
      158
1005
0
  0
ATTDEF
  5
4D44
330
4CD5
100
AcDbEntity
  8
AM_BOR
100
AcDbText
 10
-139.1199747843967
 20
30.45025035695159
 30
0.0
 40
2.0
  1

100
AcDbAttributeDefinition
280
     0
  3
CE7
  2
CN_ERSTELLER_7
 70
     0
280
     1
1001
ACDBBLOCKREPETAG
1070
     1
1071
      159
1005
0
  0
TEXT
  5
4D45
330
4CD5
100
AcDbEntity
  8
AM_BOR
100
AcDbText
 10
-128.6393677478436
 20
19.1487673346287
 30
0.0
 40
1.154205483573934
  1
Copyright according to DIN 34 / ISO 16016
100
AcDbText
1001
ACDBBLOCKREPETAG
1070
     1
1071
      160
1005
4D45
  0
TEXT
  5
4D46
330
4CD5
100
AcDbEntity
  8
AM_BOR
100
AcDbText
 10
-128.7222569611483
 20
17.41300591102624
 30
0.0
 40
1.154205483573934
  1
Reprint with our permission only!
100
AcDbText
1001
ACDBBLOCKREPETAG
1070
     1
1071
      161
1005
4D46
  0
TEXT
  5
4D47
330
4CD5
100
AcDbEntity
  8
AM_BOR
100
AcDbText
 10
-128.651691557238
 20
15.43748322428479
 30
0.0
 40
1.154205483573934
  1
Schutzvermerk nach DIN 34 / ISO 16016 beachten
100
AcDbText
1001
ACDBBLOCKREPETAG
1070
     1
1071
      162
1005
4D47
  0
TEXT
  5
4D48
330
4CD5
100
AcDbEntity
  8
AM_BOR
100
AcDbText
 10
-128.7440387726074
 20
13.81178587705742
 30
0.0
 40
1.154205483573934
  1
Nachdruck nur mit unserer Genehmigung!
100
AcDbText
1001
ACDBBLOCKREPETAG
1070
     1
1071
      163
1005
4D48
  0
HATCH
  5
4D49
330
4CD5
100
AcDbEntity
  8
AM_BOR
 62
   123
420
  3784885
100
AcDbHatch
 10
0.0
 20
0.0
 30
0.0
210
0.0
220
0.0
230
1.0
  2
SOLID
 70
     1
 71
     0
 91
       14
 92
        7
 72
     1
 73
     1
 93
        4
 10
-159.0903778103951
 20
39.59494383570694
 42
-0.2120320915404438
 10
-159.0903778103951
 20
42.70801643285671
 42
0.0
 10
-180.9984115809842
 20
42.70801643285671
 42
-0.2120320915404437
 10
-180.9984115809842
 20
39.59494383570694
 42
0.0
 97
        0
 92
       22
 72
     0
 73
     1
 93
       41
 10
-170.4173134944525
 20
42.23945428920932
 10
-169.9840409756095
 20
42.23945428920932
 10
-169.7083887470394
 20
41.22408637280114
 10
-169.6944595120882
 20
41.15737266854785
 10
-169.6856621005349
 20
41.11558496368459
 10
-169.6709997479509
 20
41.04447255365045
 10
-169.653181028316
 20
40.95368193455788
 10
-169.6424081604135
 20
41.02981020106912
 10
-169.6314113959757
 20
41.09652390532467
 10
-169.6174821610216
 20
41.17350125638735
 10
-169.6057522789535
 20
41.22408637280115
 10
-169.3616241084391
 20
42.23945428920932
 10
-168.9232197661919
 20
42.23945428920933
 10
-168.6812909485641
 20
41.23581625486727
 10
-168.6651623607216
 20
41.1647038448364
 10
-168.6556318315425
 20
41.11265249316618
 10
-168.6439019494758
 20
41.04154008313508
 10
-168.6309938165433
 20
40.95441018584168
 10
-168.6160434795674
 20
41.03200955396405
 10
-168.6021142446126
 20
41.10385508161537
 10
-168.5999148917251
 20
41.11558496368282
 10
-168.5830531862543
 20
41.19476166763453
 10
-168.5727895394456
 20
41.24021496064332
 10
-168.303002251909
 20
42.23945428920932
 10
-167.8682634978075
 20
42.23945428920932
 10
-168.4408283661941
 20
40.23950939681717
 10
-168.8169177099613
 20
40.23950939681717
 10
-169.0955024090482
 20
41.41396383875655
 10
-169.1101647616317
 20
41.48507624878664
 10
-169.1226277613276
 20
41.55765489407506
 10
-169.1321582905069
 20
41.63023353936377
 10
-169.1394894667983
 20
41.70867712568617
 10
-169.1416888196863
 20
41.73067065456114
 10
-169.1504862312364
 20
41.65296018586788
 10
-169.161482995674
 20
41.57818218769391
 10
-169.1629492309324
 20
41.56718542325541
 10
-169.1761453482577
 20
41.49167430744994
 10
-169.1908077008412
 20
41.41689630927347
 10
-169.1915408184701
 20
41.41249760349902
 10
-169.4671930470404
 20
40.23950939681717
 10
-169.8454817436952
 20
40.23950939681717
 97
        0
 92
       22
 72
     0
 73
     1
 93
      126
 10
-171.3960255294025
 20
40.23950939681718
 10
-171.6709446403435
 20
40.23950939681718
 10
-171.7022133531894
 20
40.37388035201977
 10
-171.7039349336564
 20
40.43671803906498
 10
-171.7039349336564
 20
40.48657003784951
 10
-171.744256403261
 20
40.42278880411124
 10
-171.7926421667869
 20
40.36633874666464
 10
-171.8490922242334
 20
40.31721986550983
 10
-171.9210868146267
 20
40.27005099594173
 10
-172.0015806911019
 20
40.23437757341295
 10
-172.0704937482444
 20
40.21238404453765
 10
-172.1438055111621
 20
40.19625545669579
 10
-172.2222490974838
 20
40.1867249275165
 10
-172.3021589190641
 20
40.18379245699979
 10
-172.3828018582735
 20
40.1867249275165
 10
-172.460512326966
 20
40.19478922143743
 10
-172.5352903251421
 20
40.20871845639179
 10
-172.6071358528013
 20
40.22777951475037
 10
-172.6753157923145
 20
40.25197239651315
 10
-172.7405632613112
 20
40.28203021930939
 10
-172.8021451421622
 20
40.31721986550978
 10
-172.8615276701253
 20
40.35827445274366
 10
-172.9172446099428
 20
40.40519398101095
 10
-172.9775086599135
 20
40.46378402959365
 10
-173.031610960094
 20
40.52835774271243
 10
-173.0719324296992
 20
40.58554091778833
 10
-173.1085883111577
 20
40.64565656338086
 10
-173.1408454868417
 20
40.70870467949035
 10
-173.1687039567503
 20
40.77541838374513
 10
-173.192896838513
 20
40.84433144088754
 10
-173.2119578968714
 20
40.91691008617563
 10
-173.2273533670842
 20
40.99168808435245
 10
-173.2383501315218
 20
41.07013167067377
 10
-173.2449481901843
 20
41.15150772751255
 10
-173.247204422888
 20
41.2379966478163
 10
-173.2449481901844
 20
41.32598972325578
 10
-173.2383501315218
 20
41.40883201535308
 10
-173.2280864847134
 20
41.48800871930332
 10
-173.2134241321299
 20
41.56351983510958
 10
-173.1943630737713
 20
41.63609848039747
 10
-173.1709033096378
 20
41.70574465516876
 10
-173.1430448397289
 20
41.77172524179482
 10
-173.1115207816742
 20
41.8347733579042
 10
-173.0755980178448
 20
41.89415588586746
 10
-173.0352765482403
 20
41.9498728256845
 10
-172.9864126261646
 20
42.00754827469206
 10
-172.9341063154142
 20
42.05910735243172
 10
-172.8798556108548
 20
42.10529376307013
 10
-172.8219393181498
 20
42.14561523267475
 10
-172.7610905549284
 20
42.1815379965044
 10
-172.6965762035607
 20
42.21159581930066
 10
-172.6283962640475
 20
42.23725493632173
 10
-172.5572838540174
 20
42.25851534756789
 10
-172.4832389734706
 20
42.27391081778058
 10
-172.4047953871487
 20
42.28417446458906
 10
-172.3241524479395
 20
42.29003940562246
 10
-172.2713679786384
 20
42.29077252325163
 10
-172.1870594512834
 20
42.28857317036412
 10
-172.1064165120742
 20
42.28050887644319
 10
-172.0294391610105
 20
42.26804587674719
 10
-171.9561273980931
 20
42.25045105364698
 10
-171.8864812233213
 20
42.22699128951332
 10
-171.8205006366954
 20
42.19913281960463
 10
-171.7589187558446
 20
42.16614252629164
 10
-171.6886984528091
 20
42.12049932931865
 10
-171.6247582297054
 20
42.06497229346552
 10
-171.5749062309213
 20
42.01218782416467
 10
-171.5309191731708
 20
41.95500464908896
 10
-171.4927970564536
 20
41.89342276823825
 10
-171.46053988077
 20
41.82744218161214
 10
-171.4341476461195
 20
41.75632977158232
 10
-171.4136203525028
 20
41.68081865577739
 10
-171.4011573528067
 20
41.61630430440971
 10
-171.8205006366954
 20
41.61630430440971
 10
-171.8476259889749
 20
41.6918154202148
 10
-171.8842818704336
 20
41.75779600684065
 10
-171.9304682810718
 20
41.81351294665812
 10
-171.9766546917099
 20
41.85383441626274
 10
-172.0367703373022
 20
41.88975718009233
 10
-172.1049502768157
 20
41.91468317948435
 10
-172.1797282749916
 20
41.93007864969703
 10
-172.2618374494594
 20
41.93521047310127
 10
-172.2633036847177
 20
41.93521047310127
 10
-172.3446797415563
 20
41.93081176732622
 10
-172.4194577397322
 20
41.91688253237189
 10
-172.489103914504
 20
41.89415588586738
 10
-172.5521520306131
 20
41.86189871018362
 10
-172.6093352056886
 20
41.82084412294989
 10
-172.659920322102
 20
41.77025900653641
 10
-172.6731164394272
 20
41.75486353632384
 10
-172.7105054385149
 20
41.70207906702329
 10
-172.7427626141988
 20
41.64342965668913
 10
-172.7691548488492
 20
41.57891530532161
 10
-172.7904152600953
 20
41.50853601292098
 10
-172.805810730308
 20
41.43229177948639
 10
-172.8153412594872
 20
41.35091572264795
 10
-172.8190068476333
 20
41.26294160715043
 10
-172.8197399652623
 20
41.24314743115937
 10
-172.8168074947456
 20
41.15517331565769
 10
-172.8080100831955
 20
41.07306414119027
 10
-172.7940808482412
 20
40.9960867901267
 10
-172.7735535546241
 20
40.92424126246724
 10
-172.747894437603
 20
40.85826067584163
 10
-172.7163703795486
 20
40.79814503024936
 10
-172.6797144980897
 20
40.74316120806105
 10
-172.6687177336518
 20
40.72996509073563
 10
-172.6188657348681
 20
40.67644750380607
 10
-172.5631487950507
 20
40.63172732842632
 10
-172.5015669141999
 20
40.59653768222588
 10
-172.4341200923158
 20
40.57087856520474
 10
-172.3615414470273
 20
40.5532837421045
 10
-172.2830978607054
 20
40.54595256581275
 10
-172.25230692028
 20
40.54521944818358
 10
-172.1731302163291
 20
40.5503512715878
 10
-172.0990853357824
 20
40.56647985942965
 10
-172.0316385138981
 20
40.59213897645082
 10
-171.968590397789
 20
40.62952797553888
 10
-171.9253364576676
 20
40.66471762173923
 10
-171.8747513412544
 20
40.71750209103994
 10
-171.8344298716497
 20
40.77688461900334
 10
-171.8029058135952
 20
40.84359832325822
 10
-171.7809122847199
 20
40.91691008617588
 10
-171.7706486379114
 20
40.97922508465575
 10
-172.2237153327422
 20
40.97922508465576
 10
-172.2237153327422
 20
41.32159101748095
 10
-171.3960255294025
 20
41.32159101748096
 97
        0
 92
       22
 72
     0
 73
     1
 93
       31
 10
-173.5550569473258
 20
40.23950939681717
 10
-173.9773327017312
 20
40.23950939681717
 10
-174.6195437448893
 20
41.36777742811839
 10
-174.6554665087176
 20
41.43522425000308
 10
-174.6906561549198
 20
41.50340418951617
 10
-174.703119154618
 20
41.52906330653958
 10
-174.7361094479277
 20
41.59651012842099
 10
-174.7683666236117
 20
41.66688942082294
 10
-174.7837620938249
 20
41.70207906702338
 10
-174.7727653293876
 20
41.61703742204046
 10
-174.763967917837
 20
41.542259423861
 10
-174.7588360944329
 20
41.4924074250792
 10
-174.7522380357702
 20
41.40736578009435
 10
-174.7507718005119
 20
41.35678066368111
 10
-174.7507718005119
 20
40.23950939681717
 10
-175.1569189670754
 20
40.23950939681717
 10
-175.1569189670754
 20
42.23945428920932
 10
-174.7251126834908
 20
42.23945428920932
 10
-174.0777698169284
 20
41.1016557287283
 10
-174.0506444646499
 20
41.04593878891245
 10
-174.0169210537048
 20
40.97555949650781
 10
-173.9861301132843
 20
40.91031202751608
 10
-173.9531398199684
 20
40.84066585274172
 10
-173.9245482324305
 20
40.77835085426151
 10
-173.9362781144972
 20
40.86046002872798
 10
-173.9458086436764
 20
40.93450490927565
 10
-173.9502073494517
 20
40.97409326125207
 10
-173.9560722904851
 20
41.05693555334853
 10
-173.9582716433726
 20
41.1177843165702
 10
-173.9582716433726
 20
42.23945428920932
 10
-173.5550569473258
 20
42.23945428920932
 97
        0
 92
       22
 72
     0
 73
     1
 93
        8
 10
-167.799350440665
 20
40.23950939681717
 10
-167.0852938698476
 20
42.23945428920933
 10
-166.6051018227373
 20
42.23945428920933
 10
-165.8895790166615
 20
40.23950939681717
 10
-166.345578182009
 20
40.23950939681717
 10
-166.4797387081482
 20
40.6507883867849
 10
-167.2128563373243
 20
40.65078838678491
 10
-167.3470168634634
 20
40.23950939681717
 97
        0
 92
        6
 72
     0
 73
     1
 93
        9
 10
-167.0984899871728
 20
41.00928290745198
 10
-166.8922695751385
 20
41.65972721781092
 10
-166.8748891102749
 20
41.73287000744648
 10
-166.8726897573866
 20
41.7424005366274
 10
-166.8602267576906
 20
41.81864477006226
 10
-166.8448312874775
 20
41.74533300714358
 10
-166.8411656993318
 20
41.72993753693158
 10
-166.8177059351986
 20
41.65442642112632
 10
-166.6051018227373
 20
41.00928290745198
 97
        0
 92
       22
 72
     0
 73
     1
 93
        4
 10
-175.5205453111467
 20
40.23950939681717
 10
-175.9318243011144
 20
40.23950939681717
 10
-175.9318243011144
 20
42.23945428920931
 10
-175.5205453111467
 20
42.23945428920933
 97
        0
 92
       22
 72
     0
 73
     1
 93
        8
 10
-165.8096691950813
 20
41.8824260038006
 10
-165.8096691950813
 20
42.23945428920932
 10
-164.2173377045111
 20
42.23945428920932
 10
-164.2173377045111
 20
41.8824260038006
 10
-164.8089636312561
 20
41.8824260038006
 10
-164.8089636312561
 20
40.23950939681717
 10
-165.2202426212238
 20
40.23950939681717
 10
-165.2202426212238
 20
41.88242600380061
 97
        0
 92
       22
 72
     0
 73
     1
 93
       13
 10
-176.1341647667671
 20
42.23945428920933
 10
-176.8152310442715
 20
40.23950939681717
 10
-177.2103814463974
 20
40.23950939681717
 10
-177.8980457825645
 20
42.23945428920932
 10
-177.4574420874297
 20
42.23945428920932
 10
-177.062291685304
 20
41.06206737675367
 10
-177.0380988035408
 20
40.98509002568945
 10
-177.0271020391033
 20
40.94550167371342
 10
-177.0088534371606
 20
40.8551276450448
 10
-176.9912923110316
 20
40.94820161352862
 10
-176.9655201582525
 20
41.04300631839406
 10
-176.9589220995898
 20
41.06206737675297
 10
-176.5733022266434
 20
42.23945428920932
 97
        0
 92
       22
 72
     0
 73
     1
 93
       12
 10
-163.9578140637827
 20
42.23945428920933
 10
-162.5069742756434
 20
42.23945428920932
 10
-162.5069742756434
 20
41.89195653297989
 10
-163.5524000148484
 20
41.89195653297988
 10
-163.5524000148484
 20
41.46528207279946
 10
-162.5971477440321
 20
41.46528207279946
 10
-162.597147744032
 20
41.12364925760343
 10
-163.5524000148484
 20
41.12364925760343
 10
-163.5524000148484
 20
40.60900068192188
 10
-162.4541898063428
 20
40.60900068192188
 10
-162.4541898063428
 20
40.23950939681717
 10
-163.9578140637827
 20
40.23950939681717
 97
        0
 92
       22
 72
     0
 73
     1
 93
        4
 10
-178.1047849539921
 20
40.23950939681717
 10
-178.5160639439598
 20
40.23950939681717
 10
-178.5160639439598
 20
42.23945428920931
 10
-178.1047849539921
 20
42.23945428920933
 97
        0
 92
       22
 72
     0
 73
     1
 93
        6
 10
-178.7858512314967
 20
40.60900068192188
 10
-178.7858512314967
 20
40.23950939681718
 10
-180.1714435506393
 20
40.23950939681717
 10
-180.1714435506393
 20
42.23945428920931
 10
-179.7601645606715
 20
42.23945428920932
 10
-179.7601645606716
 20
40.60900068192188
 97
        0
 92
       22
 72
     0
 73
     1
 93
       55
 10
-162.1301518142469
 20
42.23945428920933
 10
-161.2599411884149
 20
42.23945428920931
 10
-161.1639027789929
 20
42.23798805395097
 10
-161.0773948987502
 20
42.23358934817591
 10
-161.001883782945
 20
42.22625817188414
 10
-160.9373694315776
 20
42.21599452507567
 10
-160.8853180799061
 20
42.20426464300888
 10
-160.8127394346177
 20
42.17787240835852
 10
-160.7460257303627
 20
42.14194964452892
 10
-160.6784160337553
 20
42.0901990125578
 10
-160.6250613215487
 20
42.02978264726506
 10
-160.5840067343148
 20
41.96600141352679
 10
-160.5568813820352
 20
41.90515265030497
 10
-160.5363540884183
 20
41.83697271079156
 10
-160.5231579710931
 20
41.76292783024478
 10
-160.5171464065339
 20
41.66931918210827
 10
-160.522424853464
 20
41.58184777583843
 10
-160.5356209707892
 20
41.50487042477502
 10
-160.5583476172936
 20
41.43669048526159
 10
-160.593271866721
 20
41.37160438405597
 10
-160.6411899093906
 20
41.31425984118917
 10
-160.6961737315787
 20
41.26807343055108
 10
-160.7621543182045
 20
41.22995131383403
 10
-160.839131669268
 20
41.19989349103775
 10
-160.839131669268
 20
41.19916037340856
 10
-160.7621543182045
 20
41.17350125638743
 10
-160.6983730844662
 20
41.13537913967025
 10
-160.6415439088194
 20
41.07770176737194
 10
-160.6103989689652
 20
41.01368161322727
 10
-160.5898716753482
 20
40.94770102660119
 10
-160.5759424403939
 20
40.8699905579086
 10
-160.5683816019455
 20
40.77623616114933
 10
-160.5583476172935
 20
40.52615838982482
 10
-160.5583476172936
 20
40.5070973314664
 10
-160.5488170881144
 20
40.41252515730284
 10
-160.5253573239807
 20
40.34507833541851
 10
-160.4879683248927
 20
40.30475686581385
 10
-160.4806371486009
 20
40.30035816003877
 10
-160.480637148601
 20
40.23950939681717
 10
-160.9315044905441
 20
40.23950939681717
 10
-160.9601880662256
 20
40.31818434725781
 10
-160.9740253130363
 20
40.40812645152748
 10
-160.9791571364407
 20
40.48950250836668
 10
-160.9842889598449
 20
40.70137350319837
 10
-160.9923532537657
 20
40.79667879499083
 10
-161.009948076866
 20
40.87365614605459
 10
-161.0356071938873
 20
40.93010620350107
 10
-161.0539351346166
 20
40.95356596763465
 10
-161.1023208981422
 20
40.98728937857671
 10
-161.1705008376556
 20
41.00781667219363
 10
-161.2577418355274
 20
41.01734720137292
 10
-161.2819347172903
 20
41.01734720137292
 10
-161.7174065890209
 20
41.01734720137292
 10
-161.7174065890209
 20
40.23950939681717
 10
-162.1301518142469
 20
40.23950939681717
 97
        0
 92
        6
 72
     0
 73
     1
 93
       15
 10
-161.7174065890209
 20
41.36484495760234
 10
-161.7174065890209
 20
41.8948890034966
 10
-161.219986277625
 20
41.8948890034966
 10
-161.1294462504217
 20
41.88535847431732
 10
-161.0605331932792
 20
41.86336494544203
 10
-161.0062824887201
 20
41.82817529924157
 10
-160.9659610191155
 20
41.7790564180868
 10
-160.9403019020943
 20
41.71234271383183
 10
-160.9315044905441
 20
41.63023353936401
 10
-160.9388356668359
 20
41.55032371778398
 10
-160.9637616662279
 20
41.48214377827056
 10
-161.0082251665567
 20
41.42577041178223
 10
-161.0700637224585
 20
41.39123719225266
 10
-161.1419092501177
 20
41.37144301626493
 10
-161.2284171303604
 20
41.36484495760234
 97
        0
 75
     0
 76
     1
 47
0.032705451459055
 98
       14
 10
-170.6669769587966
 20
41.06509349370128
 10
-170.6669769587966
 20
41.06509349370128
 10
-170.6669769587966
 20
41.06509349370128
 10
-170.6669769587966
 20
41.06509349370128
 10
-170.6669769587966
 20
41.06509349370128
 10
-170.6669769587966
 20
41.06509349370128
 10
-170.6669769587966
 20
41.06509349370128
 10
-170.6669769587966
 20
41.06509349370128
 10
-170.6669769587966
 20
41.06509349370128
 10
-170.6669769587966
 20
41.06509349370128
 10
-170.6669769587966
 20
41.06509349370128
 10
-170.6669769587966
 20
41.06509349370128
 10
-170.6669769587966
 20
41.06509349370128
 10
-170.6669769587966
 20
41.06509349370128
450
        1
451
        0
460
0.0
461
0.0
452
        0
462
0.5299999713897705
453
        2
463
0.0
 63
   123
421
  3784885
463
1.0
 63
   123
421
  3784885
470
LINEAR
1001
ACAD
1010
0.0
1020
0.0
1030
0.0
1001
ACDBBLOCKREPETAG
1070
     1
1071
      164
1005
4D49
  0
HATCH
  5
4D4A
330
4CD5
100
AcDbEntity
  8
AM_BOR
 62
   123
420
  3784885
100
AcDbHatch
 10
0.0
 20
0.0
 30
0.0
210
0.0
220
0.0
230
1.0
  2
SOLID
 70
     1
 71
     0
 91
        2
 92
        7
 72
     0
 73
     1
 93
        7
 10
-158.5974339722946
 20
48.31852789685665
 10
-158.5409104150879
 20
47.79119360236695
 10
-158.0967813425871
 20
47.68984318829683
 10
-157.4926664740909
 20
48.08157129524667
 10
-156.8579093464927
 20
49.09804534342623
 10
-157.0356346813845
 20
49.29649823506673
 10
-157.6869970430911
 20
48.97023880637647
 97
        0
 92
        7
 72
     0
 73
     1
 93
        7
 10
-157.4507081829928
 20
50.16023406980679
 10
-156.8466499208865
 20
50.55196032042651
 10
-156.2119482337933
 20
51.56846784929662
 10
-156.3896782088908
 20
51.76688491870657
 10
-157.0410097306871
 20
51.44055838470686
 10
-157.9515262152912
 20
50.78887146175652
 10
-157.8949377358862
 20
50.26155813017653
 97
        0
 75
     0
 76
     1
 47
0.0180176529319187
 98
        3
 10
-157.7872217268443
 20
48.40469096149684
 10
-157.8773433459794
 20
48.38667302315298
 10
-157.156369855084
 20
50.81905633500355
450
        1
451
        0
460
0.0
461
0.0
452
        0
462
0.5299999713897705
453
        2
463
0.0
 63
   123
421
  3784885
463
1.0
 63
   123
421
  3784885
470
LINEAR
1001
ACAD
1010
0.0
1020
0.0
1030
0.0
1001
ACDBBLOCKREPETAG
1070
     1
1071
      165
1005
4D4A
  0
HATCH
  5
4D4B
330
4CD5
100
AcDbEntity
  8
AM_BOR
 62
   154
420
  1724830
100
AcDbHatch
 10
0.0
 20
0.0
 30
0.0
210
0.0
220
0.0
230
1.0
  2
SOLID
 70
     1
 71
     0
 91
        6
 92
        7
 72
     0
 73
     1
 93
       24
 10
-163.1792158876909
 20
46.71124108927684
 10
-162.8317195423863
 20
46.93734942412675
 10
-161.2107512767893
 20
47.41243559912655
 10
-160.1129984281928
 20
48.11271948044666
 10
-159.5531617954897
 20
48.86941244126679
 10
-159.4717119667897
 20
49.58406677412668
 10
-159.751145355089
 20
50.07162062699666
 10
-160.4958330393914
 20
50.28529193729713
 10
-161.7083169637902
 20
49.95431712734664
 10
-162.9206689461847
 20
49.15026483470674
 10
-163.8834606751901
 20
47.96105665623684
 10
-164.3497719393911
 20
46.73586308208665
 10
-164.3969139358873
 20
46.01523293743678
 10
-164.1424001215914
 20
45.2993942887469
 10
-163.5106108648891
 20
44.82776209809702
 10
-162.5249374656909
 20
44.68657931470665
 10
-161.2438906509909
 20
45.10081129022679
 10
-159.8753877417897
 20
46.04204954416667
 10
-159.8844590604916
 20
46.54213255219696
 10
-160.0549805691902
 20
46.70339950024701
 10
-161.1167995106865
 20
45.77349347570675
 10
-162.2712320490885
 20
45.30388230987677
 10
-162.9158419949948
 20
45.31943884287642
 10
-163.2391081631925
 20
45.68285767943637
 97
        0
 92
       22
 72
     0
 73
     1
 93
        7
 10
-162.6066191544872
 20
47.5296019698671
 10
-162.5630249958907
 20
48.03960205209698
 10
-161.4846277578894
 20
49.22882222012679
 10
-160.6404912705896
 20
49.71804251480666
 10
-160.2286330969858
 20
49.68377038281682
 10
-160.2997054704887
 20
49.09934187651643
 10
-161.2713369686883
 20
48.16007355246661
 97
        0
 92
        7
 72
     0
 73
     1
 93
       52
 10
-165.3680094183931
 20
49.46909119591682
 10
-165.1941204044909
 20
50.12584720943634
 10
-164.7939291538845
 20
50.32750522733652
 10
-164.4300123229899
 20
50.70221777861702
 10
-164.8985227090873
 20
50.82255382299666
 10
-165.7627125486891
 20
50.44700683140669
 10
-169.4734266782891
 20
46.54590157662656
 10
-170.4154555764893
 20
45.68378528312626
 10
-170.8209780958917
 20
45.52564669454653
 10
-170.2710892491873
 20
47.78588385097619
 10
-170.0923353941892
 20
48.87351872783657
 10
-170.1722715182899
 20
49.34594790056681
 10
-170.3714065370935
 20
49.74589194428692
 10
-170.6944830956912
 20
50.05468114510673
 10
-171.1462438391885
 20
50.25364578912643
 10
-171.7314314128947
 20
50.32411616244685
 10
-173.6308808582891
 20
49.87714106323673
 10
-175.50573385709
 20
49.3901492748168
 10
-175.7551561074881
 20
49.39158456892469
 10
-175.8820264555629
 20
48.87313868601456
 10
-172.5025823266901
 20
49.68994983770648
 10
-171.7976565824923
 20
49.79776136926687
 10
-171.4831421857947
 20
49.6787086089966
 10
-171.3594750308897
 20
49.24333065793685
 10
-174.5267687407889
 20
47.61516956662663
 10
-175.1914243210907
 20
47.2257821931666
 10
-175.6447857611842
 20
46.63872190934666
 10
-175.7790034385892
 20
46.12024349635698
 10
-175.6621855425895
 20
45.43270177766678
 10
-175.2174063199912
 20
44.93229835418646
 10
-174.5057991447887
 20
44.69215292666689
 10
-173.5405387451887
 20
44.82664933245672
 10
-172.4391062568888
 20
45.51113368864656
 10
-172.0753756407925
 20
45.19348674746644
 10
-171.67817136269
 20
44.75585769082676
 10
-171.1619618838871
 20
44.69286894103646
 10
-170.1433986920877
 20
45.18679932458684
 10
-168.3643377477913
 20
47.01135290114654
 10
-166.3620151172931
 20
49.27155849203646
 10
-166.2285226223888
 20
49.37409637992635
 10
-166.4861116388914
 20
46.46591806335637
 10
-166.7372487328888
 20
45.67290224650649
 10
-167.0830503987876
 20
45.29169618315649
 10
-167.4371709702885
 20
45.2083656181066
 10
-167.8426227155927
 20
45.41506766908644
 10
-168.1238171859862
 20
46.00842285754692
 10
-168.8758192869849
 20
45.54276305569686
 10
-168.4069485460917
 20
44.97309531327657
 10
-167.6913681892896
 20
44.70261480903667
 10
-166.8331043319907
 20
44.76512879243677
 10
-166.3588689223892
 20
44.97559348575665
 10
-165.9760594220919
 20
45.30101369892687
 97
        0
 92
       22
 72
     0
 73
     1
 93
        9
 10
-171.3039658751935
 20
48.05491061427659
 10
-172.06692224719
 20
46.6198639222166
 10
-172.9811378504877
 20
45.70432051797655
 10
-173.7173709457914
 20
45.3887771420563
 10
-174.3182372937866
 20
45.52612888811647
 10
-174.5516954064936
 20
46.0712458546967
 10
-174.291462324289
 20
46.76249391369668
 10
-172.8618214871886
 20
47.53317143111661
 10
-171.5139293532905
 20
48.16309870194704
 97
        0
 92
        7
 72
     0
 73
     1
 93
       37
 10
-176.0152601917857
 20
48.32868930869682
 10
-175.8820264555629
 20
48.87313868601453
 10
-176.1361467437876
 20
48.81171784951669
 10
-177.0127243640794
 20
48.96062188426068
 10
-177.6083354602873
 20
47.55424044988695
 10
-178.6492225869863
 20
46.12303698135701
 10
-179.6004275379876
 20
45.39977432506696
 10
-180.4149196538913
 20
45.19686234765634
 10
-180.9780782084838
 20
45.3854768016867
 10
-181.3531542931872
 20
46.15075647728681
 10
-181.2461765485918
 20
47.68133446351685
 10
-180.5902118515863
 20
49.38360628733655
 10
-179.5561837432891
 20
50.81679833008678
 10
-178.5321315597887
 20
51.61961933061682
 10
-177.6851758750912
 20
51.85431542209692
 10
-177.6294080540887
 20
51.85325723265663
 10
-177.0178464191907
 20
51.63265273577639
 10
-176.6617378098875
 20
50.88370917822658
 10
-176.8121760628912
 20
49.53673958212234
 10
-176.5271786153884
 20
49.39602715315681
 10
-175.7551561074881
 20
49.3915845689247
 10
-175.6595137205935
 20
49.78241979929681
 10
-175.7520638876943
 20
50.95694755852668
 10
-176.1885394445911
 20
51.77434604606691
 10
-177.0006371085895
 20
52.27311025383681
 10
-178.2107005215861
 20
52.32537305135696
 10
-179.5528497024919
 20
51.82275944483663
 10
-180.8458180739892
 20
50.75265704980669
 10
-181.8349167085893
 20
49.30996533073678
 10
-182.3646363845895
 20
47.8111927676168
 10
-182.4012608124889
 20
46.49584215683669
 10
-182.0247482459875
 20
45.49561679701667
 10
-181.3754928978945
 20
44.90721964278685
 10
-180.3946850340857
 20
44.68409602908645
 10
-179.3964633933923
 20
44.83963169772681
 10
-178.0964236678905
 20
45.52294258034674
 10
-176.9113810675903
 20
46.72548127834655
 97
        0
 92
       23
 72
     0
 73
     1
 93
       10
 10
-177.3973375892878
 20
50.14432986894692
 10
-177.4316297692916
 20
50.68888445899704
 10
-178.158521001786
 20
50.25740769359658
 10
-178.2622332652884
 20
50.11348414810659
 10
-177.8356695246896
 20
49.38843775433671
 10
-177.1824026695889
 20
48.98944509821689
 10
-177.0127243640794
 20
48.96062188426068
 10
-176.8277356239909
 20
49.39742491107647
 10
-176.8121760628913
 20
49.53673958212234
 10
-177.1048761346886
 20
49.68125504505672
 97
        0
 75
     0
 76
     1
 47
0.0323232688425598
 98
        6
 10
-163.4431920496866
 20
47.14565483534278
 10
-163.4431920496866
 20
47.14565483534278
 10
-165.8360003653998
 20
49.02040429807062
 10
-165.8360003653998
 20
49.02040429807062
 10
-176.2479494239395
 20
48.34161588573249
 10
-177.2180069800484
 20
49.66686963004571
450
        1
451
        0
460
0.0
461
0.0
452
        0
462
0.3499999940395355
453
        2
463
0.0
 63
   154
421
  1724830
463
1.0
 63
   154
421
  1724830
470
LINEAR
1001
ACAD
1010
0.0
1020
0.0
1030
0.0
1001
ACDBBLOCKREPETAG
1070
     1
1071
      166
1005
4D4B
  0
HATCH
  5
4D4C
330
4CD5
100
AcDbEntity
  8
AM_BOR
 62
   154
420
  1724830
100
AcDbHatch
 10
0.0
 20
0.0
 30
0.0
210
0.0
220
0.0
230
1.0
  2
SOLID
 70
     1
 71
     0
 91
        1
 92
        7
 72
     0
 73
     1
 93
        7
 10
-176.5271786153884
 20
49.39602715315681
 10
-176.8121760628912
 20
49.53673958212235
 10
-176.8277356239908
 20
49.39742491107659
 10
-177.0127243640794
 20
48.96062188426069
 10
-176.1361467437877
 20
48.8117178495167
 10
-175.8820264555629
 20
48.87313868601456
 10
-175.7551561074881
 20
49.3915845689247
 97
        0
 75
     0
 76
     1
 47
0.0226559921220775
 98
        1
 10
-176.2840394833299
 20
49.16903645936685
450
        1
451
        0
460
0.0
461
0.0
452
        1
462
0.3499999940395355
453
        2
463
0.0
 63
   154
421
  1724830
463
1.0
 63
   154
421
  1658778
470
LINEAR
1001
ACAD
1010
0.0
1020
0.0
1030
0.0
1001
ACDBBLOCKREPETAG
1070
     1
1071
      167
1005
4D4C
  0
TEXT
  5
4D4D
330
4CD5
100
AcDbEntity
  8
AM_0
100
AcDbText
 10
-185.1677349473596
 20
61.722285377312
 30
0.0
 40
2.5
  1
Alle scharfen Kanten leicht entgratet  /
100
AcDbText
1001
ACDBBLOCKREPETAG
1070
     1
1071
      168
1005
4D4D
  0
TEXT
  5
4D4E
330
4CD5
100
AcDbEntity
  8
AM_0
100
AcDbText
 10
-124.6513144576422
 20
61.73169971443048
 30
0.0
 40
2.5
  1
all square edges slightly deburring
100
AcDbText
1001
ACDBBLOCKREPETAG
1070
     1
1071
      169
1005
4D4E
  0
ATTDEF
  5
4D4F
330
4CD5
100
AcDbEntity
  8
AM_BOR
100
AcDbText
 10
-139.1199747843967
 20
34.67247264259191
 30
0.0
 40
2.0
  1

100
AcDbAttributeDefinition
280
     0
  3
CE8
  2
CN_ERSTELLER_8
 70
     0
280
     1
1001
ACDBBLOCKREPETAG
1070
     1
1071
      170
1005
0
  0
TEXT
  5
4D50
330
4CD5
100
AcDbEntity
  8
AM_0
100
AcDbText
 10
-185.0387037081413
 20
66.6236496165892
 30
0.0
 40
2.5
  1
Oberfläche fettfrei /  surface free of grease
100
AcDbText
1001
ACDBBLOCKREPETAG
1070
     1
1071
      168
1005
4D4D
  0
ENDBLK
  5
4D54
330
4CD5
100
AcDbEntity
  8
0
100
AcDbBlockEnd
  0
BLOCK
  5
4D98
330
4D97
100
AcDbEntity
  8
0
100
AcDbBlockBegin
  2
*D4
 70
     1
 10
0.0
 20
0.0
 30
0.0
  3
*D4
  1

  0
LINE
  5
5182
330
4D97
100
AcDbEntity
  8
AM_5 ( Bemassung)
440
 16777216
100
AcDbLine
 10
3694.772359789768
 20
8030.08416962005
 30
0.0
 11
3694.772359789768
 21
8043.084169620049
 31
0.0
  0
LINE
  5
5183
330
4D97
100
AcDbEntity
  8
AM_5 ( Bemassung)
440
 16777216
100
AcDbLine
 10
3616.272359789768
 20
8030.08416962005
 30
0.0
 11
3616.272359789768
 21
8043.084169620049
 31
0.0
  0
LINE
  5
5184
330
4D97
100
AcDbEntity
  8
AM_5 ( Bemassung)
440
 16777216
100
AcDbLine
 10
3692.272359789768
 20
8042.084169620048
 30
0.0
 11
3618.772359789768
 21
8042.084169620048
 31
0.0
  0
SOLID
  5
5185
330
4D97
100
AcDbEntity
  8
AM_5 ( Bemassung)
440
 16777216
100
AcDbTrace
 10
3692.272359789768
 20
8042.500836286716
 30
0.0
 11
3692.272359789768
 21
8041.667502953382
 31
0.0
 12
3694.772359789768
 22
8042.084169620048
 32
0.0
 13
3694.772359789768
 23
8042.084169620048
 33
0.0
  0
SOLID
  5
5186
330
4D97
100
AcDbEntity
  8
AM_5 ( Bemassung)
440
 16777216
100
AcDbTrace
 10
3618.772359789768
 20
8042.500836286716
 30
0.0
 11
3618.772359789768
 21
8041.667502953382
 31
0.0
 12
3616.272359789768
 22
8042.084169620048
 32
0.0
 13
3616.272359789768
 23
8042.084169620048
 33
0.0
  0
MTEXT
  5
5187
330
4D97
100
AcDbEntity
  8
AM_5 ( Bemassung)
 62
     6
440
 16777216
100
AcDbMText
 10
3655.522359789767
 20
8045.398630738738
 30
0.0
 40
3.5
 41
0.0
 46
0.0
 71
     5
 72
     1
  1
%%c78.5
 73
     1
 44
1.0
  0
POINT
  5
5188
330
4D97
100
AcDbEntity
  8
Defpoints
 62
     0
440
 16777216
100
AcDbPoint
 10
3694.772359789768
 20
8030.08416962005
 30
0.0
  0
POINT
  5
5189
330
4D97
100
AcDbEntity
  8
Defpoints
 62
     0
440
 16777216
100
AcDbPoint
 10
3616.272359789768
 20
8030.08416962005
 30
0.0
  0
POINT
  5
518A
330
4D97
100
AcDbEntity
  8
Defpoints
 62
     0
440
 16777216
100
AcDbPoint
 10
3616.272359789768
 20
8042.084169620048
 30
0.0
  0
ENDBLK
  5
4D99
330
4D97
100
AcDbEntity
  8
0
100
AcDbBlockEnd
  0
BLOCK
  5
4DDD
330
4DDC
100
AcDbEntity
  8
0
100
AcDbBlockBegin
  2
*D5
 70
     1
 10
0.0
 20
0.0
 30
0.0
  3
*D5
  1

  0
LINE
  5
507D
330
4DDC
100
AcDbEntity
  8
AM_5 ( Bemassung)
440
 16777216
100
AcDbLine
 10
3698.48886922373
 20
8030.08416962005
 30
0.0
 11
3698.48886922373
 21
8053.084169620047
 31
0.0
  0
LINE
  5
507E
330
4DDC
100
AcDbEntity
  8
AM_5 ( Bemassung)
440
 16777216
100
AcDbLine
 10
3612.555850355806
 20
8030.08416962005
 30
0.0
 11
3612.555850355806
 21
8053.084169620047
 31
0.0
  0
LINE
  5
507F
330
4DDC
100
AcDbEntity
  8
AM_5 ( Bemassung)
440
 16777216
100
AcDbLine
 10
3695.98886922373
 20
8052.08416962005
 30
0.0
 11
3615.055850355805
 21
8052.08416962005
 31
0.0
  0
SOLID
  5
5080
330
4DDC
100
AcDbEntity
  8
AM_5 ( Bemassung)
440
 16777216
100
AcDbTrace
 10
3695.98886922373
 20
8052.500836286716
 30
0.0
 11
3695.98886922373
 21
8051.667502953382
 31
0.0
 12
3698.48886922373
 22
8052.08416962005
 32
0.0
 13
3698.48886922373
 23
8052.08416962005
 33
0.0
  0
SOLID
  5
5081
330
4DDC
100
AcDbEntity
  8
AM_5 ( Bemassung)
440
 16777216
100
AcDbTrace
 10
3615.055850355805
 20
8052.500836286716
 30
0.0
 11
3615.055850355805
 21
8051.667502953382
 31
0.0
 12
3612.555850355806
 22
8052.08416962005
 32
0.0
 13
3612.555850355806
 23
8052.08416962005
 33
0.0
  0
MTEXT
  5
5082
330
4DDC
100
AcDbEntity
  8
AM_5 ( Bemassung)
 62
     6
440
 16777216
100
AcDbMText
 10
3655.522359789767
 20
8055.372368801496
 30
0.0
 40
3.5
 41
0.0
 46
0.0
 71
     5
 72
     1
  1
NPT 3
 73
     1
 44
1.0
  0
POINT
  5
5083
330
4DDC
100
AcDbEntity
  8
Defpoints
 62
     0
440
 16777216
100
AcDbPoint
 10
3698.48886922373
 20
8030.08416962005
 30
0.0
  0
POINT
  5
5084
330
4DDC
100
AcDbEntity
  8
Defpoints
 62
     0
440
 16777216
100
AcDbPoint
 10
3612.555850355806
 20
8030.08416962005
 30
0.0
  0
POINT
  5
5085
330
4DDC
100
AcDbEntity
  8
Defpoints
 62
     0
440
 16777216
100
AcDbPoint
 10
3612.555850355806
 20
8052.08416962005
 30
0.0
  0
ENDBLK
  5
4DDE
330
4DDC
100
AcDbEntity
  8
0
100
AcDbBlockEnd
  0
BLOCK
  5
4E10
330
4E0F
100
AcDbEntity
  8
0
100
AcDbBlockBegin
  2
*D6
 70
     1
 10
0.0
 20
0.0
 30
0.0
  3
*D6
  1

  0
LINE
  5
50D0
330
4E0F
100
AcDbEntity
  8
AM_5 ( Bemassung)
440
 16777216
100
AcDbLine
 10
3699.972359789768
 20
7952.084169620049
 30
0.0
 11
3699.972359789768
 21
7941.534638996016
 31
0.0
  0
LINE
  5
50D1
330
4E0F
100
AcDbEntity
  8
AM_5 ( Bemassung)
440
 16777216
100
AcDbLine
 10
3611.072359789768
 20
7952.084169620049
 30
0.0
 11
3611.072359789768
 21
7941.534638996016
 31
0.0
  0
LINE
  5
50D2
330
4E0F
100
AcDbEntity
  8
AM_5 ( Bemassung)
440
 16777216
100
AcDbLine
 10
3697.472359789767
 20
7942.534638996017
 30
0.0
 11
3613.572359789768
 21
7942.534638996017
 31
0.0
  0
SOLID
  5
50D3
330
4E0F
100
AcDbEntity
  8
AM_5 ( Bemassung)
440
 16777216
100
AcDbTrace
 10
3697.472359789767
 20
7942.951305662685
 30
0.0
 11
3697.472359789767
 21
7942.11797232935
 31
0.0
 12
3699.972359789768
 22
7942.534638996017
 32
0.0
 13
3699.972359789768
 23
7942.534638996017
 33
0.0
  0
SOLID
  5
50D4
330
4E0F
100
AcDbEntity
  8
AM_5 ( Bemassung)
440
 16777216
100
AcDbTrace
 10
3613.572359789768
 20
7942.951305662685
 30
0.0
 11
3613.572359789768
 21
7942.11797232935
 31
0.0
 12
3611.072359789768
 22
7942.534638996017
 32
0.0
 13
3611.072359789768
 23
7942.534638996017
 33
0.0
  0
MTEXT
  5
50D5
330
4E0F
100
AcDbEntity
  8
AM_5 ( Bemassung)
 62
     6
440
 16777216
100
AcDbMText
 10
3662.275934476859
 20
7945.844325217027
 30
0.0
 40
3.5
 41
0.0
 46
0.0
 71
     5
 72
     1
  1
G 3
 73
     1
 44
1.0
  0
POINT
  5
50D6
330
4E0F
100
AcDbEntity
  8
Defpoints
 62
     0
440
 16777216
100
AcDbPoint
 10
3699.972359789768
 20
7952.084169620049
 30
0.0
  0
POINT
  5
50D7
330
4E0F
100
AcDbEntity
  8
Defpoints
 62
     0
440
 16777216
100
AcDbPoint
 10
3611.072359789768
 20
7952.084169620049
 30
0.0
  0
POINT
  5
50D8
330
4E0F
100
AcDbEntity
  8
Defpoints
 62
     0
440
 16777216
100
AcDbPoint
 10
3611.072359789768
 20
7942.534638996017
 30
0.0
  0
ENDBLK
  5
4E11
330
4E0F
100
AcDbEntity
  8
0
100
AcDbBlockEnd
  0
BLOCK
  5
4EB4
330
4EB3
100
AcDbEntity
  8
0
100
AcDbBlockBegin
  2
*D8
 70
     1
 10
0.0
 20
0.0
 30
0.0
  3
*D8
  1

  0
LINE
  5
5148
330
4EB3
100
AcDbEntity
  8
AM_5 ( Bemassung)
440
 16777216
100
AcDbLine
 10
3698.272359789767
 20
7952.084169620049
 30
0.0
 11
3734.503408192486
 21
7952.084169620049
 31
0.0
  0
LINE
  5
5149
330
4EB3
100
AcDbEntity
  8
AM_5 ( Bemassung)
440
 16777216
100
AcDbLine
 10
3699.972359789768
 20
7991.02605643158
 30
0.0
 11
3734.503408192486
 21
7991.02605643158
 31
0.0
  0
LINE
  5
514A
330
4EB3
100
AcDbEntity
  8
AM_5 ( Bemassung)
440
 16777216
100
AcDbLine
 10
3733.503408192485
 20
7954.584169620048
 30
0.0
 11
3733.503408192485
 21
7988.52605643158
 31
0.0
  0
SOLID
  5
514B
330
4EB3
100
AcDbEntity
  8
AM_5 ( Bemassung)
440
 16777216
100
AcDbTrace
 10
3733.086741525819
 20
7954.584169620048
 30
0.0
 11
3733.920074859153
 21
7954.584169620048
 31
0.0
 12
3733.503408192485
 22
7952.084169620049
 32
0.0
 13
3733.503408192485
 23
7952.084169620049
 33
0.0
  0
SOLID
  5
514C
330
4EB3
100
AcDbEntity
  8
AM_5 ( Bemassung)
440
 16777216
100
AcDbTrace
 10
3733.086741525819
 20
7988.52605643158
 30
0.0
 11
3733.920074859153
 21
7988.52605643158
 31
0.0
 12
3733.503408192485
 22
7991.02605643158
 32
0.0
 13
3733.503408192485
 23
7991.02605643158
 33
0.0
  0
MTEXT
  5
514D
330
4EB3
100
AcDbEntity
  8
AM_5 ( Bemassung)
 62
     6
440
 16777216
100
AcDbMText
 10
3730.215209011038
 20
7971.597719384729
 30
0.0
 40
3.5
 41
0.0
 46
0.0
 71
     5
 72
     1
  1
39
 11
0.0000000000000001
 21
1.0
 31
0.0
 73
     1
 44
1.0
  0
POINT
  5
514E
330
4EB3
100
AcDbEntity
  8
Defpoints
 62
     0
440
 16777216
100
AcDbPoint
 10
3698.272359789767
 20
7952.084169620049
 30
0.0
  0
POINT
  5
514F
330
4EB3
100
AcDbEntity
  8
Defpoints
 62
     0
440
 16777216
100
AcDbPoint
 10
3699.972359789768
 20
7991.02605643158
 30
0.0
  0
POINT
  5
5150
330
4EB3
100
AcDbEntity
  8
Defpoints
 62
     0
440
 16777216
100
AcDbPoint
 10
3733.503408192485
 20
7991.02605643158
 30
0.0
  0
ENDBLK
  5
4EB5
330
4EB3
100
AcDbEntity
  8
0
100
AcDbBlockEnd
  0
BLOCK
  5
4EF0
330
4EEF
100
AcDbEntity
  8
0
100
AcDbBlockBegin
  2
*D9
 70
     1
 10
0.0
 20
0.0
 30
0.0
  3
*D9
  1

  0
LINE
  5
515A
330
4EEF
100
AcDbEntity
  8
AM_5 ( Bemassung)
440
 16777216
100
AcDbLine
 10
3699.972359789768
 20
7952.084169620049
 30
0.0
 11
3745.090484353795
 21
7952.084169620049
 31
0.0
  0
LINE
  5
515B
330
4EEF
100
AcDbEntity
  8
AM_5 ( Bemassung)
440
 16777216
100
AcDbLine
 10
3698.48886922373
 20
8030.08416962005
 30
0.0
 11
3745.090484353795
 21
8030.08416962005
 31
0.0
  0
LINE
  5
515C
330
4EEF
100
AcDbEntity
  8
AM_5 ( Bemassung)
440
 16777216
100
AcDbLine
 10
3744.090484353796
 20
7954.584169620048
 30
0.0
 11
3744.090484353796
 21
8027.584169620048
 31
0.0
  0
SOLID
  5
515D
330
4EEF
100
AcDbEntity
  8
AM_5 ( Bemassung)
440
 16777216
100
AcDbTrace
 10
3743.67381768713
 20
7954.584169620048
 30
0.0
 11
3744.507151020462
 21
7954.584169620048
 31
0.0
 12
3744.090484353796
 22
7952.084169620049
 32
0.0
 13
3744.090484353796
 23
7952.084169620049
 33
0.0
  0
SOLID
  5
515E
330
4EEF
100
AcDbEntity
  8
AM_5 ( Bemassung)
440
 16777216
100
AcDbTrace
 10
3743.67381768713
 20
8027.584169620048
 30
0.0
 11
3744.507151020462
 21
8027.584169620048
 31
0.0
 12
3744.090484353796
 22
8030.08416962005
 32
0.0
 13
3744.090484353796
 23
8030.08416962005
 33
0.0
  0
MTEXT
  5
515F
330
4EEF
100
AcDbEntity
  8
AM_5 ( Bemassung)
 62
     6
440
 16777216
100
AcDbMText
 10
3740.802285172348
 20
7991.084169620049
 30
0.0
 40
3.5
 41
0.0
 46
0.0
 71
     5
 72
     1
  1
78
 11
0.0000000000000001
 21
1.0
 31
0.0
 73
     1
 44
1.0
  0
POINT
  5
5160
330
4EEF
100
AcDbEntity
  8
Defpoints
 62
     0
440
 16777216
100
AcDbPoint
 10
3699.972359789768
 20
7952.084169620049
 30
0.0
  0
POINT
  5
5161
330
4EEF
100
AcDbEntity
  8
Defpoints
 62
     0
440
 16777216
100
AcDbPoint
 10
3698.48886922373
 20
8030.08416962005
 30
0.0
  0
POINT
  5
5162
330
4EEF
100
AcDbEntity
  8
Defpoints
 62
     0
440
 16777216
100
AcDbPoint
 10
3744.090484353796
 20
8030.08416962005
 30
0.0
  0
ENDBLK
  5
4EF1
330
4EEF
100
AcDbEntity
  8
0
100
AcDbBlockEnd
  0
BLOCK
  5
4F2C
330
4F2B
100
AcDbEntity
  8
0
100
AcDbBlockBegin
  2
*D10
 70
     1
 10
0.0
 20
0.0
 30
0.0
  3
*D10
  1

  0
LINE
  5
516E
330
4F2B
100
AcDbEntity
  8
AM_5 ( Bemassung)
440
 16777216
100
AcDbLine
 10
3696.772359789767
 20
7977.08416962005
 30
0.0
 11
3724.354681815409
 21
7977.08416962005
 31
0.0
  0
LINE
  5
516F
330
4F2B
100
AcDbEntity
  8
AM_5 ( Bemassung)
440
 16777216
100
AcDbLine
 10
3694.772359789768
 20
7979.084169620048
 30
0.0
 11
3724.354681815409
 21
7979.084169620048
 31
0.0
  0
LINE
  5
5170
330
4F2B
100
AcDbEntity
  8
AM_5 ( Bemassung)
440
 16777216
100
AcDbLine
 10
3723.35468181541
 20
7974.58416962005
 30
0.0
 11
3723.35468181541
 21
7972.084169620051
 31
0.0
  0
LINE
  5
5171
330
4F2B
100
AcDbEntity
  8
AM_5 ( Bemassung)
440
 16777216
100
AcDbLine
 10
3723.35468181541
 20
7981.584169620049
 30
0.0
 11
3723.35468181541
 21
8002.53215734174
 31
0.0
  0
LINE
  5
5172
330
4F2B
100
AcDbEntity
  8
AM_5 ( Bemassung)
440
 16777216
100
AcDbLine
 10
3723.35468181541
 20
7977.08416962005
 30
0.0
 11
3723.35468181541
 21
7979.084169620048
 31
0.0
  0
SOLID
  5
5173
330
4F2B
100
AcDbEntity
  8
AM_5 ( Bemassung)
440
 16777216
100
AcDbTrace
 10
3722.938015148744
 20
7974.58416962005
 30
0.0
 11
3723.771348482076
 21
7974.58416962005
 31
0.0
 12
3723.35468181541
 22
7977.08416962005
 32
0.0
 13
3723.35468181541
 23
7977.08416962005
 33
0.0
  0
SOLID
  5
5174
330
4F2B
100
AcDbEntity
  8
AM_5 ( Bemassung)
440
 16777216
100
AcDbTrace
 10
3722.938015148744
 20
7981.584169620049
 30
0.0
 11
3723.771348482076
 21
7981.584169620049
 31
0.0
 12
3723.35468181541
 22
7979.084169620048
 32
0.0
 13
3723.35468181541
 23
7979.084169620048
 33
0.0
  0
MTEXT
  5
5175
330
4F2B
100
AcDbEntity
  8
AM_5 ( Bemassung)
 62
     6
440
 16777216
100
AcDbMText
 10
3720.066482633962
 20
7994.987136877894
 30
0.0
 40
3.5
 41
0.0
 46
0.0
 71
     5
 72
     1
  1
2x45° 
 11
0.0000000000000001
 21
1.0
 31
0.0
 73
     1
 44
1.0
  0
POINT
  5
5176
330
4F2B
100
AcDbEntity
  8
Defpoints
 62
     0
440
 16777216
100
AcDbPoint
 10
3696.772359789767
 20
7977.08416962005
 30
0.0
  0
POINT
  5
5177
330
4F2B
100
AcDbEntity
  8
Defpoints
 62
     0
440
 16777216
100
AcDbPoint
 10
3694.772359789768
 20
7979.084169620048
 30
0.0
  0
POINT
  5
5178
330
4F2B
100
AcDbEntity
  8
Defpoints
 62
     0
440
 16777216
100
AcDbPoint
 10
3723.35468181541
 20
7979.084169620048
 30
0.0
  0
ENDBLK
  5
4F2D
330
4F2B
100
AcDbEntity
  8
0
100
AcDbBlockEnd
  0
BLOCK
  5
4F88
330
4F87
100
AcDbEntity
  8
0
100
AcDbBlockBegin
  2
*D11
 70
     1
 10
0.0
 20
0.0
 30
0.0
  3
*D11
  1

  0
LINE
  5
5194
330
4F87
100
AcDbEntity
  8
AM_5 ( Bemassung)
440
 16777216
100
AcDbLine
 10
3614.386153110007
 20
7952.08416962005
 30
0.0
 11
3587.67408320676
 21
7952.08416962005
 31
0.0
  0
LINE
  5
5195
330
4F87
100
AcDbEntity
  8
AM_5 ( Bemassung)
440
 16777216
100
AcDbLine
 10
3611.072359789768
 20
7972.08416962005
 30
0.0
 11
3587.67408320676
 21
7972.08416962005
 31
0.0
  0
LINE
  5
5196
330
4F87
100
AcDbEntity
  8
AM_5 ( Bemassung)
440
 16777216
100
AcDbLine
 10
3588.67408320676
 20
7954.584169620051
 30
0.0
 11
3588.67408320676
 21
7969.584169620048
 31
0.0
  0
SOLID
  5
5197
330
4F87
100
AcDbEntity
  8
AM_5 ( Bemassung)
440
 16777216
100
AcDbTrace
 10
3588.257416540094
 20
7954.584169620051
 30
0.0
 11
3589.090749873426
 21
7954.584169620051
 31
0.0
 12
3588.67408320676
 22
7952.08416962005
 32
0.0
 13
3588.67408320676
 23
7952.08416962005
 33
0.0
  0
SOLID
  5
5198
330
4F87
100
AcDbEntity
  8
AM_5 ( Bemassung)
440
 16777216
100
AcDbTrace
 10
3588.257416540094
 20
7969.584169620048
 30
0.0
 11
3589.090749873426
 21
7969.584169620048
 31
0.0
 12
3588.67408320676
 22
7972.08416962005
 32
0.0
 13
3588.67408320676
 23
7972.08416962005
 33
0.0
  0
MTEXT
  5
5199
330
4F87
100
AcDbEntity
  8
AM_5 ( Bemassung)
 62
     6
440
 16777216
100
AcDbMText
 10
3585.385884025312
 20
7962.08416962005
 30
0.0
 40
3.5
 41
0.0
 46
0.0
 71
     5
 72
     1
  1
20
 11
0.0000000000000001
 21
1.0
 31
0.0
 73
     1
 44
1.0
  0
POINT
  5
519A
330
4F87
100
AcDbEntity
  8
Defpoints
 62
     0
440
 16777216
100
AcDbPoint
 10
3614.386153110007
 20
7952.08416962005
 30
0.0
  0
POINT
  5
519B
330
4F87
100
AcDbEntity
  8
Defpoints
 62
     0
440
 16777216
100
AcDbPoint
 10
3611.072359789768
 20
7972.08416962005
 30
0.0
  0
POINT
  5
519C
330
4F87
100
AcDbEntity
  8
Defpoints
 62
     0
440
 16777216
100
AcDbPoint
 10
3588.67408320676
 20
7972.08416962005
 30
0.0
  0
ENDBLK
  5
4F89
330
4F87
100
AcDbEntity
  8
0
100
AcDbBlockEnd
  0
BLOCK
  5
4FBB
330
4FBA
100
AcDbEntity
  8
0
100
AcDbBlockBegin
  2
*D12
 70
     1
 10
0.0
 20
0.0
 30
0.0
  3
*D12
  1

  0
LINE
  5
51A6
330
4FBA
100
AcDbEntity
  8
AM_5 ( Bemassung)
440
 16777216
100
AcDbLine
 10
3611.072359789768
 20
7952.084169620049
 30
0.0
 11
3577.674083206762
 21
7952.084169620049
 31
0.0
  0
LINE
  5
51A7
330
4FBA
100
AcDbEntity
  8
AM_5 ( Bemassung)
440
 16777216
100
AcDbLine
 10
3611.072359789768
 20
7977.084169620049
 30
0.0
 11
3577.674083206762
 21
7977.084169620049
 31
0.0
  0
LINE
  5
51A8
330
4FBA
100
AcDbEntity
  8
AM_5 ( Bemassung)
440
 16777216
100
AcDbLine
 10
3578.674083206763
 20
7954.584169620048
 30
0.0
 11
3578.674083206763
 21
7974.584169620048
 31
0.0
  0
SOLID
  5
51A9
330
4FBA
100
AcDbEntity
  8
AM_5 ( Bemassung)
440
 16777216
100
AcDbTrace
 10
3578.257416540096
 20
7954.584169620048
 30
0.0
 11
3579.090749873429
 21
7954.584169620048
 31
0.0
 12
3578.674083206763
 22
7952.084169620049
 32
0.0
 13
3578.674083206763
 23
7952.084169620049
 33
0.0
  0
SOLID
  5
51AA
330
4FBA
100
AcDbEntity
  8
AM_5 ( Bemassung)
440
 16777216
100
AcDbTrace
 10
3578.257416540096
 20
7974.584169620048
 30
0.0
 11
3579.090749873429
 21
7974.584169620048
 31
0.0
 12
3578.674083206763
 22
7977.084169620049
 32
0.0
 13
3578.674083206763
 23
7977.084169620049
 33
0.0
  0
MTEXT
  5
51AB
330
4FBA
100
AcDbEntity
  8
AM_5 ( Bemassung)
 62
     6
440
 16777216
100
AcDbMText
 10
3575.385884025315
 20
7964.584169620049
 30
0.0
 40
3.5
 41
0.0
 46
0.0
 71
     5
 72
     1
  1
25
 11
0.0000000000000001
 21
1.0
 31
0.0
 73
     1
 44
1.0
  0
POINT
  5
51AC
330
4FBA
100
AcDbEntity
  8
Defpoints
 62
     0
440
 16777216
100
AcDbPoint
 10
3611.072359789768
 20
7952.084169620049
 30
0.0
  0
POINT
  5
51AD
330
4FBA
100
AcDbEntity
  8
Defpoints
 62
     0
440
 16777216
100
AcDbPoint
 10
3611.072359789768
 20
7977.084169620049
 30
0.0
  0
POINT
  5
51AE
330
4FBA
100
AcDbEntity
  8
Defpoints
 62
     0
440
 16777216
100
AcDbPoint
 10
3578.674083206763
 20
7977.084169620049
 30
0.0
  0
ENDBLK
  5
4FBC
330
4FBA
100
AcDbEntity
  8
0
100
AcDbBlockEnd
  0
BLOCK
  5
50F3
330
50F2
100
AcDbEntity
  8
0
100
AcDbBlockBegin
  2
*D13
 70
     1
 10
0.0
 20
0.0
 30
0.0
  3
*D13
  1

  0
LINE
  5
5136
330
50F2
100
AcDbEntity
  8
AM_5 ( Bemassung)
440
 16777216
100
AcDbLine
 10
3655.522359789767
 20
7937.254765087846
 30
0.0
 11
3731.054821700182
 21
7937.254765087846
 31
0.0
  0
LINE
  5
5137
330
50F2
100
AcDbEntity
  8
AM_5 ( Bemassung)
440
 16777216
100
AcDbLine
 10
3655.522359789767
 20
7842.254765087846
 30
0.0
 11
3731.054821700182
 21
7842.254765087846
 31
0.0
  0
LINE
  5
5138
330
50F2
100
AcDbEntity
  8
AM_5 ( Bemassung)
440
 16777216
100
AcDbLine
 10
3730.054821700182
 20
7934.754765087847
 30
0.0
 11
3730.054821700182
 21
7844.754765087846
 31
0.0
  0
SOLID
  5
5139
330
50F2
100
AcDbEntity
  8
AM_5 ( Bemassung)
440
 16777216
100
AcDbTrace
 10
3729.638155033516
 20
7934.754765087847
 30
0.0
 11
3730.471488366849
 21
7934.754765087847
 31
0.0
 12
3730.054821700182
 22
7937.254765087846
 32
0.0
 13
3730.054821700182
 23
7937.254765087846
 33
0.0
  0
SOLID
  5
513A
330
50F2
100
AcDbEntity
  8
AM_5 ( Bemassung)
440
 16777216
100
AcDbTrace
 10
3729.638155033516
 20
7844.754765087846
 30
0.0
 11
3730.471488366849
 21
7844.754765087846
 31
0.0
 12
3730.054821700182
 22
7842.254765087846
 32
0.0
 13
3730.054821700182
 23
7842.254765087846
 33
0.0
  0
MTEXT
  5
513B
330
50F2
100
AcDbEntity
  8
AM_5 ( Bemassung)
 62
     6
440
 16777216
100
AcDbMText
 10
3726.745135479171
 20
7889.754765087847
 30
0.0
 40
3.5
 41
0.0
 46
0.0
 71
     5
 72
     1
  1
SW 95
 11
0.0000000000000001
 21
1.0
 31
0.0
 73
     1
 44
1.0
  0
POINT
  5
513C
330
50F2
100
AcDbEntity
  8
Defpoints
 62
     0
440
 16777216
100
AcDbPoint
 10
3655.522359789767
 20
7937.254765087846
 30
0.0
  0
POINT
  5
513D
330
50F2
100
AcDbEntity
  8
Defpoints
 62
     0
440
 16777216
100
AcDbPoint
 10
3655.522359789767
 20
7842.254765087846
 30
0.0
  0
POINT
  5
513E
330
50F2
100
AcDbEntity
  8
Defpoints
 62
     0
440
 16777216
100
AcDbPoint
 10
3730.054821700182
 20
7842.254765087846
 30
0.0
  0
ENDBLK
  5
50F4
330
50F2
100
AcDbEntity
  8
0
100
AcDbBlockEnd
  0
BLOCK
  5
5256
330
5255
100
AcDbEntity
  8
0
100
AcDbBlockBegin
  2
_ACMFILLED15
 70
     0
 10
0.0
 20
0.0
 30
0.0
  3
_ACMFILLED15
  1

  0
TRACE
  5
5258
330
5255
100
AcDbEntity
  8
AM_0 ( Kontur 0.5 )
 62
     0
100
AcDbTrace
 10
-1.0
 20
-0.131652497
 30
0.0
 11
-1.0
 21
0.131652497
 31
0.0
 12
0.0
 22
0.0
 32
0.0
 13
0.0
 23
0.0
 33
0.0
  0
ENDBLK
  5
5257
330
5255
100
AcDbEntity
  8
0
100
AcDbBlockEnd
  0
BLOCK
  5
5264
330
5263
100
AcDbEntity
  8
0
100
AcDbBlockBegin
  2
_ACMNONE
 70
     0
 10
0.0
 20
0.0
 30
0.0
  3
_ACMNONE
  1

  0
LINE
  5
5266
330
5263
100
AcDbEntity
  8
AM_0 ( Kontur 0.5 )
 62
     0
100
AcDbLine
 10
-1.0
 20
0.0
 30
0.0
 11
0.0
 21
0.0
 31
0.0
  0
ENDBLK
  5
5265
330
5263
100
AcDbEntity
  8
0
100
AcDbBlockEnd
  0
BLOCK
  5
5268
330
5267
100
AcDbEntity
  8
0
100
AcDbBlockBegin
  2
_ACMFILLED
 70
     0
 10
0.0
 20
0.0
 30
0.0
  3
_ACMFILLED
  1

  0
TRACE
  5
526A
330
5267
100
AcDbEntity
  8
AM_0 ( Kontur 0.5 )
 62
     0
100
AcDbTrace
 10
-1.0
 20
-0.166666666
 30
0.0
 11
-1.0
 21
0.166666666
 31
0.0
 12
0.0
 22
0.0
 32
0.0
 13
0.0
 23
0.0
 33
0.0
  0
ENDBLK
  5
5269
330
5267
100
AcDbEntity
  8
0
100
AcDbBlockEnd
  0
BLOCK
  5
5272
330
5271
100
AcDbEntity
  8
0
100
AcDbBlockBegin
  2
_ACMFILLEDHALF
 70
     0
 10
0.0
 20
0.0
 30
0.0
  3
_ACMFILLEDHALF
  1

  0
TRACE
  5
5274
330
5271
100
AcDbEntity
  8
AM_0 ( Kontur 0.5 )
 62
     0
100
AcDbTrace
 10
-0.8
 20
0.0
 30
0.0
 11
-1.0
 21
0.166666666
 31
0.0
 12
0.0
 22
0.0
 32
0.0
 13
0.0
 23
0.0
 33
0.0
  0
LINE
  5
5275
330
5271
100
AcDbEntity
  8
AM_0 ( Kontur 0.5 )
 62
     0
100
AcDbLine
 10
-1.0
 20
0.0
 30
0.0
 11
-0.8
 21
0.0
 31
0.0
  0
ENDBLK
  5
5273
330
5271
100
AcDbEntity
  8
0
100
AcDbBlockEnd
  0
BLOCK
  5
5296
330
5295
100
AcDbEntity
  8
0
100
AcDbBlockBegin
  2
_ACMFILLED30
 70
     0
 10
0.0
 20
0.0
 30
0.0
  3
_ACMFILLED30
  1

  0
TRACE
  5
5298
330
5295
100
AcDbEntity
  8
AM_0 ( Kontur 0.5 )
 62
     0
100
AcDbTrace
 10
-1.0
 20
-0.26794919
 30
0.0
 11
-1.0
 21
0.26794919
 31
0.0
 12
0.0
 22
0.0
 32
0.0
 13
0.0
 23
0.0
 33
0.0
  0
ENDBLK
  5
5297
330
5295
100
AcDbEntity
  8
0
100
AcDbBlockEnd
  0
ENDSEC
  0
SECTION
  2
ENTITIES
  0
ARC
  5
4C75
102
{ACAD_REACTORS
330
4EC0
102
}
330
74
100
AcDbEntity
  8
AM_0
100
AcDbCircle
 10
3696.658566469503
 20
7896.573752953383
 30
0.0
 40
94.510416666667
100
AcDbArc
 50
81.65778324585158
 51
98.3422167541226
  0
ARC
  5
4C76
330
74
100
AcDbEntity
  8
AM_0
100
AcDbCircle
 10
3655.522359789767
 20
8328.625836286716
 30
0.0
 40
376.541666666666
100
AcDbArc
 50
265.8233578063737
 51
274.1766421936262
  0
ARC
  5
4C77
330
74
100
AcDbEntity
  8
AM_0
100
AcDbCircle
 10
3614.386153110007
 20
8046.594586286717
 30
0.0
 40
94.510416666667
100
AcDbArc
 50
261.6577832458773
 51
278.3422167541226
  0
ARC
  5
4C78
330
74
100
AcDbEntity
  8
AM_0
100
AcDbCircle
 10
-3655.522359789741
 20
7614.542502953383
 30
0.0
 40
376.541666666666
210
0.0
220
0.0
230
-1.0
100
AcDbArc
 50
85.82335780637373
 51
94.1766421936262
  0
LINE
  5
4C79
330
74
100
AcDbEntity
  8
AM_0
100
AcDbLine
 10
3600.674084216754
 20
7953.084169620051
 30
0.0
 11
3600.674084216754
 21
7990.084169620053
 31
0.0
  0
LINE
  5
4C7A
330
74
100
AcDbEntity
  8
AM_0
100
AcDbLine
 10
3614.386153109981
 20
7991.084169620049
 30
0.0
 11
3696.658566469503
 21
7991.084169620049
 31
0.0
  0
LINE
  5
4C7B
330
74
100
AcDbEntity
  8
AM_0 ( Kontur 0.5 )
100
AcDbLine
 10
3611.072359789768
 20
7993.084169620049
 30
0.0
 11
3699.972359789768
 21
7993.084169620049
 31
0.0
  0
LINE
  5
4C7C
330
74
100
AcDbEntity
  8
AM_0
100
AcDbLine
 10
3682.946497576248
 20
7953.084169620048
 30
0.0
 11
3682.946497576248
 21
7990.084169620049
 31
0.0
  0
ARC
  5
4C7D
330
74
100
AcDbEntity
  8
AM_0
100
AcDbCircle
 10
-3696.658566469529
 20
8046.594586286717
 30
0.0
 40
94.510416666667
210
0.0
220
0.0
230
-1.0
100
AcDbArc
 50
261.6577832458773
 51
278.3422167541226
  0
LINE
  5
4C7E
330
74
100
AcDbEntity
  8
AM_0
100
AcDbLine
 10
3628.098222003234
 20
7953.084169620052
 30
0.0
 11
3628.098222003234
 21
7990.084169620049
 31
0.0
  0
ARC
  5
4C7F
330
74
100
AcDbEntity
  8
AM_0
100
AcDbCircle
 10
-3614.386153109981
 20
7896.573752953383
 30
0.0
 40
94.510416666667
210
0.0
220
0.0
230
-1.0
100
AcDbArc
 50
81.65778324587734
 51
98.3422167541226
  0
LINE
  5
4C80
330
74
100
AcDbEntity
  8
AM_0
100
AcDbLine
 10
3710.370635362784
 20
7953.084169620051
 30
0.0
 11
3710.370635362784
 21
7990.084169620046
 31
0.0
  0
LINE
  5
4C81
102
{ACAD_REACTORS
330
4F94
102
}
330
74
100
AcDbEntity
  8
AM_0
100
AcDbLine
 10
3614.386153110007
 20
7952.08416962005
 30
0.0
 11
3696.658566469529
 21
7952.08416962005
 31
0.0
  0
LINE
  5
4C82
330
74
100
AcDbEntity
  8
AM_7 (Mittellinie)
  6
AM_ISO08W050x2
100
AcDbLine
 10
3655.522359789767
 20
7946.322342212662
 30
0.0
 11
3655.522359789767
 21
8033.892195936422
 31
0.0
  0
LINE
  5
4C83
102
{ACAD_REACTORS
330
4E1C
102
}
330
74
100
AcDbEntity
  8
AM_3 ( Verdeckt )
100
AcDbLine
 10
3611.072359789768
 20
7977.084169620049
 30
0.0
 11
3611.072359789768
 21
7952.084169620049
 31
0.0
  0
LINE
  5
4C84
330
74
100
AcDbEntity
  8
AM_3 ( Verdeckt )
100
AcDbLine
 10
3612.772359789768
 20
7972.08416962005
 30
0.0
 11
3612.772359789768
 21
7952.084169620049
 31
0.0
  0
LINE
  5
4C85
102
{ACAD_REACTORS
330
4EC0
102
}
330
74
100
AcDbEntity
  8
AM_3 ( Verdeckt )
100
AcDbLine
 10
3698.272359789767
 20
7972.08416962005
 30
0.0
 11
3698.272359789767
 21
7952.084169620049
 31
0.0
  0
LINE
  5
4C86
102
{ACAD_REACTORS
330
4E1C
102
}
330
74
100
AcDbEntity
  8
AM_3 ( Verdeckt )
100
AcDbLine
 10
3699.972359789768
 20
7977.084169620074
 30
0.0
 11
3699.972359789768
 21
7952.084169620049
 31
0.0
  0
LINE
  5
4C87
330
74
100
AcDbEntity
  8
AM_0 ( Kontur 0.5 )
100
AcDbLine
 10
3611.072359789768
 20
7991.026056431582
 30
0.0
 11
3611.072359789768
 21
7993.084169620049
 31
0.0
  0
LINE
  5
4C88
102
{ACAD_REACTORS
330
4EC0
102
}
330
74
100
AcDbEntity
  8
AM_0 ( Kontur 0.5 )
100
AcDbLine
 10
3699.972359789768
 20
7991.02605643158
 30
0.0
 11
3699.972359789768
 21
7993.084169620049
 31
0.0
  0
LINE
  5
4C89
330
74
100
AcDbEntity
  8
AM_3 ( Verdeckt )
  6
AM_ISO02W050x2
100
AcDbLine
 10
3611.072359789768
 20
7977.084169620049
 30
0.0
 11
3699.972359789768
 21
7977.084169620074
 31
0.0
  0
LINE
  5
4C8A
102
{ACAD_REACTORS
330
4F94
102
}
330
74
100
AcDbEntity
  8
AM_3 ( Verdeckt )
  6
AM_ISO02W050x2
100
AcDbLine
 10
3611.072359789768
 20
7972.08416962005
 30
0.0
 11
3699.972359789768
 21
7972.08416962005
 31
0.0
  0
LINE
  5
4C8B
330
74
100
AcDbEntity
  8
AM_0 ( Kontur 0.5 )
100
AcDbLine
 10
3611.072359789768
 20
7993.084169620049
 30
0.0
 11
3612.555850355806
 21
8030.08416962005
 31
0.0
  0
LINE
  5
4C8C
330
74
100
AcDbEntity
  8
AM_2 ( Kontur 0.25)
100
AcDbLine
 10
3613.070754169282
 20
7993.004045317097
 30
0.0
 11
3614.557457266335
 21
8030.08416962005
 31
0.0
  0
LINE
  5
4C8D
330
74
100
AcDbEntity
  8
AM_3 ( Verdeckt )
  6
AM_ISO02W050x2
100
AcDbLine
 10
3616.272359789768
 20
8030.08416962005
 30
0.0
 11
3616.272359789769
 21
7979.08416962005
 31
0.0
  0
LINE
  5
4C8E
330
74
100
AcDbEntity
  8
AM_3 ( Verdeckt )
  6
AM_ISO02W050x2
100
AcDbLine
 10
3614.272359789769
 20
7977.08416962005
 30
0.0
 11
3616.272359789769
 21
7979.08416962005
 31
0.0
1001
GENIUS_GENFIL_13
1070
     0
1040
2.0
1040
2.0
1040
0.0
1040
0.0
1002
{
1002
}
1001
GENIUS_GENODEF_13
1002
{
1000
HIER
1070
     0
1002
}
1002
{
1000
MANEDIT
1070
     0
1002
}
1002
{
1000
NOSEL
1070
     0
1002
}
1002
{
1000
BEHIND
1070
     0
1002
}
1002
{
1000
OTHER
1070
     0
1002
}
1002
{
1000
REACTOR
1002
}
1001
GENIUS_GENOBJ-N-CHA_13
1002
{
1000
OWNER
1000
GEN
1002
}
  0
LINE
  5
4C8F
330
74
100
AcDbEntity
  8
AM_0 ( Kontur 0.5 )
100
AcDbLine
 10
3699.972359789768
 20
7993.084169620049
 30
0.0
 11
3698.48886922373
 21
8030.08416962005
 31
0.0
  0
LINE
  5
4C90
330
74
100
AcDbEntity
  8
AM_2 ( Kontur 0.25)
100
AcDbLine
 10
3697.973965410253
 20
7993.004045317097
 30
0.0
 11
3696.4872623132
 21
8030.08416962005
 31
0.0
  0
LINE
  5
4C91
330
74
100
AcDbEntity
  8
AM_3 ( Verdeckt )
  6
AM_ISO02W050x2
100
AcDbLine
 10
3694.772359789768
 20
8030.08416962005
 30
0.0
 11
3694.772359789768
 21
7979.084169620048
 31
0.0
  0
LINE
  5
4C92
102
{ACAD_REACTORS
330
4DE9
102
}
330
74
100
AcDbEntity
  8
AM_0 ( Kontur 0.5 )
100
AcDbLine
 10
3612.555850355806
 20
8030.08416962005
 30
0.0
 11
3698.48886922373
 21
8030.08416962005
 31
0.0
  0
LINE
  5
4C93
330
74
100
AcDbEntity
  8
AM_3 ( Verdeckt )
  6
AM_ISO02W050x2
100
AcDbLine
 10
3696.772359789767
 20
7977.08416962005
 30
0.0
 11
3694.772359789768
 21
7979.084169620048
 31
0.0
1001
GENIUS_GENFIL_13
1070
     0
1040
2.0
1040
2.0
1040
0.0
1040
0.0
1002
{
1002
}
1001
GENIUS_GENODEF_13
1002
{
1000
HIER
1070
     0
1002
}
1002
{
1000
MANEDIT
1070
     0
1002
}
1002
{
1000
NOSEL
1070
     0
1002
}
1002
{
1000
BEHIND
1070
     0
1002
}
1002
{
1000
OTHER
1070
     0
1002
}
1002
{
1000
REACTOR
1002
}
1001
GENIUS_GENOBJ-N-CHA_13
1002
{
1000
OWNER
1000
GEN
1002
}
  0
LINE
  5
4C94
330
74
100
AcDbEntity
  8
AM_3 ( Verdeckt )
  6
AM_ISO02W050x2
100
AcDbLine
 10
3616.272359789769
 20
7979.08416962005
 30
0.0
 11
3694.772359789768
 21
7979.084169620048
 31
0.0
  0
DIMENSION
  5
4DDB
102
{ACAD_XDICTIONARY
360
4DE8
102
}
102
{ACAD_REACTORS
330
4DE9
102
}
330
74
100
AcDbEntity
  8
AM_5 ( Bemassung)
100
AcDbDimension
280
     0
  2
*D5
 10
3612.555850355806
 20
8052.08416962005
 30
0.0
 11
3655.522359789767
 21
8055.372368801496
 31
0.0
 70
    32
  1
NPT 3
 71
     5
 42
85.93301886792506
 73
     0
 74
     0
 75
     0
  3
BENUTZERDEFINIERTE NORM$0
100
AcDbAlignedDimension
 13
3698.48886922373
 23
8030.08416962005
 33
0.0
 14
3612.555850355806
 24
8030.08416962005
 34
0.0
100
AcDbRotatedDimension
1001
ACAD
1000
DSTYLE
1002
{
1070
    40
1040
1.0
1002
}
1001
ACAD_DSTYLE_DIMINSPECT
1070
   396
1000
100%
1070
   395
1000

1070
   394
1070
    33
1070
   393
1070
     0
  0
DIMENSION
  5
4E0E
102
{ACAD_XDICTIONARY
360
4E1B
102
}
102
{ACAD_REACTORS
330
4E1C
102
}
330
74
100
AcDbEntity
  8
AM_5 ( Bemassung)
100
AcDbDimension
280
     0
  2
*D6
 10
3611.072359789768
 20
7942.534638996017
 30
0.0
 11
3662.275934476859
 21
7942.534638996017
 31
0.0
 70
   160
  1
G 3
 71
     5
 42
88.89999999999963
 73
     0
 74
     0
 75
     0
  3
BENUTZERDEFINIERTE NORM$0
100
AcDbAlignedDimension
 13
3699.972359789768
 23
7952.084169620049
 33
0.0
 14
3611.072359789768
 24
7952.084169620049
 34
0.0
 50
0.0000000000001018
100
AcDbRotatedDimension
1001
ACAD_DSTYLE_DIMINSPECT
1070
   396
1000
100%
1070
   395
1000

1070
   394
1070
    33
1070
   393
1070
     0
1001
ACAD
1000
DSTYLE
1002
{
1070
    40
1040
1.0
1002
}
  0
DIMENSION
  5
4EB2
102
{ACAD_XDICTIONARY
360
4EBF
102
}
102
{ACAD_REACTORS
330
4EC0
102
}
330
74
100
AcDbEntity
  8
AM_5 ( Bemassung)
100
AcDbDimension
280
     0
  2
*D8
 10
3733.503408192485
 20
7991.02605643158
 30
0.0
 11
3733.503408192484
 21
7971.597719384729
 31
0.0
 70
   160
  1
39
 71
     5
 42
38.94188681153173
 73
     0
 74
     0
 75
     0
  3
BENUTZERDEFINIERTE NORM$0
100
AcDbAlignedDimension
 13
3698.272359789767
 23
7952.084169620049
 33
0.0
 14
3699.972359789768
 24
7991.02605643158
 34
0.0
 50
90.0
100
AcDbRotatedDimension
1001
ACAD
1000
DSTYLE
1002
{
1070
    40
1040
1.0
1002
}
1001
ACAD_DSTYLE_DIMINSPECT
1070
   396
1000
100%
1070
   395
1000

1070
   394
1070
    33
1070
   393
1070
     0
  0
DIMENSION
  5
4EEE
330
74
100
AcDbEntity
  8
AM_5 ( Bemassung)
100
AcDbDimension
280
     0
  2
*D9
 10
3744.090484353796
 20
8030.08416962005
 30
0.0
 11
3740.802285172348
 21
7991.084169620049
 31
0.0
 70
    32
  1
<>
 71
     5
 42
78.0
 73
     0
 74
     0
 75
     0
  3
BENUTZERDEFINIERTE NORM$0
100
AcDbAlignedDimension
 13
3699.972359789768
 23
7952.084169620049
 33
0.0
 14
3698.48886922373
 24
8030.08416962005
 34
0.0
 50
90.0
100
AcDbRotatedDimension
1001
ACAD
1000
DSTYLE
1002
{
1070
    40
1040
1.0
1002
}
1001
ACAD_DSTYLE_DIMINSPECT
1070
   396
1000
100%
1070
   395
1000

1070
   394
1070
    33
1070
   393
1070
     0
  0
DIMENSION
  5
4F86
102
{ACAD_XDICTIONARY
360
4F93
102
}
102
{ACAD_REACTORS
330
4F94
102
}
330
74
100
AcDbEntity
  8
AM_5 ( Bemassung)
100
AcDbDimension
280
     0
  2
*D11
 10
3588.67408320676
 20
7972.08416962005
 30
0.0
 11
3585.385884025312
 21
7962.08416962005
 31
0.0
 70
    32
  1
<>
 71
     5
 42
19.99999999999818
 73
     0
 74
     0
 75
     0
  3
BENUTZERDEFINIERTE NORM$0
100
AcDbAlignedDimension
 13
3614.386153110007
 23
7952.08416962005
 33
0.0
 14
3611.072359789768
 24
7972.08416962005
 34
0.0
 50
90.0
100
AcDbRotatedDimension
1001
ACAD
1000
DSTYLE
1002
{
1070
    40
1040
1.0
1002
}
1001
ACAD_DSTYLE_DIMINSPECT
1070
   396
1000
100%
1070
   395
1000

1070
   394
1070
    33
1070
   393
1070
     0
  0
LWPOLYLINE
  5
50DC
102
{ACAD_REACTORS
330
50FF
102
}
330
74
100
AcDbEntity
  8
AM_0
100
AcDbPolyline
 90
        6
 70
     1
 43
0.0
 10
3628.098222003261
 20
7937.254765087846
 10
3600.674084216753
 20
7889.754765087847
 10
3628.098222003261
 20
7842.254765087846
 10
3682.946497576275
 20
7842.254765087846
 10
3710.370635362782
 20
7889.754765087847
 10
3682.946497576275
 20
7937.254765087846
  0
LINE
  5
50DE
330
74
100
AcDbEntity
  8
AM_7 (Mittellinie)
  6
AM_ISO08W050x2
100
AcDbLine
 10
3655.522359789767
 20
7889.754765087847
 30
0.0
 11
3710.016018424714
 21
7889.754765087847
 31
0.0
1001
GENIUS_GENOREF_13
1005
50E2
  0
LINE
  5
50DF
102
{ACAD_REACTORS
330
50FF
102
}
330
74
100
AcDbEntity
  8
AM_7 (Mittellinie)
  6
AM_ISO08W050x2
100
AcDbLine
 10
3655.522359789767
 20
7889.754765087847
 30
0.0
 11
3655.522359789767
 21
7944.248423722791
 31
0.0
1001
GENIUS_GENOREF_13
1005
50E2
  0
LINE
  5
50E0
330
74
100
AcDbEntity
  8
AM_7 (Mittellinie)
  6
AM_ISO08W050x2
100
AcDbLine
 10
3655.522359789767
 20
7889.754765087847
 30
0.0
 11
3601.028701154822
 21
7889.754765087847
 31
0.0
1001
GENIUS_GENOREF_13
1005
50E2
  0
LINE
  5
50E1
102
{ACAD_REACTORS
330
50FF
102
}
330
74
100
AcDbEntity
  8
AM_7 (Mittellinie)
  6
AM_ISO08W050x2
100
AcDbLine
 10
3655.522359789767
 20
7889.754765087847
 30
0.0
 11
3655.522359789767
 21
7835.2611064529
 31
0.0
1001
GENIUS_GENOREF_13
1005
50E2
  0
POINT
  5
50E2
330
74
100
AcDbEntity
  8
0
  6
AM_ISO08W050x2
 60
     1
100
AcDbPoint
 10
0.0
 20
0.0
 30
0.0
1001
GENIUS_GENOENT_13
1002
{
1000
MYREF
1005
50E2
1002
}
1002
{
1000
GRP
1005
0
1002
}
1001
GENIUS_GENODEF_13
1002
{
1000
HIER
1070
    10
1002
}
1002
{
1000
MANEDIT
1070
     0
1002
}
1002
{
1000
NOSEL
1070
     0
1002
}
1002
{
1000
BEHIND
1070
     0
1002
}
1002
{
1000
OTHER
1070
     0
1002
}
1002
{
1000
REACTOR
1002
}
1001
GENIUS_GENOBJ-N-CRS_13
1002
{
1000
OWNER
1000
GEN
1002
}
1001
GENIUS_GENOLIS_13
1002
{
1000
ENT
1005
50E1
1005
50E0
1005
50DF
1005
50DE
1002
}
  0
CIRCLE
  5
50E9
330
74
100
AcDbEntity
  8
AM_3 ( Verdeckt )
  6
AM_ISO02W050x2
100
AcDbCircle
 10
3655.522359789767
 20
7889.754765087847
 30
0.0
 40
44.44999999999981
  0
CIRCLE
  5
50EA
330
74
100
AcDbEntity
  8
AM_3 ( Verdeckt )
  6
AM_ISO02W050x2
100
AcDbCircle
 10
3655.522359789767
 20
7889.754765087847
 30
0.0
 40
42.75000000000045
  0
CIRCLE
  5
50EB
330
74
100
AcDbEntity
  8
AM_3 ( Verdeckt )
  6
AM_ISO02W050x2
100
AcDbCircle
 10
3655.522359789767
 20
7889.754765087847
 30
0.0
 40
41.95000000000027
  0
CIRCLE
  5
50EC
330
74
100
AcDbEntity
  8
AM_0 ( Kontur 0.5 )
100
AcDbCircle
 10
3655.522359789767
 20
7889.754765087847
 30
0.0
 40
39.24999999999954
  0
CIRCLE
  5
50ED
330
74
100
AcDbEntity
  8
AM_0 ( Kontur 0.5 )
100
AcDbCircle
 10
3655.522359789767
 20
7889.754765087847
 30
0.0
 40
42.96650943396253
  0
CIRCLE
  5
50EE
330
74
100
AcDbEntity
  8
AM_0 ( Kontur 0.5 )
100
AcDbCircle
 10
3655.522359789767
 20
7889.754765087847
 30
0.0
 40
44.44999999999981
  0
DIMENSION
  5
50F1
102
{ACAD_XDICTIONARY
360
50FE
102
}
102
{ACAD_REACTORS
330
50FF
102
}
330
74
100
AcDbEntity
  8
AM_5 ( Bemassung)
100
AcDbDimension
280
     0
  2
*D13
 10
3730.054821700182
 20
7842.254765087846
 30
0.0
 11
3726.745135479171
 21
7889.754765087847
 31
0.0
 70
    32
  1
SW <>
 71
     5
 42
95.0
 73
     0
 74
     0
 75
     0
  3
BENUTZERDEFINIERTE NORM$0
100
AcDbAlignedDimension
 13
3655.522359789767
 23
7937.254765087846
 33
0.0
 14
3655.522359789767
 24
7842.254765087846
 34
0.0
 50
90.0
100
AcDbRotatedDimension
1001
ACAD
1000
DSTYLE
1002
{
1070
    40
1040
1.0
1002
}
1001
ACAD_DSTYLE_DIMINSPECT
1070
   396
1000
100%
1070
   395
1000

1070
   394
1070
    33
1070
   393
1070
     0
  0
TEXT
  5
51F3
330
74
100
AcDbEntity
  8
AM_3 ( Verdeckt )
  6
AM_ISO02W050x2
100
AcDbText
 10
3728.078205457255
 20
7875.440218217654
 30
0.0
 40
3.438283852916356
  1
B
 50
90.0
100
AcDbText
  0
ENDSEC
  0
SECTION
  2
OBJECTS
  0
DICTIONARY
  5
C
330
0
100
AcDbDictionary
281
     1
  3
ACAD_CIP_PREVIOUS_PRODUCT_INFO
350
5009
  3
ACAD_COLOR
350
6A
  3
ACAD_DETAILVIEWSTYLE
350
5232
  3
ACAD_FIELDLIST
350
525D
  3
ACAD_GROUP
350
D
  3
ACAD_LAYOUT
350
69
  3
ACAD_MATERIAL
350
10
  3
ACAD_MLEADERSTYLE
350
6D
  3
ACAD_MLINESTYLE
350
66
  3
ACAD_PLOTSETTINGS
350
68
  3
ACAD_PLOTSTYLENAME
350
E
  3
ACAD_SCALELIST
350
3A
  3
ACAD_SECTIONVIEWSTYLE
350
5230
  3
ACAD_TABLESTYLE
350
6B
  3
ACAD_VISUALSTYLE
350
29
  3
ACDB_RECOMPOSE_DATA
350
52BA
  3
AcDbVariableDictionary
350
1C9
  3
AcmDictionary
350
166
  3
AMG
350
10C
  3
AMGPDM
350
4025
  3
AMGSNAPSETTINGS
350
19B
  3
ASE_INDEX_DICTIONARY
350
988
  0
DICTIONARY
  5
1B6
330
8
100
AcDbDictionary
280
     1
281
     1
  0
DICTIONARY
  5
256
330
2
100
AcDbDictionary
280
     1
281
     1
  3
ACAD_LAYERSTATES
360
1319
  3
AMLAYER_GROUPCOLORS
360
257
  0
DICTIONARY
  5
1A2
330
5C
100
AcDbDictionary
280
     1
281
     1
  3
ADSK_XREC_LAYER_RECONCILED
360
4C05
  0
DICTIONARY
  5
4C06
330
4B04
100
AcDbDictionary
280
     1
281
     1
  3
ADSK_XREC_LAYER_RECONCILED
360
4C07
  0
DICTIONARY
  5
4C08
330
4B2C
100
AcDbDictionary
280
     1
281
     1
  3
ADSK_XREC_LAYER_RECONCILED
360
4C09
  0
DICTIONARY
  5
4C0A
330
4B75
100
AcDbDictionary
280
     1
281
     1
  3
ADSK_XREC_LAYER_RECONCILED
360
4C0B
  0
DICTIONARY
  5
4C49
330
4C48
100
AcDbDictionary
280
     1
281
     1
  0
DICTIONARY
  5
4C4B
330
4C4A
100
AcDbDictionary
280
     1
281
     1
  0
DICTIONARY
  5
4CD4
330
4CD3
100
AcDbDictionary
280
     1
281
     1
  0
DICTIONARY
  5
A88
330
74
100
AcDbDictionary
280
     1
281
     1
  3
ACAD_SORTENTS
360
A89
  0
DICTIONARY
  5
4D51
330
4CD5
100
AcDbDictionary
280
     1
281
     1
  3
ACAD_SORTENTS
360
4D52
  0
DICTIONARY
  5
4DE8
330
4DDB
100
AcDbDictionary
280
     1
281
     1
  3
ACAD_DIMASSOC
360
4DE9
  0
DICTIONARY
  5
4E1B
330
4E0E
100
AcDbDictionary
280
     1
281
     1
  3
ACAD_DIMASSOC
360
4E1C
  0
DICTIONARY
  5
4EBF
330
4EB2
100
AcDbDictionary
280
     1
281
     1
  3
ACAD_DIMASSOC
360
4EC0
  0
DICTIONARY
  5
4F93
330
4F86
100
AcDbDictionary
280
     1
281
     1
  3
ACAD_DIMASSOC
360
4F94
  0
DICTIONARY
  5
50FE
330
50F1
100
AcDbDictionary
280
     1
281
     1
  3
ACAD_DIMASSOC
360
50FF
  0
XRECORD
  5
5009
102
{ACAD_REACTORS
330
C
102
}
330
C
100
AcDbXrecord
280
     1
300
AMECH_PP
300
2016
300
PDSU_F_S
  0
DICTIONARY
  5
6A
102
{ACAD_REACTORS
330
C
102
}
330
C
100
AcDbDictionary
281
     1
  0
DICTIONARY
  5
5232
102
{ACAD_REACTORS
330
C
102
}
330
C
100
AcDbDictionary
281
     1
  3
Metric50
350
5233
  0
FIELDLIST
  5
525D
102
{ACAD_REACTORS
330
C
102
}
330
C
100
AcDbIdSet
 90
       22
330
5280
330
5281
330
5285
330
5286
330
5287
330
528C
330
528D
330
528E
330
5292
330
5293
330
5294
330
525B
330
525C
330
525E
330
526D
330
526E
330
526F
330
5270
330
5279
330
527A
330
527B
330
527F
100
AcDbFieldList
  0
DICTIONARY
  5
D
102
{ACAD_REACTORS
330
C
102
}
330
C
100
AcDbDictionary
281
     1
  0
DICTIONARY
  5
69
102
{ACAD_REACTORS
330
C
102
}
330
C
100
AcDbDictionary
281
     1
  3
Layout1
350
73
  3
Model
350
77
  0
DICTIONARY
  5
10
102
{ACAD_REACTORS
330
C
102
}
330
C
100
AcDbDictionary
281
     1
  3
ByBlock
350
19
  3
ByLayer
350
11
  3
Global
350
21
  0
DICTIONARY
  5
6D
102
{ACAD_REACTORS
330
C
102
}
330
C
100
AcDbDictionary
281
     1
  3
Standard
350
4B2B
  0
DICTIONARY
  5
66
102
{ACAD_REACTORS
330
C
102
}
330
C
100
AcDbDictionary
281
     1
  3
Standard
350
67
  0
DICTIONARY
  5
68
102
{ACAD_REACTORS
330
C
102
}
330
C
100
AcDbDictionary
281
     1
  0
ACDBDICTIONARYWDFLT
  5
E
102
{ACAD_REACTORS
330
C
102
}
330
C
100
AcDbDictionary
281
     1
  3
Normal
350
F
100
AcDbDictionaryWithDefault
340
F
  0
DICTIONARY
  5
3A
102
{ACAD_REACTORS
330
C
102
}
330
C
100
AcDbDictionary
281
     1
  3
*A1
350
1318
  3
*A2
350
160C
  3
A0
350
3B
  3
A1
350
3C
  3
A2
350
3D
  3
A3
350
3E
  3
A4
350
3F
  3
A5
350
40
  3
A6
350
41
  3
A7
350
42
  3
A8
350
43
  3
A9
350
44
  3
B0
350
45
  3
B1
350
46
  3
B2
350
47
  3
B3
350
48
  3
B4
350
49
  3
B5
350
4A
  3
B6
350
4B
  3
B7
350
4C
  3
B8
350
4D
  3
B9
350
4E
  3
C0
350
4F
  3
C1
350
50
  3
C2
350
51
  3
C3
350
52
  3
C4
350
53
  3
C5
350
54
  3
C6
350
55
  3
C7
350
56
  3
C8
350
57
  3
C9
350
58
  3
D0
350
59
  3
D1
350
5A
  3
D2
350
5B
  0
DICTIONARY
  5
5230
102
{ACAD_REACTORS
330
C
102
}
330
C
100
AcDbDictionary
281
     1
  3
Metric50
350
5231
  0
DICTIONARY
  5
6B
102
{ACAD_REACTORS
330
C
102
}
330
C
100
AcDbDictionary
281
     1
  3
Standard
350
6C
  0
DICTIONARY
  5
29
102
{ACAD_REACTORS
330
C
102
}
330
C
100
AcDbDictionary
281
     1
  3
2dWireframe
350
2F
  3
3D Hidden
350
31
  3
3dWireframe
350
30
  3
Basic
350
2E
  3
Brighten
350
35
  3
ColorChange
350
39
  3
Conceptual
350
32
  3
Dim
350
34
  3
EdgeColorOff
350
4FFF
  3
Facepattern
350
38
  3
Flat
350
2A
  3
FlatWithEdges
350
2B
  3
Gouraud
350
2C
  3
GouraudWithEdges
350
2D
  3
Hidden
350
4FF7
  3
JitterOff
350
4FFD
  3
Linepattern
350
37
  3
OverhangOff
350
4FFE
  3
Realistic
350
33
  3
Shaded
350
4FFC
  3
Shaded with edges
350
4FFB
  3
Shades of Gray
350
4FF8
  3
Sketchy
350
4FF9
  3
Thicken
350
36
  3
Wireframe
350
4FF6
  3
X-Ray
350
4FFA
  0
XRECORD
  5
52BA
102
{ACAD_REACTORS
330
C
102
}
330
C
100
AcDbXrecord
280
     1
 90
        1
330
6C
330
5231
330
5233
  0
DICTIONARY
  5
1C9
102
{ACAD_REACTORS
330
C
102
}
330
C
100
AcDbDictionary
281
     1
  3
CANNOSCALE
350
1CC
  3
CMLEADERSTYLE
350
1CB
  3
CTABLESTYLE
350
1CA
  3
CVIEWDETAILSTYLE
350
52B3
  3
CVIEWSECTIONSTYLE
350
52B4
  3
DIMASSOC
350
1CF
  3
INDEXCTL
350
1CE
  3
LAYEREVAL
350
5051
  3
LAYERNOTIFY
350
5052
  3
LIGHTINGUNITS
350
2D3
  3
MSLTSCALE
350
2D2
  3
SORTENTS
350
1CD
  0
DICTIONARY
  5
166
102
{ACAD_REACTORS
330
C
102
}
330
C
100
AcDbDictionary
281
     1
  3
AcmBOM
350
2B6
  3
AcmStdDictionary
350
171
  3
AMDTSECTSYM_ARROWCOLOR
350
186
  0
DICTIONARY
  5
10C
102
{ACAD_REACTORS
330
C
102
}
330
C
100
AcDbDictionary
281
     1
  0
DICTIONARY
  5
4025
102
{ACAD_REACTORS
330
C
102
}
330
C
100
AcDbDictionary
281
     1
  3
SAP_VERSION
350
51F8
  0
DICTIONARY
  5
19B
102
{ACAD_REACTORS
330
C
102
}
330
C
100
AcDbDictionary
281
     1
  0
DICTIONARY
  5
988
102
{ACAD_REACTORS
330
C
102
}
330
C
100
AcDbDictionary
281
     1
  3
ASEBlockHierarchyIndexRecord
350
989
1001
DCO15
1040
1624348201.082
  0
DICTIONARY
  5
1319
102
{ACAD_REACTORS
330
256
102
}
330
256
100
AcDbDictionary
281
     1
  0
DICTIONARY
  5
257
102
{ACAD_REACTORS
330
256
102
}
330
256
100
AcDbDictionary
280
     1
281
     1
  3
Basislayergruppe
360
4B03
  0
XRECORD
  5
4C05
102
{ACAD_REACTORS
330
1A2
102
}
330
1A2
100
AcDbXrecord
280
     1
290
     1
  0
XRECORD
  5
4C07
102
{ACAD_REACTORS
330
4C06
102
}
330
4C06
100
AcDbXrecord
280
     1
290
     1
  0
XRECORD
  5
4C09
102
{ACAD_REACTORS
330
4C08
102
}
330
4C08
100
AcDbXrecord
280
     1
290
     1
  0
XRECORD
  5
4C0B
102
{ACAD_REACTORS
330
4C0A
102
}
330
4C0A
100
AcDbXrecord
280
     1
290
     1
  0
SORTENTSTABLE
  5
A89
102
{ACAD_REACTORS
330
A88
102
}
330
A88
100
AcDbSortentsTable
330
74
331
4C80
  5
4C82
331
4C8E
  5
4C90
331
4C7F
  5
4C81
331
4EB2
  5
4F2A
331
4C8B
  5
4C8D
331
4C7C
  5
4C7E
331
4C88
  5
4C8A
331
4C79
  5
4C7B
331
4C94
  5
4D57
331
4C85
  5
4C87
331
4F86
  5
50DA
331
4C76
  5
4C78
331
4C91
  5
4C93
331
4C82
  5
4C84
331
4DDB
  5
4E41
331
4C7E
  5
4C80
331
4C8D
  5
4C8F
331
4C8A
  5
4C8C
331
4C7B
  5
4C7D
331
4C87
  5
4C89
331
4C78
  5
4C7A
331
4C93
  5
4CCE
331
4C84
  5
4C86
331
4C75
  5
4C77
331
4C90
  5
4C92
331
4C81
  5
4C83
331
4C8F
  5
4C91
331
4C8C
  5
4C8E
331
4C7D
  5
4C7F
331
4C89
  5
4C8B
331
4C7A
  5
4C7C
331
4C86
  5
4C88
331
4C77
  5
4C79
331
4E0E
  5
4EB2
331
4C92
  5
4C94
331
4EEE
  5
4F86
331
4C83
  5
4C85
  0
SORTENTSTABLE
  5
4D52
102
{ACAD_REACTORS
330
4D51
102
}
330
4D51
100
AcDbSortentsTable
330
4CD5
331
4D33
  5
4D37
331
4D42
  5
4D46
331
4D15
  5
4D19
331
4D06
  5
4D0A
331
4D24
  5
4D28
331
4D47
  5
4D4B
331
4D28
  5
4D2C
331
4D0A
  5
4D0E
331
4CFB
  5
4D00
331
4D19
  5
4D1D
331
4D3C
  5
4D40
331
4D1E
  5
4D22
331
4D00
  5
4CFD
331
4D0F
  5
4D13
331
4D2D
  5
4D31
331
4D4B
  5
4CFA
331
4D32
  5
4D36
331
4D14
  5
4D18
331
4D05
  5
4D09
331
4D23
  5
4D27
331
4D41
  5
4D45
331
4D46
  5
4D4A
331
4D37
  5
4D3B
331
4D09
  5
4D0D
331
4CFA
  5
4CFF
331
4D18
  5
4D1C
331
4D3B
  5
4D3F
331
4D1D
  5
4D21
331
4CFF
  5
4D04
331
4D0E
  5
4D12
331
4D2C
  5
4D30
331
4D4A
  5
4CFC
331
4D31
  5
4D35
331
4D13
  5
4D17
331
4D04
  5
4D08
331
4D22
  5
4D26
331
4D40
  5
4D44
331
4D45
  5
4D49
331
4D27
  5
4D2B
331
4D36
  5
4D3A
331
4D08
  5
4D0C
331
4CF9
  5
4CFE
331
4D49
  5
4CF9
331
4D2B
  5
4D2F
331
4D0D
  5
4D11
331
4D1C
  5
4D20
331
4CFE
  5
4D03
331
4D3A
  5
4D3E
331
4D30
  5
4D34
331
4D12
  5
4D16
331
4D03
  5
4D07
331
4D21
  5
4D25
331
4D3F
  5
4D43
331
4D35
  5
4D39
331
4D44
  5
4D48
331
4D17
  5
4D1B
331
4D26
  5
4D2A
331
4D48
  5
4D4C
331
4D2A
  5
4D2E
331
4D0C
  5
4D10
331
4CFD
  5
4D02
331
4D1B
  5
4D1F
331
4D39
  5
4D3D
331
4D3E
  5
4D42
331
4D20
  5
4D24
331
4D02
  5
4D06
331
4D11
  5
4D15
331
4D2F
  5
4D33
331
4D34
  5
4D38
331
4D16
  5
4D1A
331
4D07
  5
4D0B
331
4D25
  5
4D29
331
4D43
  5
4D47
331
4D29
  5
4D2D
331
4D0B
  5
4D0F
331
4CFC
  5
4D01
331
4D1A
  5
4D1E
331
4D38
  5
4D3C
331
4D3D
  5
4D41
331
4D1F
  5
4D23
331
4D01
  5
4D05
331
4D10
  5
4D14
331
4D2E
  5
4D32
331
4D4C
  5
4CFB
  0
DIMASSOC
  5
4DE9
102
{ACAD_REACTORS
330
4DE8
102
}
330
4DE8
100
AcDbDimAssoc
330
4DDB
 90
        3
 70
     0
 71
     0
  1
AcDbOsnapPointRef
 72
     1
331
4C92
 73
     0
 91
        0
 40
0.0
 10
0.0
 20
0.0
 30
2.000000000000000E+50
 75
     0
  1
AcDbOsnapPointRef
 72
    13
331
4C92
 73
     0
 91
        0
 40
0.0
 10
0.0
 20
0.0
 30
2.000000000000000E+50
 75
     0
  0
DIMASSOC
  5
4E1C
102
{ACAD_REACTORS
330
4E1B
102
}
330
4E1B
100
AcDbDimAssoc
330
4E0E
 90
        3
 70
     0
 71
     0
  1
AcDbOsnapPointRef
 72
     1
331
4C86
 73
     0
 91
        0
 40
0.0
 10
0.0
 20
0.0
 30
2.000000000000000E+50
 75
     0
  1
AcDbOsnapPointRef
 72
     1
331
4C83
 73
     0
 91
        0
 40
0.0
 10
0.0
 20
0.0
 30
2.000000000000000E+50
 75
     0
  0
DIMASSOC
  5
4EC0
102
{ACAD_REACTORS
330
4EBF
102
}
330
4EBF
100
AcDbDimAssoc
330
4EB2
 90
        3
 70
     0
 71
     0
  1
AcDbOsnapPointRef
 72
     1
331
4C85
 73
     0
 91
        0
 40
0.0
 10
0.0
 20
0.0
 30
2.000000000000000E+50
 75
     0
  1
AcDbOsnapPointRef
 72
     6
331
4C75
 73
     0
 91
        0
 40
1.535726407450255
 10
0.0
 20
0.0
 30
0.0
332
4C88
 74
     0
 92
        0
 75
     0
  0
DIMASSOC
  5
4F94
102
{ACAD_REACTORS
330
4F93
102
}
330
4F93
100
AcDbDimAssoc
330
4F86
 90
        3
 70
     0
 71
     0
  1
AcDbOsnapPointRef
 72
    13
331
4C81
 73
     0
 91
        0
 40
0.0
 10
0.0
 20
0.0
 30
2.000000000000000E+50
 75
     0
  1
AcDbOsnapPointRef
 72
    13
331
4C8A
 73
     0
 91
        0
 40
0.0
 10
0.0
 20
0.0
 30
2.000000000000000E+50
 75
     0
  0
DIMASSOC
  5
50FF
102
{ACAD_REACTORS
330
50FE
102
}
330
50FE
100
AcDbDimAssoc
330
50F1
 90
        3
 70
     0
 71
     0
  1
AcDbOsnapPointRef
 72
    11
331
50DC
 73
     2
 91
        6
 40
0.5
 10
0.0
 20
0.0
 30
0.0
332
50DF
 74
     0
 92
        0
 75
     0
  1
AcDbOsnapPointRef
 72
    11
331
50DC
 73
     2
 91
        3
 40
0.5
 10
0.0
 20
0.0
 30
0.0
332
50E1
 74
     0
 92
        0
 75
     0
  0
ACDBDETAILVIEWSTYLE
  5
5233
102
{ACAD_XDICTIONARY
360
52B8
102
}
102
{ACAD_REACTORS
330
5232
330
5249
330
524D
330
5251
330
5261
102
}
330
5232
100
AcDbModelDocViewStyle
 70
     0
  3
Metric50
290
     0
100
AcDbDetailViewStyle
 70
     0
 71
     0
 90
        3
 71
     1
340
5D
 62
   256
 40
5.0
340
0
 62
   256
 40
5.0
300

 40
0.0
280
     1
 71
     2
340
64
 90
       25
 62
   256
 71
     3
340
5D
 62
   256
 40
5.0
 90
        0
 40
15.0
 90
        1
300
%<\AcVar ViewDetailId>% (%<\AcVar ViewScale \f "%sn">%)
 71
     4
340
64
 90
       25
 62
   256
340
64
 90
       25
 62
   256
280
     0
  0
LAYOUT
  5
73
102
{ACAD_REACTORS
330
69
102
}
330
69
100
AcDbPlotSettings
  1

  2
\\OASE42\HP DesignJet 500 42+HPGL2 Card
  4

  6

 40
0.0
 41
0.0
 42
0.0
 43
0.0
 44
0.0
 45
0.0
 46
0.0
 47
0.0
 48
0.0
 49
0.0
140
0.0
141
0.0
142
1.0
143
1.0
 70
   688
 72
     0
 73
     0
 74
     5
  7
C:\Dokumente und Einstellungen\guzb562\Anwendungsdaten\Autodesk\Autodesk Mechanical Desktop 2008\R17.1\deu\Plot Styles\OASE.ctb
 75
    16
147
1.0
 76
     0
 77
     2
 78
   300
148
0.0
149
0.0
100
AcDbLayout
  1
Layout1
 70
     1
 71
     1
 10
0.0
 20
0.0
 11
12.0
 21
9.0
 12
0.0
 22
0.0
 32
0.0
 14
1.000000000000000E+20
 24
1.000000000000000E+20
 34
1.000000000000000E+20
 15
-1.000000000000000E+20
 25
-1.000000000000000E+20
 35
-1.000000000000000E+20
146
0.0
 13
0.0
 23
0.0
 33
0.0
 16
1.0
 26
0.0
 36
0.0
 17
0.0
 27
1.0
 37
0.0
 76
     0
330
70
  0
LAYOUT
  5
77
102
{ACAD_REACTORS
330
69
102
}
330
69
100
AcDbPlotSettings
  1

  2
none_device
  4
ISO_A4_(210.00_x_297.00_MM)
  6

 40
7.5
 41
20.0
 42
7.5
 43
20.0
 44
210.0
 45
297.0
 46
0.0
 47
0.0
 48
0.0
 49
0.0
140
0.0
141
0.0
142
1.0
143
13.11151541627037
 70
 11952
 72
     1
 73
     1
 74
     0
  7
C:\Dokumente und Einstellungen\guzb562\Anwendungsdaten\Autodesk\Autodesk Mechanical Desktop 2008\R17.1\deu\Plot Styles\OASE.ctb
 75
     0
147
0.0762688345512737
 76
     0
 77
     2
 78
   300
148
-3076.547796556637
149
-1333.24533121364
100
AcDbLayout
  1
Model
 70
     1
 71
     0
 10
0.0
 20
0.0
 11
12.0
 21
9.0
 12
0.0
 22
0.0
 32
0.0
 14
0.0
 24
0.0
 34
0.0
 15
0.0
 25
0.0
 35
0.0
146
0.0
 13
0.0
 23
0.0
 33
0.0
 16
1.0
 26
0.0
 36
0.0
 17
0.0
 27
1.0
 37
0.0
 76
     0
330
74
331
82
1001
ACAD_PSEXT
1000
Kein
1000
Kein
1000
Nicht anwendbar
1000
Das Layout wird erst geplottet, wenn ein neuer Plotter-Konfigurationsname ausgewählt wird.
1070
     0
  0
MATERIAL
  5
19
102
{ACAD_XDICTIONARY
360
1A
102
}
102
{ACAD_REACTORS
330
10
102
}
330
10
100
AcDbMaterial
  1
ByBlock
 72
     0
 43
0.0208333333333333
 43
0.0
 43
0.0
 43
0.0
 43
0.0
 43
0.0208333333333333
 43
0.0
 43
0.0
 43
0.0
 43
0.0
 43
1.0
 43
0.0
 43
0.0
 43
0.0
 43
0.0
 43
1.0
 77
     0
 47
0.0208333333333333
 47
0.0
 47
0.0
 47
0.0
 47
0.0
 47
0.0208333333333333
 47
0.0
 47
0.0
 47
0.0
 47
0.0
 47
1.0
 47
0.0
 47
0.0
 47
0.0
 47
0.0
 47
1.0
171
     0
 49
0.0208333333333333
 49
0.0
 49
0.0
 49
0.0
 49
0.0
 49
0.0208333333333333
 49
0.0
 49
0.0
 49
0.0
 49
0.0
 49
1.0
 49
0.0
 49
0.0
 49
0.0
 49
0.0
 49
1.0
175
     0
142
0.0208333333333333
142
0.0
142
0.0
142
0.0
142
0.0
142
0.0208333333333333
142
0.0
142
0.0
142
0.0
142
0.0
142
1.0
142
0.0
142
0.0
142
0.0
142
0.0
142
1.0
179
     0
144
0.0208333333333333
144
0.0
144
0.0
144
0.0
144
0.0
144
0.0208333333333333
144
0.0
144
0.0
144
0.0
144
0.0
144
1.0
144
0.0
144
0.0
144
0.0
144
0.0
144
1.0
147
0.0208333333333333
147
0.0
147
0.0
147
0.0
147
0.0
147
0.0208333333333333
147
0.0
147
0.0
147
0.0
147
0.0
147
1.0
147
0.0
147
0.0
147
0.0
147
0.0
147
1.0
  0
MATERIAL
  5
11
102
{ACAD_XDICTIONARY
360
12
102
}
102
{ACAD_REACTORS
330
10
102
}
330
10
100
AcDbMaterial
  1
ByLayer
 72
     0
 43
0.0208333333333333
 43
0.0
 43
0.0
 43
0.0
 43
0.0
 43
0.0208333333333333
 43
0.0
 43
0.0
 43
0.0
 43
0.0
 43
1.0
 43
0.0
 43
0.0
 43
0.0
 43
0.0
 43
1.0
 77
     0
 47
0.0208333333333333
 47
0.0
 47
0.0
 47
0.0
 47
0.0
 47
0.0208333333333333
 47
0.0
 47
0.0
 47
0.0
 47
0.0
 47
1.0
 47
0.0
 47
0.0
 47
0.0
 47
0.0
 47
1.0
171
     0
 49
0.0208333333333333
 49
0.0
 49
0.0
 49
0.0
 49
0.0
 49
0.0208333333333333
 49
0.0
 49
0.0
 49
0.0
 49
0.0
 49
1.0
 49
0.0
 49
0.0
 49
0.0
 49
0.0
 49
1.0
175
     0
142
0.0208333333333333
142
0.0
142
0.0
142
0.0
142
0.0
142
0.0208333333333333
142
0.0
142
0.0
142
0.0
142
0.0
142
1.0
142
0.0
142
0.0
142
0.0
142
0.0
142
1.0
179
     0
144
0.0208333333333333
144
0.0
144
0.0
144
0.0
144
0.0
144
0.0208333333333333
144
0.0
144
0.0
144
0.0
144
0.0
144
1.0
144
0.0
144
0.0
144
0.0
144
0.0
144
1.0
147
0.0208333333333333
147
0.0
147
0.0
147
0.0
147
0.0
147
0.0208333333333333
147
0.0
147
0.0
147
0.0
147
0.0
147
1.0
147
0.0
147
0.0
147
0.0
147
0.0
147
1.0
  0
MATERIAL
  5
21
102
{ACAD_XDICTIONARY
360
22
102
}
102
{ACAD_REACTORS
330
10
102
}
330
10
100
AcDbMaterial
  1
Global
 72
     0
 43
0.0208333333333333
 43
0.0
 43
0.0
 43
0.0
 43
0.0
 43
0.0208333333333333
 43
0.0
 43
0.0
 43
0.0
 43
0.0
 43
1.0
 43
0.0
 43
0.0
 43
0.0
 43
0.0
 43
1.0
 77
     0
 47
0.0208333333333333
 47
0.0
 47
0.0
 47
0.0
 47
0.0
 47
0.0208333333333333
 47
0.0
 47
0.0
 47
0.0
 47
0.0
 47
1.0
 47
0.0
 47
0.0
 47
0.0
 47
0.0
 47
1.0
171
     0
 49
0.0208333333333333
 49
0.0
 49
0.0
 49
0.0
 49
0.0
 49
0.0208333333333333
 49
0.0
 49
0.0
 49
0.0
 49
0.0
 49
1.0
 49
0.0
 49
0.0
 49
0.0
 49
0.0
 49
1.0
175
     0
142
0.0208333333333333
142
0.0
142
0.0
142
0.0
142
0.0
142
0.0208333333333333
142
0.0
142
0.0
142
0.0
142
0.0
142
1.0
142
0.0
142
0.0
142
0.0
142
0.0
142
1.0
179
     0
144
0.0208333333333333
144
0.0
144
0.0
144
0.0
144
0.0
144
0.0208333333333333
144
0.0
144
0.0
144
0.0
144
0.0
144
1.0
144
0.0
144
0.0
144
0.0
144
0.0
144
1.0
147
0.0208333333333333
147
0.0
147
0.0
147
0.0
147
0.0
147
0.0208333333333333
147
0.0
147
0.0
147
0.0
147
0.0
147
1.0
147
0.0
147
0.0
147
0.0
147
0.0
147
1.0
  0
MLEADERSTYLE
  5
4B2B
102
{ACAD_REACTORS
330
6D
102
}
330
6D
100
AcDbMLeaderStyle
179
     2
170
     2
171
     1
172
     0
 90
        2
 40
0.0
 41
0.0
173
     1
 91
-1056964608
340
62
 92
       -2
290
     1
 42
2.0
291
     1
 43
0.36
  3
Standard
 44
4.0
300

342
5D
174
     1
178
     6
175
     1
176
     0
 93
-1056964608
 45
4.0
292
     0
297
     0
 46
4.0
 94
-1056964608
 47
1.0
 49
1.0
140
1.0
293
     1
141
0.0
294
     1
177
     0
142
1.0
295
     0
296
     0
143
0.125
271
     0
272
     9
273
     9
298
     0
  0
MLINESTYLE
  5
67
102
{ACAD_REACTORS
330
66
102
}
330
66
100
AcDbMlineStyle
  2
STANDARD
 70
     0
  3

 62
   256
 51
90.0
 52
90.0
 71
     2
 49
0.5
 62
   256
  6
BYLAYER
 49
-0.5
 62
   256
  6
BYLAYER
  0
ACDBPLACEHOLDER
  5
F
102
{ACAD_REACTORS
330
E
102
}
330
E
  0
SCALE
  5
1318
102
{ACAD_REACTORS
330
3A
102
}
330
3A
100
AcDbScale
 70
     0
300
1:200
140
1.0
141
200.0
290
     0
  0
SCALE
  5
160C
102
{ACAD_REACTORS
330
3A
102
}
330
3A
100
AcDbScale
 70
     0
300
1:2.5
140
1.0
141
2.5
290
     0
  0
SCALE
  5
3B
102
{ACAD_REACTORS
330
3A
102
}
330
3A
100
AcDbScale
 70
     0
300
1:1
140
1.0
141
1.0
290
     1
  0
SCALE
  5
3C
102
{ACAD_REACTORS
330
3A
102
}
330
3A
100
AcDbScale
 70
     0
300
1:2
140
1.0
141
2.0
290
     0
  0
SCALE
  5
3D
102
{ACAD_REACTORS
330
3A
102
}
330
3A
100
AcDbScale
 70
     0
300
1:4
140
1.0
141
4.0
290
     0
  0
SCALE
  5
3E
102
{ACAD_REACTORS
330
3A
102
}
330
3A
100
AcDbScale
 70
     0
300
1:5
140
1.0
141
5.0
290
     0
  0
SCALE
  5
3F
102
{ACAD_REACTORS
330
3A
102
}
330
3A
100
AcDbScale
 70
     0
300
1:8
140
1.0
141
8.0
290
     0
  0
SCALE
  5
40
102
{ACAD_REACTORS
330
3A
102
}
330
3A
100
AcDbScale
 70
     0
300
1:10
140
1.0
141
10.0
290
     0
  0
SCALE
  5
41
102
{ACAD_REACTORS
330
3A
102
}
330
3A
100
AcDbScale
 70
     0
300
1:16
140
1.0
141
16.0
290
     0
  0
SCALE
  5
42
102
{ACAD_REACTORS
330
3A
102
}
330
3A
100
AcDbScale
 70
     0
300
1:20
140
1.0
141
20.0
290
     0
  0
SCALE
  5
43
102
{ACAD_REACTORS
330
3A
102
}
330
3A
100
AcDbScale
 70
     0
300
1:30
140
1.0
141
30.0
290
     0
  0
SCALE
  5
44
102
{ACAD_REACTORS
330
3A
102
}
330
3A
100
AcDbScale
 70
     0
300
1:40
140
1.0
141
40.0
290
     0
  0
SCALE
  5
45
102
{ACAD_REACTORS
330
3A
102
}
330
3A
100
AcDbScale
 70
     0
300
1:50
140
1.0
141
50.0
290
     0
  0
SCALE
  5
46
102
{ACAD_REACTORS
330
3A
102
}
330
3A
100
AcDbScale
 70
     0
300
1:100
140
1.0
141
100.0
290
     0
  0
SCALE
  5
47
102
{ACAD_REACTORS
330
3A
102
}
330
3A
100
AcDbScale
 70
     0
300
2:1
140
2.0
141
1.0
290
     0
  0
SCALE
  5
48
102
{ACAD_REACTORS
330
3A
102
}
330
3A
100
AcDbScale
 70
     0
300
4:1
140
4.0
141
1.0
290
     0
  0
SCALE
  5
49
102
{ACAD_REACTORS
330
3A
102
}
330
3A
100
AcDbScale
 70
     0
300
8:1
140
8.0
141
1.0
290
     0
  0
SCALE
  5
4A
102
{ACAD_REACTORS
330
3A
102
}
330
3A
100
AcDbScale
 70
     0
300
10:1
140
10.0
141
1.0
290
     0
  0
SCALE
  5
4B
102
{ACAD_REACTORS
330
3A
102
}
330
3A
100
AcDbScale
 70
     0
300
100:1
140
100.0
141
1.0
290
     0
  0
SCALE
  5
4C
102
{ACAD_REACTORS
330
3A
102
}
330
3A
100
AcDbScale
 70
     0
300
1/128" = 1'-0"
140
0.0078125
141
12.0
290
     0
  0
SCALE
  5
4D
102
{ACAD_REACTORS
330
3A
102
}
330
3A
100
AcDbScale
 70
     0
300
1/64" = 1'-0"
140
0.015625
141
12.0
290
     0
  0
SCALE
  5
4E
102
{ACAD_REACTORS
330
3A
102
}
330
3A
100
AcDbScale
 70
     0
300
1/32" = 1'-0"
140
0.03125
141
12.0
290
     0
  0
SCALE
  5
4F
102
{ACAD_REACTORS
330
3A
102
}
330
3A
100
AcDbScale
 70
     0
300
1/16" = 1'-0"
140
0.0625
141
12.0
290
     0
  0
SCALE
  5
50
102
{ACAD_REACTORS
330
3A
102
}
330
3A
100
AcDbScale
 70
     0
300
3/32" = 1'-0"
140
0.09375
141
12.0
290
     0
  0
SCALE
  5
51
102
{ACAD_REACTORS
330
3A
102
}
330
3A
100
AcDbScale
 70
     0
300
1/8" = 1'-0"
140
0.125
141
12.0
290
     0
  0
SCALE
  5
52
102
{ACAD_REACTORS
330
3A
102
}
330
3A
100
AcDbScale
 70
     0
300
3/16" = 1'-0"
140
0.1875
141
12.0
290
     0
  0
SCALE
  5
53
102
{ACAD_REACTORS
330
3A
102
}
330
3A
100
AcDbScale
 70
     0
300
1/4" = 1'-0"
140
0.25
141
12.0
290
     0
  0
SCALE
  5
54
102
{ACAD_REACTORS
330
3A
102
}
330
3A
100
AcDbScale
 70
     0
300
3/8" = 1'-0"
140
0.375
141
12.0
290
     0
  0
SCALE
  5
55
102
{ACAD_REACTORS
330
3A
102
}
330
3A
100
AcDbScale
 70
     0
300
1/2" = 1'-0"
140
0.5
141
12.0
290
     0
  0
SCALE
  5
56
102
{ACAD_REACTORS
330
3A
102
}
330
3A
100
AcDbScale
 70
     0
300
3/4" = 1'-0"
140
0.75
141
12.0
290
     0
  0
SCALE
  5
57
102
{ACAD_REACTORS
330
3A
102
}
330
3A
100
AcDbScale
 70
     0
300
1" = 1'-0"
140
1.0
141
12.0
290
     0
  0
SCALE
  5
58
102
{ACAD_REACTORS
330
3A
102
}
330
3A
100
AcDbScale
 70
     0
300
1-1/2" = 1'-0"
140
1.5
141
12.0
290
     0
  0
SCALE
  5
59
102
{ACAD_REACTORS
330
3A
102
}
330
3A
100
AcDbScale
 70
     0
300
3" = 1'-0"
140
3.0
141
12.0
290
     0
  0
SCALE
  5
5A
102
{ACAD_REACTORS
330
3A
102
}
330
3A
100
AcDbScale
 70
     0
300
6" = 1'-0"
140
6.0
141
12.0
290
     0
  0
SCALE
  5
5B
102
{ACAD_REACTORS
330
3A
102
}
330
3A
100
AcDbScale
 70
     0
300
1'-0" = 1'-0"
140
12.0
141
12.0
290
     0
  0
ACDBSECTIONVIEWSTYLE
  5
5231
102
{ACAD_XDICTIONARY
360
52B6
102
}
102
{ACAD_REACTORS
330
5230
330
5248
330
524C
330
5250
330
5260
102
}
330
5230
100
AcDbModelDocViewStyle
 70
     0
  3
Metric50
290
     0
100
AcDbSectionViewStyle
 70
     0
 71
     0
 90
      102
 71
     1
340
5D
 62
   256
 40
5.0
340
0
340
0
 62
   256
 40
5.0
300
I, O, Q, S, X, Z
 40
10.0
 90
        0
 40
2.5
 90
        0
 71
     2
340
64
 90
       25
 62
   256
340
64
 90
       50
 62
   256
 40
5.0
 40
2.5
 40
5.0
 71
     3
340
5D
 62
   256
 40
5.0
 90
        0
 40
15.0
 90
        1
300
%<\AcVar ViewSectionStartId>%-%<\AcVar ViewSectionEndId>% (%<\AcVar ViewScale \f "%sn">%)
 71
     4
 62
   256
 62
   257
300
ANSI31
 40
1.0
 90
        0
290
     0
290
     0
 90
        6
 40
0.0
 40
1.570796326794896
 40
0.2617993877991494
 40
1.308996938995747
 40
-0.2617993877991494
 40
1.832595714594046
  0
TABLESTYLE
  5
6C
102
{ACAD_XDICTIONARY
360
1B2
102
}
102
{ACAD_REACTORS
330
6B
102
}
330
6B
100
AcDbTableStyle
280
     0
  3
Standard
 70
     0
 71
     0
 40
0.06
 41
0.06
280
     0
281
     0
  7
STANDARD
140
0.18
170
     2
 62
     0
 63
     7
283
     0
 90
      512
 91
        0
  1

274
    -2
284
     1
 64
     0
275
    -2
285
     1
 65
     0
276
    -2
286
     1
 66
     0
277
    -2
287
     1
 67
     0
278
    -2
288
     1
 68
     0
279
    -2
289
     1
 69
     0
  7
STANDARD
140
0.25
170
     5
 62
     0
 63
     7
283
     0
 90
      512
 91
        0
  1

274
    -2
284
     1
 64
     0
275
    -2
285
     1
 65
     0
276
    -2
286
     1
 66
     0
277
    -2
287
     1
 67
     0
278
    -2
288
     1
 68
     0
279
    -2
289
     1
 69
     0
  7
STANDARD
140
0.18
170
     5
 62
     0
 63
     7
283
     0
 90
      512
 91
        0
  1

274
    -2
284
     1
 64
     0
275
    -2
285
     1
 65
     0
276
    -2
286
     1
 66
     0
277
    -2
287
     1
 67
     0
278
    -2
288
     1
 68
     0
279
    -2
289
     1
 69
     0
  0
VISUALSTYLE
  5
2F
102
{ACAD_REACTORS
330
29
102
}
330
29
100
AcDbVisualStyle
  2
2dWireframe
 70
     4
177
     3
291
     0
 70
    58
 90
        0
176
     1
 90
        2
176
     1
 90
        0
176
     1
 90
        0
176
     1
 40
0.6
176
     1
 40
30.0
176
     1
 62
     7
176
     1
 90
        1
176
     1
 90
        4
176
     1
 62
     7
176
     1
 62
   257
176
     1
 90
        1
176
     1
 90
        1
176
     1
 40
1.0
176
     1
 90
        0
176
     1
 62
   257
176
     1
 40
1.0
176
     1
 90
        1
176
     1
 90
        6
176
     1
 90
        2
176
     1
 62
     7
176
     1
 90
        5
176
     1
 90
        0
176
     1
 90
        0
176
     1
290
     0
176
     1
 90
        1
176
     1
 40
0.0
176
     1
 90
        0
176
     1
290
     1
176
     1
290
     1
176
     1
290
     0
176
     1
290
     0
176
     1
290
     0
176
     1
290
     0
176
     1
290
     0
176
     1
290
     0
176
     1
290
     0
176
     1
 90
       50
176
     1
 40
0.0
176
     1
 40
1.0
176
     1
 90
        0
176
     1
 62
    18
420
        0
176
     1
 90
       50
176
     1
 90
        3
176
     1
 62
     5
420
      255
176
     1
290
     0
176
     1
 90
       50
176
     1
 90
       50
176
     1
 90
       50
176
     1
290
     0
176
     1
 90
       50
176
     1
 62
   256
176
     0
 40
1.0
176
     0
 90
        2
176
     1
  1
strokes_ogs.tif
176
     1
290
     0
176
     1
 40
1.0
176
     1
 40
1.0
176
     1
  0
VISUALSTYLE
  5
31
102
{ACAD_REACTORS
330
29
102
}
330
29
100
AcDbVisualStyle
  2
3D Hidden
 70
     6
177
     3
291
     0
 70
    58
 90
        1
176
     1
 90
        2
176
     1
 90
        2
176
     1
 90
        0
176
     1
 40
0.6
176
     1
 40
30.0
176
     1
 62
     7
176
     1
 90
        2
176
     1
 90
        2
176
     1
 62
     7
176
     1
 62
   257
176
     1
 90
        2
176
     1
 90
        1
176
     1
 40
40.0
176
     1
 90
        0
176
     1
 62
   257
176
     1
 40
1.0
176
     1
 90
        1
176
     1
 90
        6
176
     1
 90
        2
176
     1
 62
     7
176
     1
 90
        3
176
     1
 90
        0
176
     1
 90
        0
176
     1
290
     0
176
     1
 90
        1
176
     1
 40
0.0
176
     1
 90
        0
176
     1
290
     0
176
     1
290
     1
176
     1
290
     1
176
     1
290
     0
176
     1
290
     0
176
     1
290
     0
176
     1
290
     0
176
     1
290
     0
176
     1
290
     0
176
     1
 90
       50
176
     1
 40
0.0
176
     1
 40
1.0
176
     1
 90
        0
176
     1
 62
    18
420
        0
176
     1
 90
       50
176
     1
 90
        3
176
     1
 62
     5
420
      255
176
     1
290
     0
176
     1
 90
       50
176
     1
 90
       50
176
     1
 90
       50
176
     1
290
     0
176
     1
 90
       50
176
     1
 62
   256
176
     0
 40
1.0
176
     0
 90
        2
176
     1
  1
strokes_ogs.tif
176
     1
290
     0
176
     1
 40
1.0
176
     1
 40
1.0
176
     1
  0
VISUALSTYLE
  5
30
102
{ACAD_REACTORS
330
29
102
}
330
29
100
AcDbVisualStyle
  2
3dWireframe
 70
     5
177
     3
291
     0
 70
    58
 90
        0
176
     1
 90
        2
176
     1
 90
        0
176
     1
 90
        0
176
     1
 40
0.6
176
     1
 40
30.0
176
     1
 62
     7
176
     1
 90
        1
176
     1
 90
        4
176
     1
 62
     7
176
     1
 62
   257
176
     1
 90
        1
176
     1
 90
        1
176
     1
 40
1.0
176
     1
 90
        0
176
     1
 62
   257
176
     1
 40
1.0
176
     1
 90
        1
176
     1
 90
        6
176
     1
 90
        2
176
     1
 62
     7
176
     1
 90
        5
176
     1
 90
        0
176
     1
 90
        0
176
     1
290
     0
176
     1
 90
        1
176
     1
 40
0.0
176
     1
 90
        0
176
     1
290
     0
176
     1
290
     1
176
     1
290
     1
176
     1
290
     0
176
     1
290
     0
176
     1
290
     0
176
     1
290
     0
176
     1
290
     0
176
     1
290
     0
176
     1
 90
       50
176
     1
 40
0.0
176
     1
 40
1.0
176
     1
 90
        0
176
     1
 62
    18
420
        0
176
     1
 90
       50
176
     1
 90
        3
176
     1
 62
     5
420
      255
176
     1
290
     0
176
     1
 90
       50
176
     1
 90
       50
176
     1
 90
       50
176
     1
290
     0
176
     1
 90
       50
176
     1
 62
   256
176
     0
 40
1.0
176
     0
 90
        2
176
     1
  1
strokes_ogs.tif
176
     1
290
     0
176
     1
 40
1.0
176
     1
 40
1.0
176
     1
  0
VISUALSTYLE
  5
2E
102
{ACAD_REACTORS
330
29
102
}
330
29
100
AcDbVisualStyle
  2
Basic
 70
     7
177
     3
291
     1
 70
    58
 90
        1
176
     1
 90
        0
176
     1
 90
        1
176
     1
 90
        0
176
     1
 40
0.6
176
     1
 40
30.0
176
     1
 62
     7
176
     1
 90
        0
176
     1
 90
        4
176
     1
 62
     7
176
     1
 62
   257
176
     1
 90
        1
176
     1
 90
        1
176
     1
 40
1.0
176
     1
 90
        8
176
     1
 62
     7
176
     1
 40
1.0
176
     1
 90
        1
176
     1
 90
        6
176
     1
 90
        2
176
     1
 62
     7
176
     1
 90
        5
176
     1
 90
        0
176
     1
 90
        0
176
     1
290
     0
176
     1
 90
        1
176
     1
 40
0.0
176
     1
 90
        0
176
     1
290
     0
176
     1
290
     1
176
     1
290
     1
176
     1
290
     0
176
     1
290
     0
176
     1
290
     0
176
     1
290
     0
176
     1
290
     0
176
     1
290
     0
176
     1
 90
       50
176
     1
 40
0.0
176
     1
 40
1.0
176
     1
 90
        0
176
     1
 62
    18
420
        0
176
     1
 90
       50
176
     1
 90
        3
176
     1
 62
     5
420
      255
176
     1
290
     0
176
     1
 90
       50
176
     1
 90
       50
176
     1
 90
       50
176
     1
290
     0
176
     1
 90
       50
176
     1
 62
   256
176
     0
 40
1.0
176
     0
 90
        2
176
     1
  1
strokes_ogs.tif
176
     1
290
     0
176
     1
 40
1.0
176
     1
 40
1.0
176
     1
  0
VISUALSTYLE
  5
35
102
{ACAD_REACTORS
330
29
102
}
330
29
100
AcDbVisualStyle
  2
Brighten
 70
    12
177
     3
291
     1
 70
    58
 90
        2
176
     1
 90
        2
176
     1
 90
        0
176
     1
 90
        0
176
     1
 40
0.6
176
     1
 40
30.0
176
     1
 62
     7
176
     1
 90
        1
176
     1
 90
        4
176
     1
 62
     7
176
     1
 62
   257
176
     1
 90
        1
176
     1
 90
        1
176
     1
 40
1.0
176
     1
 90
        8
176
     1
 62
     7
176
     1
 40
1.0
176
     1
 90
        1
176
     1
 90
        6
176
     1
 90
        2
176
     1
 62
     7
176
     1
 90
        5
176
     1
 90
        0
176
     1
 90
        0
176
     1
290
     0
176
     1
 90
        1
176
     1
 40
50.0
176
     1
 90
        0
176
     1
290
     0
176
     1
290
     1
176
     1
290
     1
176
     1
290
     0
176
     1
290
     0
176
     1
290
     0
176
     1
290
     0
176
     1
290
     0
176
     1
290
     0
176
     1
 90
       50
176
     1
 40
0.0
176
     1
 40
1.0
176
     1
 90
        0
176
     1
 62
    18
420
        0
176
     1
 90
       50
176
     1
 90
        3
176
     1
 62
     5
420
      255
176
     1
290
     0
176
     1
 90
       50
176
     1
 90
       50
176
     1
 90
       50
176
     1
290
     0
176
     1
 90
       50
176
     1
 62
   256
176
     0
 40
1.0
176
     0
 90
        2
176
     1
  1
strokes_ogs.tif
176
     1
290
     0
176
     1
 40
1.0
176
     1
 40
1.0
176
     1
  0
VISUALSTYLE
  5
39
102
{ACAD_REACTORS
330
29
102
}
330
29
100
AcDbVisualStyle
  2
ColorChange
 70
    16
177
     3
291
     1
 70
    58
 90
        2
176
     1
 90
        2
176
     1
 90
        3
176
     1
 90
        0
176
     1
 40
0.6
176
     1
 40
30.0
176
     1
 62
     8
176
     1
 90
        1
176
     1
 90
        4
176
     1
 62
     7
176
     1
 62
   257
176
     1
 90
        1
176
     1
 90
        1
176
     1
 40
1.0
176
     1
 90
        8
176
     1
 62
     8
176
     1
 40
1.0
176
     1
 90
        1
176
     1
 90
        6
176
     1
 90
        2
176
     1
 62
     7
176
     1
 90
        5
176
     1
 90
        0
176
     1
 90
        0
176
     1
290
     0
176
     1
 90
        1
176
     1
 40
0.0
176
     1
 90
        0
176
     1
290
     0
176
     1
290
     1
176
     1
290
     1
176
     1
290
     0
176
     1
290
     0
176
     1
290
     0
176
     1
290
     0
176
     1
290
     0
176
     1
290
     0
176
     1
 90
       50
176
     1
 40
0.0
176
     1
 40
1.0
176
     1
 90
        0
176
     1
 62
    18
420
        0
176
     1
 90
       50
176
     1
 90
        3
176
     1
 62
     5
420
      255
176
     1
290
     0
176
     1
 90
       50
176
     1
 90
       50
176
     1
 90
       50
176
     1
290
     0
176
     1
 90
       50
176
     1
 62
   256
176
     0
 40
1.0
176
     0
 90
        2
176
     1
  1
strokes_ogs.tif
176
     1
290
     0
176
     1
 40
1.0
176
     1
 40
1.0
176
     1
  0
VISUALSTYLE
  5
32
102
{ACAD_REACTORS
330
29
102
}
330
29
100
AcDbVisualStyle
  2
Conceptual
 70
     9
177
     3
291
     0
 70
    58
 90
        3
176
     1
 90
        2
176
     1
 90
        0
176
     1
 90
        0
176
     1
 40
0.6
176
     1
 40
30.0
176
     1
 62
     7
176
     1
 90
        2
176
     1
 90
        2
176
     1
 62
     7
176
     1
 62
   257
176
     1
 90
        1
176
     1
 90
        1
176
     1
 40
40.0
176
     1
 90
        8
176
     1
 62
     7
176
     1
 40
1.0
176
     1
 90
        1
176
     1
 90
        6
176
     1
 90
        2
176
     1
 62
     7
176
     1
 90
        3
176
     1
 90
        0
176
     1
 90
        0
176
     1
290
     0
176
     1
 90
        1
176
     1
 40
0.0
176
     1
 90
        0
176
     1
290
     0
176
     1
290
     1
176
     1
290
     1
176
     1
290
     0
176
     1
290
     0
176
     1
290
     0
176
     1
290
     0
176
     1
290
     0
176
     1
290
     0
176
     1
 90
       50
176
     1
 40
0.0
176
     1
 40
1.0
176
     1
 90
        0
176
     1
 62
    18
420
        0
176
     1
 90
       50
176
     1
 90
        3
176
     1
 62
     5
420
      255
176
     1
290
     0
176
     1
 90
       50
176
     1
 90
       50
176
     1
 90
       50
176
     1
290
     0
176
     1
 90
       50
176
     1
 62
   256
176
     0
 40
1.0
176
     0
 90
        2
176
     1
  1
strokes_ogs.tif
176
     1
290
     0
176
     1
 40
1.0
176
     1
 40
1.0
176
     1
  0
VISUALSTYLE
  5
34
102
{ACAD_REACTORS
330
29
102
}
330
29
100
AcDbVisualStyle
  2
Dim
 70
    11
177
     3
291
     1
 70
    58
 90
        2
176
     1
 90
        2
176
     1
 90
        0
176
     1
 90
        0
176
     1
 40
0.6
176
     1
 40
30.0
176
     1
 62
     7
176
     1
 90
        1
176
     1
 90
        4
176
     1
 62
     7
176
     1
 62
   257
176
     1
 90
        1
176
     1
 90
        1
176
     1
 40
1.0
176
     1
 90
        8
176
     1
 62
     7
176
     1
 40
1.0
176
     1
 90
        1
176
     1
 90
        6
176
     1
 90
        2
176
     1
 62
     7
176
     1
 90
        5
176
     1
 90
        0
176
     1
 90
        0
176
     1
290
     0
176
     1
 90
        1
176
     1
 40
-50.0
176
     1
 90
        0
176
     1
290
     0
176
     1
290
     1
176
     1
290
     1
176
     1
290
     0
176
     1
290
     0
176
     1
290
     0
176
     1
290
     0
176
     1
290
     0
176
     1
290
     0
176
     1
 90
       50
176
     1
 40
0.0
176
     1
 40
1.0
176
     1
 90
        0
176
     1
 62
    18
420
        0
176
     1
 90
       50
176
     1
 90
        3
176
     1
 62
     5
420
      255
176
     1
290
     0
176
     1
 90
       50
176
     1
 90
       50
176
     1
 90
       50
176
     1
290
     0
176
     1
 90
       50
176
     1
 62
   256
176
     0
 40
1.0
176
     0
 90
        2
176
     1
  1
strokes_ogs.tif
176
     1
290
     0
176
     1
 40
1.0
176
     1
 40
1.0
176
     1
  0
VISUALSTYLE
  5
4FFF
102
{ACAD_REACTORS
330
29
102
}
330
29
100
AcDbVisualStyle
  2
EdgeColorOff
 70
    22
177
     3
291
     1
 70
    58
 90
        2
176
     0
 90
        2
176
     0
 90
        0
176
     0
 90
        0
176
     0
 40
0.6
176
     0
 40
30.0
176
     0
 62
     7
420
 16777215
176
     0
 90
        1
176
     0
 90
        4
176
     0
 62
     7
176
     0
 62
   257
176
     0
 90
        1
176
     0
 90
        1
176
     0
 40
1.0
176
     0
 90
        8
176
     2
 62
     7
176
     0
 40
1.0
176
     0
 90
        1
176
     0
 90
        6
176
     0
 90
        2
176
     0
 62
     7
176
     0
 90
        5
176
     0
 90
        0
176
     0
 90
        0
176
     0
290
     0
176
     0
 90
        1
176
     0
 40
0.0
176
     0
 90
        0
176
     0
290
     0
176
     0
290
     1
176
     0
290
     1
176
     0
290
     0
176
     0
290
     0
176
     0
290
     0
176
     1
290
     0
176
     1
290
     0
176
     1
290
     0
176
     1
 90
       50
176
     1
 40
0.0
176
     1
 40
1.0
176
     1
 90
        0
176
     1
 62
    18
420
        0
176
     1
 90
       50
176
     1
 90
        3
176
     1
 62
     5
420
      255
176
     1
290
     0
176
     1
 90
       50
176
     1
 90
       50
176
     1
 90
       50
176
     1
290
     0
176
     1
 90
       50
176
     1
 62
   256
176
     0
 40
1.0
176
     0
 90
        2
176
     1
  1
strokes_ogs.tif
176
     1
290
     0
176
     1
 40
1.0
176
     1
 40
1.0
176
     1
  0
VISUALSTYLE
  5
38
102
{ACAD_REACTORS
330
29
102
}
330
29
100
AcDbVisualStyle
  2
Facepattern
 70
    15
177
     3
291
     1
 70
    58
 90
        2
176
     1
 90
        2
176
     1
 90
        0
176
     1
 90
        0
176
     1
 40
0.6
176
     1
 40
30.0
176
     1
 62
     7
176
     1
 90
        1
176
     1
 90
        4
176
     1
 62
     7
176
     1
 62
   257
176
     1
 90
        1
176
     1
 90
        1
176
     1
 40
1.0
176
     1
 90
        8
176
     1
 62
     7
176
     1
 40
1.0
176
     1
 90
        1
176
     1
 90
        6
176
     1
 90
        2
176
     1
 62
     7
176
     1
 90
        5
176
     1
 90
        0
176
     1
 90
        0
176
     1
290
     0
176
     1
 90
        1
176
     1
 40
0.0
176
     1
 90
        0
176
     1
290
     0
176
     1
290
     1
176
     1
290
     1
176
     1
290
     0
176
     1
290
     0
176
     1
290
     0
176
     1
290
     0
176
     1
290
     0
176
     1
290
     0
176
     1
 90
       50
176
     1
 40
0.0
176
     1
 40
1.0
176
     1
 90
        0
176
     1
 62
    18
420
        0
176
     1
 90
       50
176
     1
 90
        3
176
     1
 62
     5
420
      255
176
     1
290
     0
176
     1
 90
       50
176
     1
 90
       50
176
     1
 90
       50
176
     1
290
     0
176
     1
 90
       50
176
     1
 62
   256
176
     0
 40
1.0
176
     0
 90
        2
176
     1
  1
strokes_ogs.tif
176
     1
290
     0
176
     1
 40
1.0
176
     1
 40
1.0
176
     1
  0
VISUALSTYLE
  5
2A
102
{ACAD_REACTORS
330
29
102
}
330
29
100
AcDbVisualStyle
  2
Flat
 70
     0
177
     3
291
     1
 70
    58
 90
        2
176
     1
 90
        1
176
     1
 90
        1
176
     1
 90
        2
176
     1
 40
0.6
176
     1
 40
30.0
176
     1
 62
     7
176
     1
 90
        0
176
     1
 90
        4
176
     1
 62
     7
176
     1
 62
   257
176
     1
 90
        1
176
     1
 90
        1
176
     1
 40
1.0
176
     1
 90
        8
176
     1
 62
     7
176
     1
 40
1.0
176
     1
 90
        1
176
     1
 90
        6
176
     1
 90
        2
176
     1
 62
     7
176
     1
 90
        5
176
     1
 90
        0
176
     1
 90
        0
176
     1
290
     0
176
     1
 90
       13
176
     1
 40
0.0
176
     1
 90
        0
176
     1
290
     0
176
     1
290
     1
176
     1
290
     1
176
     1
290
     0
176
     1
290
     0
176
     1
290
     0
176
     1
290
     0
176
     1
290
     0
176
     1
290
     0
176
     1
 90
       50
176
     1
 40
0.0
176
     1
 40
1.0
176
     1
 90
        0
176
     1
 62
    18
420
        0
176
     1
 90
       50
176
     1
 90
        3
176
     1
 62
     5
420
      255
176
     1
290
     0
176
     1
 90
       50
176
     1
 90
       50
176
     1
 90
       50
176
     1
290
     0
176
     1
 90
       50
176
     1
 62
   256
176
     0
 40
1.0
176
     0
 90
        2
176
     1
  1
strokes_ogs.tif
176
     1
290
     0
176
     1
 40
1.0
176
     1
 40
1.0
176
     1
  0
VISUALSTYLE
  5
2B
102
{ACAD_REACTORS
330
29
102
}
330
29
100
AcDbVisualStyle
  2
FlatWithEdges
 70
     1
177
     3
291
     1
 70
    58
 90
        2
176
     1
 90
        1
176
     1
 90
        1
176
     1
 90
        2
176
     1
 40
0.6
176
     1
 40
30.0
176
     1
 62
     7
176
     1
 90
        1
176
     1
 90
        4
176
     1
 62
     7
176
     1
 62
   257
176
     1
 90
        1
176
     1
 90
        1
176
     1
 40
1.0
176
     1
 90
        0
176
     1
 62
   257
176
     1
 40
1.0
176
     1
 90
        1
176
     1
 90
        6
176
     1
 90
        2
176
     1
 62
     7
176
     1
 90
        5
176
     1
 90
        0
176
     1
 90
        0
176
     1
290
     0
176
     1
 90
       13
176
     1
 40
0.0
176
     1
 90
        0
176
     1
290
     0
176
     1
290
     1
176
     1
290
     1
176
     1
290
     0
176
     1
290
     0
176
     1
290
     0
176
     1
290
     0
176
     1
290
     0
176
     1
290
     0
176
     1
 90
       50
176
     1
 40
0.0
176
     1
 40
1.0
176
     1
 90
        0
176
     1
 62
    18
420
        0
176
     1
 90
       50
176
     1
 90
        3
176
     1
 62
     5
420
      255
176
     1
290
     0
176
     1
 90
       50
176
     1
 90
       50
176
     1
 90
       50
176
     1
290
     0
176
     1
 90
       50
176
     1
 62
   256
176
     0
 40
1.0
176
     0
 90
        2
176
     1
  1
strokes_ogs.tif
176
     1
290
     0
176
     1
 40
1.0
176
     1
 40
1.0
176
     1
  0
VISUALSTYLE
  5
2C
102
{ACAD_REACTORS
330
29
102
}
330
29
100
AcDbVisualStyle
  2
Gouraud
 70
     2
177
     3
291
     1
 70
    58
 90
        2
176
     1
 90
        2
176
     1
 90
        1
176
     1
 90
        2
176
     1
 40
0.6
176
     1
 40
30.0
176
     1
 62
     7
176
     1
 90
        0
176
     1
 90
        4
176
     1
 62
     7
176
     1
 62
   257
176
     1
 90
        1
176
     1
 90
        1
176
     1
 40
1.0
176
     1
 90
        0
176
     1
 62
     7
176
     1
 40
1.0
176
     1
 90
        1
176
     1
 90
        6
176
     1
 90
        2
176
     1
 62
     7
176
     1
 90
        5
176
     1
 90
        0
176
     1
 90
        0
176
     1
290
     0
176
     1
 90
       13
176
     1
 40
0.0
176
     1
 90
        0
176
     1
290
     0
176
     1
290
     1
176
     1
290
     1
176
     1
290
     0
176
     1
290
     0
176
     1
290
     0
176
     1
290
     0
176
     1
290
     0
176
     1
290
     0
176
     1
 90
       50
176
     1
 40
0.0
176
     1
 40
1.0
176
     1
 90
        0
176
     1
 62
    18
420
        0
176
     1
 90
       50
176
     1
 90
        3
176
     1
 62
     5
420
      255
176
     1
290
     0
176
     1
 90
       50
176
     1
 90
       50
176
     1
 90
       50
176
     1
290
     0
176
     1
 90
       50
176
     1
 62
   256
176
     0
 40
1.0
176
     0
 90
        2
176
     1
  1
strokes_ogs.tif
176
     1
290
     0
176
     1
 40
1.0
176
     1
 40
1.0
176
     1
  0
VISUALSTYLE
  5
2D
102
{ACAD_REACTORS
330
29
102
}
330
29
100
AcDbVisualStyle
  2
GouraudWithEdges
 70
     3
177
     3
291
     1
 70
    58
 90
        2
176
     1
 90
        2
176
     1
 90
        1
176
     1
 90
        2
176
     1
 40
0.6
176
     1
 40
30.0
176
     1
 62
     7
176
     1
 90
        1
176
     1
 90
        4
176
     1
 62
     7
176
     1
 62
   257
176
     1
 90
        1
176
     1
 90
        1
176
     1
 40
1.0
176
     1
 90
        0
176
     1
 62
   257
176
     1
 40
1.0
176
     1
 90
        1
176
     1
 90
        6
176
     1
 90
        2
176
     1
 62
     7
176
     1
 90
        5
176
     1
 90
        0
176
     1
 90
        0
176
     1
290
     0
176
     1
 90
       13
176
     1
 40
0.0
176
     1
 90
        0
176
     1
290
     0
176
     1
290
     1
176
     1
290
     1
176
     1
290
     0
176
     1
290
     0
176
     1
290
     0
176
     1
290
     0
176
     1
290
     0
176
     1
290
     0
176
     1
 90
       50
176
     1
 40
0.0
176
     1
 40
1.0
176
     1
 90
        0
176
     1
 62
    18
420
        0
176
     1
 90
       50
176
     1
 90
        3
176
     1
 62
     5
420
      255
176
     1
290
     0
176
     1
 90
       50
176
     1
 90
       50
176
     1
 90
       50
176
     1
290
     0
176
     1
 90
       50
176
     1
 62
   256
176
     0
 40
1.0
176
     0
 90
        2
176
     1
  1
strokes_ogs.tif
176
     1
290
     0
176
     1
 40
1.0
176
     1
 40
1.0
176
     1
  0
VISUALSTYLE
  5
4FF7
102
{ACAD_REACTORS
330
29
102
}
330
29
100
AcDbVisualStyle
  2
Hidden
 70
     6
177
     3
291
     0
 70
    58
 90
        1
176
     1
 90
        2
176
     1
 90
        2
176
     1
 90
        0
176
     1
 40
0.6
176
     1
 40
30.0
176
     1
 62
     7
420
 16777215
176
     1
 90
        2
176
     1
 90
        2
176
     1
 62
     7
176
     1
 62
   257
176
     1
 90
        2
176
     1
 90
        1
176
     1
 40
40.0
176
     1
 90
        0
176
     1
 62
   257
176
     1
 40
1.0
176
     1
 90
        1
176
     1
 90
        6
176
     1
 90
        2
176
     1
 62
     7
176
     1
 90
        3
176
     1
 90
        0
176
     1
 90
        0
176
     1
290
     0
176
     1
 90
        1
176
     1
 40
0.0
176
     1
 90
        0
176
     1
290
     0
176
     1
290
     1
176
     1
290
     1
176
     1
290
     0
176
     1
290
     0
176
     1
290
     0
176
     1
290
     0
176
     1
290
     0
176
     1
290
     0
176
     1
 90
       50
176
     1
 40
0.0
176
     1
 40
1.0
176
     1
 90
        0
176
     1
 62
    18
420
        0
176
     1
 90
       50
176
     1
 90
        3
176
     1
 62
     5
420
      255
176
     1
290
     0
176
     1
 90
       50
176
     1
 90
       50
176
     1
 90
       50
176
     1
290
     0
176
     1
 90
       50
176
     1
 62
   256
176
     0
 40
1.0
176
     0
 90
        2
176
     1
  1
strokes_ogs.tif
176
     1
290
     0
176
     1
 40
1.0
176
     1
 40
1.0
176
     1
  0
VISUALSTYLE
  5
4FFD
102
{ACAD_REACTORS
330
29
102
}
330
29
100
AcDbVisualStyle
  2
JitterOff
 70
    20
177
     3
291
     1
 70
    58
 90
        2
176
     0
 90
        2
176
     0
 90
        0
176
     0
 90
        0
176
     0
 40
0.6
176
     0
 40
30.0
176
     0
 62
     7
420
 16777215
176
     0
 90
        1
176
     0
 90
        4
176
     0
 62
     7
176
     0
 62
   257
176
     0
 90
        1
176
     0
 90
        1
176
     0
 40
1.0
176
     0
 90
       10
176
     2
 62
     7
176
     0
 40
1.0
176
     0
 90
        1
176
     0
 90
        6
176
     0
 90
        2
176
     0
 62
     7
176
     0
 90
        5
176
     0
 90
        0
176
     0
 90
        0
176
     0
290
     0
176
     0
 90
        1
176
     0
 40
0.0
176
     0
 90
        0
176
     0
290
     0
176
     0
290
     1
176
     0
290
     1
176
     0
290
     0
176
     0
290
     0
176
     0
290
     0
176
     1
290
     0
176
     1
290
     0
176
     1
290
     0
176
     1
 90
       50
176
     1
 40
0.0
176
     1
 40
1.0
176
     1
 90
        0
176
     1
 62
    18
420
        0
176
     1
 90
       50
176
     1
 90
        3
176
     1
 62
     5
420
      255
176
     1
290
     0
176
     1
 90
       50
176
     1
 90
       50
176
     1
 90
       50
176
     1
290
     0
176
     1
 90
       50
176
     1
 62
   256
176
     0
 40
1.0
176
     0
 90
        2
176
     1
  1
strokes_ogs.tif
176
     1
290
     0
176
     1
 40
1.0
176
     1
 40
1.0
176
     1
  0
VISUALSTYLE
  5
37
102
{ACAD_REACTORS
330
29
102
}
330
29
100
AcDbVisualStyle
  2
Linepattern
 70
    14
177
     3
291
     1
 70
    58
 90
        2
176
     1
 90
        2
176
     1
 90
        0
176
     1
 90
        0
176
     1
 40
0.6
176
     1
 40
30.0
176
     1
 62
     7
176
     1
 90
        1
176
     1
 90
        4
176
     1
 62
     7
176
     1
 62
   257
176
     1
 90
        7
176
     1
 90
        7
176
     1
 40
1.0
176
     1
 90
        8
176
     1
 62
     7
176
     1
 40
1.0
176
     1
 90
        1
176
     1
 90
        6
176
     1
 90
        2
176
     1
 62
     7
176
     1
 90
        5
176
     1
 90
        0
176
     1
 90
        0
176
     1
290
     0
176
     1
 90
        1
176
     1
 40
0.0
176
     1
 90
        0
176
     1
290
     0
176
     1
290
     1
176
     1
290
     1
176
     1
290
     0
176
     1
290
     0
176
     1
290
     0
176
     1
290
     0
176
     1
290
     0
176
     1
290
     0
176
     1
 90
       50
176
     1
 40
0.0
176
     1
 40
1.0
176
     1
 90
        0
176
     1
 62
    18
420
        0
176
     1
 90
       50
176
     1
 90
        3
176
     1
 62
     5
420
      255
176
     1
290
     0
176
     1
 90
       50
176
     1
 90
       50
176
     1
 90
       50
176
     1
290
     0
176
     1
 90
       50
176
     1
 62
   256
176
     0
 40
1.0
176
     0
 90
        2
176
     1
  1
strokes_ogs.tif
176
     1
290
     0
176
     1
 40
1.0
176
     1
 40
1.0
176
     1
  0
VISUALSTYLE
  5
4FFE
102
{ACAD_REACTORS
330
29
102
}
330
29
100
AcDbVisualStyle
  2
OverhangOff
 70
    21
177
     3
291
     1
 70
    58
 90
        2
176
     0
 90
        2
176
     0
 90
        0
176
     0
 90
        0
176
     0
 40
0.6
176
     0
 40
30.0
176
     0
 62
     7
420
 16777215
176
     0
 90
        1
176
     0
 90
        4
176
     0
 62
     7
176
     0
 62
   257
176
     0
 90
        1
176
     0
 90
        1
176
     0
 40
1.0
176
     0
 90
        9
176
     2
 62
     7
176
     0
 40
1.0
176
     0
 90
        1
176
     0
 90
        6
176
     0
 90
        2
176
     0
 62
     7
176
     0
 90
        5
176
     0
 90
        0
176
     0
 90
        0
176
     0
290
     0
176
     0
 90
        1
176
     0
 40
0.0
176
     0
 90
        0
176
     0
290
     0
176
     0
290
     1
176
     0
290
     1
176
     0
290
     0
176
     0
290
     0
176
     0
290
     0
176
     1
290
     0
176
     1
290
     0
176
     1
290
     0
176
     1
 90
       50
176
     1
 40
0.0
176
     1
 40
1.0
176
     1
 90
        0
176
     1
 62
    18
420
        0
176
     1
 90
       50
176
     1
 90
        3
176
     1
 62
     5
420
      255
176
     1
290
     0
176
     1
 90
       50
176
     1
 90
       50
176
     1
 90
       50
176
     1
290
     0
176
     1
 90
       50
176
     1
 62
   256
176
     0
 40
1.0
176
     0
 90
        2
176
     1
  1
strokes_ogs.tif
176
     1
290
     0
176
     1
 40
1.0
176
     1
 40
1.0
176
     1
  0
VISUALSTYLE
  5
33
102
{ACAD_REACTORS
330
29
102
}
330
29
100
AcDbVisualStyle
  2
Realistic
 70
     8
177
     3
291
     0
 70
    58
 90
        2
176
     1
 90
        2
176
     1
 90
        0
176
     1
 90
        0
176
     1
 40
0.6
176
     1
 40
30.0
176
     1
 62
     7
176
     1
 90
        1
176
     1
 90
        0
176
     1
 62
     7
176
     1
 62
   257
176
     1
 90
        1
176
     1
 90
        1
176
     1
 40
1.0
176
     1
 90
        8
176
     1
 62
     8
176
     1
 40
1.0
176
     1
 90
        1
176
     1
 90
        6
176
     1
 90
        2
176
     1
 62
     7
176
     1
 90
        5
176
     1
 90
        0
176
     1
 90
        0
176
     1
290
     0
176
     1
 90
       13
176
     1
 40
0.0
176
     1
 90
        0
176
     1
290
     0
176
     1
290
     1
176
     1
290
     1
176
     1
290
     0
176
     1
290
     0
176
     1
290
     0
176
     1
290
     0
176
     1
290
     0
176
     1
290
     0
176
     1
 90
       50
176
     1
 40
0.0
176
     1
 40
1.0
176
     1
 90
        0
176
     1
 62
    18
420
        0
176
     1
 90
       50
176
     1
 90
        3
176
     1
 62
     5
420
      255
176
     1
290
     0
176
     1
 90
       50
176
     1
 90
       50
176
     1
 90
       50
176
     1
290
     0
176
     1
 90
       50
176
     1
 62
   256
176
     0
 40
1.0
176
     0
 90
        2
176
     1
  1
strokes_ogs.tif
176
     1
290
     0
176
     1
 40
1.0
176
     1
 40
1.0
176
     1
  0
VISUALSTYLE
  5
4FFC
102
{ACAD_REACTORS
330
29
102
}
330
29
100
AcDbVisualStyle
  2
Shaded
 70
    27
177
     3
291
     0
 70
    58
 90
        2
176
     1
 90
        2
176
     1
 90
        1
176
     1
 90
        2
176
     1
 40
0.6
176
     1
 40
30.0
176
     1
 62
     7
420
 16777215
176
     1
 90
        0
176
     1
 90
        4
176
     1
 62
     7
176
     1
 62
   257
176
     1
 90
        1
176
     1
 90
        1
176
     1
 40
1.0
176
     1
 90
        8
176
     1
 62
   257
176
     1
 40
1.0
176
     1
 90
        1
176
     1
 90
        6
176
     1
 90
        2
176
     1
 62
     8
420
  7895160
176
     1
 90
        3
176
     1
 90
        0
176
     1
 90
        0
176
     1
290
     0
176
     1
 90
        5
176
     1
 40
0.0
176
     1
 90
        0
176
     1
290
     0
176
     1
290
     1
176
     1
290
     1
176
     1
290
     0
176
     1
290
     0
176
     1
290
     0
176
     1
290
     0
176
     1
290
     0
176
     1
290
     0
176
     1
 90
       50
176
     1
 40
0.0
176
     1
 40
1.0
176
     1
 90
        0
176
     1
 62
    18
420
        0
176
     1
 90
       50
176
     1
 90
        3
176
     1
 62
     5
420
      255
176
     1
290
     0
176
     1
 90
       50
176
     1
 90
       50
176
     1
 90
       50
176
     1
290
     0
176
     1
 90
       50
176
     1
 62
   256
176
     0
 40
1.0
176
     0
 90
        2
176
     1
  1
strokes_ogs.tif
176
     1
290
     0
176
     1
 40
1.0
176
     1
 40
1.0
176
     1
  0
VISUALSTYLE
  5
4FFB
102
{ACAD_REACTORS
330
29
102
}
330
29
100
AcDbVisualStyle
  2
Shaded with edges
 70
    26
177
     3
291
     0
 70
    58
 90
        2
176
     1
 90
        2
176
     1
 90
        1
176
     1
 90
        2
176
     1
 40
0.6
176
     1
 40
30.0
176
     1
 62
     7
420
 16777215
176
     1
 90
        1
176
     1
 90
       10
176
     1
 62
     7
176
     1
 62
   257
176
     1
 90
        2
176
     1
 90
        1
176
     1
 40
1.0
176
     1
 90
        8
176
     1
 62
   257
176
     1
 40
1.0
176
     1
 90
        1
176
     1
 90
        6
176
     1
 90
        2
176
     1
 62
     7
176
     1
 90
        3
176
     1
 90
        0
176
     1
 90
        0
176
     1
290
     0
176
     1
 90
        5
176
     1
 40
0.0
176
     1
 90
        0
176
     1
290
     0
176
     1
290
     1
176
     1
290
     1
176
     1
290
     0
176
     1
290
     0
176
     1
290
     0
176
     1
290
     0
176
     1
290
     0
176
     1
290
     0
176
     1
 90
       50
176
     1
 40
0.0
176
     1
 40
1.0
176
     1
 90
        0
176
     1
 62
    18
420
        0
176
     1
 90
       50
176
     1
 90
        3
176
     1
 62
     5
420
      255
176
     1
290
     0
176
     1
 90
       50
176
     1
 90
       50
176
     1
 90
       50
176
     1
290
     0
176
     1
 90
       50
176
     1
 62
   256
176
     0
 40
1.0
176
     0
 90
        2
176
     1
  1
strokes_ogs.tif
176
     1
290
     0
176
     1
 40
1.0
176
     1
 40
1.0
176
     1
  0
VISUALSTYLE
  5
4FF8
102
{ACAD_REACTORS
330
29
102
}
330
29
100
AcDbVisualStyle
  2
Shades of Gray
 70
    23
177
     3
291
     0
 70
    58
 90
        2
176
     1
 90
        2
176
     1
 90
        3
176
     1
 90
        0
176
     1
 40
0.6
176
     1
 40
30.0
176
     1
 62
     7
420
 16777215
176
     1
 90
        2
176
     1
 90
        2
176
     1
 62
     7
176
     1
 62
     7
176
     1
 90
        1
176
     1
 90
        1
176
     1
 40
40.0
176
     1
 90
        8
176
     1
 62
     7
176
     1
 40
1.0
176
     1
 90
        1
176
     1
 90
        6
176
     1
 90
        2
176
     1
 62
     7
176
     1
 90
        3
176
     1
 90
        0
176
     1
 90
        0
176
     1
290
     0
176
     1
 90
        1
176
     1
 40
0.0
176
     1
 90
        0
176
     1
290
     0
176
     1
290
     1
176
     1
290
     1
176
     1
290
     0
176
     1
290
     0
176
     1
290
     0
176
     1
290
     0
176
     1
290
     0
176
     1
290
     0
176
     1
 90
       50
176
     1
 40
0.0
176
     1
 40
1.0
176
     1
 90
        0
176
     1
 62
    18
420
        0
176
     1
 90
       50
176
     1
 90
        3
176
     1
 62
     5
420
      255
176
     1
290
     0
176
     1
 90
       50
176
     1
 90
       50
176
     1
 90
       50
176
     1
290
     0
176
     1
 90
       50
176
     1
 62
   256
176
     0
 40
1.0
176
     0
 90
        2
176
     1
  1
strokes_ogs.tif
176
     1
290
     0
176
     1
 40
1.0
176
     1
 40
1.0
176
     1
  0
VISUALSTYLE
  5
4FF9
102
{ACAD_REACTORS
330
29
102
}
330
29
100
AcDbVisualStyle
  2
Sketchy
 70
    24
177
     3
291
     0
 70
    58
 90
        1
176
     1
 90
        2
176
     1
 90
        2
176
     1
 90
        0
176
     1
 40
0.6
176
     1
 40
30.0
176
     1
 62
     7
420
 16777215
176
     1
 90
        2
176
     1
 90
        2
176
     1
 62
     7
176
     1
 62
     7
176
     1
 90
        1
176
     1
 90
        1
176
     1
 40
40.0
176
     1
 90
       11
176
     1
 62
     7
176
     1
 40
1.0
176
     1
 90
        1
176
     1
 90
        6
176
     1
 90
        2
176
     1
 62
     7
176
     1
 90
        6
176
     1
 90
        0
176
     1
 90
        0
176
     1
290
     0
176
     1
 90
        1
176
     1
 40
0.0
176
     1
 90
        0
176
     1
290
     0
176
     1
290
     1
176
     1
290
     1
176
     1
290
     0
176
     1
290
     0
176
     1
290
     0
176
     1
290
     0
176
     1
290
     0
176
     1
290
     0
176
     1
 90
       50
176
     1
 40
0.0
176
     1
 40
1.0
176
     1
 90
        0
176
     1
 62
    18
420
        0
176
     1
 90
       50
176
     1
 90
        3
176
     1
 62
     5
420
      255
176
     1
290
     0
176
     1
 90
       50
176
     1
 90
       50
176
     1
 90
       50
176
     1
290
     0
176
     1
 90
       50
176
     1
 62
   256
176
     0
 40
1.0
176
     0
 90
        2
176
     1
  1
strokes_ogs.tif
176
     1
290
     0
176
     1
 40
1.0
176
     1
 40
1.0
176
     1
  0
VISUALSTYLE
  5
36
102
{ACAD_REACTORS
330
29
102
}
330
29
100
AcDbVisualStyle
  2
Thicken
 70
    13
177
     3
291
     1
 70
    58
 90
        2
176
     1
 90
        2
176
     1
 90
        0
176
     1
 90
        0
176
     1
 40
0.6
176
     1
 40
30.0
176
     1
 62
     7
176
     1
 90
        1
176
     1
 90
        4
176
     1
 62
     7
176
     1
 62
   257
176
     1
 90
        1
176
     1
 90
        1
176
     1
 40
1.0
176
     1
 90
       12
176
     1
 62
     7
176
     1
 40
1.0
176
     1
 90
        1
176
     1
 90
        6
176
     1
 90
        2
176
     1
 62
     7
176
     1
 90
        5
176
     1
 90
        0
176
     1
 90
        0
176
     1
290
     0
176
     1
 90
        1
176
     1
 40
0.0
176
     1
 90
        0
176
     1
290
     0
176
     1
290
     1
176
     1
290
     1
176
     1
290
     0
176
     1
290
     0
176
     1
290
     0
176
     1
290
     0
176
     1
290
     0
176
     1
290
     0
176
     1
 90
       50
176
     1
 40
0.0
176
     1
 40
1.0
176
     1
 90
        0
176
     1
 62
    18
420
        0
176
     1
 90
       50
176
     1
 90
        3
176
     1
 62
     5
420
      255
176
     1
290
     0
176
     1
 90
       50
176
     1
 90
       50
176
     1
 90
       50
176
     1
290
     0
176
     1
 90
       50
176
     1
 62
   256
176
     0
 40
1.0
176
     0
 90
        2
176
     1
  1
strokes_ogs.tif
176
     1
290
     0
176
     1
 40
1.0
176
     1
 40
1.0
176
     1
  0
VISUALSTYLE
  5
4FF6
102
{ACAD_REACTORS
330
29
102
}
330
29
100
AcDbVisualStyle
  2
Wireframe
 70
     5
177
     3
291
     0
 70
    58
 90
        0
176
     1
 90
        2
176
     1
 90
        0
176
     1
 90
        0
176
     1
 40
0.6
176
     1
 40
30.0
176
     1
 62
     7
420
 16777215
176
     1
 90
        1
176
     1
 90
        4
176
     1
 62
     7
176
     1
 62
   257
176
     1
 90
        1
176
     1
 90
        1
176
     1
 40
1.0
176
     1
 90
        0
176
     1
 62
   257
176
     1
 40
1.0
176
     1
 90
        1
176
     1
 90
        6
176
     1
 90
        2
176
     1
 62
     7
176
     1
 90
        3
176
     1
 90
        0
176
     1
 90
        0
176
     1
290
     0
176
     1
 90
        1
176
     1
 40
0.0
176
     1
 90
        0
176
     1
290
     0
176
     1
290
     1
176
     1
290
     1
176
     1
290
     0
176
     1
290
     0
176
     1
290
     0
176
     1
290
     0
176
     1
290
     0
176
     1
290
     0
176
     1
 90
       50
176
     1
 40
0.0
176
     1
 40
1.0
176
     1
 90
        0
176
     1
 62
    18
420
        0
176
     1
 90
       50
176
     1
 90
        3
176
     1
 62
     5
420
      255
176
     1
290
     0
176
     1
 90
       50
176
     1
 90
       50
176
     1
 90
       50
176
     1
290
     0
176
     1
 90
       50
176
     1
 62
   256
176
     0
 40
1.0
176
     0
 90
        2
176
     1
  1
strokes_ogs.tif
176
     1
290
     0
176
     1
 40
1.0
176
     1
 40
1.0
176
     1
  0
VISUALSTYLE
  5
4FFA
102
{ACAD_REACTORS
330
29
102
}
330
29
100
AcDbVisualStyle
  2
X-Ray
 70
    25
177
     3
291
     0
 70
    58
 90
        2
176
     1
 90
        2
176
     1
 90
        1
176
     1
 90
        1
176
     1
 40
0.5
176
     1
 40
30.0
176
     1
 62
     7
420
 16777215
176
     1
 90
        1
176
     1
 90
        0
176
     1
 62
     7
176
     1
 62
   257
176
     1
 90
        1
176
     1
 90
        1
176
     1
 40
1.0
176
     1
 90
        8
176
     1
 62
     7
176
     1
 40
1.0
176
     1
 90
        1
176
     1
 90
        6
176
     1
 90
        2
176
     1
 62
     7
176
     1
 90
        3
176
     1
 90
        0
176
     1
 90
        0
176
     1
290
     0
176
     1
 90
       13
176
     1
 40
0.0
176
     1
 90
        0
176
     1
290
     0
176
     1
290
     1
176
     1
290
     1
176
     1
290
     0
176
     1
290
     0
176
     1
290
     0
176
     1
290
     0
176
     1
290
     0
176
     1
290
     0
176
     1
 90
       50
176
     1
 40
0.0
176
     1
 40
1.0
176
     1
 90
        0
176
     1
 62
    18
420
        0
176
     1
 90
       50
176
     1
 90
        3
176
     1
 62
     5
420
      255
176
     1
290
     0
176
     1
 90
       50
176
     1
 90
       50
176
     1
 90
       50
176
     1
290
     0
176
     1
 90
       50
176
     1
 62
   256
176
     0
 40
1.0
176
     0
 90
        2
176
     1
  1
strokes_ogs.tif
176
     1
290
     0
176
     1
 40
1.0
176
     1
 40
1.0
176
     1
  0
DICTIONARYVAR
  5
1CC
102
{ACAD_REACTORS
330
1C9
102
}
330
1C9
100
DictionaryVariables
280
     0
  1
1:1
  0
DICTIONARYVAR
  5
1CB
102
{ACAD_REACTORS
330
1C9
102
}
330
1C9
100
DictionaryVariables
280
     0
  1
STANDARD
  0
DICTIONARYVAR
  5
1CA
102
{ACAD_REACTORS
330
1C9
102
}
330
1C9
100
DictionaryVariables
280
     0
  1
STANDARD
  0
DICTIONARYVAR
  5
52B3
102
{ACAD_REACTORS
330
1C9
102
}
330
1C9
100
DictionaryVariables
280
     0
  1
Metric50
  0
DICTIONARYVAR
  5
52B4
102
{ACAD_REACTORS
330
1C9
102
}
330
1C9
100
DictionaryVariables
280
     0
  1
Metric50
  0
DICTIONARYVAR
  5
1CF
102
{ACAD_REACTORS
330
1C9
102
}
330
1C9
100
DictionaryVariables
280
     0
  1
1
  0
DICTIONARYVAR
  5
1CE
102
{ACAD_REACTORS
330
1C9
102
}
330
1C9
100
DictionaryVariables
280
     0
  1
0
  0
DICTIONARYVAR
  5
5051
102
{ACAD_REACTORS
330
1C9
102
}
330
1C9
100
DictionaryVariables
280
     0
  1
1
  0
DICTIONARYVAR
  5
5052
102
{ACAD_REACTORS
330
1C9
102
}
330
1C9
100
DictionaryVariables
280
     0
  1
15
  0
DICTIONARYVAR
  5
2D3
102
{ACAD_REACTORS
330
1C9
102
}
330
1C9
100
DictionaryVariables
280
     0
  1
0
  0
DICTIONARYVAR
  5
2D2
102
{ACAD_REACTORS
330
1C9
102
}
330
1C9
100
DictionaryVariables
280
     0
  1
0
  0
DICTIONARYVAR
  5
1CD
102
{ACAD_REACTORS
330
1C9
102
}
330
1C9
100
DictionaryVariables
280
     0
  1
127
  0
DICTIONARY
  5
2B6
102
{ACAD_REACTORS
330
166
102
}
330
166
100
AcDbDictionary
281
     1
  0
DICTIONARY
  5
171
102
{ACAD_REACTORS
330
166
102
}
330
166
100
AcDbDictionary
281
     1
  0
XRECORD
  5
186
102
{ACAD_REACTORS
330
166
102
}
330
166
100
AcDbXrecord
280
     1
 90
-1023410169
  0
XRECORD
  5
51F8
102
{ACAD_REACTORS
330
4025
102
}
330
4025
100
AcDbXrecord
280
     1
 90
        0
302
{
302
{
300
MatBom2.0.1.
301
PS!ACADMPP!PV!18.2s (LMS Tech)!AVMa!2!AVMi!0!AVBu!0
303
}
303
}
  0
XRECORD
  5
989
102
{ACAD_REACTORS
330
988
102
}
330
988
100
AcDbXrecord
280
     1
330
0
  0
XRECORD
  5
4B03
102
{ACAD_REACTORS
330
257
102
}
330
257
100
AcDbXrecord
280
     1
 90
-1073741824
  0
DICTIONARY
  5
52B8
330
5233
100
AcDbDictionary
280
     1
281
     1
  3
ACAD_XREC_ROUNDTRIP
360
52B9
  0
DICTIONARY
  5
1A
330
19
100
AcDbDictionary
280
     1
281
     1
  3
BUMPTILE
360
1C
  3
DIFFUSETILE
360
1B
  3
OPACITYTILE
360
1F
  3
REFLECTIONTILE
360
1E
  3
REFRACTIONTILE
360
20
  3
SPECULARTILE
360
1D
  0
DICTIONARY
  5
12
330
11
100
AcDbDictionary
280
     1
281
     1
  3
BUMPTILE
360
14
  3
DIFFUSETILE
360
13
  3
OPACITYTILE
360
17
  3
REFLECTIONTILE
360
16
  3
REFRACTIONTILE
360
18
  3
SPECULARTILE
360
15
  0
DICTIONARY
  5
22
330
21
100
AcDbDictionary
280
     1
281
     1
  3
BUMPTILE
360
24
  3
DIFFUSETILE
360
23
  3
OPACITYTILE
360
27
  3
REFLECTIONTILE
360
26
  3
REFRACTIONTILE
360
28
  3
SPECULARTILE
360
25
  0
DICTIONARY
  5
52B6
330
5231
100
AcDbDictionary
280
     1
281
     1
  3
ACAD_XREC_ROUNDTRIP
360
52B7
  0
DICTIONARY
  5
1B2
330
6C
100
AcDbDictionary
280
     1
281
     1
  3
ACAD_ROUNDTRIP_2008_TABLESTYLE_CELLSTYLEMAP
360
52B5
  0
XRECORD
  5
52B9
102
{ACAD_REACTORS
330
52B8
102
}
330
52B8
100
AcDbXrecord
280
     1
102
DISPLAYNAME
  1
Metric50
102
FLAGS
 90
        0
  0
XRECORD
  5
1C
102
{ACAD_REACTORS
330
1A
102
}
330
1A
100
AcDbXrecord
280
     1
270
     1
271
     1
  0
XRECORD
  5
1B
102
{ACAD_REACTORS
330
1A
102
}
330
1A
100
AcDbXrecord
280
     1
270
     1
271
     1
  0
XRECORD
  5
1F
102
{ACAD_REACTORS
330
1A
102
}
330
1A
100
AcDbXrecord
280
     1
270
     1
271
     1
  0
XRECORD
  5
1E
102
{ACAD_REACTORS
330
1A
102
}
330
1A
100
AcDbXrecord
280
     1
270
     1
271
     1
  0
XRECORD
  5
20
102
{ACAD_REACTORS
330
1A
102
}
330
1A
100
AcDbXrecord
280
     1
270
     1
271
     1
  0
XRECORD
  5
1D
102
{ACAD_REACTORS
330
1A
102
}
330
1A
100
AcDbXrecord
280
     1
270
     1
271
     1
  0
XRECORD
  5
14
102
{ACAD_REACTORS
330
12
102
}
330
12
100
AcDbXrecord
280
     1
270
     1
271
     1
  0
XRECORD
  5
13
102
{ACAD_REACTORS
330
12
102
}
330
12
100
AcDbXrecord
280
     1
270
     1
271
     1
  0
XRECORD
  5
17
102
{ACAD_REACTORS
330
12
102
}
330
12
100
AcDbXrecord
280
     1
270
     1
271
     1
  0
XRECORD
  5
16
102
{ACAD_REACTORS
330
12
102
}
330
12
100
AcDbXrecord
280
     1
270
     1
271
     1
  0
XRECORD
  5
18
102
{ACAD_REACTORS
330
12
102
}
330
12
100
AcDbXrecord
280
     1
270
     1
271
     1
  0
XRECORD
  5
15
102
{ACAD_REACTORS
330
12
102
}
330
12
100
AcDbXrecord
280
     1
270
     1
271
     1
  0
XRECORD
  5
24
102
{ACAD_REACTORS
330
22
102
}
330
22
100
AcDbXrecord
280
     1
270
     1
271
     1
  0
XRECORD
  5
23
102
{ACAD_REACTORS
330
22
102
}
330
22
100
AcDbXrecord
280
     1
270
     1
271
     1
  0
XRECORD
  5
27
102
{ACAD_REACTORS
330
22
102
}
330
22
100
AcDbXrecord
280
     1
270
     1
271
     1
  0
XRECORD
  5
26
102
{ACAD_REACTORS
330
22
102
}
330
22
100
AcDbXrecord
280
     1
270
     1
271
     1
  0
XRECORD
  5
28
102
{ACAD_REACTORS
330
22
102
}
330
22
100
AcDbXrecord
280
     1
270
     1
271
     1
  0
XRECORD
  5
25
102
{ACAD_REACTORS
330
22
102
}
330
22
100
AcDbXrecord
280
     1
270
     1
271
     1
  0
XRECORD
  5
52B7
102
{ACAD_REACTORS
330
52B6
102
}
330
52B6
100
AcDbXrecord
280
     1
102
DISPLAYNAME
  1
Metric50
102
FLAGS
 90
        0
  0
CELLSTYLEMAP
  5
52B5
102
{ACAD_REACTORS
330
1B2
102
}
330
1B2
100
AcDbCellStyleMap
 90
        3
300
CELLSTYLE
  1
TABLEFORMAT_BEGIN
 90
        5
170
     1
 91
        0
 92
    32768
 62
   257
 93
        1
300
CONTENTFORMAT
  1
CONTENTFORMAT_BEGIN
 90
        0
 91
        0
 92
      512
 93
        0
300

 40
0.0
140
1.0
 94
        5
 62
     0
340
5D
144
0.25
309
CONTENTFORMAT_END
171
     0
 94
        0
309
TABLEFORMAT_END
  1
CELLSTYLE_BEGIN
 90
        1
 91
        1
300
_TITLE
309
CELLSTYLE_END
300
CELLSTYLE
  1
TABLEFORMAT_BEGIN
 90
        5
170
     1
 91
        0
 92
        0
 62
   257
 93
        1
300
CONTENTFORMAT
  1
CONTENTFORMAT_BEGIN
 90
        0
 91
        0
 92
      512
 93
        0
300

 40
0.0
140
1.0
 94
        5
 62
     0
340
5D
144
0.18
309
CONTENTFORMAT_END
171
     0
 94
        0
309
TABLEFORMAT_END
  1
CELLSTYLE_BEGIN
 90
        2
 91
        1
300
_HEADER
309
CELLSTYLE_END
300
CELLSTYLE
  1
TABLEFORMAT_BEGIN
 90
        5
170
     1
 91
        0
 92
        0
 62
   257
 93
        1
300
CONTENTFORMAT
  1
CONTENTFORMAT_BEGIN
 90
        0
 91
        0
 92
      512
 93
        0
300

 40
0.0
140
1.0
 94
        2
 62
     0
340
5D
144
0.18
309
CONTENTFORMAT_END
171
     0
 94
        0
309
TABLEFORMAT_END
  1
CELLSTYLE_BEGIN
 90
        3
 91
        2
300
_DATA
309
CELLSTYLE_END
  0
ENDSEC
  0
EOF
