  0
SECTION
  2
HEADER
  9
$ACADVER
  1
AC1018
  9
$ACADMAINTVER
 70
   104
  9
$DWGCODEPAGE
  3
ANSI_1252
  9
$LASTSAVEDBY
  1
guzb562
  9
$INSBASE
 10
0.0
 20
0.0
 30
0.0
  9
$EXTMIN
 10
941.728748089476
 20
515.3163454370201
 30
-0.0000000000000053
  9
$EXTMAX
 10
1196.169822738028
 20
997.2965623116779
 30
0.0000000000000099
  9
$LIMMIN
 10
-0.0000000000001137
 20
0.0
  9
$LIMMAX
 10
1188.0
 20
840.0
  9
$ORTHOMODE
 70
     0
  9
$REGENMODE
 70
     1
  9
$FILLMODE
 70
     1
  9
$QTEXTMODE
 70
     0
  9
$MIRRTEXT
 70
     1
  9
$LTSCALE
 40
2.0
  9
$ATTMODE
 70
     1
  9
$TEXTSIZE
 40
3.5
  9
$TRACEWID
 40
1.0
  9
$TEXTSTYLE
  7
STANDARD
  9
$CLAYER
  8
AM_2 ( Kontur 0.25)
  9
$CELTYPE
  6
ByLayer
  9
$CECOLOR
 62
   256
  9
$CELTSCALE
 40
1.0
  9
$DISPSILH
 70
     0
  9
$DIMSCALE
 40
2.0
  9
$DIMASZ
 40
5.0
  9
$DIMEXO
 40
1.0
  9
$DIMDLI
 40
10.0
  9
$DIMRND
 40
0.0
  9
$DIMDLE
 40
0.0
  9
$DIMEXE
 40
1.0
  9
$DIMTP
 40
0.1
  9
$DIMTM
 40
0.1
  9
$DIMTXT
 40
5.0
  9
$DIMCEN
 40
0.0
  9
$DIMTSZ
 40
0.0
  9
$DIMTOL
 70
     0
  9
$DIMLIM
 70
     0
  9
$DIMTIH
 70
     0
  9
$DIMTOH
 70
     0
  9
$DIMSE1
 70
     0
  9
$DIMSE2
 70
     0
  9
$DIMTAD
 70
     1
  9
$DIMZIN
 70
     8
  9
$DIMBLK
  1

  9
$DIMASO
 70
     1
  9
$DIMSHO
 70
     1
  9
$DIMPOST
  1

  9
$DIMAPOST
  1
"
  9
$DIMALT
 70
     0
  9
$DIMALTD
 70
     2
  9
$DIMALTF
 40
0.0393701
  9
$DIMLFAC
 40
1.0
  9
$DIMTOFL
 70
     1
  9
$DIMTVP
 40
0.0
  9
$DIMTIX
 70
     0
  9
$DIMSOXD
 70
     0
  9
$DIMSAH
 70
     0
  9
$DIMBLK1
  1

  9
$DIMBLK2
  1

  9
$DIMSTYLE
  2
AM_DIN
  9
$DIMCLRD
 70
   256
  9
$DIMCLRE
 70
   256
  9
$DIMCLRT
 70
     2
  9
$DIMTFAC
 40
0.71
  9
$DIMGAP
 40
1.5
  9
$DIMJUST
 70
     0
  9
$DIMSD1
 70
     0
  9
$DIMSD2
 70
     0
  9
$DIMTOLJ
 70
     0
  9
$DIMTZIN
 70
     8
  9
$DIMALTZ
 70
     0
  9
$DIMALTTZ
 70
     0
  9
$DIMUPT
 70
     0
  9
$DIMDEC
 70
     2
  9
$DIMTDEC
 70
     2
  9
$DIMALTU
 70
     2
  9
$DIMALTTD
 70
     2
  9
$DIMTXSTY
  7
STANDARD
  9
$DIMAUNIT
 70
     0
  9
$DIMADEC
 70
     0
  9
$DIMALTRND
 40
0.0
  9
$DIMAZIN
 70
     2
  9
$DIMDSEP
 70
    46
  9
$DIMATFIT
 70
     3
  9
$DIMFRAC
 70
     0
  9
$DIMLDRBLK
  1

  9
$DIMLUNIT
 70
     2
  9
$DIMLWD
 70
    -1
  9
$DIMLWE
 70
    -1
  9
$DIMTMOVE
 70
     0
  9
$LUNITS
 70
     2
  9
$LUPREC
 70
     2
  9
$SKETCHINC
 40
1.0
  9
$FILLETRAD
 40
5.0
  9
$AUNITS
 70
     0
  9
$AUPREC
 70
     0
  9
$MENU
  1
ACAD
  9
$ELEVATION
 40
0.0
  9
$PELEVATION
 40
0.0
  9
$THICKNESS
 40
0.0
  9
$LIMCHECK
 70
     0
  9
$CHAMFERA
 40
5.0
  9
$CHAMFERB
 40
5.0
  9
$CHAMFERC
 40
0.0
  9
$CHAMFERD
 40
0.0
  9
$SKPOLY
 70
     0
  9
$TDCREATE
 40
2454725.417775891
  9
$TDUCREATE
 40
2454725.334442558
  9
$TDUPDATE
 40
2454734.560936817
  9
$TDUUPDATE
 40
2454734.477603484
  9
$TDINDWG
 40
0.1549412616
  9
$TDUSRTIMER
 40
0.1549401968
  9
$USRTIMER
 70
     1
  9
$ANGBASE
 50
0.0
  9
$ANGDIR
 70
     0
  9
$PDMODE
 70
     0
  9
$PDSIZE
 40
0.0
  9
$PLINEWID
 40
0.0
  9
$SPLFRAME
 70
     0
  9
$SPLINETYPE
 70
     6
  9
$SPLINESEGS
 70
    12
  9
$HANDSEED
  5
3A4A
  9
$SURFTAB1
 70
     6
  9
$SURFTAB2
 70
     6
  9
$SURFTYPE
 70
     6
  9
$SURFU
 70
     6
  9
$SURFV
 70
     6
  9
$UCSBASE
  2

  9
$UCSNAME
  2

  9
$UCSORG
 10
0.0
 20
0.0
 30
0.0
  9
$UCSXDIR
 10
1.0
 20
0.0
 30
0.0
  9
$UCSYDIR
 10
0.0
 20
1.0
 30
0.0
  9
$UCSORTHOREF
  2

  9
$UCSORTHOVIEW
 70
     0
  9
$UCSORGTOP
 10
0.0
 20
0.0
 30
0.0
  9
$UCSORGBOTTOM
 10
0.0
 20
0.0
 30
0.0
  9
$UCSORGLEFT
 10
0.0
 20
0.0
 30
0.0
  9
$UCSORGRIGHT
 10
0.0
 20
0.0
 30
0.0
  9
$UCSORGFRONT
 10
0.0
 20
0.0
 30
0.0
  9
$UCSORGBACK
 10
0.0
 20
0.0
 30
0.0
  9
$PUCSBASE
  2

  9
$PUCSNAME
  2

  9
$PUCSORG
 10
0.0
 20
0.0
 30
0.0
  9
$PUCSXDIR
 10
1.0
 20
0.0
 30
0.0
  9
$PUCSYDIR
 10
0.0
 20
1.0
 30
0.0
  9
$PUCSORTHOREF
  2

  9
$PUCSORTHOVIEW
 70
     0
  9
$PUCSORGTOP
 10
0.0
 20
0.0
 30
0.0
  9
$PUCSORGBOTTOM
 10
0.0
 20
0.0
 30
0.0
  9
$PUCSORGLEFT
 10
0.0
 20
0.0
 30
0.0
  9
$PUCSORGRIGHT
 10
0.0
 20
0.0
 30
0.0
  9
$PUCSORGFRONT
 10
0.0
 20
0.0
 30
0.0
  9
$PUCSORGBACK
 10
0.0
 20
0.0
 30
0.0
  9
$USERI1
 70
     0
  9
$USERI2
 70
     0
  9
$USERI3
 70
     0
  9
$USERI4
 70
     0
  9
$USERI5
 70
     0
  9
$USERR1
 40
0.0
  9
$USERR2
 40
0.0
  9
$USERR3
 40
0.0
  9
$USERR4
 40
0.0
  9
$USERR5
 40
0.0
  9
$WORLDVIEW
 70
     1
  9
$SHADEDGE
 70
     3
  9
$SHADEDIF
 70
    70
  9
$TILEMODE
 70
     1
  9
$MAXACTVP
 70
    64
  9
$PINSBASE
 10
0.0
 20
0.0
 30
0.0
  9
$PLIMCHECK
 70
     0
  9
$PEXTMIN
 10
1.000000000000000E+20
 20
1.000000000000000E+20
 30
1.000000000000000E+20
  9
$PEXTMAX
 10
-1.000000000000000E+20
 20
-1.000000000000000E+20
 30
-1.000000000000000E+20
  9
$PLIMMIN
 10
0.0
 20
0.0
  9
$PLIMMAX
 10
12.0
 20
9.0
  9
$UNITMODE
 70
     0
  9
$VISRETAIN
 70
     1
  9
$PLINEGEN
 70
     0
  9
$PSLTSCALE
 70
     1
  9
$TREEDEPTH
 70
  3020
  9
$CMLSTYLE
  2
Standard
  9
$CMLJUST
 70
     0
  9
$CMLSCALE
 40
1.0
  9
$PROXYGRAPHICS
 70
     1
  9
$MEASUREMENT
 70
     1
  9
$CELWEIGHT
370
    -1
  9
$ENDCAPS
280
     0
  9
$JOINSTYLE
280
     0
  9
$LWDISPLAY
290
     0
  9
$INSUNITS
 70
     4
  9
$HYPERLINKBASE
  1

  9
$STYLESHEET
  1
monochrome.ctb
  9
$XEDIT
290
     1
  9
$CEPSNTYPE
380
     0
  9
$PSTYLEMODE
290
     1
  9
$FINGERPRINTGUID
  2
{C0F0E154-1C96-4D24-94F9-0C805E9C2A79}
  9
$VERSIONGUID
  2
{28730BF9-3B91-49DA-AC26-2B680B8E8A36}
  9
$EXTNAMES
290
     1
  9
$PSVPSCALE
 40
0.0
  9
$OLESTARTUP
290
     0
  9
$SORTENTS
280
   127
  9
$INDEXCTL
280
     0
  9
$HIDETEXT
280
     0
  9
$XCLIPFRAME
290
     0
  9
$HALOGAP
280
     0
  9
$OBSCOLOR
 70
   257
  9
$OBSLTYPE
280
     0
  9
$INTERSECTIONDISPLAY
280
     0
  9
$INTERSECTIONCOLOR
 70
   257
  9
$DIMASSOC
280
     2
  9
$PROJECTNAME
  1

  0
ENDSEC
  0
SECTION
  2
CLASSES
  0
CLASS
  1
ACDBDICTIONARYWDFLT
  2
AcDbDictionaryWithDefault
  3
ObjectDBX Classes
 90
        0
 91
        1
280
     0
281
     0
  0
CLASS
  1
MATERIAL
  2
AcDbMaterial
  3
ObjectDBX Classes
 90
     1153
 91
        3
280
     0
281
     0
  0
CLASS
  1
VISUALSTYLE
  2
AcDbVisualStyle
  3
ObjectDBX Classes
 90
     4095
 91
       16
280
     0
281
     0
  0
CLASS
  1
SCALE
  2
AcDbScale
  3
ObjectDBX Classes
 90
     1153
 91
       33
280
     0
281
     0
  0
CLASS
  1
TABLESTYLE
  2
AcDbTableStyle
  3
ObjectDBX Classes
 90
     4095
 91
        1
280
     0
281
     0
  0
CLASS
  1
MLEADERSTYLE
  2
AcDbMLeaderStyle
  3
ACDB_MLEADERSTYLE_CLASS
 90
     4095
 91
        2
280
     0
281
     0
  0
CLASS
  1
AMGSETTINGSOBJ
  2
AmgSettingsObj
  3
"AcadM|Product Description: AutoCAD Mechanical|Company: Autodesk, Inc."
 90
     1024
 91
        4
280
     0
281
     0
  0
CLASS
  1
ACME_DOCUMENT
  2
AcMeDbDoc
  3
AcMeServices
 90
     1024
 91
        2
280
     0
281
     0
  0
CLASS
  1
ACMESCOPE
  2
AcMeScope
  3
AcMeServices
 90
     1024
 91
        1
280
     0
281
     0
  0
CLASS
  1
ACMECOMMANDHISTORY
  2
AcMeCommandHistory
  3
AcMeServices
 90
     1024
 91
        1
280
     0
281
     0
  0
CLASS
  1
ACIMSYSVARMAN
  2
AcImSysVarManager
  3
AcMeServices
 90
     1024
 91
        5
280
     0
281
     0
  0
CLASS
  1
ACIMINTSYSVAR
  2
AcImIntSysVar
  3
AcMeServices
 90
     1024
 91
       29
280
     0
281
     0
  0
CLASS
  1
ACMEDRAWINGMAN
  2
AcMeDrawingMan
  3
AcMeServices
 90
     1024
 91
        1
280
     0
281
     0
  0
CLASS
  1
ACMEVIEW
  2
AcMeView
  3
AcMeServices
 90
     1024
 91
        1
280
     0
281
     0
  0
CLASS
  1
ACDBENTITYCACHE
  2
AcMeEntityCache
  3
AcMeServices
 90
     1024
 91
        1
280
     0
281
     0
  0
CLASS
  1
GSMANAGER
  2
AcMeGSManager
  3
AcMeServices
 90
     1024
 91
        1
280
     0
281
     0
  0
CLASS
  1
AMDTINTERNALREACTOR
  2
AmdtInternalReactor
  3
AcMeServices
 90
     1024
 91
       33
280
     0
281
     0
  0
CLASS
  1
ACMESTATEMGR
  2
AcMeStateMgr
  3
AcMeServices
 90
     1024
 91
        1
280
     0
281
     0
  0
CLASS
  1
ACGREFMASTER
  2
AcGrefMaster
  3
AcAttribServices
 90
     1024
 91
        1
280
     0
281
     0
  0
CLASS
  1
AM_DRAWING_MGR
  2
AcDmDwgMgr
  3
AcMechDwgViewMgmt
 90
     1024
 91
        1
280
     0
281
     0
  0
CLASS
  1
AM_DWG_DOCUMENT
  2
AcDmDwgDocument
  3
AcMechDwgViewMgmt
 90
     1024
 91
        1
280
     0
281
     0
  0
CLASS
  1
AM_DWG_SHEET
  2
AcDmSheet
  3
AcMechDwgViewMgmt
 90
     1024
 91
        1
280
     0
281
     0
  0
CLASS
  1
AM_VIEWDIMPARMAP
  2
AcDmViewDimParMap
  3
AcMechDwgViewMgmt
 90
     1024
 91
        1
280
     0
281
     0
  0
CLASS
  1
ACIMREALSYSVAR
  2
AcImRealSysVar
  3
AcMeServices
 90
     1024
 91
        1
280
     0
281
     0
  0
CLASS
  1
AM_DWGMGR_NAME
  2
AcDmDwgMgrName
  3
AcMechDwgViewMgmt
 90
     1024
 91
        1
280
     0
281
     0
  0
CLASS
  1
ACME_DATABASE
  2
AcMeDbDatabase
  3
AcMeServices
 90
     1024
 91
        2
280
     0
281
     0
  0
CLASS
  1
ACRFINSADJUSTERMGR
  2
AcRfInsAdjusterMgr
  3
AcMeServices
 90
     1024
 91
        1
280
     0
281
     0
  0
CLASS
  1
ACGREFACADMASTER
  2
AcGrefacadMaster
  3
AcGrefServices
 90
     1024
 91
        1
280
     0
281
     0
  0
CLASS
  1
AMDTMENUSTATEMGR
  2
AmdtMenuStateMgr
  3
McadcomServices
 90
     1024
 91
        1
280
     0
281
     0
  0
CLASS
  1
AMDTMCOMMENUSTATE
  2
AmdtMcomMenuState
  3
McadcomServices
 90
     1024
 91
        1
280
     0
281
     0
  0
CLASS
  1
AMIMASTER
  2
AmiMaster
  3
AmiServices
 90
     1024
 91
        1
280
     0
281
     0
  0
CLASS
  1
MAPIAMMOUDLE
  2
MApiAmModule
  3
MApiAmServices
 90
     1024
 91
        1
280
     0
281
     0
  0
CLASS
  1
ACIMSTRSYSVAR
  2
AcImStrSysVar
  3
AcMeServices
 90
     1024
 91
        5
280
     0
281
     0
  0
CLASS
  1
AMDTADMENUSTATE
  2
AmdtAdMenuState
  3
DesignerServices
 90
     1024
 91
        1
280
     0
281
     0
  0
CLASS
  1
ADAPPL
  2
AcAdAppl
  3
DesignerServices
 90
     1024
 91
        1
280
     0
281
     0
  0
CLASS
  1
DEPMGR
  2
AcAdDepMgr
  3
DesignerServices
 90
     1024
 91
        1
280
     0
281
     0
  0
CLASS
  1
PARAMMGR
  2
AcAdParamMgr
  3
DesignerServices
 90
     1024
 91
        1
280
     0
281
     0
  0
CLASS
  1
PARAMSCOPE
  2
AcAdParamScope
  3
DesignerServices
 90
     1024
 91
        1
280
     0
281
     0
  0
CLASS
  1
NAMEDAPPL
  2
AcAdNamedAppl
  3
DesignerServices
 90
     1024
 91
        1
280
     0
281
     0
  0
CLASS
  1
AMDTDMMENUSTATE
  2
AmdtDmMenuState
  3
AcMechDwgViewMgmt
 90
     1024
 91
        1
280
     0
281
     0
  0
CLASS
  1
AMDTAMMENUSTATE
  2
AmdtAmMenuState
  3
DesignerAssemblies
 90
     1024
 91
        1
280
     0
281
     0
  0
CLASS
  1
ACAMPROJECT
  2
AcAmProject
  3
DesignerAssemblies
 90
     1024
 91
        1
280
     0
281
     0
  0
CLASS
  1
ACAMGRCOMPDEF
  2
AcAmGrCompDef
  3
DesignerAssemblies
 90
     1024
 91
        1
280
     0
281
     0
  0
CLASS
  1
ACCMCONTEXT
  2
AcCmContext
  3
DesignerAssemblies
 90
     1024
 91
        1
280
     0
281
     0
  0
CLASS
  1
ACAMCOMPDEF
  2
AcAmCompDef
  3
DesignerAssemblies
 90
     1024
 91
        1
280
     0
281
     0
  0
CLASS
  1
ACAMCOMPDEFMGR
  2
AcAmCompDefMgr
  3
DesignerAssemblies
 90
     1024
 91
        1
280
     0
281
     0
  0
CLASS
  1
AMCONTEXTMGR
  2
AcAmContextMgr
  3
DesignerAssemblies
 90
     1024
 91
        1
280
     0
281
     0
  0
CLASS
  1
ACAMCONTEXTMODELER
  2
AcAmContextModeler
  3
DesignerAssemblies
 90
     1024
 91
        1
280
     0
281
     0
  0
CLASS
  1
ACMDATADICTIONARY
  2
AcmDataDictionary
  3
"AcmSymBB|Product Description: AutoCAD Mechanical|Company: Autodesk, Inc."
 90
     1024
 91
        1
280
     0
281
     0
  0
CLASS
  1
CATALOGSTATE
  2
AcAmCatalogState
  3
DesignerAssemblies
 90
     1024
 91
        1
280
     0
281
     0
  0
CLASS
  1
ACAMGRCOMPDEFSET
  2
AcAmGrCompDefSet
  3
DesignerAssemblies
 90
     1024
 91
        1
280
     0
281
     0
  0
CLASS
  1
AMDTBROWSERDBTAB
  2
AmdtBrowserDbTab
  3
McadcomServices
 90
     1024
 91
        1
280
     0
281
     0
  0
CLASS
  1
CBROWSERAPPOBJECT
  2
CBrowserAppObject
  3
McadcomServices
 90
     1024
 91
        3
280
     0
281
     0
  0
CLASS
  1
DM_PLACEHOLDER
  2
AcDmSelsetPlaceholder
  3
AcMechDwgViewMgmt
 90
     1024
 91
        1
280
     0
281
     0
  0
CLASS
  1
ACMSTANDARDANSI
  2
AcmStandardANSI
  3
"Amdt_StdImp|Product Description: AutoCAD Mechanical|Company: Autodesk, Inc."
 90
     1024
 91
        1
280
     0
281
     0
  0
CLASS
  1
AMGOBJPROPCFG
  2
AmgObjPropCfg
  3
"AmgLay|Product Description: AutoCAD Mechanical|Company: Autodesk, Inc."
 90
     1025
 91
        1
280
     0
281
     0
  0
CLASS
  1
ACMSURFSTANDARDANSI
  2
AcmSurfTextStdANSI
  3
"Amdt_StdImp|Product Description: AutoCAD Mechanical|Company: Autodesk, Inc."
 90
     1024
 91
        1
280
     0
281
     0
  0
CLASS
  1
ACMFCFSTANDARDANSI
  2
AcmFCFStdANSI
  3
"Amdt_StdImp|Product Description: AutoCAD Mechanical|Company: Autodesk, Inc."
 90
     1024
 91
        1
280
     0
281
     0
  0
CLASS
  1
ACMWELDSTANDARDANSI
  2
AcmWeldingStdANSI
  3
"Amdt_StdImp|Product Description: AutoCAD Mechanical|Company: Autodesk, Inc."
 90
     1024
 91
        1
280
     0
281
     0
  0
CLASS
  1
ACMIDSTANDARDANSI
  2
AcmIdStdANSI
  3
"Amdt_StdImp|Product Description: AutoCAD Mechanical|Company: Autodesk, Inc."
 90
     1024
 91
        1
280
     0
281
     0
  0
CLASS
  1
ACMDATUMSTANDARDANSI
  2
AcmDatumStdANSI
  3
"Amdt_StdImp|Product Description: AutoCAD Mechanical|Company: Autodesk, Inc."
 90
     1024
 91
        1
280
     0
281
     0
  0
CLASS
  1
ACMBOMSTANDARDANSI
  2
AcmBOMStdANSI
  3
"Amdt_StdImp|Product Description: AutoCAD Mechanical|Company: Autodesk, Inc."
 90
     1024
 91
        1
280
     0
281
     0
  0
CLASS
  1
ACMDETAILSTANDARDANSI
  2
AmdtDetailSymStdANSI
  3
"Amdt_StdImp|Product Description: AutoCAD Mechanical|Company: Autodesk, Inc."
 90
     1024
 91
        1
280
     0
281
     0
  0
CLASS
  1
ACMSECTIONSTANDARDANSI
  2
AmdtSectionSymStdANSI
  3
"Amdt_StdImp|Product Description: AutoCAD Mechanical|Company: Autodesk, Inc."
 90
     1024
 91
        1
280
     0
281
     0
  0
CLASS
  1
ACMCENTERLINESTANDARDANSI
  2
AmdtCenterLineStdANSI
  3
"Amdt_StdImp|Product Description: AutoCAD Mechanical|Company: Autodesk, Inc."
 90
     1024
 91
        1
280
     0
281
     0
  0
CLASS
  1
ACMTHREADLINESTANDARDANSI
  2
AmdtThreadLineStdANSI
  3
"Amdt_StdImp|Product Description: AutoCAD Mechanical|Company: Autodesk, Inc."
 90
     1024
 91
        1
280
     0
281
     0
  0
CLASS
  1
ACMNOTESTANDARDANSI
  2
AmdtNoteStdANSI
  3
"Amdt_StdImp|Product Description: AutoCAD Mechanical|Company: Autodesk, Inc."
 90
     1024
 91
        1
280
     0
281
     0
  0
CLASS
  1
ACMTAPERSTANDARDANSI
  2
AcmTaperStdANSI
  3
"Amdt_StdImp|Product Description: AutoCAD Mechanical|Company: Autodesk, Inc."
 90
     1024
 91
        1
280
     0
281
     0
  0
CLASS
  1
ACMANOOTATIONVIEWSTANDARDANSI
  2
AmdtAnViewStdANSI
  3
"Amdt_StdImp|Product Description: AutoCAD Mechanical|Company: Autodesk, Inc."
 90
     1024
 91
        1
280
     0
281
     0
  0
CLASS
  1
AMDTNOTETEMPLATEDB
  2
AmdtNoteTemplateDB
  3
AcmSymBB|Product Description: AutoCAD Mechanical|Company: Autodesk, Inc.
 90
     1024
 91
       18
280
     0
281
     0
  0
CLASS
  1
ACAMGLAYSTD
  2
AcAmgLayStd
  3
"AmgLay|Product Description: AutoCAD Mechanical|Company: Autodesk, Inc."
 90
     1024
 91
        3
280
     0
281
     0
  0
CLASS
  1
ACAMGDIMSTD
  2
AcAmgDimStd
  3
"AmgDim|Product Description: AutoCAD Mechanical|Company: Autodesk, Inc."
 90
     1024
 91
        3
280
     0
281
     0
  0
CLASS
  1
ACAMGHOLECHARTSTDANSI
  2
AcAmgHoleChartStdANSI
  3
AmgDim|Product Description: AutoCAD Mechanical|Company: Autodesk, Inc.
 90
     1024
 91
        1
280
     0
281
     0
  0
CLASS
  1
ACAMGTITLESTD
  2
AcAmgTitleStd
  3
"AmgTitle|Product Description: AutoCAD Mechanical|Company: Autodesk, Inc."
 90
     4095
 91
        3
280
     0
281
     0
  0
CLASS
  1
ACAMGFILTERDAT
  2
AcAmgFilterDat
  3
"AcadM|Product Description: AutoCAD Mechanical|Company: Autodesk, Inc."
 90
     1024
 91
        0
280
     0
281
     0
  0
CLASS
  1
CELLSTYLEMAP
  2
AcDbCellStyleMap
  3
ObjectDBX Classes
 90
     1152
 91
        5
280
     0
281
     0
  0
CLASS
  1
DICTIONARYVAR
  2
AcDbDictionaryVar
  3
ObjectDBX Classes
 90
        0
 91
        8
280
     0
281
     0
  0
CLASS
  1
ACMDATAENTRYPART
  2
AcmDataEntryPart
  3
AcmSymBB|Product Description: AutoCAD Mechanical|Company: Autodesk, Inc.
 90
     1024
 91
       10
280
     0
281
     0
  0
CLASS
  1
ACMPARTREF
  2
AcmPartRef
  3
"AcmSymBB|Product Description: AutoCAD Mechanical|Company: Autodesk, Inc."
 90
     4095
 91
       32
280
     0
281
     1
  0
CLASS
  1
ACDBLINERES
  2
AcDbLineRes
  3
AcGrefServices
 90
     1024
 91
        8
280
     0
281
     0
  0
CLASS
  1
ACMSTANDARDDIN
  2
AcmStandardDIN
  3
"Amdt_StdImp|Product Description: AutoCAD Mechanical|Company: Autodesk, Inc."
 90
     1024
 91
        1
280
     0
281
     0
  0
CLASS
  1
AMDTEDGESTANDARDDIN13715
  2
AmdtEdgeStdDIN13715
  3
"Amdt_StdImp|Product Description: AutoCAD Mechanical|Company: Autodesk, Inc."
 90
     1024
 91
        1
280
     0
281
     0
  0
CLASS
  1
ACMSURFSTANDARDDIN2002
  2
AcmSurfTextStdDIN2002
  3
"Amdt_StdImp|Product Description: AutoCAD Mechanical|Company: Autodesk, Inc."
 90
     1024
 91
        1
280
     0
281
     0
  0
CLASS
  1
ACMFCFSTANDARDDIN
  2
AcmFCFStdDIN
  3
"Amdt_StdImp|Product Description: AutoCAD Mechanical|Company: Autodesk, Inc."
 90
     1024
 91
        1
280
     0
281
     0
  0
CLASS
  1
ACMWELDSTANDARDDIN
  2
AcmWeldingStdDIN
  3
"Amdt_StdImp|Product Description: AutoCAD Mechanical|Company: Autodesk, Inc."
 90
     1024
 91
        1
280
     0
281
     0
  0
CLASS
  1
ACMIDSTANDARDDIN
  2
AcmIdStdDIN
  3
"Amdt_StdImp|Product Description: AutoCAD Mechanical|Company: Autodesk, Inc."
 90
     1024
 91
        1
280
     0
281
     0
  0
CLASS
  1
ACMDATUMSTANDARDDIN
  2
AcmDatumStdDIN
  3
"Amdt_StdImp|Product Description: AutoCAD Mechanical|Company: Autodesk, Inc."
 90
     1024
 91
        1
280
     0
281
     0
  0
CLASS
  1
ACMBOMSTANDARDDIN
  2
AcmBOMStdDIN
  3
"Amdt_StdImp|Product Description: AutoCAD Mechanical|Company: Autodesk, Inc."
 90
     1024
 91
        1
280
     0
281
     0
  0
CLASS
  1
ACMDETAILSTANDARDDIN
  2
AmdtDetailSymStdDIN
  3
"Amdt_StdImp|Product Description: AutoCAD Mechanical|Company: Autodesk, Inc."
 90
     1024
 91
        1
280
     0
281
     0
  0
CLASS
  1
ACMSECTIONSTANDARDDIN
  2
AmdtSectionSymStdDIN
  3
"Amdt_StdImp|Product Description: AutoCAD Mechanical|Company: Autodesk, Inc."
 90
     1024
 91
        1
280
     0
281
     0
  0
CLASS
  1
ACMCENTERLINESTANDARDDIN
  2
AmdtCenterLineStdDIN
  3
"Amdt_StdImp|Product Description: AutoCAD Mechanical|Company: Autodesk, Inc."
 90
     1024
 91
        1
280
     0
281
     0
  0
CLASS
  1
ACMTHREADLINESTANDARDDIN
  2
AmdtThreadLineStdDIN
  3
"Amdt_StdImp|Product Description: AutoCAD Mechanical|Company: Autodesk, Inc."
 90
     1024
 91
        1
280
     0
281
     0
  0
CLASS
  1
ACMNOTESTANDARDDIN
  2
AmdtNoteStdDIN
  3
"Amdt_StdImp|Product Description: AutoCAD Mechanical|Company: Autodesk, Inc."
 90
     1024
 91
        1
280
     0
281
     0
  0
CLASS
  1
ACMTAPERSTANDARDDIN
  2
AcmTaperStdDIN
  3
"Amdt_StdImp|Product Description: AutoCAD Mechanical|Company: Autodesk, Inc."
 90
     1024
 91
        1
280
     0
281
     0
  0
CLASS
  1
ACMANOOTATIONVIEWSTANDARDDIN
  2
AmdtAnViewStdDIN
  3
"Amdt_StdImp|Product Description: AutoCAD Mechanical|Company: Autodesk, Inc."
 90
     1024
 91
        1
280
     0
281
     0
  0
CLASS
  1
ACAMGHOLECHARTSTDDIN
  2
AcAmgHoleChartStdDIN
  3
AmgDim|Product Description: AutoCAD Mechanical|Company: Autodesk, Inc.
 90
     1024
 91
        1
280
     0
281
     0
  0
CLASS
  1
ACMDATAENTRYBLOCK
  2
AcmDataEntryBlock
  3
AcmSymBB|Product Description: AutoCAD Mechanical|Company: Autodesk, Inc.
 90
     1024
 91
        4
280
     0
281
     0
  0
CLASS
  1
ACMBOM
  2
AcmBom
  3
"AcmSymBB|Product Description: AutoCAD Mechanical|Company: Autodesk, Inc."
 90
     1024
 91
        1
280
     0
281
     0
  0
CLASS
  1
AMDTFORMULAUPDATEDISPATCHER
  2
AmdtFormulaUpdateDispatcher
  3
AcMeServices
 90
     1024
 91
        1
280
     0
281
     0
  0
CLASS
  1
ACMBOMROW
  2
AcmBomRow
  3
"AcmSymBB|Product Description: AutoCAD Mechanical|Company: Autodesk, Inc."
 90
     1024
 91
        8
280
     0
281
     0
  0
CLASS
  1
ACMPARTLIST
  2
AcmPartList
  3
"AcmSymBB|Product Description: AutoCAD Mechanical|Company: Autodesk, Inc."
 90
     4095
 91
        0
280
     0
281
     1
  0
CLASS
  1
CAMSSTRUCTBTNSTATE
  2
StructBtnState
  3
DesignerAssemblies
 90
     1024
 91
        1
280
     0
281
     0
  0
CLASS
  1
ACRFATTGENMGR
  2
AcRfAttGeneralMgr
  3
AcAttribServices
 90
     1024
 91
        1
280
     0
281
     0
  0
CLASS
  1
ACRFOBJATTMGR
  2
AcRfObjAttGroupMgr
  3
AcAttribServices
 90
     1024
 91
        1
280
     0
281
     0
  0
CLASS
  1
ACRFMCADAPIATTHOLDER
  2
AcRfMCADAPIAttHolder
  3
AcAttribServices
 90
     1024
 91
        1
280
     0
281
     0
  0
CLASS
  1
AMDTSYSATTR
  2
AmdtSystemAttribute
  3
AcAttribServices
 90
     1024
 91
        4
280
     0
281
     0
  0
CLASS
  1
SORTENTSTABLE
  2
AcDbSortentsTable
  3
ObjectDBX Classes
 90
        0
 91
        8
280
     0
281
     0
  0
CLASS
  1
ACMSTANDARDISO
  2
AcmStandardISO
  3
"Amdt_StdImp|Product Description: AutoCAD Mechanical|Company: Autodesk, Inc."
 90
     1024
 91
        1
280
     0
281
     0
  0
CLASS
  1
AMDTEDGESTANDARDISO
  2
AmdtEdgeStdISO
  3
"Amdt_StdImp|Product Description: AutoCAD Mechanical|Company: Autodesk, Inc."
 90
     1024
 91
        1
280
     0
281
     0
  0
CLASS
  1
ACMSURFSTANDARDISO2002
  2
AcmSurfTextStdISO2002
  3
"Amdt_StdImp|Product Description: AutoCAD Mechanical|Company: Autodesk, Inc."
 90
     1024
 91
        1
280
     0
281
     0
  0
CLASS
  1
ACMFCFSTANDARDISO
  2
AcmFCFStdISO
  3
"Amdt_StdImp|Product Description: AutoCAD Mechanical|Company: Autodesk, Inc."
 90
     1024
 91
        1
280
     0
281
     0
  0
CLASS
  1
ACMWELDSTANDARDISO
  2
AcmWeldingStdISO
  3
"Amdt_StdImp|Product Description: AutoCAD Mechanical|Company: Autodesk, Inc."
 90
     1024
 91
        1
280
     0
281
     0
  0
CLASS
  1
ACMIDSTANDARDISO
  2
AcmIdStdISO
  3
"Amdt_StdImp|Product Description: AutoCAD Mechanical|Company: Autodesk, Inc."
 90
     1024
 91
        1
280
     0
281
     0
  0
CLASS
  1
ACMDATUMSTANDARDISO
  2
AcmDatumStdISO
  3
"Amdt_StdImp|Product Description: AutoCAD Mechanical|Company: Autodesk, Inc."
 90
     1024
 91
        1
280
     0
281
     0
  0
CLASS
  1
ACMBOMSTANDARDISO
  2
AcmBOMStdISO
  3
"Amdt_StdImp|Product Description: AutoCAD Mechanical|Company: Autodesk, Inc."
 90
     1024
 91
        1
280
     0
281
     0
  0
CLASS
  1
ACMDETAILSTANDARDISO
  2
AmdtDetailSymStdISO
  3
"Amdt_StdImp|Product Description: AutoCAD Mechanical|Company: Autodesk, Inc."
 90
     1024
 91
        1
280
     0
281
     0
  0
CLASS
  1
ACMSECTIONSTANDARDISO2001
  2
AmdtSectionSymStdISO2001
  3
"Amdt_StdImp|Product Description: AutoCAD Mechanical|Company: Autodesk, Inc."
 90
     1024
 91
        1
280
     0
281
     0
  0
CLASS
  1
ACMCENTERLINESTANDARDISO
  2
AmdtCenterLineStdISO
  3
"Amdt_StdImp|Product Description: AutoCAD Mechanical|Company: Autodesk, Inc."
 90
     1024
 91
        1
280
     0
281
     0
  0
CLASS
  1
ACMNOTESTANDARDISO
  2
AmdtNoteStdISO
  3
"Amdt_StdImp|Product Description: AutoCAD Mechanical|Company: Autodesk, Inc."
 90
     1024
 91
        1
280
     0
281
     0
  0
CLASS
  1
ACAMGHOLECHARTSTDISO
  2
AcAmgHoleChartStdISO
  3
AmgDim|Product Description: AutoCAD Mechanical|Company: Autodesk, Inc.
 90
     1024
 91
        1
280
     0
281
     0
  0
CLASS
  1
ACMTHREADLINESTANDARDISO
  2
AmdtThreadLineStdISO
  3
"Amdt_StdImp|Product Description: AutoCAD Mechanical|Company: Autodesk, Inc."
 90
     1024
 91
        1
280
     0
281
     0
  0
CLASS
  1
ACMTAPERSTANDARDISO
  2
AcmTaperStdISO
  3
"Amdt_StdImp|Product Description: AutoCAD Mechanical|Company: Autodesk, Inc."
 90
     1024
 91
        1
280
     0
281
     0
  0
CLASS
  1
ACMANOOTATIONVIEWSTANDARDISO
  2
AmdtAnViewStdISO
  3
"Amdt_StdImp|Product Description: AutoCAD Mechanical|Company: Autodesk, Inc."
 90
     1024
 91
        1
280
     0
281
     0
  0
CLASS
  1
ACMSTANDARDGB
  2
AcmStandardGB
  3
"Amdt_StdImp|Product Description: AutoCAD Mechanical|Company: Autodesk, Inc."
 90
     1024
 91
        0
280
     0
281
     0
  0
CLASS
  1
ACMSURFSTANDARDGB
  2
AcmSurfTextStdGB
  3
"Amdt_StdImp|Product Description: AutoCAD Mechanical|Company: Autodesk, Inc."
 90
     1024
 91
        0
280
     0
281
     0
  0
CLASS
  1
ACMFCFSTANDARDGB
  2
AcmFCFStdGB
  3
"Amdt_StdImp|Product Description: AutoCAD Mechanical|Company: Autodesk, Inc."
 90
     1024
 91
        0
280
     0
281
     0
  0
CLASS
  1
ACMWELDSTANDARDGB
  2
AcmWeldingStdGB
  3
"Amdt_StdImp|Product Description: AutoCAD Mechanical|Company: Autodesk, Inc."
 90
     1024
 91
        0
280
     0
281
     0
  0
CLASS
  1
ACMIDSTANDARDGB
  2
AcmIdStdGB
  3
"Amdt_StdImp|Product Description: AutoCAD Mechanical|Company: Autodesk, Inc."
 90
     1024
 91
        0
280
     0
281
     0
  0
CLASS
  1
ACMDATUMSTANDARDGB
  2
AcmDatumStdGB
  3
"Amdt_StdImp|Product Description: AutoCAD Mechanical|Company: Autodesk, Inc."
 90
     1024
 91
        0
280
     0
281
     0
  0
CLASS
  1
ACMBOMSTANDARDGB
  2
AcmBOMStdGB
  3
"Amdt_StdImp|Product Description: AutoCAD Mechanical|Company: Autodesk, Inc."
 90
     1024
 91
        0
280
     0
281
     0
  0
CLASS
  1
ACMDETAILSTANDARDGB
  2
AmdtDetailSymStdGB
  3
"Amdt_StdImp|Product Description: AutoCAD Mechanical|Company: Autodesk, Inc."
 90
     1024
 91
        0
280
     0
281
     0
  0
CLASS
  1
ACMSECTIONSTANDARDGB1998
  2
AmdtSectionSymStdGB1998
  3
"Amdt_StdImp|Product Description: AutoCAD Mechanical|Company: Autodesk, Inc."
 90
     1024
 91
        0
280
     0
281
     0
  0
CLASS
  1
ACMCENTERLINESTANDARDGB
  2
AmdtCenterLineStdGB
  3
"Amdt_StdImp|Product Description: AutoCAD Mechanical|Company: Autodesk, Inc."
 90
     1024
 91
        0
280
     0
281
     0
  0
CLASS
  1
ACMTHREADLINESTANDARDGB
  2
AmdtThreadLineStdGB
  3
"Amdt_StdImp|Product Description: AutoCAD Mechanical|Company: Autodesk, Inc."
 90
     1024
 91
        0
280
     0
281
     0
  0
CLASS
  1
ACMNOTESTANDARDGB
  2
AmdtNoteStdGB
  3
"Amdt_StdImp|Product Description: AutoCAD Mechanical|Company: Autodesk, Inc."
 90
     1024
 91
        0
280
     0
281
     0
  0
CLASS
  1
ACMTAPERSTANDARDGB
  2
AcmTaperStdGB
  3
"Amdt_StdImp|Product Description: AutoCAD Mechanical|Company: Autodesk, Inc."
 90
     1024
 91
        0
280
     0
281
     0
  0
CLASS
  1
ACMANOOTATIONVIEWSTANDARDGB
  2
AmdtAnViewStdGB
  3
"Amdt_StdImp|Product Description: AutoCAD Mechanical|Company: Autodesk, Inc."
 90
     1024
 91
        0
280
     0
281
     0
  0
CLASS
  1
ACAMGHOLECHARTSTDGB
  2
AcAmgHoleChartStdGB
  3
AmgDim|Product Description: AutoCAD Mechanical|Company: Autodesk, Inc.
 90
     1024
 91
        0
280
     0
281
     0
  0
CLASS
  1
ACMSTANDARDCSN
  2
AcmStandardCSN
  3
"Amdt_StdImp|Product Description: AutoCAD Mechanical|Company: Autodesk, Inc."
 90
     1024
 91
        0
280
     0
281
     0
  0
CLASS
  1
ACMSURFSTANDARDCSN
  2
AcmSurfTextStdCSN
  3
"Amdt_StdImp|Product Description: AutoCAD Mechanical|Company: Autodesk, Inc."
 90
     1024
 91
        0
280
     0
281
     0
  0
CLASS
  1
ACMFCFSTANDARDCSN
  2
AcmFCFStdCSN
  3
"Amdt_StdImp|Product Description: AutoCAD Mechanical|Company: Autodesk, Inc."
 90
     1024
 91
        0
280
     0
281
     0
  0
CLASS
  1
ACMWELDSTANDARDCSN
  2
AcmWeldingStdCSN
  3
"Amdt_StdImp|Product Description: AutoCAD Mechanical|Company: Autodesk, Inc."
 90
     1024
 91
        0
280
     0
281
     0
  0
CLASS
  1
ACMIDSTANDARDCSN
  2
AcmIdStdCSN
  3
"Amdt_StdImp|Product Description: AutoCAD Mechanical|Company: Autodesk, Inc."
 90
     1024
 91
        0
280
     0
281
     0
  0
CLASS
  1
ACMDATUMSTANDARDCSN
  2
AcmDatumStdCSN
  3
"Amdt_StdImp|Product Description: AutoCAD Mechanical|Company: Autodesk, Inc."
 90
     1024
 91
        0
280
     0
281
     0
  0
CLASS
  1
ACMBOMSTANDARDCSN
  2
AcmBOMStdCSN
  3
"Amdt_StdImp|Product Description: AutoCAD Mechanical|Company: Autodesk, Inc."
 90
     1024
 91
        0
280
     0
281
     0
  0
CLASS
  1
ACMDETAILSTANDARDCSN
  2
AmdtDetailSymStdCSN
  3
"Amdt_StdImp|Product Description: AutoCAD Mechanical|Company: Autodesk, Inc."
 90
     1024
 91
        0
280
     0
281
     0
  0
CLASS
  1
ACMSECTIONSTANDARDCSN2002
  2
AmdtSectionSymStdCSN2002
  3
"Amdt_StdImp|Product Description: AutoCAD Mechanical|Company: Autodesk, Inc."
 90
     1024
 91
        0
280
     0
281
     0
  0
CLASS
  1
ACMCENTERLINESTANDARDCSN
  2
AmdtCenterLineStdCSN
  3
"Amdt_StdImp|Product Description: AutoCAD Mechanical|Company: Autodesk, Inc."
 90
     1024
 91
        0
280
     0
281
     0
  0
CLASS
  1
ACMTHREADLINESTANDARDCSN
  2
AmdtThreadLineStdCSN
  3
"Amdt_StdImp|Product Description: AutoCAD Mechanical|Company: Autodesk, Inc."
 90
     1024
 91
        0
280
     0
281
     0
  0
CLASS
  1
ACMNOTESTANDARDCSN
  2
AmdtNoteStdCSN
  3
"Amdt_StdImp|Product Description: AutoCAD Mechanical|Company: Autodesk, Inc."
 90
     1024
 91
        0
280
     0
281
     0
  0
CLASS
  1
ACMTAPERSTANDARDCSN
  2
AcmTaperStdCSN
  3
"Amdt_StdImp|Product Description: AutoCAD Mechanical|Company: Autodesk, Inc."
 90
     1024
 91
        0
280
     0
281
     0
  0
CLASS
  1
ACMANOOTATIONVIEWSTANDARDCSN
  2
AmdtAnViewStdCSN
  3
"Amdt_StdImp|Product Description: AutoCAD Mechanical|Company: Autodesk, Inc."
 90
     1024
 91
        0
280
     0
281
     0
  0
CLASS
  1
ACAMGHOLECHARTSTDCSN
  2
AcAmgHoleChartStdCSN
  3
AmgDim|Product Description: AutoCAD Mechanical|Company: Autodesk, Inc.
 90
     1024
 91
        0
280
     0
281
     0
  0
CLASS
  1
DIMASSOC
  2
AcDbDimAssoc
  3
"AcDbDimAssoc|Product Desc:     AcDim ARX App For Dimension|Company:          Autodesk, Inc.|WEB Address:      www.autodesk.com"
 90
        0
 91
       37
280
     0
281
     0
  0
CLASS
  1
ACDBCIRCARCRES
  2
AcDbCircArcRes
  3
AcGrefServices
 90
     1024
 91
        1
280
     0
281
     0
  0
CLASS
  1
ACDB_BLKREFOBJECTCONTEXTDATA_CLASS
  2
AcDbBlkRefObjectContextData
  3
ObjectDBX Classes
 90
     1153
 91
        0
280
     0
281
     0
  0
CLASS
  1
ACAD_EVALUATION_GRAPH
  2
AcDbEvalGraph
  3
ObjectDBX Classes
 90
     1153
 91
        0
280
     0
281
     0
  0
CLASS
  1
ACAECUSTOBJ
  2
AcAeEditorObj
  3
AcAeEditorObj
 90
     1024
 91
        0
280
     0
281
     0
  0
CLASS
  1
ACDB_DYNAMICBLOCKPURGEPREVENTER_VERSION
  2
AcDbDynamicBlockPurgePreventer
  3
ObjectDBX Classes
 90
     1153
 91
        0
280
     0
281
     0
  0
CLASS
  1
ACMSURFSYM
  2
AcmSurfaceTexture
  3
"AcmSymBB|Product Description: AutoCAD Mechanical|Company: Autodesk, Inc."
 90
     4095
 91
        2
280
     0
281
     1
  0
CLASS
  1
AMDTNOTE
  2
AmdtNote
  3
"AcmSymBB|Product Description: AutoCAD Mechanical|Company: Autodesk, Inc."
 90
     4095
 91
        6
280
     0
281
     1
  0
CLASS
  1
AMDTDETAILSYM
  2
AmdtDetailSym
  3
"AcmSymBB|Product Description: AutoCAD Mechanical|Company: Autodesk, Inc."
 90
     4095
 91
        2
280
     0
281
     1
  0
CLASS
  1
AMDTDETAILSYMLABEL
  2
AmdtDetailSymLabel
  3
"AcmSymBB|Product Description: AutoCAD Mechanical|Company: Autodesk, Inc."
 90
     4095
 91
        2
280
     0
281
     1
  0
CLASS
  1
STDPART2D
  2
AmgStdPart
  3
AmgStdPart|Product Description: AutoCAD Mechanical|Company: Autodesk, Inc.
 90
     4095
 91
       88
280
     0
281
     1
  0
CLASS
  1
ACDBSTDPARTRES_LINE
  2
AcDbStdPartRes_Line
  3
AmgStdPart|Product Description: AutoCAD Mechanical|Company: Autodesk, Inc.
 90
     1024
 91
       26
280
     0
281
     0
  0
CLASS
  1
ACDBSTDPARTRES_ARC
  2
AcDbStdPartRes_Arc
  3
AmgStdPart|Product Description: AutoCAD Mechanical|Company: Autodesk, Inc.
 90
     1024
 91
        1
280
     0
281
     0
  0
CLASS
  1
ACMWELDSYM
  2
AcmWelding
  3
"AcmSymBB|Product Description: AutoCAD Mechanical|Company: Autodesk, Inc."
 90
     4095
 91
        2
280
     0
281
     1
  0
ENDSEC
  0
SECTION
  2
TABLES
  0
TABLE
  2
VPORT
  5
8
102
{ACAD_XDICTIONARY
360
1B6
102
}
330
0
100
AcDbSymbolTable
 70
     1
  0
VPORT
  5
82
330
8
100
AcDbSymbolTableRecord
100
AcDbViewportTableRecord
  2
*Active
 70
     0
 10
0.0
 20
0.0
 11
1.0
 21
1.0
 12
1068.949285413752
 22
756.306453874349
 13
0.0
 23
0.0
 14
5.0
 24
5.0
 15
20.0
 25
20.0
 16
0.0
 26
0.0
 36
1.0
 17
0.0
 27
0.0
 37
0.0
 40
485.4644112135108
 41
1.443908323281061
 42
50.0
 43
0.0
 44
0.0
 50
0.0
 51
0.0
 71
     0
 72
 10000
 73
     1
 74
     0
 75
     0
 76
     0
 77
     0
 78
     0
281
     0
 65
     1
110
0.0
120
0.0
130
0.0
111
1.0
121
0.0
131
0.0
112
0.0
122
1.0
132
0.0
 79
     0
146
0.0
  0
ENDTAB
  0
TABLE
  2
LTYPE
  5
5
330
0
100
AcDbSymbolTable
 70
    24
  0
LTYPE
  5
62
330
5
100
AcDbSymbolTableRecord
100
AcDbLinetypeTableRecord
  2
ByBlock
 70
     0
  3

 72
    65
 73
     0
 40
0.0
  0
LTYPE
  5
63
330
5
100
AcDbSymbolTableRecord
100
AcDbLinetypeTableRecord
  2
ByLayer
 70
     0
  3

 72
    65
 73
     0
 40
0.0
  0
LTYPE
  5
64
330
5
100
AcDbSymbolTableRecord
100
AcDbLinetypeTableRecord
  2
CONTINUOUS
 70
     0
  3
Solid line
 72
    65
 73
     0
 40
0.0
  0
LTYPE
  5
78
330
5
100
AcDbSymbolTableRecord
100
AcDbLinetypeTableRecord
  2
DASHED
 70
     0
  3
Dashed line
 72
    65
 73
     2
 40
0.75
 49
0.5
 74
     0
 49
-0.25
 74
     0
  0
LTYPE
  5
79
330
5
100
AcDbSymbolTableRecord
100
AcDbLinetypeTableRecord
  2
CENTER
 70
     0
  3
Center line
 72
    65
 73
     4
 40
2.0
 49
1.25
 74
     0
 49
-0.25
 74
     0
 49
0.25
 74
     0
 49
-0.25
 74
     0
  0
LTYPE
  5
13E
330
5
100
AcDbSymbolTableRecord
100
AcDbLinetypeTableRecord
  2
HIDDEN
 70
     0
  3
Verdeckt
 72
    65
 73
     2
 40
0.375
 49
0.25
 74
     0
 49
-0.125
 74
     0
  0
LTYPE
  5
13F
330
5
100
AcDbSymbolTableRecord
100
AcDbLinetypeTableRecord
  2
PHANTOM2
 70
     0
  3
Phantom (.5x) ___ _ _ ___ _ _ ___ _ _ ___ _ _
 72
    65
 73
     6
 40
1.25
 49
0.625
 74
     0
 49
-0.125
 74
     0
 49
0.125
 74
     0
 49
-0.125
 74
     0
 49
0.125
 74
     0
 49
-0.125
 74
     0
  0
LTYPE
  5
183
330
5
100
AcDbSymbolTableRecord
100
AcDbLinetypeTableRecord
  2
ACANSTGB
 70
     0
  3
__ . . __ . .
 72
    65
 73
     6
 40
0.35433070866
 49
0.15748031496
 74
     0
 49
-0.03937007874
 74
     0
 49
0.03937007874
 74
     0
 49
-0.03937007874
 74
     0
 49
0.03937007874
 74
     0
 49
-0.03937007874
 74
     0
  0
LTYPE
  5
184
330
5
100
AcDbSymbolTableRecord
100
AcDbLinetypeTableRecord
  2
ACANSTGL
 70
     0
  3
_ _ _ _ _
 72
    65
 73
     2
 40
0.11811023622
 49
0.07874015748
 74
     0
 49
-0.03937007874
 74
     0
  0
LTYPE
  5
26A
330
5
100
AcDbSymbolTableRecord
100
AcDbLinetypeTableRecord
  2
ACDINWELD
 70
     0
  3
_ _ _ _ _
 72
    65
 73
     2
 40
2.0
 49
2.0
 74
     0
 49
-1.0
 74
     0
  0
LTYPE
  5
26B
330
5
100
AcDbSymbolTableRecord
100
AcDbLinetypeTableRecord
  2
ACDINTGB
 70
     0
  3
__ . . __ . .
 72
    65
 73
     6
 40
9.0
 49
4.0
 74
     0
 49
-1.0
 74
     0
 49
1.0
 74
     0
 49
-1.0
 74
     0
 49
1.0
 74
     0
 49
-1.0
 74
     0
  0
LTYPE
  5
26C
330
5
100
AcDbSymbolTableRecord
100
AcDbLinetypeTableRecord
  2
ACDINTGL
 70
     0
  3
_ _ _ _ _
 72
    65
 73
     2
 40
3.0
 49
2.0
 74
     0
 49
-1.0
 74
     0
  0
LTYPE
  5
2A6
330
5
100
AcDbSymbolTableRecord
100
AcDbLinetypeTableRecord
  2
Amconstr
 70
     0
  3
_______________________
 72
    65
 73
     2
 40
9999.0
 49
9999.0
 74
     0
 49
0.0
 74
     0
  0
LTYPE
  5
2A7
330
5
100
AcDbSymbolTableRecord
100
AcDbLinetypeTableRecord
  2
Amzigzag
 70
     0
  3
/\/-/\/-/\/-/\/-/\/-/\/
 72
    65
 73
     2
 40
11.0001
 49
0.0001
 74
     4
 75
   136
340
2A8
 46
0.04
 50
0.0
 44
0.0
 45
0.0
 49
-11.0
 74
     0
  0
LTYPE
  5
38A
330
5
100
AcDbSymbolTableRecord
100
AcDbLinetypeTableRecord
  2
HIDDEN2
 70
     0
  3
Hidden (.5x) _ _ _ _ _ _ _ _ _ _ _ _ _ _ _ _ _
 72
    65
 73
     2
 40
0.1875
 49
0.125
 74
     0
 49
-0.0625
 74
     0
  0
LTYPE
  5
38B
330
5
100
AcDbSymbolTableRecord
100
AcDbLinetypeTableRecord
  2
CENTER2
 70
     0
  3
Center (.5x) ___ _ ___ _ ___ _ ___ _ ___ _ ___
 72
    65
 73
     4
 40
1.125
 49
0.75
 74
     0
 49
-0.125
 74
     0
 49
0.125
 74
     0
 49
-0.125
 74
     0
  0
LTYPE
  5
3C3
330
5
100
AcDbSymbolTableRecord
100
AcDbLinetypeTableRecord
  2
AM_ISO02W050
 70
     0
  3
__ __ __ __ __ __ __ __ __ __ __ __ __ __ __
 72
    65
 73
     2
 40
7.5
 49
6.0
 74
     0
 49
-1.5
 74
     0
  0
LTYPE
  5
3C4
330
5
100
AcDbSymbolTableRecord
100
AcDbLinetypeTableRecord
  2
AM_ISO08W050
 70
     0
  3
____ . ____ . ____ . ____ . ____ . ____ . ____
 72
    65
 73
     4
 40
18.0
 49
12.0
 74
     0
 49
-1.5
 74
     0
 49
3.0
 74
     0
 49
-1.5
 74
     0
  0
LTYPE
  5
3C5
330
5
100
AcDbSymbolTableRecord
100
AcDbLinetypeTableRecord
  2
AM_ISO09W050
 70
     0
  3
_____ . . _____ . . _____ . . ____ .. ____
 72
    65
 73
     6
 40
22.5
 49
12.0
 74
     0
 49
-1.5
 74
     0
 49
3.0
 74
     0
 49
-1.5
 74
     0
 49
3.0
 74
     0
 49
-1.5
 74
     0
  0
LTYPE
  5
3C6
330
5
100
AcDbSymbolTableRecord
100
AcDbLinetypeTableRecord
  2
AM_ISO08W050x2
 70
     0
  3
__ . __ . __ . __ . __ . __
 72
    65
 73
     4
 40
9.0
 49
6.0
 74
     0
 49
-0.75
 74
     0
 49
1.5
 74
     0
 49
-0.75
 74
     0
  0
LTYPE
  5
3C7
330
5
100
AcDbSymbolTableRecord
100
AcDbLinetypeTableRecord
  2
AM_ISO02W050x2
 70
     0
  3
 _ _ _ _ _ _ _ _ _ _ _ _
 72
    65
 73
     2
 40
3.75
 49
3.0
 74
     0
 49
-0.75
 74
     0
  0
LTYPE
  5
3C8
330
5
100
AcDbSymbolTableRecord
100
AcDbLinetypeTableRecord
  2
ACISOWELD
 70
     0
  3
_ _ _ _ _
 72
    65
 73
     2
 40
2.0
 49
2.0
 74
     0
 49
-1.0
 74
     0
  0
LTYPE
  5
3C9
330
5
100
AcDbSymbolTableRecord
100
AcDbLinetypeTableRecord
  2
ACISOTGB
 70
     0
  3
__ . . __ . .
 72
    65
 73
     6
 40
9.0
 49
4.0
 74
     0
 49
-1.0
 74
     0
 49
1.0
 74
     0
 49
-1.0
 74
     0
 49
1.0
 74
     0
 49
-1.0
 74
     0
  0
LTYPE
  5
3CA
330
5
100
AcDbSymbolTableRecord
100
AcDbLinetypeTableRecord
  2
ACISOTGL
 70
     0
  3
_ _ _ _ _
 72
    65
 73
     2
 40
3.0
 49
2.0
 74
     0
 49
-1.0
 74
     0
  0
ENDTAB
  0
TABLE
  2
LAYER
  5
2
102
{ACAD_XDICTIONARY
360
256
102
}
330
0
100
AcDbSymbolTable
 70
    38
  0
LAYER
  5
5C
102
{ACAD_XDICTIONARY
360
1A2
102
}
330
2
100
AcDbSymbolTableRecord
100
AcDbLayerTableRecord
  2
0
 70
     0
 62
     7
  6
CONTINUOUS
370
    -3
390
F
  0
LAYER
  5
24D
102
{ACAD_XDICTIONARY
360
2C3
102
}
330
2
100
AcDbSymbolTableRecord
100
AcDbLayerTableRecord
  2
AM_PAREF ( Teilereferenz)
 70
     0
 62
     4
  6
CONTINUOUS
290
     0
370
    25
390
F
1001
AcAecLayerStandard
1000

1000

  0
LAYER
  5
255
102
{ACAD_XDICTIONARY
360
2C5
102
}
330
2
100
AcDbSymbolTableRecord
100
AcDbLayerTableRecord
  2
AM_0
 70
     0
 62
     7
  6
CONTINUOUS
370
    30
390
F
1001
AcAecLayerStandard
1000

1000

  0
LAYER
  5
27F
102
{ACAD_XDICTIONARY
360
2C7
102
}
330
2
100
AcDbSymbolTableRecord
100
AcDbLayerTableRecord
  2
Defpoints
 70
     0
 62
     7
  6
CONTINUOUS
290
     0
370
    -3
390
F
  0
LAYER
  5
2AA
102
{ACAD_XDICTIONARY
360
2C9
102
}
330
2
100
AcDbSymbolTableRecord
100
AcDbLayerTableRecord
  2
AM_3 ( Verdeckt )
 70
     0
 62
     6
  6
AM_ISO02W050
370
    25
390
F
1001
AcAecLayerStandard
1000

1000

  0
LAYER
  5
2AC
102
{ACAD_XDICTIONARY
360
2CB
102
}
330
2
100
AcDbSymbolTableRecord
100
AcDbLayerTableRecord
  2
AM_7 (Mittellinie)
 70
     0
 62
     4
  6
AM_ISO08W050
370
    25
390
F
1001
AcAecLayerStandard
1000

1000

  0
LAYER
  5
2AE
102
{ACAD_XDICTIONARY
360
2CD
102
}
330
2
100
AcDbSymbolTableRecord
100
AcDbLayerTableRecord
  2
AM_2 ( Kontur 0.25)
 70
     0
 62
     5
  6
CONTINUOUS
370
    25
390
F
1001
AcAecLayerStandard
1000

1000

  0
LAYER
  5
2B1
102
{ACAD_XDICTIONARY
360
2CF
102
}
330
2
100
AcDbSymbolTableRecord
100
AcDbLayerTableRecord
  2
AM_5 ( Bemassung)
 70
     0
 62
     3
  6
CONTINUOUS
370
    25
390
F
1001
AcAecLayerStandard
1000

1000

  0
LAYER
  5
9FC
102
{ACAD_XDICTIONARY
360
A1F
102
}
330
2
100
AcDbSymbolTableRecord
100
AcDbLayerTableRecord
  2
AM_0 ( Kontur 0.5 )
 70
     0
 62
     7
  6
CONTINUOUS
370
    50
390
F
1001
AcAecLayerStandard
1000

1000

  0
LAYER
  5
1B78
102
{ACAD_XDICTIONARY
360
1B79
102
}
330
2
100
AcDbSymbolTableRecord
100
AcDbLayerTableRecord
  2
240
 70
     0
 62
     7
  6
CONTINUOUS
370
    -3
390
F
  0
LAYER
  5
226F
330
2
100
AcDbSymbolTableRecord
100
AcDbLayerTableRecord
  2
AM_0N ( Normteile sichtbar)
 70
     0
 62
     7
  6
CONTINUOUS
370
    50
390
F
1001
AcAecLayerStandard
1000

1000

  0
LAYER
  5
2270
330
2
100
AcDbSymbolTableRecord
100
AcDbLayerTableRecord
  2
AM_9 ( Unsichbar)
 70
     0
 62
  -253
  6
CONTINUOUS
370
     0
390
F
1001
AcAecLayerStandard
1000

1000

  0
LAYER
  5
2274
330
2
100
AcDbSymbolTableRecord
100
AcDbLayerTableRecord
  2
AM_7N ( Normteile Mittelinien)
 70
     0
 62
     4
  6
CONTINUOUS
370
    25
390
F
1001
AcAecLayerStandard
1000

1000

  0
LAYER
  5
2278
330
2
100
AcDbSymbolTableRecord
100
AcDbLayerTableRecord
  2
AM_12N
 70
     0
 62
     7
  6
CONTINUOUS
290
     0
370
    50
390
F
1001
AcAecLayerStandard
1000

1000

  0
LAYER
  5
22DC
330
2
100
AcDbSymbolTableRecord
100
AcDbLayerTableRecord
  2
AM_9N ( Normteile verdeckt)
 70
     0
 62
  -253
  6
CONTINUOUS
370
     0
390
F
1001
AcAecLayerStandard
1000

1000

  0
ENDTAB
  0
TABLE
  2
STYLE
  5
3
330
0
100
AcDbSymbolTable
 70
    13
  0
STYLE
  5
5D
330
3
100
AcDbSymbolTableRecord
100
AcDbTextStyleTableRecord
  2
STANDARD
 70
     0
 40
0.0
 41
1.0
 50
0.0
 71
     0
 42
3.5
  3
ARIAL.TTF
  4

1001
ACAD
1000
Arial
1071
       34
  0
STYLE
  5
174
330
3
100
AcDbSymbolTableRecord
100
AcDbTextStyleTableRecord
  2
ACANSTS
 70
     0
 40
1.0
 41
1.0
 50
0.0
 71
     0
 42
3.5
  3
romans.shx
  4

  0
STYLE
  5
182
330
3
100
AcDbSymbolTableRecord
100
AcDbTextStyleTableRecord
  2
ACANSGDT
 70
     0
 40
0.0
 41
1.0
 50
0.0
 71
     0
 42
3.5
  3
amgdt.shx
  4

  0
STYLE
  5
25A
330
3
100
AcDbSymbolTableRecord
100
AcDbTextStyleTableRecord
  2
ACDINTS
 70
     0
 40
1.0
 41
1.0
 50
0.0
 71
     0
 42
3.5
  3
isocp.shx
  4

  0
STYLE
  5
269
330
3
100
AcDbSymbolTableRecord
100
AcDbTextStyleTableRecord
  2
ACDINGDT
 70
     0
 40
0.0
 41
1.0
 50
0.0
 71
     0
 42
3.5
  3
amgdt.shx
  4

  0
STYLE
  5
2A8
330
3
100
AcDbSymbolTableRecord
100
AcDbTextStyleTableRecord
  2

 70
     1
 40
0.0
 41
1.0
 50
0.0
 71
     0
 42
2.5
  3
genltshp.shx
  4

  0
STYLE
  5
3CB
330
3
100
AcDbSymbolTableRecord
100
AcDbTextStyleTableRecord
  2
ACISOTS
 70
     0
 40
1.0
 41
1.0
 50
0.0
 71
     0
 42
2.5
  3
Arialn.ttf
  4

1001
ACAD
1000
Arial Narrow
1071
       34
  0
STYLE
  5
3CC
330
3
100
AcDbSymbolTableRecord
100
AcDbTextStyleTableRecord
  2
ACISOGDT
 70
     0
 40
0.0
 41
1.0
 50
0.0
 71
     0
 42
2.5
  3
amgdt.shx
  4

  0
ENDTAB
  0
TABLE
  2
VIEW
  5
6
330
0
100
AcDbSymbolTable
 70
     6
  0
VIEW
  5
51B
330
6
100
AcDbSymbolTableRecord
100
AcDbViewTableRecord
  2
AM_VIEW1
 70
     0
 40
420.0
 10
303.1084337349396
 20
630.0
 41
606.2168674698795
 11
0.0
 21
0.0
 31
1.0
 12
0.0
 22
0.0
 32
0.0
 42
50.0
 43
0.0
 44
0.0
 50
0.0
 71
     0
281
     0
 72
     0
  0
VIEW
  5
51C
330
6
100
AcDbSymbolTableRecord
100
AcDbViewTableRecord
  2
AM_VIEW2
 70
     0
 40
420.0
 10
884.8915662650602
 20
630.0
 41
606.2168674698795
 11
0.0
 21
0.0
 31
1.0
 12
0.0
 22
0.0
 32
0.0
 42
50.0
 43
0.0
 44
0.0
 50
0.0
 71
     0
281
     0
 72
     0
  0
VIEW
  5
51D
330
6
100
AcDbSymbolTableRecord
100
AcDbViewTableRecord
  2
AM_VIEW3
 70
     0
 40
420.0
 10
303.1084337349396
 20
210.0
 41
606.2168674698795
 11
0.0
 21
0.0
 31
1.0
 12
0.0
 22
0.0
 32
0.0
 42
50.0
 43
0.0
 44
0.0
 50
0.0
 71
     0
281
     0
 72
     0
  0
VIEW
  5
51E
330
6
100
AcDbSymbolTableRecord
100
AcDbViewTableRecord
  2
AM_VIEW4
 70
     0
 40
420.0
 10
884.8915662650602
 20
210.0
 41
606.2168674698795
 11
0.0
 21
0.0
 31
1.0
 12
0.0
 22
0.0
 32
0.0
 42
50.0
 43
0.0
 44
0.0
 50
0.0
 71
     0
281
     0
 72
     0
  0
VIEW
  5
51F
330
6
100
AcDbSymbolTableRecord
100
AcDbViewTableRecord
  2
AM_VIEW5
 70
     0
 40
420.0
 10
593.9999999999998
 20
420.0
 41
606.2168674698794
 11
0.0
 21
0.0
 31
1.0
 12
0.0
 22
0.0
 32
0.0
 42
50.0
 43
0.0
 44
0.0
 50
0.0
 71
     0
281
     0
 72
     0
  0
VIEW
  5
520
330
6
100
AcDbSymbolTableRecord
100
AcDbViewTableRecord
  2
AM_VIEW6
 70
     0
 40
839.9916000000001
 10
594.0
 20
420.0
 41
1212.421610602409
 11
0.0
 21
0.0
 31
1.0
 12
0.0
 22
0.0
 32
0.0
 42
50.0
 43
0.0
 44
0.0
 50
0.0
 71
     0
281
     0
 72
     0
  0
ENDTAB
  0
TABLE
  2
UCS
  5
7
330
0
100
AcDbSymbolTable
 70
     0
  0
ENDTAB
  0
TABLE
  2
APPID
  5
9
330
0
100
AcDbSymbolTable
 70
    82
  0
APPID
  5
5E
330
9
100
AcDbSymbolTableRecord
100
AcDbRegAppTableRecord
  2
ACAD
 70
     0
  0
APPID
  5
65
330
9
100
AcDbSymbolTableRecord
100
AcDbRegAppTableRecord
  2
AcadAnnotative
 70
     0
  0
APPID
  5
6F
330
9
100
AcDbSymbolTableRecord
100
AcDbRegAppTableRecord
  2
ACAD_MLEADERVER
 70
     0
  0
APPID
  5
111
330
9
100
AcDbSymbolTableRecord
100
AcDbRegAppTableRecord
  2
MCAD_NO_VIS
 70
     0
  0
APPID
  5
112
330
9
100
AcDbSymbolTableRecord
100
AcDbRegAppTableRecord
  2
ACAD_TEMP_GRAPHIC
 70
     0
  0
APPID
  5
141
330
9
100
AcDbSymbolTableRecord
100
AcDbRegAppTableRecord
  2
AD_DRAW
 70
     0
  0
APPID
  5
144
330
9
100
AcDbSymbolTableRecord
100
AcDbRegAppTableRecord
  2
ACATTRIBSERVICES
 70
     0
  0
APPID
  5
165
330
9
100
AcDbSymbolTableRecord
100
AcDbRegAppTableRecord
  2
DESIGNERASSEMBLIES
 70
     0
  0
APPID
  5
16B
330
9
100
AcDbSymbolTableRecord
100
AcDbRegAppTableRecord
  2
ACADM_DIM_EDIT
 70
     0
  0
APPID
  5
16C
330
9
100
AcDbSymbolTableRecord
100
AcDbRegAppTableRecord
  2
AMDT_DM_ADJ
 70
     0
  0
APPID
  5
1C8
330
9
100
AcDbSymbolTableRecord
100
AcDbRegAppTableRecord
  2
ACAD_DSTYLE_DIMARC_LENGTH_SYMBOL
 70
     0
  0
APPID
  5
24A
330
9
100
AcDbSymbolTableRecord
100
AcDbRegAppTableRecord
  2
AcAecLayerStandard
 70
     0
  0
APPID
  5
280
330
9
100
AcDbSymbolTableRecord
100
AcDbRegAppTableRecord
  2
ACAD_DSTYLE_DIMJOGGED_JOGANGLE_SYMBOL
 70
     0
  0
APPID
  5
281
330
9
100
AcDbSymbolTableRecord
100
AcDbRegAppTableRecord
  2
AcadAnnoPO
 70
     0
  0
APPID
  5
282
330
9
100
AcDbSymbolTableRecord
100
AcDbRegAppTableRecord
  2
ACAD_EXEMPT_FROM_CAD_STANDARDS
 70
     0
  0
APPID
  5
283
330
9
100
AcDbSymbolTableRecord
100
AcDbRegAppTableRecord
  2
GENIUS_GENODEF_13
 70
     0
  0
APPID
  5
284
330
9
100
AcDbSymbolTableRecord
100
AcDbRegAppTableRecord
  2
GENIUS_GENOBJ-N-CRS_13
 70
     0
  0
APPID
  5
285
330
9
100
AcDbSymbolTableRecord
100
AcDbRegAppTableRecord
  2
GENIUS_GENOENT_13
 70
     0
  0
APPID
  5
286
330
9
100
AcDbSymbolTableRecord
100
AcDbRegAppTableRecord
  2
GENIUS_GENOLIS_13
 70
     0
  0
APPID
  5
287
330
9
100
AcDbSymbolTableRecord
100
AcDbRegAppTableRecord
  2
GENIUS_GENOREF_13
 70
     0
  0
APPID
  5
288
330
9
100
AcDbSymbolTableRecord
100
AcDbRegAppTableRecord
  2
GEVID1190879659
 70
     0
  0
APPID
  5
289
330
9
100
AcDbSymbolTableRecord
100
AcDbRegAppTableRecord
  2
GEVDC
 70
     0
  0
APPID
  5
28A
330
9
100
AcDbSymbolTableRecord
100
AcDbRegAppTableRecord
  2
GENIUS_GENBH_13
 70
     0
  0
APPID
  5
28B
330
9
100
AcDbSymbolTableRecord
100
AcDbRegAppTableRecord
  2
GENIUS_GENOBJ-NBEHI-BHF_13
 70
     0
  0
APPID
  5
28C
330
9
100
AcDbSymbolTableRecord
100
AcDbRegAppTableRecord
  2
GENIUS_GENOBJ-NBEHI-BHB_13
 70
     0
  0
APPID
  5
28D
330
9
100
AcDbSymbolTableRecord
100
AcDbRegAppTableRecord
  2
GEVID1190879660
 70
     0
  0
APPID
  5
28E
330
9
100
AcDbSymbolTableRecord
100
AcDbRegAppTableRecord
  2
GEVID1190879661
 70
     0
  0
APPID
  5
28F
330
9
100
AcDbSymbolTableRecord
100
AcDbRegAppTableRecord
  2
ACAD_DSTYLE_DIMRADIAL_EXTENSION
 70
     0
  0
APPID
  5
290
330
9
100
AcDbSymbolTableRecord
100
AcDbRegAppTableRecord
  2
GEVID1190879662
 70
     0
  0
APPID
  5
291
330
9
100
AcDbSymbolTableRecord
100
AcDbRegAppTableRecord
  2
GEVID1190879663
 70
     0
  0
APPID
  5
292
330
9
100
AcDbSymbolTableRecord
100
AcDbRegAppTableRecord
  2
GEVID1190879664
 70
     0
  0
APPID
  5
293
330
9
100
AcDbSymbolTableRecord
100
AcDbRegAppTableRecord
  2
GEVID1190879665
 70
     0
  0
APPID
  5
294
330
9
100
AcDbSymbolTableRecord
100
AcDbRegAppTableRecord
  2
GEVID1190879666
 70
     0
  0
APPID
  5
295
330
9
100
AcDbSymbolTableRecord
100
AcDbRegAppTableRecord
  2
GENIUS_GENOBJ-N-CEN_13
 70
     0
  0
APPID
  5
296
330
9
100
AcDbSymbolTableRecord
100
AcDbRegAppTableRecord
  2
GENIUS_GENCEN_19
 70
     0
  0
APPID
  5
297
330
9
100
AcDbSymbolTableRecord
100
AcDbRegAppTableRecord
  2
GEVID1190879667
 70
     0
  0
APPID
  5
298
330
9
100
AcDbSymbolTableRecord
100
AcDbRegAppTableRecord
  2
GENIUS_GENOBJ-N-CRC_13
 70
     0
  0
APPID
  5
299
330
9
100
AcDbSymbolTableRecord
100
AcDbRegAppTableRecord
  2
GENIUS_GENCRC_14
 70
     0
  0
APPID
  5
29A
330
9
100
AcDbSymbolTableRecord
100
AcDbRegAppTableRecord
  2
ACAD_PSEXT
 70
     0
  0
APPID
  5
29B
330
9
100
AcDbSymbolTableRecord
100
AcDbRegAppTableRecord
  2
GEVID1190888456
 70
     0
  0
APPID
  5
29C
330
9
100
AcDbSymbolTableRecord
100
AcDbRegAppTableRecord
  2
GEVID1190888457
 70
     0
  0
APPID
  5
29D
330
9
100
AcDbSymbolTableRecord
100
AcDbRegAppTableRecord
  2
GEVID1190888458
 70
     0
  0
APPID
  5
29E
330
9
100
AcDbSymbolTableRecord
100
AcDbRegAppTableRecord
  2
GEVID1190888459
 70
     0
  0
APPID
  5
29F
330
9
100
AcDbSymbolTableRecord
100
AcDbRegAppTableRecord
  2
GEVID1190888460
 70
     0
  0
APPID
  5
2A0
330
9
100
AcDbSymbolTableRecord
100
AcDbRegAppTableRecord
  2
GEVID1190888461
 70
     0
  0
APPID
  5
2A1
330
9
100
AcDbSymbolTableRecord
100
AcDbRegAppTableRecord
  2
GEVID1190888462
 70
     0
  0
APPID
  5
2A2
330
9
100
AcDbSymbolTableRecord
100
AcDbRegAppTableRecord
  2
ACAD_DSTYLE_DIMJAG
 70
     0
  0
APPID
  5
2A3
330
9
100
AcDbSymbolTableRecord
100
AcDbRegAppTableRecord
  2
ACAD_DSTYLE_DIMTALN
 70
     0
  0
APPID
  5
390
330
9
100
AcDbSymbolTableRecord
100
AcDbRegAppTableRecord
  2
GENIUS_GENBLLY_14
 70
     0
  0
APPID
  5
3D5
330
9
100
AcDbSymbolTableRecord
100
AcDbRegAppTableRecord
  2
DCO15
 70
     0
  0
APPID
  5
3D6
330
9
100
AcDbSymbolTableRecord
100
AcDbRegAppTableRecord
  2
GENIUS_GENREC_14
 70
     0
  0
APPID
  5
3D7
330
9
100
AcDbSymbolTableRecord
100
AcDbRegAppTableRecord
  2
GENIUS_GENOBJ-N-REC_13
 70
     0
  0
APPID
  5
519
330
9
100
AcDbSymbolTableRecord
100
AcDbRegAppTableRecord
  2
GENIUS_GENOBJ-N-TIT_13
 70
     0
  0
APPID
  5
51A
330
9
100
AcDbSymbolTableRecord
100
AcDbRegAppTableRecord
  2
GENIUS_GENTITLE_13
 70
     0
  0
APPID
  5
521
330
9
100
AcDbSymbolTableRecord
100
AcDbRegAppTableRecord
  2
GENIUS_GENSCREG_15
 70
     0
  0
APPID
  5
522
330
9
100
AcDbSymbolTableRecord
100
AcDbRegAppTableRecord
  2
GENIUS_GENOBJ-N-SDF_13
 70
     0
  0
APPID
  5
5BA
330
9
100
AcDbSymbolTableRecord
100
AcDbRegAppTableRecord
  2
ACAD_DSTYLE_DIMINSPECT
 70
     0
  0
APPID
  5
986
330
9
100
AcDbSymbolTableRecord
100
AcDbRegAppTableRecord
  2
GENIUS_GENDIMSH_14
 70
     0
  0
APPID
  5
AFA
330
9
100
AcDbSymbolTableRecord
100
AcDbRegAppTableRecord
  2
GENIUS_GENOBJ-N-HTC_13
 70
     0
  0
APPID
  5
AFB
330
9
100
AcDbSymbolTableRecord
100
AcDbRegAppTableRecord
  2
GENIUS_GENHATCH_13
 70
     0
  0
APPID
  5
B3E
330
9
100
AcDbSymbolTableRecord
100
AcDbRegAppTableRecord
  2
ACAUTHENVIRON
 70
     0
  0
APPID
  5
B42
330
9
100
AcDbSymbolTableRecord
100
AcDbRegAppTableRecord
  2
AcDbDynamicBlockTrueName
 70
     0
  0
APPID
  5
B43
330
9
100
AcDbSymbolTableRecord
100
AcDbRegAppTableRecord
  2
AcDbDynamicBlockGUID
 70
     0
  0
APPID
  5
B45
330
9
100
AcDbSymbolTableRecord
100
AcDbRegAppTableRecord
  2
ACDBBLOCKREPETAG
 70
     0
  0
APPID
  5
1B7A
330
9
100
AcDbSymbolTableRecord
100
AcDbRegAppTableRecord
  2
GENIUS_GEFWELD_13
 70
     0
  0
APPID
  5
1B7B
330
9
100
AcDbSymbolTableRecord
100
AcDbRegAppTableRecord
  2
GENIUS_GENOBJ-F-WELS_13
 70
     0
  0
APPID
  5
1B7C
330
9
100
AcDbSymbolTableRecord
100
AcDbRegAppTableRecord
  2
GENIUS_GENOBJ-N-ZOO_13
 70
     0
  0
APPID
  5
1B7D
330
9
100
AcDbSymbolTableRecord
100
AcDbRegAppTableRecord
  2
GENIUS_GENZOO_17
 70
     0
  0
APPID
  5
226D
330
9
100
AcDbSymbolTableRecord
100
AcDbRegAppTableRecord
  2
GEVID1221471218
 70
     0
  0
APPID
  5
227D
330
9
100
AcDbSymbolTableRecord
100
AcDbRegAppTableRecord
  2
GENIUS_GENCFG_13
 70
     0
1001
GENIUS_GENCFG0_13
1000
GEN
  0
APPID
  5
227E
330
9
100
AcDbSymbolTableRecord
100
AcDbRegAppTableRecord
  2
GENIUS_GENCFG0_13
 70
     0
1001
GENIUS_GENCFG_13
1071
1221473300
1000
227E
1000
GEN
1070
     0
  0
APPID
  5
227F
330
9
100
AcDbSymbolTableRecord
100
AcDbRegAppTableRecord
  2
GEVID1221471219
 70
     0
  0
APPID
  5
22A8
330
9
100
AcDbSymbolTableRecord
100
AcDbRegAppTableRecord
  2
GEVID1221471221
 70
     0
  0
APPID
  5
22C4
330
9
100
AcDbSymbolTableRecord
100
AcDbRegAppTableRecord
  2
GEVID1221471223
 70
     0
  0
APPID
  5
22FD
330
9
100
AcDbSymbolTableRecord
100
AcDbRegAppTableRecord
  2
GEVID1221471225
 70
     0
  0
APPID
  5
230C
330
9
100
AcDbSymbolTableRecord
100
AcDbRegAppTableRecord
  2
GEVID1221471226
 70
     0
  0
APPID
  5
246E
330
9
100
AcDbSymbolTableRecord
100
AcDbRegAppTableRecord
  2
GENIUS_GENDTOL_13
 70
     0
  0
APPID
  5
25CD
330
9
100
AcDbSymbolTableRecord
100
AcDbRegAppTableRecord
  2
GEVID1221471227
 70
     0
  0
APPID
  5
25D5
330
9
100
AcDbSymbolTableRecord
100
AcDbRegAppTableRecord
  2
GEVID1221471228
 70
     0
  0
APPID
  5
25DD
330
9
100
AcDbSymbolTableRecord
100
AcDbRegAppTableRecord
  2
GEVID1221471229
 70
     0
  0
APPID
  5
25DE
330
9
100
AcDbSymbolTableRecord
100
AcDbRegAppTableRecord
  2
GEVMK
 70
     0
  0
APPID
  5
39BF
330
9
100
AcDbSymbolTableRecord
100
AcDbRegAppTableRecord
  2
AcDbAttr
 70
     0
  0
ENDTAB
  0
TABLE
  2
DIMSTYLE
  5
A
330
0
100
AcDbSymbolTable
 70
    26
100
AcDbDimStyleTable
 71
     4
340
276
340
27B
340
27C
340
3CE
  0
DIMSTYLE
105
18F
330
A
100
AcDbSymbolTableRecord
100
AcDbDimStyleTableRecord
  2
AM_ANSI
 70
     0
  4
mm
 41
0.1
 42
0.05
 43
0.5
 44
0.1
 47
0.1
 48
0.1
 78
     7
 79
     2
140
0.12
141
0.0
146
0.71
147
0.06
176
   256
177
   256
178
     2
274
     4
284
     7
340
5D
371
    -1
372
    -1
1001
ACAD_DSTYLE_DIMARC_LENGTH_SYMBOL
1070
   379
1070
     1
  0
DIMSTYLE
105
190
330
A
100
AcDbSymbolTableRecord
100
AcDbDimStyleTableRecord
  2
AM_ANSI$3
 70
     0
  4
mm
 41
0.1
 42
0.05
 43
0.5
 44
0.1
 47
0.1
 48
0.1
 78
     7
 79
     2
140
0.12
141
0.0
146
0.71
147
0.06
176
   256
177
   256
178
     2
274
     4
284
     7
288
     1
289
     0
340
5D
371
    -1
372
    -1
1001
ACAD_DSTYLE_DIMARC_LENGTH_SYMBOL
1070
   379
1070
     1
  0
DIMSTYLE
105
191
330
A
100
AcDbSymbolTableRecord
100
AcDbDimStyleTableRecord
  2
AM_ANSI$4
 70
     0
  4
mm
 41
0.1
 42
0.05
 43
0.5
 44
0.1
 47
0.1
 48
0.1
 78
     7
 79
     2
140
0.12
141
0.0
146
0.71
147
0.06
176
   256
177
   256
178
     2
274
     4
284
     7
288
     1
289
     0
340
5D
371
    -1
372
    -1
1001
ACAD_DSTYLE_DIMARC_LENGTH_SYMBOL
1070
   379
1070
     1
  0
DIMSTYLE
105
192
330
A
100
AcDbSymbolTableRecord
100
AcDbDimStyleTableRecord
  2
AM_ANSI$7
 70
     0
  4
mm
 41
0.1
 42
0.05
 43
0.5
 44
0.1
 47
0.1
 48
0.1
 78
     7
 79
     2
140
0.24
141
0.0
146
0.71
147
0.06
176
   256
177
   256
178
     2
274
     4
284
     7
340
5D
371
    -1
372
    -1
1001
ACAD_DSTYLE_DIMARC_LENGTH_SYMBOL
1070
   379
1070
     1
  0
DIMSTYLE
105
193
330
A
100
AcDbSymbolTableRecord
100
AcDbDimStyleTableRecord
  2
AM_ANSI$SF
 70
     0
  4
mm
 41
0.1
 42
0.05
 43
0.5
 44
0.1
 47
0.1
 48
0.1
 75
     1
 76
     1
 78
     7
 79
     2
140
0.12
141
0.0
146
0.71
147
0.06
176
   256
177
   256
178
     2
274
     4
284
     7
340
5D
371
    -1
372
    -1
1001
ACAD_DSTYLE_DIMARC_LENGTH_SYMBOL
1070
   379
1070
     1
  0
DIMSTYLE
105
198
330
A
100
AcDbSymbolTableRecord
100
AcDbDimStyleTableRecord
  2
AM_ANSI$SH
 70
     0
  4
mm
 41
0.1
 42
0.05
 43
0.5
 44
0.1
 47
0.1
 48
0.1
 75
     1
 76
     1
 78
     7
 79
     2
140
0.12
141
0.0
146
0.71
147
0.06
173
     1
176
   256
177
   256
178
     2
274
     4
284
     7
340
5D
343
194
371
    -1
372
    -1
1001
ACAD_DSTYLE_DIMARC_LENGTH_SYMBOL
1070
   379
1070
     1
  0
DIMSTYLE
105
276
102
{ACAD_REACTORS
330
259
102
}
330
A
100
AcDbSymbolTableRecord
100
AcDbDimStyleTableRecord
  2
AM_DIN
 70
     0
  4
"
 40
2.0
 41
5.0
 42
1.0
 43
10.0
 44
1.0
 47
0.1
 48
0.1
 73
     0
 74
     0
 77
     1
 78
     8
 79
     2
140
5.0
141
0.0
143
0.0393701
146
0.71
147
1.5
172
     1
176
   256
177
   256
178
     2
271
     2
272
     2
283
     0
284
     8
340
5D
371
    -1
372
    -1
1001
ACAD_DSTYLE_DIMJAG
1070
   388
1040
1.5
1001
ACAD_DSTYLE_DIMTALN
1070
   392
1070
     0
1001
ACAD_DSTYLE_DIMJOGGED_JOGANGLE_SYMBOL
1070
   384
1040
1.570796326794896
  0
DIMSTYLE
105
277
330
A
100
AcDbSymbolTableRecord
100
AcDbDimStyleTableRecord
  2
AM_DIN$3
 70
     0
  4
"
 40
2.0
 41
3.5
 42
1.0
 43
10.0
 44
1.0
 47
0.1
 48
0.1
 73
     0
 77
     1
 78
     8
 79
     2
140
3.5
141
0.0
143
0.0393701
146
0.71
147
1.5
176
   256
177
   256
178
     2
271
     2
272
     2
283
     0
284
     8
288
     1
289
     0
340
5D
371
    -1
372
    -1
1001
ACAD_DSTYLE_DIMJOGGED_JOGANGLE_SYMBOL
1070
   384
1040
1.570796326794896
  0
DIMSTYLE
105
278
330
A
100
AcDbSymbolTableRecord
100
AcDbDimStyleTableRecord
  2
AM_DIN$4
 70
     0
  4
"
 40
2.0
 41
4.0
 42
1.0
 43
10.0
 44
1.0
 47
0.1
 48
0.1
 73
     0
 77
     1
 78
     8
 79
     2
140
3.5
141
0.0
143
0.0393701
146
0.71
147
1.5
176
   256
177
   256
178
     2
271
     2
272
     2
283
     0
284
     8
288
     1
289
     0
340
5D
371
    -1
372
    -1
1001
ACAD_DSTYLE_DIMJOGGED_JOGANGLE_SYMBOL
1070
   384
1040
1.570796326794896
  0
DIMSTYLE
105
279
330
A
100
AcDbSymbolTableRecord
100
AcDbDimStyleTableRecord
  2
AM_DIN$6
 70
     0
  4
"
 40
2.0
 41
4.0
 42
0.0
 43
10.0
 44
1.0
 47
0.1
 48
0.1
 73
     0
 74
     0
 78
     8
 79
     2
140
3.5
141
0.0
143
0.0393701
146
0.71
147
1.5
172
     1
176
   256
177
   256
178
     2
271
     2
272
     2
283
     0
284
     8
340
5D
371
    -1
372
    -1
1001
ACAD_DSTYLE_DIMJOGGED_JOGANGLE_SYMBOL
1070
   384
1040
1.570796326794896
  0
DIMSTYLE
105
27A
330
A
100
AcDbSymbolTableRecord
100
AcDbDimStyleTableRecord
  2
AM_DIN$7
 70
     0
  4
"
 40
2.0
 41
5.0
 42
1.0
 43
10.0
 44
1.0
 47
0.1
 48
0.1
 73
     0
 74
     0
 77
     1
 78
     8
 79
     2
140
5.0
141
0.0
143
0.0393701
146
0.71
147
1.5
172
     1
176
   256
177
   256
178
     2
271
     2
272
     2
283
     0
284
     8
340
5D
371
    -1
372
    -1
1001
ACAD_DSTYLE_DIMJOGGED_JOGANGLE_SYMBOL
1070
   384
1040
1.570796326794896
  0
DIMSTYLE
105
27B
330
A
100
AcDbSymbolTableRecord
100
AcDbDimStyleTableRecord
  2
AM_DIN$SF
 70
     0
  4
"
 41
4.0
 42
1.0
 43
10.0
 44
1.0
 47
0.1
 48
0.1
 73
     0
 74
     0
 75
     1
 76
     1
 77
     1
 78
     8
 79
     2
140
3.5
141
0.0
143
0.0393701
146
0.71
147
1.5
172
     1
176
   256
177
   256
178
     2
271
     2
272
     2
283
     0
284
     8
340
5D
371
    -1
372
    -1
1001
ACAD_DSTYLE_DIMJOGGED_JOGANGLE_SYMBOL
1070
   384
1040
1.570796326794896
  0
DIMSTYLE
105
27C
330
A
100
AcDbSymbolTableRecord
100
AcDbDimStyleTableRecord
  2
AM_DIN$SH
 70
     0
  4
"
 41
4.0
 42
1.0
 43
10.0
 44
1.0
 47
0.1
 48
0.1
 73
     0
 74
     0
 75
     1
 76
     1
 77
     1
 78
     8
 79
     2
140
3.5
141
0.0
143
0.0393701
144
2.0
146
0.71
147
1.5
172
     1
173
     1
176
   256
177
   256
178
     2
271
     2
272
     2
283
     0
284
     8
340
5D
343
194
371
    -1
372
    -1
1001
ACAD_DSTYLE_DIMJOGGED_JOGANGLE_SYMBOL
1070
   384
1040
1.570796326794896
  0
DIMSTYLE
105
32F
102
{ACAD_REACTORS
330
3080
330
3083
330
30AD
330
30B0
330
30B3
330
30B7
330
3132
330
3189
330
31E0
330
3207
330
322E
102
}
330
A
100
AcDbSymbolTableRecord
100
AcDbDimStyleTableRecord
  2
AM_DIN$0
 70
     0
  4
"
 40
2.0
 41
4.0
 42
0.0
 43
10.0
 44
1.0
 47
0.1
 48
0.1
 73
     0
 74
     0
 77
     1
 78
     8
 79
     2
140
3.5
141
0.0
143
0.0393701
146
0.71
147
1.5
172
     1
176
   256
177
   256
178
     2
271
     2
272
     2
283
     0
284
     8
340
5D
371
    -1
372
    -1
1001
ACAD_DSTYLE_DIMJOGGED_JOGANGLE_SYMBOL
1070
   384
1040
1.570796326794896
  0
DIMSTYLE
105
330
330
A
100
AcDbSymbolTableRecord
100
AcDbDimStyleTableRecord
  2
AM_DIN$2
 70
     0
  4
"
 40
2.0
 41
4.0
 42
0.0
 43
10.0
 44
1.0
 47
0.1
 48
0.1
 73
     0
 74
     0
 77
     1
 78
     8
 79
     2
140
3.5
141
0.0
143
0.0393701
146
0.71
147
1.5
172
     1
176
   256
177
   256
178
     2
271
     2
272
     2
283
     0
284
     8
340
5D
371
    -1
372
    -1
1001
ACAD_DSTYLE_DIMJOGGED_JOGANGLE_SYMBOL
1070
   384
1040
1.570796326794896
  0
DIMSTYLE
105
3CE
330
A
100
AcDbSymbolTableRecord
100
AcDbDimStyleTableRecord
  2
AM_ISO
 70
     0
  4
"
 41
2.5
 42
1.0
 43
10.0
 44
1.0
 47
0.1
 48
0.1
 73
     0
 74
     0
 77
     1
 78
     8
 79
     2
140
3.5
141
0.0
143
0.0393701
146
0.71
147
1.5
172
     1
176
   256
177
   256
178
     2
271
     2
272
     3
274
     4
283
     0
284
     8
340
5D
371
    -1
372
    -1
1001
ACAD_DSTYLE_DIMJOGGED_JOGANGLE_SYMBOL
1070
   384
1040
0.7853981633974483
1001
ACAD_DSTYLE_DIMARC_LENGTH_SYMBOL
1070
   379
1070
     1
  0
DIMSTYLE
105
3CF
330
A
100
AcDbSymbolTableRecord
100
AcDbDimStyleTableRecord
  2
AM_ISO$3
 70
     0
  4
"
 41
2.5
 42
1.0
 43
10.0
 44
1.0
 47
0.1
 48
0.1
 73
     0
 77
     1
 78
     8
 79
     2
140
3.5
141
0.0
143
0.0393701
146
0.71
147
1.5
176
   256
177
   256
178
     2
271
     2
272
     3
274
     4
283
     0
284
     8
288
     1
289
     0
340
5D
371
    -1
372
    -1
1001
ACAD_DSTYLE_DIMJOGGED_JOGANGLE_SYMBOL
1070
   384
1040
0.7853981633974483
1001
ACAD_DSTYLE_DIMARC_LENGTH_SYMBOL
1070
   379
1070
     1
  0
DIMSTYLE
105
3D0
330
A
100
AcDbSymbolTableRecord
100
AcDbDimStyleTableRecord
  2
AM_ISO$4
 70
     0
  4
"
 41
2.5
 42
1.0
 43
10.0
 44
1.0
 47
0.1
 48
0.1
 73
     0
 77
     1
 78
     8
 79
     2
140
3.5
141
0.0
143
0.0393701
146
0.71
147
1.5
176
   256
177
   256
178
     2
271
     2
272
     3
274
     4
283
     0
284
     8
288
     1
289
     0
340
5D
371
    -1
372
    -1
1001
ACAD_DSTYLE_DIMJOGGED_JOGANGLE_SYMBOL
1070
   384
1040
0.7853981633974483
1001
ACAD_DSTYLE_DIMARC_LENGTH_SYMBOL
1070
   379
1070
     1
  0
DIMSTYLE
105
3D1
330
A
100
AcDbSymbolTableRecord
100
AcDbDimStyleTableRecord
  2
AM_ISO$6
 70
     0
  4
"
 41
2.5
 42
1.0
 43
10.0
 44
1.0
 47
0.1
 48
0.1
 73
     0
 74
     0
 78
     8
 79
     2
140
3.5
141
0.0
143
0.0393701
146
0.71
147
1.5
172
     1
176
   256
177
   256
178
     2
271
     2
272
     3
274
     4
283
     0
284
     8
340
5D
371
    -1
372
    -1
1001
ACAD_DSTYLE_DIMJOGGED_JOGANGLE_SYMBOL
1070
   384
1040
0.7853981633974483
1001
ACAD_DSTYLE_DIMARC_LENGTH_SYMBOL
1070
   379
1070
     1
  0
DIMSTYLE
105
3D2
330
A
100
AcDbSymbolTableRecord
100
AcDbDimStyleTableRecord
  2
AM_ISO$7
 70
     0
  4
"
 41
2.5
 42
1.0
 43
10.0
 44
1.0
 47
0.1
 48
0.1
 73
     0
 74
     0
 77
     1
 78
     8
 79
     2
140
5.0
141
0.0
143
0.0393701
146
0.71
147
1.5
172
     1
176
   256
177
   256
178
     2
271
     2
272
     3
274
     4
283
     0
284
     8
340
5D
371
    -1
372
    -1
1001
ACAD_DSTYLE_DIMJOGGED_JOGANGLE_SYMBOL
1070
   384
1040
0.7853981633974483
1001
ACAD_DSTYLE_DIMARC_LENGTH_SYMBOL
1070
   379
1070
     1
  0
DIMSTYLE
105
3D3
330
A
100
AcDbSymbolTableRecord
100
AcDbDimStyleTableRecord
  2
AM_ISO$SF
 70
     0
  4
"
 41
2.5
 42
1.0
 43
10.0
 44
1.0
 47
0.1
 48
0.1
 73
     0
 74
     0
 75
     1
 76
     1
 77
     1
 78
     8
 79
     2
140
3.5
141
0.0
143
0.0393701
146
0.71
147
1.5
172
     1
176
   256
177
   256
178
     2
271
     2
272
     3
274
     4
283
     0
284
     8
340
5D
371
    -1
372
    -1
1001
ACAD_DSTYLE_DIMJOGGED_JOGANGLE_SYMBOL
1070
   384
1040
0.7853981633974483
1001
ACAD_DSTYLE_DIMARC_LENGTH_SYMBOL
1070
   379
1070
     1
  0
DIMSTYLE
105
3D4
330
A
100
AcDbSymbolTableRecord
100
AcDbDimStyleTableRecord
  2
AM_ISO$SH
 70
     0
  4
"
 41
2.5
 42
1.0
 43
10.0
 44
1.0
 47
0.1
 48
0.1
 73
     0
 74
     0
 75
     1
 76
     1
 77
     1
 78
     8
 79
     2
140
3.5
141
0.0
143
0.0393701
144
2.0
146
0.71
147
1.5
172
     1
173
     1
176
   256
177
   256
178
     2
271
     2
272
     3
274
     4
283
     0
284
     8
340
5D
343
194
371
    -1
372
    -1
1001
ACAD_DSTYLE_DIMJOGGED_JOGANGLE_SYMBOL
1070
   384
1040
0.7853981633974483
1001
ACAD_DSTYLE_DIMARC_LENGTH_SYMBOL
1070
   379
1070
     1
  0
ENDTAB
  0
TABLE
  2
BLOCK_RECORD
  5
1
330
0
100
AcDbSymbolTable
 70
   181
  0
BLOCK_RECORD
  5
74
102
{ACAD_XDICTIONARY
360
A88
102
}
330
1
100
AcDbSymbolTableRecord
100
AcDbBlockTableRecord
  2
*Model_Space
340
77
  0
BLOCK_RECORD
  5
70
330
1
100
AcDbSymbolTableRecord
100
AcDbBlockTableRecord
  2
*Paper_Space
340
73
  0
BLOCK_RECORD
  5
194
330
1
100
AcDbSymbolTableRecord
100
AcDbBlockTableRecord
  2
GENAXEH
340
0
  0
BLOCK_RECORD
  5
30D9
330
1
100
AcDbSymbolTableRecord
100
AcDbBlockTableRecord
  2
*D98
340
0
  0
BLOCK_RECORD
  5
30E5
330
1
100
AcDbSymbolTableRecord
100
AcDbBlockTableRecord
  2
*D99
340
0
  0
BLOCK_RECORD
  5
30F1
330
1
100
AcDbSymbolTableRecord
100
AcDbBlockTableRecord
  2
*D100
340
0
  0
BLOCK_RECORD
  5
30FD
330
1
100
AcDbSymbolTableRecord
100
AcDbBlockTableRecord
  2
*D101
340
0
  0
BLOCK_RECORD
  5
3109
330
1
100
AcDbSymbolTableRecord
100
AcDbBlockTableRecord
  2
*D102
340
0
  0
BLOCK_RECORD
  5
3115
330
1
100
AcDbSymbolTableRecord
100
AcDbBlockTableRecord
  2
*D103
340
0
  0
BLOCK_RECORD
  5
3133
330
1
100
AcDbSymbolTableRecord
100
AcDbBlockTableRecord
  2
*D105
340
0
  0
BLOCK_RECORD
  5
318A
330
1
100
AcDbSymbolTableRecord
100
AcDbBlockTableRecord
  2
*D106
340
0
  0
BLOCK_RECORD
  5
31E1
330
1
100
AcDbSymbolTableRecord
100
AcDbBlockTableRecord
  2
*D107
340
0
  0
BLOCK_RECORD
  5
3208
330
1
100
AcDbSymbolTableRecord
100
AcDbBlockTableRecord
  2
*D108
340
0
  0
BLOCK_RECORD
  5
322F
330
1
100
AcDbSymbolTableRecord
100
AcDbBlockTableRecord
  2
*D109
340
0
  0
BLOCK_RECORD
  5
35C9
330
1
100
AcDbSymbolTableRecord
100
AcDbBlockTableRecord
  2
*D110
340
0
  0
BLOCK_RECORD
  5
35D7
330
1
100
AcDbSymbolTableRecord
100
AcDbBlockTableRecord
  2
*D111
340
0
  0
BLOCK_RECORD
  5
35E3
330
1
100
AcDbSymbolTableRecord
100
AcDbBlockTableRecord
  2
*D112
340
0
  0
BLOCK_RECORD
  5
35F1
330
1
100
AcDbSymbolTableRecord
100
AcDbBlockTableRecord
  2
*D113
340
0
  0
BLOCK_RECORD
  5
35FD
330
1
100
AcDbSymbolTableRecord
100
AcDbBlockTableRecord
  2
*D114
340
0
  0
BLOCK_RECORD
  5
360B
330
1
100
AcDbSymbolTableRecord
100
AcDbBlockTableRecord
  2
*D115
340
0
  0
BLOCK_RECORD
  5
3619
330
1
100
AcDbSymbolTableRecord
100
AcDbBlockTableRecord
  2
*D116
340
0
  0
BLOCK_RECORD
  5
3627
330
1
100
AcDbSymbolTableRecord
100
AcDbBlockTableRecord
  2
*D117
340
0
  0
BLOCK_RECORD
  5
3635
330
1
100
AcDbSymbolTableRecord
100
AcDbBlockTableRecord
  2
*D118
340
0
  0
BLOCK_RECORD
  5
3643
330
1
100
AcDbSymbolTableRecord
100
AcDbBlockTableRecord
  2
*D119
340
0
  0
BLOCK_RECORD
  5
3651
330
1
100
AcDbSymbolTableRecord
100
AcDbBlockTableRecord
  2
*D120
340
0
  0
BLOCK_RECORD
  5
365F
330
1
100
AcDbSymbolTableRecord
100
AcDbBlockTableRecord
  2
*D121
340
0
  0
BLOCK_RECORD
  5
3668
330
1
100
AcDbSymbolTableRecord
100
AcDbBlockTableRecord
  2
*D122
340
0
  0
BLOCK_RECORD
  5
3674
330
1
100
AcDbSymbolTableRecord
100
AcDbBlockTableRecord
  2
*D123
340
0
  0
BLOCK_RECORD
  5
3680
330
1
100
AcDbSymbolTableRecord
100
AcDbBlockTableRecord
  2
*D124
340
0
  0
BLOCK_RECORD
  5
368C
330
1
100
AcDbSymbolTableRecord
100
AcDbBlockTableRecord
  2
*D125
340
0
  0
BLOCK_RECORD
  5
3698
330
1
100
AcDbSymbolTableRecord
100
AcDbBlockTableRecord
  2
*D126
340
0
  0
BLOCK_RECORD
  5
36A4
330
1
100
AcDbSymbolTableRecord
100
AcDbBlockTableRecord
  2
*D127
340
0
  0
BLOCK_RECORD
  5
36B2
330
1
100
AcDbSymbolTableRecord
100
AcDbBlockTableRecord
  2
*D128
340
0
  0
BLOCK_RECORD
  5
36BE
330
1
100
AcDbSymbolTableRecord
100
AcDbBlockTableRecord
  2
*D129
340
0
  0
BLOCK_RECORD
  5
36CA
330
1
100
AcDbSymbolTableRecord
100
AcDbBlockTableRecord
  2
*D130
340
0
  0
BLOCK_RECORD
  5
36D8
330
1
100
AcDbSymbolTableRecord
100
AcDbBlockTableRecord
  2
*D131
340
0
  0
BLOCK_RECORD
  5
36E6
330
1
100
AcDbSymbolTableRecord
100
AcDbBlockTableRecord
  2
*D132
340
0
  0
BLOCK_RECORD
  5
36F2
330
1
100
AcDbSymbolTableRecord
100
AcDbBlockTableRecord
  2
*D133
340
0
  0
BLOCK_RECORD
  5
36FE
330
1
100
AcDbSymbolTableRecord
100
AcDbBlockTableRecord
  2
*D134
340
0
  0
BLOCK_RECORD
  5
370C
330
1
100
AcDbSymbolTableRecord
100
AcDbBlockTableRecord
  2
*D135
340
0
  0
BLOCK_RECORD
  5
371A
330
1
100
AcDbSymbolTableRecord
100
AcDbBlockTableRecord
  2
*D136
340
0
  0
BLOCK_RECORD
  5
3726
330
1
100
AcDbSymbolTableRecord
100
AcDbBlockTableRecord
  2
*D137
340
0
  0
BLOCK_RECORD
  5
3732
330
1
100
AcDbSymbolTableRecord
100
AcDbBlockTableRecord
  2
*D138
340
0
  0
BLOCK_RECORD
  5
373E
330
1
100
AcDbSymbolTableRecord
100
AcDbBlockTableRecord
  2
*D139
340
0
  0
BLOCK_RECORD
  5
374A
330
1
100
AcDbSymbolTableRecord
100
AcDbBlockTableRecord
  2
*D140
340
0
  0
BLOCK_RECORD
  5
3756
330
1
100
AcDbSymbolTableRecord
100
AcDbBlockTableRecord
  2
*D141
340
0
  0
BLOCK_RECORD
  5
3762
330
1
100
AcDbSymbolTableRecord
100
AcDbBlockTableRecord
  2
*D142
340
0
  0
BLOCK_RECORD
  5
376E
330
1
100
AcDbSymbolTableRecord
100
AcDbBlockTableRecord
  2
*D143
340
0
  0
BLOCK_RECORD
  5
377A
330
1
100
AcDbSymbolTableRecord
100
AcDbBlockTableRecord
  2
*D144
340
0
  0
BLOCK_RECORD
  5
38E8
330
1
100
AcDbSymbolTableRecord
100
AcDbBlockTableRecord
  2
*U145
340
0
  0
BLOCK_RECORD
  5
38F5
330
1
100
AcDbSymbolTableRecord
100
AcDbBlockTableRecord
  2
*U146
340
0
  0
BLOCK_RECORD
  5
3902
330
1
100
AcDbSymbolTableRecord
100
AcDbBlockTableRecord
  2
*U147
340
0
  0
BLOCK_RECORD
  5
390A
330
1
100
AcDbSymbolTableRecord
100
AcDbBlockTableRecord
  2
*U148
340
0
  0
BLOCK_RECORD
  5
3917
330
1
100
AcDbSymbolTableRecord
100
AcDbBlockTableRecord
  2
*U149
340
0
  0
BLOCK_RECORD
  5
391F
330
1
100
AcDbSymbolTableRecord
100
AcDbBlockTableRecord
  2
*U150
340
0
  0
BLOCK_RECORD
  5
392C
330
1
100
AcDbSymbolTableRecord
100
AcDbBlockTableRecord
  2
*U151
340
0
  0
BLOCK_RECORD
  5
3934
330
1
100
AcDbSymbolTableRecord
100
AcDbBlockTableRecord
  2
*U152
340
0
  0
BLOCK_RECORD
  5
3941
330
1
100
AcDbSymbolTableRecord
100
AcDbBlockTableRecord
  2
*U153
340
0
  0
BLOCK_RECORD
  5
3949
330
1
100
AcDbSymbolTableRecord
100
AcDbBlockTableRecord
  2
*U154
340
0
  0
BLOCK_RECORD
  5
3956
330
1
100
AcDbSymbolTableRecord
100
AcDbBlockTableRecord
  2
*U155
340
0
  0
BLOCK_RECORD
  5
395E
330
1
100
AcDbSymbolTableRecord
100
AcDbBlockTableRecord
  2
*U156
340
0
  0
BLOCK_RECORD
  5
396B
330
1
100
AcDbSymbolTableRecord
100
AcDbBlockTableRecord
  2
*U157
340
0
  0
BLOCK_RECORD
  5
3973
330
1
100
AcDbSymbolTableRecord
100
AcDbBlockTableRecord
  2
*U158
340
0
  0
BLOCK_RECORD
  5
3980
330
1
100
AcDbSymbolTableRecord
100
AcDbBlockTableRecord
  2
*S159
340
0
  0
BLOCK_RECORD
  5
3987
330
1
100
AcDbSymbolTableRecord
100
AcDbBlockTableRecord
  2
*S160
340
0
  0
BLOCK_RECORD
  5
398E
330
1
100
AcDbSymbolTableRecord
100
AcDbBlockTableRecord
  2
*S161
340
0
  0
BLOCK_RECORD
  5
3995
330
1
100
AcDbSymbolTableRecord
100
AcDbBlockTableRecord
  2
*S162
340
0
  0
BLOCK_RECORD
  5
399C
330
1
100
AcDbSymbolTableRecord
100
AcDbBlockTableRecord
  2
*S163
340
0
  0
BLOCK_RECORD
  5
39A3
330
1
100
AcDbSymbolTableRecord
100
AcDbBlockTableRecord
  2
*S164
340
0
  0
BLOCK_RECORD
  5
39AA
330
1
100
AcDbSymbolTableRecord
100
AcDbBlockTableRecord
  2
*S165
340
0
  0
BLOCK_RECORD
  5
39B1
330
1
100
AcDbSymbolTableRecord
100
AcDbBlockTableRecord
  2
*S166
340
0
  0
BLOCK_RECORD
  5
39C0
330
1
100
AcDbSymbolTableRecord
100
AcDbBlockTableRecord
  2
*U167
340
0
  0
BLOCK_RECORD
  5
39CC
330
1
100
AcDbSymbolTableRecord
100
AcDbBlockTableRecord
  2
*U168
340
0
  0
BLOCK_RECORD
  5
39D8
330
1
100
AcDbSymbolTableRecord
100
AcDbBlockTableRecord
  2
*U169
340
0
  0
BLOCK_RECORD
  5
39DF
330
1
100
AcDbSymbolTableRecord
100
AcDbBlockTableRecord
  2
*U170
340
0
  0
BLOCK_RECORD
  5
39EB
330
1
100
AcDbSymbolTableRecord
100
AcDbBlockTableRecord
  2
*U171
340
0
  0
BLOCK_RECORD
  5
39F2
330
1
100
AcDbSymbolTableRecord
100
AcDbBlockTableRecord
  2
*U172
340
0
  0
BLOCK_RECORD
  5
39FE
330
1
100
AcDbSymbolTableRecord
100
AcDbBlockTableRecord
  2
*U173
340
0
  0
BLOCK_RECORD
  5
3A05
330
1
100
AcDbSymbolTableRecord
100
AcDbBlockTableRecord
  2
*U174
340
0
  0
BLOCK_RECORD
  5
3A11
330
1
100
AcDbSymbolTableRecord
100
AcDbBlockTableRecord
  2
*U175
340
0
  0
BLOCK_RECORD
  5
3A18
330
1
100
AcDbSymbolTableRecord
100
AcDbBlockTableRecord
  2
*U176
340
0
  0
BLOCK_RECORD
  5
3A24
330
1
100
AcDbSymbolTableRecord
100
AcDbBlockTableRecord
  2
*U177
340
0
  0
BLOCK_RECORD
  5
3A2B
330
1
100
AcDbSymbolTableRecord
100
AcDbBlockTableRecord
  2
*U178
340
0
  0
BLOCK_RECORD
  5
3A37
330
1
100
AcDbSymbolTableRecord
100
AcDbBlockTableRecord
  2
*U179
340
0
  0
BLOCK_RECORD
  5
3A3E
330
1
100
AcDbSymbolTableRecord
100
AcDbBlockTableRecord
  2
*U180
340
0
  0
ENDTAB
  0
ENDSEC
  0
SECTION
  2
BLOCKS
  0
BLOCK
  5
75
330
74
100
AcDbEntity
  8
0
100
AcDbBlockBegin
  2
*Model_Space
 70
     0
 10
0.0
 20
0.0
 30
0.0
  3
*Model_Space
  1

  0
ENDBLK
  5
76
330
74
100
AcDbEntity
  8
0
100
AcDbBlockEnd
  0
BLOCK
  5
71
330
70
100
AcDbEntity
 67
     1
  8
0
100
AcDbBlockBegin
  2
*Paper_Space
 70
     0
 10
0.0
 20
0.0
 30
0.0
  3
*Paper_Space
  1

  0
ENDBLK
  5
72
330
70
100
AcDbEntity
 67
     1
  8
0
100
AcDbBlockEnd
  0
BLOCK
  5
196
330
194
100
AcDbEntity
  8
0
100
AcDbBlockBegin
  2
GENAXEH
 70
     0
 10
0.0
 20
0.0
 30
0.0
  3
GENAXEH
  1

  0
LINE
  5
195
330
194
100
AcDbEntity
  8
0
100
AcDbLine
 10
-1.0
 20
0.0
 30
0.0
 11
1.0
 21
0.0
 31
0.0
  0
ENDBLK
  5
197
330
194
100
AcDbEntity
  8
0
100
AcDbBlockEnd
  0
BLOCK
  5
30DA
330
30D9
100
AcDbEntity
  8
0
100
AcDbBlockBegin
  2
*D98
 70
     1
 10
0.0
 20
0.0
 30
0.0
  3
*D98
  1

  0
LINE
  5
30DC
330
30D9
100
AcDbEntity
  8
AM_5 ( Bemassung)
100
AcDbLine
 10
1025.266804046297
 20
933.1615645067879
 30
0.0
 11
975.0800682421346
 21
933.1615645067879
 31
0.0
  0
LINE
  5
30DD
330
30D9
100
AcDbEntity
  8
AM_5 ( Bemassung)
100
AcDbLine
 10
1041.266803806031
 20
846.6615645067879
 30
0.0
 11
975.0800682421346
 21
846.6615645067879
 31
0.0
  0
LINE
  5
30DE
330
30D9
100
AcDbEntity
  8
AM_5 ( Bemassung)
100
AcDbLine
 10
977.0800682421345
 20
925.1615645067879
 30
0.0
 11
977.0800682421345
 21
854.6615645067879
 31
0.0
  0
SOLID
  5
30DF
330
30D9
100
AcDbEntity
  8
AM_5 ( Bemassung)
100
AcDbTrace
 10
975.7467349088011
 20
925.1615645067879
 30
0.0
 11
978.4134015754679
 21
925.1615645067879
 31
0.0
 12
977.0800682421345
 22
933.1615645067879
 32
0.0
 13
977.0800682421345
 23
933.1615645067879
 33
0.0
  0
SOLID
  5
30E0
330
30D9
100
AcDbEntity
  8
AM_5 ( Bemassung)
100
AcDbTrace
 10
975.7467349088011
 20
854.6615645067879
 30
0.0
 11
978.4134015754679
 21
854.6615645067879
 31
0.0
 12
977.0800682421345
 22
846.6615645067879
 32
0.0
 13
977.0800682421345
 23
846.6615645067879
 33
0.0
  0
MTEXT
  5
30E1
330
30D9
100
AcDbEntity
  8
AM_5 ( Bemassung)
 62
     2
100
AcDbMText
 10
970.5060573280825
 20
889.911564506788
 30
0.0
 40
7.0
 41
0.0
 71
     5
 72
     1
  1
86.5
 11
0.0000000000000001
 21
1.0
 31
0.0
 73
     1
 44
1.0
  0
POINT
  5
30E2
330
30D9
100
AcDbEntity
  8
Defpoints
 62
     0
100
AcDbPoint
 10
1025.266804046297
 20
933.1615645067879
 30
0.0
  0
POINT
  5
30E3
330
30D9
100
AcDbEntity
  8
Defpoints
 62
     0
100
AcDbPoint
 10
1041.266803806031
 20
846.6615645067879
 30
0.0
  0
POINT
  5
30E4
330
30D9
100
AcDbEntity
  8
Defpoints
 62
     0
100
AcDbPoint
 10
977.0800682421345
 20
846.6615645067879
 30
0.0
  0
ENDBLK
  5
30DB
330
30D9
100
AcDbEntity
  8
0
100
AcDbBlockEnd
  0
BLOCK
  5
30E6
330
30E5
100
AcDbEntity
  8
0
100
AcDbBlockBegin
  2
*D99
 70
     1
 10
0.0
 20
0.0
 30
0.0
  3
*D99
  1

  0
LINE
  5
30E8
330
30E5
100
AcDbEntity
  8
AM_5 ( Bemassung)
100
AcDbLine
 10
1025.266804046297
 20
933.1615645067879
 30
0.0
 11
951.7471224837237
 21
933.1615645067879
 31
0.0
  0
LINE
  5
30E9
330
30E5
100
AcDbEntity
  8
AM_5 ( Bemassung)
100
AcDbLine
 10
1065.266803032578
 20
758.1615671350241
 30
0.0
 11
951.7471224837235
 21
758.1615671350241
 31
0.0
  0
LINE
  5
30EA
330
30E5
100
AcDbEntity
  8
AM_5 ( Bemassung)
100
AcDbLine
 10
953.7471224837236
 20
925.1615645067879
 30
0.0
 11
953.7471224837236
 21
766.1615671350241
 31
0.0
  0
SOLID
  5
30EB
330
30E5
100
AcDbEntity
  8
AM_5 ( Bemassung)
100
AcDbTrace
 10
952.4137891503903
 20
925.1615645067879
 30
0.0
 11
955.080455817057
 21
925.1615645067879
 31
0.0
 12
953.7471224837236
 22
933.1615645067879
 32
0.0
 13
953.7471224837236
 23
933.1615645067879
 33
0.0
  0
SOLID
  5
30EC
330
30E5
100
AcDbEntity
  8
AM_5 ( Bemassung)
100
AcDbTrace
 10
952.4137891503903
 20
766.1615671350241
 30
0.0
 11
955.080455817057
 21
766.1615671350241
 31
0.0
 12
953.7471224837236
 22
758.1615671350241
 32
0.0
 13
953.7471224837236
 23
758.1615671350241
 33
0.0
  0
MTEXT
  5
30ED
330
30E5
100
AcDbEntity
  8
AM_5 ( Bemassung)
 62
     2
100
AcDbMText
 10
947.1731115696716
 20
845.6615658209061
 30
0.0
 40
7.0
 41
0.0
 71
     5
 72
     1
  1
175
 11
0.0000000000000001
 21
1.0
 31
0.0
 73
     1
 44
1.0
  0
POINT
  5
30EE
330
30E5
100
AcDbEntity
  8
Defpoints
 62
     0
100
AcDbPoint
 10
1025.266804046297
 20
933.1615645067879
 30
0.0
  0
POINT
  5
30EF
330
30E5
100
AcDbEntity
  8
Defpoints
 62
     0
100
AcDbPoint
 10
1065.266803032578
 20
758.1615671350241
 30
0.0
  0
POINT
  5
30F0
330
30E5
100
AcDbEntity
  8
Defpoints
 62
     0
100
AcDbPoint
 10
953.7471224837236
 20
758.1615671350241
 30
0.0
  0
ENDBLK
  5
30E7
330
30E5
100
AcDbEntity
  8
0
100
AcDbBlockEnd
  0
BLOCK
  5
30F2
330
30F1
100
AcDbEntity
  8
0
100
AcDbBlockBegin
  2
*D100
 70
     1
 10
0.0
 20
0.0
 30
0.0
  3
*D100
  1

  0
LINE
  5
30F4
330
30F1
100
AcDbEntity
  8
AM_5 ( Bemassung)
100
AcDbLine
 10
1091.766803047597
 20
657.0246597934633
 30
0.0
 11
966.4088687259395
 21
657.0246597934633
 31
0.0
  0
LINE
  5
30F5
330
30F1
100
AcDbEntity
  8
AM_5 ( Bemassung)
100
AcDbLine
 10
1091.766803047597
 20
522.0246618208634
 30
0.0
 11
966.4088687259395
 21
522.0246618208634
 31
0.0
  0
LINE
  5
30F6
330
30F1
100
AcDbEntity
  8
AM_5 ( Bemassung)
100
AcDbLine
 10
968.4088687259395
 20
649.0246597934633
 30
0.0
 11
968.4088687259395
 21
530.0246618208634
 31
0.0
  0
SOLID
  5
30F7
330
30F1
100
AcDbEntity
  8
AM_5 ( Bemassung)
100
AcDbTrace
 10
967.0755353926061
 20
649.0246597934633
 30
0.0
 11
969.7422020592728
 21
649.0246597934633
 31
0.0
 12
968.4088687259395
 22
657.0246597934633
 32
0.0
 13
968.4088687259395
 23
657.0246597934633
 33
0.0
  0
SOLID
  5
30F8
330
30F1
100
AcDbEntity
  8
AM_5 ( Bemassung)
100
AcDbTrace
 10
967.0755353926061
 20
530.0246618208634
 30
0.0
 11
969.7422020592728
 21
530.0246618208634
 31
0.0
 12
968.4088687259395
 22
522.0246618208634
 32
0.0
 13
968.4088687259395
 23
522.0246618208634
 33
0.0
  0
MTEXT
  5
30F9
330
30F1
100
AcDbEntity
  8
AM_5 ( Bemassung)
 62
     2
100
AcDbMText
 10
961.6390870069762
 20
589.5246608071635
 30
0.0
 40
7.0
 41
0.0
 71
     5
 72
     1
  1
%%c135
 11
0.0000000000000001
 21
1.0
 31
0.0
 73
     1
 44
1.0
  0
POINT
  5
30FA
330
30F1
100
AcDbEntity
  8
Defpoints
 62
     0
100
AcDbPoint
 10
1091.766803047597
 20
657.0246597934633
 30
0.0
  0
POINT
  5
30FB
330
30F1
100
AcDbEntity
  8
Defpoints
 62
     0
100
AcDbPoint
 10
1091.766803047597
 20
522.0246618208634
 30
0.0
  0
POINT
  5
30FC
330
30F1
100
AcDbEntity
  8
Defpoints
 62
     0
100
AcDbPoint
 10
968.4088687259395
 20
522.0246618208634
 30
0.0
  0
ENDBLK
  5
30F3
330
30F1
100
AcDbEntity
  8
0
100
AcDbBlockEnd
  0
BLOCK
  5
30FE
330
30FD
100
AcDbEntity
  8
0
100
AcDbBlockBegin
  2
*D101
 70
     1
 10
0.0
 20
0.0
 30
0.0
  3
*D101
  1

  0
LINE
  5
3100
330
30FD
100
AcDbEntity
  8
AM_5 ( Bemassung)
100
AcDbLine
 10
1041.766803798521
 20
633.3681317038699
 30
0.0
 11
1041.766803798521
 21
704.7267771253059
 31
0.0
  0
LINE
  5
3101
330
30FD
100
AcDbEntity
  8
AM_5 ( Bemassung)
100
AcDbLine
 10
1141.766802296672
 20
633.3681317038702
 30
0.0
 11
1141.766802296672
 21
704.7267771253059
 31
0.0
  0
LINE
  5
3102
330
30FD
100
AcDbEntity
  8
AM_5 ( Bemassung)
100
AcDbLine
 10
1049.766803798521
 20
702.7267771253059
 30
0.0
 11
1133.766802296672
 21
702.7267771253059
 31
0.0
  0
SOLID
  5
3103
330
30FD
100
AcDbEntity
  8
AM_5 ( Bemassung)
100
AcDbTrace
 10
1049.766803798521
 20
704.0601104586393
 30
0.0
 11
1049.766803798521
 21
701.3934437919726
 31
0.0
 12
1041.766803798521
 22
702.7267771253059
 32
0.0
 13
1041.766803798521
 23
702.7267771253059
 33
0.0
  0
SOLID
  5
3104
330
30FD
100
AcDbEntity
  8
AM_5 ( Bemassung)
100
AcDbTrace
 10
1133.766802296672
 20
704.0601104586393
 30
0.0
 11
1133.766802296672
 21
701.3934437919726
 31
0.0
 12
1141.766802296672
 22
702.7267771253059
 32
0.0
 13
1141.766802296672
 23
702.7267771253059
 33
0.0
  0
MTEXT
  5
3105
330
30FD
100
AcDbEntity
  8
AM_5 ( Bemassung)
 62
     2
100
AcDbMText
 10
1091.766803047597
 20
709.3007880393578
 30
0.0
 40
7.0
 41
0.0
 71
     5
 72
     1
  1
100
 73
     1
 44
1.0
  0
POINT
  5
3106
330
30FD
100
AcDbEntity
  8
Defpoints
 62
     0
100
AcDbPoint
 10
1041.766803798521
 20
633.3681317038699
 30
0.0
  0
POINT
  5
3107
330
30FD
100
AcDbEntity
  8
Defpoints
 62
     0
100
AcDbPoint
 10
1141.766802296672
 20
633.3681317038702
 30
0.0
  0
POINT
  5
3108
330
30FD
100
AcDbEntity
  8
Defpoints
 62
     0
100
AcDbPoint
 10
1141.766802296672
 20
702.7267771253059
 30
0.0
  0
ENDBLK
  5
30FF
330
30FD
100
AcDbEntity
  8
0
100
AcDbBlockEnd
  0
BLOCK
  5
310A
330
3109
100
AcDbEntity
  8
0
100
AcDbBlockBegin
  2
*D102
 70
     1
 10
0.0
 20
0.0
 30
0.0
  3
*D102
  1

  0
LINE
  5
310C
330
3109
100
AcDbEntity
  8
AM_5 ( Bemassung)
100
AcDbLine
 10
1046.766803798521
 20
639.5246600562393
 30
0.0
 11
982.8245079614358
 21
639.5246600562393
 31
0.0
  0
LINE
  5
310D
330
3109
100
AcDbEntity
  8
AM_5 ( Bemassung)
100
AcDbLine
 10
1046.766803798521
 20
539.5246615580863
 30
0.0
 11
982.8245079614358
 21
539.5246615580863
 31
0.0
  0
LINE
  5
310E
330
3109
100
AcDbEntity
  8
AM_5 ( Bemassung)
100
AcDbLine
 10
984.8245079614358
 20
631.5246600562393
 30
0.0
 11
984.8245079614358
 21
547.5246615580863
 31
0.0
  0
SOLID
  5
310F
330
3109
100
AcDbEntity
  8
AM_5 ( Bemassung)
100
AcDbTrace
 10
983.4911746281024
 20
631.5246600562393
 30
0.0
 11
986.1578412947691
 21
631.5246600562393
 31
0.0
 12
984.8245079614358
 22
639.5246600562393
 32
0.0
 13
984.8245079614358
 23
639.5246600562393
 33
0.0
  0
SOLID
  5
3110
330
3109
100
AcDbEntity
  8
AM_5 ( Bemassung)
100
AcDbTrace
 10
983.4911746281024
 20
547.5246615580863
 30
0.0
 11
986.1578412947691
 21
547.5246615580863
 31
0.0
 12
984.8245079614358
 22
539.5246615580863
 32
0.0
 13
984.8245079614358
 23
539.5246615580863
 33
0.0
  0
MTEXT
  5
3111
330
3109
100
AcDbEntity
  8
AM_5 ( Bemassung)
 62
     2
100
AcDbMText
 10
978.2504970473837
 20
589.5246608071629
 30
0.0
 40
7.0
 41
0.0
 71
     5
 72
     1
  1
100
 11
0.0000000000000001
 21
1.0
 31
0.0
 73
     1
 44
1.0
  0
POINT
  5
3112
330
3109
100
AcDbEntity
  8
Defpoints
 62
     0
100
AcDbPoint
 10
1046.766803798521
 20
639.5246600562393
 30
0.0
  0
POINT
  5
3113
330
3109
100
AcDbEntity
  8
Defpoints
 62
     0
100
AcDbPoint
 10
1046.766803798521
 20
539.5246615580863
 30
0.0
  0
POINT
  5
3114
330
3109
100
AcDbEntity
  8
Defpoints
 62
     0
100
AcDbPoint
 10
984.8245079614358
 20
539.5246615580863
 30
0.0
  0
ENDBLK
  5
310B
330
3109
100
AcDbEntity
  8
0
100
AcDbBlockEnd
  0
BLOCK
  5
3116
330
3115
100
AcDbEntity
  8
0
100
AcDbBlockBegin
  2
*D103
 70
     1
 10
0.0
 20
0.0
 30
0.0
  3
*D103
  1

  0
LINE
  5
3285
330
3115
100
AcDbEntity
  8
AM_5 ( Bemassung)
100
AcDbLine
 10
1115.666802688655
 20
759.1615671200056
 30
0.0
 11
1115.666802688655
 21
735.7891052304085
 31
0.0
  0
LINE
  5
3286
330
3115
100
AcDbEntity
  8
AM_5 ( Bemassung)
100
AcDbLine
 10
1067.875114762485
 20
759.1615671200056
 30
0.0
 11
1067.875114762485
 21
735.7891052304085
 31
0.0
  0
LINE
  5
3287
330
3115
100
AcDbEntity
  8
AM_5 ( Bemassung)
100
AcDbLine
 10
1107.666802688655
 20
737.7891052304085
 30
0.0
 11
1075.875114762484
 21
737.7891052304085
 31
0.0
  0
SOLID
  5
3288
330
3115
100
AcDbEntity
  8
AM_5 ( Bemassung)
100
AcDbTrace
 10
1107.666802688655
 20
739.1224385637419
 30
0.0
 11
1107.666802688655
 21
736.455771897075
 31
0.0
 12
1115.666802688655
 22
737.7891052304085
 32
0.0
 13
1115.666802688655
 23
737.7891052304085
 33
0.0
  0
SOLID
  5
3289
330
3115
100
AcDbEntity
  8
AM_5 ( Bemassung)
100
AcDbTrace
 10
1075.875114762484
 20
739.1224385637419
 30
0.0
 11
1075.875114762484
 21
736.455771897075
 31
0.0
 12
1067.875114762485
 22
737.7891052304085
 32
0.0
 13
1067.875114762485
 23
737.7891052304085
 33
0.0
  0
MTEXT
  5
328A
330
3115
100
AcDbEntity
  8
AM_5 ( Bemassung)
 62
     2
100
AcDbMText
 10
1091.77095872557
 20
744.4084776724276
 30
0.0
 40
7.0
 41
0.0
 71
     5
 72
     1
  1
G1 1/2
 73
     1
 44
1.0
  0
POINT
  5
328B
330
3115
100
AcDbEntity
  8
Defpoints
 62
     0
100
AcDbPoint
 10
1115.666802688655
 20
759.1615671200056
 30
0.0
  0
POINT
  5
328C
330
3115
100
AcDbEntity
  8
Defpoints
 62
     0
100
AcDbPoint
 10
1067.875114762485
 20
759.1615671200056
 30
0.0
  0
POINT
  5
328D
330
3115
100
AcDbEntity
  8
Defpoints
 62
     0
100
AcDbPoint
 10
1067.875114762485
 20
737.7891052304085
 30
0.0
  0
ENDBLK
  5
3117
330
3115
100
AcDbEntity
  8
0
100
AcDbBlockEnd
  0
BLOCK
  5
3134
330
3133
100
AcDbEntity
  8
0
100
AcDbBlockBegin
  2
*D105
 70
     1
 10
0.0
 20
0.0
 30
0.0
  3
*D105
  1

  0
LINE
  5
326A
330
3133
100
AcDbEntity
  8
AM_5 ( Bemassung)
100
AcDbLine
 10
1123.766803047597
 20
934.161564506788
 30
0.0
 11
1123.766803047597
 21
971.035144876445
 31
0.0
  0
LINE
  5
326B
330
3133
100
AcDbEntity
  8
AM_5 ( Bemassung)
100
AcDbLine
 10
1059.766803047597
 20
934.161564506788
 30
0.0
 11
1059.766803047597
 21
971.035144876445
 31
0.0
  0
LINE
  5
326C
330
3133
100
AcDbEntity
  8
AM_5 ( Bemassung)
100
AcDbLine
 10
1115.766803047597
 20
969.0351448764449
 30
0.0
 11
1067.766803047597
 21
969.0351448764449
 31
0.0
  0
SOLID
  5
326D
330
3133
100
AcDbEntity
  8
AM_5 ( Bemassung)
100
AcDbTrace
 10
1115.766803047597
 20
970.3684782097782
 30
0.0
 11
1115.766803047597
 21
967.7018115431115
 31
0.0
 12
1123.766803047597
 22
969.0351448764449
 32
0.0
 13
1123.766803047597
 23
969.0351448764449
 33
0.0
  0
SOLID
  5
326E
330
3133
100
AcDbEntity
  8
AM_5 ( Bemassung)
100
AcDbTrace
 10
1067.766803047597
 20
970.3684782097782
 30
0.0
 11
1067.766803047597
 21
967.7018115431115
 31
0.0
 12
1059.766803047597
 22
969.0351448764449
 32
0.0
 13
1059.766803047597
 23
969.0351448764449
 33
0.0
  0
MTEXT
  5
326F
330
3133
100
AcDbEntity
  8
AM_5 ( Bemassung)
 62
     2
100
AcDbMText
 10
1088.035612623089
 20
975.8049265954081
 30
0.0
 40
7.0
 41
0.0
 71
     5
 72
     1
  1
%%c 64
 73
     1
 44
1.0
  0
POINT
  5
3270
330
3133
100
AcDbEntity
  8
Defpoints
 62
     0
100
AcDbPoint
 10
1123.766803047597
 20
934.161564506788
 30
0.0
  0
POINT
  5
3271
330
3133
100
AcDbEntity
  8
Defpoints
 62
     0
100
AcDbPoint
 10
1059.766803047597
 20
934.161564506788
 30
0.0
  0
POINT
  5
3272
330
3133
100
AcDbEntity
  8
Defpoints
 62
     0
100
AcDbPoint
 10
1059.766803047597
 20
969.0351448764449
 30
0.0
  0
ENDBLK
  5
3135
330
3133
100
AcDbEntity
  8
0
100
AcDbBlockEnd
  0
BLOCK
  5
318B
330
318A
100
AcDbEntity
  8
0
100
AcDbBlockBegin
  2
*D106
 70
     1
 10
0.0
 20
0.0
 30
0.0
  3
*D106
  1

  0
LINE
  5
3273
330
318A
100
AcDbEntity
  8
AM_5 ( Bemassung)
100
AcDbLine
 10
1159.266802048796
 20
942.1615643716881
 30
0.0
 11
1159.266802048796
 21
987.11489355411
 31
0.0
  0
LINE
  5
3274
330
318A
100
AcDbEntity
  8
AM_5 ( Bemassung)
100
AcDbLine
 10
1024.266804046297
 20
942.1615643716879
 30
0.0
 11
1024.266804046297
 21
987.11489355411
 31
0.0
  0
LINE
  5
3275
330
318A
100
AcDbEntity
  8
AM_5 ( Bemassung)
100
AcDbLine
 10
1151.266802048796
 20
985.11489355411
 30
0.0
 11
1032.266804046297
 21
985.11489355411
 31
0.0
  0
SOLID
  5
3276
330
318A
100
AcDbEntity
  8
AM_5 ( Bemassung)
100
AcDbTrace
 10
1151.266802048796
 20
986.4482268874434
 30
0.0
 11
1151.266802048796
 21
983.7815602207767
 31
0.0
 12
1159.266802048796
 22
985.11489355411
 32
0.0
 13
1159.266802048796
 23
985.11489355411
 33
0.0
  0
SOLID
  5
3277
330
318A
100
AcDbEntity
  8
AM_5 ( Bemassung)
100
AcDbTrace
 10
1032.266804046297
 20
986.4482268874434
 30
0.0
 11
1032.266804046297
 21
983.7815602207767
 31
0.0
 12
1024.266804046297
 22
985.11489355411
 32
0.0
 13
1024.266804046297
 23
985.11489355411
 33
0.0
  0
MTEXT
  5
3278
330
318A
100
AcDbEntity
  8
AM_5 ( Bemassung)
 62
     2
100
AcDbMText
 10
1089.938222061378
 20
991.8846752730731
 30
0.0
 40
7.0
 41
0.0
 71
     5
 72
     1
  1
%%c 135
 73
     1
 44
1.0
  0
POINT
  5
3279
330
318A
100
AcDbEntity
  8
Defpoints
 62
     0
100
AcDbPoint
 10
1159.266802048796
 20
942.1615643716881
 30
0.0
  0
POINT
  5
327A
330
318A
100
AcDbEntity
  8
Defpoints
 62
     0
100
AcDbPoint
 10
1024.266804046297
 20
942.1615643716879
 30
0.0
  0
POINT
  5
327B
330
318A
100
AcDbEntity
  8
Defpoints
 62
     0
100
AcDbPoint
 10
1024.266804046297
 20
985.11489355411
 30
0.0
  0
ENDBLK
  5
318C
330
318A
100
AcDbEntity
  8
0
100
AcDbBlockEnd
  0
BLOCK
  5
31E2
330
31E1
100
AcDbEntity
  8
0
100
AcDbBlockBegin
  2
*D107
 70
     1
 10
0.0
 20
0.0
 30
0.0
  3
*D107
  1

  0
LINE
  5
31FC
330
31E1
100
AcDbEntity
  8
AM_5 ( Bemassung)
100
AcDbLine
 10
1158.266802048797
 20
943.1615643716879
 30
0.0
 11
1182.189677202972
 21
943.1615643716879
 31
0.0
  0
LINE
  5
31FD
330
31E1
100
AcDbEntity
  8
AM_5 ( Bemassung)
100
AcDbLine
 10
1158.266802048897
 20
933.1615645067879
 30
0.0
 11
1182.189677202972
 21
933.1615645067879
 31
0.0
  0
LINE
  5
31FE
330
31E1
100
AcDbEntity
  8
AM_5 ( Bemassung)
100
AcDbLine
 10
1181.189677202972
 20
947.161564371688
 30
0.0
 11
1181.189677202972
 21
951.1615643716879
 31
0.0
  0
LINE
  5
31FF
330
31E1
100
AcDbEntity
  8
AM_5 ( Bemassung)
100
AcDbLine
 10
1181.189677202972
 20
929.161564506788
 30
0.0
 11
1181.189677202972
 21
925.1615645067879
 31
0.0
  0
LINE
  5
3200
330
31E1
100
AcDbEntity
  8
AM_5 ( Bemassung)
100
AcDbLine
 10
1181.189677202972
 20
943.1615643716879
 30
0.0
 11
1181.189677202972
 21
933.1615645067879
 31
0.0
  0
SOLID
  5
3201
330
31E1
100
AcDbEntity
  8
AM_5 ( Bemassung)
100
AcDbTrace
 10
1180.523010536305
 20
947.161564371688
 30
0.0
 11
1181.856343869639
 21
947.161564371688
 31
0.0
 12
1181.189677202972
 22
943.1615643716879
 32
0.0
 13
1181.189677202972
 23
943.1615643716879
 33
0.0
  0
SOLID
  5
3202
330
31E1
100
AcDbEntity
  8
AM_5 ( Bemassung)
100
AcDbTrace
 10
1180.523010536305
 20
929.161564506788
 30
0.0
 11
1181.856343869639
 21
929.161564506788
 31
0.0
 12
1181.189677202972
 22
933.1615645067879
 32
0.0
 13
1181.189677202972
 23
933.1615645067879
 33
0.0
  0
MTEXT
  5
3203
330
31E1
100
AcDbEntity
  8
AM_5 ( Bemassung)
 62
     2
100
AcDbMText
 10
1177.902671745946
 20
938.1615644392381
 30
0.0
 40
3.5
 41
0.0
 71
     5
 72
     1
  1
10
 11
0.0000000000000001
 21
1.0
 31
0.0
 73
     1
 44
1.0
  0
POINT
  5
3204
330
31E1
100
AcDbEntity
  8
Defpoints
 62
     0
100
AcDbPoint
 10
1158.266802048797
 20
943.1615643716879
 30
0.0
  0
POINT
  5
3205
330
31E1
100
AcDbEntity
  8
Defpoints
 62
     0
100
AcDbPoint
 10
1158.266802048897
 20
933.1615645067879
 30
0.0
  0
POINT
  5
3206
330
31E1
100
AcDbEntity
  8
Defpoints
 62
     0
100
AcDbPoint
 10
1181.189677202972
 20
933.1615645067879
 30
0.0
  0
ENDBLK
  5
31E3
330
31E1
100
AcDbEntity
  8
0
100
AcDbBlockEnd
  0
BLOCK
  5
3209
330
3208
100
AcDbEntity
  8
0
100
AcDbBlockBegin
  2
*D108
 70
     1
 10
0.0
 20
0.0
 30
0.0
  3
*D108
  1

  0
LINE
  5
3223
330
3208
100
AcDbEntity
  8
AM_5 ( Bemassung)
100
AcDbLine
 10
1158.266802048797
 20
933.1615645067879
 30
0.0
 11
1196.09143563595
 21
933.1615645067879
 31
0.0
  0
LINE
  5
3224
330
3208
100
AcDbEntity
  8
AM_5 ( Bemassung)
100
AcDbLine
 10
1158.266802048897
 20
924.161564641988
 30
0.0
 11
1196.09143563595
 21
924.161564641988
 31
0.0
  0
LINE
  5
3225
330
3208
100
AcDbEntity
  8
AM_5 ( Bemassung)
100
AcDbLine
 10
1195.09143563595
 20
937.161564506788
 30
0.0
 11
1195.09143563595
 21
941.1615645067879
 31
0.0
  0
LINE
  5
3226
330
3208
100
AcDbEntity
  8
AM_5 ( Bemassung)
100
AcDbLine
 10
1195.09143563595
 20
920.1615646419879
 30
0.0
 11
1195.09143563595
 21
916.161564641988
 31
0.0
  0
LINE
  5
3227
330
3208
100
AcDbEntity
  8
AM_5 ( Bemassung)
100
AcDbLine
 10
1195.09143563595
 20
933.1615645067879
 30
0.0
 11
1195.09143563595
 21
924.161564641988
 31
0.0
  0
SOLID
  5
3228
330
3208
100
AcDbEntity
  8
AM_5 ( Bemassung)
100
AcDbTrace
 10
1194.424768969283
 20
937.161564506788
 30
0.0
 11
1195.758102302617
 21
937.161564506788
 31
0.0
 12
1195.09143563595
 22
933.1615645067879
 32
0.0
 13
1195.09143563595
 23
933.1615645067879
 33
0.0
  0
SOLID
  5
3229
330
3208
100
AcDbEntity
  8
AM_5 ( Bemassung)
100
AcDbTrace
 10
1194.424768969283
 20
920.1615646419879
 30
0.0
 11
1195.758102302617
 21
920.1615646419879
 31
0.0
 12
1195.09143563595
 22
924.161564641988
 32
0.0
 13
1195.09143563595
 23
924.161564641988
 33
0.0
  0
MTEXT
  5
322A
330
3208
100
AcDbEntity
  8
AM_5 ( Bemassung)
 62
     2
100
AcDbMText
 10
1191.804430178924
 20
928.661564574388
 30
0.0
 40
3.5
 41
0.0
 71
     5
 72
     1
  1
9
 11
0.0000000000000001
 21
1.0
 31
0.0
 73
     1
 44
1.0
  0
POINT
  5
322B
330
3208
100
AcDbEntity
  8
Defpoints
 62
     0
100
AcDbPoint
 10
1158.266802048797
 20
933.1615645067879
 30
0.0
  0
POINT
  5
322C
330
3208
100
AcDbEntity
  8
Defpoints
 62
     0
100
AcDbPoint
 10
1158.266802048897
 20
924.161564641988
 30
0.0
  0
POINT
  5
322D
330
3208
100
AcDbEntity
  8
Defpoints
 62
     0
100
AcDbPoint
 10
1195.09143563595
 20
924.161564641988
 30
0.0
  0
ENDBLK
  5
320A
330
3208
100
AcDbEntity
  8
0
100
AcDbBlockEnd
  0
BLOCK
  5
3230
330
322F
100
AcDbEntity
  8
0
100
AcDbBlockBegin
  2
*D109
 70
     1
 10
0.0
 20
0.0
 30
0.0
  3
*D109
  1

  0
LINE
  5
3261
330
322F
100
AcDbEntity
  8
AM_5 ( Bemassung)
100
AcDbLine
 10
1115.666802688655
 20
932.1615645218065
 30
0.0
 11
1115.666802688655
 21
957.1615653716881
 31
0.0
  0
LINE
  5
3262
330
322F
100
AcDbEntity
  8
AM_5 ( Bemassung)
100
AcDbLine
 10
1067.866803406539
 20
932.1615645218066
 30
0.0
 11
1067.866803406539
 21
957.1615653716881
 31
0.0
  0
LINE
  5
3263
330
322F
100
AcDbEntity
  8
AM_5 ( Bemassung)
100
AcDbLine
 10
1107.666802688655
 20
955.1615653716881
 30
0.0
 11
1075.866803406539
 21
955.1615653716881
 31
0.0
  0
SOLID
  5
3264
330
322F
100
AcDbEntity
  8
AM_5 ( Bemassung)
100
AcDbTrace
 10
1107.666802688655
 20
956.4948987050215
 30
0.0
 11
1107.666802688655
 21
953.8282320383547
 31
0.0
 12
1115.666802688655
 22
955.1615653716881
 32
0.0
 13
1115.666802688655
 23
955.1615653716881
 33
0.0
  0
SOLID
  5
3265
330
322F
100
AcDbEntity
  8
AM_5 ( Bemassung)
100
AcDbTrace
 10
1075.866803406539
 20
956.4948987050215
 30
0.0
 11
1075.866803406539
 21
953.8282320383547
 31
0.0
 12
1067.866803406539
 22
955.1615653716881
 32
0.0
 13
1067.866803406539
 23
955.1615653716881
 33
0.0
  0
MTEXT
  5
3266
330
322F
100
AcDbEntity
  8
AM_5 ( Bemassung)
 62
     2
100
AcDbMText
 10
1091.766803047597
 20
961.7809378137071
 30
0.0
 40
7.0
 41
0.0
 71
     5
 72
     1
  1
G1 1/2
 73
     1
 44
1.0
  0
POINT
  5
3267
330
322F
100
AcDbEntity
  8
Defpoints
 62
     0
100
AcDbPoint
 10
1115.666802688655
 20
932.1615645218065
 30
0.0
  0
POINT
  5
3268
330
322F
100
AcDbEntity
  8
Defpoints
 62
     0
100
AcDbPoint
 10
1067.866803406539
 20
932.1615645218066
 30
0.0
  0
POINT
  5
3269
330
322F
100
AcDbEntity
  8
Defpoints
 62
     0
100
AcDbPoint
 10
1067.866803406539
 20
955.1615653716881
 30
0.0
  0
ENDBLK
  5
3231
330
322F
100
AcDbEntity
  8
0
100
AcDbBlockEnd
  0
BLOCK
  5
35CA
330
35C9
100
AcDbEntity
  8
0
100
AcDbBlockBegin
  2
*D110
 70
     1
 10
0.0
 20
0.0
 30
0.0
  3
*D110
  1

  0
LINE
  5
35CC
330
35C9
100
AcDbEntity
  8
AM_5 ( Bemassung)
100
AcDbLine
 10
76.27176608804728
 20
147.0777267104758
 30
0.0
 11
50.86240345751918
 21
147.0777267104758
 31
0.0
  0
LINE
  5
35CD
330
35C9
100
AcDbEntity
  8
AM_5 ( Bemassung)
100
AcDbLine
 10
75.27881030095762
 20
137.0777268606608
 30
0.0
 11
50.86240345751917
 21
137.0777268606609
 31
0.0
  0
LINE
  5
35CE
330
35C9
100
AcDbEntity
  8
AM_5 ( Bemassung)
100
AcDbLine
 10
52.86240345751918
 20
155.0777267104758
 30
0.0
 11
52.86240345751918
 21
163.0777267104758
 31
0.0
  0
LINE
  5
35CF
330
35C9
100
AcDbEntity
  8
AM_5 ( Bemassung)
100
AcDbLine
 10
52.86240345751918
 20
129.0777268606609
 30
0.0
 11
52.86240345751917
 21
105.7332520994057
 31
0.0
  0
LINE
  5
35D0
330
35C9
100
AcDbEntity
  8
AM_5 ( Bemassung)
100
AcDbLine
 10
52.86240345751918
 20
147.0777267104758
 30
0.0
 11
52.86240345751918
 21
137.0777268606609
 31
0.0
  0
SOLID
  5
35D1
330
35C9
100
AcDbEntity
  8
AM_5 ( Bemassung)
100
AcDbTrace
 10
51.52907012418585
 20
155.0777267104758
 30
0.0
 11
54.19573679085252
 21
155.0777267104758
 31
0.0
 12
52.86240345751918
 22
147.0777267104758
 32
0.0
 13
52.86240345751918
 23
147.0777267104758
 33
0.0
  0
SOLID
  5
35D2
330
35C9
100
AcDbEntity
  8
AM_5 ( Bemassung)
100
AcDbTrace
 10
51.52907012418584
 20
129.0777268606609
 30
0.0
 11
54.19573679085251
 21
129.0777268606609
 31
0.0
 12
52.86240345751918
 22
137.0777268606609
 32
0.0
 13
52.86240345751918
 23
137.0777268606609
 33
0.0
  0
MTEXT
  5
35D3
330
35C9
100
AcDbEntity
  8
AM_5 ( Bemassung)
 62
     2
100
AcDbMText
 10
46.28839254346732
 20
113.4054894800333
 30
0.0
 40
7.0
 41
0.0
 71
     5
 72
     1
  1
10
 11
0.0000000000000001
 21
1.0
 31
0.0
 73
     1
 44
1.0
  0
POINT
  5
35D4
330
35C9
100
AcDbEntity
  8
Defpoints
 62
     0
100
AcDbPoint
 10
76.27176608804728
 20
147.0777267104758
 30
0.0
  0
POINT
  5
35D5
330
35C9
100
AcDbEntity
  8
Defpoints
 62
     0
100
AcDbPoint
 10
75.27881030095762
 20
137.0777268606608
 30
0.0
  0
POINT
  5
35D6
330
35C9
100
AcDbEntity
  8
Defpoints
 62
     0
100
AcDbPoint
 10
52.86240345751918
 20
137.0777268606609
 30
0.0
  0
ENDBLK
  5
35CB
330
35C9
100
AcDbEntity
  8
0
100
AcDbBlockEnd
  0
BLOCK
  5
35D8
330
35D7
100
AcDbEntity
  8
0
100
AcDbBlockBegin
  2
*D111
 70
     1
 10
0.0
 20
0.0
 30
0.0
  3
*D111
  1

  0
LINE
  5
35DA
330
35D7
100
AcDbEntity
  8
AM_5 ( Bemassung)
100
AcDbLine
 10
76.27176608804728
 20
147.0777267104758
 30
0.0
 11
19.55055470899619
 21
147.0777267104758
 31
0.0
  0
LINE
  5
35DB
330
35D7
100
AcDbEntity
  8
AM_5 ( Bemassung)
100
AcDbLine
 10
76.27176608804728
 20
47.07772821232282
 30
0.0
 11
19.55055470899617
 21
47.07772821232283
 31
0.0
  0
LINE
  5
35DC
330
35D7
100
AcDbEntity
  8
AM_5 ( Bemassung)
100
AcDbLine
 10
21.5505547089962
 20
139.0777267104758
 30
0.0
 11
21.55055470899617
 21
55.07772821232283
 31
0.0
  0
SOLID
  5
35DD
330
35D7
100
AcDbEntity
  8
AM_5 ( Bemassung)
100
AcDbTrace
 10
20.21722137566286
 20
139.0777267104758
 30
0.0
 11
22.88388804232953
 21
139.0777267104758
 31
0.0
 12
21.5505547089962
 22
147.0777267104758
 32
0.0
 13
21.5505547089962
 23
147.0777267104758
 33
0.0
  0
SOLID
  5
35DE
330
35D7
100
AcDbEntity
  8
AM_5 ( Bemassung)
100
AcDbTrace
 10
20.21722137566284
 20
55.07772821232283
 30
0.0
 11
22.88388804232951
 21
55.07772821232283
 31
0.0
 12
21.55055470899617
 22
47.07772821232283
 32
0.0
 13
21.55055470899617
 23
47.07772821232283
 33
0.0
  0
MTEXT
  5
35DF
330
35D7
100
AcDbEntity
  8
AM_5 ( Bemassung)
 62
     2
100
AcDbMText
 10
14.97654379494433
 20
97.07772746139935
 30
0.0
 40
7.0
 41
0.0
 71
     5
 72
     1
  1
100
 11
0.0000000000000001
 21
1.0
 31
0.0
 73
     1
 44
1.0
  0
POINT
  5
35E0
330
35D7
100
AcDbEntity
  8
Defpoints
 62
     0
100
AcDbPoint
 10
76.27176608804728
 20
147.0777267104758
 30
0.0
  0
POINT
  5
35E1
330
35D7
100
AcDbEntity
  8
Defpoints
 62
     0
100
AcDbPoint
 10
76.27176608804728
 20
47.07772821232282
 30
0.0
  0
POINT
  5
35E2
330
35D7
100
AcDbEntity
  8
Defpoints
 62
     0
100
AcDbPoint
 10
21.55055470899617
 20
47.07772821232283
 30
0.0
  0
ENDBLK
  5
35D9
330
35D7
100
AcDbEntity
  8
0
100
AcDbBlockEnd
  0
BLOCK
  5
35E4
330
35E3
100
AcDbEntity
  8
0
100
AcDbBlockBegin
  2
*D112
 70
     1
 10
0.0
 20
0.0
 30
0.0
  3
*D112
  1

  0
LINE
  5
35E6
330
35E3
100
AcDbEntity
  8
AM_5 ( Bemassung)
100
AcDbLine
 10
71.27176608804728
 20
142.0777267104758
 30
0.0
 11
71.27176608804728
 21
169.2565689922608
 31
0.0
  0
LINE
  5
35E7
330
35E3
100
AcDbEntity
  8
AM_5 ( Bemassung)
100
AcDbLine
 10
81.27176593786236
 20
143.7558097367318
 30
0.0
 11
81.27176593786236
 21
169.2565689922608
 31
0.0
  0
LINE
  5
35E8
330
35E3
100
AcDbEntity
  8
AM_5 ( Bemassung)
100
AcDbLine
 10
63.27176608804728
 20
167.2565689922608
 30
0.0
 11
55.27176608804729
 21
167.2565689922608
 31
0.0
  0
LINE
  5
35E9
330
35E3
100
AcDbEntity
  8
AM_5 ( Bemassung)
100
AcDbLine
 10
89.27176593786237
 20
167.2565689922608
 30
0.0
 11
112.6162406991175
 21
167.2565689922608
 31
0.0
  0
LINE
  5
35EA
330
35E3
100
AcDbEntity
  8
AM_5 ( Bemassung)
100
AcDbLine
 10
71.27176608804728
 20
167.2565689922608
 30
0.0
 11
81.27176593786236
 21
167.2565689922608
 31
0.0
  0
SOLID
  5
35EB
330
35E3
100
AcDbEntity
  8
AM_5 ( Bemassung)
100
AcDbTrace
 10
63.27176608804728
 20
168.5899023255942
 30
0.0
 11
63.27176608804728
 21
165.9232356589275
 31
0.0
 12
71.27176608804728
 22
167.2565689922608
 32
0.0
 13
71.27176608804728
 23
167.2565689922608
 33
0.0
  0
SOLID
  5
35EC
330
35E3
100
AcDbEntity
  8
AM_5 ( Bemassung)
100
AcDbTrace
 10
89.27176593786237
 20
168.5899023255942
 30
0.0
 11
89.27176593786237
 21
165.9232356589275
 31
0.0
 12
81.27176593786236
 22
167.2565689922608
 32
0.0
 13
81.27176593786236
 23
167.2565689922608
 33
0.0
  0
MTEXT
  5
35ED
330
35E3
100
AcDbEntity
  8
AM_5 ( Bemassung)
 62
     2
100
AcDbMText
 10
104.9440033184899
 20
173.8305799063127
 30
0.0
 40
7.0
 41
0.0
 71
     5
 72
     1
  1
10
 73
     1
 44
1.0
  0
POINT
  5
35EE
330
35E3
100
AcDbEntity
  8
Defpoints
 62
     0
100
AcDbPoint
 10
71.27176608804728
 20
142.0777267104758
 30
0.0
  0
POINT
  5
35EF
330
35E3
100
AcDbEntity
  8
Defpoints
 62
     0
100
AcDbPoint
 10
81.27176593786236
 20
143.7558097367318
 30
0.0
  0
POINT
  5
35F0
330
35E3
100
AcDbEntity
  8
Defpoints
 62
     0
100
AcDbPoint
 10
81.27176593786236
 20
167.2565689922608
 30
0.0
  0
ENDBLK
  5
35E5
330
35E3
100
AcDbEntity
  8
0
100
AcDbBlockEnd
  0
BLOCK
  5
35F2
330
35F1
100
AcDbEntity
  8
0
100
AcDbBlockBegin
  2
*D113
 70
     1
 10
0.0
 20
0.0
 30
0.0
  3
*D113
  1

  0
LINE
  5
35F4
330
35F1
100
AcDbEntity
  8
AM_5 ( Bemassung)
100
AcDbLine
 10
71.27176608804728
 20
142.0777267104758
 30
0.0
 11
71.27176608804728
 21
202.0240699769718
 31
0.0
  0
LINE
  5
35F5
330
35F1
100
AcDbEntity
  8
AM_5 ( Bemassung)
100
AcDbLine
 10
171.2717645861979
 20
142.0777267104758
 30
0.0
 11
171.2717645861979
 21
202.0240699769718
 31
0.0
  0
LINE
  5
35F6
330
35F1
100
AcDbEntity
  8
AM_5 ( Bemassung)
100
AcDbLine
 10
79.27176608804728
 20
200.0240699769718
 30
0.0
 11
163.2717645861979
 21
200.0240699769718
 31
0.0
  0
SOLID
  5
35F7
330
35F1
100
AcDbEntity
  8
AM_5 ( Bemassung)
100
AcDbTrace
 10
79.27176608804728
 20
201.3574033103052
 30
0.0
 11
79.27176608804728
 21
198.6907366436384
 31
0.0
 12
71.27176608804728
 22
200.0240699769718
 32
0.0
 13
71.27176608804728
 23
200.0240699769718
 33
0.0
  0
SOLID
  5
35F8
330
35F1
100
AcDbEntity
  8
AM_5 ( Bemassung)
100
AcDbTrace
 10
163.2717645861979
 20
201.3574033103052
 30
0.0
 11
163.2717645861979
 21
198.6907366436384
 31
0.0
 12
171.2717645861979
 22
200.0240699769718
 32
0.0
 13
171.2717645861979
 23
200.0240699769718
 33
0.0
  0
MTEXT
  5
35F9
330
35F1
100
AcDbEntity
  8
AM_5 ( Bemassung)
 62
     2
100
AcDbMText
 10
121.2717653371226
 20
206.5980808910237
 30
0.0
 40
7.0
 41
0.0
 71
     5
 72
     1
  1
100
 73
     1
 44
1.0
  0
POINT
  5
35FA
330
35F1
100
AcDbEntity
  8
Defpoints
 62
     0
100
AcDbPoint
 10
71.27176608804728
 20
142.0777267104758
 30
0.0
  0
POINT
  5
35FB
330
35F1
100
AcDbEntity
  8
Defpoints
 62
     0
100
AcDbPoint
 10
171.2717645861979
 20
142.0777267104758
 30
0.0
  0
POINT
  5
35FC
330
35F1
100
AcDbEntity
  8
Defpoints
 62
     0
100
AcDbPoint
 10
171.2717645861979
 20
200.0240699769718
 30
0.0
  0
ENDBLK
  5
35F3
330
35F1
100
AcDbEntity
  8
0
100
AcDbBlockEnd
  0
BLOCK
  5
35FE
330
35FD
100
AcDbEntity
  8
0
100
AcDbBlockBegin
  2
*D114
 70
     1
 10
0.0
 20
0.0
 30
0.0
  3
*D114
  1

  0
LINE
  5
3600
330
35FD
100
AcDbEntity
  8
AM_5 ( Bemassung)
100
AcDbLine
 10
171.2717645861979
 20
142.0777267104758
 30
0.0
 11
171.2717645861979
 21
169.2565689922608
 31
0.0
  0
LINE
  5
3601
330
35FD
100
AcDbEntity
  8
AM_5 ( Bemassung)
100
AcDbLine
 10
161.2717647363829
 20
141.0856632225528
 30
0.0
 11
161.2717647363829
 21
169.2565689922608
 31
0.0
  0
LINE
  5
3602
330
35FD
100
AcDbEntity
  8
AM_5 ( Bemassung)
100
AcDbLine
 10
179.2717645861979
 20
167.2565689922608
 30
0.0
 11
187.2717645861979
 21
167.2565689922608
 31
0.0
  0
LINE
  5
3603
330
35FD
100
AcDbEntity
  8
AM_5 ( Bemassung)
100
AcDbLine
 10
153.2717647363829
 20
167.2565689922608
 30
0.0
 11
129.9272899751278
 21
167.2565689922608
 31
0.0
  0
LINE
  5
3604
330
35FD
100
AcDbEntity
  8
AM_5 ( Bemassung)
100
AcDbLine
 10
171.2717645861979
 20
167.2565689922608
 30
0.0
 11
161.2717647363829
 21
167.2565689922608
 31
0.0
  0
SOLID
  5
3605
330
35FD
100
AcDbEntity
  8
AM_5 ( Bemassung)
100
AcDbTrace
 10
179.2717645861979
 20
168.5899023255942
 30
0.0
 11
179.2717645861979
 21
165.9232356589275
 31
0.0
 12
171.2717645861979
 22
167.2565689922608
 32
0.0
 13
171.2717645861979
 23
167.2565689922608
 33
0.0
  0
SOLID
  5
3606
330
35FD
100
AcDbEntity
  8
AM_5 ( Bemassung)
100
AcDbTrace
 10
153.2717647363829
 20
168.5899023255942
 30
0.0
 11
153.2717647363829
 21
165.9232356589275
 31
0.0
 12
161.2717647363829
 22
167.2565689922608
 32
0.0
 13
161.2717647363829
 23
167.2565689922608
 33
0.0
  0
MTEXT
  5
3607
330
35FD
100
AcDbEntity
  8
AM_5 ( Bemassung)
 62
     2
100
AcDbMText
 10
137.5995273557553
 20
173.8305799063127
 30
0.0
 40
7.0
 41
0.0
 71
     5
 72
     1
  1
10
 73
     1
 44
1.0
  0
POINT
  5
3608
330
35FD
100
AcDbEntity
  8
Defpoints
 62
     0
100
AcDbPoint
 10
171.2717645861979
 20
142.0777267104758
 30
0.0
  0
POINT
  5
3609
330
35FD
100
AcDbEntity
  8
Defpoints
 62
     0
100
AcDbPoint
 10
161.2717647363829
 20
141.0856632225528
 30
0.0
  0
POINT
  5
360A
330
35FD
100
AcDbEntity
  8
Defpoints
 62
     0
100
AcDbPoint
 10
161.2717647363829
 20
167.2565689922608
 30
0.0
  0
ENDBLK
  5
35FF
330
35FD
100
AcDbEntity
  8
0
100
AcDbBlockEnd
  0
BLOCK
  5
360C
330
360B
100
AcDbEntity
  8
0
100
AcDbBlockBegin
  2
*D115
 70
     1
 10
0.0
 20
0.0
 30
0.0
  3
*D115
  1

  0
LINE
  5
360E
330
360B
100
AcDbEntity
  8
AM_5 ( Bemassung)
100
AcDbLine
 10
166.271764586198
 20
147.0777267104758
 30
0.0
 11
206.4497296428281
 21
147.0777267104758
 31
0.0
  0
LINE
  5
360F
330
360B
100
AcDbEntity
  8
AM_5 ( Bemassung)
100
AcDbLine
 10
165.3059939946014
 20
137.0777268606608
 30
0.0
 11
206.4497296428281
 21
137.0777268606608
 31
0.0
  0
LINE
  5
3610
330
360B
100
AcDbEntity
  8
AM_5 ( Bemassung)
100
AcDbLine
 10
204.4497296428281
 20
129.0777268606608
 30
0.0
 11
204.4497296428281
 21
121.0777268606608
 31
0.0
  0
LINE
  5
3611
330
360B
100
AcDbEntity
  8
AM_5 ( Bemassung)
100
AcDbLine
 10
204.4497296428281
 20
155.0777267104758
 30
0.0
 11
204.4497296428281
 21
178.4222014717309
 31
0.0
  0
LINE
  5
3612
330
360B
100
AcDbEntity
  8
AM_5 ( Bemassung)
100
AcDbLine
 10
204.4497296428281
 20
137.0777268606608
 30
0.0
 11
204.4497296428281
 21
147.0777267104758
 31
0.0
  0
SOLID
  5
3613
330
360B
100
AcDbEntity
  8
AM_5 ( Bemassung)
100
AcDbTrace
 10
203.1163963094948
 20
129.0777268606608
 30
0.0
 11
205.7830629761614
 21
129.0777268606608
 31
0.0
 12
204.4497296428281
 22
137.0777268606608
 32
0.0
 13
204.4497296428281
 23
137.0777268606608
 33
0.0
  0
SOLID
  5
3614
330
360B
100
AcDbEntity
  8
AM_5 ( Bemassung)
100
AcDbTrace
 10
203.1163963094948
 20
155.0777267104758
 30
0.0
 11
205.7830629761614
 21
155.0777267104758
 31
0.0
 12
204.4497296428281
 22
147.0777267104758
 32
0.0
 13
204.4497296428281
 23
147.0777267104758
 33
0.0
  0
MTEXT
  5
3615
330
360B
100
AcDbEntity
  8
AM_5 ( Bemassung)
 62
     2
100
AcDbMText
 10
197.8757187287762
 20
170.7499640911034
 30
0.0
 40
7.0
 41
0.0
 71
     5
 72
     1
  1
10
 11
0.0000000000000001
 21
1.0
 31
0.0
 73
     1
 44
1.0
  0
POINT
  5
3616
330
360B
100
AcDbEntity
  8
Defpoints
 62
     0
100
AcDbPoint
 10
166.271764586198
 20
147.0777267104758
 30
0.0
  0
POINT
  5
3617
330
360B
100
AcDbEntity
  8
Defpoints
 62
     0
100
AcDbPoint
 10
165.3059939946014
 20
137.0777268606608
 30
0.0
  0
POINT
  5
3618
330
360B
100
AcDbEntity
  8
Defpoints
 62
     0
100
AcDbPoint
 10
204.4497296428281
 20
137.0777268606608
 30
0.0
  0
ENDBLK
  5
360D
330
360B
100
AcDbEntity
  8
0
100
AcDbBlockEnd
  0
BLOCK
  5
361A
330
3619
100
AcDbEntity
  8
0
100
AcDbBlockBegin
  2
*D116
 70
     1
 10
0.0
 20
0.0
 30
0.0
  3
*D116
  1

  0
LINE
  5
361C
330
3619
100
AcDbEntity
  8
AM_5 ( Bemassung)
100
AcDbLine
 10
166.271764586198
 20
47.07772821232282
 30
0.0
 11
218.8410823385848
 21
47.07772821232281
 31
0.0
  0
LINE
  5
361D
330
3619
100
AcDbEntity
  8
AM_5 ( Bemassung)
100
AcDbLine
 10
167.1519797426014
 20
57.07772806213887
 30
0.0
 11
218.8410823385848
 21
57.07772806213886
 31
0.0
  0
LINE
  5
361E
330
3619
100
AcDbEntity
  8
AM_5 ( Bemassung)
100
AcDbLine
 10
216.8410823385848
 20
39.07772821232281
 30
0.0
 11
216.8410823385848
 21
31.07772821232281
 31
0.0
  0
LINE
  5
361F
330
3619
100
AcDbEntity
  8
AM_5 ( Bemassung)
100
AcDbLine
 10
216.8410823385848
 20
65.07772806213885
 30
0.0
 11
216.8410823385848
 21
88.42220282339397
 31
0.0
  0
LINE
  5
3620
330
3619
100
AcDbEntity
  8
AM_5 ( Bemassung)
100
AcDbLine
 10
216.8410823385848
 20
47.07772821232281
 30
0.0
 11
216.8410823385848
 21
57.07772806213886
 31
0.0
  0
SOLID
  5
3621
330
3619
100
AcDbEntity
  8
AM_5 ( Bemassung)
100
AcDbTrace
 10
215.5077490052514
 20
39.07772821232281
 30
0.0
 11
218.1744156719181
 21
39.07772821232281
 31
0.0
 12
216.8410823385848
 22
47.07772821232281
 32
0.0
 13
216.8410823385848
 23
47.07772821232281
 33
0.0
  0
SOLID
  5
3622
330
3619
100
AcDbEntity
  8
AM_5 ( Bemassung)
100
AcDbTrace
 10
215.5077490052515
 20
65.07772806213885
 30
0.0
 11
218.1744156719182
 21
65.07772806213885
 31
0.0
 12
216.8410823385848
 22
57.07772806213886
 32
0.0
 13
216.8410823385848
 23
57.07772806213886
 33
0.0
  0
MTEXT
  5
3623
330
3619
100
AcDbEntity
  8
AM_5 ( Bemassung)
 62
     2
100
AcDbMText
 10
210.2670714245329
 20
80.74996544276645
 30
0.0
 40
7.0
 41
0.0
 71
     5
 72
     1
  1
10
 11
0.0000000000000001
 21
1.0
 31
0.0
 73
     1
 44
1.0
  0
POINT
  5
3624
330
3619
100
AcDbEntity
  8
Defpoints
 62
     0
100
AcDbPoint
 10
166.271764586198
 20
47.07772821232282
 30
0.0
  0
POINT
  5
3625
330
3619
100
AcDbEntity
  8
Defpoints
 62
     0
100
AcDbPoint
 10
167.1519797426014
 20
57.07772806213887
 30
0.0
  0
POINT
  5
3626
330
3619
100
AcDbEntity
  8
Defpoints
 62
     0
100
AcDbPoint
 10
216.8410823385848
 20
57.07772806213886
 30
0.0
  0
ENDBLK
  5
361B
330
3619
100
AcDbEntity
  8
0
100
AcDbBlockEnd
  0
BLOCK
  5
3628
330
3627
100
AcDbEntity
  8
0
100
AcDbBlockBegin
  2
*D117
 70
     1
 10
0.0
 20
0.0
 30
0.0
  3
*D117
  1

  0
LINE
  5
362A
330
3627
100
AcDbEntity
  8
AM_5 ( Bemassung)
100
AcDbLine
 10
171.2717645861979
 20
52.07772821232282
 30
0.0
 11
171.2717645861979
 21
19.65128747675453
 31
0.0
  0
LINE
  5
362B
330
3627
100
AcDbEntity
  8
AM_5 ( Bemassung)
100
AcDbLine
 10
161.2717647363829
 20
50.79074899718381
 30
0.0
 11
161.2717647363829
 21
19.65128747675453
 31
0.0
  0
LINE
  5
362C
330
3627
100
AcDbEntity
  8
AM_5 ( Bemassung)
100
AcDbLine
 10
153.2717647363829
 20
21.65128747675453
 30
0.0
 11
145.2717647363829
 21
21.65128747675453
 31
0.0
  0
LINE
  5
362D
330
3627
100
AcDbEntity
  8
AM_5 ( Bemassung)
100
AcDbLine
 10
179.2717645861979
 20
21.65128747675453
 30
0.0
 11
202.6162393474531
 21
21.65128747675453
 31
0.0
  0
LINE
  5
362E
330
3627
100
AcDbEntity
  8
AM_5 ( Bemassung)
100
AcDbLine
 10
161.2717647363829
 20
21.65128747675453
 30
0.0
 11
171.2717645861979
 21
21.65128747675453
 31
0.0
  0
SOLID
  5
362F
330
3627
100
AcDbEntity
  8
AM_5 ( Bemassung)
100
AcDbTrace
 10
153.2717647363829
 20
22.98462081008787
 30
0.0
 11
153.2717647363829
 21
20.3179541434212
 31
0.0
 12
161.2717647363829
 22
21.65128747675453
 32
0.0
 13
161.2717647363829
 23
21.65128747675453
 33
0.0
  0
SOLID
  5
3630
330
3627
100
AcDbEntity
  8
AM_5 ( Bemassung)
100
AcDbTrace
 10
179.2717645861979
 20
22.98462081008787
 30
0.0
 11
179.2717645861979
 21
20.3179541434212
 31
0.0
 12
171.2717645861979
 22
21.65128747675453
 32
0.0
 13
171.2717645861979
 23
21.65128747675453
 33
0.0
  0
MTEXT
  5
3631
330
3627
100
AcDbEntity
  8
AM_5 ( Bemassung)
 62
     2
100
AcDbMText
 10
194.9440019668255
 20
28.22529839080637
 30
0.0
 40
7.0
 41
0.0
 71
     5
 72
     1
  1
10
 73
     1
 44
1.0
  0
POINT
  5
3632
330
3627
100
AcDbEntity
  8
Defpoints
 62
     0
100
AcDbPoint
 10
171.2717645861979
 20
52.07772821232282
 30
0.0
  0
POINT
  5
3633
330
3627
100
AcDbEntity
  8
Defpoints
 62
     0
100
AcDbPoint
 10
161.2717647363829
 20
50.79074899718381
 30
0.0
  0
POINT
  5
3634
330
3627
100
AcDbEntity
  8
Defpoints
 62
     0
100
AcDbPoint
 10
161.2717647363829
 20
21.65128747675453
 30
0.0
  0
ENDBLK
  5
3629
330
3627
100
AcDbEntity
  8
0
100
AcDbBlockEnd
  0
BLOCK
  5
3636
330
3635
100
AcDbEntity
  8
0
100
AcDbBlockBegin
  2
*D118
 70
     1
 10
0.0
 20
0.0
 30
0.0
  3
*D118
  1

  0
LINE
  5
3638
330
3635
100
AcDbEntity
  8
AM_5 ( Bemassung)
100
AcDbLine
 10
161.2717648382488
 20
134.0777269057168
 30
0.0
 11
140.7054943731204
 21
134.0777269057168
 31
0.0
  0
LINE
  5
3639
330
3635
100
AcDbEntity
  8
AM_5 ( Bemassung)
100
AcDbLine
 10
161.2717647363829
 20
140.0777268156058
 30
0.0
 11
140.7054943731204
 21
140.0777268156058
 31
0.0
  0
LINE
  5
363A
330
3635
100
AcDbEntity
  8
AM_5 ( Bemassung)
100
AcDbLine
 10
142.7054943731205
 20
126.0777269057168
 30
0.0
 11
142.7054943731205
 21
118.0777269057168
 31
0.0
  0
LINE
  5
363B
330
3635
100
AcDbEntity
  8
AM_5 ( Bemassung)
100
AcDbLine
 10
142.7054943731205
 20
148.0777268156058
 30
0.0
 11
142.7054943731205
 21
166.6998277705854
 31
0.0
  0
LINE
  5
363C
330
3635
100
AcDbEntity
  8
AM_5 ( Bemassung)
100
AcDbLine
 10
142.7054943731205
 20
134.0777269057168
 30
0.0
 11
142.7054943731205
 21
140.0777268156058
 31
0.0
  0
SOLID
  5
363D
330
3635
100
AcDbEntity
  8
AM_5 ( Bemassung)
100
AcDbTrace
 10
141.3721610397871
 20
126.0777269057168
 30
0.0
 11
144.0388277064538
 21
126.0777269057168
 31
0.0
 12
142.7054943731205
 22
134.0777269057168
 32
0.0
 13
142.7054943731205
 23
134.0777269057168
 33
0.0
  0
SOLID
  5
363E
330
3635
100
AcDbEntity
  8
AM_5 ( Bemassung)
100
AcDbTrace
 10
141.3721610397871
 20
148.0777268156058
 30
0.0
 11
144.0388277064538
 21
148.0777268156058
 31
0.0
 12
142.7054943731205
 22
140.0777268156058
 32
0.0
 13
142.7054943731205
 23
140.0777268156058
 33
0.0
  0
MTEXT
  5
363F
330
3635
100
AcDbEntity
  8
AM_5 ( Bemassung)
 62
     2
100
AcDbMText
 10
136.1314834590686
 20
161.3887772930956
 30
0.0
 40
7.0
 41
0.0
 71
     5
 72
     1
  1
6
 11
0.0000000000000001
 21
1.0
 31
0.0
 73
     1
 44
1.0
  0
POINT
  5
3640
330
3635
100
AcDbEntity
  8
Defpoints
 62
     0
100
AcDbPoint
 10
161.2717648382488
 20
134.0777269057168
 30
0.0
  0
POINT
  5
3641
330
3635
100
AcDbEntity
  8
Defpoints
 62
     0
100
AcDbPoint
 10
161.2717647363829
 20
140.0777268156058
 30
0.0
  0
POINT
  5
3642
330
3635
100
AcDbEntity
  8
Defpoints
 62
     0
100
AcDbPoint
 10
142.7054943731205
 20
140.0777268156058
 30
0.0
  0
ENDBLK
  5
3637
330
3635
100
AcDbEntity
  8
0
100
AcDbBlockEnd
  0
BLOCK
  5
3644
330
3643
100
AcDbEntity
  8
0
100
AcDbBlockBegin
  2
*D119
 70
     1
 10
0.0
 20
0.0
 30
0.0
  3
*D119
  1

  0
LINE
  5
3646
330
3643
100
AcDbEntity
  8
AM_5 ( Bemassung)
100
AcDbLine
 10
81.27176609066129
 20
132.5777268606608
 30
0.0
 11
100.854024469443
 21
132.5777268606608
 31
0.0
  0
LINE
  5
3647
330
3643
100
AcDbEntity
  8
AM_5 ( Bemassung)
100
AcDbLine
 10
81.27176593786236
 20
141.5777268606608
 30
0.0
 11
100.854024469443
 21
141.5777268606608
 31
0.0
  0
LINE
  5
3648
330
3643
100
AcDbEntity
  8
AM_5 ( Bemassung)
100
AcDbLine
 10
98.85402446944306
 20
124.5777268606608
 30
0.0
 11
98.85402446944306
 21
116.5777268606608
 31
0.0
  0
LINE
  5
3649
330
3643
100
AcDbEntity
  8
AM_5 ( Bemassung)
100
AcDbLine
 10
98.85402446944306
 20
149.5777268606608
 30
0.0
 11
98.85402446944308
 21
168.1807282249173
 31
0.0
  0
LINE
  5
364A
330
3643
100
AcDbEntity
  8
AM_5 ( Bemassung)
100
AcDbLine
 10
98.85402446944306
 20
132.5777268606608
 30
0.0
 11
98.85402446944306
 21
141.5777268606608
 31
0.0
  0
SOLID
  5
364B
330
3643
100
AcDbEntity
  8
AM_5 ( Bemassung)
100
AcDbTrace
 10
97.52069113610973
 20
124.5777268606608
 30
0.0
 11
100.1873578027764
 21
124.5777268606608
 31
0.0
 12
98.85402446944306
 22
132.5777268606608
 32
0.0
 13
98.85402446944306
 23
132.5777268606608
 33
0.0
  0
SOLID
  5
364C
330
3643
100
AcDbEntity
  8
AM_5 ( Bemassung)
100
AcDbTrace
 10
97.52069113610973
 20
149.5777268606608
 30
0.0
 11
100.1873578027764
 21
149.5777268606608
 31
0.0
 12
98.85402446944306
 22
141.5777268606608
 32
0.0
 13
98.85402446944306
 23
141.5777268606608
 33
0.0
  0
MTEXT
  5
364D
330
3643
100
AcDbEntity
  8
AM_5 ( Bemassung)
 62
     2
100
AcDbMText
 10
92.2800135553912
 20
162.8792275427891
 30
0.0
 40
7.0
 41
0.0
 71
     5
 72
     1
  1
9
 11
0.0000000000000001
 21
1.0
 31
0.0
 73
     1
 44
1.0
  0
POINT
  5
364E
330
3643
100
AcDbEntity
  8
Defpoints
 62
     0
100
AcDbPoint
 10
81.27176609066129
 20
132.5777268606608
 30
0.0
  0
POINT
  5
364F
330
3643
100
AcDbEntity
  8
Defpoints
 62
     0
100
AcDbPoint
 10
81.27176593786236
 20
141.5777268606608
 30
0.0
  0
POINT
  5
3650
330
3643
100
AcDbEntity
  8
Defpoints
 62
     0
100
AcDbPoint
 10
98.85402446944306
 20
141.5777268606608
 30
0.0
  0
ENDBLK
  5
3645
330
3643
100
AcDbEntity
  8
0
100
AcDbBlockEnd
  0
BLOCK
  5
3652
330
3651
100
AcDbEntity
  8
0
100
AcDbBlockBegin
  2
*D120
 70
     1
 10
0.0
 20
0.0
 30
0.0
  3
*D120
  1

  0
LINE
  5
3654
330
3651
100
AcDbEntity
  8
AM_5 ( Bemassung)
100
AcDbLine
 10
161.2717648891818
 20
52.57772806213887
 30
0.0
 11
199.4725610775376
 21
52.57772806213886
 31
0.0
  0
LINE
  5
3655
330
3651
100
AcDbEntity
  8
AM_5 ( Bemassung)
100
AcDbLine
 10
161.2717647363829
 20
61.57772806213888
 30
0.0
 11
199.4725610775376
 21
61.57772806213887
 31
0.0
  0
LINE
  5
3656
330
3651
100
AcDbEntity
  8
AM_5 ( Bemassung)
100
AcDbLine
 10
197.4725610775376
 20
44.57772806213887
 30
0.0
 11
197.4725610775376
 21
36.57772806213887
 31
0.0
  0
LINE
  5
3657
330
3651
100
AcDbEntity
  8
AM_5 ( Bemassung)
100
AcDbLine
 10
197.4725610775377
 20
69.57772806213886
 30
0.0
 11
197.4725610775377
 21
88.18072942639537
 31
0.0
  0
LINE
  5
3658
330
3651
100
AcDbEntity
  8
AM_5 ( Bemassung)
100
AcDbLine
 10
197.4725610775376
 20
52.57772806213886
 30
0.0
 11
197.4725610775376
 21
61.57772806213887
 31
0.0
  0
SOLID
  5
3659
330
3651
100
AcDbEntity
  8
AM_5 ( Bemassung)
100
AcDbTrace
 10
196.1392277442043
 20
44.57772806213887
 30
0.0
 11
198.805894410871
 21
44.57772806213887
 31
0.0
 12
197.4725610775376
 22
52.57772806213886
 32
0.0
 13
197.4725610775376
 23
52.57772806213886
 33
0.0
  0
SOLID
  5
365A
330
3651
100
AcDbEntity
  8
AM_5 ( Bemassung)
100
AcDbTrace
 10
196.1392277442043
 20
69.57772806213886
 30
0.0
 11
198.805894410871
 21
69.57772806213886
 31
0.0
 12
197.4725610775376
 22
61.57772806213887
 32
0.0
 13
197.4725610775376
 23
61.57772806213887
 33
0.0
  0
MTEXT
  5
365B
330
3651
100
AcDbEntity
  8
AM_5 ( Bemassung)
 62
     2
100
AcDbMText
 10
190.8985501634858
 20
82.87922874426714
 30
0.0
 40
7.0
 41
0.0
 71
     5
 72
     1
  1
9
 11
0.0000000000000001
 21
1.0
 31
0.0
 73
     1
 44
1.0
  0
POINT
  5
365C
330
3651
100
AcDbEntity
  8
Defpoints
 62
     0
100
AcDbPoint
 10
161.2717648891818
 20
52.57772806213887
 30
0.0
  0
POINT
  5
365D
330
3651
100
AcDbEntity
  8
Defpoints
 62
     0
100
AcDbPoint
 10
161.2717647363829
 20
61.57772806213888
 30
0.0
  0
POINT
  5
365E
330
3651
100
AcDbEntity
  8
Defpoints
 62
     0
100
AcDbPoint
 10
197.4725610775376
 20
61.57772806213887
 30
0.0
  0
ENDBLK
  5
3653
330
3651
100
AcDbEntity
  8
0
100
AcDbBlockEnd
  0
BLOCK
  5
3660
330
365F
100
AcDbEntity
  8
0
100
AcDbBlockBegin
  2
*D121
 70
     1
 10
0.0
 20
0.0
 30
0.0
  3
*D121
  1

  0
LINE
  5
3662
330
365F
100
AcDbEntity
  8
AM_5 ( Bemassung)
100
AcDbLine
 10
52.20258733709717
 20
24.85093997783244
 30
0.0
 11
68.32385444869093
 21
43.08713865584891
 31
0.0
  0
MTEXT
  5
3663
330
365F
100
AcDbEntity
  8
AM_5 ( Bemassung)
 62
     2
100
AcDbMText
 10
53.03045946205211
 20
35.69143456840976
 30
0.0
 40
7.0
 41
0.0
 71
     5
 72
     1
  1
R5
 11
0.6623259699463747
 21
0.7492157963728436
 31
0.0
 73
     1
 44
1.0
  0
LINE
  5
3664
330
365F
100
AcDbEntity
  8
AM_5 ( Bemassung)
100
AcDbLine
 10
76.27176608804721
 20
52.07772821232278
 30
0.0
 11
72.96013623831557
 21
48.33164923045882
 31
0.0
  0
SOLID
  5
3665
330
365F
100
AcDbEntity
  8
AM_5 ( Bemassung)
100
AcDbTrace
 10
67.44976935292263
 20
43.85985228745302
 30
0.0
 11
69.19793954445926
 21
42.31442502424481
 31
0.0
 12
72.96013623831557
 22
48.33164923045882
 32
0.0
 13
72.96013623831557
 23
48.33164923045882
 33
0.0
  0
POINT
  5
3666
330
365F
100
AcDbEntity
  8
Defpoints
 62
     0
100
AcDbPoint
 10
72.96013623831557
 20
48.33164923045882
 30
0.0
  0
POINT
  5
3667
330
365F
100
AcDbEntity
  8
Defpoints
 62
     0
100
AcDbPoint
 10
76.27176608804721
 20
52.07772821232278
 30
0.0
  0
ENDBLK
  5
3661
330
365F
100
AcDbEntity
  8
0
100
AcDbBlockEnd
  0
BLOCK
  5
3669
330
3668
100
AcDbEntity
  8
0
100
AcDbBlockBegin
  2
*D122
 70
     1
 10
0.0
 20
0.0
 30
0.0
  3
*D122
  1

  0
LINE
  5
366B
330
3668
100
AcDbEntity
  8
AM_5 ( Bemassung)
100
AcDbLine
 10
71.27176608804728
 20
142.0777267104758
 30
0.0
 11
71.27176608804728
 21
185.8340746319648
 31
0.0
  0
LINE
  5
366C
330
3668
100
AcDbEntity
  8
AM_5 ( Bemassung)
100
AcDbLine
 10
121.2717653371227
 20
153.7382958744438
 30
0.0
 11
121.2717653371227
 21
185.8340746319648
 31
0.0
  0
LINE
  5
366D
330
3668
100
AcDbEntity
  8
AM_5 ( Bemassung)
100
AcDbLine
 10
79.27176608804728
 20
183.8340746319648
 30
0.0
 11
113.2717653371227
 21
183.8340746319648
 31
0.0
  0
SOLID
  5
366E
330
3668
100
AcDbEntity
  8
AM_5 ( Bemassung)
100
AcDbTrace
 10
79.27176608804728
 20
185.1674079652982
 30
0.0
 11
79.27176608804728
 21
182.5007412986314
 31
0.0
 12
71.27176608804728
 22
183.8340746319648
 32
0.0
 13
71.27176608804728
 23
183.8340746319648
 33
0.0
  0
SOLID
  5
366F
330
3668
100
AcDbEntity
  8
AM_5 ( Bemassung)
100
AcDbTrace
 10
113.2717653371227
 20
185.1674079652982
 30
0.0
 11
113.2717653371227
 21
182.5007412986314
 31
0.0
 12
121.2717653371227
 22
183.8340746319648
 32
0.0
 13
121.2717653371227
 23
183.8340746319648
 33
0.0
  0
MTEXT
  5
3670
330
3668
100
AcDbEntity
  8
AM_5 ( Bemassung)
 62
     2
100
AcDbMText
 10
96.271765712585
 20
190.4080855460167
 30
0.0
 40
7.0
 41
0.0
 71
     5
 72
     1
  1
50
 73
     1
 44
1.0
  0
POINT
  5
3671
330
3668
100
AcDbEntity
  8
Defpoints
 62
     0
100
AcDbPoint
 10
71.27176608804728
 20
142.0777267104758
 30
0.0
  0
POINT
  5
3672
330
3668
100
AcDbEntity
  8
Defpoints
 62
     0
100
AcDbPoint
 10
121.2717653371227
 20
153.7382958744438
 30
0.0
  0
POINT
  5
3673
330
3668
100
AcDbEntity
  8
Defpoints
 62
     0
100
AcDbPoint
 10
121.2717653371227
 20
183.8340746319648
 30
0.0
  0
ENDBLK
  5
366A
330
3668
100
AcDbEntity
  8
0
100
AcDbBlockEnd
  0
BLOCK
  5
3675
330
3674
100
AcDbEntity
  8
0
100
AcDbBlockBegin
  2
*D123
 70
     1
 10
0.0
 20
0.0
 30
0.0
  3
*D123
  1

  0
LINE
  5
3677
330
3674
100
AcDbEntity
  8
AM_5 ( Bemassung)
100
AcDbLine
 10
76.27176608804728
 20
147.0777267104758
 30
0.0
 11
34.04104778021714
 21
147.0777267104758
 31
0.0
  0
LINE
  5
3678
330
3674
100
AcDbEntity
  8
AM_5 ( Bemassung)
100
AcDbLine
 10
63.55104932823895
 20
97.07772746139983
 30
0.0
 11
34.04104778021713
 21
97.07772746139983
 31
0.0
  0
LINE
  5
3679
330
3674
100
AcDbEntity
  8
AM_5 ( Bemassung)
100
AcDbLine
 10
36.04104778021714
 20
139.0777267104758
 30
0.0
 11
36.04104778021713
 21
105.0777274613998
 31
0.0
  0
SOLID
  5
367A
330
3674
100
AcDbEntity
  8
AM_5 ( Bemassung)
100
AcDbTrace
 10
34.7077144468838
 20
139.0777267104758
 30
0.0
 11
37.37438111355047
 21
139.0777267104758
 31
0.0
 12
36.04104778021714
 22
147.0777267104758
 32
0.0
 13
36.04104778021714
 23
147.0777267104758
 33
0.0
  0
SOLID
  5
367B
330
3674
100
AcDbEntity
  8
AM_5 ( Bemassung)
100
AcDbTrace
 10
34.70771444688379
 20
105.0777274613998
 30
0.0
 11
37.37438111355046
 21
105.0777274613998
 31
0.0
 12
36.04104778021713
 22
97.07772746139983
 32
0.0
 13
36.04104778021713
 23
97.07772746139983
 33
0.0
  0
MTEXT
  5
367C
330
3674
100
AcDbEntity
  8
AM_5 ( Bemassung)
 62
     2
100
AcDbMText
 10
29.46703686616528
 20
122.0777270859378
 30
0.0
 40
7.0
 41
0.0
 71
     5
 72
     1
  1
50
 11
0.0000000000000001
 21
1.0
 31
0.0
 73
     1
 44
1.0
  0
POINT
  5
367D
330
3674
100
AcDbEntity
  8
Defpoints
 62
     0
100
AcDbPoint
 10
76.27176608804728
 20
147.0777267104758
 30
0.0
  0
POINT
  5
367E
330
3674
100
AcDbEntity
  8
Defpoints
 62
     0
100
AcDbPoint
 10
63.55104932823895
 20
97.07772746139983
 30
0.0
  0
POINT
  5
367F
330
3674
100
AcDbEntity
  8
Defpoints
 62
     0
100
AcDbPoint
 10
36.04104778021713
 20
97.07772746139983
 30
0.0
  0
ENDBLK
  5
3676
330
3674
100
AcDbEntity
  8
0
100
AcDbBlockEnd
  0
BLOCK
  5
3681
330
3680
100
AcDbEntity
  8
0
100
AcDbBlockBegin
  2
*D124
 70
     1
 10
0.0
 20
0.0
 30
0.0
  3
*D124
  1

  0
LINE
  5
3683
330
3680
100
AcDbEntity
  8
AM_5 ( Bemassung)
100
AcDbLine
 10
411.2545493426333
 20
426.9380434656741
 30
0.0
 11
371.4510325645952
 21
426.9380434656742
 31
0.0
  0
LINE
  5
3684
330
3680
100
AcDbEntity
  8
AM_5 ( Bemassung)
100
AcDbLine
 10
412.8545493186043
 20
401.9380438411365
 30
0.0
 11
371.4510325645952
 21
401.9380438411365
 31
0.0
  0
LINE
  5
3685
330
3680
100
AcDbEntity
  8
AM_5 ( Bemassung)
100
AcDbLine
 10
373.4510325645952
 20
418.9380434656742
 30
0.0
 11
373.4510325645952
 21
409.9380438411365
 31
0.0
  0
SOLID
  5
3686
330
3680
100
AcDbEntity
  8
AM_5 ( Bemassung)
100
AcDbTrace
 10
372.1176992312619
 20
418.9380434656742
 30
0.0
 11
374.7843658979285
 21
418.9380434656742
 31
0.0
 12
373.4510325645952
 22
426.9380434656742
 32
0.0
 13
373.4510325645952
 23
426.9380434656742
 33
0.0
  0
SOLID
  5
3687
330
3680
100
AcDbEntity
  8
AM_5 ( Bemassung)
100
AcDbTrace
 10
372.1176992312619
 20
409.9380438411365
 30
0.0
 11
374.7843658979285
 21
409.9380438411365
 31
0.0
 12
373.4510325645952
 22
401.9380438411365
 32
0.0
 13
373.4510325645952
 23
401.9380438411365
 33
0.0
  0
MTEXT
  5
3688
330
3680
100
AcDbEntity
  8
AM_5 ( Bemassung)
 62
     2
100
AcDbMText
 10
366.8770216505432
 20
414.4380436534055
 30
0.0
 40
7.0
 41
0.0
 71
     5
 72
     1
  1
25
 11
0.0000000000000001
 21
1.0
 31
0.0
 73
     1
 44
1.0
  0
POINT
  5
3689
330
3680
100
AcDbEntity
  8
Defpoints
 62
     0
100
AcDbPoint
 10
411.2545493426333
 20
426.9380434656741
 30
0.0
  0
POINT
  5
368A
330
3680
100
AcDbEntity
  8
Defpoints
 62
     0
100
AcDbPoint
 10
412.8545493186043
 20
401.9380438411365
 30
0.0
  0
POINT
  5
368B
330
3680
100
AcDbEntity
  8
Defpoints
 62
     0
100
AcDbPoint
 10
373.4510325645952
 20
401.9380438411365
 30
0.0
  0
ENDBLK
  5
3682
330
3680
100
AcDbEntity
  8
0
100
AcDbBlockEnd
  0
BLOCK
  5
368D
330
368C
100
AcDbEntity
  8
0
100
AcDbBlockBegin
  2
*D125
 70
     1
 10
0.0
 20
0.0
 30
0.0
  3
*D125
  1

  0
LINE
  5
368F
330
368C
100
AcDbEntity
  8
AM_5 ( Bemassung)
100
AcDbLine
 10
411.2545493426333
 20
251.9380460939104
 30
0.0
 11
371.5793099346147
 21
251.9380460939104
 31
0.0
  0
LINE
  5
3690
330
368C
100
AcDbEntity
  8
AM_5 ( Bemassung)
100
AcDbLine
 10
412.8545493186043
 20
276.938045718448
 30
0.0
 11
371.5793099346147
 21
276.9380457184481
 31
0.0
  0
LINE
  5
3691
330
368C
100
AcDbEntity
  8
AM_5 ( Bemassung)
100
AcDbLine
 10
373.5793099346147
 20
259.9380460939105
 30
0.0
 11
373.5793099346147
 21
268.9380457184481
 31
0.0
  0
SOLID
  5
3692
330
368C
100
AcDbEntity
  8
AM_5 ( Bemassung)
100
AcDbTrace
 10
372.2459766012814
 20
259.9380460939105
 30
0.0
 11
374.912643267948
 21
259.9380460939105
 31
0.0
 12
373.5793099346147
 22
251.9380460939104
 32
0.0
 13
373.5793099346147
 23
251.9380460939104
 33
0.0
  0
SOLID
  5
3693
330
368C
100
AcDbEntity
  8
AM_5 ( Bemassung)
100
AcDbTrace
 10
372.2459766012814
 20
268.9380457184481
 30
0.0
 11
374.912643267948
 21
268.9380457184481
 31
0.0
 12
373.5793099346147
 22
276.9380457184481
 32
0.0
 13
373.5793099346147
 23
276.9380457184481
 33
0.0
  0
MTEXT
  5
3694
330
368C
100
AcDbEntity
  8
AM_5 ( Bemassung)
 62
     2
100
AcDbMText
 10
367.0052990205628
 20
264.4380459061793
 30
0.0
 40
7.0
 41
0.0
 71
     5
 72
     1
  1
25
 11
0.0000000000000001
 21
1.0
 31
0.0
 73
     1
 44
1.0
  0
POINT
  5
3695
330
368C
100
AcDbEntity
  8
Defpoints
 62
     0
100
AcDbPoint
 10
411.2545493426333
 20
251.9380460939104
 30
0.0
  0
POINT
  5
3696
330
368C
100
AcDbEntity
  8
Defpoints
 62
     0
100
AcDbPoint
 10
412.8545493186043
 20
276.938045718448
 30
0.0
  0
POINT
  5
3697
330
368C
100
AcDbEntity
  8
Defpoints
 62
     0
100
AcDbPoint
 10
373.5793099346147
 20
276.9380457184481
 30
0.0
  0
ENDBLK
  5
368E
330
368C
100
AcDbEntity
  8
0
100
AcDbBlockEnd
  0
BLOCK
  5
3699
330
3698
100
AcDbEntity
  8
0
100
AcDbBlockBegin
  2
*D126
 70
     1
 10
0.0
 20
0.0
 30
0.0
  3
*D126
  1

  0
LINE
  5
369B
330
3698
100
AcDbEntity
  8
AM_5 ( Bemassung)
100
AcDbLine
 10
95.77176572009433
 20
426.9380434656741
 30
0.0
 11
11.8336710376822
 21
426.9380434656741
 31
0.0
  0
LINE
  5
369C
330
3698
100
AcDbEntity
  8
AM_5 ( Bemassung)
100
AcDbLine
 10
95.77176572009433
 20
251.9380460939104
 30
0.0
 11
11.83367103768216
 21
251.9380460939105
 31
0.0
  0
LINE
  5
369D
330
3698
100
AcDbEntity
  8
AM_5 ( Bemassung)
100
AcDbLine
 10
13.8336710376822
 20
418.9380434656741
 30
0.0
 11
13.83367103768217
 21
259.9380460939104
 31
0.0
  0
SOLID
  5
369E
330
3698
100
AcDbEntity
  8
AM_5 ( Bemassung)
100
AcDbTrace
 10
12.50033770434887
 20
418.9380434656741
 30
0.0
 11
15.16700437101554
 21
418.9380434656741
 31
0.0
 12
13.8336710376822
 22
426.9380434656741
 32
0.0
 13
13.8336710376822
 23
426.9380434656741
 33
0.0
  0
SOLID
  5
369F
330
3698
100
AcDbEntity
  8
AM_5 ( Bemassung)
100
AcDbTrace
 10
12.50033770434883
 20
259.9380460939104
 30
0.0
 11
15.1670043710155
 21
259.9380460939104
 31
0.0
 12
13.83367103768216
 22
251.9380460939105
 32
0.0
 13
13.83367103768216
 23
251.9380460939105
 33
0.0
  0
MTEXT
  5
36A0
330
3698
100
AcDbEntity
  8
AM_5 ( Bemassung)
 62
     2
100
AcDbMText
 10
7.259660123630289
 20
339.4380447797923
 30
0.0
 40
7.0
 41
0.0
 71
     5
 72
     1
  1
175
 11
0.0000000000000001
 21
1.0
 31
0.0
 73
     1
 44
1.0
  0
POINT
  5
36A1
330
3698
100
AcDbEntity
  8
Defpoints
 62
     0
100
AcDbPoint
 10
95.77176572009433
 20
426.9380434656741
 30
0.0
  0
POINT
  5
36A2
330
3698
100
AcDbEntity
  8
Defpoints
 62
     0
100
AcDbPoint
 10
95.77176572009433
 20
251.9380460939104
 30
0.0
  0
POINT
  5
36A3
330
3698
100
AcDbEntity
  8
Defpoints
 62
     0
100
AcDbPoint
 10
13.83367103768216
 20
251.9380460939105
 30
0.0
  0
ENDBLK
  5
369A
330
3698
100
AcDbEntity
  8
0
100
AcDbBlockEnd
  0
BLOCK
  5
36A5
330
36A4
100
AcDbEntity
  8
0
100
AcDbBlockBegin
  2
*D127
 70
     1
 10
0.0
 20
0.0
 30
0.0
  3
*D127
  1

  0
LINE
  5
36A7
330
36A4
100
AcDbEntity
  8
AM_5 ( Bemassung)
100
AcDbLine
 10
70.77176609555658
 20
340.4380434656741
 30
0.0
 11
30.57191280770576
 21
340.4380434656741
 31
0.0
  0
LINE
  5
36A8
330
36A4
100
AcDbEntity
  8
AM_5 ( Bemassung)
100
AcDbLine
 10
70.77176609555658
 20
338.4380434656741
 30
0.0
 11
30.57191280770576
 21
338.4380434656741
 31
0.0
  0
LINE
  5
36A9
330
36A4
100
AcDbEntity
  8
AM_5 ( Bemassung)
100
AcDbLine
 10
32.57191280770576
 20
348.4380434656741
 30
0.0
 11
32.57191280770576
 21
356.4380434656741
 31
0.0
  0
LINE
  5
36AA
330
36A4
100
AcDbEntity
  8
AM_5 ( Bemassung)
100
AcDbLine
 10
32.57191280770575
 20
330.4380434656741
 30
0.0
 11
32.57191280770575
 21
311.8016178176523
 31
0.0
  0
LINE
  5
36AB
330
36A4
100
AcDbEntity
  8
AM_5 ( Bemassung)
100
AcDbLine
 10
32.57191280770576
 20
340.4380434656741
 30
0.0
 11
32.57191280770576
 21
338.4380434656741
 31
0.0
  0
SOLID
  5
36AC
330
36A4
100
AcDbEntity
  8
AM_5 ( Bemassung)
100
AcDbTrace
 10
31.23857947437242
 20
348.4380434656741
 30
0.0
 11
33.9052461410391
 21
348.4380434656741
 31
0.0
 12
32.57191280770576
 22
340.4380434656741
 32
0.0
 13
32.57191280770576
 23
340.4380434656741
 33
0.0
  0
SOLID
  5
36AD
330
36A4
100
AcDbEntity
  8
AM_5 ( Bemassung)
100
AcDbTrace
 10
31.23857947437242
 20
330.4380434656741
 30
0.0
 11
33.90524614103909
 21
330.4380434656741
 31
0.0
 12
32.57191280770576
 22
338.4380434656741
 32
0.0
 13
32.57191280770576
 23
338.4380434656741
 33
0.0
  0
MTEXT
  5
36AE
330
36A4
100
AcDbEntity
  8
AM_5 ( Bemassung)
 62
     2
100
AcDbMText
 10
26.05758811466341
 20
317.1198306416632
 30
0.0
 40
7.0
 41
0.0
 71
     5
 72
     1
  1
2
 11
0.0000000000000001
 21
1.0
 31
0.0
 73
     1
 44
1.0
  0
POINT
  5
36AF
330
36A4
100
AcDbEntity
  8
Defpoints
 62
     0
100
AcDbPoint
 10
70.77176609555658
 20
340.4380434656741
 30
0.0
  0
POINT
  5
36B0
330
36A4
100
AcDbEntity
  8
Defpoints
 62
     0
100
AcDbPoint
 10
70.77176609555658
 20
338.4380434656741
 30
0.0
  0
POINT
  5
36B1
330
36A4
100
AcDbEntity
  8
Defpoints
 62
     0
100
AcDbPoint
 10
32.57191280770576
 20
338.4380434656741
 30
0.0
  0
ENDBLK
  5
36A6
330
36A4
100
AcDbEntity
  8
0
100
AcDbBlockEnd
  0
BLOCK
  5
36B3
330
36B2
100
AcDbEntity
  8
0
100
AcDbBlockBegin
  2
*D128
 70
     1
 10
0.0
 20
0.0
 30
0.0
  3
*D128
  1

  0
LINE
  5
36B5
330
36B2
100
AcDbEntity
  8
AM_5 ( Bemassung)
100
AcDbLine
 10
95.77176572009433
 20
426.9380434656741
 30
0.0
 11
30.57191280770578
 21
426.9380434656741
 31
0.0
  0
LINE
  5
36B6
330
36B2
100
AcDbEntity
  8
AM_5 ( Bemassung)
100
AcDbLine
 10
70.77176609555658
 20
340.4380434656741
 30
0.0
 11
30.57191280770577
 21
340.4380434656741
 31
0.0
  0
LINE
  5
36B7
330
36B2
100
AcDbEntity
  8
AM_5 ( Bemassung)
100
AcDbLine
 10
32.57191280770579
 20
418.9380434656741
 30
0.0
 11
32.57191280770577
 21
348.4380434656741
 31
0.0
  0
SOLID
  5
36B8
330
36B2
100
AcDbEntity
  8
AM_5 ( Bemassung)
100
AcDbTrace
 10
31.23857947437246
 20
418.9380434656741
 30
0.0
 11
33.90524614103912
 21
418.9380434656741
 31
0.0
 12
32.57191280770579
 22
426.9380434656741
 32
0.0
 13
32.57191280770579
 23
426.9380434656741
 33
0.0
  0
SOLID
  5
36B9
330
36B2
100
AcDbEntity
  8
AM_5 ( Bemassung)
100
AcDbTrace
 10
31.23857947437244
 20
348.4380434656741
 30
0.0
 11
33.90524614103911
 21
348.4380434656741
 31
0.0
 12
32.57191280770577
 22
340.4380434656741
 32
0.0
 13
32.57191280770577
 23
340.4380434656741
 33
0.0
  0
MTEXT
  5
36BA
330
36B2
100
AcDbEntity
  8
AM_5 ( Bemassung)
 62
     2
100
AcDbMText
 10
25.99790189365388
 20
383.6880434656741
 30
0.0
 40
7.0
 41
0.0
 71
     5
 72
     1
  1
86.5
 11
0.0000000000000001
 21
1.0
 31
0.0
 73
     1
 44
1.0
  0
POINT
  5
36BB
330
36B2
100
AcDbEntity
  8
Defpoints
 62
     0
100
AcDbPoint
 10
95.77176572009433
 20
426.9380434656741
 30
0.0
  0
POINT
  5
36BC
330
36B2
100
AcDbEntity
  8
Defpoints
 62
     0
100
AcDbPoint
 10
70.77176609555658
 20
340.4380434656741
 30
0.0
  0
POINT
  5
36BD
330
36B2
100
AcDbEntity
  8
Defpoints
 62
     0
100
AcDbPoint
 10
32.57191280770577
 20
340.4380434656741
 30
0.0
  0
ENDBLK
  5
36B4
330
36B2
100
AcDbEntity
  8
0
100
AcDbBlockEnd
  0
BLOCK
  5
36BF
330
36BE
100
AcDbEntity
  8
0
100
AcDbBlockBegin
  2
*D129
 70
     1
 10
0.0
 20
0.0
 30
0.0
  3
*D129
  1

  0
LINE
  5
36C1
330
36BE
100
AcDbEntity
  8
AM_5 ( Bemassung)
100
AcDbLine
 10
70.77176609555658
 20
338.4380434656741
 30
0.0
 11
30.65038562859127
 21
338.4380434656741
 31
0.0
  0
LINE
  5
36C2
330
36BE
100
AcDbEntity
  8
AM_5 ( Bemassung)
100
AcDbLine
 10
95.77176572009433
 20
251.9380460939104
 30
0.0
 11
30.65038562859125
 21
251.9380460939105
 31
0.0
  0
LINE
  5
36C3
330
36BE
100
AcDbEntity
  8
AM_5 ( Bemassung)
100
AcDbLine
 10
32.65038562859127
 20
330.4380434656741
 30
0.0
 11
32.65038562859125
 21
259.9380460939104
 31
0.0
  0
SOLID
  5
36C4
330
36BE
100
AcDbEntity
  8
AM_5 ( Bemassung)
100
AcDbTrace
 10
31.31705229525794
 20
330.4380434656741
 30
0.0
 11
33.9837189619246
 21
330.4380434656741
 31
0.0
 12
32.65038562859127
 22
338.4380434656741
 32
0.0
 13
32.65038562859127
 23
338.4380434656741
 33
0.0
  0
SOLID
  5
36C5
330
36BE
100
AcDbEntity
  8
AM_5 ( Bemassung)
100
AcDbTrace
 10
31.31705229525792
 20
259.9380460939104
 30
0.0
 11
33.98371896192459
 21
259.9380460939104
 31
0.0
 12
32.65038562859125
 22
251.9380460939105
 32
0.0
 13
32.65038562859125
 23
251.9380460939105
 33
0.0
  0
MTEXT
  5
36C6
330
36BE
100
AcDbEntity
  8
AM_5 ( Bemassung)
 62
     2
100
AcDbMText
 10
26.07637471453938
 20
295.1880447797923
 30
0.0
 40
7.0
 41
0.0
 71
     5
 72
     1
  1
86.5
 11
0.0000000000000001
 21
1.0
 31
0.0
 73
     1
 44
1.0
  0
POINT
  5
36C7
330
36BE
100
AcDbEntity
  8
Defpoints
 62
     0
100
AcDbPoint
 10
70.77176609555658
 20
338.4380434656741
 30
0.0
  0
POINT
  5
36C8
330
36BE
100
AcDbEntity
  8
Defpoints
 62
     0
100
AcDbPoint
 10
95.77176572009433
 20
251.9380460939104
 30
0.0
  0
POINT
  5
36C9
330
36BE
100
AcDbEntity
  8
Defpoints
 62
     0
100
AcDbPoint
 10
32.65038562859125
 20
251.9380460939105
 30
0.0
  0
ENDBLK
  5
36C0
330
36BE
100
AcDbEntity
  8
0
100
AcDbBlockEnd
  0
BLOCK
  5
36CB
330
36CA
100
AcDbEntity
  8
0
100
AcDbBlockBegin
  2
*D130
 70
     1
 10
0.0
 20
0.0
 30
0.0
  3
*D130
  1

  0
LINE
  5
36CD
330
36CA
100
AcDbEntity
  8
AM_5 ( Bemassung)
100
AcDbLine
 10
94.77176573511281
 20
425.9380434806928
 30
0.0
 11
51.80271837888827
 21
425.9380434806928
 31
0.0
  0
LINE
  5
36CE
330
36CA
100
AcDbEntity
  8
AM_5 ( Bemassung)
100
AcDbLine
 10
95.77176572009433
 20
426.9380434656741
 30
0.0
 11
51.80271837888827
 21
426.9380434656741
 31
0.0
  0
LINE
  5
36CF
330
36CA
100
AcDbEntity
  8
AM_5 ( Bemassung)
100
AcDbLine
 10
53.80271837888827
 20
417.9380434806928
 30
0.0
 11
53.80271837888827
 21
409.9380434806928
 31
0.0
  0
LINE
  5
36D0
330
36CA
100
AcDbEntity
  8
AM_5 ( Bemassung)
100
AcDbLine
 10
53.80271837888828
 20
434.9380434656741
 30
0.0
 11
53.80271837888829
 21
472.3398169990984
 31
0.0
  0
LINE
  5
36D1
330
36CA
100
AcDbEntity
  8
AM_5 ( Bemassung)
100
AcDbLine
 10
53.80271837888827
 20
425.9380434806928
 30
0.0
 11
53.80271837888827
 21
426.9380434656741
 31
0.0
  0
SOLID
  5
36D2
330
36CA
100
AcDbEntity
  8
AM_5 ( Bemassung)
100
AcDbTrace
 10
52.46938504555494
 20
417.9380434806928
 30
0.0
 11
55.1360517122216
 21
417.9380434806928
 31
0.0
 12
53.80271837888827
 22
425.9380434806928
 32
0.0
 13
53.80271837888827
 23
425.9380434806928
 33
0.0
  0
SOLID
  5
36D3
330
36CA
100
AcDbEntity
  8
AM_5 ( Bemassung)
100
AcDbTrace
 10
52.46938504555494
 20
434.9380434656741
 30
0.0
 11
55.13605171222161
 21
434.9380434656741
 31
0.0
 12
53.80271837888827
 22
426.9380434656741
 32
0.0
 13
53.80271837888827
 23
426.9380434656741
 33
0.0
  0
MTEXT
  5
36D4
330
36CA
100
AcDbEntity
  8
AM_5 ( Bemassung)
 62
     2
100
AcDbMText
 10
47.22870746483637
 20
457.6389302323862
 30
0.0
 40
7.0
 41
0.0
 71
     5
 72
     1
  1
1x45%%D
 11
0.0000000000000001
 21
1.0
 31
0.0
 73
     1
 44
1.0
  0
POINT
  5
36D5
330
36CA
100
AcDbEntity
  8
Defpoints
 62
     0
100
AcDbPoint
 10
94.77176573511281
 20
425.9380434806928
 30
0.0
  0
POINT
  5
36D6
330
36CA
100
AcDbEntity
  8
Defpoints
 62
     0
100
AcDbPoint
 10
95.77176572009433
 20
426.9380434656741
 30
0.0
  0
POINT
  5
36D7
330
36CA
100
AcDbEntity
  8
Defpoints
 62
     0
100
AcDbPoint
 10
53.80271837888827
 20
426.9380434656741
 30
0.0
  0
ENDBLK
  5
36CC
330
36CA
100
AcDbEntity
  8
0
100
AcDbBlockEnd
  0
BLOCK
  5
36D9
330
36D8
100
AcDbEntity
  8
0
100
AcDbBlockBegin
  2
*D131
 70
     1
 10
0.0
 20
0.0
 30
0.0
  3
*D131
  1

  0
LINE
  5
36DB
330
36D8
100
AcDbEntity
  8
AM_5 ( Bemassung)
100
AcDbLine
 10
95.77176572009433
 20
251.9380460939104
 30
0.0
 11
51.8027183788883
 21
251.9380460939105
 31
0.0
  0
LINE
  5
36DC
330
36D8
100
AcDbEntity
  8
AM_5 ( Bemassung)
100
AcDbLine
 10
94.77176573511281
 20
252.9380460788919
 30
0.0
 11
51.8027183788883
 21
252.9380460788919
 31
0.0
  0
LINE
  5
36DD
330
36D8
100
AcDbEntity
  8
AM_5 ( Bemassung)
100
AcDbLine
 10
53.8027183788883
 20
243.9380460939104
 30
0.0
 11
53.80271837888829
 21
235.9380460939104
 31
0.0
  0
LINE
  5
36DE
330
36D8
100
AcDbEntity
  8
AM_5 ( Bemassung)
100
AcDbLine
 10
53.8027183788883
 20
260.9380460788919
 30
0.0
 11
53.8027183788883
 21
298.3398196123162
 31
0.0
  0
LINE
  5
36DF
330
36D8
100
AcDbEntity
  8
AM_5 ( Bemassung)
100
AcDbLine
 10
53.8027183788883
 20
251.9380460939105
 30
0.0
 11
53.8027183788883
 21
252.9380460788919
 31
0.0
  0
SOLID
  5
36E0
330
36D8
100
AcDbEntity
  8
AM_5 ( Bemassung)
100
AcDbTrace
 10
52.46938504555497
 20
243.9380460939104
 30
0.0
 11
55.13605171222163
 21
243.9380460939104
 31
0.0
 12
53.8027183788883
 22
251.9380460939105
 32
0.0
 13
53.8027183788883
 23
251.9380460939105
 33
0.0
  0
SOLID
  5
36E1
330
36D8
100
AcDbEntity
  8
AM_5 ( Bemassung)
100
AcDbTrace
 10
52.46938504555497
 20
260.9380460788919
 30
0.0
 11
55.13605171222163
 21
260.9380460788919
 31
0.0
 12
53.8027183788883
 22
252.9380460788919
 32
0.0
 13
53.8027183788883
 23
252.9380460788919
 33
0.0
  0
MTEXT
  5
36E2
330
36D8
100
AcDbEntity
  8
AM_5 ( Bemassung)
 62
     2
100
AcDbMText
 10
47.22870746483642
 20
283.6389328456041
 30
0.0
 40
7.0
 41
0.0
 71
     5
 72
     1
  1
1x45%%D
 11
0.0000000000000001
 21
1.0
 31
0.0
 73
     1
 44
1.0
  0
POINT
  5
36E3
330
36D8
100
AcDbEntity
  8
Defpoints
 62
     0
100
AcDbPoint
 10
95.77176572009433
 20
251.9380460939104
 30
0.0
  0
POINT
  5
36E4
330
36D8
100
AcDbEntity
  8
Defpoints
 62
     0
100
AcDbPoint
 10
94.77176573511281
 20
252.9380460788919
 30
0.0
  0
POINT
  5
36E5
330
36D8
100
AcDbEntity
  8
Defpoints
 62
     0
100
AcDbPoint
 10
53.8027183788883
 20
252.9380460788919
 30
0.0
  0
ENDBLK
  5
36DA
330
36D8
100
AcDbEntity
  8
0
100
AcDbBlockEnd
  0
BLOCK
  5
36E7
330
36E6
100
AcDbEntity
  8
0
100
AcDbBlockBegin
  2
*D132
 70
     1
 10
0.0
 20
0.0
 30
0.0
  3
*D132
  1

  0
LINE
  5
36E9
330
36E6
100
AcDbEntity
  8
AM_5 ( Bemassung)
100
AcDbLine
 10
460.6545486007203
 20
426.8380431067321
 30
0.0
 11
460.6545486007203
 21
454.9894077737337
 31
0.0
  0
LINE
  5
36EA
330
36E6
100
AcDbEntity
  8
AM_5 ( Bemassung)
100
AcDbLine
 10
412.8545493186043
 20
426.838043106732
 30
0.0
 11
412.8545493186043
 21
454.9894077737337
 31
0.0
  0
LINE
  5
36EB
330
36E6
100
AcDbEntity
  8
AM_5 ( Bemassung)
100
AcDbLine
 10
452.6545486007202
 20
452.9894077737337
 30
0.0
 11
420.8545493186043
 21
452.9894077737337
 31
0.0
  0
SOLID
  5
36EC
330
36E6
100
AcDbEntity
  8
AM_5 ( Bemassung)
100
AcDbTrace
 10
452.6545486007202
 20
454.322741107067
 30
0.0
 11
452.6545486007202
 21
451.6560744404004
 31
0.0
 12
460.6545486007203
 22
452.9894077737337
 32
0.0
 13
460.6545486007203
 23
452.9894077737337
 33
0.0
  0
SOLID
  5
36ED
330
36E6
100
AcDbEntity
  8
AM_5 ( Bemassung)
100
AcDbTrace
 10
420.8545493186043
 20
454.322741107067
 30
0.0
 11
420.8545493186043
 21
451.6560744404004
 31
0.0
 12
412.8545493186043
 22
452.9894077737337
 32
0.0
 13
412.8545493186043
 23
452.9894077737337
 33
0.0
  0
MTEXT
  5
36EE
330
36E6
100
AcDbEntity
  8
AM_5 ( Bemassung)
 62
     2
100
AcDbMText
 10
436.7545489596623
 20
459.6087802157528
 30
0.0
 40
7.0
 41
0.0
 71
     5
 72
     1
  1
G 1 1/2
 73
     1
 44
1.0
  0
POINT
  5
36EF
330
36E6
100
AcDbEntity
  8
Defpoints
 62
     0
100
AcDbPoint
 10
460.6545486007203
 20
426.8380431067321
 30
0.0
  0
POINT
  5
36F0
330
36E6
100
AcDbEntity
  8
Defpoints
 62
     0
100
AcDbPoint
 10
412.8545493186043
 20
426.838043106732
 30
0.0
  0
POINT
  5
36F1
330
36E6
100
AcDbEntity
  8
Defpoints
 62
     0
100
AcDbPoint
 10
412.8545493186043
 20
452.9894077737337
 30
0.0
  0
ENDBLK
  5
36E8
330
36E6
100
AcDbEntity
  8
0
100
AcDbBlockEnd
  0
BLOCK
  5
36F3
330
36F2
100
AcDbEntity
  8
0
100
AcDbBlockBegin
  2
*D133
 70
     1
 10
0.0
 20
0.0
 30
0.0
  3
*D133
  1

  0
LINE
  5
36F5
330
36F2
100
AcDbEntity
  8
AM_5 ( Bemassung)
100
AcDbLine
 10
412.8545493186043
 20
252.0380483594673
 30
0.0
 11
412.8545493186043
 21
222.708098082406
 31
0.0
  0
LINE
  5
36F6
330
36F2
100
AcDbEntity
  8
AM_5 ( Bemassung)
100
AcDbLine
 10
460.6545486007203
 20
252.0380483594672
 30
0.0
 11
460.6545486007203
 21
222.708098082406
 31
0.0
  0
LINE
  5
36F7
330
36F2
100
AcDbEntity
  8
AM_5 ( Bemassung)
100
AcDbLine
 10
420.8545493186043
 20
224.708098082406
 30
0.0
 11
452.6545486007202
 21
224.708098082406
 31
0.0
  0
SOLID
  5
36F8
330
36F2
100
AcDbEntity
  8
AM_5 ( Bemassung)
100
AcDbTrace
 10
420.8545493186043
 20
226.0414314157393
 30
0.0
 11
420.8545493186043
 21
223.3747647490726
 31
0.0
 12
412.8545493186043
 22
224.708098082406
 32
0.0
 13
412.8545493186043
 23
224.708098082406
 33
0.0
  0
SOLID
  5
36F9
330
36F2
100
AcDbEntity
  8
AM_5 ( Bemassung)
100
AcDbTrace
 10
452.6545486007202
 20
226.0414314157393
 30
0.0
 11
452.6545486007202
 21
223.3747647490726
 31
0.0
 12
460.6545486007203
 22
224.708098082406
 32
0.0
 13
460.6545486007203
 23
224.708098082406
 33
0.0
  0
MTEXT
  5
36FA
330
36F2
100
AcDbEntity
  8
AM_5 ( Bemassung)
 62
     2
100
AcDbMText
 10
436.7545489596623
 20
231.3274705244251
 30
0.0
 40
7.0
 41
0.0
 71
     5
 72
     1
  1
G 1 1/2
 73
     1
 44
1.0
  0
POINT
  5
36FB
330
36F2
100
AcDbEntity
  8
Defpoints
 62
     0
100
AcDbPoint
 10
412.8545493186043
 20
252.0380483594673
 30
0.0
  0
POINT
  5
36FC
330
36F2
100
AcDbEntity
  8
Defpoints
 62
     0
100
AcDbPoint
 10
460.6545486007203
 20
252.0380483594672
 30
0.0
  0
POINT
  5
36FD
330
36F2
100
AcDbEntity
  8
Defpoints
 62
     0
100
AcDbPoint
 10
460.6545486007203
 20
224.708098082406
 30
0.0
  0
ENDBLK
  5
36F4
330
36F2
100
AcDbEntity
  8
0
100
AcDbBlockEnd
  0
BLOCK
  5
36FF
330
36FE
100
AcDbEntity
  8
0
100
AcDbBlockBegin
  2
*D134
 70
     1
 10
0.0
 20
0.0
 30
0.0
  3
*D134
  1

  0
LINE
  5
3701
330
36FE
100
AcDbEntity
  8
AM_5 ( Bemassung)
100
AcDbLine
 10
412.7545489596623
 20
426.9380434656741
 30
0.0
 11
387.4820940166275
 21
426.9380434656741
 31
0.0
  0
LINE
  5
3702
330
36FE
100
AcDbEntity
  8
AM_5 ( Bemassung)
100
AcDbLine
 10
414.2545489596622
 20
425.4380434656741
 30
0.0
 11
387.4820940166275
 21
425.4380434656741
 31
0.0
  0
LINE
  5
3703
330
36FE
100
AcDbEntity
  8
AM_5 ( Bemassung)
100
AcDbLine
 10
389.4820940166275
 20
417.4380434656741
 30
0.0
 11
389.4820940166275
 21
409.4380434656741
 31
0.0
  0
LINE
  5
3704
330
36FE
100
AcDbEntity
  8
AM_5 ( Bemassung)
100
AcDbLine
 10
389.4820940166275
 20
434.9380434656741
 30
0.0
 11
389.4820940166275
 21
480.4953422378433
 31
0.0
  0
LINE
  5
3705
330
36FE
100
AcDbEntity
  8
AM_5 ( Bemassung)
100
AcDbLine
 10
389.4820940166275
 20
425.4380434656741
 30
0.0
 11
389.4820940166275
 21
426.9380434656741
 31
0.0
  0
SOLID
  5
3706
330
36FE
100
AcDbEntity
  8
AM_5 ( Bemassung)
100
AcDbTrace
 10
388.1487606832942
 20
417.4380434656741
 30
0.0
 11
390.8154273499608
 21
417.4380434656741
 31
0.0
 12
389.4820940166275
 22
425.4380434656741
 32
0.0
 13
389.4820940166275
 23
425.4380434656741
 33
0.0
  0
SOLID
  5
3707
330
36FE
100
AcDbEntity
  8
AM_5 ( Bemassung)
100
AcDbTrace
 10
388.1487606832942
 20
434.9380434656741
 30
0.0
 11
390.8154273499608
 21
434.9380434656741
 31
0.0
 12
389.4820940166275
 22
426.9380434656741
 32
0.0
 13
389.4820940166275
 23
426.9380434656741
 33
0.0
  0
MTEXT
  5
3708
330
36FE
100
AcDbEntity
  8
AM_5 ( Bemassung)
 62
     2
100
AcDbMText
 10
382.9080831025755
 20
461.7166928517589
 30
0.0
 40
7.0
 41
0.0
 71
     5
 72
     1
  1
1.5x45%%D
 11
0.0000000000000001
 21
1.0
 31
0.0
 73
     1
 44
1.0
  0
POINT
  5
3709
330
36FE
100
AcDbEntity
  8
Defpoints
 62
     0
100
AcDbPoint
 10
412.7545489596623
 20
426.9380434656741
 30
0.0
  0
POINT
  5
370A
330
36FE
100
AcDbEntity
  8
Defpoints
 62
     0
100
AcDbPoint
 10
414.2545489596622
 20
425.4380434656741
 30
0.0
  0
POINT
  5
370B
330
36FE
100
AcDbEntity
  8
Defpoints
 62
     0
100
AcDbPoint
 10
389.4820940166275
 20
425.4380434656741
 30
0.0
  0
ENDBLK
  5
3700
330
36FE
100
AcDbEntity
  8
0
100
AcDbBlockEnd
  0
BLOCK
  5
370D
330
370C
100
AcDbEntity
  8
0
100
AcDbBlockBegin
  2
*D135
 70
     1
 10
0.0
 20
0.0
 30
0.0
  3
*D135
  1

  0
LINE
  5
370F
330
370C
100
AcDbEntity
  8
AM_5 ( Bemassung)
100
AcDbLine
 10
414.2545489596622
 20
253.4380480005253
 30
0.0
 11
386.8674810566377
 21
253.4380480005253
 31
0.0
  0
LINE
  5
3710
330
370C
100
AcDbEntity
  8
AM_5 ( Bemassung)
100
AcDbLine
 10
412.8545493186043
 20
251.9380460939104
 30
0.0
 11
386.8674810566377
 21
251.9380460939104
 31
0.0
  0
LINE
  5
3711
330
370C
100
AcDbEntity
  8
AM_5 ( Bemassung)
100
AcDbLine
 10
388.8674810566377
 20
261.4380480005253
 30
0.0
 11
388.8674810566377
 21
269.4380480005253
 31
0.0
  0
LINE
  5
3712
330
370C
100
AcDbEntity
  8
AM_5 ( Bemassung)
100
AcDbLine
 10
388.8674810566377
 20
243.9380460939104
 30
0.0
 11
388.8674810566377
 21
198.3807473217412
 31
0.0
  0
LINE
  5
3713
330
370C
100
AcDbEntity
  8
AM_5 ( Bemassung)
100
AcDbLine
 10
388.8674810566377
 20
253.4380480005253
 30
0.0
 11
388.8674810566377
 21
251.9380460939104
 31
0.0
  0
SOLID
  5
3714
330
370C
100
AcDbEntity
  8
AM_5 ( Bemassung)
100
AcDbTrace
 10
387.5341477233043
 20
261.4380480005253
 30
0.0
 11
390.200814389971
 21
261.4380480005253
 31
0.0
 12
388.8674810566377
 22
253.4380480005253
 32
0.0
 13
388.8674810566377
 23
253.4380480005253
 33
0.0
  0
SOLID
  5
3715
330
370C
100
AcDbEntity
  8
AM_5 ( Bemassung)
100
AcDbTrace
 10
387.5341477233043
 20
243.9380460939104
 30
0.0
 11
390.200814389971
 21
243.9380460939104
 31
0.0
 12
388.8674810566377
 22
251.9380460939104
 32
0.0
 13
388.8674810566377
 23
251.9380460939104
 33
0.0
  0
MTEXT
  5
3716
330
370C
100
AcDbEntity
  8
AM_5 ( Bemassung)
 62
     2
100
AcDbMText
 10
382.2934701425858
 20
217.1593967078259
 30
0.0
 40
7.0
 41
0.0
 71
     5
 72
     1
  1
1.5x45%%D
 11
0.0000000000000001
 21
1.0
 31
0.0
 73
     1
 44
1.0
  0
POINT
  5
3717
330
370C
100
AcDbEntity
  8
Defpoints
 62
     0
100
AcDbPoint
 10
414.2545489596622
 20
253.4380480005253
 30
0.0
  0
POINT
  5
3718
330
370C
100
AcDbEntity
  8
Defpoints
 62
     0
100
AcDbPoint
 10
412.8545493186043
 20
251.9380460939104
 30
0.0
  0
POINT
  5
3719
330
370C
100
AcDbEntity
  8
Defpoints
 62
     0
100
AcDbPoint
 10
388.8674810566377
 20
251.9380460939104
 30
0.0
  0
ENDBLK
  5
370E
330
370C
100
AcDbEntity
  8
0
100
AcDbBlockEnd
  0
BLOCK
  5
371B
330
371A
100
AcDbEntity
  8
0
100
AcDbBlockBegin
  2
*D136
 70
     1
 10
0.0
 20
0.0
 30
0.0
  3
*D136
  1

  0
LINE
  5
371D
330
371A
100
AcDbEntity
  8
AM_5 ( Bemassung)
100
AcDbLine
 10
148.7717653371228
 20
425.9380434806927
 30
0.0
 11
148.7717653371228
 21
451.7401299680016
 31
0.0
  0
LINE
  5
371E
330
371A
100
AcDbEntity
  8
AM_5 ( Bemassung)
100
AcDbLine
 10
93.77176533712276
 20
425.9380434806927
 30
0.0
 11
93.77176533712276
 21
451.7401299680016
 31
0.0
  0
LINE
  5
371F
330
371A
100
AcDbEntity
  8
AM_5 ( Bemassung)
100
AcDbLine
 10
140.7717653371228
 20
449.7401299680015
 30
0.0
 11
101.7717653371227
 21
449.7401299680015
 31
0.0
  0
SOLID
  5
3720
330
371A
100
AcDbEntity
  8
AM_5 ( Bemassung)
100
AcDbTrace
 10
140.7717653371228
 20
451.0734633013349
 30
0.0
 11
140.7717653371228
 21
448.4067966346683
 31
0.0
 12
148.7717653371228
 22
449.7401299680015
 32
0.0
 13
148.7717653371228
 23
449.7401299680015
 33
0.0
  0
SOLID
  5
3721
330
371A
100
AcDbEntity
  8
AM_5 ( Bemassung)
100
AcDbTrace
 10
101.7717653371227
 20
451.0734633013349
 30
0.0
 11
101.7717653371227
 21
448.4067966346683
 31
0.0
 12
93.77176533712276
 22
449.7401299680015
 32
0.0
 13
93.77176533712276
 23
449.7401299680015
 33
0.0
  0
MTEXT
  5
3722
330
371A
100
AcDbEntity
  8
AM_5 ( Bemassung)
 62
     2
100
AcDbMText
 10
121.2717653371228
 20
456.5099116869647
 30
0.0
 40
7.0
 41
0.0
 71
     5
 72
     1
  1
%%C55
 73
     1
 44
1.0
  0
POINT
  5
3723
330
371A
100
AcDbEntity
  8
Defpoints
 62
     0
100
AcDbPoint
 10
148.7717653371228
 20
425.9380434806927
 30
0.0
  0
POINT
  5
3724
330
371A
100
AcDbEntity
  8
Defpoints
 62
     0
100
AcDbPoint
 10
93.77176533712276
 20
425.9380434806927
 30
0.0
  0
POINT
  5
3725
330
371A
100
AcDbEntity
  8
Defpoints
 62
     0
100
AcDbPoint
 10
93.77176533712276
 20
449.7401299680015
 30
0.0
  0
ENDBLK
  5
371C
330
371A
100
AcDbEntity
  8
0
100
AcDbBlockEnd
  0
BLOCK
  5
3727
330
3726
100
AcDbEntity
  8
0
100
AcDbBlockBegin
  2
*D137
 70
     1
 10
0.0
 20
0.0
 30
0.0
  3
*D137
  1

  0
LINE
  5
3729
330
3726
100
AcDbEntity
  8
AM_5 ( Bemassung)
100
AcDbLine
 10
148.9217653371227
 20
97.07772746139983
 30
0.0
 11
148.9217653371227
 21
0.0000000382908638
 31
0.0
  0
LINE
  5
372A
330
3726
100
AcDbEntity
  8
AM_5 ( Bemassung)
100
AcDbLine
 10
93.6217653371227
 20
97.07772746139983
 30
0.0
 11
93.6217653371227
 21
0.0000000382908638
 31
0.0
  0
LINE
  5
372B
330
3726
100
AcDbEntity
  8
AM_5 ( Bemassung)
100
AcDbLine
 10
140.9217653371227
 20
2.000000038290863
 30
0.0
 11
101.6217653371227
 21
2.000000038290863
 31
0.0
  0
SOLID
  5
372C
330
3726
100
AcDbEntity
  8
AM_5 ( Bemassung)
100
AcDbTrace
 10
140.9217653371227
 20
3.333333371624196
 30
0.0
 11
140.9217653371227
 21
0.6666667049575306
 31
0.0
 12
148.9217653371227
 22
2.000000038290863
 32
0.0
 13
148.9217653371227
 23
2.000000038290863
 33
0.0
  0
SOLID
  5
372D
330
3726
100
AcDbEntity
  8
AM_5 ( Bemassung)
100
AcDbTrace
 10
101.6217653371227
 20
3.333333371624196
 30
0.0
 11
101.6217653371227
 21
0.6666667049575306
 31
0.0
 12
93.6217653371227
 22
2.000000038290863
 32
0.0
 13
93.6217653371227
 23
2.000000038290863
 33
0.0
  0
MTEXT
  5
372E
330
3726
100
AcDbEntity
  8
AM_5 ( Bemassung)
 62
     2
100
AcDbMText
 10
121.2717653371227
 20
8.769781757254028
 30
0.0
 40
7.0
 41
0.0
 71
     5
 72
     1
  1
%%C55.3
 73
     1
 44
1.0
  0
POINT
  5
372F
330
3726
100
AcDbEntity
  8
Defpoints
 62
     0
100
AcDbPoint
 10
148.9217653371227
 20
97.07772746139983
 30
0.0
  0
POINT
  5
3730
330
3726
100
AcDbEntity
  8
Defpoints
 62
     0
100
AcDbPoint
 10
93.6217653371227
 20
97.07772746139983
 30
0.0
  0
POINT
  5
3731
330
3726
100
AcDbEntity
  8
Defpoints
 62
     0
100
AcDbPoint
 10
93.6217653371227
 20
2.000000038290863
 30
0.0
  0
ENDBLK
  5
3728
330
3726
100
AcDbEntity
  8
0
100
AcDbBlockEnd
  0
BLOCK
  5
3733
330
3732
100
AcDbEntity
  8
0
100
AcDbBlockBegin
  2
*D138
 70
     1
 10
0.0
 20
0.0
 30
0.0
  3
*D138
  1

  0
LINE
  5
3735
330
3732
100
AcDbEntity
  8
AM_5 ( Bemassung)
100
AcDbLine
 10
414.2545489596622
 20
386.1403858656727
 30
0.0
 11
414.2545489596622
 21
370.2641839041403
 31
0.0
  0
LINE
  5
3736
330
3732
100
AcDbEntity
  8
AM_5 ( Bemassung)
100
AcDbLine
 10
459.2545493952757
 20
386.1403863644964
 30
0.0
 11
459.2545493952757
 21
370.2641839041403
 31
0.0
  0
LINE
  5
3737
330
3732
100
AcDbEntity
  8
AM_5 ( Bemassung)
100
AcDbLine
 10
422.2545489596623
 20
372.2641839041403
 30
0.0
 11
451.2545493952757
 21
372.2641839041403
 31
0.0
  0
SOLID
  5
3738
330
3732
100
AcDbEntity
  8
AM_5 ( Bemassung)
100
AcDbTrace
 10
422.2545489596623
 20
373.5975172374736
 30
0.0
 11
422.2545489596623
 21
370.930850570807
 31
0.0
 12
414.2545489596622
 22
372.2641839041403
 32
0.0
 13
414.2545489596622
 23
372.2641839041403
 33
0.0
  0
SOLID
  5
3739
330
3732
100
AcDbEntity
  8
AM_5 ( Bemassung)
100
AcDbTrace
 10
451.2545493952757
 20
373.5975172374736
 30
0.0
 11
451.2545493952757
 21
370.930850570807
 31
0.0
 12
459.2545493952757
 22
372.2641839041403
 32
0.0
 13
459.2545493952757
 23
372.2641839041403
 33
0.0
  0
MTEXT
  5
373A
330
3732
100
AcDbEntity
  8
AM_5 ( Bemassung)
 62
     2
100
AcDbMText
 10
436.7545489596623
 20
379.0339656231035
 30
0.0
 40
7.0
 41
0.0
 71
     5
 72
     1
  1
%%C45
 73
     1
 44
1.0
  0
POINT
  5
373B
330
3732
100
AcDbEntity
  8
Defpoints
 62
     0
100
AcDbPoint
 10
414.2545489596622
 20
386.1403858656727
 30
0.0
  0
POINT
  5
373C
330
3732
100
AcDbEntity
  8
Defpoints
 62
     0
100
AcDbPoint
 10
459.2545493952757
 20
386.1403863644964
 30
0.0
  0
POINT
  5
373D
330
3732
100
AcDbEntity
  8
Defpoints
 62
     0
100
AcDbPoint
 10
459.2545493952757
 20
372.2641839041403
 30
0.0
  0
ENDBLK
  5
3734
330
3732
100
AcDbEntity
  8
0
100
AcDbBlockEnd
  0
BLOCK
  5
373F
330
373E
100
AcDbEntity
  8
0
100
AcDbBlockBegin
  2
*D139
 70
     1
 10
0.0
 20
0.0
 30
0.0
  3
*D139
  1

  0
LINE
  5
3741
330
373E
100
AcDbEntity
  8
AM_5 ( Bemassung)
100
AcDbLine
 10
83.71021391531815
 20
417.8869043411884
 30
0.0
 11
33.52347811115579
 21
417.8869043411884
 31
0.0
  0
LINE
  5
3742
330
373E
100
AcDbEntity
  8
AM_5 ( Bemassung)
100
AcDbLine
 10
99.71021367505205
 20
331.3869043411885
 30
0.0
 11
33.52347811115577
 21
331.3869043411885
 31
0.0
  0
LINE
  5
3743
330
373E
100
AcDbEntity
  8
AM_5 ( Bemassung)
100
AcDbLine
 10
35.52347811115579
 20
409.8869043411885
 30
0.0
 11
35.52347811115577
 21
339.3869043411885
 31
0.0
  0
SOLID
  5
3744
330
373E
100
AcDbEntity
  8
AM_5 ( Bemassung)
100
AcDbTrace
 10
34.19014477782245
 20
409.8869043411885
 30
0.0
 11
36.85681144448913
 21
409.8869043411885
 31
0.0
 12
35.52347811115579
 22
417.8869043411884
 32
0.0
 13
35.52347811115579
 23
417.8869043411884
 33
0.0
  0
SOLID
  5
3745
330
373E
100
AcDbEntity
  8
AM_5 ( Bemassung)
100
AcDbTrace
 10
34.19014477782244
 20
339.3869043411885
 30
0.0
 11
36.85681144448911
 21
339.3869043411885
 31
0.0
 12
35.52347811115577
 22
331.3869043411885
 32
0.0
 13
35.52347811115577
 23
331.3869043411885
 33
0.0
  0
MTEXT
  5
3746
330
373E
100
AcDbEntity
  8
AM_5 ( Bemassung)
 62
     2
100
AcDbMText
 10
28.94946719710388
 20
374.6369043411885
 30
0.0
 40
7.0
 41
0.0
 71
     5
 72
     1
  1
86.5
 11
0.0000000000000001
 21
1.0
 31
0.0
 73
     1
 44
1.0
  0
POINT
  5
3747
330
373E
100
AcDbEntity
  8
Defpoints
 62
     0
100
AcDbPoint
 10
83.71021391531815
 20
417.8869043411884
 30
0.0
  0
POINT
  5
3748
330
373E
100
AcDbEntity
  8
Defpoints
 62
     0
100
AcDbPoint
 10
99.71021367505205
 20
331.3869043411885
 30
0.0
  0
POINT
  5
3749
330
373E
100
AcDbEntity
  8
Defpoints
 62
     0
100
AcDbPoint
 10
35.52347811115577
 20
331.3869043411885
 30
0.0
  0
ENDBLK
  5
3740
330
373E
100
AcDbEntity
  8
0
100
AcDbBlockEnd
  0
BLOCK
  5
374B
330
374A
100
AcDbEntity
  8
0
100
AcDbBlockBegin
  2
*D140
 70
     1
 10
0.0
 20
0.0
 30
0.0
  3
*D140
  1

  0
LINE
  5
374D
330
374A
100
AcDbEntity
  8
AM_5 ( Bemassung)
100
AcDbLine
 10
83.71021391531815
 20
417.8869043411884
 30
0.0
 11
10.19053235274489
 21
417.8869043411884
 31
0.0
  0
LINE
  5
374E
330
374A
100
AcDbEntity
  8
AM_5 ( Bemassung)
100
AcDbLine
 10
123.7102129015997
 20
242.8869069694247
 30
0.0
 11
10.19053235274485
 21
242.8869069694247
 31
0.0
  0
LINE
  5
374F
330
374A
100
AcDbEntity
  8
AM_5 ( Bemassung)
100
AcDbLine
 10
12.19053235274488
 20
409.8869043411885
 30
0.0
 11
12.19053235274485
 21
250.8869069694247
 31
0.0
  0
SOLID
  5
3750
330
374A
100
AcDbEntity
  8
AM_5 ( Bemassung)
100
AcDbTrace
 10
10.85719901941155
 20
409.8869043411885
 30
0.0
 11
13.52386568607822
 21
409.8869043411885
 31
0.0
 12
12.19053235274488
 22
417.8869043411884
 32
0.0
 13
12.19053235274488
 23
417.8869043411884
 33
0.0
  0
SOLID
  5
3751
330
374A
100
AcDbEntity
  8
AM_5 ( Bemassung)
100
AcDbTrace
 10
10.85719901941151
 20
250.8869069694247
 30
0.0
 11
13.52386568607818
 21
250.8869069694247
 31
0.0
 12
12.19053235274484
 22
242.8869069694247
 32
0.0
 13
12.19053235274484
 23
242.8869069694247
 33
0.0
  0
MTEXT
  5
3752
330
374A
100
AcDbEntity
  8
AM_5 ( Bemassung)
 62
     2
100
AcDbMText
 10
5.616521438692971
 20
330.3869056553066
 30
0.0
 40
7.0
 41
0.0
 71
     5
 72
     1
  1
175
 11
0.0000000000000001
 21
1.0
 31
0.0
 73
     1
 44
1.0
  0
POINT
  5
3753
330
374A
100
AcDbEntity
  8
Defpoints
 62
     0
100
AcDbPoint
 10
83.71021391531815
 20
417.8869043411884
 30
0.0
  0
POINT
  5
3754
330
374A
100
AcDbEntity
  8
Defpoints
 62
     0
100
AcDbPoint
 10
123.7102129015997
 20
242.8869069694247
 30
0.0
  0
POINT
  5
3755
330
374A
100
AcDbEntity
  8
Defpoints
 62
     0
100
AcDbPoint
 10
12.19053235274484
 20
242.8869069694247
 30
0.0
  0
ENDBLK
  5
374C
330
374A
100
AcDbEntity
  8
0
100
AcDbBlockEnd
  0
BLOCK
  5
3757
330
3756
100
AcDbEntity
  8
0
100
AcDbBlockBegin
  2
*D141
 70
     1
 10
0.0
 20
0.0
 30
0.0
  3
*D141
  1

  0
LINE
  5
3759
330
3756
100
AcDbEntity
  8
AM_5 ( Bemassung)
100
AcDbLine
 10
150.2102129166181
 20
141.7499996278639
 30
0.0
 11
24.85227859496083
 21
141.7499996278639
 31
0.0
  0
LINE
  5
375A
330
3756
100
AcDbEntity
  8
AM_5 ( Bemassung)
100
AcDbLine
 10
150.2102129166181
 20
6.750001655263929
 30
0.0
 11
24.8522785949608
 21
6.750001655263965
 31
0.0
  0
LINE
  5
375B
330
3756
100
AcDbEntity
  8
AM_5 ( Bemassung)
100
AcDbLine
 10
26.85227859496083
 20
133.7499996278639
 30
0.0
 11
26.8522785949608
 21
14.75000165526396
 31
0.0
  0
SOLID
  5
375C
330
3756
100
AcDbEntity
  8
AM_5 ( Bemassung)
100
AcDbTrace
 10
25.51894526162749
 20
133.7499996278639
 30
0.0
 11
28.18561192829415
 21
133.7499996278639
 31
0.0
 12
26.85227859496083
 22
141.7499996278639
 32
0.0
 13
26.85227859496083
 23
141.7499996278639
 33
0.0
  0
SOLID
  5
375D
330
3756
100
AcDbEntity
  8
AM_5 ( Bemassung)
100
AcDbTrace
 10
25.51894526162747
 20
14.75000165526396
 30
0.0
 11
28.18561192829413
 21
14.75000165526396
 31
0.0
 12
26.85227859496079
 22
6.750001655263965
 32
0.0
 13
26.85227859496079
 23
6.750001655263965
 33
0.0
  0
MTEXT
  5
375E
330
3756
100
AcDbEntity
  8
AM_5 ( Bemassung)
 62
     2
100
AcDbMText
 10
20.08249687599763
 20
74.25000064156396
 30
0.0
 40
7.0
 41
0.0
 71
     5
 72
     1
  1
%%c135
 11
0.0000000000000001
 21
1.0
 31
0.0
 73
     1
 44
1.0
  0
POINT
  5
375F
330
3756
100
AcDbEntity
  8
Defpoints
 62
     0
100
AcDbPoint
 10
150.2102129166181
 20
141.7499996278639
 30
0.0
  0
POINT
  5
3760
330
3756
100
AcDbEntity
  8
Defpoints
 62
     0
100
AcDbPoint
 10
150.2102129166181
 20
6.750001655263929
 30
0.0
  0
POINT
  5
3761
330
3756
100
AcDbEntity
  8
Defpoints
 62
     0
100
AcDbPoint
 10
26.85227859496079
 20
6.750001655263965
 30
0.0
  0
ENDBLK
  5
3758
330
3756
100
AcDbEntity
  8
0
100
AcDbBlockEnd
  0
BLOCK
  5
3763
330
3762
100
AcDbEntity
  8
0
100
AcDbBlockBegin
  2
*D142
 70
     1
 10
0.0
 20
0.0
 30
0.0
  3
*D142
  1

  0
LINE
  5
3765
330
3762
100
AcDbEntity
  8
AM_5 ( Bemassung)
100
AcDbLine
 10
100.2102136675427
 20
118.0934715382705
 30
0.0
 11
100.2102136675427
 21
189.4521169597064
 31
0.0
  0
LINE
  5
3766
330
3762
100
AcDbEntity
  8
AM_5 ( Bemassung)
100
AcDbLine
 10
200.2102121656935
 20
118.0934715382707
 30
0.0
 11
200.2102121656935
 21
189.4521169597064
 31
0.0
  0
LINE
  5
3767
330
3762
100
AcDbEntity
  8
AM_5 ( Bemassung)
100
AcDbLine
 10
108.2102136675427
 20
187.4521169597064
 30
0.0
 11
192.2102121656934
 21
187.4521169597064
 31
0.0
  0
SOLID
  5
3768
330
3762
100
AcDbEntity
  8
AM_5 ( Bemassung)
100
AcDbTrace
 10
108.2102136675427
 20
188.7854502930398
 30
0.0
 11
108.2102136675427
 21
186.1187836263731
 31
0.0
 12
100.2102136675427
 22
187.4521169597064
 32
0.0
 13
100.2102136675427
 23
187.4521169597064
 33
0.0
  0
SOLID
  5
3769
330
3762
100
AcDbEntity
  8
AM_5 ( Bemassung)
100
AcDbTrace
 10
192.2102121656934
 20
188.7854502930398
 30
0.0
 11
192.2102121656934
 21
186.1187836263731
 31
0.0
 12
200.2102121656935
 22
187.4521169597064
 32
0.0
 13
200.2102121656935
 23
187.4521169597064
 33
0.0
  0
MTEXT
  5
376A
330
3762
100
AcDbEntity
  8
AM_5 ( Bemassung)
 62
     2
100
AcDbMText
 10
150.2102129166181
 20
194.0261278737583
 30
0.0
 40
7.0
 41
0.0
 71
     5
 72
     1
  1
100
 73
     1
 44
1.0
  0
POINT
  5
376B
330
3762
100
AcDbEntity
  8
Defpoints
 62
     0
100
AcDbPoint
 10
100.2102136675427
 20
118.0934715382705
 30
0.0
  0
POINT
  5
376C
330
3762
100
AcDbEntity
  8
Defpoints
 62
     0
100
AcDbPoint
 10
200.2102121656935
 20
118.0934715382707
 30
0.0
  0
POINT
  5
376D
330
3762
100
AcDbEntity
  8
Defpoints
 62
     0
100
AcDbPoint
 10
200.2102121656935
 20
187.4521169597064
 30
0.0
  0
ENDBLK
  5
3764
330
3762
100
AcDbEntity
  8
0
100
AcDbBlockEnd
  0
BLOCK
  5
376F
330
376E
100
AcDbEntity
  8
0
100
AcDbBlockBegin
  2
*D143
 70
     1
 10
0.0
 20
0.0
 30
0.0
  3
*D143
  1

  0
LINE
  5
3771
330
376E
100
AcDbEntity
  8
AM_5 ( Bemassung)
100
AcDbLine
 10
105.2102136675427
 20
124.2499998906398
 30
0.0
 11
41.26791783045701
 21
124.2499998906398
 31
0.0
  0
LINE
  5
3772
330
376E
100
AcDbEntity
  8
AM_5 ( Bemassung)
100
AcDbLine
 10
105.2102136675427
 20
24.25000139248687
 30
0.0
 11
41.26791783045699
 21
24.25000139248688
 31
0.0
  0
LINE
  5
3773
330
376E
100
AcDbEntity
  8
AM_5 ( Bemassung)
100
AcDbLine
 10
43.26791783045702
 20
116.2499998906398
 30
0.0
 11
43.26791783045699
 21
32.25000139248689
 31
0.0
  0
SOLID
  5
3774
330
376E
100
AcDbEntity
  8
AM_5 ( Bemassung)
100
AcDbTrace
 10
41.93458449712368
 20
116.2499998906398
 30
0.0
 11
44.60125116379034
 21
116.2499998906398
 31
0.0
 12
43.26791783045702
 22
124.2499998906398
 32
0.0
 13
43.26791783045702
 23
124.2499998906398
 33
0.0
  0
SOLID
  5
3775
330
376E
100
AcDbEntity
  8
AM_5 ( Bemassung)
100
AcDbTrace
 10
41.93458449712365
 20
32.25000139248689
 30
0.0
 11
44.60125116379033
 21
32.25000139248689
 31
0.0
 12
43.26791783045699
 22
24.25000139248688
 32
0.0
 13
43.26791783045699
 23
24.25000139248688
 33
0.0
  0
MTEXT
  5
3776
330
376E
100
AcDbEntity
  8
AM_5 ( Bemassung)
 62
     2
100
AcDbMText
 10
36.69390691640515
 20
74.25000064156339
 30
0.0
 40
7.0
 41
0.0
 71
     5
 72
     1
  1
100
 11
0.0000000000000001
 21
1.0
 31
0.0
 73
     1
 44
1.0
  0
POINT
  5
3777
330
376E
100
AcDbEntity
  8
Defpoints
 62
     0
100
AcDbPoint
 10
105.2102136675427
 20
124.2499998906398
 30
0.0
  0
POINT
  5
3778
330
376E
100
AcDbEntity
  8
Defpoints
 62
     0
100
AcDbPoint
 10
105.2102136675427
 20
24.25000139248687
 30
0.0
  0
POINT
  5
3779
330
376E
100
AcDbEntity
  8
Defpoints
 62
     0
100
AcDbPoint
 10
43.26791783045699
 20
24.25000139248688
 30
0.0
  0
ENDBLK
  5
3770
330
376E
100
AcDbEntity
  8
0
100
AcDbBlockEnd
  0
BLOCK
  5
377B
330
377A
100
AcDbEntity
  8
0
100
AcDbBlockBegin
  2
*D144
 70
     1
 10
0.0
 20
0.0
 30
0.0
  3
*D144
  1

  0
LINE
  5
377D
330
377A
100
AcDbEntity
  8
AM_5 ( Bemassung)
100
AcDbLine
 10
174.1102125576761
 20
243.8869069544062
 30
0.0
 11
174.1102125576761
 21
220.514445064809
 31
0.0
  0
LINE
  5
377E
330
377A
100
AcDbEntity
  8
AM_5 ( Bemassung)
100
AcDbLine
 10
126.3185246315061
 20
243.8869069544062
 30
0.0
 11
126.3185246315061
 21
220.514445064809
 31
0.0
  0
LINE
  5
377F
330
377A
100
AcDbEntity
  8
AM_5 ( Bemassung)
100
AcDbLine
 10
166.1102125576761
 20
222.514445064809
 30
0.0
 11
134.3185246315061
 21
222.514445064809
 31
0.0
  0
SOLID
  5
3780
330
377A
100
AcDbEntity
  8
AM_5 ( Bemassung)
100
AcDbTrace
 10
166.1102125576761
 20
223.8477783981424
 30
0.0
 11
166.1102125576761
 21
221.1811117314757
 31
0.0
 12
174.1102125576761
 22
222.514445064809
 32
0.0
 13
174.1102125576761
 23
222.514445064809
 33
0.0
  0
SOLID
  5
3781
330
377A
100
AcDbEntity
  8
AM_5 ( Bemassung)
100
AcDbTrace
 10
134.3185246315061
 20
223.8477783981424
 30
0.0
 11
134.3185246315061
 21
221.1811117314757
 31
0.0
 12
126.3185246315061
 22
222.514445064809
 32
0.0
 13
126.3185246315061
 23
222.514445064809
 33
0.0
  0
MTEXT
  5
3782
330
377A
100
AcDbEntity
  8
AM_5 ( Bemassung)
 62
     2
100
AcDbMText
 10
150.2143685945911
 20
229.1338175068281
 30
0.0
 40
7.0
 41
0.0
 71
     5
 72
     1
  1
G1
 73
     1
 44
1.0
  0
POINT
  5
3783
330
377A
100
AcDbEntity
  8
Defpoints
 62
     0
100
AcDbPoint
 10
174.1102125576761
 20
243.8869069544062
 30
0.0
  0
POINT
  5
3784
330
377A
100
AcDbEntity
  8
Defpoints
 62
     0
100
AcDbPoint
 10
126.3185246315061
 20
243.8869069544062
 30
0.0
  0
POINT
  5
3785
330
377A
100
AcDbEntity
  8
Defpoints
 62
     0
100
AcDbPoint
 10
126.3185246315061
 20
222.514445064809
 30
0.0
  0
ENDBLK
  5
377C
330
377A
100
AcDbEntity
  8
0
100
AcDbBlockEnd
  0
BLOCK
  5
38F2
330
38E8
100
AcDbEntity
  8
0
100
AcDbBlockBegin
  2
*U145
 70
     1
 10
0.0
 20
0.0
 30
0.0
  3
*U145
  1

  0
LINE
  5
38E9
330
38E8
100
AcDbEntity
  8
AM_7N ( Normteile Mittelinien)
100
AcDbLine
 10
1136.766802371697
 20
943.1615643716879
 30
0.0
 11
1136.766802371697
 21
944.7615643716879
 31
0.0
  0
LINE
  5
38EA
330
38E8
100
AcDbEntity
  8
AM_0N ( Normteile sichtbar)
100
AcDbLine
 10
1128.766802371697
 20
943.1615643716879
 30
0.0
 11
1133.105093621697
 21
943.1615643716879
 31
0.0
  0
LINE
  5
38EB
330
38E8
100
AcDbEntity
  8
AM_9N ( Normteile verdeckt)
100
AcDbLine
 10
1133.105093621697
 20
943.1615643716879
 30
0.0
 11
1140.428511121696
 21
943.1615643716879
 31
0.0
  0
LINE
  5
38EC
330
38E8
100
AcDbEntity
  8
AM_0N ( Normteile sichtbar)
100
AcDbLine
 10
1140.428511121696
 20
943.1615643716879
 30
0.0
 11
1144.766802371697
 21
943.1615643716879
 31
0.0
  0
LINE
  5
38ED
330
38E8
100
AcDbEntity
  8
AM_0N ( Normteile sichtbar)
100
AcDbLine
 10
1144.766802371697
 20
944.7615643716879
 30
0.0
 11
1142.466802371697
 21
944.7615643716879
 31
0.0
  0
LINE
  5
38EE
330
38E8
100
AcDbEntity
  8
AM_9N ( Normteile verdeckt)
100
AcDbLine
 10
1142.466802371697
 20
944.7615643716879
 30
0.0
 11
1131.066802371697
 21
944.7615643716879
 31
0.0
  0
LINE
  5
38EF
330
38E8
100
AcDbEntity
  8
AM_0N ( Normteile sichtbar)
100
AcDbLine
 10
1131.066802371697
 20
944.7615643716879
 30
0.0
 11
1128.766802371697
 21
944.7615643716879
 31
0.0
  0
LINE
  5
38F0
330
38E8
100
AcDbEntity
  8
AM_0N ( Normteile sichtbar)
100
AcDbLine
 10
1144.766802371697
 20
943.1615643716879
 30
0.0
 11
1144.766802371697
 21
944.7615643716879
 31
0.0
  0
LINE
  5
38F1
330
38E8
100
AcDbEntity
  8
AM_0N ( Normteile sichtbar)
100
AcDbLine
 10
1128.766802371697
 20
944.7615643716879
 30
0.0
 11
1128.766802371697
 21
943.1615643716879
 31
0.0
  0
ENDBLK
  5
38F3
330
38E8
100
AcDbEntity
  8
0
100
AcDbBlockEnd
  0
BLOCK
  5
38FF
330
38F5
100
AcDbEntity
  8
0
100
AcDbBlockBegin
  2
*U146
 70
     1
 10
0.0
 20
0.0
 30
0.0
  3
*U146
  1

  0
LINE
  5
38F6
330
38F5
100
AcDbEntity
  8
AM_7N ( Normteile Mittelinien)
100
AcDbLine
 10
1046.766803723397
 20
943.1615643716879
 30
0.0
 11
1046.766803723397
 21
944.7615643716879
 31
0.0
  0
LINE
  5
38F7
330
38F5
100
AcDbEntity
  8
AM_0N ( Normteile sichtbar)
100
AcDbLine
 10
1038.766803723397
 20
943.1615643716879
 30
0.0
 11
1043.105094973397
 21
943.1615643716879
 31
0.0
  0
LINE
  5
38F8
330
38F5
100
AcDbEntity
  8
AM_9N ( Normteile verdeckt)
100
AcDbLine
 10
1043.105094973397
 20
943.1615643716879
 30
0.0
 11
1050.428512473397
 21
943.1615643716879
 31
0.0
  0
LINE
  5
38F9
330
38F5
100
AcDbEntity
  8
AM_0N ( Normteile sichtbar)
100
AcDbLine
 10
1050.428512473397
 20
943.1615643716879
 30
0.0
 11
1054.766803723397
 21
943.1615643716879
 31
0.0
  0
LINE
  5
38FA
330
38F5
100
AcDbEntity
  8
AM_0N ( Normteile sichtbar)
100
AcDbLine
 10
1054.766803723397
 20
944.7615643716879
 30
0.0
 11
1052.466803723397
 21
944.7615643716879
 31
0.0
  0
LINE
  5
38FB
330
38F5
100
AcDbEntity
  8
AM_9N ( Normteile verdeckt)
100
AcDbLine
 10
1052.466803723397
 20
944.7615643716879
 30
0.0
 11
1041.066803723397
 21
944.7615643716879
 31
0.0
  0
LINE
  5
38FC
330
38F5
100
AcDbEntity
  8
AM_0N ( Normteile sichtbar)
100
AcDbLine
 10
1041.066803723397
 20
944.7615643716879
 30
0.0
 11
1038.766803723397
 21
944.7615643716879
 31
0.0
  0
LINE
  5
38FD
330
38F5
100
AcDbEntity
  8
AM_0N ( Normteile sichtbar)
100
AcDbLine
 10
1054.766803723397
 20
943.1615643716879
 30
0.0
 11
1054.766803723397
 21
944.7615643716879
 31
0.0
  0
LINE
  5
38FE
330
38F5
100
AcDbEntity
  8
AM_0N ( Normteile sichtbar)
100
AcDbLine
 10
1038.766803723397
 20
944.7615643716879
 30
0.0
 11
1038.766803723397
 21
943.1615643716879
 31
0.0
  0
ENDBLK
  5
3900
330
38F5
100
AcDbEntity
  8
0
100
AcDbBlockEnd
  0
BLOCK
  5
3907
330
3902
100
AcDbEntity
  8
0
100
AcDbBlockBegin
  2
*U147
 70
     1
 10
0.0
 20
0.0
 30
0.0
  3
*U147
  1

  0
CIRCLE
  5
3903
330
3902
100
AcDbEntity
  8
AM_0N ( Normteile sichtbar)
100
AcDbCircle
 10
1136.766802371797
 20
589.5246608071634
 30
0.0
 40
8.0
  0
LINE
  5
3904
330
3902
100
AcDbEntity
  8
AM_7N ( Normteile Mittelinien)
100
AcDbLine
 10
1128.766802371797
 20
589.5246608071634
 30
0.0
 11
1144.766802371797
 21
589.5246608071634
 31
0.0
  0
LINE
  5
3905
330
3902
100
AcDbEntity
  8
AM_7N ( Normteile Mittelinien)
100
AcDbLine
 10
1136.766802371797
 20
597.5246608071634
 30
0.0
 11
1136.766802371797
 21
581.5246608071634
 31
0.0
  0
CIRCLE
  5
3906
330
3902
100
AcDbEntity
  8
AM_9N ( Normteile verdeckt)
100
AcDbCircle
 10
1136.766802371797
 20
589.5246608071634
 30
0.0
 40
4.2
  0
ENDBLK
  5
3908
330
3902
100
AcDbEntity
  8
0
100
AcDbBlockEnd
  0
BLOCK
  5
3914
330
390A
100
AcDbEntity
  8
0
100
AcDbBlockBegin
  2
*U148
 70
     1
 10
0.0
 20
0.0
 30
0.0
  3
*U148
  1

  0
LINE
  5
390B
330
390A
100
AcDbEntity
  8
AM_7N ( Normteile Mittelinien)
100
AcDbLine
 10
1136.766802371797
 20
597.0302143066284
 30
0.0
 11
1136.766802371797
 21
582.0191073076983
 31
0.0
  0
LINE
  5
390C
330
390A
100
AcDbEntity
  8
AM_0N ( Normteile sichtbar)
100
AcDbLine
 10
1130.266802371797
 20
585.7718840574308
 30
0.0
 11
1136.766802371797
 21
582.0191073076983
 31
0.0
  0
LINE
  5
390D
330
390A
100
AcDbEntity
  8
AM_0N ( Normteile sichtbar)
100
AcDbLine
 10
1136.766802371797
 20
582.0191073076983
 30
0.0
 11
1143.266802371797
 21
585.7718840574303
 31
0.0
  0
LINE
  5
390E
330
390A
100
AcDbEntity
  8
AM_0N ( Normteile sichtbar)
100
AcDbLine
 10
1143.266802371797
 20
585.7718840574303
 30
0.0
 11
1143.266802371797
 21
593.277437556896
 31
0.0
  0
LINE
  5
390F
330
390A
100
AcDbEntity
  8
AM_0N ( Normteile sichtbar)
100
AcDbLine
 10
1143.266802371797
 20
593.277437556896
 30
0.0
 11
1136.766802371797
 21
597.0302143066284
 31
0.0
  0
LINE
  5
3910
330
390A
100
AcDbEntity
  8
AM_0N ( Normteile sichtbar)
100
AcDbLine
 10
1136.766802371797
 20
597.0302143066284
 30
0.0
 11
1130.266802371797
 21
593.2774375568961
 31
0.0
  0
LINE
  5
3911
330
390A
100
AcDbEntity
  8
AM_0N ( Normteile sichtbar)
100
AcDbLine
 10
1130.266802371797
 20
593.2774375568961
 30
0.0
 11
1130.266802371797
 21
585.7718840574308
 31
0.0
  0
CIRCLE
  5
3912
330
390A
100
AcDbEntity
  8
AM_0N ( Normteile sichtbar)
100
AcDbCircle
 10
1136.766802371797
 20
589.5246608071634
 30
0.0
 40
6.5
  0
LINE
  5
3913
330
390A
100
AcDbEntity
  8
AM_7N ( Normteile Mittelinien)
100
AcDbLine
 10
1129.261248872332
 20
589.5246608071634
 30
0.0
 11
1144.272355871262
 21
589.5246608071634
 31
0.0
  0
ENDBLK
  5
3915
330
390A
100
AcDbEntity
  8
0
100
AcDbBlockEnd
  0
BLOCK
  5
391C
330
3917
100
AcDbEntity
  8
0
100
AcDbBlockBegin
  2
*U149
 70
     1
 10
0.0
 20
0.0
 30
0.0
  3
*U149
  1

  0
CIRCLE
  5
3918
330
3917
100
AcDbEntity
  8
AM_0N ( Normteile sichtbar)
100
AcDbCircle
 10
1114.266802709697
 20
628.4958033922031
 30
0.0
 40
8.0
  0
LINE
  5
3919
330
3917
100
AcDbEntity
  8
AM_7N ( Normteile Mittelinien)
100
AcDbLine
 10
1110.266802709697
 20
621.5676001619276
 30
0.0
 11
1118.266802709697
 21
635.4240066224787
 31
0.0
  0
LINE
  5
391A
330
3917
100
AcDbEntity
  8
AM_7N ( Normteile Mittelinien)
100
AcDbLine
 10
1107.338599479421
 20
632.4958033922031
 30
0.0
 11
1121.195005939972
 21
624.4958033922031
 31
0.0
  0
CIRCLE
  5
391B
330
3917
100
AcDbEntity
  8
AM_9N ( Normteile verdeckt)
100
AcDbCircle
 10
1114.266802709697
 20
628.4958033922031
 30
0.0
 40
4.2
  0
ENDBLK
  5
391D
330
3917
100
AcDbEntity
  8
0
100
AcDbBlockEnd
  0
BLOCK
  5
3929
330
391F
100
AcDbEntity
  8
0
100
AcDbBlockBegin
  2
*U150
 70
     1
 10
0.0
 20
0.0
 30
0.0
  3
*U150
  1

  0
LINE
  5
3920
330
391F
100
AcDbEntity
  8
AM_7N ( Normteile Mittelinien)
100
AcDbLine
 10
1107.766802709697
 20
632.2485801419357
 30
0.0
 11
1120.766802709697
 21
624.7430266424706
 31
0.0
  0
LINE
  5
3921
330
391F
100
AcDbEntity
  8
AM_0N ( Normteile sichtbar)
100
AcDbLine
 10
1114.266802709697
 20
620.9902498927379
 30
0.0
 11
1120.766802709697
 21
624.7430266424705
 31
0.0
  0
LINE
  5
3922
330
391F
100
AcDbEntity
  8
AM_0N ( Normteile sichtbar)
100
AcDbLine
 10
1120.766802709697
 20
624.7430266424705
 30
0.0
 11
1120.766802709697
 21
632.2485801419354
 31
0.0
  0
LINE
  5
3923
330
391F
100
AcDbEntity
  8
AM_0N ( Normteile sichtbar)
100
AcDbLine
 10
1120.766802709697
 20
632.2485801419354
 30
0.0
 11
1114.266802709697
 21
636.0013568916683
 31
0.0
  0
LINE
  5
3924
330
391F
100
AcDbEntity
  8
AM_0N ( Normteile sichtbar)
100
AcDbLine
 10
1114.266802709697
 20
636.0013568916683
 30
0.0
 11
1107.766802709697
 21
632.2485801419357
 31
0.0
  0
LINE
  5
3925
330
391F
100
AcDbEntity
  8
AM_0N ( Normteile sichtbar)
100
AcDbLine
 10
1107.766802709697
 20
632.2485801419357
 30
0.0
 11
1107.766802709696
 21
624.7430266424706
 31
0.0
  0
LINE
  5
3926
330
391F
100
AcDbEntity
  8
AM_0N ( Normteile sichtbar)
100
AcDbLine
 10
1107.766802709696
 20
624.7430266424706
 30
0.0
 11
1114.266802709697
 21
620.9902498927379
 31
0.0
  0
CIRCLE
  5
3927
330
391F
100
AcDbEntity
  8
AM_0N ( Normteile sichtbar)
100
AcDbCircle
 10
1114.266802709697
 20
628.4958033922031
 30
0.0
 40
6.5
  0
LINE
  5
3928
330
391F
100
AcDbEntity
  8
AM_7N ( Normteile Mittelinien)
100
AcDbLine
 10
1110.514025959964
 20
621.9958033922032
 30
0.0
 11
1118.019579459429
 21
634.995803392203
 31
0.0
  0
ENDBLK
  5
392A
330
391F
100
AcDbEntity
  8
0
100
AcDbBlockEnd
  0
BLOCK
  5
3931
330
392C
100
AcDbEntity
  8
0
100
AcDbBlockBegin
  2
*U151
 70
     1
 10
0.0
 20
0.0
 30
0.0
  3
*U151
  1

  0
CIRCLE
  5
392D
330
392C
100
AcDbEntity
  8
AM_0N ( Normteile sichtbar)
100
AcDbCircle
 10
1069.266803385497
 20
628.4958033922032
 30
0.0
 40
8.0
  0
LINE
  5
392E
330
392C
100
AcDbEntity
  8
AM_7N ( Normteile Mittelinien)
100
AcDbLine
 10
1073.266803385497
 20
621.5676001619276
 30
0.0
 11
1065.266803385497
 21
635.4240066224787
 31
0.0
  0
LINE
  5
392F
330
392C
100
AcDbEntity
  8
AM_7N ( Normteile Mittelinien)
100
AcDbLine
 10
1062.338600155221
 20
624.4958033922032
 30
0.0
 11
1076.195006615772
 21
632.4958033922032
 31
0.0
  0
CIRCLE
  5
3930
330
392C
100
AcDbEntity
  8
AM_9N ( Normteile verdeckt)
100
AcDbCircle
 10
1069.266803385497
 20
628.4958033922032
 30
0.0
 40
4.2
  0
ENDBLK
  5
3932
330
392C
100
AcDbEntity
  8
0
100
AcDbBlockEnd
  0
BLOCK
  5
393E
330
3934
100
AcDbEntity
  8
0
100
AcDbBlockBegin
  2
*U152
 70
     1
 10
0.0
 20
0.0
 30
0.0
  3
*U152
  1

  0
LINE
  5
3935
330
3934
100
AcDbEntity
  8
AM_7N ( Normteile Mittelinien)
100
AcDbLine
 10
1062.766803385497
 20
624.7430266424707
 30
0.0
 11
1075.766803385497
 21
632.2485801419357
 31
0.0
  0
LINE
  5
3936
330
3934
100
AcDbEntity
  8
AM_0N ( Normteile sichtbar)
100
AcDbLine
 10
1075.766803385497
 20
624.7430266424706
 30
0.0
 11
1075.766803385497
 21
632.2485801419357
 31
0.0
  0
LINE
  5
3937
330
3934
100
AcDbEntity
  8
AM_0N ( Normteile sichtbar)
100
AcDbLine
 10
1075.766803385497
 20
632.2485801419357
 30
0.0
 11
1069.266803385497
 21
636.0013568916685
 31
0.0
  0
LINE
  5
3938
330
3934
100
AcDbEntity
  8
AM_0N ( Normteile sichtbar)
100
AcDbLine
 10
1069.266803385497
 20
636.0013568916685
 30
0.0
 11
1062.766803385497
 21
632.2485801419357
 31
0.0
  0
LINE
  5
3939
330
3934
100
AcDbEntity
  8
AM_0N ( Normteile sichtbar)
100
AcDbLine
 10
1062.766803385497
 20
632.2485801419357
 30
0.0
 11
1062.766803385497
 21
624.7430266424709
 31
0.0
  0
LINE
  5
393A
330
3934
100
AcDbEntity
  8
AM_0N ( Normteile sichtbar)
100
AcDbLine
 10
1062.766803385497
 20
624.7430266424709
 30
0.0
 11
1069.266803385497
 21
620.9902498927379
 31
0.0
  0
LINE
  5
393B
330
3934
100
AcDbEntity
  8
AM_0N ( Normteile sichtbar)
100
AcDbLine
 10
1069.266803385497
 20
620.9902498927379
 30
0.0
 11
1075.766803385497
 21
624.7430266424706
 31
0.0
  0
CIRCLE
  5
393C
330
3934
100
AcDbEntity
  8
AM_0N ( Normteile sichtbar)
100
AcDbCircle
 10
1069.266803385497
 20
628.4958033922032
 30
0.0
 40
6.5
  0
LINE
  5
393D
330
3934
100
AcDbEntity
  8
AM_7N ( Normteile Mittelinien)
100
AcDbLine
 10
1073.019580135229
 20
621.9958033922033
 30
0.0
 11
1065.514026635764
 21
634.9958033922031
 31
0.0
  0
ENDBLK
  5
393F
330
3934
100
AcDbEntity
  8
0
100
AcDbBlockEnd
  0
BLOCK
  5
3946
330
3941
100
AcDbEntity
  8
0
100
AcDbBlockBegin
  2
*U153
 70
     1
 10
0.0
 20
0.0
 30
0.0
  3
*U153
  1

  0
CIRCLE
  5
3942
330
3941
100
AcDbEntity
  8
AM_0N ( Normteile sichtbar)
100
AcDbCircle
 10
1046.766803723397
 20
589.5246608071634
 30
0.0
 40
8.0
  0
LINE
  5
3943
330
3941
100
AcDbEntity
  8
AM_7N ( Normteile Mittelinien)
100
AcDbLine
 10
1054.766803723397
 20
589.5246608071634
 30
0.0
 11
1038.766803723397
 21
589.5246608071634
 31
0.0
  0
LINE
  5
3944
330
3941
100
AcDbEntity
  8
AM_7N ( Normteile Mittelinien)
100
AcDbLine
 10
1046.766803723397
 20
581.5246608071634
 30
0.0
 11
1046.766803723397
 21
597.5246608071634
 31
0.0
  0
CIRCLE
  5
3945
330
3941
100
AcDbEntity
  8
AM_9N ( Normteile verdeckt)
100
AcDbCircle
 10
1046.766803723397
 20
589.5246608071634
 30
0.0
 40
4.2
  0
ENDBLK
  5
3947
330
3941
100
AcDbEntity
  8
0
100
AcDbBlockEnd
  0
BLOCK
  5
3953
330
3949
100
AcDbEntity
  8
0
100
AcDbBlockBegin
  2
*U154
 70
     1
 10
0.0
 20
0.0
 30
0.0
  3
*U154
  1

  0
LINE
  5
394A
330
3949
100
AcDbEntity
  8
AM_7N ( Normteile Mittelinien)
100
AcDbLine
 10
1046.766803723397
 20
582.0191073076983
 30
0.0
 11
1046.766803723397
 21
597.0302143066284
 31
0.0
  0
LINE
  5
394B
330
3949
100
AcDbEntity
  8
AM_0N ( Normteile sichtbar)
100
AcDbLine
 10
1053.266803723396
 20
593.277437556896
 30
0.0
 11
1046.766803723397
 21
597.0302143066285
 31
0.0
  0
LINE
  5
394C
330
3949
100
AcDbEntity
  8
AM_0N ( Normteile sichtbar)
100
AcDbLine
 10
1046.766803723397
 20
597.0302143066285
 30
0.0
 11
1040.266803723397
 21
593.2774375568965
 31
0.0
  0
LINE
  5
394D
330
3949
100
AcDbEntity
  8
AM_0N ( Normteile sichtbar)
100
AcDbLine
 10
1040.266803723397
 20
593.2774375568965
 30
0.0
 11
1040.266803723397
 21
585.7718840574308
 31
0.0
  0
LINE
  5
394E
330
3949
100
AcDbEntity
  8
AM_0N ( Normteile sichtbar)
100
AcDbLine
 10
1040.266803723397
 20
585.7718840574308
 30
0.0
 11
1046.766803723397
 21
582.0191073076983
 31
0.0
  0
LINE
  5
394F
330
3949
100
AcDbEntity
  8
AM_0N ( Normteile sichtbar)
100
AcDbLine
 10
1046.766803723397
 20
582.0191073076983
 30
0.0
 11
1053.266803723396
 21
585.7718840574306
 31
0.0
  0
LINE
  5
3950
330
3949
100
AcDbEntity
  8
AM_0N ( Normteile sichtbar)
100
AcDbLine
 10
1053.266803723396
 20
585.7718840574306
 30
0.0
 11
1053.266803723396
 21
593.277437556896
 31
0.0
  0
CIRCLE
  5
3951
330
3949
100
AcDbEntity
  8
AM_0N ( Normteile sichtbar)
100
AcDbCircle
 10
1046.766803723397
 20
589.5246608071634
 30
0.0
 40
6.5
  0
LINE
  5
3952
330
3949
100
AcDbEntity
  8
AM_7N ( Normteile Mittelinien)
100
AcDbLine
 10
1054.272357222862
 20
589.5246608071634
 30
0.0
 11
1039.261250223932
 21
589.5246608071634
 31
0.0
  0
ENDBLK
  5
3954
330
3949
100
AcDbEntity
  8
0
100
AcDbBlockEnd
  0
BLOCK
  5
395B
330
3956
100
AcDbEntity
  8
0
100
AcDbBlockBegin
  2
*U155
 70
     1
 10
0.0
 20
0.0
 30
0.0
  3
*U155
  1

  0
CIRCLE
  5
3957
330
3956
100
AcDbEntity
  8
AM_0N ( Normteile sichtbar)
100
AcDbCircle
 10
1069.266803385497
 20
550.5535182221236
 30
0.0
 40
8.0
  0
LINE
  5
3958
330
3956
100
AcDbEntity
  8
AM_7N ( Normteile Mittelinien)
100
AcDbLine
 10
1073.266803385497
 20
557.4817214523991
 30
0.0
 11
1065.266803385497
 21
543.6253149918481
 31
0.0
  0
LINE
  5
3959
330
3956
100
AcDbEntity
  8
AM_7N ( Normteile Mittelinien)
100
AcDbLine
 10
1076.195006615772
 20
546.5535182221237
 30
0.0
 11
1062.338600155221
 21
554.5535182221236
 31
0.0
  0
CIRCLE
  5
395A
330
3956
100
AcDbEntity
  8
AM_9N ( Normteile verdeckt)
100
AcDbCircle
 10
1069.266803385497
 20
550.5535182221236
 30
0.0
 40
4.2
  0
ENDBLK
  5
395C
330
3956
100
AcDbEntity
  8
0
100
AcDbBlockEnd
  0
BLOCK
  5
3968
330
395E
100
AcDbEntity
  8
0
100
AcDbBlockBegin
  2
*U156
 70
     1
 10
0.0
 20
0.0
 30
0.0
  3
*U156
  1

  0
LINE
  5
395F
330
395E
100
AcDbEntity
  8
AM_7N ( Normteile Mittelinien)
100
AcDbLine
 10
1075.766803385497
 20
546.8007414723911
 30
0.0
 11
1062.766803385497
 21
554.3062949718562
 31
0.0
  0
LINE
  5
3960
330
395E
100
AcDbEntity
  8
AM_0N ( Normteile sichtbar)
100
AcDbLine
 10
1069.266803385497
 20
558.0590717215888
 30
0.0
 11
1062.766803385497
 21
554.3062949718562
 31
0.0
  0
LINE
  5
3961
330
395E
100
AcDbEntity
  8
AM_0N ( Normteile sichtbar)
100
AcDbLine
 10
1062.766803385497
 20
554.3062949718562
 30
0.0
 11
1062.766803385496
 21
546.8007414723913
 31
0.0
  0
LINE
  5
3962
330
395E
100
AcDbEntity
  8
AM_0N ( Normteile sichtbar)
100
AcDbLine
 10
1062.766803385496
 20
546.8007414723913
 30
0.0
 11
1069.266803385497
 21
543.0479647226585
 31
0.0
  0
LINE
  5
3963
330
395E
100
AcDbEntity
  8
AM_0N ( Normteile sichtbar)
100
AcDbLine
 10
1069.266803385497
 20
543.0479647226585
 30
0.0
 11
1075.766803385496
 21
546.800741472391
 31
0.0
  0
LINE
  5
3964
330
395E
100
AcDbEntity
  8
AM_0N ( Normteile sichtbar)
100
AcDbLine
 10
1075.766803385496
 20
546.800741472391
 30
0.0
 11
1075.766803385497
 21
554.3062949718561
 31
0.0
  0
LINE
  5
3965
330
395E
100
AcDbEntity
  8
AM_0N ( Normteile sichtbar)
100
AcDbLine
 10
1075.766803385497
 20
554.3062949718561
 30
0.0
 11
1069.266803385497
 21
558.0590717215888
 31
0.0
  0
CIRCLE
  5
3966
330
395E
100
AcDbEntity
  8
AM_0N ( Normteile sichtbar)
100
AcDbCircle
 10
1069.266803385497
 20
550.5535182221236
 30
0.0
 40
6.5
  0
LINE
  5
3967
330
395E
100
AcDbEntity
  8
AM_7N ( Normteile Mittelinien)
100
AcDbLine
 10
1073.019580135229
 20
557.0535182221235
 30
0.0
 11
1065.514026635764
 21
544.0535182221237
 31
0.0
  0
ENDBLK
  5
3969
330
395E
100
AcDbEntity
  8
0
100
AcDbBlockEnd
  0
BLOCK
  5
3970
330
396B
100
AcDbEntity
  8
0
100
AcDbBlockBegin
  2
*U157
 70
     1
 10
0.0
 20
0.0
 30
0.0
  3
*U157
  1

  0
CIRCLE
  5
396C
330
396B
100
AcDbEntity
  8
AM_0N ( Normteile sichtbar)
100
AcDbCircle
 10
1114.266802709697
 20
550.5535182221236
 30
0.0
 40
8.0
  0
LINE
  5
396D
330
396B
100
AcDbEntity
  8
AM_7N ( Normteile Mittelinien)
100
AcDbLine
 10
1110.266802709697
 20
557.4817214523991
 30
0.0
 11
1118.266802709697
 21
543.6253149918481
 31
0.0
  0
LINE
  5
396E
330
396B
100
AcDbEntity
  8
AM_7N ( Normteile Mittelinien)
100
AcDbLine
 10
1121.195005939972
 20
554.5535182221236
 30
0.0
 11
1107.338599479421
 21
546.5535182221237
 31
0.0
  0
CIRCLE
  5
396F
330
396B
100
AcDbEntity
  8
AM_9N ( Normteile verdeckt)
100
AcDbCircle
 10
1114.266802709697
 20
550.5535182221236
 30
0.0
 40
4.2
  0
ENDBLK
  5
3971
330
396B
100
AcDbEntity
  8
0
100
AcDbBlockEnd
  0
BLOCK
  5
397D
330
3973
100
AcDbEntity
  8
0
100
AcDbBlockBegin
  2
*U158
 70
     1
 10
0.0
 20
0.0
 30
0.0
  3
*U158
  1

  0
LINE
  5
3974
330
3973
100
AcDbEntity
  8
AM_7N ( Normteile Mittelinien)
100
AcDbLine
 10
1120.766802709697
 20
554.3062949718562
 30
0.0
 11
1107.766802709697
 21
546.8007414723911
 31
0.0
  0
LINE
  5
3975
330
3973
100
AcDbEntity
  8
AM_0N ( Normteile sichtbar)
100
AcDbLine
 10
1107.766802709696
 20
554.3062949718562
 30
0.0
 11
1107.766802709696
 21
546.8007414723911
 31
0.0
  0
LINE
  5
3976
330
3973
100
AcDbEntity
  8
AM_0N ( Normteile sichtbar)
100
AcDbLine
 10
1107.766802709696
 20
546.8007414723911
 30
0.0
 11
1114.266802709696
 21
543.0479647226582
 31
0.0
  0
LINE
  5
3977
330
3973
100
AcDbEntity
  8
AM_0N ( Normteile sichtbar)
100
AcDbLine
 10
1114.266802709696
 20
543.0479647226582
 30
0.0
 11
1120.766802709697
 21
546.8007414723911
 31
0.0
  0
LINE
  5
3978
330
3973
100
AcDbEntity
  8
AM_0N ( Normteile sichtbar)
100
AcDbLine
 10
1120.766802709697
 20
546.8007414723911
 30
0.0
 11
1120.766802709697
 21
554.3062949718559
 31
0.0
  0
LINE
  5
3979
330
3973
100
AcDbEntity
  8
AM_0N ( Normteile sichtbar)
100
AcDbLine
 10
1120.766802709697
 20
554.3062949718559
 30
0.0
 11
1114.266802709697
 21
558.0590717215889
 31
0.0
  0
LINE
  5
397A
330
3973
100
AcDbEntity
  8
AM_0N ( Normteile sichtbar)
100
AcDbLine
 10
1114.266802709697
 20
558.0590717215889
 30
0.0
 11
1107.766802709696
 21
554.3062949718562
 31
0.0
  0
CIRCLE
  5
397B
330
3973
100
AcDbEntity
  8
AM_0N ( Normteile sichtbar)
100
AcDbCircle
 10
1114.266802709697
 20
550.5535182221236
 30
0.0
 40
6.5
  0
LINE
  5
397C
330
3973
100
AcDbEntity
  8
AM_7N ( Normteile Mittelinien)
100
AcDbLine
 10
1110.514025959964
 20
557.0535182221235
 30
0.0
 11
1118.019579459429
 21
544.0535182221237
 31
0.0
  0
ENDBLK
  5
397E
330
3973
100
AcDbEntity
  8
0
100
AcDbBlockEnd
  0
BLOCK
  5
3984
330
3980
100
AcDbEntity
  8
0
100
AcDbBlockBegin
  2
*S159
 70
     1
 10
0.0
 20
0.0
 30
0.0
  3
*S159
  1

  0
CIRCLE
  5
3981
330
3980
100
AcDbEntity
  8
AM_12N
 62
     4
100
AcDbCircle
 10
1038.766803723397
 20
943.1615643716879
 30
0.0
 40
5.0
  0
LINE
  5
3982
330
3980
100
AcDbEntity
  8
AM_12N
 62
     4
100
AcDbLine
 10
1033.766803723397
 20
938.161564371688
 30
0.0
 11
1043.766803723397
 21
948.161564371688
 31
0.0
  0
LINE
  5
3983
330
3980
100
AcDbEntity
  8
AM_12N
 62
     4
100
AcDbLine
 10
1033.766803723397
 20
948.161564371688
 30
0.0
 11
1043.766803723397
 21
938.161564371688
 31
0.0
  0
ENDBLK
  5
3985
330
3980
100
AcDbEntity
  8
0
100
AcDbBlockEnd
  0
BLOCK
  5
398B
330
3987
100
AcDbEntity
  8
0
100
AcDbBlockBegin
  2
*S160
 70
     1
 10
0.0
 20
0.0
 30
0.0
  3
*S160
  1

  0
CIRCLE
  5
3988
330
3987
100
AcDbEntity
  8
AM_12N
 62
     4
100
AcDbCircle
 10
1050.521526973664
 20
949.4798839754794
 30
0.0
 40
5.0
  0
LINE
  5
3989
330
3987
100
AcDbEntity
  8
AM_12N
 62
     4
100
AcDbLine
 10
1045.521526973664
 20
944.4798839754794
 30
0.0
 11
1055.521526973664
 21
954.4798839754793
 31
0.0
  0
LINE
  5
398A
330
3987
100
AcDbEntity
  8
AM_12N
 62
     4
100
AcDbLine
 10
1045.521526973664
 20
954.4798839754793
 30
0.0
 11
1055.521526973664
 21
944.4798839754794
 31
0.0
  0
ENDBLK
  5
398C
330
3987
100
AcDbEntity
  8
0
100
AcDbBlockEnd
  0
BLOCK
  5
3992
330
398E
100
AcDbEntity
  8
0
100
AcDbBlockBegin
  2
*S161
 70
     1
 10
0.0
 20
0.0
 30
0.0
  3
*S161
  1

  0
CIRCLE
  5
398F
330
398E
100
AcDbEntity
  8
AM_12N
 62
     4
100
AcDbCircle
 10
1136.766802371797
 20
589.5246608071634
 30
0.0
 40
5.0
  0
LINE
  5
3990
330
398E
100
AcDbEntity
  8
AM_12N
 62
     4
100
AcDbLine
 10
1131.766802371797
 20
584.5246608071634
 30
0.0
 11
1141.766802371797
 21
594.5246608071633
 31
0.0
  0
LINE
  5
3991
330
398E
100
AcDbEntity
  8
AM_12N
 62
     4
100
AcDbLine
 10
1131.766802371797
 20
594.5246608071633
 30
0.0
 11
1141.766802371797
 21
584.5246608071634
 31
0.0
  0
ENDBLK
  5
3993
330
398E
100
AcDbEntity
  8
0
100
AcDbBlockEnd
  0
BLOCK
  5
3999
330
3995
100
AcDbEntity
  8
0
100
AcDbBlockBegin
  2
*S162
 70
     1
 10
0.0
 20
0.0
 30
0.0
  3
*S162
  1

  0
CIRCLE
  5
3996
330
3995
100
AcDbEntity
  8
AM_12N
 62
     4
100
AcDbCircle
 10
1114.266802709697
 20
628.4958033922031
 30
0.0
 40
5.000000000000015
  0
LINE
  5
3997
330
3995
100
AcDbEntity
  8
AM_12N
 62
     4
100
AcDbLine
 10
1116.096929728619
 20
621.6656763732808
 30
0.0
 11
1112.436675690775
 21
635.3259304111253
 31
0.0
  0
LINE
  5
3998
330
3995
100
AcDbEntity
  8
AM_12N
 62
     4
100
AcDbLine
 10
1107.436675690775
 20
626.6656763732809
 30
0.0
 11
1121.096929728619
 21
630.3259304111253
 31
0.0
  0
ENDBLK
  5
399A
330
3995
100
AcDbEntity
  8
0
100
AcDbBlockEnd
  0
BLOCK
  5
39A0
330
399C
100
AcDbEntity
  8
0
100
AcDbBlockBegin
  2
*S163
 70
     1
 10
0.0
 20
0.0
 30
0.0
  3
*S163
  1

  0
CIRCLE
  5
399D
330
399C
100
AcDbEntity
  8
AM_12N
 62
     4
100
AcDbCircle
 10
1069.266803385497
 20
628.4958033922032
 30
0.0
 40
5.000000000000015
  0
LINE
  5
399E
330
399C
100
AcDbEntity
  8
AM_12N
 62
     4
100
AcDbLine
 10
1076.096930404419
 20
626.665676373281
 30
0.0
 11
1062.436676366575
 21
630.3259304111255
 31
0.0
  0
LINE
  5
399F
330
399C
100
AcDbEntity
  8
AM_12N
 62
     4
100
AcDbLine
 10
1067.436676366575
 20
621.665676373281
 30
0.0
 11
1071.096930404419
 21
635.3259304111254
 31
0.0
  0
ENDBLK
  5
39A1
330
399C
100
AcDbEntity
  8
0
100
AcDbBlockEnd
  0
BLOCK
  5
39A7
330
39A3
100
AcDbEntity
  8
0
100
AcDbBlockBegin
  2
*S164
 70
     1
 10
0.0
 20
0.0
 30
0.0
  3
*S164
  1

  0
CIRCLE
  5
39A4
330
39A3
100
AcDbEntity
  8
AM_12N
 62
     4
100
AcDbCircle
 10
1046.766803723397
 20
589.5246608071634
 30
0.0
 40
5.0
  0
LINE
  5
39A5
330
39A3
100
AcDbEntity
  8
AM_12N
 62
     4
100
AcDbLine
 10
1051.766803723397
 20
594.5246608071633
 30
0.0
 11
1041.766803723397
 21
584.5246608071634
 31
0.0
  0
LINE
  5
39A6
330
39A3
100
AcDbEntity
  8
AM_12N
 62
     4
100
AcDbLine
 10
1051.766803723397
 20
584.5246608071634
 30
0.0
 11
1041.766803723397
 21
594.5246608071633
 31
0.0
  0
ENDBLK
  5
39A8
330
39A3
100
AcDbEntity
  8
0
100
AcDbBlockEnd
  0
BLOCK
  5
39AE
330
39AA
100
AcDbEntity
  8
0
100
AcDbBlockBegin
  2
*S165
 70
     1
 10
0.0
 20
0.0
 30
0.0
  3
*S165
  1

  0
CIRCLE
  5
39AB
330
39AA
100
AcDbEntity
  8
AM_12N
 62
     4
100
AcDbCircle
 10
1069.266803385497
 20
550.5535182221236
 30
0.0
 40
5.000000000000015
  0
LINE
  5
39AC
330
39AA
100
AcDbEntity
  8
AM_12N
 62
     4
100
AcDbLine
 10
1067.436676366575
 20
557.3836452410459
 30
0.0
 11
1071.096930404419
 21
543.7233912032014
 31
0.0
  0
LINE
  5
39AD
330
39AA
100
AcDbEntity
  8
AM_12N
 62
     4
100
AcDbLine
 10
1076.096930404419
 20
552.3836452410458
 30
0.0
 11
1062.436676366574
 21
548.7233912032015
 31
0.0
  0
ENDBLK
  5
39AF
330
39AA
100
AcDbEntity
  8
0
100
AcDbBlockEnd
  0
BLOCK
  5
39B5
330
39B1
100
AcDbEntity
  8
0
100
AcDbBlockBegin
  2
*S166
 70
     1
 10
0.0
 20
0.0
 30
0.0
  3
*S166
  1

  0
CIRCLE
  5
39B2
330
39B1
100
AcDbEntity
  8
AM_12N
 62
     4
100
AcDbCircle
 10
1114.266802709697
 20
550.5535182221236
 30
0.0
 40
5.000000000000015
  0
LINE
  5
39B3
330
39B1
100
AcDbEntity
  8
AM_12N
 62
     4
100
AcDbLine
 10
1107.436675690774
 20
552.3836452410458
 30
0.0
 11
1121.096929728619
 21
548.7233912032015
 31
0.0
  0
LINE
  5
39B4
330
39B1
100
AcDbEntity
  8
AM_12N
 62
     4
100
AcDbLine
 10
1116.096929728619
 20
557.3836452410459
 30
0.0
 11
1112.436675690774
 21
543.7233912032014
 31
0.0
  0
ENDBLK
  5
39B6
330
39B1
100
AcDbEntity
  8
0
100
AcDbBlockEnd
  0
BLOCK
  5
39CA
330
39C0
100
AcDbEntity
  8
0
100
AcDbBlockBegin
  2
*U167
 70
     1
 10
0.0
 20
0.0
 30
0.0
  3
*U167
  1

  0
LINE
  5
39C1
330
39C0
100
AcDbEntity
  8
AM_7N ( Normteile Mittelinien)
100
AcDbLine
 10
195.2102122407181
 20
427.8869042060884
 30
0.0
 11
195.2102122407181
 21
429.4869042060883
 31
0.0
  0
LINE
  5
39C2
330
39C0
100
AcDbEntity
  8
AM_0N ( Normteile sichtbar)
100
AcDbLine
 10
187.2102122407181
 20
427.8869042060884
 30
0.0
 11
191.5485034907181
 21
427.8869042060884
 31
0.0
  0
LINE
  5
39C3
330
39C0
100
AcDbEntity
  8
AM_9N ( Normteile verdeckt)
100
AcDbLine
 10
191.5485034907181
 20
427.8869042060884
 30
0.0
 11
198.8719209907181
 21
427.8869042060884
 31
0.0
  0
LINE
  5
39C4
330
39C0
100
AcDbEntity
  8
AM_0N ( Normteile sichtbar)
100
AcDbLine
 10
198.8719209907181
 20
427.8869042060884
 30
0.0
 11
203.2102122407181
 21
427.8869042060884
 31
0.0
  0
LINE
  5
39C5
330
39C0
100
AcDbEntity
  8
AM_0N ( Normteile sichtbar)
100
AcDbLine
 10
203.2102122407181
 20
429.4869042060885
 30
0.0
 11
200.9102122407181
 21
429.4869042060885
 31
0.0
  0
LINE
  5
39C6
330
39C0
100
AcDbEntity
  8
AM_9N ( Normteile verdeckt)
100
AcDbLine
 10
200.9102122407181
 20
429.4869042060885
 30
0.0
 11
189.5102122407181
 21
429.4869042060885
 31
0.0
  0
LINE
  5
39C7
330
39C0
100
AcDbEntity
  8
AM_0N ( Normteile sichtbar)
100
AcDbLine
 10
189.5102122407181
 20
429.4869042060885
 30
0.0
 11
187.2102122407181
 21
429.4869042060885
 31
0.0
  0
LINE
  5
39C8
330
39C0
100
AcDbEntity
  8
AM_0N ( Normteile sichtbar)
100
AcDbLine
 10
203.2102122407181
 20
427.8869042060884
 30
0.0
 11
203.2102122407181
 21
429.4869042060885
 31
0.0
  0
LINE
  5
39C9
330
39C0
100
AcDbEntity
  8
AM_0N ( Normteile sichtbar)
100
AcDbLine
 10
187.2102122407181
 20
429.4869042060885
 30
0.0
 11
187.2102122407181
 21
427.8869042060884
 31
0.0
  0
ENDBLK
  5
39CB
330
39C0
100
AcDbEntity
  8
0
100
AcDbBlockEnd
  0
BLOCK
  5
39D6
330
39CC
100
AcDbEntity
  8
0
100
AcDbBlockBegin
  2
*U168
 70
     1
 10
0.0
 20
0.0
 30
0.0
  3
*U168
  1

  0
LINE
  5
39CD
330
39CC
100
AcDbEntity
  8
AM_7N ( Normteile Mittelinien)
100
AcDbLine
 10
105.2102135924182
 20
427.8869042060884
 30
0.0
 11
105.2102135924182
 21
429.4869042060883
 31
0.0
  0
LINE
  5
39CE
330
39CC
100
AcDbEntity
  8
AM_0N ( Normteile sichtbar)
100
AcDbLine
 10
97.2102135924182
 20
427.8869042060884
 30
0.0
 11
101.5485048424182
 21
427.8869042060884
 31
0.0
  0
LINE
  5
39CF
330
39CC
100
AcDbEntity
  8
AM_9N ( Normteile verdeckt)
100
AcDbLine
 10
101.5485048424182
 20
427.8869042060884
 30
0.0
 11
108.8719223424182
 21
427.8869042060884
 31
0.0
  0
LINE
  5
39D0
330
39CC
100
AcDbEntity
  8
AM_0N ( Normteile sichtbar)
100
AcDbLine
 10
108.8719223424182
 20
427.8869042060884
 30
0.0
 11
113.2102135924182
 21
427.8869042060884
 31
0.0
  0
LINE
  5
39D1
330
39CC
100
AcDbEntity
  8
AM_0N ( Normteile sichtbar)
100
AcDbLine
 10
113.2102135924182
 20
429.4869042060885
 30
0.0
 11
110.9102135924182
 21
429.4869042060885
 31
0.0
  0
LINE
  5
39D2
330
39CC
100
AcDbEntity
  8
AM_9N ( Normteile verdeckt)
100
AcDbLine
 10
110.9102135924182
 20
429.4869042060885
 30
0.0
 11
99.51021359241821
 21
429.4869042060885
 31
0.0
  0
LINE
  5
39D3
330
39CC
100
AcDbEntity
  8
AM_0N ( Normteile sichtbar)
100
AcDbLine
 10
99.51021359241821
 20
429.4869042060885
 30
0.0
 11
97.2102135924182
 21
429.4869042060885
 31
0.0
  0
LINE
  5
39D4
330
39CC
100
AcDbEntity
  8
AM_0N ( Normteile sichtbar)
100
AcDbLine
 10
113.2102135924182
 20
427.8869042060884
 30
0.0
 11
113.2102135924182
 21
429.4869042060885
 31
0.0
  0
LINE
  5
39D5
330
39CC
100
AcDbEntity
  8
AM_0N ( Normteile sichtbar)
100
AcDbLine
 10
97.2102135924182
 20
429.4869042060885
 30
0.0
 11
97.2102135924182
 21
427.8869042060884
 31
0.0
  0
ENDBLK
  5
39D7
330
39CC
100
AcDbEntity
  8
0
100
AcDbBlockEnd
  0
BLOCK
  5
39DD
330
39D8
100
AcDbEntity
  8
0
100
AcDbBlockBegin
  2
*U169
 70
     1
 10
0.0
 20
0.0
 30
0.0
  3
*U169
  1

  0
CIRCLE
  5
39D9
330
39D8
100
AcDbEntity
  8
AM_0N ( Normteile sichtbar)
100
AcDbCircle
 10
195.2102122408181
 20
74.25000064156392
 30
0.0
 40
8.0
  0
LINE
  5
39DA
330
39D8
100
AcDbEntity
  8
AM_7N ( Normteile Mittelinien)
100
AcDbLine
 10
187.2102122408181
 20
74.25000064156392
 30
0.0
 11
203.2102122408181
 21
74.25000064156392
 31
0.0
  0
LINE
  5
39DB
330
39D8
100
AcDbEntity
  8
AM_7N ( Normteile Mittelinien)
100
AcDbLine
 10
195.2102122408181
 20
82.25000064156393
 30
0.0
 11
195.2102122408181
 21
66.25000064156393
 31
0.0
  0
CIRCLE
  5
39DC
330
39D8
100
AcDbEntity
  8
AM_9N ( Normteile verdeckt)
100
AcDbCircle
 10
195.2102122408181
 20
74.25000064156392
 30
0.0
 40
4.2
  0
ENDBLK
  5
39DE
330
39D8
100
AcDbEntity
  8
0
100
AcDbBlockEnd
  0
BLOCK
  5
39E9
330
39DF
100
AcDbEntity
  8
0
100
AcDbBlockBegin
  2
*U170
 70
     1
 10
0.0
 20
0.0
 30
0.0
  3
*U170
  1

  0
LINE
  5
39E0
330
39DF
100
AcDbEntity
  8
AM_7N ( Normteile Mittelinien)
100
AcDbLine
 10
195.2102122408181
 20
81.75555414102893
 30
0.0
 11
195.2102122408181
 21
66.74444714209892
 31
0.0
  0
LINE
  5
39E1
330
39DF
100
AcDbEntity
  8
AM_0N ( Normteile sichtbar)
100
AcDbLine
 10
188.7102122408181
 20
70.49722389183137
 30
0.0
 11
195.2102122408181
 21
66.7444471420988
 31
0.0
  0
LINE
  5
39E2
330
39DF
100
AcDbEntity
  8
AM_0N ( Normteile sichtbar)
100
AcDbLine
 10
195.2102122408181
 20
66.7444471420988
 30
0.0
 11
201.7102122408182
 21
70.49722389183092
 31
0.0
  0
LINE
  5
39E3
330
39DF
100
AcDbEntity
  8
AM_0N ( Normteile sichtbar)
100
AcDbLine
 10
201.7102122408182
 20
70.49722389183092
 30
0.0
 11
201.7102122408182
 21
78.00277739129649
 31
0.0
  0
LINE
  5
39E4
330
39DF
100
AcDbEntity
  8
AM_0N ( Normteile sichtbar)
100
AcDbLine
 10
201.7102122408182
 20
78.00277739129649
 30
0.0
 11
195.2102122408183
 21
81.75555414102893
 31
0.0
  0
LINE
  5
39E5
330
39DF
100
AcDbEntity
  8
AM_0N ( Normteile sichtbar)
100
AcDbLine
 10
195.2102122408183
 20
81.75555414102893
 30
0.0
 11
188.7102122408181
 21
78.00277739129672
 31
0.0
  0
LINE
  5
39E6
330
39DF
100
AcDbEntity
  8
AM_0N ( Normteile sichtbar)
100
AcDbLine
 10
188.7102122408181
 20
78.00277739129672
 30
0.0
 11
188.7102122408181
 21
70.49722389183137
 31
0.0
  0
CIRCLE
  5
39E7
330
39DF
100
AcDbEntity
  8
AM_0N ( Normteile sichtbar)
100
AcDbCircle
 10
195.2102122408181
 20
74.25000064156392
 30
0.0
 40
6.5
  0
LINE
  5
39E8
330
39DF
100
AcDbEntity
  8
AM_7N ( Normteile Mittelinien)
100
AcDbLine
 10
187.7046587413531
 20
74.25000064156392
 30
0.0
 11
202.7157657402832
 21
74.25000064156392
 31
0.0
  0
ENDBLK
  5
39EA
330
39DF
100
AcDbEntity
  8
0
100
AcDbBlockEnd
  0
BLOCK
  5
39F0
330
39EB
100
AcDbEntity
  8
0
100
AcDbBlockBegin
  2
*U171
 70
     1
 10
0.0
 20
0.0
 30
0.0
  3
*U171
  1

  0
CIRCLE
  5
39EC
330
39EB
100
AcDbEntity
  8
AM_0N ( Normteile sichtbar)
100
AcDbCircle
 10
172.7102125787182
 20
113.2211432266036
 30
0.0
 40
8.0
  0
LINE
  5
39ED
330
39EB
100
AcDbEntity
  8
AM_7N ( Normteile Mittelinien)
100
AcDbLine
 10
168.7102125787182
 20
106.2929399963282
 30
0.0
 11
176.7102125787182
 21
120.1493464568792
 31
0.0
  0
LINE
  5
39EE
330
39EB
100
AcDbEntity
  8
AM_7N ( Normteile Mittelinien)
100
AcDbLine
 10
165.7820093484426
 20
117.2211432266036
 30
0.0
 11
179.6384158089937
 21
109.2211432266036
 31
0.0
  0
CIRCLE
  5
39EF
330
39EB
100
AcDbEntity
  8
AM_9N ( Normteile verdeckt)
100
AcDbCircle
 10
172.7102125787182
 20
113.2211432266036
 30
0.0
 40
4.2
  0
ENDBLK
  5
39F1
330
39EB
100
AcDbEntity
  8
0
100
AcDbBlockEnd
  0
BLOCK
  5
39FC
330
39F2
100
AcDbEntity
  8
0
100
AcDbBlockBegin
  2
*U172
 70
     1
 10
0.0
 20
0.0
 30
0.0
  3
*U172
  1

  0
LINE
  5
39F3
330
39F2
100
AcDbEntity
  8
AM_7N ( Normteile Mittelinien)
100
AcDbLine
 10
166.2102125787183
 20
116.9739199763362
 30
0.0
 11
179.2102125787181
 21
109.4683664768712
 31
0.0
  0
LINE
  5
39F4
330
39F2
100
AcDbEntity
  8
AM_0N ( Normteile sichtbar)
100
AcDbLine
 10
172.7102125787182
 20
105.7155897271385
 30
0.0
 11
179.2102125787182
 21
109.4683664768711
 31
0.0
  0
LINE
  5
39F5
330
39F2
100
AcDbEntity
  8
AM_0N ( Normteile sichtbar)
100
AcDbLine
 10
179.2102125787182
 20
109.4683664768711
 30
0.0
 11
179.2102125787186
 21
116.973919976336
 31
0.0
  0
LINE
  5
39F6
330
39F2
100
AcDbEntity
  8
AM_0N ( Normteile sichtbar)
100
AcDbLine
 10
179.2102125787186
 20
116.973919976336
 30
0.0
 11
172.7102125787182
 21
120.7266967260688
 31
0.0
  0
LINE
  5
39F7
330
39F2
100
AcDbEntity
  8
AM_0N ( Normteile sichtbar)
100
AcDbLine
 10
172.7102125787182
 20
120.7266967260688
 30
0.0
 11
166.2102125787184
 21
116.9739199763363
 31
0.0
  0
LINE
  5
39F8
330
39F2
100
AcDbEntity
  8
AM_0N ( Normteile sichtbar)
100
AcDbLine
 10
166.2102125787184
 20
116.9739199763363
 30
0.0
 11
166.210212578718
 21
109.4683664768712
 31
0.0
  0
LINE
  5
39F9
330
39F2
100
AcDbEntity
  8
AM_0N ( Normteile sichtbar)
100
AcDbLine
 10
166.210212578718
 20
109.4683664768712
 30
0.0
 11
172.7102125787182
 21
105.7155897271385
 31
0.0
  0
CIRCLE
  5
39FA
330
39F2
100
AcDbEntity
  8
AM_0N ( Normteile sichtbar)
100
AcDbCircle
 10
172.7102125787182
 20
113.2211432266036
 30
0.0
 40
6.5
  0
LINE
  5
39FB
330
39F2
100
AcDbEntity
  8
AM_7N ( Normteile Mittelinien)
100
AcDbLine
 10
168.9574358289857
 20
106.7211432266037
 30
0.0
 11
176.4629893284507
 21
119.7211432266035
 31
0.0
  0
ENDBLK
  5
39FD
330
39F2
100
AcDbEntity
  8
0
100
AcDbBlockEnd
  0
BLOCK
  5
3A03
330
39FE
100
AcDbEntity
  8
0
100
AcDbBlockBegin
  2
*U173
 70
     1
 10
0.0
 20
0.0
 30
0.0
  3
*U173
  1

  0
CIRCLE
  5
39FF
330
39FE
100
AcDbEntity
  8
AM_0N ( Normteile sichtbar)
100
AcDbCircle
 10
127.7102132545182
 20
113.2211432266037
 30
0.0
 40
8.0
  0
LINE
  5
3A00
330
39FE
100
AcDbEntity
  8
AM_7N ( Normteile Mittelinien)
100
AcDbLine
 10
131.7102132545182
 20
106.2929399963282
 30
0.0
 11
123.7102132545182
 21
120.1493464568792
 31
0.0
  0
LINE
  5
3A01
330
39FE
100
AcDbEntity
  8
AM_7N ( Normteile Mittelinien)
100
AcDbLine
 10
120.7820100242427
 20
109.2211432266037
 30
0.0
 11
134.6384164847937
 21
117.2211432266037
 31
0.0
  0
CIRCLE
  5
3A02
330
39FE
100
AcDbEntity
  8
AM_9N ( Normteile verdeckt)
100
AcDbCircle
 10
127.7102132545182
 20
113.2211432266037
 30
0.0
 40
4.2
  0
ENDBLK
  5
3A04
330
39FE
100
AcDbEntity
  8
0
100
AcDbBlockEnd
  0
BLOCK
  5
3A0F
330
3A05
100
AcDbEntity
  8
0
100
AcDbBlockBegin
  2
*U174
 70
     1
 10
0.0
 20
0.0
 30
0.0
  3
*U174
  1

  0
LINE
  5
3A06
330
3A05
100
AcDbEntity
  8
AM_7N ( Normteile Mittelinien)
100
AcDbLine
 10
121.2102132545183
 20
109.4683664768712
 30
0.0
 11
134.2102132545181
 21
116.9739199763363
 31
0.0
  0
LINE
  5
3A07
330
3A05
100
AcDbEntity
  8
AM_0N ( Normteile sichtbar)
100
AcDbLine
 10
134.2102132545182
 20
109.4683664768712
 30
0.0
 11
134.2102132545182
 21
116.9739199763363
 31
0.0
  0
LINE
  5
3A08
330
3A05
100
AcDbEntity
  8
AM_0N ( Normteile sichtbar)
100
AcDbLine
 10
134.2102132545182
 20
116.9739199763363
 30
0.0
 11
127.7102132545186
 21
120.7266967260691
 31
0.0
  0
LINE
  5
3A09
330
3A05
100
AcDbEntity
  8
AM_0N ( Normteile sichtbar)
100
AcDbLine
 10
127.7102132545186
 20
120.7266967260691
 30
0.0
 11
121.2102132545182
 21
116.9739199763363
 31
0.0
  0
LINE
  5
3A0A
330
3A05
100
AcDbEntity
  8
AM_0N ( Normteile sichtbar)
100
AcDbLine
 10
121.2102132545182
 20
116.9739199763363
 30
0.0
 11
121.2102132545181
 21
109.4683664768714
 31
0.0
  0
LINE
  5
3A0B
330
3A05
100
AcDbEntity
  8
AM_0N ( Normteile sichtbar)
100
AcDbLine
 10
121.2102132545181
 20
109.4683664768714
 30
0.0
 11
127.710213254518
 21
105.7155897271385
 31
0.0
  0
LINE
  5
3A0C
330
3A05
100
AcDbEntity
  8
AM_0N ( Normteile sichtbar)
100
AcDbLine
 10
127.710213254518
 20
105.7155897271385
 30
0.0
 11
134.2102132545182
 21
109.4683664768712
 31
0.0
  0
CIRCLE
  5
3A0D
330
3A05
100
AcDbEntity
  8
AM_0N ( Normteile sichtbar)
100
AcDbCircle
 10
127.7102132545182
 20
113.2211432266037
 30
0.0
 40
6.5
  0
LINE
  5
3A0E
330
3A05
100
AcDbEntity
  8
AM_7N ( Normteile Mittelinien)
100
AcDbLine
 10
131.4629900042507
 20
106.7211432266039
 30
0.0
 11
123.9574365047857
 21
119.7211432266036
 31
0.0
  0
ENDBLK
  5
3A10
330
3A05
100
AcDbEntity
  8
0
100
AcDbBlockEnd
  0
BLOCK
  5
3A16
330
3A11
100
AcDbEntity
  8
0
100
AcDbBlockBegin
  2
*U175
 70
     1
 10
0.0
 20
0.0
 30
0.0
  3
*U175
  1

  0
CIRCLE
  5
3A12
330
3A11
100
AcDbEntity
  8
AM_0N ( Normteile sichtbar)
100
AcDbCircle
 10
105.2102135924181
 20
74.25000064156392
 30
0.0
 40
8.0
  0
LINE
  5
3A13
330
3A11
100
AcDbEntity
  8
AM_7N ( Normteile Mittelinien)
100
AcDbLine
 10
113.2102135924181
 20
74.25000064156392
 30
0.0
 11
97.21021359241815
 21
74.25000064156392
 31
0.0
  0
LINE
  5
3A14
330
3A11
100
AcDbEntity
  8
AM_7N ( Normteile Mittelinien)
100
AcDbLine
 10
105.2102135924181
 20
66.25000064156393
 30
0.0
 11
105.2102135924181
 21
82.25000064156393
 31
0.0
  0
CIRCLE
  5
3A15
330
3A11
100
AcDbEntity
  8
AM_9N ( Normteile verdeckt)
100
AcDbCircle
 10
105.2102135924181
 20
74.25000064156392
 30
0.0
 40
4.2
  0
ENDBLK
  5
3A17
330
3A11
100
AcDbEntity
  8
0
100
AcDbBlockEnd
  0
BLOCK
  5
3A22
330
3A18
100
AcDbEntity
  8
0
100
AcDbBlockBegin
  2
*U176
 70
     1
 10
0.0
 20
0.0
 30
0.0
  3
*U176
  1

  0
LINE
  5
3A19
330
3A18
100
AcDbEntity
  8
AM_7N ( Normteile Mittelinien)
100
AcDbLine
 10
105.2102135924181
 20
66.74444714209892
 30
0.0
 11
105.2102135924181
 21
81.75555414102893
 31
0.0
  0
LINE
  5
3A1A
330
3A18
100
AcDbEntity
  8
AM_0N ( Normteile sichtbar)
100
AcDbLine
 10
111.7102135924181
 20
78.00277739129649
 30
0.0
 11
105.2102135924181
 21
81.75555414102911
 31
0.0
  0
LINE
  5
3A1B
330
3A18
100
AcDbEntity
  8
AM_0N ( Normteile sichtbar)
100
AcDbLine
 10
105.2102135924181
 20
81.75555414102911
 30
0.0
 11
98.71021359241815
 21
78.002777391297
 31
0.0
  0
LINE
  5
3A1C
330
3A18
100
AcDbEntity
  8
AM_0N ( Normteile sichtbar)
100
AcDbLine
 10
98.71021359241815
 20
78.002777391297
 30
0.0
 11
98.71021359241815
 21
70.49722389183137
 31
0.0
  0
LINE
  5
3A1D
330
3A18
100
AcDbEntity
  8
AM_0N ( Normteile sichtbar)
100
AcDbLine
 10
98.71021359241815
 20
70.49722389183137
 30
0.0
 11
105.2102135924179
 21
66.74444714209892
 31
0.0
  0
LINE
  5
3A1E
330
3A18
100
AcDbEntity
  8
AM_0N ( Normteile sichtbar)
100
AcDbLine
 10
105.2102135924179
 20
66.74444714209892
 30
0.0
 11
111.7102135924181
 21
70.49722389183114
 31
0.0
  0
LINE
  5
3A1F
330
3A18
100
AcDbEntity
  8
AM_0N ( Normteile sichtbar)
100
AcDbLine
 10
111.7102135924181
 20
70.49722389183114
 30
0.0
 11
111.7102135924181
 21
78.00277739129649
 31
0.0
  0
CIRCLE
  5
3A20
330
3A18
100
AcDbEntity
  8
AM_0N ( Normteile sichtbar)
100
AcDbCircle
 10
105.2102135924181
 20
74.25000064156392
 30
0.0
 40
6.5
  0
LINE
  5
3A21
330
3A18
100
AcDbEntity
  8
AM_7N ( Normteile Mittelinien)
100
AcDbLine
 10
112.7157670918831
 20
74.25000064156392
 30
0.0
 11
97.70466009295313
 21
74.25000064156392
 31
0.0
  0
ENDBLK
  5
3A23
330
3A18
100
AcDbEntity
  8
0
100
AcDbBlockEnd
  0
BLOCK
  5
3A29
330
3A24
100
AcDbEntity
  8
0
100
AcDbBlockBegin
  2
*U177
 70
     1
 10
0.0
 20
0.0
 30
0.0
  3
*U177
  1

  0
CIRCLE
  5
3A25
330
3A24
100
AcDbEntity
  8
AM_0N ( Normteile sichtbar)
100
AcDbCircle
 10
127.7102132545181
 20
35.2788580565242
 30
0.0
 40
8.0
  0
LINE
  5
3A26
330
3A24
100
AcDbEntity
  8
AM_7N ( Normteile Mittelinien)
100
AcDbLine
 10
131.7102132545181
 20
42.20706128679966
 30
0.0
 11
123.7102132545181
 21
28.35065482624867
 31
0.0
  0
LINE
  5
3A27
330
3A24
100
AcDbEntity
  8
AM_7N ( Normteile Mittelinien)
100
AcDbLine
 10
134.6384164847936
 20
31.2788580565242
 30
0.0
 11
120.7820100242426
 21
39.2788580565242
 31
0.0
  0
CIRCLE
  5
3A28
330
3A24
100
AcDbEntity
  8
AM_9N ( Normteile verdeckt)
100
AcDbCircle
 10
127.7102132545181
 20
35.2788580565242
 30
0.0
 40
4.2
  0
ENDBLK
  5
3A2A
330
3A24
100
AcDbEntity
  8
0
100
AcDbBlockEnd
  0
BLOCK
  5
3A35
330
3A2B
100
AcDbEntity
  8
0
100
AcDbBlockBegin
  2
*U178
 70
     1
 10
0.0
 20
0.0
 30
0.0
  3
*U178
  1

  0
LINE
  5
3A2C
330
3A2B
100
AcDbEntity
  8
AM_7N ( Normteile Mittelinien)
100
AcDbLine
 10
134.210213254518
 20
31.52608130679164
 30
0.0
 11
121.2102132545182
 21
39.0316348062567
 31
0.0
  0
LINE
  5
3A2D
330
3A2B
100
AcDbEntity
  8
AM_0N ( Normteile sichtbar)
100
AcDbLine
 10
127.7102132545181
 20
42.78441155598932
 30
0.0
 11
121.2102132545181
 21
39.03163480625676
 31
0.0
  0
LINE
  5
3A2E
330
3A2B
100
AcDbEntity
  8
AM_0N ( Normteile sichtbar)
100
AcDbLine
 10
121.2102132545181
 20
39.03163480625676
 30
0.0
 11
121.2102132545177
 21
31.52608130679187
 31
0.0
  0
LINE
  5
3A2F
330
3A2B
100
AcDbEntity
  8
AM_0N ( Normteile sichtbar)
100
AcDbLine
 10
121.2102132545177
 20
31.52608130679187
 30
0.0
 11
127.7102132545181
 21
27.77330455705908
 31
0.0
  0
LINE
  5
3A30
330
3A2B
100
AcDbEntity
  8
AM_0N ( Normteile sichtbar)
100
AcDbLine
 10
127.7102132545181
 20
27.77330455705908
 30
0.0
 11
134.2102132545179
 21
31.52608130679153
 31
0.0
  0
LINE
  5
3A31
330
3A2B
100
AcDbEntity
  8
AM_0N ( Normteile sichtbar)
100
AcDbLine
 10
134.2102132545179
 20
31.52608130679153
 30
0.0
 11
134.2102132545183
 21
39.03163480625665
 31
0.0
  0
LINE
  5
3A32
330
3A2B
100
AcDbEntity
  8
AM_0N ( Normteile sichtbar)
100
AcDbLine
 10
134.2102132545183
 20
39.03163480625665
 30
0.0
 11
127.7102132545181
 21
42.78441155598932
 31
0.0
  0
CIRCLE
  5
3A33
330
3A2B
100
AcDbEntity
  8
AM_0N ( Normteile sichtbar)
100
AcDbCircle
 10
127.7102132545181
 20
35.2788580565242
 30
0.0
 40
6.5
  0
LINE
  5
3A34
330
3A2B
100
AcDbEntity
  8
AM_7N ( Normteile Mittelinien)
100
AcDbLine
 10
131.4629900042506
 20
41.77885805652408
 30
0.0
 11
123.9574365047856
 21
28.77885805652431
 31
0.0
  0
ENDBLK
  5
3A36
330
3A2B
100
AcDbEntity
  8
0
100
AcDbBlockEnd
  0
BLOCK
  5
3A3C
330
3A37
100
AcDbEntity
  8
0
100
AcDbBlockBegin
  2
*U179
 70
     1
 10
0.0
 20
0.0
 30
0.0
  3
*U179
  1

  0
CIRCLE
  5
3A38
330
3A37
100
AcDbEntity
  8
AM_0N ( Normteile sichtbar)
100
AcDbCircle
 10
172.7102125787181
 20
35.2788580565242
 30
0.0
 40
8.0
  0
LINE
  5
3A39
330
3A37
100
AcDbEntity
  8
AM_7N ( Normteile Mittelinien)
100
AcDbLine
 10
168.7102125787181
 20
42.20706128679966
 30
0.0
 11
176.7102125787181
 21
28.35065482624867
 31
0.0
  0
LINE
  5
3A3A
330
3A37
100
AcDbEntity
  8
AM_7N ( Normteile Mittelinien)
100
AcDbLine
 10
179.6384158089936
 20
39.2788580565242
 30
0.0
 11
165.7820093484426
 21
31.2788580565242
 31
0.0
  0
CIRCLE
  5
3A3B
330
3A37
100
AcDbEntity
  8
AM_9N ( Normteile verdeckt)
100
AcDbCircle
 10
172.7102125787181
 20
35.2788580565242
 30
0.0
 40
4.2
  0
ENDBLK
  5
3A3D
330
3A37
100
AcDbEntity
  8
0
100
AcDbBlockEnd
  0
BLOCK
  5
3A48
330
3A3E
100
AcDbEntity
  8
0
100
AcDbBlockBegin
  2
*U180
 70
     1
 10
0.0
 20
0.0
 30
0.0
  3
*U180
  1

  0
LINE
  5
3A3F
330
3A3E
100
AcDbEntity
  8
AM_7N ( Normteile Mittelinien)
100
AcDbLine
 10
179.210212578718
 20
39.0316348062567
 30
0.0
 11
166.2102125787182
 21
31.5260813067917
 31
0.0
  0
LINE
  5
3A40
330
3A3E
100
AcDbEntity
  8
AM_0N ( Normteile sichtbar)
100
AcDbLine
 10
166.2102125787181
 20
39.03163480625676
 30
0.0
 11
166.2102125787181
 21
31.52608130679164
 31
0.0
  0
LINE
  5
3A41
330
3A3E
100
AcDbEntity
  8
AM_0N ( Normteile sichtbar)
100
AcDbLine
 10
166.2102125787181
 20
31.52608130679164
 30
0.0
 11
172.7102125787176
 21
27.77330455705879
 31
0.0
  0
LINE
  5
3A42
330
3A3E
100
AcDbEntity
  8
AM_0N ( Normteile sichtbar)
100
AcDbLine
 10
172.7102125787176
 20
27.77330455705879
 30
0.0
 11
179.2102125787181
 21
31.52608130679158
 31
0.0
  0
LINE
  5
3A43
330
3A3E
100
AcDbEntity
  8
AM_0N ( Normteile sichtbar)
100
AcDbLine
 10
179.2102125787181
 20
31.52608130679158
 30
0.0
 11
179.2102125787181
 21
39.03163480625654
 31
0.0
  0
LINE
  5
3A44
330
3A3E
100
AcDbEntity
  8
AM_0N ( Normteile sichtbar)
100
AcDbLine
 10
179.2102125787181
 20
39.03163480625654
 30
0.0
 11
172.7102125787182
 21
42.78441155598943
 31
0.0
  0
LINE
  5
3A45
330
3A3E
100
AcDbEntity
  8
AM_0N ( Normteile sichtbar)
100
AcDbLine
 10
172.7102125787182
 20
42.78441155598943
 30
0.0
 11
166.2102125787181
 21
39.03163480625676
 31
0.0
  0
CIRCLE
  5
3A46
330
3A3E
100
AcDbEntity
  8
AM_0N ( Normteile sichtbar)
100
AcDbCircle
 10
172.7102125787181
 20
35.2788580565242
 30
0.0
 40
6.5
  0
LINE
  5
3A47
330
3A3E
100
AcDbEntity
  8
AM_7N ( Normteile Mittelinien)
100
AcDbLine
 10
168.9574358289856
 20
41.77885805652408
 30
0.0
 11
176.4629893284505
 21
28.77885805652426
 31
0.0
  0
ENDBLK
  5
3A49
330
3A3E
100
AcDbEntity
  8
0
100
AcDbBlockEnd
  0
ENDSEC
  0
SECTION
  2
ENTITIES
  0
POINT
  5
273D
330
74
100
AcDbEntity
  8
0
 60
     1
100
AcDbPoint
 10
0.0
 20
0.0
 30
0.0
1001
GENIUS_GENOENT_13
1002
{
1000
MYREF
1005
273D
1002
}
1002
{
1000
GRP
1005
0
1002
}
1001
GENIUS_GENOLIS_13
1002
{
1000
ENT
1005
272E
1005
2708
1005
2710
1005
2712
1005
271A
1002
}
1001
GENIUS_GENOBJ-NBEHI-BHB_13
1002
{
1000
OWNER
1000
genbehi
1002
}
1001
GENIUS_GENODEF_13
1002
{
1000
HIER
1070
     1
1002
}
1002
{
1000
MANEDIT
1070
     0
1002
}
1002
{
1000
NOSEL
1070
     1
1002
}
1002
{
1000
BEHIND
1070
     1
1002
}
1002
{
1000
OTHER
1070
     1
1002
}
1002
{
1000
REACTOR
1002
}
1001
GENIUS_GENBH_13
1002
{
1000
FGO
1005
273A
1002
}
  0
POINT
  5
273E
330
74
100
AcDbEntity
  8
0
 60
     1
100
AcDbPoint
 10
0.0
 20
0.0
 30
0.0
1001
GENIUS_GENOENT_13
1002
{
1000
MYREF
1005
273E
1002
}
1002
{
1000
GRP
1005
0
1002
}
1001
GENIUS_GENODEF_13
1002
{
1000
HIER
1070
     1
1002
}
1002
{
1000
MANEDIT
1070
     0
1002
}
1002
{
1000
NOSEL
1070
     1
1002
}
1002
{
1000
BEHIND
1070
     1
1002
}
1002
{
1000
OTHER
1070
     1
1002
}
1002
{
1000
REACTOR
1002
}
1001
GENIUS_GENOLIS_13
1002
{
1000
ENT
1005
2735
1005
2734
1005
2733
1005
2732
1005
2731
1005
2730
1005
26F8
1005
26FA
1005
2708
1005
2709
1005
270D
1005
270E
1005
270F
1005
2710
1005
2711
1005
2712
1005
2713
1005
2714
1005
271B
1005
271C
1005
271D
1005
2720
1005
2721
1005
2727
1005
2728
1005
272B
1005
272D
1002
}
1001
GENIUS_GENOBJ-NBEHI-BHB_13
1002
{
1000
OWNER
1000
genbehi
1002
}
1001
GENIUS_GENBH_13
1002
{
1000
FGO
1005
2739
1002
}
  0
LINE
  5
2FE2
102
{ACAD_REACTORS
330
30B5
102
}
330
74
100
AcDbEntity
  8
AM_3 ( Verdeckt )
100
AcDbLine
 10
1136.766802296672
 20
639.5246600562393
 30
0.0
 11
1046.766803798521
 21
639.5246600562393
 31
0.0
  0
LINE
  5
2FE3
330
74
100
AcDbEntity
  8
AM_3 ( Verdeckt )
100
AcDbLine
 10
1141.766802296672
 20
544.5246615580863
 30
0.0
 11
1141.766802296672
 21
583.279662748617
 31
0.0
1001
GENIUS_GENOREF_13
1005
30CD
1005
30CE
  0
CIRCLE
  5
2FE4
330
74
100
AcDbEntity
  8
AM_3 ( Verdeckt )
100
AcDbCircle
 10
1131.766802446857
 20
629.5246602064244
 30
0.0
 40
2.99999995494452
  0
LINE
  5
2FE5
102
{ACAD_REACTORS
330
30B2
102
}
330
74
100
AcDbEntity
  8
AM_3 ( Verdeckt )
100
AcDbLine
 10
1041.766803798521
 20
634.5246600562393
 30
0.0
 11
1041.766803798521
 21
595.7696588657096
 31
0.0
1001
GENIUS_GENOREF_13
1005
30CC
  0
LINE
  5
2FE6
102
{ACAD_REACTORS
330
30B5
102
}
330
74
100
AcDbEntity
  8
AM_3 ( Verdeckt )
100
AcDbLine
 10
1136.766802296672
 20
539.5246615580863
 30
0.0
 11
1046.766803798521
 21
539.5246615580863
 31
0.0
  0
LINE
  5
2FE7
330
74
100
AcDbEntity
  8
AM_7 (Mittellinie)
100
AcDbLine
 10
1034.046087038713
 20
589.5246608071634
 30
0.0
 11
1159.266802033897
 21
589.5246608071634
 31
0.0
  0
LINE
  5
2FE8
330
74
100
AcDbEntity
  8
AM_7 (Mittellinie)
100
AcDbLine
 10
1091.766803047597
 20
532.3801669902613
 30
0.0
 11
1091.766803047597
 21
646.1852292202072
 31
0.0
  0
ARC
  5
2FE9
102
{ACAD_REACTORS
330
30B5
102
}
330
74
100
AcDbEntity
  8
AM_0
100
AcDbCircle
 10
1046.766803798521
 20
544.5246615580863
 30
0.0
 40
5.0
100
AcDbArc
 50
180.0
 51
270.0
  0
ARC
  5
2FEA
102
{ACAD_REACTORS
330
30B5
102
}
330
74
100
AcDbEntity
  8
AM_0
100
AcDbCircle
 10
1046.766803798521
 20
634.5246600562393
 30
0.0
 40
5.0
100
AcDbArc
 50
90.0
 51
180.0
  0
ARC
  5
2FEB
330
74
100
AcDbEntity
  8
AM_0
100
AcDbCircle
 10
1136.766802296672
 20
544.5246615580863
 30
0.0
 40
5.0
100
AcDbArc
 50
270.0
 51
0.0
  0
ARC
  5
2FEC
330
74
100
AcDbEntity
  8
AM_0
100
AcDbCircle
 10
1136.766802296672
 20
634.5246600562393
 30
0.0
 40
5.0
100
AcDbArc
 50
0.0
 51
90.0
  0
LINE
  5
2FED
330
74
100
AcDbEntity
  8
AM_7 (Mittellinie)
100
AcDbLine
 10
1127.69404521501
 20
629.5246602064244
 30
0.0
 11
1135.801031705075
 21
629.5246602064244
 31
0.0
  0
LINE
  5
2FEE
330
74
100
AcDbEntity
  8
AM_7 (Mittellinie)
100
AcDbLine
 10
1131.766802446857
 20
625.5554702737442
 30
0.0
 11
1131.766802446857
 21
633.5325965683164
 31
0.0
  0
LINE
  5
2FEF
330
74
100
AcDbEntity
  8
AM_7 (Mittellinie)
100
AcDbLine
 10
1051.266804400904
 20
840.8794681503527
 30
0.0
 11
1051.266804400904
 21
851.4614307059298
 31
0.0
  0
LINE
  5
2FF0
330
74
100
AcDbEntity
  8
AM_7 (Mittellinie)
100
AcDbLine
 10
1057.514030077112
 20
629.5246602064244
 30
0.0
 11
1045.773848011432
 21
629.5246602064244
 31
0.0
  0
LINE
  5
2FF1
330
74
100
AcDbEntity
  8
AM_7 (Mittellinie)
100
AcDbLine
 10
1125.607086058058
 20
549.5246614079023
 30
0.0
 11
1137.647017453075
 21
549.5246614079023
 31
0.0
  0
LINE
  5
2FF2
330
74
100
AcDbEntity
  8
AM_7 (Mittellinie)
100
AcDbLine
 10
1131.766802446857
 20
555.6273212888572
 30
0.0
 11
1131.766802446857
 21
543.2376823429471
 31
0.0
  0
LINE
  5
2FF3
330
74
100
AcDbEntity
  8
AM_7 (Mittellinie)
100
AcDbLine
 10
1051.766803648336
 20
623.1537213669694
 30
0.0
 11
1051.766803648336
 21
636.2027430824952
 31
0.0
  0
CIRCLE
  5
2FF4
330
74
100
AcDbEntity
  8
AM_3 ( Verdeckt )
100
AcDbCircle
 10
1051.766803648336
 20
629.5246602064244
 30
0.0
 40
4.5
  0
CIRCLE
  5
2FF5
330
74
100
AcDbEntity
  8
AM_3 ( Verdeckt )
100
AcDbCircle
 10
1131.766802446857
 20
549.5246614079023
 30
0.0
 40
4.5
  0
LINE
  5
2FF6
330
74
100
AcDbEntity
  8
AM_3 ( Verdeckt )
100
AcDbLine
 10
1055.766804400904
 20
844.6615645067879
 30
0.0
 11
1055.766804400904
 21
846.6615645067879
 31
0.0
  0
LINE
  5
2FF7
330
74
100
AcDbEntity
  8
AM_3 ( Verdeckt )
100
AcDbLine
 10
1046.766804400903
 20
844.6615645067879
 30
0.0
 11
1046.766804400903
 21
846.6615645067879
 31
0.0
  0
LINE
  5
2FF8
330
74
100
AcDbEntity
  8
AM_3 ( Verdeckt )
100
AcDbLine
 10
1127.766801694289
 20
844.6615645067879
 30
0.0
 11
1127.766801694289
 21
846.6615645067879
 31
0.0
  0
LINE
  5
2FF9
330
74
100
AcDbEntity
  8
AM_7 (Mittellinie)
100
AcDbLine
 10
1132.266801694289
 20
840.8794681503527
 30
0.0
 11
1132.266801694289
 21
851.4614307059298
 31
0.0
  0
LINE
  5
2FFA
330
74
100
AcDbEntity
  8
AM_3 ( Verdeckt )
100
AcDbLine
 10
1136.766801694289
 20
844.6615645067879
 30
0.0
 11
1136.766801694289
 21
846.6615645067879
 31
0.0
  0
LINE
  5
2FFB
330
74
100
AcDbEntity
  8
AM_3 ( Verdeckt )
100
AcDbLine
 10
1135.266801694289
 20
844.6615645067879
 30
0.0
 11
1135.266801694289
 21
846.6615645067879
 31
0.0
  0
LINE
  5
2FFC
330
74
100
AcDbEntity
  8
AM_3 ( Verdeckt )
100
AcDbLine
 10
1129.266801694289
 20
844.6615645067879
 30
0.0
 11
1129.266801694289
 21
846.6615645067879
 31
0.0
  0
LINE
  5
2FFD
330
74
100
AcDbEntity
  8
240
  6
CENTER
 62
     4
100
AcDbLine
 10
1020.913283184679
 20
589.5246608071634
 30
0.0
 11
1038.766803723397
 21
589.5246608071634
 31
0.0
1001
GENIUS_GENOREF_13
1005
30CC
  0
ARC
  5
2FFE
330
74
100
AcDbEntity
  8
AM_2 ( Kontur 0.25)
100
AcDbCircle
 10
1091.766803047597
 20
589.5246608071634
 30
0.0
 40
23.899999641058
100
AcDbArc
 50
0.0
 51
17.96188781808089
  0
LINE
  5
2FFF
330
74
100
AcDbEntity
  8
AM_0
100
AcDbLine
 10
1119.266803047597
 20
844.6615645067879
 30
0.0
 11
1119.266803047597
 21
759.1615671200056
 31
0.0
  0
LINE
  5
3000
330
74
100
AcDbEntity
  8
AM_3 ( Verdeckt )
  6
AM_ISO02W050x2
100
AcDbLine
 10
1070.266803370494
 20
932.1615645218066
 30
0.0
 11
1069.266803385513
 21
933.1615645067879
 31
0.0
  0
LINE
  5
3001
102
{ACAD_REACTORS
330
30B9
102
}
330
74
100
AcDbEntity
  8
AM_3 ( Verdeckt )
  6
AM_ISO02W050x2
100
AcDbLine
 10
1115.666802688655
 20
758.1615671350241
 30
0.0
 11
1115.666802688655
 21
783.1615667595618
 31
0.0
  0
LINE
  5
3002
330
74
100
AcDbEntity
  8
AM_3 ( Verdeckt )
  6
AM_ISO02W050x2
100
AcDbLine
 10
1067.866803406539
 20
783.1615667595618
 30
0.0
 11
1115.666802688655
 21
783.1615667595618
 31
0.0
  0
LINE
  5
3003
330
74
100
AcDbEntity
  8
AM_3 ( Verdeckt )
  6
AM_ISO02W050x2
100
AcDbLine
 10
1067.866803406539
 20
758.1615671350241
 30
0.0
 11
1067.866803406539
 21
783.1615667595618
 31
0.0
  0
LINE
  5
3004
102
{ACAD_REACTORS
330
3082
102
}
330
74
100
AcDbEntity
  8
AM_0
100
AcDbLine
 10
1041.266803806031
 20
846.6615645067879
 30
0.0
 11
1041.266803806031
 21
844.6615645067879
 31
0.0
  0
LINE
  5
3005
330
74
100
AcDbEntity
  8
AM_7 (Mittellinie)
100
AcDbLine
 10
1091.766803047597
 20
936.3223331761346
 30
0.0
 11
1091.766803047597
 21
752.4239984103055
 31
0.0
  0
LINE
  5
3006
330
74
100
AcDbEntity
  8
AM_3 ( Verdeckt )
100
AcDbLine
 10
1067.866803406539
 20
908.1615648822504
 30
0.0
 11
1115.666802688655
 21
908.1615648822504
 31
0.0
  0
LINE
  5
3007
102
{ACAD_REACTORS
330
323C
102
}
330
74
100
AcDbEntity
  8
AM_3 ( Verdeckt )
  6
AM_ISO02W050x2
100
AcDbLine
 10
1067.866803406539
 20
933.1615645067879
 30
0.0
 11
1067.866803406539
 21
908.1615648822504
 31
0.0
  0
LINE
  5
3008
330
74
100
AcDbEntity
  8
AM_3 ( Verdeckt )
  6
AM_ISO02W050x2
100
AcDbLine
 10
1070.266803370494
 20
759.1615671200056
 30
0.0
 11
1069.266803385513
 21
758.1615671350241
 31
0.0
  0
LINE
  5
3009
330
74
100
AcDbEntity
  8
AM_3 ( Verdeckt )
  6
AM_ISO02W050x2
100
AcDbLine
 10
1113.266802724699
 20
759.1615671200056
 30
0.0
 11
1114.266802709681
 21
758.1615671350241
 31
0.0
  0
LINE
  5
300A
102
{ACAD_REACTORS
330
30B9
102
}
330
74
100
AcDbEntity
  8
AM_0
100
AcDbLine
 10
1064.266803047597
 20
759.1615671200056
 30
0.0
 11
1119.266803047597
 21
759.1615671200056
 31
0.0
  0
LINE
  5
300B
102
{ACAD_REACTORS
330
323C
102
}
330
74
100
AcDbEntity
  8
AM_3 ( Verdeckt )
  6
AM_ISO02W050x2
100
AcDbLine
 10
1115.666802688655
 20
933.1615645067879
 30
0.0
 11
1115.666802688655
 21
908.1615648822504
 31
0.0
  0
LINE
  5
300C
330
74
100
AcDbEntity
  8
AM_0
100
AcDbLine
 10
1064.266803047597
 20
844.6615645067879
 30
0.0
 11
1064.266803047597
 21
759.1615671200056
 31
0.0
  0
LINE
  5
300D
330
74
100
AcDbEntity
  8
AM_3 ( Verdeckt )
  6
AM_ISO02W050x2
100
AcDbLine
 10
1070.266803370494
 20
759.1615671200056
 30
0.0
 11
1113.266802724699
 21
759.1615671200056
 31
0.0
  0
LINE
  5
300E
330
74
100
AcDbEntity
  8
AM_3 ( Verdeckt )
  6
AM_ISO02W050x2
100
AcDbLine
 10
1070.266803370494
 20
932.1615645218066
 30
0.0
 11
1070.266803370494
 21
759.1615671200056
 31
0.0
  0
LINE
  5
300F
102
{ACAD_REACTORS
330
3082
102
}
330
74
100
AcDbEntity
  8
AM_0
100
AcDbLine
 10
1142.266802289163
 20
846.6615645067879
 30
0.0
 11
1041.266803806031
 21
846.6615645067879
 31
0.0
  0
LINE
  5
3010
330
74
100
AcDbEntity
  8
AM_0
100
AcDbLine
 10
1119.266803047597
 20
759.1615671200056
 30
0.0
 11
1118.266803062615
 21
758.1615671350241
 31
0.0
  0
LINE
  5
3011
102
{ACAD_REACTORS
330
3085
102
}
330
74
100
AcDbEntity
  8
AM_0
100
AcDbLine
 10
1065.266803032578
 20
758.1615671350241
 30
0.0
 11
1064.266803047597
 21
759.1615671200056
 31
0.0
  0
LINE
  5
3012
102
{ACAD_REACTORS
330
3085
102
}
330
74
100
AcDbEntity
  8
AM_0
100
AcDbLine
 10
1065.266803032578
 20
758.1615671350241
 30
0.0
 11
1118.266803062615
 21
758.1615671350241
 31
0.0
  0
LINE
  5
3013
102
{ACAD_REACTORS
330
323C
102
}
330
74
100
AcDbEntity
  8
AM_0
100
AcDbLine
 10
1024.266804061415
 20
932.1615645218066
 30
0.0
 11
1159.266802033878
 21
932.1615645218065
 31
0.0
  0
LINE
  5
3014
330
74
100
AcDbEntity
  8
AM_3 ( Verdeckt )
  6
AM_ISO02W050x2
100
AcDbLine
 10
1113.266802724699
 20
932.1615645218066
 30
0.0
 11
1113.266802724699
 21
759.1615671200056
 31
0.0
  0
LINE
  5
3015
330
74
100
AcDbEntity
  8
AM_0
100
AcDbLine
 10
1142.266802289163
 20
846.6615645067879
 30
0.0
 11
1142.266802289163
 21
844.6615645067879
 31
0.0
  0
LINE
  5
3016
330
74
100
AcDbEntity
  8
AM_0
100
AcDbLine
 10
1064.266803047597
 20
924.1615646419878
 30
0.0
 11
1064.266803047597
 21
846.6615645067879
 31
0.0
  0
LINE
  5
3017
330
74
100
AcDbEntity
  8
AM_0
100
AcDbLine
 10
1119.266803047597
 20
924.161564641988
 30
0.0
 11
1119.266803047597
 21
846.6615645067879
 31
0.0
  0
LINE
  5
3018
330
74
100
AcDbEntity
  8
AM_0
100
AcDbLine
 10
1065.620273128832
 20
933.1615645067879
 30
0.0
 11
1118.620273158869
 21
933.1615645067879
 31
0.0
  0
LINE
  5
3019
330
74
100
AcDbEntity
  8
AM_3 ( Verdeckt )
  6
AM_ISO02W050x2
100
AcDbLine
 10
1113.266802724699
 20
932.1615645218066
 30
0.0
 11
1114.266802709681
 21
933.1615645067879
 31
0.0
  0
LINE
  5
301A
330
74
100
AcDbEntity
  8
AM_0
100
AcDbLine
 10
1142.266802289163
 20
844.6615645067879
 30
0.0
 11
1041.266803806031
 21
844.6615645067879
 31
0.0
  0
CIRCLE
  5
301B
330
74
100
AcDbEntity
  8
AM_0
100
AcDbCircle
 10
1091.766803047597
 20
589.5246608071634
 30
0.0
 40
21.4999996771024
  0
ARC
  5
301C
330
74
100
AcDbEntity
  8
AM_2 ( Kontur 0.25)
100
AcDbCircle
 10
1091.766803047597
 20
589.5246608071634
 30
0.0
 40
23.899999641058
100
AcDbArc
 50
74.71499155919852
 51
0.0
  0
CIRCLE
  5
301D
330
74
100
AcDbEntity
  8
AM_0
100
AcDbCircle
 10
1091.766803047597
 20
589.5246608071634
 30
0.0
 40
27.5
  0
CIRCLE
  5
301E
330
74
100
AcDbEntity
  8
AM_0
100
AcDbCircle
 10
1091.766803047597
 20
589.5246608071634
 30
0.0
 40
27.65
  0
SOLID
  5
301F
330
74
100
AcDbEntity
  8
AM_0 ( Kontur 0.5 )
100
AcDbTrace
 10
1119.266803047597
 20
844.6615645067879
 30
0.0
 11
1119.266803047597
 21
842.6615645067879
 31
0.0
 12
1121.266803047597
 22
844.6615645067879
 32
0.0
 13
1121.266803047597
 23
844.6615645067879
 33
0.0
1001
GENIUS_GEFWELD_13
1040
2.0
1070
     3
1001
GENIUS_GENODEF_13
1002
{
1000
HIER
1070
     0
1002
}
1002
{
1000
MANEDIT
1070
     0
1002
}
1002
{
1000
NOSEL
1070
     0
1002
}
1002
{
1000
BEHIND
1070
     0
1002
}
1002
{
1000
OTHER
1070
     0
1002
}
1002
{
1000
REACTOR
1002
}
1001
GENIUS_GENOBJ-F-WELS_13
1002
{
1000
OWNER
1000
GEF
1002
}
  0
SOLID
  5
3020
330
74
100
AcDbEntity
  8
AM_0 ( Kontur 0.5 )
100
AcDbTrace
 10
1064.266803047597
 20
844.6615645067879
 30
0.0
 11
1062.266803047597
 21
844.6615645067879
 31
0.0
 12
1064.266803047597
 22
842.6615645067879
 32
0.0
 13
1064.266803047597
 23
842.6615645067879
 33
0.0
1001
GENIUS_GEFWELD_13
1040
2.0
1070
     3
1001
GENIUS_GENODEF_13
1002
{
1000
HIER
1070
     0
1002
}
1002
{
1000
MANEDIT
1070
     0
1002
}
1002
{
1000
NOSEL
1070
     0
1002
}
1002
{
1000
BEHIND
1070
     0
1002
}
1002
{
1000
OTHER
1070
     0
1002
}
1002
{
1000
REACTOR
1002
}
1001
GENIUS_GENOBJ-F-WELS_13
1002
{
1000
OWNER
1000
GEF
1002
}
  0
LINE
  5
3021
330
74
100
AcDbEntity
  8
AM_7 (Mittellinie)
100
AcDbLine
 10
1136.766802371797
 20
937.638983867588
 30
0.0
 11
1136.766802371797
 21
919.7832055612879
 31
0.0
  0
LINE
  5
3022
330
74
100
AcDbEntity
  8
AM_7 (Mittellinie)
100
AcDbLine
 10
1091.766803047597
 20
919.7832055612879
 30
0.0
 11
1091.766803047597
 21
937.638983867588
 31
0.0
  0
LINE
  5
3023
330
74
100
AcDbEntity
  8
AM_7 (Mittellinie)
100
AcDbLine
 10
1046.766803723397
 20
937.638983867588
 30
0.0
 11
1046.766803723397
 21
919.7832055612879
 31
0.0
  0
LINE
  5
3024
102
{ACAD_REACTORS
330
3217
102
}
330
74
100
AcDbEntity
  8
AM_0 ( Kontur 0.5 )
100
AcDbLine
 10
1159.266802033897
 20
925.1615646269881
 30
0.0
 11
1158.266802048897
 21
924.161564641988
 31
0.0
  0
LINE
  5
3025
102
{ACAD_REACTORS
330
31F0
102
}
330
74
100
AcDbEntity
  8
AM_0 ( Kontur 0.5 )
100
AcDbLine
 10
1159.266802033897
 20
932.161564521788
 30
0.0
 11
1158.266802048897
 21
933.1615645067879
 31
0.0
  0
LINE
  5
3026
330
74
100
AcDbEntity
  8
AM_0 ( Kontur 0.5 )
100
AcDbLine
 10
1159.266802033897
 20
925.1615646269881
 30
0.0
 11
1159.266802033897
 21
932.161564521788
 31
0.0
  0
LINE
  5
3027
330
74
100
AcDbEntity
  8
AM_0 ( Kontur 0.5 )
100
AcDbLine
 10
1158.62027214515
 20
933.1615645067879
 30
0.0
 11
1137.12027246805
 21
933.1615645067879
 31
0.0
  0
LINE
  5
3028
102
{ACAD_REACTORS
330
3217
102
}
330
74
100
AcDbEntity
  8
AM_0 ( Kontur 0.5 )
100
AcDbLine
 10
1158.266802048897
 20
924.161564641988
 30
0.0
 11
1136.766802371797
 21
924.161564641988
 31
0.0
  0
LINE
  5
3029
330
74
100
AcDbEntity
  8
AM_0 ( Kontur 0.5 )
100
AcDbLine
 10
1136.766802371797
 20
924.161564641988
 30
0.0
 11
1091.766803047597
 21
924.161564641988
 31
0.0
  0
LINE
  5
302A
330
74
100
AcDbEntity
  8
AM_0 ( Kontur 0.5 )
100
AcDbLine
 10
1024.266804046397
 20
925.1615646419876
 30
0.0
 11
1159.266802048897
 21
925.1615646419878
 31
0.0
  0
LINE
  5
302B
330
74
100
AcDbEntity
  8
AM_0 ( Kontur 0.5 )
100
AcDbLine
 10
1137.12027246805
 20
933.1615645067879
 30
0.0
 11
1047.12027381965
 21
933.1615645067879
 31
0.0
  0
LINE
  5
302C
330
74
100
AcDbEntity
  8
AM_0 ( Kontur 0.5 )
100
AcDbLine
 10
1091.766803047597
 20
924.161564641988
 30
0.0
 11
1046.766803723397
 21
924.161564641988
 31
0.0
  0
LINE
  5
302D
330
74
100
AcDbEntity
  8
AM_0 ( Kontur 0.5 )
100
AcDbLine
 10
1047.12027381965
 20
933.1615645067879
 30
0.0
 11
1025.62027414255
 21
933.1615645067879
 31
0.0
  0
LINE
  5
302E
330
74
100
AcDbEntity
  8
AM_0 ( Kontur 0.5 )
100
AcDbLine
 10
1046.766803723397
 20
924.161564641988
 30
0.0
 11
1025.266804046297
 21
924.161564641988
 31
0.0
  0
LINE
  5
302F
330
74
100
AcDbEntity
  8
AM_0 ( Kontur 0.5 )
100
AcDbLine
 10
1025.266804046297
 20
924.161564641988
 30
0.0
 11
1024.266804061397
 21
925.1615646269881
 31
0.0
  0
LINE
  5
3030
330
74
100
AcDbEntity
  8
AM_0 ( Kontur 0.5 )
100
AcDbLine
 10
1025.266804046297
 20
933.1615645067879
 30
0.0
 11
1024.266804061397
 21
932.161564521788
 31
0.0
  0
LINE
  5
3031
330
74
100
AcDbEntity
  8
AM_0 ( Kontur 0.5 )
100
AcDbLine
 10
1024.266804061397
 20
925.1615646269881
 30
0.0
 11
1024.266804061397
 21
932.161564521788
 31
0.0
  0
LINE
  5
3032
330
74
100
AcDbEntity
  8
AM_7 (Mittellinie)
100
AcDbLine
 10
1091.766803047597
 20
930.4657997346877
 30
0.0
 11
1091.766803047597
 21
947.082691789188
 31
0.0
  0
LINE
  5
3033
330
74
100
AcDbEntity
  8
AM_7 (Mittellinie)
100
AcDbLine
 10
1136.766802371697
 20
946.569301384488
 30
0.0
 11
1136.766802371697
 21
930.9760543486879
 31
0.0
  0
LINE
  5
3034
330
74
100
AcDbEntity
  8
AM_7 (Mittellinie)
100
AcDbLine
 10
1046.766803723397
 20
946.569301384488
 30
0.0
 11
1046.766803723397
 21
930.7225056163879
 31
0.0
  0
LINE
  5
3035
330
74
100
AcDbEntity
  8
AM_0 ( Kontur 0.5 )
100
AcDbLine
 10
1158.266802048797
 20
933.1615645067879
 30
0.0
 11
1136.766802371697
 21
933.1615645067879
 31
0.0
  0
LINE
  5
3036
330
74
100
AcDbEntity
  8
AM_0 ( Kontur 0.5 )
100
AcDbLine
 10
1159.266802033797
 20
934.1615644917878
 30
0.0
 11
1158.266802048797
 21
933.1615645067879
 31
0.0
  0
LINE
  5
3037
102
{ACAD_REACTORS
330
3197
330
31F0
102
}
330
74
100
AcDbEntity
  8
AM_0 ( Kontur 0.5 )
100
AcDbLine
 10
1159.266802033797
 20
942.1615643866878
 30
0.0
 11
1158.266802048797
 21
943.1615643716879
 31
0.0
  0
LINE
  5
3038
330
74
100
AcDbEntity
  8
AM_0 ( Kontur 0.5 )
100
AcDbLine
 10
1159.266802033797
 20
942.1615643866878
 30
0.0
 11
1159.266802033797
 21
934.1615644917876
 31
0.0
  0
LINE
  5
3039
330
74
100
AcDbEntity
  8
AM_0 ( Kontur 0.5 )
100
AcDbLine
 10
1136.766802371697
 20
933.1615645067879
 30
0.0
 11
1046.766803723397
 21
933.1615645067879
 31
0.0
  0
LINE
  5
303A
102
{ACAD_REACTORS
330
3140
102
}
330
74
100
AcDbEntity
  8
AM_0 ( Kontur 0.5 )
100
AcDbLine
 10
1024.266804061397
 20
934.161564506788
 30
0.0
 11
1159.266802033897
 21
934.161564506788
 31
0.0
  0
LINE
  5
303B
102
{ACAD_REACTORS
330
3197
102
}
330
74
100
AcDbEntity
  8
AM_0 ( Kontur 0.5 )
100
AcDbLine
 10
1159.266802033897
 20
942.1615643716881
 30
0.0
 11
1024.266804061397
 21
942.1615643716879
 31
0.0
  0
LINE
  5
303C
102
{ACAD_REACTORS
330
3082
102
}
330
74
100
AcDbEntity
  8
AM_0 ( Kontur 0.5 )
100
AcDbLine
 10
1046.766803723397
 20
933.1615645067879
 30
0.0
 11
1025.266804046297
 21
933.1615645067879
 31
0.0
  0
LINE
  5
303D
102
{ACAD_REACTORS
330
3082
102
}
330
74
100
AcDbEntity
  8
AM_0 ( Kontur 0.5 )
100
AcDbLine
 10
1025.266804046297
 20
933.1615645067879
 30
0.0
 11
1024.266804061297
 21
934.1615644917878
 31
0.0
  0
LINE
  5
303E
330
74
100
AcDbEntity
  8
AM_0 ( Kontur 0.5 )
100
AcDbLine
 10
1024.266804061297
 20
942.1615643866878
 30
0.0
 11
1024.266804061297
 21
934.1615644917878
 31
0.0
  0
LINE
  5
303F
102
{ACAD_REACTORS
330
3197
102
}
330
74
100
AcDbEntity
  8
AM_0 ( Kontur 0.5 )
100
AcDbLine
 10
1025.266804046297
 20
943.1615643716879
 30
0.0
 11
1024.266804061297
 21
942.1615643866878
 31
0.0
  0
LINE
  5
3040
102
{ACAD_REACTORS
330
31F0
102
}
330
74
100
AcDbEntity
  8
AM_0 ( Kontur 0.5 )
100
AcDbLine
 10
1158.266802048797
 20
943.1615643716879
 30
0.0
 11
1025.266804046297
 21
943.1615643716879
 31
0.0
  0
LINE
  5
3041
330
74
100
AcDbEntity
  8
AM_7 (Mittellinie)
100
AcDbLine
 10
1136.766802371697
 20
946.569301384488
 30
0.0
 11
1136.766802371697
 21
930.7225056163879
 31
0.0
  0
INSERT
  5
3042
330
74
100
AcDbEntity
  8
AM_0N ( Normteile sichtbar)
100
AcDbBlockReference
  2
*U145
 10
0.0
 20
0.0
 30
0.0
1001
GENIUS_GENOREF_13
1005
30BB
1005
30BA
  0
LINE
  5
3043
330
74
100
AcDbEntity
  8
AM_7N ( Normteile Mittelinien)
100
AcDbLine
 10
1136.766802371697
 20
950.061564371688
 30
0.0
 11
1136.766802371697
 21
919.7615643716879
 31
0.0
1001
GENIUS_GENOREF_13
1005
0
  0
ARC
  5
3044
330
74
100
AcDbEntity
  8
AM_0N ( Normteile sichtbar)
100
AcDbCircle
 10
1136.766802371697
 20
937.65243139804
 30
0.0
 40
12.40913297364792
100
AcDbArc
 50
72.38752601447607
 51
107.6124739855239
1001
GENIUS_GENOREF_13
1005
0
  0
LINE
  5
3045
330
74
100
AcDbEntity
  8
AM_0N ( Normteile sichtbar)
100
AcDbLine
 10
1131.066802371697
 20
945.3615643716879
 30
0.0
 11
1142.466802371697
 21
945.3615643716879
 31
0.0
1001
GENIUS_GENOREF_13
1005
0
  0
LINE
  5
3046
330
74
100
AcDbEntity
  8
AM_0N ( Normteile sichtbar)
100
AcDbLine
 10
1140.428511121696
 20
944.7615643716879
 30
0.0
 11
1133.105093621697
 21
944.7615643716879
 31
0.0
1001
GENIUS_GENOREF_13
1005
0
  0
LINE
  5
3047
330
74
100
AcDbEntity
  8
AM_0N ( Normteile sichtbar)
100
AcDbLine
 10
1143.266802371697
 20
950.061564371688
 30
0.0
 11
1130.266802371697
 21
950.061564371688
 31
0.0
1001
GENIUS_GENOREF_13
1005
0
  0
LINE
  5
3048
330
74
100
AcDbEntity
  8
AM_0N ( Normteile sichtbar)
100
AcDbLine
 10
1129.259302371697
 20
949.4798839754794
 30
0.0
 11
1129.259302371697
 21
945.3615643716879
 31
0.0
1001
GENIUS_GENOREF_13
1005
0
  0
LINE
  5
3049
330
74
100
AcDbEntity
  8
AM_0N ( Normteile sichtbar)
100
AcDbLine
 10
1133.012079121429
 20
949.4798839754794
 30
0.0
 11
1133.012079121429
 21
945.3615643716879
 31
0.0
1001
GENIUS_GENOREF_13
1005
0
  0
ARC
  5
304A
330
74
100
AcDbEntity
  8
AM_0N ( Normteile sichtbar)
100
AcDbCircle
 10
1131.135690746563
 20
946.7442913108962
 30
0.0
 40
3.317273060791829
100
AcDbArc
 50
55.55312761774107
 51
115.5531276177393
1001
GENIUS_GENOREF_13
1005
0
  0
LINE
  5
304B
330
74
100
AcDbEntity
  8
AM_0N ( Normteile sichtbar)
100
AcDbLine
 10
1129.259302371697
 20
949.4798839754794
 30
0.0
 11
1130.266802371697
 21
950.061564371688
 31
0.0
1001
GENIUS_GENOREF_13
1005
0
  0
LINE
  5
304C
330
74
100
AcDbEntity
  8
AM_0N ( Normteile sichtbar)
100
AcDbLine
 10
1133.105093621697
 20
944.7615643716879
 30
0.0
 11
1131.066802371697
 21
944.7615643716879
 31
0.0
1001
GENIUS_GENOREF_13
1005
0
  0
LINE
  5
304D
330
74
100
AcDbEntity
  8
AM_0N ( Normteile sichtbar)
100
AcDbLine
 10
1131.066802371697
 20
945.3615643716879
 30
0.0
 11
1131.066802371697
 21
944.7615643716879
 31
0.0
1001
GENIUS_GENOREF_13
1005
0
  0
LINE
  5
304E
330
74
100
AcDbEntity
  8
AM_0N ( Normteile sichtbar)
100
AcDbLine
 10
1129.259302371697
 20
945.3615643716879
 30
0.0
 11
1131.066802371697
 21
945.3615643716879
 31
0.0
1001
GENIUS_GENOREF_13
1005
0
  0
LINE
  5
304F
330
74
100
AcDbEntity
  8
AM_0N ( Normteile sichtbar)
100
AcDbLine
 10
1142.466802371697
 20
945.3615643716879
 30
0.0
 11
1144.274302371697
 21
945.3615643716879
 31
0.0
1001
GENIUS_GENOREF_13
1005
0
  0
LINE
  5
3050
330
74
100
AcDbEntity
  8
AM_0N ( Normteile sichtbar)
100
AcDbLine
 10
1144.274302371697
 20
949.4798839754794
 30
0.0
 11
1143.266802371697
 21
950.061564371688
 31
0.0
1001
GENIUS_GENOREF_13
1005
0
  0
LINE
  5
3051
330
74
100
AcDbEntity
  8
AM_0N ( Normteile sichtbar)
100
AcDbLine
 10
1140.521525621964
 20
949.4798839754794
 30
0.0
 11
1140.521525621964
 21
945.3615643716879
 31
0.0
1001
GENIUS_GENOREF_13
1005
0
  0
ARC
  5
3052
330
74
100
AcDbEntity
  8
AM_0N ( Normteile sichtbar)
100
AcDbCircle
 10
1142.39791399683
 20
946.7442913108962
 30
0.0
 40
3.317273060791829
100
AcDbArc
 50
64.44687238226072
 51
124.4468723822589
1001
GENIUS_GENOREF_13
1005
0
  0
LINE
  5
3053
330
74
100
AcDbEntity
  8
AM_0N ( Normteile sichtbar)
100
AcDbLine
 10
1142.466802371697
 20
945.3615643716879
 30
0.0
 11
1142.466802371697
 21
944.7615643716879
 31
0.0
1001
GENIUS_GENOREF_13
1005
0
  0
LINE
  5
3054
330
74
100
AcDbEntity
  8
AM_0N ( Normteile sichtbar)
100
AcDbLine
 10
1142.466802371697
 20
944.7615643716879
 30
0.0
 11
1140.428511121696
 21
944.7615643716879
 31
0.0
1001
GENIUS_GENOREF_13
1005
0
  0
LINE
  5
3055
330
74
100
AcDbEntity
  8
AM_0N ( Normteile sichtbar)
100
AcDbLine
 10
1144.274302371697
 20
949.4798839754794
 30
0.0
 11
1144.274302371697
 21
945.3615643716879
 31
0.0
1001
GENIUS_GENOREF_13
1005
0
  0
LINE
  5
3056
330
74
100
AcDbEntity
  8
AM_7 (Mittellinie)
100
AcDbLine
 10
1046.766803723497
 20
937.638983867588
 30
0.0
 11
1046.766803723497
 21
919.7832055612879
 31
0.0
  0
LINE
  5
3057
330
74
100
AcDbEntity
  8
AM_7 (Mittellinie)
100
AcDbLine
 10
1046.766803723397
 20
946.569301384488
 30
0.0
 11
1046.766803723397
 21
930.9760543486879
 31
0.0
  0
LINE
  5
3058
330
74
100
AcDbEntity
  8
AM_7 (Mittellinie)
100
AcDbLine
 10
1046.766803723397
 20
946.569301384488
 30
0.0
 11
1046.766803723397
 21
930.7225056163879
 31
0.0
  0
INSERT
  5
3059
330
74
100
AcDbEntity
  8
AM_0N ( Normteile sichtbar)
100
AcDbBlockReference
  2
*U146
 10
0.0
 20
0.0
 30
0.0
1001
GENIUS_GENOREF_13
1005
30D1
1005
30D0
  0
INSERT
  5
305A
102
{ACAD_REACTORS
330
2FD7
102
}
330
74
100
AcDbEntity
  8
AM_12N
100
AcDbBlockReference
  2
*S159
 10
0.0
 20
0.0
 30
0.0
  0
LINE
  5
305C
330
74
100
AcDbEntity
  8
AM_7N ( Normteile Mittelinien)
100
AcDbLine
 10
1046.766803723397
 20
950.061564371688
 30
0.0
 11
1046.766803723397
 21
919.7615643716879
 31
0.0
  0
ARC
  5
305D
330
74
100
AcDbEntity
  8
AM_0N ( Normteile sichtbar)
100
AcDbCircle
 10
1046.766803723397
 20
937.65243139804
 30
0.0
 40
12.40913297364792
100
AcDbArc
 50
72.38752601447607
 51
107.6124739855239
  0
LINE
  5
305E
330
74
100
AcDbEntity
  8
AM_0N ( Normteile sichtbar)
100
AcDbLine
 10
1041.066803723397
 20
945.3615643716879
 30
0.0
 11
1052.466803723397
 21
945.3615643716879
 31
0.0
  0
LINE
  5
305F
330
74
100
AcDbEntity
  8
AM_0N ( Normteile sichtbar)
100
AcDbLine
 10
1050.428512473397
 20
944.7615643716879
 30
0.0
 11
1043.105094973397
 21
944.7615643716879
 31
0.0
  0
LINE
  5
3060
330
74
100
AcDbEntity
  8
AM_0N ( Normteile sichtbar)
100
AcDbLine
 10
1053.266803723397
 20
950.061564371688
 30
0.0
 11
1040.266803723397
 21
950.061564371688
 31
0.0
  0
LINE
  5
3061
330
74
100
AcDbEntity
  8
AM_0N ( Normteile sichtbar)
100
AcDbLine
 10
1039.259303723397
 20
949.4798839754794
 30
0.0
 11
1039.259303723397
 21
945.3615643716879
 31
0.0
  0
LINE
  5
3062
330
74
100
AcDbEntity
  8
AM_0N ( Normteile sichtbar)
100
AcDbLine
 10
1043.012080473129
 20
949.4798839754794
 30
0.0
 11
1043.012080473129
 21
945.3615643716879
 31
0.0
  0
ARC
  5
3063
330
74
100
AcDbEntity
  8
AM_0N ( Normteile sichtbar)
100
AcDbCircle
 10
1041.135692098263
 20
946.7442913108962
 30
0.0
 40
3.317273060791829
100
AcDbArc
 50
55.55312761774107
 51
115.5531276177393
  0
LINE
  5
3064
330
74
100
AcDbEntity
  8
AM_0N ( Normteile sichtbar)
100
AcDbLine
 10
1039.259303723397
 20
949.4798839754794
 30
0.0
 11
1040.266803723397
 21
950.061564371688
 31
0.0
  0
LINE
  5
3065
330
74
100
AcDbEntity
  8
AM_0N ( Normteile sichtbar)
100
AcDbLine
 10
1043.105094973397
 20
944.7615643716879
 30
0.0
 11
1041.066803723397
 21
944.7615643716879
 31
0.0
  0
LINE
  5
3066
330
74
100
AcDbEntity
  8
AM_0N ( Normteile sichtbar)
100
AcDbLine
 10
1041.066803723397
 20
945.3615643716879
 30
0.0
 11
1041.066803723397
 21
944.7615643716879
 31
0.0
  0
LINE
  5
3067
330
74
100
AcDbEntity
  8
AM_0N ( Normteile sichtbar)
100
AcDbLine
 10
1039.259303723397
 20
945.3615643716879
 30
0.0
 11
1041.066803723397
 21
945.3615643716879
 31
0.0
  0
LINE
  5
3068
330
74
100
AcDbEntity
  8
AM_0N ( Normteile sichtbar)
100
AcDbLine
 10
1052.466803723397
 20
945.3615643716879
 30
0.0
 11
1054.274303723397
 21
945.3615643716879
 31
0.0
  0
LINE
  5
3069
330
74
100
AcDbEntity
  8
AM_0N ( Normteile sichtbar)
100
AcDbLine
 10
1054.274303723397
 20
949.4798839754794
 30
0.0
 11
1053.266803723397
 21
950.061564371688
 31
0.0
  0
LINE
  5
306A
330
74
100
AcDbEntity
  8
AM_0N ( Normteile sichtbar)
100
AcDbLine
 10
1050.521526973664
 20
949.4798839754794
 30
0.0
 11
1050.521526973664
 21
945.3615643716879
 31
0.0
  0
ARC
  5
306B
330
74
100
AcDbEntity
  8
AM_0N ( Normteile sichtbar)
100
AcDbCircle
 10
1052.39791534853
 20
946.7442913108962
 30
0.0
 40
3.317273060791829
100
AcDbArc
 50
64.44687238226072
 51
124.4468723822589
  0
LINE
  5
306C
330
74
100
AcDbEntity
  8
AM_0N ( Normteile sichtbar)
100
AcDbLine
 10
1052.466803723397
 20
945.3615643716879
 30
0.0
 11
1052.466803723397
 21
944.7615643716879
 31
0.0
  0
LINE
  5
306D
330
74
100
AcDbEntity
  8
AM_0N ( Normteile sichtbar)
100
AcDbLine
 10
1052.466803723397
 20
944.7615643716879
 30
0.0
 11
1050.428512473397
 21
944.7615643716879
 31
0.0
  0
LINE
  5
306E
330
74
100
AcDbEntity
  8
AM_0N ( Normteile sichtbar)
100
AcDbLine
 10
1054.274303723397
 20
949.4798839754794
 30
0.0
 11
1054.274303723397
 21
945.3615643716879
 31
0.0
  0
INSERT
  5
306F
102
{ACAD_REACTORS
330
2FD8
102
}
330
74
100
AcDbEntity
  8
AM_12N
100
AcDbBlockReference
  2
*S160
 10
0.0
 20
0.0
 30
0.0
  0
LINE
  5
3070
330
74
100
AcDbEntity
  8
AM_0 ( Kontur 0.5 )
100
AcDbLine
 10
1144.766802371797
 20
932.1615645067879
 30
0.0
 11
1140.766802371697
 21
932.1615645067879
 31
0.0
  0
LINE
  5
3071
330
74
100
AcDbEntity
  8
AM_0 ( Kontur 0.5 )
100
AcDbLine
 10
1054.766803723397
 20
932.1615645067879
 30
0.0
 11
1050.766803723397
 21
932.1615645067879
 31
0.0
  0
LINE
  5
3072
330
74
100
AcDbEntity
  8
AM_0 ( Kontur 0.5 )
100
AcDbLine
 10
1128.766802371797
 20
924.161564641988
 30
0.0
 11
1128.766802371797
 21
902.6615649573432
 31
0.0
  0
LINE
  5
3073
330
74
100
AcDbEntity
  8
AM_0 ( Kontur 0.5 )
100
AcDbLine
 10
1128.766802371797
 20
902.6615649573432
 30
0.0
 11
1130.266802371797
 21
901.1615649573432
 31
0.0
  0
LINE
  5
3074
330
74
100
AcDbEntity
  8
AM_0 ( Kontur 0.5 )
100
AcDbLine
 10
1130.266802371797
 20
901.1615649573432
 30
0.0
 11
1143.266802371797
 21
901.1615649573432
 31
0.0
  0
LINE
  5
3075
330
74
100
AcDbEntity
  8
AM_0 ( Kontur 0.5 )
100
AcDbLine
 10
1143.266802371797
 20
901.1615649573432
 30
0.0
 11
1144.766802371797
 21
902.6615649573432
 31
0.0
  0
LINE
  5
3076
330
74
100
AcDbEntity
  8
AM_0 ( Kontur 0.5 )
100
AcDbLine
 10
1144.766802371797
 20
902.6615649573432
 30
0.0
 11
1144.766802371797
 21
924.161564641988
 31
0.0
  0
LINE
  5
3077
330
74
100
AcDbEntity
  8
AM_7 (Mittellinie)
100
AcDbLine
 10
1136.766802371797
 20
931.1615645067879
 30
0.0
 11
1136.766802371797
 21
904.3551026561566
 31
0.0
  0
LINE
  5
3078
330
74
100
AcDbEntity
  8
AM_0 ( Kontur 0.5 )
100
AcDbLine
 10
1038.766803723397
 20
924.1615646419878
 30
0.0
 11
1038.766803723397
 21
902.6615649573432
 31
0.0
  0
LINE
  5
3079
330
74
100
AcDbEntity
  8
AM_0 ( Kontur 0.5 )
100
AcDbLine
 10
1038.766803723397
 20
902.6615649573432
 30
0.0
 11
1040.266803723397
 21
901.1615649573432
 31
0.0
  0
LINE
  5
307A
330
74
100
AcDbEntity
  8
AM_0 ( Kontur 0.5 )
100
AcDbLine
 10
1040.266803723397
 20
901.1615649573432
 30
0.0
 11
1053.266803723397
 21
901.1615649573432
 31
0.0
  0
LINE
  5
307B
330
74
100
AcDbEntity
  8
AM_0 ( Kontur 0.5 )
100
AcDbLine
 10
1053.266803723397
 20
901.1615649573432
 30
0.0
 11
1054.766803723397
 21
902.6615649573432
 31
0.0
  0
LINE
  5
307C
330
74
100
AcDbEntity
  8
AM_0 ( Kontur 0.5 )
100
AcDbLine
 10
1054.766803723397
 20
902.6615649573432
 30
0.0
 11
1054.766803723397
 21
924.1615646419878
 31
0.0
  0
LINE
  5
307D
330
74
100
AcDbEntity
  8
AM_7 (Mittellinie)
100
AcDbLine
 10
1046.766803723397
 20
931.1615645067879
 30
0.0
 11
1046.766803723397
 21
904.3551026561566
 31
0.0
  0
LINE
  5
307E
330
74
100
AcDbEntity
  8
AM_0 ( Kontur 0.5 )
100
AcDbLine
 10
1132.766802371697
 20
932.1615645067879
 30
0.0
 11
1128.766802371797
 21
932.1615645067879
 31
0.0
  0
LINE
  5
307F
330
74
100
AcDbEntity
  8
AM_0 ( Kontur 0.5 )
100
AcDbLine
 10
1042.766803723397
 20
932.1615645067879
 30
0.0
 11
1038.766803723397
 21
932.1615645067879
 31
0.0
  0
DIMENSION
  5
3080
102
{ACAD_XDICTIONARY
360
3081
102
}
102
{ACAD_REACTORS
330
3082
102
}
330
74
100
AcDbEntity
  8
AM_5 ( Bemassung)
100
AcDbDimension
  2
*D98
 10
977.0800682421345
 20
846.6615645067879
 30
0.0
 11
970.5060573280825
 21
889.911564506788
 31
0.0
 70
    32
 71
     5
 42
86.5
  3
AM_DIN$0
100
AcDbAlignedDimension
 13
1025.266804046297
 23
933.1615645067879
 33
0.0
 14
1041.266803806031
 24
846.6615645067879
 34
0.0
 50
90.0
100
AcDbRotatedDimension
1001
ACAD
1000
DSTYLE
1002
{
1070
    40
1040
2.0
1002
}
1001
ACAD_DSTYLE_DIMINSPECT
1070
   396
1000
100%
1070
   395
1000

1070
   394
1070
    33
1070
   393
1070
     0
  0
DIMENSION
  5
3083
102
{ACAD_XDICTIONARY
360
3084
102
}
102
{ACAD_REACTORS
330
3085
102
}
330
74
100
AcDbEntity
  8
AM_5 ( Bemassung)
100
AcDbDimension
  2
*D99
 10
953.7471224837236
 20
758.1615671350241
 30
0.0
 11
947.1731115696716
 21
845.6615658209061
 31
0.0
 70
    32
 71
     5
 42
174.9999973717638
  3
AM_DIN$0
100
AcDbAlignedDimension
 13
1025.266804046297
 23
933.1615645067879
 33
0.0
 14
1065.266803032578
 24
758.1615671350241
 34
0.0
 50
90.0
100
AcDbRotatedDimension
1001
ACAD
1000
DSTYLE
1002
{
1070
    40
1040
2.0
1002
}
1001
ACAD_DSTYLE_DIMINSPECT
1070
   396
1000
100%
1070
   395
1000

1070
   394
1070
    33
1070
   393
1070
     0
  0
LINE
  5
3086
330
74
100
AcDbEntity
  8
AM_7 (Mittellinie)
100
AcDbLine
 10
1108.782626858297
 20
618.9969321799633
 30
0.0
 11
1119.738377849197
 21
637.9728495312633
 31
0.0
  0
CIRCLE
  5
3087
330
74
100
AcDbEntity
  8
AM_7 (Mittellinie)
100
AcDbCircle
 10
1091.766803047597
 20
589.5246608071634
 30
0.0
 40
44.99999932419999
  0
LINE
  5
3088
330
74
100
AcDbEntity
  8
AM_7 (Mittellinie)
100
AcDbLine
 10
1019.291351908997
 20
589.5246608071634
 30
0.0
 11
1136.766802371797
 21
589.5246608071634
 31
0.0
  0
LINE
  5
3089
102
{ACAD_REACTORS
330
30AF
102
}
330
74
100
AcDbEntity
  8
AM_7 (Mittellinie)
100
AcDbLine
 10
1091.766803047597
 20
515.3469639482633
 30
0.0
 11
1091.766803047597
 21
664.3047388285634
 31
0.0
  0
LINE
  5
308A
330
74
100
AcDbEntity
  8
AM_7 (Mittellinie)
100
AcDbLine
 10
1074.750979236897
 20
618.9969321799633
 30
0.0
 11
1063.795228245997
 21
637.9728495312633
 31
0.0
  0
LINE
  5
308B
330
74
100
AcDbEntity
  8
AM_7 (Mittellinie)
100
AcDbLine
 10
1074.750979236897
 20
560.0523894343633
 30
0.0
 11
1063.795228245997
 21
541.0764720830633
 31
0.0
  0
LINE
  5
308C
330
74
100
AcDbEntity
  8
AM_7 (Mittellinie)
100
AcDbLine
 10
1108.782626858297
 20
560.0523894343633
 30
0.0
 11
1119.738377849197
 21
541.0764720830633
 31
0.0
  0
CIRCLE
  5
308D
102
{ACAD_REACTORS
330
30B2
102
}
330
74
100
AcDbEntity
  8
AM_0 ( Kontur 0.5 )
100
AcDbCircle
 10
1091.766803047597
 20
589.5246608071634
 30
0.0
 40
66.49999898629999
  0
CIRCLE
  5
308E
102
{ACAD_REACTORS
330
30AF
102
}
330
74
100
AcDbEntity
  8
AM_0 ( Kontur 0.5 )
100
AcDbCircle
 10
1091.766803047597
 20
589.5246608071634
 30
0.0
 40
67.4999989863
  0
CIRCLE
  5
308F
330
74
100
AcDbEntity
  8
AM_0
100
AcDbCircle
 10
1091.766803047597
 20
589.5246608071634
 30
0.0
 40
27.75
  0
CIRCLE
  5
3090
330
74
100
AcDbEntity
  8
AM_3 ( Verdeckt )
100
AcDbCircle
 10
1091.766803047597
 20
589.5246608071634
 30
0.0
 40
28.75
  0
CIRCLE
  5
3091
330
74
100
AcDbEntity
  8
AM_0
100
AcDbCircle
 10
1091.766803047597
 20
589.5246608071634
 30
0.0
 40
31.25
  0
INSERT
  5
3092
330
74
100
AcDbEntity
  8
AM_0N ( Normteile sichtbar)
100
AcDbBlockReference
  2
*U147
 10
0.0
 20
0.0
 30
0.0
1001
GENIUS_GENOREF_13
1005
30CF
1005
30CE
  0
LINE
  5
3093
102
{ACAD_REACTORS
330
30B2
102
}
330
74
100
AcDbEntity
  8
AM_3 ( Verdeckt )
100
AcDbLine
 10
1141.766802296672
 20
595.7696588657097
 30
0.0
 11
1141.766802296672
 21
634.5246600562393
 31
0.0
1001
GENIUS_GENOREF_13
1005
30CD
1005
30CE
  0
LINE
  5
3094
330
74
100
AcDbEntity
  8
240
  6
CENTER
 62
     4
100
AcDbLine
 10
1042.566803723397
 20
589.5246608071634
 30
0.0
 11
1048.533220879384
 21
589.5246608071634
 31
0.0
1001
GENIUS_GENOREF_13
1005
30CC
  0
LINE
  5
3095
330
74
100
AcDbEntity
  8
AM_3 ( Verdeckt )
100
AcDbLine
 10
1041.766803798521
 20
583.2796627486171
 30
0.0
 11
1041.766803798521
 21
544.5246615580863
 31
0.0
1001
GENIUS_GENOREF_13
1005
30CC
  0
INSERT
  5
3096
330
74
100
AcDbEntity
  8
AM_0N ( Normteile sichtbar)
100
AcDbBlockReference
  2
*U148
 10
0.0
 20
0.0
 30
0.0
1001
GENIUS_GENOREF_13
1005
30CB
  0
INSERT
  5
3097
102
{ACAD_REACTORS
330
2FD9
102
}
330
74
100
AcDbEntity
  8
AM_12N
100
AcDbBlockReference
  2
*S161
 10
0.0
 20
0.0
 30
0.0
  0
INSERT
  5
3099
330
74
100
AcDbEntity
  8
AM_0N ( Normteile sichtbar)
100
AcDbBlockReference
  2
*U149
 10
0.0
 20
0.0
 30
0.0
1001
GENIUS_GENOREF_13
1005
30CA
1005
30C9
  0
INSERT
  5
309A
330
74
100
AcDbEntity
  8
AM_0N ( Normteile sichtbar)
100
AcDbBlockReference
  2
*U150
 10
0.0
 20
0.0
 30
0.0
1001
GENIUS_GENOREF_13
1005
30C8
  0
INSERT
  5
309B
102
{ACAD_REACTORS
330
2FD9
102
}
330
74
100
AcDbEntity
  8
AM_12N
100
AcDbBlockReference
  2
*S162
 10
0.0
 20
0.0
 30
0.0
  0
INSERT
  5
309D
330
74
100
AcDbEntity
  8
AM_0N ( Normteile sichtbar)
100
AcDbBlockReference
  2
*U151
 10
0.0
 20
0.0
 30
0.0
1001
GENIUS_GENOREF_13
1005
30C7
1005
30C6
  0
INSERT
  5
309E
330
74
100
AcDbEntity
  8
AM_0N ( Normteile sichtbar)
100
AcDbBlockReference
  2
*U152
 10
0.0
 20
0.0
 30
0.0
1001
GENIUS_GENOREF_13
1005
30C5
  0
INSERT
  5
309F
102
{ACAD_REACTORS
330
2FD9
102
}
330
74
100
AcDbEntity
  8
AM_12N
100
AcDbBlockReference
  2
*S163
 10
0.0
 20
0.0
 30
0.0
  0
INSERT
  5
30A1
330
74
100
AcDbEntity
  8
AM_0N ( Normteile sichtbar)
100
AcDbBlockReference
  2
*U153
 10
0.0
 20
0.0
 30
0.0
1001
GENIUS_GENOREF_13
1005
30C4
1005
30C3
  0
INSERT
  5
30A2
330
74
100
AcDbEntity
  8
AM_0N ( Normteile sichtbar)
100
AcDbBlockReference
  2
*U154
 10
0.0
 20
0.0
 30
0.0
1001
GENIUS_GENOREF_13
1005
30C2
  0
INSERT
  5
30A3
102
{ACAD_REACTORS
330
2FD9
102
}
330
74
100
AcDbEntity
  8
AM_12N
100
AcDbBlockReference
  2
*S164
 10
0.0
 20
0.0
 30
0.0
  0
INSERT
  5
30A5
330
74
100
AcDbEntity
  8
AM_0N ( Normteile sichtbar)
100
AcDbBlockReference
  2
*U155
 10
0.0
 20
0.0
 30
0.0
1001
GENIUS_GENOREF_13
1005
30C1
1005
30C0
  0
INSERT
  5
30A6
330
74
100
AcDbEntity
  8
AM_0N ( Normteile sichtbar)
100
AcDbBlockReference
  2
*U156
 10
0.0
 20
0.0
 30
0.0
1001
GENIUS_GENOREF_13
1005
30BF
  0
INSERT
  5
30A7
102
{ACAD_REACTORS
330
2FD9
102
}
330
74
100
AcDbEntity
  8
AM_12N
100
AcDbBlockReference
  2
*S165
 10
0.0
 20
0.0
 30
0.0
  0
INSERT
  5
30A9
330
74
100
AcDbEntity
  8
AM_0N ( Normteile sichtbar)
100
AcDbBlockReference
  2
*U157
 10
0.0
 20
0.0
 30
0.0
1001
GENIUS_GENOREF_13
1005
30BE
1005
30BD
  0
INSERT
  5
30AA
330
74
100
AcDbEntity
  8
AM_0N ( Normteile sichtbar)
100
AcDbBlockReference
  2
*U158
 10
0.0
 20
0.0
 30
0.0
1001
GENIUS_GENOREF_13
1005
30BC
  0
INSERT
  5
30AB
102
{ACAD_REACTORS
330
2FD9
102
}
330
74
100
AcDbEntity
  8
AM_12N
100
AcDbBlockReference
  2
*S166
 10
0.0
 20
0.0
 30
0.0
  0
DIMENSION
  5
30AD
102
{ACAD_XDICTIONARY
360
30AE
102
}
102
{ACAD_REACTORS
330
30AF
102
}
330
74
100
AcDbEntity
  8
AM_5 ( Bemassung)
100
AcDbDimension
  2
*D100
 10
968.4088687259395
 20
522.0246618208634
 30
0.0
 11
961.6390870069762
 21
589.5246608071635
 31
0.0
 70
    32
  1
%%c<>
 71
     5
 42
134.9999979725999
  3
AM_DIN$0
100
AcDbAlignedDimension
 13
1091.766803047597
 23
657.0246597934633
 33
0.0
 14
1091.766803047597
 24
522.0246618208634
 34
0.0
 50
90.0
100
AcDbRotatedDimension
1001
ACAD
1000
DSTYLE
1002
{
1070
    40
1040
2.0
1002
}
1001
ACAD_DSTYLE_DIMINSPECT
1070
   396
1000
100%
1070
   395
1000

1070
   394
1070
    33
1070
   393
1070
     0
  0
DIMENSION
  5
30B0
102
{ACAD_XDICTIONARY
360
30B1
102
}
102
{ACAD_REACTORS
330
30B2
102
}
330
74
100
AcDbEntity
  8
AM_5 ( Bemassung)
100
AcDbDimension
  2
*D101
 10
1141.766802296672
 20
702.7267771253059
 30
0.0
 11
1091.766803047597
 21
709.3007880393578
 31
0.0
 70
    32
 71
     5
 42
99.99999849815072
  3
AM_DIN$0
100
AcDbAlignedDimension
 13
1041.766803798521
 23
633.3681317038699
 33
0.0
 14
1141.766802296672
 24
633.3681317038702
 34
0.0
100
AcDbRotatedDimension
1001
ACAD
1000
DSTYLE
1002
{
1070
    40
1040
2.0
1002
}
1001
ACAD_DSTYLE_DIMINSPECT
1070
   396
1000
100%
1070
   395
1000

1070
   394
1070
    33
1070
   393
1070
     0
  0
DIMENSION
  5
30B3
102
{ACAD_XDICTIONARY
360
30B4
102
}
102
{ACAD_REACTORS
330
30B5
102
}
330
74
100
AcDbEntity
  8
AM_5 ( Bemassung)
100
AcDbDimension
  2
*D102
 10
984.8245079614358
 20
539.5246615580863
 30
0.0
 11
978.2504970473837
 21
589.5246608071629
 31
0.0
 70
    32
 71
     5
 42
99.99999849815299
  3
AM_DIN$0
100
AcDbAlignedDimension
 13
1046.766803798521
 23
639.5246600562393
 33
0.0
 14
1046.766803798521
 24
539.5246615580863
 34
0.0
 50
90.0
100
AcDbRotatedDimension
1001
ACAD
1000
DSTYLE
1002
{
1070
    40
1040
2.0
1002
}
1001
ACAD_DSTYLE_DIMINSPECT
1070
   396
1000
100%
1070
   395
1000

1070
   394
1070
    33
1070
   393
1070
     0
  0
LINE
  5
30B6
102
{ACAD_REACTORS
330
31F0
102
}
330
74
100
AcDbEntity
  8
AM_2 ( Kontur 0.25)
100
AcDbLine
 10
991.7668030475969
 20
933.1615645067879
 30
0.0
 11
1191.766803047597
 21
933.1615645067879
 31
0.0
  0
DIMENSION
  5
30B7
102
{ACAD_XDICTIONARY
360
30B8
102
}
102
{ACAD_REACTORS
330
30B9
102
}
330
74
100
AcDbEntity
  8
AM_5 ( Bemassung)
100
AcDbDimension
  2
*D103
 10
1067.875114762485
 20
737.7891052304085
 30
0.0
 11
1091.77095872557
 21
744.4084776724276
 31
0.0
 70
    32
  1
G1 1/2
 71
     5
 42
47.7916879261702
  3
AM_DIN$0
100
AcDbAlignedDimension
 13
1115.666802688655
 23
759.1615671200056
 33
0.0
 14
1067.875114762485
 24
759.1615671200056
 34
0.0
100
AcDbRotatedDimension
1001
ACAD_DSTYLE_DIMINSPECT
1070
   396
1000
100%
1070
   395
1000

1070
   394
1070
    33
1070
   393
1070
     0
  0
POINT
  5
30BA
330
74
100
AcDbEntity
  8
0
 60
     1
100
AcDbPoint
 10
830.4263875598586
 20
196.3354896889077
 30
0.0
1001
GENIUS_GENOLIS_13
1002
{
1000
ENT
1005
0
1005
0
1005
0
1005
0
1005
0
1005
0
1005
0
1005
0
1005
0
1005
0
1005
0
1005
0
1005
0
1005
0
1005
0
1005
0
1005
0
1005
0
1005
0
1005
0
1005
0
1005
0
1005
0
1005
0
1005
0
1005
0
1005
0
1005
0
1005
0
1005
0
1005
0
1005
0
1005
0
1005
0
1005
0
1005
3042
1005
0
1002
}
1001
GENIUS_GENOBJ-NBEHI-BHB_13
1002
{
1000
OWNER
1000
genbehi
1002
}
1001
GENIUS_GENOENT_13
1002
{
1000
MYREF
1005
30BA
1002
}
1002
{
1000
GRP
1005
0
1002
}
1001
GENIUS_GENBH_13
1002
{
1000
FGO
1005
0
1002
}
1001
GENIUS_GENODEF_13
1002
{
1000
HIER
1070
     1
1002
}
1002
{
1000
MANEDIT
1070
     1
1002
}
1002
{
1000
NOSEL
1070
     1
1002
}
1002
{
1000
BEHIND
1070
     0
1002
}
1002
{
1000
OTHER
1070
     1
1002
}
1002
{
1000
REACTOR
1002
}
  0
POINT
  5
30BB
330
74
100
AcDbEntity
  8
0
 60
     1
100
AcDbPoint
 10
830.4263875598586
 20
196.3354896889077
 30
0.0
1001
GENIUS_GENOENT_13
1002
{
1000
MYREF
1005
30BB
1002
}
1002
{
1000
GRP
1005
0
1002
}
1001
GENIUS_GENOLIS_13
1002
{
1000
ENT
1005
3042
1002
}
1001
GENIUS_GENOBJ-NBEHI-BHF_13
1002
{
1000
OWNER
1000
genbehi
1002
}
1001
GENIUS_GENODEF_13
1002
{
1000
HIER
1070
     1
1002
}
1002
{
1000
MANEDIT
1070
     0
1002
}
1002
{
1000
NOSEL
1070
     1
1002
}
1002
{
1000
BEHIND
1070
     0
1002
}
1002
{
1000
OTHER
1070
     0
1002
}
1002
{
1000
REACTOR
1002
}
1001
GENIUS_GENBH_13
1002
{
1000
BGZLEVEL
1070
    -1
1002
}
1002
{
1000
FGZLEVEL
1070
    -1
1002
}
1002
{
1000
OIUMAP
1000
OIU
1002
}
1002
{
1000
FLAGS
1070
    32
1002
}
1002
{
1000
BGO
1005
0
1002
}
  0
POINT
  5
30BC
330
74
100
AcDbEntity
  8
0
 60
     1
100
AcDbPoint
 10
845.1212452472088
 20
440.4846437721665
 30
0.0
 50
300.0
1001
GENIUS_GENOLIS_13
1002
{
1000
ENT
1005
30AA
1002
}
1001
GENIUS_GENOENT_13
1002
{
1000
MYREF
1005
30BC
1002
}
1002
{
1000
GRP
1005
0
1002
}
1001
GENIUS_GENOBJ-NBEHI-BHF_13
1002
{
1000
OWNER
1000
genbehi
1002
}
1001
GENIUS_GENODEF_13
1002
{
1000
HIER
1070
     1
1002
}
1002
{
1000
MANEDIT
1070
     0
1002
}
1002
{
1000
NOSEL
1070
     1
1002
}
1002
{
1000
BEHIND
1070
     0
1002
}
1002
{
1000
OTHER
1070
     0
1002
}
1002
{
1000
REACTOR
1002
}
1001
GENIUS_GENBH_13
1002
{
1000
BGZLEVEL
1070
    -1
1002
}
1002
{
1000
FGZLEVEL
1070
    -1
1002
}
1002
{
1000
OIUMAP
1000
OIU
1002
}
1002
{
1000
FLAGS
1070
    32
1002
}
1002
{
1000
BGO
1005
30BD
1002
}
  0
POINT
  5
30BD
330
74
100
AcDbEntity
  8
0
 60
     1
100
AcDbPoint
 10
845.1212452472088
 20
440.4846437721665
 30
0.0
 50
300.0
1001
GENIUS_GENOBJ-NBEHI-BHB_13
1002
{
1000
OWNER
1000
genbehi
1002
}
1001
GENIUS_GENOENT_13
1002
{
1000
MYREF
1005
30BD
1002
}
1002
{
1000
GRP
1005
0
1002
}
1001
GENIUS_GENODEF_13
1002
{
1000
HIER
1070
     1
1002
}
1002
{
1000
MANEDIT
1070
     0
1002
}
1002
{
1000
NOSEL
1070
     1
1002
}
1002
{
1000
BEHIND
1070
     0
1002
}
1002
{
1000
OTHER
1070
     1
1002
}
1002
{
1000
REACTOR
1002
}
1001
GENIUS_GENOLIS_13
1002
{
1000
ENT
1005
0
1005
30A9
1005
0
1005
0
1002
}
1001
GENIUS_GENBH_13
1002
{
1000
FGO
1005
30BC
1002
}
  0
POINT
  5
30BE
330
74
100
AcDbEntity
  8
0
 60
     1
100
AcDbPoint
 10
845.1212452472088
 20
440.4846437721665
 30
0.0
 50
300.0
1001
GENIUS_GENODEF_13
1002
{
1000
HIER
1070
     1
1002
}
1002
{
1000
MANEDIT
1070
     0
1002
}
1002
{
1000
NOSEL
1070
     1
1002
}
1002
{
1000
BEHIND
1070
     0
1002
}
1002
{
1000
OTHER
1070
     0
1002
}
1002
{
1000
REACTOR
1002
}
1001
GENIUS_GENOLIS_13
1002
{
1000
ENT
1005
30A9
1002
}
1001
GENIUS_GENOENT_13
1002
{
1000
MYREF
1005
30BE
1002
}
1002
{
1000
GRP
1005
0
1002
}
1001
GENIUS_GENOBJ-NBEHI-BHF_13
1002
{
1000
OWNER
1000
genbehi
1002
}
1001
GENIUS_GENBH_13
1002
{
1000
BGZLEVEL
1070
    -1
1002
}
1002
{
1000
FGZLEVEL
1070
    -1
1002
}
1002
{
1000
OIUMAP
1000
OIU
1002
}
1002
{
1000
FLAGS
1070
    32
1002
}
1002
{
1000
BGO
1005
0
1002
}
  0
POINT
  5
30BF
330
74
100
AcDbEntity
  8
0
 60
     1
100
AcDbPoint
 10
1021.354426943986
 20
623.5381272603462
 30
0.0
 50
240.0
1001
GENIUS_GENOLIS_13
1002
{
1000
ENT
1005
30A6
1002
}
1001
GENIUS_GENOENT_13
1002
{
1000
MYREF
1005
30BF
1002
}
1002
{
1000
GRP
1005
0
1002
}
1001
GENIUS_GENOBJ-NBEHI-BHF_13
1002
{
1000
OWNER
1000
genbehi
1002
}
1001
GENIUS_GENODEF_13
1002
{
1000
HIER
1070
     1
1002
}
1002
{
1000
MANEDIT
1070
     0
1002
}
1002
{
1000
NOSEL
1070
     1
1002
}
1002
{
1000
BEHIND
1070
     0
1002
}
1002
{
1000
OTHER
1070
     0
1002
}
1002
{
1000
REACTOR
1002
}
1001
GENIUS_GENBH_13
1002
{
1000
BGZLEVEL
1070
    -1
1002
}
1002
{
1000
FGZLEVEL
1070
    -1
1002
}
1002
{
1000
OIUMAP
1000
OIU
1002
}
1002
{
1000
FLAGS
1070
    32
1002
}
1002
{
1000
BGO
1005
30C0
1002
}
  0
POINT
  5
30C0
330
74
100
AcDbEntity
  8
0
 60
     1
100
AcDbPoint
 10
1021.354426943986
 20
623.5381272603462
 30
0.0
 50
240.0
1001
GENIUS_GENOBJ-NBEHI-BHB_13
1002
{
1000
OWNER
1000
genbehi
1002
}
1001
GENIUS_GENOENT_13
1002
{
1000
MYREF
1005
30C0
1002
}
1002
{
1000
GRP
1005
0
1002
}
1001
GENIUS_GENODEF_13
1002
{
1000
HIER
1070
     1
1002
}
1002
{
1000
MANEDIT
1070
     0
1002
}
1002
{
1000
NOSEL
1070
     1
1002
}
1002
{
1000
BEHIND
1070
     0
1002
}
1002
{
1000
OTHER
1070
     1
1002
}
1002
{
1000
REACTOR
1002
}
1001
GENIUS_GENOLIS_13
1002
{
1000
ENT
1005
0
1005
30A5
1005
0
1005
0
1002
}
1001
GENIUS_GENBH_13
1002
{
1000
FGO
1005
30BF
1002
}
  0
POINT
  5
30C1
330
74
100
AcDbEntity
  8
0
 60
     1
100
AcDbPoint
 10
1021.354426943986
 20
623.5381272603462
 30
0.0
 50
240.0
1001
GENIUS_GENODEF_13
1002
{
1000
HIER
1070
     1
1002
}
1002
{
1000
MANEDIT
1070
     0
1002
}
1002
{
1000
NOSEL
1070
     1
1002
}
1002
{
1000
BEHIND
1070
     0
1002
}
1002
{
1000
OTHER
1070
     0
1002
}
1002
{
1000
REACTOR
1002
}
1001
GENIUS_GENOLIS_13
1002
{
1000
ENT
1005
30A5
1002
}
1001
GENIUS_GENOENT_13
1002
{
1000
MYREF
1005
30C1
1002
}
1002
{
1000
GRP
1005
0
1002
}
1001
GENIUS_GENOBJ-NBEHI-BHF_13
1002
{
1000
OWNER
1000
genbehi
1002
}
1001
GENIUS_GENBH_13
1002
{
1000
BGZLEVEL
1070
    -1
1002
}
1002
{
1000
FGZLEVEL
1070
    -1
1002
}
1002
{
1000
OIUMAP
1000
OIU
1002
}
1002
{
1000
FLAGS
1070
    32
1002
}
1002
{
1000
BGO
1005
0
1002
}
  0
POINT
  5
30C2
330
74
100
AcDbEntity
  8
0
 60
     1
100
AcDbPoint
 10
1267.999984744375
 20
562.4424566652678
 30
0.0
 50
180.0
1001
GENIUS_GENOLIS_13
1002
{
1000
ENT
1005
30A2
1002
}
1001
GENIUS_GENOENT_13
1002
{
1000
MYREF
1005
30C2
1002
}
1002
{
1000
GRP
1005
0
1002
}
1001
GENIUS_GENOBJ-NBEHI-BHF_13
1002
{
1000
OWNER
1000
genbehi
1002
}
1001
GENIUS_GENODEF_13
1002
{
1000
HIER
1070
     1
1002
}
1002
{
1000
MANEDIT
1070
     0
1002
}
1002
{
1000
NOSEL
1070
     1
1002
}
1002
{
1000
BEHIND
1070
     0
1002
}
1002
{
1000
OTHER
1070
     0
1002
}
1002
{
1000
REACTOR
1002
}
1001
GENIUS_GENBH_13
1002
{
1000
BGZLEVEL
1070
    -1
1002
}
1002
{
1000
FGZLEVEL
1070
    -1
1002
}
1002
{
1000
OIUMAP
1000
OIU
1002
}
1002
{
1000
FLAGS
1070
    32
1002
}
1002
{
1000
BGO
1005
30C3
1002
}
  0
POINT
  5
30C3
330
74
100
AcDbEntity
  8
0
 60
     1
100
AcDbPoint
 10
1267.999984744375
 20
562.4424566652678
 30
0.0
 50
180.0
1001
GENIUS_GENOBJ-NBEHI-BHB_13
1002
{
1000
OWNER
1000
genbehi
1002
}
1001
GENIUS_GENOENT_13
1002
{
1000
MYREF
1005
30C3
1002
}
1002
{
1000
GRP
1005
0
1002
}
1001
GENIUS_GENODEF_13
1002
{
1000
HIER
1070
     1
1002
}
1002
{
1000
MANEDIT
1070
     0
1002
}
1002
{
1000
NOSEL
1070
     1
1002
}
1002
{
1000
BEHIND
1070
     0
1002
}
1002
{
1000
OTHER
1070
     1
1002
}
1002
{
1000
REACTOR
1002
}
1001
GENIUS_GENOLIS_13
1002
{
1000
ENT
1005
0
1005
30A1
1005
0
1005
0
1002
}
1001
GENIUS_GENBH_13
1002
{
1000
FGO
1005
30C2
1002
}
  0
POINT
  5
30C4
330
74
100
AcDbEntity
  8
0
 60
     1
100
AcDbPoint
 10
1267.999984744375
 20
562.4424566652678
 30
0.0
 50
180.0
1001
GENIUS_GENODEF_13
1002
{
1000
HIER
1070
     1
1002
}
1002
{
1000
MANEDIT
1070
     0
1002
}
1002
{
1000
NOSEL
1070
     1
1002
}
1002
{
1000
BEHIND
1070
     0
1002
}
1002
{
1000
OTHER
1070
     0
1002
}
1002
{
1000
REACTOR
1002
}
1001
GENIUS_GENOLIS_13
1002
{
1000
ENT
1005
30A1
1002
}
1001
GENIUS_GENOENT_13
1002
{
1000
MYREF
1005
30C4
1002
}
1002
{
1000
GRP
1005
0
1002
}
1001
GENIUS_GENOBJ-NBEHI-BHF_13
1002
{
1000
OWNER
1000
genbehi
1002
}
1001
GENIUS_GENBH_13
1002
{
1000
BGZLEVEL
1070
    -1
1002
}
1002
{
1000
FGZLEVEL
1070
    -1
1002
}
1002
{
1000
OIUMAP
1000
OIU
1002
}
1002
{
1000
FLAGS
1070
    32
1002
}
1002
{
1000
BGO
1005
0
1002
}
  0
POINT
  5
30C5
330
74
100
AcDbEntity
  8
0
 60
     1
100
AcDbPoint
 10
1338.412360847985
 20
318.2933025820093
 30
0.0
 50
120.0
1001
GENIUS_GENOLIS_13
1002
{
1000
ENT
1005
309E
1002
}
1001
GENIUS_GENOENT_13
1002
{
1000
MYREF
1005
30C5
1002
}
1002
{
1000
GRP
1005
0
1002
}
1001
GENIUS_GENOBJ-NBEHI-BHF_13
1002
{
1000
OWNER
1000
genbehi
1002
}
1001
GENIUS_GENODEF_13
1002
{
1000
HIER
1070
     1
1002
}
1002
{
1000
MANEDIT
1070
     0
1002
}
1002
{
1000
NOSEL
1070
     1
1002
}
1002
{
1000
BEHIND
1070
     0
1002
}
1002
{
1000
OTHER
1070
     0
1002
}
1002
{
1000
REACTOR
1002
}
1001
GENIUS_GENBH_13
1002
{
1000
BGZLEVEL
1070
    -1
1002
}
1002
{
1000
FGZLEVEL
1070
    -1
1002
}
1002
{
1000
OIUMAP
1000
OIU
1002
}
1002
{
1000
FLAGS
1070
    32
1002
}
1002
{
1000
BGO
1005
30C6
1002
}
  0
POINT
  5
30C6
330
74
100
AcDbEntity
  8
0
 60
     1
100
AcDbPoint
 10
1338.412360847985
 20
318.2933025820093
 30
0.0
 50
120.0
1001
GENIUS_GENOBJ-NBEHI-BHB_13
1002
{
1000
OWNER
1000
genbehi
1002
}
1001
GENIUS_GENOENT_13
1002
{
1000
MYREF
1005
30C6
1002
}
1002
{
1000
GRP
1005
0
1002
}
1001
GENIUS_GENODEF_13
1002
{
1000
HIER
1070
     1
1002
}
1002
{
1000
MANEDIT
1070
     0
1002
}
1002
{
1000
NOSEL
1070
     1
1002
}
1002
{
1000
BEHIND
1070
     0
1002
}
1002
{
1000
OTHER
1070
     1
1002
}
1002
{
1000
REACTOR
1002
}
1001
GENIUS_GENOLIS_13
1002
{
1000
ENT
1005
0
1005
309D
1005
0
1005
0
1002
}
1001
GENIUS_GENBH_13
1002
{
1000
FGO
1005
30C5
1002
}
  0
POINT
  5
30C7
330
74
100
AcDbEntity
  8
0
 60
     1
100
AcDbPoint
 10
1338.412360847985
 20
318.2933025820093
 30
0.0
 50
120.0
1001
GENIUS_GENODEF_13
1002
{
1000
HIER
1070
     1
1002
}
1002
{
1000
MANEDIT
1070
     0
1002
}
1002
{
1000
NOSEL
1070
     1
1002
}
1002
{
1000
BEHIND
1070
     0
1002
}
1002
{
1000
OTHER
1070
     0
1002
}
1002
{
1000
REACTOR
1002
}
1001
GENIUS_GENOLIS_13
1002
{
1000
ENT
1005
309D
1002
}
1001
GENIUS_GENOENT_13
1002
{
1000
MYREF
1005
30C7
1002
}
1002
{
1000
GRP
1005
0
1002
}
1001
GENIUS_GENOBJ-NBEHI-BHF_13
1002
{
1000
OWNER
1000
genbehi
1002
}
1001
GENIUS_GENBH_13
1002
{
1000
BGZLEVEL
1070
    -1
1002
}
1002
{
1000
FGZLEVEL
1070
    -1
1002
}
1002
{
1000
OIUMAP
1000
OIU
1002
}
1002
{
1000
FLAGS
1070
    32
1002
}
1002
{
1000
BGO
1005
0
1002
}
  0
POINT
  5
30C8
330
74
100
AcDbEntity
  8
0
 60
     1
100
AcDbPoint
 10
1162.179179151207
 20
135.2398190938293
 30
0.0
 50
60.0
1001
GENIUS_GENOLIS_13
1002
{
1000
ENT
1005
309A
1002
}
1001
GENIUS_GENOENT_13
1002
{
1000
MYREF
1005
30C8
1002
}
1002
{
1000
GRP
1005
0
1002
}
1001
GENIUS_GENOBJ-NBEHI-BHF_13
1002
{
1000
OWNER
1000
genbehi
1002
}
1001
GENIUS_GENODEF_13
1002
{
1000
HIER
1070
     1
1002
}
1002
{
1000
MANEDIT
1070
     0
1002
}
1002
{
1000
NOSEL
1070
     1
1002
}
1002
{
1000
BEHIND
1070
     0
1002
}
1002
{
1000
OTHER
1070
     0
1002
}
1002
{
1000
REACTOR
1002
}
1001
GENIUS_GENBH_13
1002
{
1000
BGZLEVEL
1070
    -1
1002
}
1002
{
1000
FGZLEVEL
1070
    -1
1002
}
1002
{
1000
OIUMAP
1000
OIU
1002
}
1002
{
1000
FLAGS
1070
    32
1002
}
1002
{
1000
BGO
1005
30C9
1002
}
  0
POINT
  5
30C9
330
74
100
AcDbEntity
  8
0
 60
     1
100
AcDbPoint
 10
1162.179179151207
 20
135.2398190938293
 30
0.0
 50
60.0
1001
GENIUS_GENOBJ-NBEHI-BHB_13
1002
{
1000
OWNER
1000
genbehi
1002
}
1001
GENIUS_GENOENT_13
1002
{
1000
MYREF
1005
30C9
1002
}
1002
{
1000
GRP
1005
0
1002
}
1001
GENIUS_GENODEF_13
1002
{
1000
HIER
1070
     1
1002
}
1002
{
1000
MANEDIT
1070
     0
1002
}
1002
{
1000
NOSEL
1070
     1
1002
}
1002
{
1000
BEHIND
1070
     0
1002
}
1002
{
1000
OTHER
1070
     1
1002
}
1002
{
1000
REACTOR
1002
}
1001
GENIUS_GENOLIS_13
1002
{
1000
ENT
1005
0
1005
3099
1005
0
1005
0
1002
}
1001
GENIUS_GENBH_13
1002
{
1000
FGO
1005
30C8
1002
}
  0
POINT
  5
30CA
330
74
100
AcDbEntity
  8
0
 60
     1
100
AcDbPoint
 10
1162.179179151207
 20
135.2398190938293
 30
0.0
 50
60.0
1001
GENIUS_GENODEF_13
1002
{
1000
HIER
1070
     1
1002
}
1002
{
1000
MANEDIT
1070
     0
1002
}
1002
{
1000
NOSEL
1070
     1
1002
}
1002
{
1000
BEHIND
1070
     0
1002
}
1002
{
1000
OTHER
1070
     0
1002
}
1002
{
1000
REACTOR
1002
}
1001
GENIUS_GENOLIS_13
1002
{
1000
ENT
1005
3099
1002
}
1001
GENIUS_GENOENT_13
1002
{
1000
MYREF
1005
30CA
1002
}
1002
{
1000
GRP
1005
0
1002
}
1001
GENIUS_GENOBJ-NBEHI-BHF_13
1002
{
1000
OWNER
1000
genbehi
1002
}
1001
GENIUS_GENBH_13
1002
{
1000
BGZLEVEL
1070
    -1
1002
}
1002
{
1000
FGZLEVEL
1070
    -1
1002
}
1002
{
1000
OIUMAP
1000
OIU
1002
}
1002
{
1000
FLAGS
1070
    32
1002
}
1002
{
1000
BGO
1005
0
1002
}
  0
POINT
  5
30CB
330
74
100
AcDbEntity
  8
0
 60
     1
100
AcDbPoint
 10
915.533621350819
 20
196.3354896889077
 30
0.0
1001
GENIUS_GENOLIS_13
1002
{
1000
ENT
1005
3096
1002
}
1001
GENIUS_GENOENT_13
1002
{
1000
MYREF
1005
30CB
1002
}
1002
{
1000
GRP
1005
0
1002
}
1001
GENIUS_GENOBJ-NBEHI-BHF_13
1002
{
1000
OWNER
1000
genbehi
1002
}
1001
GENIUS_GENODEF_13
1002
{
1000
HIER
1070
     1
1002
}
1002
{
1000
MANEDIT
1070
     0
1002
}
1002
{
1000
NOSEL
1070
     1
1002
}
1002
{
1000
BEHIND
1070
     0
1002
}
1002
{
1000
OTHER
1070
     0
1002
}
1002
{
1000
REACTOR
1002
}
1001
GENIUS_GENBH_13
1002
{
1000
BGZLEVEL
1070
    -1
1002
}
1002
{
1000
FGZLEVEL
1070
    -1
1002
}
1002
{
1000
OIUMAP
1000
OIU
1002
}
1002
{
1000
FLAGS
1070
    32
1002
}
1002
{
1000
BGO
1005
30CE
1002
}
  0
POINT
  5
30CD
330
74
100
AcDbEntity
  8
0
 60
     1
100
AcDbPoint
 10
915.533621350819
 20
196.3354896889077
 30
0.0
1001
GENIUS_GENOLIS_13
1002
{
1000
ENT
1005
3093
1005
0
1005
0
1005
0
1005
2FE3
1005
0
1002
}
1001
GENIUS_GENOBJ-NBEHI-BHB_13
1002
{
1000
OWNER
1000
genbehi
1002
}
1001
GENIUS_GENOENT_13
1002
{
1000
MYREF
1005
30CD
1002
}
1002
{
1000
GRP
1005
0
1002
}
1001
GENIUS_GENBH_13
1002
{
1000
FGO
1005
30CF
1002
}
1001
GENIUS_GENODEF_13
1002
{
1000
HIER
1070
     1
1002
}
1002
{
1000
MANEDIT
1070
     1
1002
}
1002
{
1000
NOSEL
1070
     1
1002
}
1002
{
1000
BEHIND
1070
     1
1002
}
1002
{
1000
OTHER
1070
     1
1002
}
1002
{
1000
REACTOR
1002
}
  0
POINT
  5
30CE
330
74
100
AcDbEntity
  8
0
 60
     1
100
AcDbPoint
 10
915.533621350819
 20
196.3354896889077
 30
0.0
1001
GENIUS_GENOBJ-NBEHI-BHB_13
1002
{
1000
OWNER
1000
genbehi
1002
}
1001
GENIUS_GENOENT_13
1002
{
1000
MYREF
1005
30CE
1002
}
1002
{
1000
GRP
1005
0
1002
}
1001
GENIUS_GENODEF_13
1002
{
1000
HIER
1070
     1
1002
}
1002
{
1000
MANEDIT
1070
     0
1002
}
1002
{
1000
NOSEL
1070
     1
1002
}
1002
{
1000
BEHIND
1070
     0
1002
}
1002
{
1000
OTHER
1070
     1
1002
}
1002
{
1000
REACTOR
1002
}
1001
GENIUS_GENOLIS_13
1002
{
1000
ENT
1005
2FE3
1005
0
1005
3092
1005
0
1005
0
1005
3093
1002
}
1001
GENIUS_GENBH_13
1002
{
1000
FGO
1005
30CB
1002
}
  0
POINT
  5
30CF
330
74
100
AcDbEntity
  8
0
 60
     1
100
AcDbPoint
 10
915.533621350819
 20
196.3354896889077
 30
0.0
1001
GENIUS_GENODEF_13
1002
{
1000
HIER
1070
     1
1002
}
1002
{
1000
MANEDIT
1070
     0
1002
}
1002
{
1000
NOSEL
1070
     1
1002
}
1002
{
1000
BEHIND
1070
     0
1002
}
1002
{
1000
OTHER
1070
     0
1002
}
1002
{
1000
REACTOR
1002
}
1001
GENIUS_GENOLIS_13
1002
{
1000
ENT
1005
3092
1002
}
1001
GENIUS_GENOENT_13
1002
{
1000
MYREF
1005
30CF
1002
}
1002
{
1000
GRP
1005
0
1002
}
1001
GENIUS_GENOBJ-NBEHI-BHF_13
1002
{
1000
OWNER
1000
genbehi
1002
}
1001
GENIUS_GENBH_13
1002
{
1000
BGZLEVEL
1070
    -1
1002
}
1002
{
1000
FGZLEVEL
1070
    -1
1002
}
1002
{
1000
OIUMAP
1000
OIU
1002
}
1002
{
1000
FLAGS
1070
    32
1002
}
1002
{
1000
BGO
1005
30CD
1002
}
  0
POINT
  5
30D1
330
74
100
AcDbEntity
  8
0
 60
     1
100
AcDbPoint
 10
740.4263889115586
 20
196.3354896889077
 30
0.0
1001
GENIUS_GENOENT_13
1002
{
1000
MYREF
1005
30D1
1002
}
1002
{
1000
GRP
1005
0
1002
}
1001
GENIUS_GENOLIS_13
1002
{
1000
ENT
1005
3059
1002
}
1001
GENIUS_GENOBJ-NBEHI-BHF_13
1002
{
1000
OWNER
1000
genbehi
1002
}
1001
GENIUS_GENODEF_13
1002
{
1000
HIER
1070
     1
1002
}
1002
{
1000
MANEDIT
1070
     0
1002
}
1002
{
1000
NOSEL
1070
     1
1002
}
1002
{
1000
BEHIND
1070
     0
1002
}
1002
{
1000
OTHER
1070
     0
1002
}
1002
{
1000
REACTOR
1002
}
1001
GENIUS_GENBH_13
1002
{
1000
BGZLEVEL
1070
    -1
1002
}
1002
{
1000
FGZLEVEL
1070
    -1
1002
}
1002
{
1000
OIUMAP
1000
OIU
1002
}
1002
{
1000
FLAGS
1070
    32
1002
}
1002
{
1000
BGO
1005
0
1002
}
  0
LINE
  5
312C
102
{ACAD_REACTORS
330
3140
102
}
330
74
100
AcDbEntity
  8
AM_3 ( Verdeckt )
  6
AM_ISO02W050x2
100
AcDbLine
 10
1059.766803047597
 20
943.1615643716879
 30
0.0
 11
1059.766803047597
 21
933.1615645067879
 31
0.0
  0
LINE
  5
312D
102
{ACAD_REACTORS
330
3140
102
}
330
74
100
AcDbEntity
  8
AM_3 ( Verdeckt )
  6
AM_ISO02W050x2
100
AcDbLine
 10
1123.766803047597
 20
943.1615643716879
 30
0.0
 11
1123.766803047597
 21
933.1615645067879
 31
0.0
  0
DIMENSION
  5
3132
102
{ACAD_XDICTIONARY
360
313F
102
}
102
{ACAD_REACTORS
330
3140
102
}
330
74
100
AcDbEntity
  8
AM_5 ( Bemassung)
100
AcDbDimension
  2
*D105
 10
1059.766803047597
 20
969.0351448764449
 30
0.0
 11
1088.035612623089
 21
969.0351448764449
 31
0.0
 70
   160
  1
%%c <>
 71
     5
 42
64.0
  3
AM_DIN$0
100
AcDbAlignedDimension
 13
1123.766803047597
 23
934.161564506788
 33
0.0
 14
1059.766803047597
 24
934.161564506788
 34
0.0
100
AcDbRotatedDimension
1001
ACAD_DSTYLE_DIMINSPECT
1070
   396
1000
100%
1070
   395
1000

1070
   394
1070
    33
1070
   393
1070
     0
  0
DIMENSION
  5
3189
102
{ACAD_XDICTIONARY
360
3196
102
}
102
{ACAD_REACTORS
330
3197
102
}
330
74
100
AcDbEntity
  8
AM_5 ( Bemassung)
100
AcDbDimension
  2
*D106
 10
1024.266804046297
 20
985.11489355411
 30
0.0
 11
1089.938222061378
 21
985.11489355411
 31
0.0
 70
   160
  1
%%c <>
 71
     5
 42
134.9999980024993
  3
AM_DIN$0
100
AcDbAlignedDimension
 13
1159.266802048796
 23
942.1615643716881
 33
0.0
 14
1024.266804046297
 24
942.1615643716879
 34
0.0
 50
0.0000000000000623
100
AcDbRotatedDimension
1001
ACAD_DSTYLE_DIMINSPECT
1070
   396
1000
100%
1070
   395
1000

1070
   394
1070
    33
1070
   393
1070
     0
  0
DIMENSION
  5
31E0
102
{ACAD_XDICTIONARY
360
31EF
102
}
102
{ACAD_REACTORS
330
31F0
102
}
330
74
100
AcDbEntity
  8
AM_5 ( Bemassung)
100
AcDbDimension
  2
*D107
 10
1181.189677202972
 20
933.1615645067879
 30
0.0
 11
1177.902671745946
 21
938.1615644392381
 31
0.0
 70
    32
 71
     5
 42
9.999999864900019
  3
AM_DIN$0
100
AcDbAlignedDimension
 13
1158.266802048797
 23
943.1615643716879
 33
0.0
 14
1158.266802048897
 24
933.1615645067879
 34
0.0
 50
90.00000000000003
100
AcDbRotatedDimension
1001
ACAD
1000
DSTYLE
1002
{
1070
    40
1040
1.0
1002
}
1001
ACAD_DSTYLE_DIMINSPECT
1070
   396
1000
100%
1070
   395
1000

1070
   394
1070
    33
1070
   393
1070
     0
  0
DIMENSION
  5
3207
102
{ACAD_XDICTIONARY
360
3216
102
}
102
{ACAD_REACTORS
330
3217
102
}
330
74
100
AcDbEntity
  8
AM_5 ( Bemassung)
100
AcDbDimension
  2
*D108
 10
1195.09143563595
 20
924.161564641988
 30
0.0
 11
1191.804430178924
 21
928.661564574388
 31
0.0
 70
    32
 71
     5
 42
8.999999864799974
  3
AM_DIN$0
100
AcDbAlignedDimension
 13
1158.266802048797
 23
933.1615645067879
 33
0.0
 14
1158.266802048897
 24
924.161564641988
 34
0.0
 50
90.00000000000003
100
AcDbRotatedDimension
1001
ACAD
1000
DSTYLE
1002
{
1070
    40
1040
1.0
1002
}
1001
ACAD_DSTYLE_DIMINSPECT
1070
   396
1000
100%
1070
   395
1000

1070
   394
1070
    33
1070
   393
1070
     0
  0
DIMENSION
  5
322E
102
{ACAD_XDICTIONARY
360
323B
102
}
102
{ACAD_REACTORS
330
323C
102
}
330
74
100
AcDbEntity
  8
AM_5 ( Bemassung)
100
AcDbDimension
  2
*D109
 10
1067.866803406539
 20
955.1615653716881
 30
0.0
 11
1091.766803047597
 21
961.7809378137071
 31
0.0
 70
    32
  1
G1 1/2
 71
     5
 42
47.79999928211623
  3
AM_DIN$0
100
AcDbAlignedDimension
 13
1115.666802688655
 23
932.1615645218065
 33
0.0
 14
1067.866803406539
 24
932.1615645218066
 34
0.0
 50
359.9999999999999
100
AcDbRotatedDimension
1001
ACAD_DSTYLE_DIMINSPECT
1070
   396
1000
100%
1070
   395
1000

1070
   394
1070
    33
1070
   393
1070
     0
  0
ENDSEC
  0
SECTION
  2
OBJECTS
  0
DICTIONARY
  5
C
330
0
100
AcDbDictionary
281
     1
  3
ACAD_2007HEADERVARS_RT
350
39B9
  3
ACAD_COLOR
350
6A
  3
ACAD_GROUP
350
D
  3
ACAD_LAYOUT
350
69
  3
ACAD_MATERIAL
350
10
  3
ACAD_MLEADERSTYLE
350
6D
  3
ACAD_MLINESTYLE
350
66
  3
ACAD_PLOTSETTINGS
350
68
  3
ACAD_PLOTSTYLENAME
350
E
  3
ACAD_SCALELIST
350
3A
  3
ACAD_TABLESTYLE
350
6B
  3
ACAD_VISUALSTYLE
350
29
  3
ACDB_RECOMPOSE_DATA
350
1B4
  3
AcDbVariableDictionary
350
1C9
  3
AcmDictionary
350
166
  3
AMG
350
10C
  3
AMGSNAPSETTINGS
350
19B
  3
ASE_INDEX_DICTIONARY
350
2104
  0
DICTIONARY
  5
1B6
330
8
100
AcDbDictionary
280
     1
281
     1
  0
DICTIONARY
  5
256
330
2
100
AcDbDictionary
280
     1
281
     1
  3
ACAD_LAYERSTATES
360
133E
  3
AMLAYER_GROUPCOLORS
360
257
  0
DICTIONARY
  5
1A2
330
5C
100
AcDbDictionary
280
     1
281
     1
  3
ADSK_XREC_LAYER_RECONCILED
360
D41
  0
DICTIONARY
  5
2C3
330
24D
100
AcDbDictionary
280
     1
281
     1
  3
ADSK_XREC_LAYER_RECONCILED
360
D4B
  0
DICTIONARY
  5
2C5
330
255
100
AcDbDictionary
280
     1
281
     1
  3
ADSK_XREC_LAYER_RECONCILED
360
D4C
  0
DICTIONARY
  5
2C7
330
27F
100
AcDbDictionary
280
     1
281
     1
  3
ADSK_XREC_LAYER_RECONCILED
360
D4D
  0
DICTIONARY
  5
2C9
330
2AA
100
AcDbDictionary
280
     1
281
     1
  3
ADSK_XREC_LAYER_RECONCILED
360
D4E
  0
DICTIONARY
  5
2CB
330
2AC
100
AcDbDictionary
280
     1
281
     1
  3
ADSK_XREC_LAYER_RECONCILED
360
D4F
  0
DICTIONARY
  5
2CD
330
2AE
100
AcDbDictionary
280
     1
281
     1
  3
ADSK_XREC_LAYER_RECONCILED
360
D50
  0
DICTIONARY
  5
2CF
330
2B1
100
AcDbDictionary
280
     1
281
     1
  3
ADSK_XREC_LAYER_RECONCILED
360
D51
  0
DICTIONARY
  5
A1F
330
9FC
100
AcDbDictionary
280
     1
281
     1
  3
ADSK_XREC_LAYER_RECONCILED
360
D54
  0
DICTIONARY
  5
1B79
330
1B78
100
AcDbDictionary
280
     1
281
     1
  0
DICTIONARY
  5
A88
330
74
100
AcDbDictionary
280
     1
281
     1
  3
ACAD_SORTENTS
360
A89
  0
DICTIONARY
  5
3081
330
3080
100
AcDbDictionary
280
     1
281
     1
  3
ACAD_DIMASSOC
360
3082
  0
DICTIONARY
  5
3084
330
3083
100
AcDbDictionary
280
     1
281
     1
  3
ACAD_DIMASSOC
360
3085
  0
DICTIONARY
  5
30AE
330
30AD
100
AcDbDictionary
280
     1
281
     1
  3
ACAD_DIMASSOC
360
30AF
  0
DICTIONARY
  5
30B1
330
30B0
100
AcDbDictionary
280
     1
281
     1
  3
ACAD_DIMASSOC
360
30B2
  0
DICTIONARY
  5
30B4
330
30B3
100
AcDbDictionary
280
     1
281
     1
  3
ACAD_DIMASSOC
360
30B5
  0
DICTIONARY
  5
30B8
330
30B7
100
AcDbDictionary
280
     1
281
     1
  3
ACAD_DIMASSOC
360
30B9
  0
DICTIONARY
  5
313F
330
3132
100
AcDbDictionary
280
     1
281
     1
  3
ACAD_DIMASSOC
360
3140
  0
DICTIONARY
  5
3196
330
3189
100
AcDbDictionary
280
     1
281
     1
  3
ACAD_DIMASSOC
360
3197
  0
DICTIONARY
  5
31EF
330
31E0
100
AcDbDictionary
280
     1
281
     1
  3
ACAD_DIMASSOC
360
31F0
  0
DICTIONARY
  5
3216
330
3207
100
AcDbDictionary
280
     1
281
     1
  3
ACAD_DIMASSOC
360
3217
  0
DICTIONARY
  5
323B
330
322E
100
AcDbDictionary
280
     1
281
     1
  3
ACAD_DIMASSOC
360
323C
  0
DICTIONARY
  5
39B9
102
{ACAD_REACTORS
330
C
102
}
330
C
100
AcDbDictionary
281
     1
  3
DIMJOGANG
350
39BA
  0
DICTIONARY
  5
6A
102
{ACAD_REACTORS
330
C
102
}
330
C
100
AcDbDictionary
281
     1
  0
DICTIONARY
  5
D
102
{ACAD_REACTORS
330
C
102
}
330
C
100
AcDbDictionary
281
     1
  0
DICTIONARY
  5
69
102
{ACAD_REACTORS
330
C
102
}
330
C
100
AcDbDictionary
281
     1
  3
Layout1
350
73
  3
Model
350
77
  0
DICTIONARY
  5
10
102
{ACAD_REACTORS
330
C
102
}
330
C
100
AcDbDictionary
281
     1
  3
ByBlock
350
19
  3
ByLayer
350
11
  3
Global
350
21
  0
DICTIONARY
  5
6D
102
{ACAD_REACTORS
330
C
102
}
330
C
100
AcDbDictionary
281
     1
  3
Standard
350
35C8
  0
DICTIONARY
  5
66
102
{ACAD_REACTORS
330
C
102
}
330
C
100
AcDbDictionary
281
     1
  3
Standard
350
67
  0
DICTIONARY
  5
68
102
{ACAD_REACTORS
330
C
102
}
330
C
100
AcDbDictionary
281
     1
  0
ACDBDICTIONARYWDFLT
  5
E
102
{ACAD_REACTORS
330
C
102
}
330
C
100
AcDbDictionary
281
     1
  3
Normal
350
F
100
AcDbDictionaryWithDefault
340
F
  0
DICTIONARY
  5
3A
102
{ACAD_REACTORS
330
C
102
}
330
C
100
AcDbDictionary
281
     1
  3
A0
350
3B
  3
A1
350
3C
  3
A2
350
3D
  3
A3
350
3E
  3
A4
350
3F
  3
A5
350
40
  3
A6
350
41
  3
A7
350
42
  3
A8
350
43
  3
A9
350
44
  3
B0
350
45
  3
B1
350
46
  3
B2
350
47
  3
B3
350
48
  3
B4
350
49
  3
B5
350
4A
  3
B6
350
4B
  3
B7
350
4C
  3
B8
350
4D
  3
B9
350
4E
  3
C0
350
4F
  3
C1
350
50
  3
C2
350
51
  3
C3
350
52
  3
C4
350
53
  3
C5
350
54
  3
C6
350
55
  3
C7
350
56
  3
C8
350
57
  3
C9
350
58
  3
D0
350
59
  3
D1
350
5A
  3
D2
350
5B
  0
DICTIONARY
  5
6B
102
{ACAD_REACTORS
330
C
102
}
330
C
100
AcDbDictionary
281
     1
  3
Standard
350
6C
  0
DICTIONARY
  5
29
102
{ACAD_REACTORS
330
C
102
}
330
C
100
AcDbDictionary
281
     1
  3
2dWireframe
350
2F
  3
3D Hidden
350
31
  3
3dWireframe
350
30
  3
Basic
350
2E
  3
Brighten
350
35
  3
ColorChange
350
39
  3
Conceptual
350
32
  3
Dim
350
34
  3
Facepattern
350
38
  3
Flat
350
2A
  3
FlatWithEdges
350
2B
  3
Gouraud
350
2C
  3
GouraudWithEdges
350
2D
  3
Linepattern
350
37
  3
Realistic
350
33
  3
Thicken
350
36
  0
XRECORD
  5
1B4
102
{ACAD_REACTORS
330
C
102
}
330
C
100
AcDbXrecord
280
     1
 90
        1
330
6C
  0
DICTIONARY
  5
1C9
102
{ACAD_REACTORS
330
C
102
}
330
C
100
AcDbDictionary
281
     1
  3
CANNOSCALE
350
1CC
  3
CMLEADERSTYLE
350
1CB
  3
CTABLESTYLE
350
1CA
  3
DIMASSOC
350
1CF
  3
INDEXCTL
350
1CE
  3
LIGHTINGUNITS
350
2D3
  3
MSLTSCALE
350
2D2
  3
SORTENTS
350
1CD
  0
DICTIONARY
  5
166
102
{ACAD_REACTORS
330
C
102
}
330
C
100
AcDbDictionary
281
     1
  3
AcmBOM
350
2B6
  3
AcmStdDictionary
350
171
  3
AMDTSECTSYM_ARROWCOLOR
350
186
  0
DICTIONARY
  5
10C
102
{ACAD_REACTORS
330
C
102
}
330
C
100
AcDbDictionary
281
     1
  0
DICTIONARY
  5
19B
102
{ACAD_REACTORS
330
C
102
}
330
C
100
AcDbDictionary
281
     1
  0
DICTIONARY
  5
2104
102
{ACAD_REACTORS
330
C
102
}
330
C
100
AcDbDictionary
281
     1
  3
ASEBlockHierarchyIndexRecord
350
2105
1001
DCO15
1040
1634890360.534
  0
DICTIONARY
  5
133E
102
{ACAD_REACTORS
330
256
102
}
330
256
100
AcDbDictionary
281
     1
  0
DICTIONARY
  5
257
102
{ACAD_REACTORS
330
256
102
}
330
256
100
AcDbDictionary
280
     1
281
     1
  0
XRECORD
  5
D41
102
{ACAD_REACTORS
330
1A2
102
}
330
1A2
100
AcDbXrecord
280
     1
290
     1
  0
XRECORD
  5
D4B
102
{ACAD_REACTORS
330
2C3
102
}
330
2C3
100
AcDbXrecord
280
     1
290
     1
  0
XRECORD
  5
D4C
102
{ACAD_REACTORS
330
2C5
102
}
330
2C5
100
AcDbXrecord
280
     1
290
     1
  0
XRECORD
  5
D4D
102
{ACAD_REACTORS
330
2C7
102
}
330
2C7
100
AcDbXrecord
280
     1
290
     1
  0
XRECORD
  5
D4E
102
{ACAD_REACTORS
330
2C9
102
}
330
2C9
100
AcDbXrecord
280
     1
290
     1
  0
XRECORD
  5
D4F
102
{ACAD_REACTORS
330
2CB
102
}
330
2CB
100
AcDbXrecord
280
     1
290
     1
  0
XRECORD
  5
D50
102
{ACAD_REACTORS
330
2CD
102
}
330
2CD
100
AcDbXrecord
280
     1
290
     1
  0
XRECORD
  5
D51
102
{ACAD_REACTORS
330
2CF
102
}
330
2CF
100
AcDbXrecord
280
     1
290
     1
  0
XRECORD
  5
D54
102
{ACAD_REACTORS
330
A1F
102
}
330
A1F
100
AcDbXrecord
280
     1
290
     1
  0
SORTENTSTABLE
  5
A89
102
{ACAD_REACTORS
330
A88
102
}
330
A88
100
AcDbSortentsTable
330
74
  0
DIMASSOC
  5
3082
102
{ACAD_REACTORS
330
3081
102
}
330
3081
100
AcDbDimAssoc
330
3080
 90
        3
 70
     0
 71
     0
  1
AcDbOsnapPointRef
 72
     6
331
303C
 73
     0
 91
        0
 40
1.0
 10
0.0
 20
0.0
 30
0.0
332
303D
 74
     0
 92
        0
 75
     0
  1
AcDbOsnapPointRef
 72
     6
331
3004
 73
     0
 91
        0
 40
0.0
 10
0.0
 20
0.0
 30
0.0
332
300F
 74
     0
 92
        0
 75
     0
  0
DIMASSOC
  5
3085
102
{ACAD_REACTORS
330
3084
102
}
330
3084
100
AcDbDimAssoc
330
3083
 90
        2
 70
     0
 71
     0
  1
AcDbOsnapPointRef
 72
     6
331
3011
 73
     0
 91
        0
 40
0.0
 10
0.0
 20
0.0
 30
0.0
332
3012
 74
     0
 92
        0
 75
     0
  0
DIMASSOC
  5
30AF
102
{ACAD_REACTORS
330
30AE
102
}
330
30AE
100
AcDbDimAssoc
330
30AD
 90
        3
 70
     0
 71
     0
  1
AcDbOsnapPointRef
 72
     6
331
3089
 73
     0
 91
        0
 40
0.9511265589127514
 10
0.0
 20
0.0
 30
0.0
332
308E
 74
     0
 92
        0
 75
     0
  1
AcDbOsnapPointRef
 72
     6
331
3089
 73
     0
 91
        0
 40
0.0448294684716265
 10
0.0
 20
0.0
 30
0.0
332
308E
 74
     0
 92
        0
 75
     0
  0
DIMASSOC
  5
30B2
102
{ACAD_REACTORS
330
30B1
102
}
330
30B1
100
AcDbDimAssoc
330
30B0
 90
        3
 70
     0
 71
     0
  1
AcDbOsnapPointRef
 72
     6
331
2FE5
 73
     0
 91
        0
 40
0.0298420414615271
 10
0.0
 20
0.0
 30
0.0
332
308D
 74
     0
 92
        0
 75
     0
  1
AcDbOsnapPointRef
 72
     6
331
308D
 73
     0
 91
        0
 40
0.7198878120603229
 10
0.0
 20
0.0
 30
0.0
332
3093
 74
     0
 92
        0
 75
     0
  0
DIMASSOC
  5
30B5
102
{ACAD_REACTORS
330
30B4
102
}
330
30B4
100
AcDbDimAssoc
330
30B3
 90
        3
 70
     0
 71
     0
  1
AcDbOsnapPointRef
 72
     6
331
2FE2
 73
     0
 91
        0
 40
1.0
 10
0.0
 20
0.0
 30
0.0
332
2FEA
 74
     0
 92
        0
 75
     0
  1
AcDbOsnapPointRef
 72
     6
331
2FE6
 73
     0
 91
        0
 40
1.0
 10
0.0
 20
0.0
 30
0.0
332
2FE9
 74
     0
 92
        0
 75
     0
  0
DIMASSOC
  5
30B9
102
{ACAD_REACTORS
330
30B8
102
}
330
30B8
100
AcDbDimAssoc
330
30B7
 90
        1
 70
     0
 71
     0
  1
AcDbOsnapPointRef
 72
    11
331
3001
 73
     0
 91
        0
 40
0.0400000000000004
 10
0.0
 20
0.0
 30
0.0
332
300A
 74
     0
 92
        0
 75
     0
  0
DIMASSOC
  5
3140
102
{ACAD_REACTORS
330
313F
102
}
330
313F
100
AcDbDimAssoc
330
3132
 90
        3
 70
     0
 71
     0
  1
AcDbOsnapPointRef
 72
    11
331
303A
 73
     0
 91
        0
 40
0.7370370405966125
 10
0.0
 20
0.0
 30
0.0
332
312D
 74
     0
 92
        0
 75
     0
  1
AcDbOsnapPointRef
 72
    11
331
303A
 73
     0
 91
        0
 40
0.2629629594026482
 10
0.0
 20
0.0
 30
0.0
332
312C
 74
     0
 92
        0
 75
     0
  0
DIMASSOC
  5
3197
102
{ACAD_REACTORS
330
3196
102
}
330
3196
100
AcDbDimAssoc
330
3189
 90
        3
 70
     0
 71
     0
  1
AcDbOsnapPointRef
 72
    11
331
3037
 73
     0
 91
        0
 40
0.0
 10
0.0
 20
0.0
 30
0.0
332
303B
 74
     0
 92
        0
 75
     0
  1
AcDbOsnapPointRef
 72
    11
331
303B
 73
     0
 91
        0
 40
1.000000000111849
 10
0.0
 20
0.0
 30
0.0
332
303F
 74
     0
 92
        0
 75
     0
  0
DIMASSOC
  5
31F0
102
{ACAD_REACTORS
330
31EF
102
}
330
31EF
100
AcDbDimAssoc
330
31E0
 90
        3
 70
     0
 71
     0
  1
AcDbOsnapPointRef
 72
    11
331
3037
 73
     0
 91
        0
 40
1.0
 10
0.0
 20
0.0
 30
0.0
332
3040
 74
     0
 92
        0
 75
     0
  1
AcDbOsnapPointRef
 72
    11
331
3025
 73
     0
 91
        0
 40
0.9999999999999998
 10
0.0
 20
0.0
 30
0.0
332
30B6
 74
     0
 92
        0
 75
     0
  0
DIMASSOC
  5
3217
102
{ACAD_REACTORS
330
3216
102
}
330
3216
100
AcDbDimAssoc
330
3207
 90
        2
 70
     0
 71
     0
  1
AcDbOsnapPointRef
 72
    11
331
3024
 73
     0
 91
        0
 40
1.0
 10
0.0
 20
0.0
 30
0.0
332
3028
 74
     0
 92
        0
 75
     0
  0
DIMASSOC
  5
323C
102
{ACAD_REACTORS
330
323B
102
}
330
323B
100
AcDbDimAssoc
330
322E
 90
        3
 70
     0
 71
     0
  1
AcDbOsnapPointRef
 72
    11
331
300B
 73
     0
 91
        0
 40
0.0399999999999958
 10
0.0
 20
0.0
 30
0.0
332
3013
 74
     0
 92
        0
 75
     0
  1
AcDbOsnapPointRef
 72
    11
331
3007
 73
     0
 91
        0
 40
0.0399999999999913
 10
0.0
 20
0.0
 30
0.0
332
3013
 74
     0
 92
        0
 75
     0
  0
XRECORD
  5
39BA
102
{ACAD_REACTORS
330
39B9
102
}
330
39B9
100
AcDbXrecord
280
     1
 40
1.570796326794896
  0
LAYOUT
  5
73
102
{ACAD_REACTORS
330
69
102
}
330
69
100
AcDbPlotSettings
  1

  2
\\OASE42\HP DesignJet 500 42+HPGL2 Card
  4

  6

 40
0.0
 41
0.0
 42
0.0
 43
0.0
 44
0.0
 45
0.0
 46
0.0
 47
0.0
 48
0.0
 49
0.0
140
0.0
141
0.0
142
1.0
143
1.0
 70
   688
 72
     0
 73
     0
 74
     5
  7
monochrome.ctb
 75
    16
147
1.0
 76
     0
 77
     2
 78
   300
148
0.0
149
0.0
100
AcDbLayout
  1
Layout1
 70
     1
 71
     1
 10
0.0
 20
0.0
 11
12.0
 21
9.0
 12
0.0
 22
0.0
 32
0.0
 14
1.000000000000000E+20
 24
1.000000000000000E+20
 34
1.000000000000000E+20
 15
-1.000000000000000E+20
 25
-1.000000000000000E+20
 35
-1.000000000000000E+20
146
0.0
 13
0.0
 23
0.0
 33
0.0
 16
1.0
 26
0.0
 36
0.0
 17
0.0
 27
1.0
 37
0.0
 76
     0
330
70
  0
LAYOUT
  5
77
102
{ACAD_REACTORS
330
69
102
}
330
69
100
AcDbPlotSettings
  1

  2
HP DesignJet 500 42+HPGL2 Card.pc3
  4
User622
  6

 40
0.0
 41
0.0845947265625
 42
0.084716796875
 43
0.0
 44
841.0786743164063
 45
1189.05859375
 46
0.0
 47
0.0
 48
0.0
 49
0.0
140
0.0
141
0.0
142
1.0
143
8.825566186707652
 70
 11952
 72
     1
 73
     1
 74
     0
  7
monochrome.ctb
 75
     0
147
0.1133071781282563
 76
     0
 77
     2
 78
   300
148
375.8176034259132
149
23.23337679269889
100
AcDbLayout
  1
Model
 70
     1
 71
     0
 10
0.0
 20
0.0
 11
12.0
 21
9.0
 12
0.0
 22
0.0
 32
0.0
 14
0.0
 24
0.0
 34
0.0
 15
0.0
 25
0.0
 35
0.0
146
0.0
 13
0.0
 23
0.0
 33
0.0
 16
1.0
 26
0.0
 36
0.0
 17
0.0
 27
1.0
 37
0.0
 76
     0
330
74
331
82
1001
ACAD_PSEXT
1000
HP DesignJet 500 42+HPGL2 Card.pc3
1000
HP DesignJet 500 42+HPGL2 Card
1000
\\oase42
1000

1070
     0
  0
MATERIAL
  5
19
102
{ACAD_XDICTIONARY
360
1A
102
}
102
{ACAD_REACTORS
330
10
102
}
330
10
100
AcDbMaterial
  1
ByBlock
 72
     0
 43
0.0208333333333333
 43
0.0
 43
0.0
 43
0.0
 43
0.0
 43
0.0208333333333333
 43
0.0
 43
0.0
 43
0.0
 43
0.0
 43
1.0
 43
0.0
 43
0.0
 43
0.0
 43
0.0
 43
1.0
 77
     0
 47
0.0208333333333333
 47
0.0
 47
0.0
 47
0.0
 47
0.0
 47
0.0208333333333333
 47
0.0
 47
0.0
 47
0.0
 47
0.0
 47
1.0
 47
0.0
 47
0.0
 47
0.0
 47
0.0
 47
1.0
171
     0
 49
0.0208333333333333
 49
0.0
 49
0.0
 49
0.0
 49
0.0
 49
0.0208333333333333
 49
0.0
 49
0.0
 49
0.0
 49
0.0
 49
1.0
 49
0.0
 49
0.0
 49
0.0
 49
0.0
 49
1.0
175
     0
142
0.0208333333333333
142
0.0
142
0.0
142
0.0
142
0.0
142
0.0208333333333333
142
0.0
142
0.0
142
0.0
142
0.0
142
1.0
142
0.0
142
0.0
142
0.0
142
0.0
142
1.0
179
     0
144
0.0208333333333333
144
0.0
144
0.0
144
0.0
144
0.0
144
0.0208333333333333
144
0.0
144
0.0
144
0.0
144
0.0
144
1.0
144
0.0
144
0.0
144
0.0
144
0.0
144
1.0
147
0.0208333333333333
147
0.0
147
0.0
147
0.0
147
0.0
147
0.0208333333333333
147
0.0
147
0.0
147
0.0
147
0.0
147
1.0
147
0.0
147
0.0
147
0.0
147
0.0
147
1.0
  0
MATERIAL
  5
11
102
{ACAD_XDICTIONARY
360
12
102
}
102
{ACAD_REACTORS
330
10
102
}
330
10
100
AcDbMaterial
  1
ByLayer
 72
     0
 43
0.0208333333333333
 43
0.0
 43
0.0
 43
0.0
 43
0.0
 43
0.0208333333333333
 43
0.0
 43
0.0
 43
0.0
 43
0.0
 43
1.0
 43
0.0
 43
0.0
 43
0.0
 43
0.0
 43
1.0
 77
     0
 47
0.0208333333333333
 47
0.0
 47
0.0
 47
0.0
 47
0.0
 47
0.0208333333333333
 47
0.0
 47
0.0
 47
0.0
 47
0.0
 47
1.0
 47
0.0
 47
0.0
 47
0.0
 47
0.0
 47
1.0
171
     0
 49
0.0208333333333333
 49
0.0
 49
0.0
 49
0.0
 49
0.0
 49
0.0208333333333333
 49
0.0
 49
0.0
 49
0.0
 49
0.0
 49
1.0
 49
0.0
 49
0.0
 49
0.0
 49
0.0
 49
1.0
175
     0
142
0.0208333333333333
142
0.0
142
0.0
142
0.0
142
0.0
142
0.0208333333333333
142
0.0
142
0.0
142
0.0
142
0.0
142
1.0
142
0.0
142
0.0
142
0.0
142
0.0
142
1.0
179
     0
144
0.0208333333333333
144
0.0
144
0.0
144
0.0
144
0.0
144
0.0208333333333333
144
0.0
144
0.0
144
0.0
144
0.0
144
1.0
144
0.0
144
0.0
144
0.0
144
0.0
144
1.0
147
0.0208333333333333
147
0.0
147
0.0
147
0.0
147
0.0
147
0.0208333333333333
147
0.0
147
0.0
147
0.0
147
0.0
147
1.0
147
0.0
147
0.0
147
0.0
147
0.0
147
1.0
  0
MATERIAL
  5
21
102
{ACAD_XDICTIONARY
360
22
102
}
102
{ACAD_REACTORS
330
10
102
}
330
10
100
AcDbMaterial
  1
Global
 72
     0
 43
0.0208333333333333
 43
0.0
 43
0.0
 43
0.0
 43
0.0
 43
0.0208333333333333
 43
0.0
 43
0.0
 43
0.0
 43
0.0
 43
1.0
 43
0.0
 43
0.0
 43
0.0
 43
0.0
 43
1.0
 77
     0
 47
0.0208333333333333
 47
0.0
 47
0.0
 47
0.0
 47
0.0
 47
0.0208333333333333
 47
0.0
 47
0.0
 47
0.0
 47
0.0
 47
1.0
 47
0.0
 47
0.0
 47
0.0
 47
0.0
 47
1.0
171
     0
 49
0.0208333333333333
 49
0.0
 49
0.0
 49
0.0
 49
0.0
 49
0.0208333333333333
 49
0.0
 49
0.0
 49
0.0
 49
0.0
 49
1.0
 49
0.0
 49
0.0
 49
0.0
 49
0.0
 49
1.0
175
     0
142
0.0208333333333333
142
0.0
142
0.0
142
0.0
142
0.0
142
0.0208333333333333
142
0.0
142
0.0
142
0.0
142
0.0
142
1.0
142
0.0
142
0.0
142
0.0
142
0.0
142
1.0
179
     0
144
0.0208333333333333
144
0.0
144
0.0
144
0.0
144
0.0
144
0.0208333333333333
144
0.0
144
0.0
144
0.0
144
0.0
144
1.0
144
0.0
144
0.0
144
0.0
144
0.0
144
1.0
147
0.0208333333333333
147
0.0
147
0.0
147
0.0
147
0.0
147
0.0208333333333333
147
0.0
147
0.0
147
0.0
147
0.0
147
1.0
147
0.0
147
0.0
147
0.0
147
0.0
147
1.0
  0
MLEADERSTYLE
  5
35C8
102
{ACAD_REACTORS
330
6D
102
}
330
6D
100
AcDbMLeaderStyle
170
     2
171
     1
172
     0
 90
        2
 40
0.0
 41
0.0
173
     1
 91
-1056964608
340
62
 92
       -2
290
     1
 42
2.0
291
     1
 43
0.36
  3
Standard
 44
4.0
300

342
5D
174
     1
178
     6
175
     1
176
     0
 93
-1056964608
 45
4.0
292
     0
297
     0
 46
4.0
 94
-1056964608
 47
1.0
 49
1.0
140
1.0
293
     1
141
0.0
294
     1
177
     0
142
1.0
295
     0
296
     0
143
0.125
1001
ACAD_MLEADERVER
1070
     2
  0
MLINESTYLE
  5
67
102
{ACAD_REACTORS
330
66
102
}
330
66
100
AcDbMlineStyle
  2
STANDARD
 70
     0
  3

 62
   256
 51
90.0
 52
90.0
 71
     2
 49
0.5
 62
   256
  6
BYLAYER
 49
-0.5
 62
   256
  6
BYLAYER
  0
ACDBPLACEHOLDER
  5
F
102
{ACAD_REACTORS
330
E
102
}
330
E
  0
SCALE
  5
3B
102
{ACAD_REACTORS
330
3A
102
}
330
3A
100
AcDbScale
 70
     0
300
1:1
140
1.0
141
1.0
290
     1
  0
SCALE
  5
3C
102
{ACAD_REACTORS
330
3A
102
}
330
3A
100
AcDbScale
 70
     0
300
1:2
140
1.0
141
2.0
290
     0
  0
SCALE
  5
3D
102
{ACAD_REACTORS
330
3A
102
}
330
3A
100
AcDbScale
 70
     0
300
1:4
140
1.0
141
4.0
290
     0
  0
SCALE
  5
3E
102
{ACAD_REACTORS
330
3A
102
}
330
3A
100
AcDbScale
 70
     0
300
1:5
140
1.0
141
5.0
290
     0
  0
SCALE
  5
3F
102
{ACAD_REACTORS
330
3A
102
}
330
3A
100
AcDbScale
 70
     0
300
1:8
140
1.0
141
8.0
290
     0
  0
SCALE
  5
40
102
{ACAD_REACTORS
330
3A
102
}
330
3A
100
AcDbScale
 70
     0
300
1:10
140
1.0
141
10.0
290
     0
  0
SCALE
  5
41
102
{ACAD_REACTORS
330
3A
102
}
330
3A
100
AcDbScale
 70
     0
300
1:16
140
1.0
141
16.0
290
     0
  0
SCALE
  5
42
102
{ACAD_REACTORS
330
3A
102
}
330
3A
100
AcDbScale
 70
     0
300
1:20
140
1.0
141
20.0
290
     0
  0
SCALE
  5
43
102
{ACAD_REACTORS
330
3A
102
}
330
3A
100
AcDbScale
 70
     0
300
1:30
140
1.0
141
30.0
290
     0
  0
SCALE
  5
44
102
{ACAD_REACTORS
330
3A
102
}
330
3A
100
AcDbScale
 70
     0
300
1:40
140
1.0
141
40.0
290
     0
  0
SCALE
  5
45
102
{ACAD_REACTORS
330
3A
102
}
330
3A
100
AcDbScale
 70
     0
300
1:50
140
1.0
141
50.0
290
     0
  0
SCALE
  5
46
102
{ACAD_REACTORS
330
3A
102
}
330
3A
100
AcDbScale
 70
     0
300
1:100
140
1.0
141
100.0
290
     0
  0
SCALE
  5
47
102
{ACAD_REACTORS
330
3A
102
}
330
3A
100
AcDbScale
 70
     0
300
2:1
140
2.0
141
1.0
290
     0
  0
SCALE
  5
48
102
{ACAD_REACTORS
330
3A
102
}
330
3A
100
AcDbScale
 70
     0
300
4:1
140
4.0
141
1.0
290
     0
  0
SCALE
  5
49
102
{ACAD_REACTORS
330
3A
102
}
330
3A
100
AcDbScale
 70
     0
300
8:1
140
8.0
141
1.0
290
     0
  0
SCALE
  5
4A
102
{ACAD_REACTORS
330
3A
102
}
330
3A
100
AcDbScale
 70
     0
300
10:1
140
10.0
141
1.0
290
     0
  0
SCALE
  5
4B
102
{ACAD_REACTORS
330
3A
102
}
330
3A
100
AcDbScale
 70
     0
300
100:1
140
100.0
141
1.0
290
     0
  0
SCALE
  5
4C
102
{ACAD_REACTORS
330
3A
102
}
330
3A
100
AcDbScale
 70
     0
300
1/128" = 1'-0"
140
0.0078125
141
12.0
290
     0
  0
SCALE
  5
4D
102
{ACAD_REACTORS
330
3A
102
}
330
3A
100
AcDbScale
 70
     0
300
1/64" = 1'-0"
140
0.015625
141
12.0
290
     0
  0
SCALE
  5
4E
102
{ACAD_REACTORS
330
3A
102
}
330
3A
100
AcDbScale
 70
     0
300
1/32" = 1'-0"
140
0.03125
141
12.0
290
     0
  0
SCALE
  5
4F
102
{ACAD_REACTORS
330
3A
102
}
330
3A
100
AcDbScale
 70
     0
300
1/16" = 1'-0"
140
0.0625
141
12.0
290
     0
  0
SCALE
  5
50
102
{ACAD_REACTORS
330
3A
102
}
330
3A
100
AcDbScale
 70
     0
300
3/32" = 1'-0"
140
0.09375
141
12.0
290
     0
  0
SCALE
  5
51
102
{ACAD_REACTORS
330
3A
102
}
330
3A
100
AcDbScale
 70
     0
300
1/8" = 1'-0"
140
0.125
141
12.0
290
     0
  0
SCALE
  5
52
102
{ACAD_REACTORS
330
3A
102
}
330
3A
100
AcDbScale
 70
     0
300
3/16" = 1'-0"
140
0.1875
141
12.0
290
     0
  0
SCALE
  5
53
102
{ACAD_REACTORS
330
3A
102
}
330
3A
100
AcDbScale
 70
     0
300
1/4" = 1'-0"
140
0.25
141
12.0
290
     0
  0
SCALE
  5
54
102
{ACAD_REACTORS
330
3A
102
}
330
3A
100
AcDbScale
 70
     0
300
3/8" = 1'-0"
140
0.375
141
12.0
290
     0
  0
SCALE
  5
55
102
{ACAD_REACTORS
330
3A
102
}
330
3A
100
AcDbScale
 70
     0
300
1/2" = 1'-0"
140
0.5
141
12.0
290
     0
  0
SCALE
  5
56
102
{ACAD_REACTORS
330
3A
102
}
330
3A
100
AcDbScale
 70
     0
300
3/4" = 1'-0"
140
0.75
141
12.0
290
     0
  0
SCALE
  5
57
102
{ACAD_REACTORS
330
3A
102
}
330
3A
100
AcDbScale
 70
     0
300
1" = 1'-0"
140
1.0
141
12.0
290
     0
  0
SCALE
  5
58
102
{ACAD_REACTORS
330
3A
102
}
330
3A
100
AcDbScale
 70
     0
300
1-1/2" = 1'-0"
140
1.5
141
12.0
290
     0
  0
SCALE
  5
59
102
{ACAD_REACTORS
330
3A
102
}
330
3A
100
AcDbScale
 70
     0
300
3" = 1'-0"
140
3.0
141
12.0
290
     0
  0
SCALE
  5
5A
102
{ACAD_REACTORS
330
3A
102
}
330
3A
100
AcDbScale
 70
     0
300
6" = 1'-0"
140
6.0
141
12.0
290
     0
  0
SCALE
  5
5B
102
{ACAD_REACTORS
330
3A
102
}
330
3A
100
AcDbScale
 70
     0
300
1'-0" = 1'-0"
140
12.0
141
12.0
290
     0
  0
TABLESTYLE
  5
6C
102
{ACAD_XDICTIONARY
360
1B2
102
}
102
{ACAD_REACTORS
330
6B
102
}
330
6B
100
AcDbTableStyle
  3
Standard
 70
     0
 71
     0
 40
0.06
 41
0.06
280
     0
281
     0
  7
STANDARD
140
0.18
170
     2
 62
     0
 63
     7
283
     0
274
    -2
284
     1
 64
     0
275
    -2
285
     1
 65
     0
276
    -2
286
     1
 66
     0
277
    -2
287
     1
 67
     0
278
    -2
288
     1
 68
     0
279
    -2
289
     1
 69
     0
  7
STANDARD
140
0.25
170
     5
 62
     0
 63
     7
283
     0
274
    -2
284
     1
 64
     0
275
    -2
285
     1
 65
     0
276
    -2
286
     1
 66
     0
277
    -2
287
     1
 67
     0
278
    -2
288
     1
 68
     0
279
    -2
289
     1
 69
     0
  7
STANDARD
140
0.18
170
     5
 62
     0
 63
     7
283
     0
274
    -2
284
     1
 64
     0
275
    -2
285
     1
 65
     0
276
    -2
286
     1
 66
     0
277
    -2
287
     1
 67
     0
278
    -2
288
     1
 68
     0
279
    -2
289
     1
 69
     0
  0
VISUALSTYLE
  5
2F
102
{ACAD_REACTORS
330
29
102
}
330
29
100
AcDbVisualStyle
  2
2dWireframe
 70
     4
 71
     0
 72
     2
 73
     0
 90
        0
 40
-0.6
 41
-30.0
 62
     5
 63
     7
 74
     1
 91
        4
 64
     7
 65
   257
 75
     1
175
     1
 42
1.0
 92
        0
 66
   257
 43
1.0
 76
     1
 77
     6
 78
     2
 67
     7
 79
     5
170
     0
171
     0
290
     0
174
     0
 93
        1
 44
0.0
173
     0
291
     0
 45
0.0
1001
ACAD
1000
AcDbSavedByObjectVersion
1070
     0
  0
VISUALSTYLE
  5
31
102
{ACAD_REACTORS
330
29
102
}
330
29
100
AcDbVisualStyle
  2
3D Hidden
 70
     6
 71
     1
 72
     2
 73
     2
 90
        0
 40
-0.6
 41
-30.0
 62
     5
 63
     7
 74
     2
 91
        2
 64
     7
 65
   257
 75
     2
175
     1
 42
40.0
 92
        0
 66
   257
 43
1.0
 76
     1
 77
     6
 78
     2
 67
     7
 79
     3
170
     0
171
     0
290
     0
174
     0
 93
        1
 44
0.0
173
     0
291
     0
 45
0.0
1001
ACAD
1000
AcDbSavedByObjectVersion
1070
     0
  0
VISUALSTYLE
  5
30
102
{ACAD_REACTORS
330
29
102
}
330
29
100
AcDbVisualStyle
  2
3dWireframe
 70
     5
 71
     0
 72
     2
 73
     0
 90
        0
 40
-0.6
 41
-30.0
 62
     5
 63
     7
 74
     1
 91
        4
 64
     7
 65
   257
 75
     1
175
     1
 42
1.0
 92
        0
 66
   257
 43
1.0
 76
     1
 77
     6
 78
     2
 67
     7
 79
     5
170
     0
171
     0
290
     0
174
     0
 93
        1
 44
0.0
173
     0
291
     0
 45
0.0
1001
ACAD
1000
AcDbSavedByObjectVersion
1070
     0
  0
VISUALSTYLE
  5
2E
102
{ACAD_REACTORS
330
29
102
}
330
29
100
AcDbVisualStyle
  2
Basic
 70
     7
 71
     1
 72
     0
 73
     1
 90
        0
 40
-0.6
 41
-30.0
 62
     5
 63
     7
 74
     0
 91
        4
 64
     7
 65
   257
 75
     1
175
     1
 42
1.0
 92
        8
 66
     7
 43
1.0
 76
     1
 77
     6
 78
     2
 67
     7
 79
     5
170
     0
171
     0
290
     0
174
     0
 93
        1
 44
0.0
173
     0
291
     1
 45
0.0
1001
ACAD
1000
AcDbSavedByObjectVersion
1070
     0
  0
VISUALSTYLE
  5
35
102
{ACAD_REACTORS
330
29
102
}
330
29
100
AcDbVisualStyle
  2
Brighten
 70
    12
 71
     2
 72
     2
 73
     0
 90
        0
 40
-0.6
 41
-30.0
 62
     5
 63
     7
 74
     1
 91
        4
 64
     7
 65
   257
 75
     1
175
     1
 42
1.0
 92
        8
 66
     7
 43
1.0
 76
     1
 77
     6
 78
     2
 67
     7
 79
     5
170
     0
171
     0
290
     0
174
     0
 93
        1
 44
50.0
173
     0
291
     1
 45
0.0
1001
ACAD
1000
AcDbSavedByObjectVersion
1070
     0
  0
VISUALSTYLE
  5
39
102
{ACAD_REACTORS
330
29
102
}
330
29
100
AcDbVisualStyle
  2
ColorChange
 70
    16
 71
     2
 72
     2
 73
     3
 90
        0
 40
-0.6
 41
-30.0
 62
     5
 63
     8
 74
     1
 91
        4
 64
     7
 65
   257
 75
     1
175
     1
 42
1.0
 92
        8
 66
     8
 43
1.0
 76
     1
 77
     6
 78
     2
 67
     7
 79
     5
170
     0
171
     0
290
     0
174
     0
 93
        1
 44
0.0
173
     0
291
     1
 45
0.0
1001
ACAD
1000
AcDbSavedByObjectVersion
1070
     0
  0
VISUALSTYLE
  5
32
102
{ACAD_REACTORS
330
29
102
}
330
29
100
AcDbVisualStyle
  2
Conceptual
 70
     9
 71
     3
 72
     2
 73
     0
 90
        0
 40
-0.6
 41
-30.0
 62
     5
 63
     7
 74
     2
 91
        2
 64
     7
 65
   257
 75
     1
175
     1
 42
40.0
 92
        8
 66
     7
 43
1.0
 76
     1
 77
     6
 78
     2
 67
     7
 79
     3
170
     0
171
     0
290
     0
174
     0
 93
        1
 44
0.0
173
     0
291
     0
 45
0.0
1001
ACAD
1000
AcDbSavedByObjectVersion
1070
     0
  0
VISUALSTYLE
  5
34
102
{ACAD_REACTORS
330
29
102
}
330
29
100
AcDbVisualStyle
  2
Dim
 70
    11
 71
     2
 72
     2
 73
     0
 90
        0
 40
-0.6
 41
-30.0
 62
     5
 63
     7
 74
     1
 91
        4
 64
     7
 65
   257
 75
     1
175
     1
 42
1.0
 92
        8
 66
     7
 43
1.0
 76
     1
 77
     6
 78
     2
 67
     7
 79
     5
170
     0
171
     0
290
     0
174
     0
 93
        1
 44
-50.0
173
     0
291
     1
 45
0.0
1001
ACAD
1000
AcDbSavedByObjectVersion
1070
     0
  0
VISUALSTYLE
  5
38
102
{ACAD_REACTORS
330
29
102
}
330
29
100
AcDbVisualStyle
  2
Facepattern
 70
    15
 71
     2
 72
     2
 73
     0
 90
        0
 40
-0.6
 41
-30.0
 62
     5
 63
     7
 74
     1
 91
        4
 64
     7
 65
   257
 75
     1
175
     1
 42
1.0
 92
        8
 66
     7
 43
1.0
 76
     1
 77
     6
 78
     2
 67
     7
 79
     5
170
     0
171
     0
290
     0
174
     0
 93
        1
 44
0.0
173
     0
291
     1
 45
0.0
1001
ACAD
1000
AcDbSavedByObjectVersion
1070
     0
  0
VISUALSTYLE
  5
2A
102
{ACAD_REACTORS
330
29
102
}
330
29
100
AcDbVisualStyle
  2
Flat
 70
     0
 71
     2
 72
     1
 73
     1
 90
        2
 40
-0.6
 41
30.0
 62
     5
 63
     7
 74
     0
 91
        4
 64
     7
 65
   257
 75
     1
175
     1
 42
1.0
 92
        8
 66
     7
 43
1.0
 76
     1
 77
     6
 78
     2
 67
     7
 79
     5
170
     0
171
     0
290
     0
174
     0
 93
       13
 44
0.0
173
     0
291
     1
 45
0.0
1001
ACAD
1000
AcDbSavedByObjectVersion
1070
     0
  0
VISUALSTYLE
  5
2B
102
{ACAD_REACTORS
330
29
102
}
330
29
100
AcDbVisualStyle
  2
FlatWithEdges
 70
     1
 71
     2
 72
     1
 73
     1
 90
        2
 40
-0.6
 41
30.0
 62
     5
 63
     7
 74
     1
 91
        4
 64
     7
 65
   257
 75
     1
175
     1
 42
1.0
 92
        0
 66
   257
 43
1.0
 76
     1
 77
     6
 78
     2
 67
     7
 79
     5
170
     0
171
     0
290
     0
174
     0
 93
       13
 44
0.0
173
     0
291
     1
 45
0.0
1001
ACAD
1000
AcDbSavedByObjectVersion
1070
     0
  0
VISUALSTYLE
  5
2C
102
{ACAD_REACTORS
330
29
102
}
330
29
100
AcDbVisualStyle
  2
Gouraud
 70
     2
 71
     2
 72
     2
 73
     1
 90
        2
 40
-0.6
 41
30.0
 62
     5
 63
     7
 74
     0
 91
        4
 64
     7
 65
   257
 75
     1
175
     1
 42
1.0
 92
        0
 66
     7
 43
1.0
 76
     1
 77
     6
 78
     2
 67
     7
 79
     5
170
     0
171
     0
290
     0
174
     0
 93
       13
 44
0.0
173
     0
291
     1
 45
0.0
1001
ACAD
1000
AcDbSavedByObjectVersion
1070
     0
  0
VISUALSTYLE
  5
2D
102
{ACAD_REACTORS
330
29
102
}
330
29
100
AcDbVisualStyle
  2
GouraudWithEdges
 70
     3
 71
     2
 72
     2
 73
     1
 90
        2
 40
-0.6
 41
30.0
 62
     5
 63
     7
 74
     1
 91
        4
 64
     7
 65
   257
 75
     1
175
     1
 42
1.0
 92
        0
 66
   257
 43
1.0
 76
     1
 77
     6
 78
     2
 67
     7
 79
     5
170
     0
171
     0
290
     0
174
     0
 93
       13
 44
0.0
173
     0
291
     1
 45
0.0
1001
ACAD
1000
AcDbSavedByObjectVersion
1070
     0
  0
VISUALSTYLE
  5
37
102
{ACAD_REACTORS
330
29
102
}
330
29
100
AcDbVisualStyle
  2
Linepattern
 70
    14
 71
     2
 72
     2
 73
     0
 90
        0
 40
-0.6
 41
-30.0
 62
     5
 63
     7
 74
     1
 91
        4
 64
     7
 65
   257
 75
     7
175
     7
 42
1.0
 92
        8
 66
     7
 43
1.0
 76
     1
 77
     6
 78
     2
 67
     7
 79
     5
170
     0
171
     0
290
     0
174
     0
 93
        1
 44
0.0
173
     0
291
     1
 45
0.0
1001
ACAD
1000
AcDbSavedByObjectVersion
1070
     0
  0
VISUALSTYLE
  5
33
102
{ACAD_REACTORS
330
29
102
}
330
29
100
AcDbVisualStyle
  2
Realistic
 70
     8
 71
     2
 72
     2
 73
     0
 90
        0
 40
-0.6
 41
-30.0
 62
     5
 63
     7
 74
     1
 91
        0
 64
     7
 65
   257
 75
     1
175
     1
 42
1.0
 92
        8
 66
     8
 43
1.0
 76
     1
 77
     6
 78
     2
 67
     7
 79
     5
170
     0
171
     0
290
     0
174
     0
 93
       13
 44
0.0
173
     0
291
     0
 45
0.0
1001
ACAD
1000
AcDbSavedByObjectVersion
1070
     0
  0
VISUALSTYLE
  5
36
102
{ACAD_REACTORS
330
29
102
}
330
29
100
AcDbVisualStyle
  2
Thicken
 70
    13
 71
     2
 72
     2
 73
     0
 90
        0
 40
-0.6
 41
-30.0
 62
     5
 63
     7
 74
     1
 91
        4
 64
     7
 65
   257
 75
     1
175
     1
 42
1.0
 92
       12
 66
     7
 43
1.0
 76
     1
 77
     6
 78
     2
 67
     7
 79
     5
170
     0
171
     0
290
     0
174
     0
 93
        1
 44
0.0
173
     0
291
     1
 45
0.0
1001
ACAD
1000
AcDbSavedByObjectVersion
1070
     0
  0
DICTIONARYVAR
  5
1CC
102
{ACAD_REACTORS
330
1C9
102
}
330
1C9
100
DictionaryVariables
280
     0
  1
1:1
  0
DICTIONARYVAR
  5
1CB
102
{ACAD_REACTORS
330
1C9
102
}
330
1C9
100
DictionaryVariables
280
     0
  1
STANDARD
  0
DICTIONARYVAR
  5
1CA
102
{ACAD_REACTORS
330
1C9
102
}
330
1C9
100
DictionaryVariables
280
     0
  1
STANDARD
  0
DICTIONARYVAR
  5
1CF
102
{ACAD_REACTORS
330
1C9
102
}
330
1C9
100
DictionaryVariables
280
     0
  1
1
  0
DICTIONARYVAR
  5
1CE
102
{ACAD_REACTORS
330
1C9
102
}
330
1C9
100
DictionaryVariables
280
     0
  1
0
  0
DICTIONARYVAR
  5
2D3
102
{ACAD_REACTORS
330
1C9
102
}
330
1C9
100
DictionaryVariables
280
     0
  1
0
  0
DICTIONARYVAR
  5
2D2
102
{ACAD_REACTORS
330
1C9
102
}
330
1C9
100
DictionaryVariables
280
     0
  1
0
  0
DICTIONARYVAR
  5
1CD
102
{ACAD_REACTORS
330
1C9
102
}
330
1C9
100
DictionaryVariables
280
     0
  1
127
  0
DICTIONARY
  5
2B6
102
{ACAD_REACTORS
330
166
102
}
330
166
100
AcDbDictionary
281
     1
  0
DICTIONARY
  5
171
102
{ACAD_REACTORS
330
166
102
}
330
166
100
AcDbDictionary
281
     1
  0
XRECORD
  5
186
102
{ACAD_REACTORS
330
166
102
}
330
166
100
AcDbXrecord
280
     1
 90
-1023410169
  0
XRECORD
  5
2105
102
{ACAD_REACTORS
330
2104
102
}
330
2104
100
AcDbXrecord
280
     1
330
277C
330
1288
330
116D
330
3BC
330
B3D
  0
DICTIONARY
  5
1A
330
19
100
AcDbDictionary
280
     1
281
     1
  3
ACAD_XREC_ROUNDTRIP
360
39BC
  3
BUMPTILE
360
1C
  3
DIFFUSETILE
360
1B
  3
OPACITYTILE
360
1F
  3
REFLECTIONTILE
360
1E
  3
REFRACTIONTILE
360
20
  3
SPECULARTILE
360
1D
  0
DICTIONARY
  5
12
330
11
100
AcDbDictionary
280
     1
281
     1
  3
ACAD_XREC_ROUNDTRIP
360
39BB
  3
BUMPTILE
360
14
  3
DIFFUSETILE
360
13
  3
OPACITYTILE
360
17
  3
REFLECTIONTILE
360
16
  3
REFRACTIONTILE
360
18
  3
SPECULARTILE
360
15
  0
DICTIONARY
  5
22
330
21
100
AcDbDictionary
280
     1
281
     1
  3
ACAD_XREC_ROUNDTRIP
360
39BD
  3
BUMPTILE
360
24
  3
DIFFUSETILE
360
23
  3
OPACITYTILE
360
27
  3
REFLECTIONTILE
360
26
  3
REFRACTIONTILE
360
28
  3
SPECULARTILE
360
25
  0
DICTIONARY
  5
1B2
330
6C
100
AcDbDictionary
280
     1
281
     1
  3
ACAD_ROUNDTRIP_2008_TABLESTYLE_CELLSTYLEMAP
360
39B8
  3
ACAD_XREC_ROUNDTRIP
360
39BE
  0
XRECORD
  5
39BC
102
{ACAD_REACTORS
330
1A
102
}
330
1A
100
AcDbXrecord
280
     1
102
MATERIAL
148
0.0
149
0.0
149
0.0
 93
        0
 94
      127
282
     0
 72
     0
 77
     0
171
     0
175
     0
179
     0
273
     0
  0
XRECORD
  5
1C
102
{ACAD_REACTORS
330
1A
102
}
330
1A
100
AcDbXrecord
280
     1
270
     1
271
     1
  0
XRECORD
  5
1B
102
{ACAD_REACTORS
330
1A
102
}
330
1A
100
AcDbXrecord
280
     1
270
     1
271
     1
  0
XRECORD
  5
1F
102
{ACAD_REACTORS
330
1A
102
}
330
1A
100
AcDbXrecord
280
     1
270
     1
271
     1
  0
XRECORD
  5
1E
102
{ACAD_REACTORS
330
1A
102
}
330
1A
100
AcDbXrecord
280
     1
270
     1
271
     1
  0
XRECORD
  5
20
102
{ACAD_REACTORS
330
1A
102
}
330
1A
100
AcDbXrecord
280
     1
270
     1
271
     1
  0
XRECORD
  5
1D
102
{ACAD_REACTORS
330
1A
102
}
330
1A
100
AcDbXrecord
280
     1
270
     1
271
     1
  0
XRECORD
  5
39BB
102
{ACAD_REACTORS
330
12
102
}
330
12
100
AcDbXrecord
280
     1
102
MATERIAL
148
0.0
149
0.0
149
0.0
 93
        0
 94
      127
282
     0
 72
     0
 77
     0
171
     0
175
     0
179
     0
273
     0
  0
XRECORD
  5
14
102
{ACAD_REACTORS
330
12
102
}
330
12
100
AcDbXrecord
280
     1
270
     1
271
     1
  0
XRECORD
  5
13
102
{ACAD_REACTORS
330
12
102
}
330
12
100
AcDbXrecord
280
     1
270
     1
271
     1
  0
XRECORD
  5
17
102
{ACAD_REACTORS
330
12
102
}
330
12
100
AcDbXrecord
280
     1
270
     1
271
     1
  0
XRECORD
  5
16
102
{ACAD_REACTORS
330
12
102
}
330
12
100
AcDbXrecord
280
     1
270
     1
271
     1
  0
XRECORD
  5
18
102
{ACAD_REACTORS
330
12
102
}
330
12
100
AcDbXrecord
280
     1
270
     1
271
     1
  0
XRECORD
  5
15
102
{ACAD_REACTORS
330
12
102
}
330
12
100
AcDbXrecord
280
     1
270
     1
271
     1
  0
XRECORD
  5
39BD
102
{ACAD_REACTORS
330
22
102
}
330
22
100
AcDbXrecord
280
     1
102
MATERIAL
148
0.0
149
0.0
149
0.0
 93
        0
 94
      127
282
     0
 72
     0
 77
     0
171
     0
175
     0
179
     0
273
     0
  0
XRECORD
  5
24
102
{ACAD_REACTORS
330
22
102
}
330
22
100
AcDbXrecord
280
     1
270
     1
271
     1
  0
XRECORD
  5
23
102
{ACAD_REACTORS
330
22
102
}
330
22
100
AcDbXrecord
280
     1
270
     1
271
     1
  0
XRECORD
  5
27
102
{ACAD_REACTORS
330
22
102
}
330
22
100
AcDbXrecord
280
     1
270
     1
271
     1
  0
XRECORD
  5
26
102
{ACAD_REACTORS
330
22
102
}
330
22
100
AcDbXrecord
280
     1
270
     1
271
     1
  0
XRECORD
  5
28
102
{ACAD_REACTORS
330
22
102
}
330
22
100
AcDbXrecord
280
     1
270
     1
271
     1
  0
XRECORD
  5
25
102
{ACAD_REACTORS
330
22
102
}
330
22
100
AcDbXrecord
280
     1
270
     1
271
     1
  0
CELLSTYLEMAP
  5
39B8
102
{ACAD_REACTORS
330
1B2
102
}
330
1B2
100
AcDbCellStyleMap
 90
        3
300
CELLSTYLE
  1
TABLEFORMAT_BEGIN
 90
        5
170
     1
 91
        0
 92
    32768
 62
   257
 93
        1
300
CONTENTFORMAT
  1
CONTENTFORMAT_BEGIN
 90
        0
 91
        0
 92
      512
 93
        0
300

 40
0.0
140
1.0
 94
        5
 62
     0
340
5D
144
0.25
309
CONTENTFORMAT_END
171
     0
 94
        0
309
TABLEFORMAT_END
  1
CELLSTYLE_BEGIN
 90
        1
 91
        1
300
_TITLE
309
CELLSTYLE_END
300
CELLSTYLE
  1
TABLEFORMAT_BEGIN
 90
        5
170
     1
 91
        0
 92
        0
 62
   257
 93
        1
300
CONTENTFORMAT
  1
CONTENTFORMAT_BEGIN
 90
        0
 91
        0
 92
      512
 93
        0
300

 40
0.0
140
1.0
 94
        5
 62
     0
340
5D
144
0.18
309
CONTENTFORMAT_END
171
     0
 94
        0
309
TABLEFORMAT_END
  1
CELLSTYLE_BEGIN
 90
        2
 91
        1
300
_HEADER
309
CELLSTYLE_END
300
CELLSTYLE
  1
TABLEFORMAT_BEGIN
 90
        5
170
     1
 91
        0
 92
        0
 62
   257
 93
        1
300
CONTENTFORMAT
  1
CONTENTFORMAT_BEGIN
 90
        0
 91
        0
 92
      512
 93
        0
300

 40
0.0
140
1.0
 94
        2
 62
     0
340
5D
144
0.18
309
CONTENTFORMAT_END
171
     0
 94
        0
309
TABLEFORMAT_END
  1
CELLSTYLE_BEGIN
 90
        3
 91
        2
300
_DATA
309
CELLSTYLE_END
  0
XRECORD
  5
39BE
102
{ACAD_REACTORS
330
1B2
102
}
330
1B2
100
AcDbXrecord
280
     1
102
ACAD_ROUNDTRIP_PRE2007_TABLESTYLE
 90
      512
 91
        0
  1

 92
      512
 93
        0
  2

 94
      512
 95
        0
  3

  0
ENDSEC
  0
EOF
