  0
SECTION
  2
HEADER
  9
$ACADVER
  1
AC1018
  9
$ACADMAINTVER
 70
   104
  9
$DWGCODEPAGE
  3
ANSI_1252
  9
$LASTSAVEDBY
  1
guzb562
  9
$INSBASE
 10
0.0
 20
0.0
 30
0.0
  9
$EXTMIN
 10
17.25786680561941
 20
177.0228095255918
 30
-0.0000000000000058
  9
$EXTMAX
 10
270.7778684756608
 20
740.7610857407357
 30
0.0000000000000104
  9
$LIMMIN
 10
-0.0000000000001137
 20
0.0
  9
$LIMMAX
 10
1188.0
 20
840.0
  9
$ORTHOMODE
 70
     0
  9
$REGENMODE
 70
     1
  9
$FILLMODE
 70
     1
  9
$QTEXTMODE
 70
     0
  9
$MIRRTEXT
 70
     1
  9
$LTSCALE
 40
2.0
  9
$ATTMODE
 70
     1
  9
$TEXTSIZE
 40
7.5
  9
$TRACEWID
 40
1.0
  9
$TEXTSTYLE
  7
STANDARD
  9
$CLAYER
  8
AM_0 ( Kontur 0.5 )
  9
$CELTYPE
  6
ByLayer
  9
$CECOLOR
 62
   256
  9
$CELTSCALE
 40
1.0
  9
$DISPSILH
 70
     0
  9
$DIMSCALE
 40
2.0
  9
$DIMASZ
 40
5.0
  9
$DIMEXO
 40
1.0
  9
$DIMDLI
 40
10.0
  9
$DIMRND
 40
0.0
  9
$DIMDLE
 40
0.0
  9
$DIMEXE
 40
1.0
  9
$DIMTP
 40
0.1
  9
$DIMTM
 40
0.1
  9
$DIMTXT
 40
5.0
  9
$DIMCEN
 40
0.0
  9
$DIMTSZ
 40
0.0
  9
$DIMTOL
 70
     0
  9
$DIMLIM
 70
     0
  9
$DIMTIH
 70
     0
  9
$DIMTOH
 70
     0
  9
$DIMSE1
 70
     0
  9
$DIMSE2
 70
     0
  9
$DIMTAD
 70
     1
  9
$DIMZIN
 70
     8
  9
$DIMBLK
  1

  9
$DIMASO
 70
     1
  9
$DIMSHO
 70
     1
  9
$DIMPOST
  1

  9
$DIMAPOST
  1
"
  9
$DIMALT
 70
     0
  9
$DIMALTD
 70
     2
  9
$DIMALTF
 40
0.0393701
  9
$DIMLFAC
 40
1.0
  9
$DIMTOFL
 70
     1
  9
$DIMTVP
 40
0.0
  9
$DIMTIX
 70
     0
  9
$DIMSOXD
 70
     0
  9
$DIMSAH
 70
     0
  9
$DIMBLK1
  1

  9
$DIMBLK2
  1

  9
$DIMSTYLE
  2
AM_DIN
  9
$DIMCLRD
 70
   256
  9
$DIMCLRE
 70
   256
  9
$DIMCLRT
 70
     2
  9
$DIMTFAC
 40
0.71
  9
$DIMGAP
 40
1.5
  9
$DIMJUST
 70
     0
  9
$DIMSD1
 70
     0
  9
$DIMSD2
 70
     0
  9
$DIMTOLJ
 70
     0
  9
$DIMTZIN
 70
     8
  9
$DIMALTZ
 70
     0
  9
$DIMALTTZ
 70
     0
  9
$DIMUPT
 70
     0
  9
$DIMDEC
 70
     2
  9
$DIMTDEC
 70
     2
  9
$DIMALTU
 70
     2
  9
$DIMALTTD
 70
     2
  9
$DIMTXSTY
  7
STANDARD
  9
$DIMAUNIT
 70
     0
  9
$DIMADEC
 70
     0
  9
$DIMALTRND
 40
0.0
  9
$DIMAZIN
 70
     2
  9
$DIMDSEP
 70
    46
  9
$DIMATFIT
 70
     3
  9
$DIMFRAC
 70
     0
  9
$DIMLDRBLK
  1

  9
$DIMLUNIT
 70
     2
  9
$DIMLWD
 70
    -1
  9
$DIMLWE
 70
    -1
  9
$DIMTMOVE
 70
     0
  9
$LUNITS
 70
     2
  9
$LUPREC
 70
     2
  9
$SKETCHINC
 40
1.0
  9
$FILLETRAD
 40
5.0
  9
$AUNITS
 70
     0
  9
$AUPREC
 70
     0
  9
$MENU
  1
ACAD
  9
$ELEVATION
 40
0.0
  9
$PELEVATION
 40
0.0
  9
$THICKNESS
 40
0.0
  9
$LIMCHECK
 70
     0
  9
$CHAMFERA
 40
5.0
  9
$CHAMFERB
 40
5.0
  9
$CHAMFERC
 40
0.0
  9
$CHAMFERD
 40
0.0
  9
$SKPOLY
 70
     0
  9
$TDCREATE
 40
2454700.428464931
  9
$TDUCREATE
 40
2454700.345131597
  9
$TDUPDATE
 40
2454736.354397049
  9
$TDUUPDATE
 40
2454736.271063715
  9
$TDINDWG
 40
0.4494150579
  9
$TDUSRTIMER
 40
0.4494137963
  9
$USRTIMER
 70
     1
  9
$ANGBASE
 50
0.0
  9
$ANGDIR
 70
     0
  9
$PDMODE
 70
     0
  9
$PDSIZE
 40
0.0
  9
$PLINEWID
 40
0.0
  9
$SPLFRAME
 70
     0
  9
$SPLINETYPE
 70
     6
  9
$SPLINESEGS
 70
    12
  9
$HANDSEED
  5
5D60
  9
$SURFTAB1
 70
     6
  9
$SURFTAB2
 70
     6
  9
$SURFTYPE
 70
     6
  9
$SURFU
 70
     6
  9
$SURFV
 70
     6
  9
$UCSBASE
  2

  9
$UCSNAME
  2

  9
$UCSORG
 10
0.0
 20
0.0
 30
0.0
  9
$UCSXDIR
 10
1.0
 20
0.0
 30
0.0
  9
$UCSYDIR
 10
0.0
 20
1.0
 30
0.0
  9
$UCSORTHOREF
  2

  9
$UCSORTHOVIEW
 70
     0
  9
$UCSORGTOP
 10
0.0
 20
0.0
 30
0.0
  9
$UCSORGBOTTOM
 10
0.0
 20
0.0
 30
0.0
  9
$UCSORGLEFT
 10
0.0
 20
0.0
 30
0.0
  9
$UCSORGRIGHT
 10
0.0
 20
0.0
 30
0.0
  9
$UCSORGFRONT
 10
0.0
 20
0.0
 30
0.0
  9
$UCSORGBACK
 10
0.0
 20
0.0
 30
0.0
  9
$PUCSBASE
  2

  9
$PUCSNAME
  2

  9
$PUCSORG
 10
0.0
 20
0.0
 30
0.0
  9
$PUCSXDIR
 10
1.0
 20
0.0
 30
0.0
  9
$PUCSYDIR
 10
0.0
 20
1.0
 30
0.0
  9
$PUCSORTHOREF
  2

  9
$PUCSORTHOVIEW
 70
     0
  9
$PUCSORGTOP
 10
0.0
 20
0.0
 30
0.0
  9
$PUCSORGBOTTOM
 10
0.0
 20
0.0
 30
0.0
  9
$PUCSORGLEFT
 10
0.0
 20
0.0
 30
0.0
  9
$PUCSORGRIGHT
 10
0.0
 20
0.0
 30
0.0
  9
$PUCSORGFRONT
 10
0.0
 20
0.0
 30
0.0
  9
$PUCSORGBACK
 10
0.0
 20
0.0
 30
0.0
  9
$USERI1
 70
     0
  9
$USERI2
 70
     0
  9
$USERI3
 70
     0
  9
$USERI4
 70
     0
  9
$USERI5
 70
     0
  9
$USERR1
 40
0.0
  9
$USERR2
 40
0.0
  9
$USERR3
 40
0.0
  9
$USERR4
 40
0.0
  9
$USERR5
 40
0.0
  9
$WORLDVIEW
 70
     1
  9
$SHADEDGE
 70
     3
  9
$SHADEDIF
 70
    70
  9
$TILEMODE
 70
     1
  9
$MAXACTVP
 70
    64
  9
$PINSBASE
 10
0.0
 20
0.0
 30
0.0
  9
$PLIMCHECK
 70
     0
  9
$PEXTMIN
 10
1.000000000000000E+20
 20
1.000000000000000E+20
 30
1.000000000000000E+20
  9
$PEXTMAX
 10
-1.000000000000000E+20
 20
-1.000000000000000E+20
 30
-1.000000000000000E+20
  9
$PLIMMIN
 10
0.0
 20
0.0
  9
$PLIMMAX
 10
12.0
 20
9.0
  9
$UNITMODE
 70
     0
  9
$VISRETAIN
 70
     1
  9
$PLINEGEN
 70
     0
  9
$PSLTSCALE
 70
     1
  9
$TREEDEPTH
 70
  3020
  9
$CMLSTYLE
  2
Standard
  9
$CMLJUST
 70
     0
  9
$CMLSCALE
 40
1.0
  9
$PROXYGRAPHICS
 70
     1
  9
$MEASUREMENT
 70
     1
  9
$CELWEIGHT
370
    -1
  9
$ENDCAPS
280
     0
  9
$JOINSTYLE
280
     0
  9
$LWDISPLAY
290
     0
  9
$INSUNITS
 70
     4
  9
$HYPERLINKBASE
  1

  9
$STYLESHEET
  1
monochrome.ctb
  9
$XEDIT
290
     1
  9
$CEPSNTYPE
380
     0
  9
$PSTYLEMODE
290
     1
  9
$FINGERPRINTGUID
  2
{A244BD39-8012-4BE3-ABCB-38099E279B62}
  9
$VERSIONGUID
  2
{FD06509B-D4D5-413D-8F88-15FBB8AD6E9D}
  9
$EXTNAMES
290
     1
  9
$PSVPSCALE
 40
0.0
  9
$OLESTARTUP
290
     0
  9
$SORTENTS
280
   127
  9
$INDEXCTL
280
     0
  9
$HIDETEXT
280
     0
  9
$XCLIPFRAME
290
     0
  9
$HALOGAP
280
     0
  9
$OBSCOLOR
 70
   257
  9
$OBSLTYPE
280
     0
  9
$INTERSECTIONDISPLAY
280
     0
  9
$INTERSECTIONCOLOR
 70
   257
  9
$DIMASSOC
280
     2
  9
$PROJECTNAME
  1

  0
ENDSEC
  0
SECTION
  2
CLASSES
  0
CLASS
  1
ACDBDICTIONARYWDFLT
  2
AcDbDictionaryWithDefault
  3
ObjectDBX Classes
 90
        0
 91
        1
280
     0
281
     0
  0
CLASS
  1
MATERIAL
  2
AcDbMaterial
  3
ObjectDBX Classes
 90
     1153
 91
        3
280
     0
281
     0
  0
CLASS
  1
VISUALSTYLE
  2
AcDbVisualStyle
  3
ObjectDBX Classes
 90
     4095
 91
       16
280
     0
281
     0
  0
CLASS
  1
SCALE
  2
AcDbScale
  3
ObjectDBX Classes
 90
     1153
 91
       33
280
     0
281
     0
  0
CLASS
  1
TABLESTYLE
  2
AcDbTableStyle
  3
ObjectDBX Classes
 90
     4095
 91
        1
280
     0
281
     0
  0
CLASS
  1
MLEADERSTYLE
  2
AcDbMLeaderStyle
  3
ACDB_MLEADERSTYLE_CLASS
 90
     4095
 91
        1
280
     0
281
     0
  0
CLASS
  1
AMGSETTINGSOBJ
  2
AmgSettingsObj
  3
"AcadM|Product Description: AutoCAD Mechanical|Company: Autodesk, Inc."
 90
     1024
 91
        4
280
     0
281
     0
  0
CLASS
  1
ACME_DOCUMENT
  2
AcMeDbDoc
  3
AcMeServices
 90
     1024
 91
        2
280
     0
281
     0
  0
CLASS
  1
ACMESCOPE
  2
AcMeScope
  3
AcMeServices
 90
     1024
 91
        1
280
     0
281
     0
  0
CLASS
  1
ACMECOMMANDHISTORY
  2
AcMeCommandHistory
  3
AcMeServices
 90
     1024
 91
        1
280
     0
281
     0
  0
CLASS
  1
ACIMSYSVARMAN
  2
AcImSysVarManager
  3
AcMeServices
 90
     1024
 91
        5
280
     0
281
     0
  0
CLASS
  1
ACIMINTSYSVAR
  2
AcImIntSysVar
  3
AcMeServices
 90
     1024
 91
       29
280
     0
281
     0
  0
CLASS
  1
ACMEDRAWINGMAN
  2
AcMeDrawingMan
  3
AcMeServices
 90
     1024
 91
        1
280
     0
281
     0
  0
CLASS
  1
ACMEVIEW
  2
AcMeView
  3
AcMeServices
 90
     1024
 91
        1
280
     0
281
     0
  0
CLASS
  1
ACDBENTITYCACHE
  2
AcMeEntityCache
  3
AcMeServices
 90
     1024
 91
        1
280
     0
281
     0
  0
CLASS
  1
GSMANAGER
  2
AcMeGSManager
  3
AcMeServices
 90
     1024
 91
        1
280
     0
281
     0
  0
CLASS
  1
AMDTINTERNALREACTOR
  2
AmdtInternalReactor
  3
AcMeServices
 90
     1024
 91
       11
280
     0
281
     0
  0
CLASS
  1
ACMESTATEMGR
  2
AcMeStateMgr
  3
AcMeServices
 90
     1024
 91
        1
280
     0
281
     0
  0
CLASS
  1
ACGREFMASTER
  2
AcGrefMaster
  3
AcAttribServices
 90
     1024
 91
        1
280
     0
281
     0
  0
CLASS
  1
AM_DRAWING_MGR
  2
AcDmDwgMgr
  3
AcMechDwgViewMgmt
 90
     1024
 91
        1
280
     0
281
     0
  0
CLASS
  1
AM_DWG_DOCUMENT
  2
AcDmDwgDocument
  3
AcMechDwgViewMgmt
 90
     1024
 91
        1
280
     0
281
     0
  0
CLASS
  1
AM_DWG_SHEET
  2
AcDmSheet
  3
AcMechDwgViewMgmt
 90
     1024
 91
        1
280
     0
281
     0
  0
CLASS
  1
AM_VIEWDIMPARMAP
  2
AcDmViewDimParMap
  3
AcMechDwgViewMgmt
 90
     1024
 91
        1
280
     0
281
     0
  0
CLASS
  1
ACIMREALSYSVAR
  2
AcImRealSysVar
  3
AcMeServices
 90
     1024
 91
        1
280
     0
281
     0
  0
CLASS
  1
AM_DWGMGR_NAME
  2
AcDmDwgMgrName
  3
AcMechDwgViewMgmt
 90
     1024
 91
        1
280
     0
281
     0
  0
CLASS
  1
ACME_DATABASE
  2
AcMeDbDatabase
  3
AcMeServices
 90
     1024
 91
        1
280
     0
281
     0
  0
CLASS
  1
ACRFINSADJUSTERMGR
  2
AcRfInsAdjusterMgr
  3
AcMeServices
 90
     1024
 91
        1
280
     0
281
     0
  0
CLASS
  1
ACGREFACADMASTER
  2
AcGrefacadMaster
  3
AcGrefServices
 90
     1024
 91
        1
280
     0
281
     0
  0
CLASS
  1
AMDTMENUSTATEMGR
  2
AmdtMenuStateMgr
  3
McadcomServices
 90
     1024
 91
        1
280
     0
281
     0
  0
CLASS
  1
AMDTMCOMMENUSTATE
  2
AmdtMcomMenuState
  3
McadcomServices
 90
     1024
 91
        1
280
     0
281
     0
  0
CLASS
  1
AMIMASTER
  2
AmiMaster
  3
AmiServices
 90
     1024
 91
        1
280
     0
281
     0
  0
CLASS
  1
MAPIAMMOUDLE
  2
MApiAmModule
  3
MApiAmServices
 90
     1024
 91
        1
280
     0
281
     0
  0
CLASS
  1
ACIMSTRSYSVAR
  2
AcImStrSysVar
  3
AcMeServices
 90
     1024
 91
        5
280
     0
281
     0
  0
CLASS
  1
AMDTADMENUSTATE
  2
AmdtAdMenuState
  3
DesignerServices
 90
     1024
 91
        1
280
     0
281
     0
  0
CLASS
  1
ADAPPL
  2
AcAdAppl
  3
DesignerServices
 90
     1024
 91
        1
280
     0
281
     0
  0
CLASS
  1
DEPMGR
  2
AcAdDepMgr
  3
DesignerServices
 90
     1024
 91
        1
280
     0
281
     0
  0
CLASS
  1
PARAMMGR
  2
AcAdParamMgr
  3
DesignerServices
 90
     1024
 91
        1
280
     0
281
     0
  0
CLASS
  1
PARAMSCOPE
  2
AcAdParamScope
  3
DesignerServices
 90
     1024
 91
        1
280
     0
281
     0
  0
CLASS
  1
NAMEDAPPL
  2
AcAdNamedAppl
  3
DesignerServices
 90
     1024
 91
        1
280
     0
281
     0
  0
CLASS
  1
AMDTDMMENUSTATE
  2
AmdtDmMenuState
  3
AcMechDwgViewMgmt
 90
     1024
 91
        1
280
     0
281
     0
  0
CLASS
  1
AMDTAMMENUSTATE
  2
AmdtAmMenuState
  3
DesignerAssemblies
 90
     1024
 91
        1
280
     0
281
     0
  0
CLASS
  1
ACAMPROJECT
  2
AcAmProject
  3
DesignerAssemblies
 90
     1024
 91
        1
280
     0
281
     0
  0
CLASS
  1
ACAMGRCOMPDEF
  2
AcAmGrCompDef
  3
DesignerAssemblies
 90
     1024
 91
        1
280
     0
281
     0
  0
CLASS
  1
ACCMCONTEXT
  2
AcCmContext
  3
DesignerAssemblies
 90
     1024
 91
        1
280
     0
281
     0
  0
CLASS
  1
ACAMCOMPDEF
  2
AcAmCompDef
  3
DesignerAssemblies
 90
     1024
 91
        1
280
     0
281
     0
  0
CLASS
  1
ACAMCOMPDEFMGR
  2
AcAmCompDefMgr
  3
DesignerAssemblies
 90
     1024
 91
        1
280
     0
281
     0
  0
CLASS
  1
AMCONTEXTMGR
  2
AcAmContextMgr
  3
DesignerAssemblies
 90
     1024
 91
        1
280
     0
281
     0
  0
CLASS
  1
ACAMCONTEXTMODELER
  2
AcAmContextModeler
  3
DesignerAssemblies
 90
     1024
 91
        1
280
     0
281
     0
  0
CLASS
  1
ACMDATADICTIONARY
  2
AcmDataDictionary
  3
"AcmSymBB|Product Description: AutoCAD Mechanical|Company: Autodesk, Inc."
 90
     1024
 91
        1
280
     0
281
     0
  0
CLASS
  1
CATALOGSTATE
  2
AcAmCatalogState
  3
DesignerAssemblies
 90
     1024
 91
        1
280
     0
281
     0
  0
CLASS
  1
ACAMGRCOMPDEFSET
  2
AcAmGrCompDefSet
  3
DesignerAssemblies
 90
     1024
 91
        1
280
     0
281
     0
  0
CLASS
  1
AMDTBROWSERDBTAB
  2
AmdtBrowserDbTab
  3
McadcomServices
 90
     1024
 91
        1
280
     0
281
     0
  0
CLASS
  1
CBROWSERAPPOBJECT
  2
CBrowserAppObject
  3
McadcomServices
 90
     1024
 91
        3
280
     0
281
     0
  0
CLASS
  1
DM_PLACEHOLDER
  2
AcDmSelsetPlaceholder
  3
AcMechDwgViewMgmt
 90
     1024
 91
        1
280
     0
281
     0
  0
CLASS
  1
ACMSTANDARDANSI
  2
AcmStandardANSI
  3
"Amdt_StdImp|Product Description: AutoCAD Mechanical|Company: Autodesk, Inc."
 90
     1024
 91
        1
280
     0
281
     0
  0
CLASS
  1
AMGOBJPROPCFG
  2
AmgObjPropCfg
  3
"AmgLay|Product Description: AutoCAD Mechanical|Company: Autodesk, Inc."
 90
     1025
 91
        1
280
     0
281
     0
  0
CLASS
  1
ACMSURFSTANDARDANSI
  2
AcmSurfTextStdANSI
  3
"Amdt_StdImp|Product Description: AutoCAD Mechanical|Company: Autodesk, Inc."
 90
     1024
 91
        1
280
     0
281
     0
  0
CLASS
  1
ACMFCFSTANDARDANSI
  2
AcmFCFStdANSI
  3
"Amdt_StdImp|Product Description: AutoCAD Mechanical|Company: Autodesk, Inc."
 90
     1024
 91
        1
280
     0
281
     0
  0
CLASS
  1
ACMWELDSTANDARDANSI
  2
AcmWeldingStdANSI
  3
"Amdt_StdImp|Product Description: AutoCAD Mechanical|Company: Autodesk, Inc."
 90
     1024
 91
        1
280
     0
281
     0
  0
CLASS
  1
ACMIDSTANDARDANSI
  2
AcmIdStdANSI
  3
"Amdt_StdImp|Product Description: AutoCAD Mechanical|Company: Autodesk, Inc."
 90
     1024
 91
        1
280
     0
281
     0
  0
CLASS
  1
ACMDATUMSTANDARDANSI
  2
AcmDatumStdANSI
  3
"Amdt_StdImp|Product Description: AutoCAD Mechanical|Company: Autodesk, Inc."
 90
     1024
 91
        1
280
     0
281
     0
  0
CLASS
  1
ACMBOMSTANDARDANSI
  2
AcmBOMStdANSI
  3
"Amdt_StdImp|Product Description: AutoCAD Mechanical|Company: Autodesk, Inc."
 90
     1024
 91
        1
280
     0
281
     0
  0
CLASS
  1
ACMDETAILSTANDARDANSI
  2
AmdtDetailSymStdANSI
  3
"Amdt_StdImp|Product Description: AutoCAD Mechanical|Company: Autodesk, Inc."
 90
     1024
 91
        1
280
     0
281
     0
  0
CLASS
  1
ACMSECTIONSTANDARDANSI
  2
AmdtSectionSymStdANSI
  3
"Amdt_StdImp|Product Description: AutoCAD Mechanical|Company: Autodesk, Inc."
 90
     1024
 91
        1
280
     0
281
     0
  0
CLASS
  1
ACMCENTERLINESTANDARDANSI
  2
AmdtCenterLineStdANSI
  3
"Amdt_StdImp|Product Description: AutoCAD Mechanical|Company: Autodesk, Inc."
 90
     1024
 91
        1
280
     0
281
     0
  0
CLASS
  1
ACMTHREADLINESTANDARDANSI
  2
AmdtThreadLineStdANSI
  3
"Amdt_StdImp|Product Description: AutoCAD Mechanical|Company: Autodesk, Inc."
 90
     1024
 91
        1
280
     0
281
     0
  0
CLASS
  1
ACMNOTESTANDARDANSI
  2
AmdtNoteStdANSI
  3
"Amdt_StdImp|Product Description: AutoCAD Mechanical|Company: Autodesk, Inc."
 90
     1024
 91
        1
280
     0
281
     0
  0
CLASS
  1
ACMTAPERSTANDARDANSI
  2
AcmTaperStdANSI
  3
"Amdt_StdImp|Product Description: AutoCAD Mechanical|Company: Autodesk, Inc."
 90
     1024
 91
        1
280
     0
281
     0
  0
CLASS
  1
ACMANOOTATIONVIEWSTANDARDANSI
  2
AmdtAnViewStdANSI
  3
"Amdt_StdImp|Product Description: AutoCAD Mechanical|Company: Autodesk, Inc."
 90
     1024
 91
        1
280
     0
281
     0
  0
CLASS
  1
AMDTNOTETEMPLATEDB
  2
AmdtNoteTemplateDB
  3
AcmSymBB|Product Description: AutoCAD Mechanical|Company: Autodesk, Inc.
 90
     1024
 91
       18
280
     0
281
     0
  0
CLASS
  1
ACAMGLAYSTD
  2
AcAmgLayStd
  3
"AmgLay|Product Description: AutoCAD Mechanical|Company: Autodesk, Inc."
 90
     1024
 91
        3
280
     0
281
     0
  0
CLASS
  1
ACAMGDIMSTD
  2
AcAmgDimStd
  3
"AmgDim|Product Description: AutoCAD Mechanical|Company: Autodesk, Inc."
 90
     1024
 91
        3
280
     0
281
     0
  0
CLASS
  1
ACAMGHOLECHARTSTDANSI
  2
AcAmgHoleChartStdANSI
  3
AmgDim|Product Description: AutoCAD Mechanical|Company: Autodesk, Inc.
 90
     1024
 91
        1
280
     0
281
     0
  0
CLASS
  1
ACAMGTITLESTD
  2
AcAmgTitleStd
  3
"AmgTitle|Product Description: AutoCAD Mechanical|Company: Autodesk, Inc."
 90
     4095
 91
        3
280
     0
281
     0
  0
CLASS
  1
ACAMGFILTERDAT
  2
AcAmgFilterDat
  3
"AcadM|Product Description: AutoCAD Mechanical|Company: Autodesk, Inc."
 90
     1024
 91
        0
280
     0
281
     0
  0
CLASS
  1
CELLSTYLEMAP
  2
AcDbCellStyleMap
  3
ObjectDBX Classes
 90
     1152
 91
        2
280
     0
281
     0
  0
CLASS
  1
DICTIONARYVAR
  2
AcDbDictionaryVar
  3
ObjectDBX Classes
 90
        0
 91
        8
280
     0
281
     0
  0
CLASS
  1
ACDBPLACEHOLDER
  2
AcDbPlaceHolder
  3
ObjectDBX Classes
 90
        0
 91
        1
280
     0
281
     0
  0
CLASS
  1
LAYOUT
  2
AcDbLayout
  3
ObjectDBX Classes
 90
        0
 91
        2
280
     0
281
     0
  0
CLASS
  1
ACMDATAENTRYPART
  2
AcmDataEntryPart
  3
AcmSymBB|Product Description: AutoCAD Mechanical|Company: Autodesk, Inc.
 90
     1024
 91
        6
280
     0
281
     0
  0
CLASS
  1
ACMPARTREF
  2
AcmPartRef
  3
"AcmSymBB|Product Description: AutoCAD Mechanical|Company: Autodesk, Inc."
 90
     4095
 91
        6
280
     0
281
     1
  0
CLASS
  1
ACDBLINERES
  2
AcDbLineRes
  3
AcGrefServices
 90
     1024
 91
        7
280
     0
281
     0
  0
CLASS
  1
ACMSTANDARDDIN
  2
AcmStandardDIN
  3
"Amdt_StdImp|Product Description: AutoCAD Mechanical|Company: Autodesk, Inc."
 90
     1024
 91
        1
280
     0
281
     0
  0
CLASS
  1
AMDTEDGESTANDARDDIN13715
  2
AmdtEdgeStdDIN13715
  3
"Amdt_StdImp|Product Description: AutoCAD Mechanical|Company: Autodesk, Inc."
 90
     1024
 91
        1
280
     0
281
     0
  0
CLASS
  1
ACMSURFSTANDARDDIN2002
  2
AcmSurfTextStdDIN2002
  3
"Amdt_StdImp|Product Description: AutoCAD Mechanical|Company: Autodesk, Inc."
 90
     1024
 91
        1
280
     0
281
     0
  0
CLASS
  1
ACMFCFSTANDARDDIN
  2
AcmFCFStdDIN
  3
"Amdt_StdImp|Product Description: AutoCAD Mechanical|Company: Autodesk, Inc."
 90
     1024
 91
        1
280
     0
281
     0
  0
CLASS
  1
ACMWELDSTANDARDDIN
  2
AcmWeldingStdDIN
  3
"Amdt_StdImp|Product Description: AutoCAD Mechanical|Company: Autodesk, Inc."
 90
     1024
 91
        1
280
     0
281
     0
  0
CLASS
  1
ACMIDSTANDARDDIN
  2
AcmIdStdDIN
  3
"Amdt_StdImp|Product Description: AutoCAD Mechanical|Company: Autodesk, Inc."
 90
     1024
 91
        1
280
     0
281
     0
  0
CLASS
  1
ACMDATUMSTANDARDDIN
  2
AcmDatumStdDIN
  3
"Amdt_StdImp|Product Description: AutoCAD Mechanical|Company: Autodesk, Inc."
 90
     1024
 91
        1
280
     0
281
     0
  0
CLASS
  1
ACMBOMSTANDARDDIN
  2
AcmBOMStdDIN
  3
"Amdt_StdImp|Product Description: AutoCAD Mechanical|Company: Autodesk, Inc."
 90
     1024
 91
        1
280
     0
281
     0
  0
CLASS
  1
ACMDETAILSTANDARDDIN
  2
AmdtDetailSymStdDIN
  3
"Amdt_StdImp|Product Description: AutoCAD Mechanical|Company: Autodesk, Inc."
 90
     1024
 91
        1
280
     0
281
     0
  0
CLASS
  1
ACMSECTIONSTANDARDDIN
  2
AmdtSectionSymStdDIN
  3
"Amdt_StdImp|Product Description: AutoCAD Mechanical|Company: Autodesk, Inc."
 90
     1024
 91
        1
280
     0
281
     0
  0
CLASS
  1
ACMCENTERLINESTANDARDDIN
  2
AmdtCenterLineStdDIN
  3
"Amdt_StdImp|Product Description: AutoCAD Mechanical|Company: Autodesk, Inc."
 90
     1024
 91
        1
280
     0
281
     0
  0
CLASS
  1
ACMTHREADLINESTANDARDDIN
  2
AmdtThreadLineStdDIN
  3
"Amdt_StdImp|Product Description: AutoCAD Mechanical|Company: Autodesk, Inc."
 90
     1024
 91
        1
280
     0
281
     0
  0
CLASS
  1
ACMNOTESTANDARDDIN
  2
AmdtNoteStdDIN
  3
"Amdt_StdImp|Product Description: AutoCAD Mechanical|Company: Autodesk, Inc."
 90
     1024
 91
        1
280
     0
281
     0
  0
CLASS
  1
ACMTAPERSTANDARDDIN
  2
AcmTaperStdDIN
  3
"Amdt_StdImp|Product Description: AutoCAD Mechanical|Company: Autodesk, Inc."
 90
     1024
 91
        1
280
     0
281
     0
  0
CLASS
  1
ACMANOOTATIONVIEWSTANDARDDIN
  2
AmdtAnViewStdDIN
  3
"Amdt_StdImp|Product Description: AutoCAD Mechanical|Company: Autodesk, Inc."
 90
     1024
 91
        1
280
     0
281
     0
  0
CLASS
  1
ACAMGHOLECHARTSTDDIN
  2
AcAmgHoleChartStdDIN
  3
AmgDim|Product Description: AutoCAD Mechanical|Company: Autodesk, Inc.
 90
     1024
 91
        1
280
     0
281
     0
  0
CLASS
  1
ACMDATAENTRYBLOCK
  2
AcmDataEntryBlock
  3
AcmSymBB|Product Description: AutoCAD Mechanical|Company: Autodesk, Inc.
 90
     1024
 91
        3
280
     0
281
     0
  0
CLASS
  1
ACMBOM
  2
AcmBom
  3
"AcmSymBB|Product Description: AutoCAD Mechanical|Company: Autodesk, Inc."
 90
     1024
 91
        1
280
     0
281
     0
  0
CLASS
  1
AMDTFORMULAUPDATEDISPATCHER
  2
AmdtFormulaUpdateDispatcher
  3
AcMeServices
 90
     1024
 91
        1
280
     0
281
     0
  0
CLASS
  1
ACMBOMROW
  2
AcmBomRow
  3
"AcmSymBB|Product Description: AutoCAD Mechanical|Company: Autodesk, Inc."
 90
     1024
 91
        4
280
     0
281
     0
  0
CLASS
  1
ACMPARTLIST
  2
AcmPartList
  3
"AcmSymBB|Product Description: AutoCAD Mechanical|Company: Autodesk, Inc."
 90
     4095
 91
        0
280
     0
281
     1
  0
CLASS
  1
CAMSSTRUCTBTNSTATE
  2
StructBtnState
  3
DesignerAssemblies
 90
     1024
 91
        1
280
     0
281
     0
  0
CLASS
  1
ACRFATTGENMGR
  2
AcRfAttGeneralMgr
  3
AcAttribServices
 90
     1024
 91
        1
280
     0
281
     0
  0
CLASS
  1
ACRFOBJATTMGR
  2
AcRfObjAttGroupMgr
  3
AcAttribServices
 90
     1024
 91
        1
280
     0
281
     0
  0
CLASS
  1
ACRFMCADAPIATTHOLDER
  2
AcRfMCADAPIAttHolder
  3
AcAttribServices
 90
     1024
 91
        1
280
     0
281
     0
  0
CLASS
  1
AMDTSYSATTR
  2
AmdtSystemAttribute
  3
AcAttribServices
 90
     1024
 91
        4
280
     0
281
     0
  0
CLASS
  1
SORTENTSTABLE
  2
AcDbSortentsTable
  3
ObjectDBX Classes
 90
        0
 91
        5
280
     0
281
     0
  0
CLASS
  1
ACMSTANDARDISO
  2
AcmStandardISO
  3
"Amdt_StdImp|Product Description: AutoCAD Mechanical|Company: Autodesk, Inc."
 90
     1024
 91
        1
280
     0
281
     0
  0
CLASS
  1
AMDTEDGESTANDARDISO
  2
AmdtEdgeStdISO
  3
"Amdt_StdImp|Product Description: AutoCAD Mechanical|Company: Autodesk, Inc."
 90
     1024
 91
        1
280
     0
281
     0
  0
CLASS
  1
ACMSURFSTANDARDISO2002
  2
AcmSurfTextStdISO2002
  3
"Amdt_StdImp|Product Description: AutoCAD Mechanical|Company: Autodesk, Inc."
 90
     1024
 91
        1
280
     0
281
     0
  0
CLASS
  1
ACMFCFSTANDARDISO
  2
AcmFCFStdISO
  3
"Amdt_StdImp|Product Description: AutoCAD Mechanical|Company: Autodesk, Inc."
 90
     1024
 91
        1
280
     0
281
     0
  0
CLASS
  1
ACMWELDSTANDARDISO
  2
AcmWeldingStdISO
  3
"Amdt_StdImp|Product Description: AutoCAD Mechanical|Company: Autodesk, Inc."
 90
     1024
 91
        1
280
     0
281
     0
  0
CLASS
  1
ACMIDSTANDARDISO
  2
AcmIdStdISO
  3
"Amdt_StdImp|Product Description: AutoCAD Mechanical|Company: Autodesk, Inc."
 90
     1024
 91
        1
280
     0
281
     0
  0
CLASS
  1
ACMDATUMSTANDARDISO
  2
AcmDatumStdISO
  3
"Amdt_StdImp|Product Description: AutoCAD Mechanical|Company: Autodesk, Inc."
 90
     1024
 91
        1
280
     0
281
     0
  0
CLASS
  1
ACMBOMSTANDARDISO
  2
AcmBOMStdISO
  3
"Amdt_StdImp|Product Description: AutoCAD Mechanical|Company: Autodesk, Inc."
 90
     1024
 91
        1
280
     0
281
     0
  0
CLASS
  1
ACMDETAILSTANDARDISO
  2
AmdtDetailSymStdISO
  3
"Amdt_StdImp|Product Description: AutoCAD Mechanical|Company: Autodesk, Inc."
 90
     1024
 91
        1
280
     0
281
     0
  0
CLASS
  1
ACMSECTIONSTANDARDISO2001
  2
AmdtSectionSymStdISO2001
  3
"Amdt_StdImp|Product Description: AutoCAD Mechanical|Company: Autodesk, Inc."
 90
     1024
 91
        1
280
     0
281
     0
  0
CLASS
  1
ACMCENTERLINESTANDARDISO
  2
AmdtCenterLineStdISO
  3
"Amdt_StdImp|Product Description: AutoCAD Mechanical|Company: Autodesk, Inc."
 90
     1024
 91
        1
280
     0
281
     0
  0
CLASS
  1
ACMNOTESTANDARDISO
  2
AmdtNoteStdISO
  3
"Amdt_StdImp|Product Description: AutoCAD Mechanical|Company: Autodesk, Inc."
 90
     1024
 91
        1
280
     0
281
     0
  0
CLASS
  1
ACAMGHOLECHARTSTDISO
  2
AcAmgHoleChartStdISO
  3
AmgDim|Product Description: AutoCAD Mechanical|Company: Autodesk, Inc.
 90
     1024
 91
        1
280
     0
281
     0
  0
CLASS
  1
ACMTHREADLINESTANDARDISO
  2
AmdtThreadLineStdISO
  3
"Amdt_StdImp|Product Description: AutoCAD Mechanical|Company: Autodesk, Inc."
 90
     1024
 91
        1
280
     0
281
     0
  0
CLASS
  1
ACMTAPERSTANDARDISO
  2
AcmTaperStdISO
  3
"Amdt_StdImp|Product Description: AutoCAD Mechanical|Company: Autodesk, Inc."
 90
     1024
 91
        1
280
     0
281
     0
  0
CLASS
  1
ACMANOOTATIONVIEWSTANDARDISO
  2
AmdtAnViewStdISO
  3
"Amdt_StdImp|Product Description: AutoCAD Mechanical|Company: Autodesk, Inc."
 90
     1024
 91
        1
280
     0
281
     0
  0
CLASS
  1
ACMSTANDARDGB
  2
AcmStandardGB
  3
"Amdt_StdImp|Product Description: AutoCAD Mechanical|Company: Autodesk, Inc."
 90
     1024
 91
        0
280
     0
281
     0
  0
CLASS
  1
ACMSURFSTANDARDGB
  2
AcmSurfTextStdGB
  3
"Amdt_StdImp|Product Description: AutoCAD Mechanical|Company: Autodesk, Inc."
 90
     1024
 91
        0
280
     0
281
     0
  0
CLASS
  1
ACMFCFSTANDARDGB
  2
AcmFCFStdGB
  3
"Amdt_StdImp|Product Description: AutoCAD Mechanical|Company: Autodesk, Inc."
 90
     1024
 91
        0
280
     0
281
     0
  0
CLASS
  1
ACMWELDSTANDARDGB
  2
AcmWeldingStdGB
  3
"Amdt_StdImp|Product Description: AutoCAD Mechanical|Company: Autodesk, Inc."
 90
     1024
 91
        0
280
     0
281
     0
  0
CLASS
  1
ACMIDSTANDARDGB
  2
AcmIdStdGB
  3
"Amdt_StdImp|Product Description: AutoCAD Mechanical|Company: Autodesk, Inc."
 90
     1024
 91
        0
280
     0
281
     0
  0
CLASS
  1
ACMDATUMSTANDARDGB
  2
AcmDatumStdGB
  3
"Amdt_StdImp|Product Description: AutoCAD Mechanical|Company: Autodesk, Inc."
 90
     1024
 91
        0
280
     0
281
     0
  0
CLASS
  1
ACMBOMSTANDARDGB
  2
AcmBOMStdGB
  3
"Amdt_StdImp|Product Description: AutoCAD Mechanical|Company: Autodesk, Inc."
 90
     1024
 91
        0
280
     0
281
     0
  0
CLASS
  1
ACMDETAILSTANDARDGB
  2
AmdtDetailSymStdGB
  3
"Amdt_StdImp|Product Description: AutoCAD Mechanical|Company: Autodesk, Inc."
 90
     1024
 91
        0
280
     0
281
     0
  0
CLASS
  1
ACMSECTIONSTANDARDGB1998
  2
AmdtSectionSymStdGB1998
  3
"Amdt_StdImp|Product Description: AutoCAD Mechanical|Company: Autodesk, Inc."
 90
     1024
 91
        0
280
     0
281
     0
  0
CLASS
  1
ACMCENTERLINESTANDARDGB
  2
AmdtCenterLineStdGB
  3
"Amdt_StdImp|Product Description: AutoCAD Mechanical|Company: Autodesk, Inc."
 90
     1024
 91
        0
280
     0
281
     0
  0
CLASS
  1
ACMTHREADLINESTANDARDGB
  2
AmdtThreadLineStdGB
  3
"Amdt_StdImp|Product Description: AutoCAD Mechanical|Company: Autodesk, Inc."
 90
     1024
 91
        0
280
     0
281
     0
  0
CLASS
  1
ACMNOTESTANDARDGB
  2
AmdtNoteStdGB
  3
"Amdt_StdImp|Product Description: AutoCAD Mechanical|Company: Autodesk, Inc."
 90
     1024
 91
        0
280
     0
281
     0
  0
CLASS
  1
ACMTAPERSTANDARDGB
  2
AcmTaperStdGB
  3
"Amdt_StdImp|Product Description: AutoCAD Mechanical|Company: Autodesk, Inc."
 90
     1024
 91
        0
280
     0
281
     0
  0
CLASS
  1
ACMANOOTATIONVIEWSTANDARDGB
  2
AmdtAnViewStdGB
  3
"Amdt_StdImp|Product Description: AutoCAD Mechanical|Company: Autodesk, Inc."
 90
     1024
 91
        0
280
     0
281
     0
  0
CLASS
  1
ACAMGHOLECHARTSTDGB
  2
AcAmgHoleChartStdGB
  3
AmgDim|Product Description: AutoCAD Mechanical|Company: Autodesk, Inc.
 90
     1024
 91
        0
280
     0
281
     0
  0
CLASS
  1
ACMSTANDARDCSN
  2
AcmStandardCSN
  3
"Amdt_StdImp|Product Description: AutoCAD Mechanical|Company: Autodesk, Inc."
 90
     1024
 91
        0
280
     0
281
     0
  0
CLASS
  1
ACMSURFSTANDARDCSN
  2
AcmSurfTextStdCSN
  3
"Amdt_StdImp|Product Description: AutoCAD Mechanical|Company: Autodesk, Inc."
 90
     1024
 91
        0
280
     0
281
     0
  0
CLASS
  1
ACMFCFSTANDARDCSN
  2
AcmFCFStdCSN
  3
"Amdt_StdImp|Product Description: AutoCAD Mechanical|Company: Autodesk, Inc."
 90
     1024
 91
        0
280
     0
281
     0
  0
CLASS
  1
ACMWELDSTANDARDCSN
  2
AcmWeldingStdCSN
  3
"Amdt_StdImp|Product Description: AutoCAD Mechanical|Company: Autodesk, Inc."
 90
     1024
 91
        0
280
     0
281
     0
  0
CLASS
  1
ACMIDSTANDARDCSN
  2
AcmIdStdCSN
  3
"Amdt_StdImp|Product Description: AutoCAD Mechanical|Company: Autodesk, Inc."
 90
     1024
 91
        0
280
     0
281
     0
  0
CLASS
  1
ACMDATUMSTANDARDCSN
  2
AcmDatumStdCSN
  3
"Amdt_StdImp|Product Description: AutoCAD Mechanical|Company: Autodesk, Inc."
 90
     1024
 91
        0
280
     0
281
     0
  0
CLASS
  1
ACMBOMSTANDARDCSN
  2
AcmBOMStdCSN
  3
"Amdt_StdImp|Product Description: AutoCAD Mechanical|Company: Autodesk, Inc."
 90
     1024
 91
        0
280
     0
281
     0
  0
CLASS
  1
ACMDETAILSTANDARDCSN
  2
AmdtDetailSymStdCSN
  3
"Amdt_StdImp|Product Description: AutoCAD Mechanical|Company: Autodesk, Inc."
 90
     1024
 91
        0
280
     0
281
     0
  0
CLASS
  1
ACMSECTIONSTANDARDCSN2002
  2
AmdtSectionSymStdCSN2002
  3
"Amdt_StdImp|Product Description: AutoCAD Mechanical|Company: Autodesk, Inc."
 90
     1024
 91
        0
280
     0
281
     0
  0
CLASS
  1
ACMCENTERLINESTANDARDCSN
  2
AmdtCenterLineStdCSN
  3
"Amdt_StdImp|Product Description: AutoCAD Mechanical|Company: Autodesk, Inc."
 90
     1024
 91
        0
280
     0
281
     0
  0
CLASS
  1
ACMTHREADLINESTANDARDCSN
  2
AmdtThreadLineStdCSN
  3
"Amdt_StdImp|Product Description: AutoCAD Mechanical|Company: Autodesk, Inc."
 90
     1024
 91
        0
280
     0
281
     0
  0
CLASS
  1
ACMNOTESTANDARDCSN
  2
AmdtNoteStdCSN
  3
"Amdt_StdImp|Product Description: AutoCAD Mechanical|Company: Autodesk, Inc."
 90
     1024
 91
        0
280
     0
281
     0
  0
CLASS
  1
ACMTAPERSTANDARDCSN
  2
AcmTaperStdCSN
  3
"Amdt_StdImp|Product Description: AutoCAD Mechanical|Company: Autodesk, Inc."
 90
     1024
 91
        0
280
     0
281
     0
  0
CLASS
  1
ACMANOOTATIONVIEWSTANDARDCSN
  2
AmdtAnViewStdCSN
  3
"Amdt_StdImp|Product Description: AutoCAD Mechanical|Company: Autodesk, Inc."
 90
     1024
 91
        0
280
     0
281
     0
  0
CLASS
  1
ACAMGHOLECHARTSTDCSN
  2
AcAmgHoleChartStdCSN
  3
AmgDim|Product Description: AutoCAD Mechanical|Company: Autodesk, Inc.
 90
     1024
 91
        0
280
     0
281
     0
  0
CLASS
  1
DIMASSOC
  2
AcDbDimAssoc
  3
"AcDbDimAssoc|Product Desc:     AcDim ARX App For Dimension|Company:          Autodesk, Inc.|WEB Address:      www.autodesk.com"
 90
        0
 91
       23
280
     0
281
     0
  0
CLASS
  1
ACDBCIRCARCRES
  2
AcDbCircArcRes
  3
AcGrefServices
 90
     1024
 91
        1
280
     0
281
     0
  0
CLASS
  1
ACDB_BLKREFOBJECTCONTEXTDATA_CLASS
  2
AcDbBlkRefObjectContextData
  3
ObjectDBX Classes
 90
     1153
 91
        0
280
     0
281
     0
  0
CLASS
  1
ACAD_EVALUATION_GRAPH
  2
AcDbEvalGraph
  3
ObjectDBX Classes
 90
     1153
 91
        0
280
     0
281
     0
  0
CLASS
  1
ACAECUSTOBJ
  2
AcAeEditorObj
  3
AcAeEditorObj
 90
     1024
 91
        0
280
     0
281
     0
  0
CLASS
  1
ACDB_DYNAMICBLOCKPURGEPREVENTER_VERSION
  2
AcDbDynamicBlockPurgePreventer
  3
ObjectDBX Classes
 90
     1153
 91
        0
280
     0
281
     0
  0
CLASS
  1
AMDTNOTE
  2
AmdtNote
  3
"AcmSymBB|Product Description: AutoCAD Mechanical|Company: Autodesk, Inc."
 90
     4095
 91
        9
280
     0
281
     1
  0
CLASS
  1
ACMSURFSYM
  2
AcmSurfaceTexture
  3
"AcmSymBB|Product Description: AutoCAD Mechanical|Company: Autodesk, Inc."
 90
     4095
 91
        2
280
     0
281
     1
  0
CLASS
  1
ACRFINSADJ
  2
AcRfInsAdjuster
  3
AcMeServices
 90
     1024
 91
        0
280
     0
281
     0
  0
CLASS
  1
STDPART2D
  2
AmgStdPart
  3
AmgStdPart|Product Description: AutoCAD Mechanical|Company: Autodesk, Inc.
 90
     4095
 91
       19
280
     0
281
     1
  0
CLASS
  1
ACDBSTDPARTRES_LINE
  2
AcDbStdPartRes_Line
  3
AmgStdPart|Product Description: AutoCAD Mechanical|Company: Autodesk, Inc.
 90
     1024
 91
        2
280
     0
281
     0
  0
CLASS
  1
ACDBSTDPARTRES_ARC
  2
AcDbStdPartRes_Arc
  3
AmgStdPart|Product Description: AutoCAD Mechanical|Company: Autodesk, Inc.
 90
     1024
 91
        2
280
     0
281
     0
  0
CLASS
  1
AMDTDETAILSYM
  2
AmdtDetailSym
  3
"AcmSymBB|Product Description: AutoCAD Mechanical|Company: Autodesk, Inc."
 90
     4095
 91
        1
280
     0
281
     1
  0
CLASS
  1
AMDTDETAILSYMLABEL
  2
AmdtDetailSymLabel
  3
"AcmSymBB|Product Description: AutoCAD Mechanical|Company: Autodesk, Inc."
 90
     4095
 91
        2
280
     0
281
     1
  0
CLASS
  1
ACMWELDSYM
  2
AcmWelding
  3
"AcmSymBB|Product Description: AutoCAD Mechanical|Company: Autodesk, Inc."
 90
     4095
 91
        0
280
     0
281
     1
  0
CLASS
  1
ACDB_PROXY_ENTITY_DATA
  2
AcDbProxyEntityData
  3
ObjectDBX Classes
 90
        0
 91
       11
280
     0
281
     0
  0
ENDSEC
  0
SECTION
  2
TABLES
  0
TABLE
  2
VPORT
  5
8
102
{ACAD_XDICTIONARY
360
1B6
102
}
330
0
100
AcDbSymbolTable
 70
     1
  0
VPORT
  5
82
330
8
100
AcDbSymbolTableRecord
100
AcDbViewportTableRecord
  2
*Active
 70
     0
 10
0.0
 20
0.0
 11
1.0
 21
1.0
 12
144.0178676406401
 22
458.8919476331637
 13
0.0
 23
0.0
 14
5.0
 24
5.0
 15
20.0
 25
20.0
 16
0.0
 26
0.0
 36
1.0
 17
0.0
 27
0.0
 37
0.0
 40
567.8134926697111
 41
1.443908323281061
 42
50.0
 43
0.0
 44
0.0
 50
0.0
 51
0.0
 71
    16
 72
 10000
 73
     1
 74
     0
 75
     0
 76
     0
 77
     0
 78
     0
281
     0
 65
     1
110
0.0
120
0.0
130
0.0
111
1.0
121
0.0
131
0.0
112
0.0
122
1.0
132
0.0
 79
     0
146
0.0
  0
ENDTAB
  0
TABLE
  2
LTYPE
  5
5
330
0
100
AcDbSymbolTable
 70
    24
  0
LTYPE
  5
62
330
5
100
AcDbSymbolTableRecord
100
AcDbLinetypeTableRecord
  2
ByBlock
 70
     0
  3

 72
    65
 73
     0
 40
0.0
  0
LTYPE
  5
63
330
5
100
AcDbSymbolTableRecord
100
AcDbLinetypeTableRecord
  2
ByLayer
 70
     0
  3

 72
    65
 73
     0
 40
0.0
  0
LTYPE
  5
64
330
5
100
AcDbSymbolTableRecord
100
AcDbLinetypeTableRecord
  2
CONTINUOUS
 70
     0
  3
Solid line
 72
    65
 73
     0
 40
0.0
  0
LTYPE
  5
78
330
5
100
AcDbSymbolTableRecord
100
AcDbLinetypeTableRecord
  2
DASHED
 70
     0
  3
Dashed line
 72
    65
 73
     2
 40
0.75
 49
0.5
 74
     0
 49
-0.25
 74
     0
  0
LTYPE
  5
79
330
5
100
AcDbSymbolTableRecord
100
AcDbLinetypeTableRecord
  2
CENTER
 70
     0
  3
Center line
 72
    65
 73
     4
 40
2.0
 49
1.25
 74
     0
 49
-0.25
 74
     0
 49
0.25
 74
     0
 49
-0.25
 74
     0
  0
LTYPE
  5
13E
330
5
100
AcDbSymbolTableRecord
100
AcDbLinetypeTableRecord
  2
HIDDEN
 70
     0
  3
Verdeckt
 72
    65
 73
     2
 40
0.375
 49
0.25
 74
     0
 49
-0.125
 74
     0
  0
LTYPE
  5
13F
330
5
100
AcDbSymbolTableRecord
100
AcDbLinetypeTableRecord
  2
PHANTOM2
 70
     0
  3
Phantom (.5x) ___ _ _ ___ _ _ ___ _ _ ___ _ _
 72
    65
 73
     6
 40
1.25
 49
0.625
 74
     0
 49
-0.125
 74
     0
 49
0.125
 74
     0
 49
-0.125
 74
     0
 49
0.125
 74
     0
 49
-0.125
 74
     0
  0
LTYPE
  5
183
330
5
100
AcDbSymbolTableRecord
100
AcDbLinetypeTableRecord
  2
ACANSTGB
 70
     0
  3
__ . . __ . .
 72
    65
 73
     6
 40
0.35433070866
 49
0.15748031496
 74
     0
 49
-0.03937007874
 74
     0
 49
0.03937007874
 74
     0
 49
-0.03937007874
 74
     0
 49
0.03937007874
 74
     0
 49
-0.03937007874
 74
     0
  0
LTYPE
  5
184
330
5
100
AcDbSymbolTableRecord
100
AcDbLinetypeTableRecord
  2
ACANSTGL
 70
     0
  3
_ _ _ _ _
 72
    65
 73
     2
 40
0.11811023622
 49
0.07874015748
 74
     0
 49
-0.03937007874
 74
     0
  0
LTYPE
  5
26A
330
5
100
AcDbSymbolTableRecord
100
AcDbLinetypeTableRecord
  2
ACDINWELD
 70
     0
  3
_ _ _ _ _
 72
    65
 73
     2
 40
2.0
 49
2.0
 74
     0
 49
-1.0
 74
     0
  0
LTYPE
  5
26B
330
5
100
AcDbSymbolTableRecord
100
AcDbLinetypeTableRecord
  2
ACDINTGB
 70
     0
  3
__ . . __ . .
 72
    65
 73
     6
 40
9.0
 49
4.0
 74
     0
 49
-1.0
 74
     0
 49
1.0
 74
     0
 49
-1.0
 74
     0
 49
1.0
 74
     0
 49
-1.0
 74
     0
  0
LTYPE
  5
26C
330
5
100
AcDbSymbolTableRecord
100
AcDbLinetypeTableRecord
  2
ACDINTGL
 70
     0
  3
_ _ _ _ _
 72
    65
 73
     2
 40
3.0
 49
2.0
 74
     0
 49
-1.0
 74
     0
  0
LTYPE
  5
2A6
330
5
100
AcDbSymbolTableRecord
100
AcDbLinetypeTableRecord
  2
Amconstr
 70
     0
  3
_______________________
 72
    65
 73
     2
 40
9999.0
 49
9999.0
 74
     0
 49
0.0
 74
     0
  0
LTYPE
  5
2A7
330
5
100
AcDbSymbolTableRecord
100
AcDbLinetypeTableRecord
  2
Amzigzag
 70
     0
  3
/\/-/\/-/\/-/\/-/\/-/\/
 72
    65
 73
     2
 40
11.0001
 49
0.0001
 74
     4
 75
   136
340
2A8
 46
0.04
 50
0.0
 44
0.0
 45
0.0
 49
-11.0
 74
     0
  0
LTYPE
  5
38A
330
5
100
AcDbSymbolTableRecord
100
AcDbLinetypeTableRecord
  2
HIDDEN2
 70
     0
  3
Hidden (.5x) _ _ _ _ _ _ _ _ _ _ _ _ _ _ _ _ _
 72
    65
 73
     2
 40
0.1875
 49
0.125
 74
     0
 49
-0.0625
 74
     0
  0
LTYPE
  5
38B
330
5
100
AcDbSymbolTableRecord
100
AcDbLinetypeTableRecord
  2
CENTER2
 70
     0
  3
Center (.5x) ___ _ ___ _ ___ _ ___ _ ___ _ ___
 72
    65
 73
     4
 40
1.125
 49
0.75
 74
     0
 49
-0.125
 74
     0
 49
0.125
 74
     0
 49
-0.125
 74
     0
  0
LTYPE
  5
3C3
330
5
100
AcDbSymbolTableRecord
100
AcDbLinetypeTableRecord
  2
AM_ISO02W050
 70
     0
  3
__ __ __ __ __ __ __ __ __ __ __ __ __ __ __
 72
    65
 73
     2
 40
7.5
 49
6.0
 74
     0
 49
-1.5
 74
     0
  0
LTYPE
  5
3C4
330
5
100
AcDbSymbolTableRecord
100
AcDbLinetypeTableRecord
  2
AM_ISO08W050
 70
     0
  3
____ . ____ . ____ . ____ . ____ . ____ . ____
 72
    65
 73
     4
 40
18.0
 49
12.0
 74
     0
 49
-1.5
 74
     0
 49
3.0
 74
     0
 49
-1.5
 74
     0
  0
LTYPE
  5
3C5
330
5
100
AcDbSymbolTableRecord
100
AcDbLinetypeTableRecord
  2
AM_ISO09W050
 70
     0
  3
_____ . . _____ . . _____ . . ____ .. ____
 72
    65
 73
     6
 40
22.5
 49
12.0
 74
     0
 49
-1.5
 74
     0
 49
3.0
 74
     0
 49
-1.5
 74
     0
 49
3.0
 74
     0
 49
-1.5
 74
     0
  0
LTYPE
  5
3C6
330
5
100
AcDbSymbolTableRecord
100
AcDbLinetypeTableRecord
  2
AM_ISO08W050x2
 70
     0
  3
__ . __ . __ . __ . __ . __
 72
    65
 73
     4
 40
9.0
 49
6.0
 74
     0
 49
-0.75
 74
     0
 49
1.5
 74
     0
 49
-0.75
 74
     0
  0
LTYPE
  5
3C7
330
5
100
AcDbSymbolTableRecord
100
AcDbLinetypeTableRecord
  2
AM_ISO02W050x2
 70
     0
  3
 _ _ _ _ _ _ _ _ _ _ _ _
 72
    65
 73
     2
 40
3.75
 49
3.0
 74
     0
 49
-0.75
 74
     0
  0
LTYPE
  5
3C8
330
5
100
AcDbSymbolTableRecord
100
AcDbLinetypeTableRecord
  2
ACISOWELD
 70
     0
  3
_ _ _ _ _
 72
    65
 73
     2
 40
2.0
 49
2.0
 74
     0
 49
-1.0
 74
     0
  0
LTYPE
  5
3C9
330
5
100
AcDbSymbolTableRecord
100
AcDbLinetypeTableRecord
  2
ACISOTGB
 70
     0
  3
__ . . __ . .
 72
    65
 73
     6
 40
9.0
 49
4.0
 74
     0
 49
-1.0
 74
     0
 49
1.0
 74
     0
 49
-1.0
 74
     0
 49
1.0
 74
     0
 49
-1.0
 74
     0
  0
LTYPE
  5
3CA
330
5
100
AcDbSymbolTableRecord
100
AcDbLinetypeTableRecord
  2
ACISOTGL
 70
     0
  3
_ _ _ _ _
 72
    65
 73
     2
 40
3.0
 49
2.0
 74
     0
 49
-1.0
 74
     0
  0
ENDTAB
  0
TABLE
  2
LAYER
  5
2
102
{ACAD_XDICTIONARY
360
256
102
}
330
0
100
AcDbSymbolTable
 70
    39
  0
LAYER
  5
5C
102
{ACAD_XDICTIONARY
360
1A2
102
}
330
2
100
AcDbSymbolTableRecord
100
AcDbLayerTableRecord
  2
0
 70
     0
 62
     7
  6
CONTINUOUS
370
    -3
390
F
  0
LAYER
  5
27F
102
{ACAD_XDICTIONARY
360
2C7
102
}
330
2
100
AcDbSymbolTableRecord
100
AcDbLayerTableRecord
  2
Defpoints
 70
     0
 62
     7
  6
CONTINUOUS
290
     0
370
    -3
390
F
  0
LAYER
  5
2AA
102
{ACAD_XDICTIONARY
360
2C9
102
}
330
2
100
AcDbSymbolTableRecord
100
AcDbLayerTableRecord
  2
AM_3 ( Verdeckt )
 70
     0
 62
     6
  6
AM_ISO02W050
370
    25
390
F
1001
AcAecLayerStandard
1000

1000

  0
LAYER
  5
2AC
102
{ACAD_XDICTIONARY
360
2CB
102
}
330
2
100
AcDbSymbolTableRecord
100
AcDbLayerTableRecord
  2
AM_7 (Mittellinie)
 70
     0
 62
     4
  6
AM_ISO08W050
370
    25
390
F
1001
AcAecLayerStandard
1000

1000

  0
LAYER
  5
2AE
102
{ACAD_XDICTIONARY
360
2CD
102
}
330
2
100
AcDbSymbolTableRecord
100
AcDbLayerTableRecord
  2
AM_2 ( Kontur 0.25)
 70
     0
 62
     5
  6
CONTINUOUS
370
    25
390
F
1001
AcAecLayerStandard
1000

1000

  0
LAYER
  5
2B1
102
{ACAD_XDICTIONARY
360
2CF
102
}
330
2
100
AcDbSymbolTableRecord
100
AcDbLayerTableRecord
  2
AM_5 ( Bemassung)
 70
     0
 62
     3
  6
CONTINUOUS
370
    25
390
F
1001
AcAecLayerStandard
1000

1000

  0
LAYER
  5
9FC
102
{ACAD_XDICTIONARY
360
A1F
102
}
330
2
100
AcDbSymbolTableRecord
100
AcDbLayerTableRecord
  2
AM_0 ( Kontur 0.5 )
 70
     0
 62
     7
  6
CONTINUOUS
370
    50
390
F
1001
AcAecLayerStandard
1000

1000

  0
LAYER
  5
4CE6
330
2
100
AcDbSymbolTableRecord
100
AcDbLayerTableRecord
  2
AM_0N ( Normteile sichtbar)
 70
     0
 62
     7
  6
CONTINUOUS
370
    50
390
F
1001
AcAecLayerStandard
1000

1000

  0
LAYER
  5
4CE7
330
2
100
AcDbSymbolTableRecord
100
AcDbLayerTableRecord
  2
AM_9 ( Unsichbar)
 70
     0
 62
  -253
  6
CONTINUOUS
370
     0
390
F
1001
AcAecLayerStandard
1000

1000

  0
LAYER
  5
4CEA
330
2
100
AcDbSymbolTableRecord
100
AcDbLayerTableRecord
  2
AM_7N ( Normteile Mittelinien)
 70
     0
 62
     4
  6
CONTINUOUS
370
    25
390
F
1001
AcAecLayerStandard
1000

1000

  0
LAYER
  5
4D48
330
2
100
AcDbSymbolTableRecord
100
AcDbLayerTableRecord
  2
AM_9N ( Normteile verdeckt)
 70
     0
 62
  -253
  6
CONTINUOUS
370
     0
390
F
1001
AcAecLayerStandard
1000

1000

  0
ENDTAB
  0
TABLE
  2
STYLE
  5
3
330
0
100
AcDbSymbolTable
 70
    15
  0
STYLE
  5
5D
330
3
100
AcDbSymbolTableRecord
100
AcDbTextStyleTableRecord
  2
STANDARD
 70
     0
 40
0.0
 41
1.0
 50
0.0
 71
     0
 42
7.5
  3
ARIALUNI.TTF
  4

1001
ACAD
1000
@Arial Unicode MS
1071
       34
  0
STYLE
  5
174
330
3
100
AcDbSymbolTableRecord
100
AcDbTextStyleTableRecord
  2
ACANSTS
 70
     0
 40
1.0
 41
1.0
 50
0.0
 71
     0
 42
3.5
  3
romans.shx
  4

  0
STYLE
  5
182
330
3
100
AcDbSymbolTableRecord
100
AcDbTextStyleTableRecord
  2
ACANSGDT
 70
     0
 40
0.0
 41
1.0
 50
0.0
 71
     0
 42
3.5
  3
amgdt.shx
  4

  0
STYLE
  5
25A
330
3
100
AcDbSymbolTableRecord
100
AcDbTextStyleTableRecord
  2
ACDINTS
 70
     0
 40
1.0
 41
1.0
 50
0.0
 71
     0
 42
3.5
  3
isocp.shx
  4

  0
STYLE
  5
269
330
3
100
AcDbSymbolTableRecord
100
AcDbTextStyleTableRecord
  2
ACDINGDT
 70
     0
 40
0.0
 41
1.0
 50
0.0
 71
     0
 42
3.5
  3
amgdt.shx
  4

  0
STYLE
  5
2A8
330
3
100
AcDbSymbolTableRecord
100
AcDbTextStyleTableRecord
  2

 70
     1
 40
0.0
 41
1.0
 50
0.0
 71
     0
 42
2.5
  3
genltshp.shx
  4

  0
STYLE
  5
3CB
330
3
100
AcDbSymbolTableRecord
100
AcDbTextStyleTableRecord
  2
ACISOTS
 70
     0
 40
1.0
 41
1.0
 50
0.0
 71
     0
 42
2.5
  3
Arialn.ttf
  4

1001
ACAD
1000
Arial Narrow
1071
       34
  0
STYLE
  5
3CC
330
3
100
AcDbSymbolTableRecord
100
AcDbTextStyleTableRecord
  2
ACISOGDT
 70
     0
 40
0.0
 41
1.0
 50
0.0
 71
     0
 42
2.5
  3
amgdt.shx
  4

  0
ENDTAB
  0
TABLE
  2
VIEW
  5
6
330
0
100
AcDbSymbolTable
 70
     6
  0
VIEW
  5
51B
330
6
100
AcDbSymbolTableRecord
100
AcDbViewTableRecord
  2
AM_VIEW1
 70
     0
 40
420.0
 10
355.2941176470587
 20
630.0
 41
710.5882352941176
 11
0.0
 21
0.0
 31
1.0
 12
0.0
 22
0.0
 32
0.0
 42
50.0
 43
0.0
 44
0.0
 50
0.0
 71
     0
281
     0
 72
     0
  0
VIEW
  5
51C
330
6
100
AcDbSymbolTableRecord
100
AcDbViewTableRecord
  2
AM_VIEW2
 70
     0
 40
420.0
 10
832.7058823529412
 20
630.0
 41
710.5882352941176
 11
0.0
 21
0.0
 31
1.0
 12
0.0
 22
0.0
 32
0.0
 42
50.0
 43
0.0
 44
0.0
 50
0.0
 71
     0
281
     0
 72
     0
  0
VIEW
  5
51D
330
6
100
AcDbSymbolTableRecord
100
AcDbViewTableRecord
  2
AM_VIEW3
 70
     0
 40
420.0
 10
355.2941176470587
 20
210.0
 41
710.5882352941176
 11
0.0
 21
0.0
 31
1.0
 12
0.0
 22
0.0
 32
0.0
 42
50.0
 43
0.0
 44
0.0
 50
0.0
 71
     0
281
     0
 72
     0
  0
VIEW
  5
51E
330
6
100
AcDbSymbolTableRecord
100
AcDbViewTableRecord
  2
AM_VIEW4
 70
     0
 40
420.0
 10
832.7058823529412
 20
210.0
 41
710.5882352941176
 11
0.0
 21
0.0
 31
1.0
 12
0.0
 22
0.0
 32
0.0
 42
50.0
 43
0.0
 44
0.0
 50
0.0
 71
     0
281
     0
 72
     0
  0
VIEW
  5
51F
330
6
100
AcDbSymbolTableRecord
100
AcDbViewTableRecord
  2
AM_VIEW5
 70
     0
 40
420.0
 10
593.9999999999998
 20
420.0
 41
710.5882352941177
 11
0.0
 21
0.0
 31
1.0
 12
0.0
 22
0.0
 32
0.0
 42
50.0
 43
0.0
 44
0.0
 50
0.0
 71
     0
281
     0
 72
     0
  0
VIEW
  5
520
330
6
100
AcDbSymbolTableRecord
100
AcDbViewTableRecord
  2
AM_VIEW6
 70
     0
 40
839.9916000000001
 10
594.0
 20
420.0
 41
1421.162258823529
 11
0.0
 21
0.0
 31
1.0
 12
0.0
 22
0.0
 32
0.0
 42
50.0
 43
0.0
 44
0.0
 50
0.0
 71
     0
281
     0
 72
     0
  0
ENDTAB
  0
TABLE
  2
UCS
  5
7
330
0
100
AcDbSymbolTable
 70
     0
  0
ENDTAB
  0
TABLE
  2
APPID
  5
9
330
0
100
AcDbSymbolTable
 70
    86
  0
APPID
  5
5E
330
9
100
AcDbSymbolTableRecord
100
AcDbRegAppTableRecord
  2
ACAD
 70
     0
  0
APPID
  5
65
330
9
100
AcDbSymbolTableRecord
100
AcDbRegAppTableRecord
  2
AcadAnnotative
 70
     0
  0
APPID
  5
6F
330
9
100
AcDbSymbolTableRecord
100
AcDbRegAppTableRecord
  2
ACAD_MLEADERVER
 70
     0
  0
APPID
  5
111
330
9
100
AcDbSymbolTableRecord
100
AcDbRegAppTableRecord
  2
MCAD_NO_VIS
 70
     0
  0
APPID
  5
112
330
9
100
AcDbSymbolTableRecord
100
AcDbRegAppTableRecord
  2
ACAD_TEMP_GRAPHIC
 70
     0
  0
APPID
  5
141
330
9
100
AcDbSymbolTableRecord
100
AcDbRegAppTableRecord
  2
AD_DRAW
 70
     0
  0
APPID
  5
144
330
9
100
AcDbSymbolTableRecord
100
AcDbRegAppTableRecord
  2
ACATTRIBSERVICES
 70
     0
  0
APPID
  5
165
330
9
100
AcDbSymbolTableRecord
100
AcDbRegAppTableRecord
  2
DESIGNERASSEMBLIES
 70
     0
  0
APPID
  5
16B
330
9
100
AcDbSymbolTableRecord
100
AcDbRegAppTableRecord
  2
ACADM_DIM_EDIT
 70
     0
  0
APPID
  5
16C
330
9
100
AcDbSymbolTableRecord
100
AcDbRegAppTableRecord
  2
AMDT_DM_ADJ
 70
     0
  0
APPID
  5
1C8
330
9
100
AcDbSymbolTableRecord
100
AcDbRegAppTableRecord
  2
ACAD_DSTYLE_DIMARC_LENGTH_SYMBOL
 70
     0
  0
APPID
  5
24A
330
9
100
AcDbSymbolTableRecord
100
AcDbRegAppTableRecord
  2
AcAecLayerStandard
 70
     0
  0
APPID
  5
280
330
9
100
AcDbSymbolTableRecord
100
AcDbRegAppTableRecord
  2
ACAD_DSTYLE_DIMJOGGED_JOGANGLE_SYMBOL
 70
     0
  0
APPID
  5
281
330
9
100
AcDbSymbolTableRecord
100
AcDbRegAppTableRecord
  2
AcadAnnoPO
 70
     0
  0
APPID
  5
282
330
9
100
AcDbSymbolTableRecord
100
AcDbRegAppTableRecord
  2
ACAD_EXEMPT_FROM_CAD_STANDARDS
 70
     0
  0
APPID
  5
283
330
9
100
AcDbSymbolTableRecord
100
AcDbRegAppTableRecord
  2
GENIUS_GENODEF_13
 70
     0
  0
APPID
  5
284
330
9
100
AcDbSymbolTableRecord
100
AcDbRegAppTableRecord
  2
GENIUS_GENOBJ-N-CRS_13
 70
     0
  0
APPID
  5
285
330
9
100
AcDbSymbolTableRecord
100
AcDbRegAppTableRecord
  2
GENIUS_GENOENT_13
 70
     0
  0
APPID
  5
286
330
9
100
AcDbSymbolTableRecord
100
AcDbRegAppTableRecord
  2
GENIUS_GENOLIS_13
 70
     0
  0
APPID
  5
287
330
9
100
AcDbSymbolTableRecord
100
AcDbRegAppTableRecord
  2
GENIUS_GENOREF_13
 70
     0
  0
APPID
  5
288
330
9
100
AcDbSymbolTableRecord
100
AcDbRegAppTableRecord
  2
GEVID1190879659
 70
     0
  0
APPID
  5
289
330
9
100
AcDbSymbolTableRecord
100
AcDbRegAppTableRecord
  2
GEVDC
 70
     0
  0
APPID
  5
28A
330
9
100
AcDbSymbolTableRecord
100
AcDbRegAppTableRecord
  2
GENIUS_GENBH_13
 70
     0
  0
APPID
  5
28B
330
9
100
AcDbSymbolTableRecord
100
AcDbRegAppTableRecord
  2
GENIUS_GENOBJ-NBEHI-BHF_13
 70
     0
  0
APPID
  5
28C
330
9
100
AcDbSymbolTableRecord
100
AcDbRegAppTableRecord
  2
GENIUS_GENOBJ-NBEHI-BHB_13
 70
     0
  0
APPID
  5
28D
330
9
100
AcDbSymbolTableRecord
100
AcDbRegAppTableRecord
  2
GEVID1190879660
 70
     0
  0
APPID
  5
28E
330
9
100
AcDbSymbolTableRecord
100
AcDbRegAppTableRecord
  2
GEVID1190879661
 70
     0
  0
APPID
  5
28F
330
9
100
AcDbSymbolTableRecord
100
AcDbRegAppTableRecord
  2
ACAD_DSTYLE_DIMRADIAL_EXTENSION
 70
     0
  0
APPID
  5
290
330
9
100
AcDbSymbolTableRecord
100
AcDbRegAppTableRecord
  2
GEVID1190879662
 70
     0
  0
APPID
  5
291
330
9
100
AcDbSymbolTableRecord
100
AcDbRegAppTableRecord
  2
GEVID1190879663
 70
     0
  0
APPID
  5
292
330
9
100
AcDbSymbolTableRecord
100
AcDbRegAppTableRecord
  2
GEVID1190879664
 70
     0
  0
APPID
  5
293
330
9
100
AcDbSymbolTableRecord
100
AcDbRegAppTableRecord
  2
GEVID1190879665
 70
     0
  0
APPID
  5
294
330
9
100
AcDbSymbolTableRecord
100
AcDbRegAppTableRecord
  2
GEVID1190879666
 70
     0
  0
APPID
  5
295
330
9
100
AcDbSymbolTableRecord
100
AcDbRegAppTableRecord
  2
GENIUS_GENOBJ-N-CEN_13
 70
     0
  0
APPID
  5
296
330
9
100
AcDbSymbolTableRecord
100
AcDbRegAppTableRecord
  2
GENIUS_GENCEN_19
 70
     0
  0
APPID
  5
297
330
9
100
AcDbSymbolTableRecord
100
AcDbRegAppTableRecord
  2
GEVID1190879667
 70
     0
  0
APPID
  5
298
330
9
100
AcDbSymbolTableRecord
100
AcDbRegAppTableRecord
  2
GENIUS_GENOBJ-N-CRC_13
 70
     0
  0
APPID
  5
299
330
9
100
AcDbSymbolTableRecord
100
AcDbRegAppTableRecord
  2
GENIUS_GENCRC_14
 70
     0
  0
APPID
  5
29A
330
9
100
AcDbSymbolTableRecord
100
AcDbRegAppTableRecord
  2
ACAD_PSEXT
 70
     0
  0
APPID
  5
29B
330
9
100
AcDbSymbolTableRecord
100
AcDbRegAppTableRecord
  2
GEVID1190888456
 70
     0
  0
APPID
  5
29C
330
9
100
AcDbSymbolTableRecord
100
AcDbRegAppTableRecord
  2
GEVID1190888457
 70
     0
  0
APPID
  5
29D
330
9
100
AcDbSymbolTableRecord
100
AcDbRegAppTableRecord
  2
GEVID1190888458
 70
     0
  0
APPID
  5
29E
330
9
100
AcDbSymbolTableRecord
100
AcDbRegAppTableRecord
  2
GEVID1190888459
 70
     0
  0
APPID
  5
29F
330
9
100
AcDbSymbolTableRecord
100
AcDbRegAppTableRecord
  2
GEVID1190888460
 70
     0
  0
APPID
  5
2A0
330
9
100
AcDbSymbolTableRecord
100
AcDbRegAppTableRecord
  2
GEVID1190888461
 70
     0
  0
APPID
  5
2A1
330
9
100
AcDbSymbolTableRecord
100
AcDbRegAppTableRecord
  2
GEVID1190888462
 70
     0
  0
APPID
  5
2A2
330
9
100
AcDbSymbolTableRecord
100
AcDbRegAppTableRecord
  2
ACAD_DSTYLE_DIMJAG
 70
     0
  0
APPID
  5
2A3
330
9
100
AcDbSymbolTableRecord
100
AcDbRegAppTableRecord
  2
ACAD_DSTYLE_DIMTALN
 70
     0
  0
APPID
  5
390
330
9
100
AcDbSymbolTableRecord
100
AcDbRegAppTableRecord
  2
GENIUS_GENBLLY_14
 70
     0
  0
APPID
  5
3D5
330
9
100
AcDbSymbolTableRecord
100
AcDbRegAppTableRecord
  2
DCO15
 70
     0
  0
APPID
  5
3D6
330
9
100
AcDbSymbolTableRecord
100
AcDbRegAppTableRecord
  2
GENIUS_GENREC_14
 70
     0
  0
APPID
  5
3D7
330
9
100
AcDbSymbolTableRecord
100
AcDbRegAppTableRecord
  2
GENIUS_GENOBJ-N-REC_13
 70
     0
  0
APPID
  5
519
330
9
100
AcDbSymbolTableRecord
100
AcDbRegAppTableRecord
  2
GENIUS_GENOBJ-N-TIT_13
 70
     0
  0
APPID
  5
51A
330
9
100
AcDbSymbolTableRecord
100
AcDbRegAppTableRecord
  2
GENIUS_GENTITLE_13
 70
     0
  0
APPID
  5
521
330
9
100
AcDbSymbolTableRecord
100
AcDbRegAppTableRecord
  2
GENIUS_GENSCREG_15
 70
     0
  0
APPID
  5
522
330
9
100
AcDbSymbolTableRecord
100
AcDbRegAppTableRecord
  2
GENIUS_GENOBJ-N-SDF_13
 70
     0
  0
APPID
  5
5BA
330
9
100
AcDbSymbolTableRecord
100
AcDbRegAppTableRecord
  2
ACAD_DSTYLE_DIMINSPECT
 70
     0
  0
APPID
  5
986
330
9
100
AcDbSymbolTableRecord
100
AcDbRegAppTableRecord
  2
GENIUS_GENDIMSH_14
 70
     0
  0
APPID
  5
AFA
330
9
100
AcDbSymbolTableRecord
100
AcDbRegAppTableRecord
  2
GENIUS_GENOBJ-N-HTC_13
 70
     0
  0
APPID
  5
AFB
330
9
100
AcDbSymbolTableRecord
100
AcDbRegAppTableRecord
  2
GENIUS_GENHATCH_13
 70
     0
  0
APPID
  5
B3E
330
9
100
AcDbSymbolTableRecord
100
AcDbRegAppTableRecord
  2
ACAUTHENVIRON
 70
     0
  0
APPID
  5
B42
330
9
100
AcDbSymbolTableRecord
100
AcDbRegAppTableRecord
  2
AcDbDynamicBlockTrueName
 70
     0
  0
APPID
  5
B43
330
9
100
AcDbSymbolTableRecord
100
AcDbRegAppTableRecord
  2
AcDbDynamicBlockGUID
 70
     0
  0
APPID
  5
B45
330
9
100
AcDbSymbolTableRecord
100
AcDbRegAppTableRecord
  2
ACDBBLOCKREPETAG
 70
     0
  0
APPID
  5
1275
330
9
100
AcDbSymbolTableRecord
100
AcDbRegAppTableRecord
  2
GENIUS_GENTRA_14
 70
     0
  0
APPID
  5
13C4
330
9
100
AcDbSymbolTableRecord
100
AcDbRegAppTableRecord
  2
GENIUS_GENOBJ-N-ZOO_13
 70
     0
  0
APPID
  5
13C5
330
9
100
AcDbSymbolTableRecord
100
AcDbRegAppTableRecord
  2
GENIUS_GENZOO_17
 70
     0
  0
APPID
  5
4CE4
330
9
100
AcDbSymbolTableRecord
100
AcDbRegAppTableRecord
  2
GEVID1219319205
 70
     0
  0
APPID
  5
4CF3
330
9
100
AcDbSymbolTableRecord
100
AcDbRegAppTableRecord
  2
GENIUS_GENCFG_13
 70
     0
1001
GENIUS_GENCFG0_13
1000
GEN
  0
APPID
  5
4CF4
330
9
100
AcDbSymbolTableRecord
100
AcDbRegAppTableRecord
  2
GENIUS_GENCFG0_13
 70
     0
1001
GENIUS_GENCFG_13
1071
1219390765
1000
4CF4
1000
GEN
1070
     0
  0
APPID
  5
4D2B
330
9
100
AcDbSymbolTableRecord
100
AcDbRegAppTableRecord
  2
GEVID1219319207
 70
     0
  0
APPID
  5
4D2D
330
9
100
AcDbSymbolTableRecord
100
AcDbRegAppTableRecord
  2
GEVID1219319208
 70
     0
  0
APPID
  5
4D36
330
9
100
AcDbSymbolTableRecord
100
AcDbRegAppTableRecord
  2
GENIUS_GENBHRL_14
 70
     0
  0
APPID
  5
4D55
330
9
100
AcDbSymbolTableRecord
100
AcDbRegAppTableRecord
  2
GEVID1219319209
 70
     0
  0
APPID
  5
4D60
330
9
100
AcDbSymbolTableRecord
100
AcDbRegAppTableRecord
  2
GEVID1219319210
 70
     0
  0
APPID
  5
5299
330
9
100
AcDbSymbolTableRecord
100
AcDbRegAppTableRecord
  2
GEVID1219390344
 70
     0
  0
APPID
  5
529A
330
9
100
AcDbSymbolTableRecord
100
AcDbRegAppTableRecord
  2
GEVMK
 70
     0
  0
APPID
  5
52A3
330
9
100
AcDbSymbolTableRecord
100
AcDbRegAppTableRecord
  2
GEVID1219390345
 70
     0
  0
APPID
  5
52A8
330
9
100
AcDbSymbolTableRecord
100
AcDbRegAppTableRecord
  2
GEVID1219390346
 70
     0
  0
APPID
  5
52AD
330
9
100
AcDbSymbolTableRecord
100
AcDbRegAppTableRecord
  2
GEVID1219390347
 70
     0
  0
APPID
  5
52B6
330
9
100
AcDbSymbolTableRecord
100
AcDbRegAppTableRecord
  2
GEVID1219390348
 70
     0
  0
APPID
  5
52BB
330
9
100
AcDbSymbolTableRecord
100
AcDbRegAppTableRecord
  2
GEVID1219390349
 70
     0
  0
APPID
  5
52E0
330
9
100
AcDbSymbolTableRecord
100
AcDbRegAppTableRecord
  2
GENIUS_GEFWELD_13
 70
     0
  0
APPID
  5
52E1
330
9
100
AcDbSymbolTableRecord
100
AcDbRegAppTableRecord
  2
GENIUS_GENOBJ-F-WELS_13
 70
     0
  0
APPID
  5
541C
330
9
100
AcDbSymbolTableRecord
100
AcDbRegAppTableRecord
  2
GENIUS_GENDTOL_13
 70
     0
  0
APPID
  5
5D5F
330
9
100
AcDbSymbolTableRecord
100
AcDbRegAppTableRecord
  2
AcDbAttr
 70
     0
  0
ENDTAB
  0
TABLE
  2
DIMSTYLE
  5
A
330
0
100
AcDbSymbolTable
 70
    28
100
AcDbDimStyleTable
 71
     5
340
276
340
27B
340
5F
340
27C
340
3CE
  0
DIMSTYLE
105
5F
330
A
100
AcDbSymbolTableRecord
100
AcDbDimStyleTableRecord
  2
Standard
 70
     0
340
5D
  0
DIMSTYLE
105
18F
330
A
100
AcDbSymbolTableRecord
100
AcDbDimStyleTableRecord
  2
AM_ANSI
 70
     0
  4
mm
 41
0.1
 42
0.05
 43
0.5
 44
0.1
 47
0.1
 48
0.1
 78
     7
 79
     2
140
0.12
141
0.0
146
0.71
147
0.06
176
   256
177
   256
178
     2
274
     4
284
     7
340
5D
371
    -1
372
    -1
1001
ACAD_DSTYLE_DIMARC_LENGTH_SYMBOL
1070
   379
1070
     1
  0
DIMSTYLE
105
190
330
A
100
AcDbSymbolTableRecord
100
AcDbDimStyleTableRecord
  2
AM_ANSI$3
 70
     0
  4
mm
 41
0.1
 42
0.05
 43
0.5
 44
0.1
 47
0.1
 48
0.1
 78
     7
 79
     2
140
0.12
141
0.0
146
0.71
147
0.06
176
   256
177
   256
178
     2
274
     4
284
     7
288
     1
289
     0
340
5D
371
    -1
372
    -1
1001
ACAD_DSTYLE_DIMARC_LENGTH_SYMBOL
1070
   379
1070
     1
  0
DIMSTYLE
105
191
330
A
100
AcDbSymbolTableRecord
100
AcDbDimStyleTableRecord
  2
AM_ANSI$4
 70
     0
  4
mm
 41
0.1
 42
0.05
 43
0.5
 44
0.1
 47
0.1
 48
0.1
 78
     7
 79
     2
140
0.12
141
0.0
146
0.71
147
0.06
176
   256
177
   256
178
     2
274
     4
284
     7
288
     1
289
     0
340
5D
371
    -1
372
    -1
1001
ACAD_DSTYLE_DIMARC_LENGTH_SYMBOL
1070
   379
1070
     1
  0
DIMSTYLE
105
192
330
A
100
AcDbSymbolTableRecord
100
AcDbDimStyleTableRecord
  2
AM_ANSI$7
 70
     0
  4
mm
 41
0.1
 42
0.05
 43
0.5
 44
0.1
 47
0.1
 48
0.1
 78
     7
 79
     2
140
0.24
141
0.0
146
0.71
147
0.06
176
   256
177
   256
178
     2
274
     4
284
     7
340
5D
371
    -1
372
    -1
1001
ACAD_DSTYLE_DIMARC_LENGTH_SYMBOL
1070
   379
1070
     1
  0
DIMSTYLE
105
193
330
A
100
AcDbSymbolTableRecord
100
AcDbDimStyleTableRecord
  2
AM_ANSI$SF
 70
     0
  4
mm
 41
0.1
 42
0.05
 43
0.5
 44
0.1
 47
0.1
 48
0.1
 75
     1
 76
     1
 78
     7
 79
     2
140
0.12
141
0.0
146
0.71
147
0.06
176
   256
177
   256
178
     2
274
     4
284
     7
340
5D
371
    -1
372
    -1
1001
ACAD_DSTYLE_DIMARC_LENGTH_SYMBOL
1070
   379
1070
     1
  0
DIMSTYLE
105
198
330
A
100
AcDbSymbolTableRecord
100
AcDbDimStyleTableRecord
  2
AM_ANSI$SH
 70
     0
  4
mm
 41
0.1
 42
0.05
 43
0.5
 44
0.1
 47
0.1
 48
0.1
 75
     1
 76
     1
 78
     7
 79
     2
140
0.12
141
0.0
146
0.71
147
0.06
173
     1
176
   256
177
   256
178
     2
274
     4
284
     7
340
5D
343
194
371
    -1
372
    -1
1001
ACAD_DSTYLE_DIMARC_LENGTH_SYMBOL
1070
   379
1070
     1
  0
DIMSTYLE
105
276
102
{ACAD_REACTORS
330
259
102
}
330
A
100
AcDbSymbolTableRecord
100
AcDbDimStyleTableRecord
  2
AM_DIN
 70
     0
  4
"
 40
2.0
 41
5.0
 42
1.0
 43
10.0
 44
1.0
 47
0.1
 48
0.1
 73
     0
 74
     0
 77
     1
 78
     8
 79
     2
140
5.0
141
0.0
143
0.0393701
146
0.71
147
1.5
172
     1
176
   256
177
   256
178
     2
271
     2
272
     2
283
     0
284
     8
340
5D
371
    -1
372
    -1
1001
ACAD_DSTYLE_DIMJAG
1070
   388
1040
1.5
1001
ACAD_DSTYLE_DIMTALN
1070
   392
1070
     0
1001
ACAD_DSTYLE_DIMJOGGED_JOGANGLE_SYMBOL
1070
   384
1040
1.570796326794896
  0
DIMSTYLE
105
277
330
A
100
AcDbSymbolTableRecord
100
AcDbDimStyleTableRecord
  2
AM_DIN$3
 70
     0
  4
"
 40
2.0
 41
3.5
 42
1.0
 43
10.0
 44
1.0
 47
0.1
 48
0.1
 73
     0
 77
     1
 78
     8
 79
     2
140
3.5
141
0.0
143
0.0393701
146
0.71
147
1.5
176
   256
177
   256
178
     2
271
     2
272
     2
283
     0
284
     8
288
     1
289
     0
340
5D
371
    -1
372
    -1
1001
ACAD_DSTYLE_DIMJOGGED_JOGANGLE_SYMBOL
1070
   384
1040
1.570796326794896
  0
DIMSTYLE
105
278
330
A
100
AcDbSymbolTableRecord
100
AcDbDimStyleTableRecord
  2
AM_DIN$4
 70
     0
  4
"
 40
2.0
 41
4.0
 42
1.0
 43
10.0
 44
1.0
 47
0.1
 48
0.1
 73
     0
 77
     1
 78
     8
 79
     2
140
3.5
141
0.0
143
0.0393701
146
0.71
147
1.5
176
   256
177
   256
178
     2
271
     2
272
     2
283
     0
284
     8
288
     1
289
     0
340
5D
371
    -1
372
    -1
1001
ACAD_DSTYLE_DIMJOGGED_JOGANGLE_SYMBOL
1070
   384
1040
1.570796326794896
  0
DIMSTYLE
105
279
330
A
100
AcDbSymbolTableRecord
100
AcDbDimStyleTableRecord
  2
AM_DIN$6
 70
     0
  4
"
 40
2.0
 41
4.0
 42
0.0
 43
10.0
 44
1.0
 47
0.1
 48
0.1
 73
     0
 74
     0
 78
     8
 79
     2
140
3.5
141
0.0
143
0.0393701
146
0.71
147
1.5
172
     1
176
   256
177
   256
178
     2
271
     2
272
     2
283
     0
284
     8
340
5D
371
    -1
372
    -1
1001
ACAD_DSTYLE_DIMJOGGED_JOGANGLE_SYMBOL
1070
   384
1040
1.570796326794896
  0
DIMSTYLE
105
27A
330
A
100
AcDbSymbolTableRecord
100
AcDbDimStyleTableRecord
  2
AM_DIN$7
 70
     0
  4
"
 40
2.0
 41
5.0
 42
1.0
 43
10.0
 44
1.0
 47
0.1
 48
0.1
 73
     0
 74
     0
 77
     1
 78
     8
 79
     2
140
5.0
141
0.0
143
0.0393701
146
0.71
147
1.5
172
     1
176
   256
177
   256
178
     2
271
     2
272
     2
283
     0
284
     8
340
5D
371
    -1
372
    -1
1001
ACAD_DSTYLE_DIMJOGGED_JOGANGLE_SYMBOL
1070
   384
1040
1.570796326794896
  0
DIMSTYLE
105
27B
330
A
100
AcDbSymbolTableRecord
100
AcDbDimStyleTableRecord
  2
AM_DIN$SF
 70
     0
  4
"
 41
4.0
 42
1.0
 43
10.0
 44
1.0
 47
0.1
 48
0.1
 73
     0
 74
     0
 75
     1
 76
     1
 77
     1
 78
     8
 79
     2
140
3.5
141
0.0
143
0.0393701
146
0.71
147
1.5
172
     1
176
   256
177
   256
178
     2
271
     2
272
     2
283
     0
284
     8
340
5D
371
    -1
372
    -1
1001
ACAD_DSTYLE_DIMJOGGED_JOGANGLE_SYMBOL
1070
   384
1040
1.570796326794896
  0
DIMSTYLE
105
27C
330
A
100
AcDbSymbolTableRecord
100
AcDbDimStyleTableRecord
  2
AM_DIN$SH
 70
     0
  4
"
 41
4.0
 42
1.0
 43
10.0
 44
1.0
 47
0.1
 48
0.1
 73
     0
 74
     0
 75
     1
 76
     1
 77
     1
 78
     8
 79
     2
140
3.5
141
0.0
143
0.0393701
144
2.0
146
0.71
147
1.5
172
     1
173
     1
176
   256
177
   256
178
     2
271
     2
272
     2
283
     0
284
     8
340
5D
343
194
371
    -1
372
    -1
1001
ACAD_DSTYLE_DIMJOGGED_JOGANGLE_SYMBOL
1070
   384
1040
1.570796326794896
  0
DIMSTYLE
105
32F
102
{ACAD_REACTORS
330
3483
330
3490
330
5246
330
555B
102
}
330
A
100
AcDbSymbolTableRecord
100
AcDbDimStyleTableRecord
  2
AM_DIN$0
 70
     0
  4
"
 40
2.0
 41
4.0
 42
0.0
 43
10.0
 44
1.0
 47
0.1
 48
0.1
 73
     0
 74
     0
 77
     1
 78
     8
 79
     2
140
3.5
141
0.0
143
0.0393701
146
0.71
147
1.5
172
     1
176
   256
177
   256
178
     2
271
     2
272
     2
283
     0
284
     8
340
5D
371
    -1
372
    -1
1001
ACAD_DSTYLE_DIMJOGGED_JOGANGLE_SYMBOL
1070
   384
1040
1.570796326794896
  0
DIMSTYLE
105
330
330
A
100
AcDbSymbolTableRecord
100
AcDbDimStyleTableRecord
  2
AM_DIN$2
 70
     0
  4
"
 40
2.0
 41
4.0
 42
0.0
 43
10.0
 44
1.0
 47
0.1
 48
0.1
 73
     0
 74
     0
 77
     1
 78
     8
 79
     2
140
3.5
141
0.0
143
0.0393701
146
0.71
147
1.5
172
     1
176
   256
177
   256
178
     2
271
     2
272
     2
283
     0
284
     8
340
5D
371
    -1
372
    -1
1001
ACAD_DSTYLE_DIMJOGGED_JOGANGLE_SYMBOL
1070
   384
1040
1.570796326794896
  0
DIMSTYLE
105
3CE
330
A
100
AcDbSymbolTableRecord
100
AcDbDimStyleTableRecord
  2
AM_ISO
 70
     0
  4
"
 41
2.5
 42
1.0
 43
10.0
 44
1.0
 47
0.1
 48
0.1
 73
     0
 74
     0
 77
     1
 78
     8
 79
     2
140
3.5
141
0.0
143
0.0393701
146
0.71
147
1.5
172
     1
176
   256
177
   256
178
     2
271
     2
272
     3
274
     4
283
     0
284
     8
340
5D
371
    -1
372
    -1
1001
ACAD_DSTYLE_DIMJOGGED_JOGANGLE_SYMBOL
1070
   384
1040
0.7853981633974483
1001
ACAD_DSTYLE_DIMARC_LENGTH_SYMBOL
1070
   379
1070
     1
  0
DIMSTYLE
105
3CF
330
A
100
AcDbSymbolTableRecord
100
AcDbDimStyleTableRecord
  2
AM_ISO$3
 70
     0
  4
"
 41
2.5
 42
1.0
 43
10.0
 44
1.0
 47
0.1
 48
0.1
 73
     0
 77
     1
 78
     8
 79
     2
140
3.5
141
0.0
143
0.0393701
146
0.71
147
1.5
176
   256
177
   256
178
     2
271
     2
272
     3
274
     4
283
     0
284
     8
288
     1
289
     0
340
5D
371
    -1
372
    -1
1001
ACAD_DSTYLE_DIMJOGGED_JOGANGLE_SYMBOL
1070
   384
1040
0.7853981633974483
1001
ACAD_DSTYLE_DIMARC_LENGTH_SYMBOL
1070
   379
1070
     1
  0
DIMSTYLE
105
3D0
330
A
100
AcDbSymbolTableRecord
100
AcDbDimStyleTableRecord
  2
AM_ISO$4
 70
     0
  4
"
 41
2.5
 42
1.0
 43
10.0
 44
1.0
 47
0.1
 48
0.1
 73
     0
 77
     1
 78
     8
 79
     2
140
3.5
141
0.0
143
0.0393701
146
0.71
147
1.5
176
   256
177
   256
178
     2
271
     2
272
     3
274
     4
283
     0
284
     8
288
     1
289
     0
340
5D
371
    -1
372
    -1
1001
ACAD_DSTYLE_DIMJOGGED_JOGANGLE_SYMBOL
1070
   384
1040
0.7853981633974483
1001
ACAD_DSTYLE_DIMARC_LENGTH_SYMBOL
1070
   379
1070
     1
  0
DIMSTYLE
105
3D1
330
A
100
AcDbSymbolTableRecord
100
AcDbDimStyleTableRecord
  2
AM_ISO$6
 70
     0
  4
"
 41
2.5
 42
1.0
 43
10.0
 44
1.0
 47
0.1
 48
0.1
 73
     0
 74
     0
 78
     8
 79
     2
140
3.5
141
0.0
143
0.0393701
146
0.71
147
1.5
172
     1
176
   256
177
   256
178
     2
271
     2
272
     3
274
     4
283
     0
284
     8
340
5D
371
    -1
372
    -1
1001
ACAD_DSTYLE_DIMJOGGED_JOGANGLE_SYMBOL
1070
   384
1040
0.7853981633974483
1001
ACAD_DSTYLE_DIMARC_LENGTH_SYMBOL
1070
   379
1070
     1
  0
DIMSTYLE
105
3D2
330
A
100
AcDbSymbolTableRecord
100
AcDbDimStyleTableRecord
  2
AM_ISO$7
 70
     0
  4
"
 41
2.5
 42
1.0
 43
10.0
 44
1.0
 47
0.1
 48
0.1
 73
     0
 74
     0
 77
     1
 78
     8
 79
     2
140
5.0
141
0.0
143
0.0393701
146
0.71
147
1.5
172
     1
176
   256
177
   256
178
     2
271
     2
272
     3
274
     4
283
     0
284
     8
340
5D
371
    -1
372
    -1
1001
ACAD_DSTYLE_DIMJOGGED_JOGANGLE_SYMBOL
1070
   384
1040
0.7853981633974483
1001
ACAD_DSTYLE_DIMARC_LENGTH_SYMBOL
1070
   379
1070
     1
  0
DIMSTYLE
105
3D3
330
A
100
AcDbSymbolTableRecord
100
AcDbDimStyleTableRecord
  2
AM_ISO$SF
 70
     0
  4
"
 41
2.5
 42
1.0
 43
10.0
 44
1.0
 47
0.1
 48
0.1
 73
     0
 74
     0
 75
     1
 76
     1
 77
     1
 78
     8
 79
     2
140
3.5
141
0.0
143
0.0393701
146
0.71
147
1.5
172
     1
176
   256
177
   256
178
     2
271
     2
272
     3
274
     4
283
     0
284
     8
340
5D
371
    -1
372
    -1
1001
ACAD_DSTYLE_DIMJOGGED_JOGANGLE_SYMBOL
1070
   384
1040
0.7853981633974483
1001
ACAD_DSTYLE_DIMARC_LENGTH_SYMBOL
1070
   379
1070
     1
  0
DIMSTYLE
105
3D4
330
A
100
AcDbSymbolTableRecord
100
AcDbDimStyleTableRecord
  2
AM_ISO$SH
 70
     0
  4
"
 41
2.5
 42
1.0
 43
10.0
 44
1.0
 47
0.1
 48
0.1
 73
     0
 74
     0
 75
     1
 76
     1
 77
     1
 78
     8
 79
     2
140
3.5
141
0.0
143
0.0393701
144
2.0
146
0.71
147
1.5
172
     1
173
     1
176
   256
177
   256
178
     2
271
     2
272
     3
274
     4
283
     0
284
     8
340
5D
343
194
371
    -1
372
    -1
1001
ACAD_DSTYLE_DIMJOGGED_JOGANGLE_SYMBOL
1070
   384
1040
0.7853981633974483
1001
ACAD_DSTYLE_DIMARC_LENGTH_SYMBOL
1070
   379
1070
     1
  0
ENDTAB
  0
TABLE
  2
BLOCK_RECORD
  5
1
330
0
100
AcDbSymbolTable
 70
    75
  0
BLOCK_RECORD
  5
74
102
{ACAD_XDICTIONARY
360
A88
102
}
330
1
100
AcDbSymbolTableRecord
100
AcDbBlockTableRecord
  2
*Model_Space
340
77
  0
BLOCK_RECORD
  5
70
330
1
100
AcDbSymbolTableRecord
100
AcDbBlockTableRecord
  2
*Paper_Space
340
73
  0
BLOCK_RECORD
  5
194
330
1
100
AcDbSymbolTableRecord
100
AcDbBlockTableRecord
  2
GENAXEH
340
0
  0
BLOCK_RECORD
  5
3567
330
1
100
AcDbSymbolTableRecord
100
AcDbBlockTableRecord
  2
*D15
340
0
  0
BLOCK_RECORD
  5
358D
330
1
100
AcDbSymbolTableRecord
100
AcDbBlockTableRecord
  2
*D16
340
0
  0
BLOCK_RECORD
  5
5247
330
1
100
AcDbSymbolTableRecord
100
AcDbBlockTableRecord
  2
*D43
340
0
  0
BLOCK_RECORD
  5
555C
330
1
100
AcDbSymbolTableRecord
100
AcDbBlockTableRecord
  2
*D50
340
0
  0
BLOCK_RECORD
  5
5CB3
330
1
100
AcDbSymbolTableRecord
100
AcDbBlockTableRecord
  2
*U60
340
0
  0
BLOCK_RECORD
  5
5CC0
330
1
100
AcDbSymbolTableRecord
100
AcDbBlockTableRecord
  2
*U61
340
0
  0
BLOCK_RECORD
  5
5CCD
330
1
100
AcDbSymbolTableRecord
100
AcDbBlockTableRecord
  2
*U62
340
0
  0
BLOCK_RECORD
  5
5CDA
330
1
100
AcDbSymbolTableRecord
100
AcDbBlockTableRecord
  2
*U63
340
0
  0
BLOCK_RECORD
  5
5CE2
330
1
100
AcDbSymbolTableRecord
100
AcDbBlockTableRecord
  2
*U64
340
0
  0
BLOCK_RECORD
  5
5CEF
330
1
100
AcDbSymbolTableRecord
100
AcDbBlockTableRecord
  2
*U65
340
0
  0
BLOCK_RECORD
  5
5CF7
330
1
100
AcDbSymbolTableRecord
100
AcDbBlockTableRecord
  2
*U66
340
0
  0
BLOCK_RECORD
  5
5D04
330
1
100
AcDbSymbolTableRecord
100
AcDbBlockTableRecord
  2
*U67
340
0
  0
BLOCK_RECORD
  5
5D0C
330
1
100
AcDbSymbolTableRecord
100
AcDbBlockTableRecord
  2
*U68
340
0
  0
BLOCK_RECORD
  5
5D19
330
1
100
AcDbSymbolTableRecord
100
AcDbBlockTableRecord
  2
*U69
340
0
  0
BLOCK_RECORD
  5
5D21
330
1
100
AcDbSymbolTableRecord
100
AcDbBlockTableRecord
  2
*U70
340
0
  0
BLOCK_RECORD
  5
5D2E
330
1
100
AcDbSymbolTableRecord
100
AcDbBlockTableRecord
  2
*U71
340
0
  0
BLOCK_RECORD
  5
5D36
330
1
100
AcDbSymbolTableRecord
100
AcDbBlockTableRecord
  2
*U72
340
0
  0
BLOCK_RECORD
  5
5D43
330
1
100
AcDbSymbolTableRecord
100
AcDbBlockTableRecord
  2
*U73
340
0
  0
BLOCK_RECORD
  5
5D4B
330
1
100
AcDbSymbolTableRecord
100
AcDbBlockTableRecord
  2
*U74
340
0
  0
ENDTAB
  0
ENDSEC
  0
SECTION
  2
BLOCKS
  0
BLOCK
  5
75
330
74
100
AcDbEntity
  8
0
100
AcDbBlockBegin
  2
*Model_Space
 70
     0
 10
0.0
 20
0.0
 30
0.0
  3
*Model_Space
  1

  0
ENDBLK
  5
76
330
74
100
AcDbEntity
  8
0
100
AcDbBlockEnd
  0
BLOCK
  5
71
330
70
100
AcDbEntity
 67
     1
  8
0
100
AcDbBlockBegin
  2
*Paper_Space
 70
     0
 10
0.0
 20
0.0
 30
0.0
  3
*Paper_Space
  1

  0
ENDBLK
  5
72
330
70
100
AcDbEntity
 67
     1
  8
0
100
AcDbBlockEnd
  0
BLOCK
  5
196
330
194
100
AcDbEntity
  8
0
100
AcDbBlockBegin
  2
GENAXEH
 70
     0
 10
0.0
 20
0.0
 30
0.0
  3
GENAXEH
  1

  0
LINE
  5
195
330
194
100
AcDbEntity
  8
0
100
AcDbLine
 10
-1.0
 20
0.0
 30
0.0
 11
1.0
 21
0.0
 31
0.0
  0
ENDBLK
  5
197
330
194
100
AcDbEntity
  8
0
100
AcDbBlockEnd
  0
BLOCK
  5
3568
330
3567
100
AcDbEntity
  8
0
100
AcDbBlockBegin
  2
*D15
 70
     1
 10
0.0
 20
0.0
 30
0.0
  3
*D15
  1

  0
LINE
  5
5A11
330
3567
100
AcDbEntity
  8
AM_5 ( Bemassung)
100
AcDbLine
 10
100.7043558884183
 20
337.3565081266852
 30
0.0
 11
28.84347976268717
 21
337.3565081266852
 31
0.0
  0
LINE
  5
5A12
330
3567
100
AcDbEntity
  8
AM_5 ( Bemassung)
100
AcDbLine
 10
100.7043558884183
 20
187.3565081266852
 30
0.0
 11
28.84347976268714
 21
187.3565081266852
 31
0.0
  0
LINE
  5
5A13
330
3567
100
AcDbEntity
  8
AM_5 ( Bemassung)
100
AcDbLine
 10
30.84347976268717
 20
329.3565081266852
 30
0.0
 11
30.84347976268714
 21
195.3565081266852
 31
0.0
  0
SOLID
  5
5A14
330
3567
100
AcDbEntity
  8
AM_5 ( Bemassung)
100
AcDbTrace
 10
29.51014642935384
 20
329.3565081266852
 30
0.0
 11
32.1768130960205
 21
329.3565081266852
 31
0.0
 12
30.84347976268717
 22
337.3565081266852
 32
0.0
 13
30.84347976268717
 23
337.3565081266852
 33
0.0
  0
SOLID
  5
5A15
330
3567
100
AcDbEntity
  8
AM_5 ( Bemassung)
100
AcDbTrace
 10
29.51014642935381
 20
195.3565081266852
 30
0.0
 11
32.17681309602048
 21
195.3565081266852
 31
0.0
 12
30.84347976268714
 22
187.3565081266852
 32
0.0
 13
30.84347976268714
 23
187.3565081266852
 33
0.0
  0
MTEXT
  5
5A16
330
3567
100
AcDbEntity
  8
AM_5 ( Bemassung)
 62
     2
100
AcDbMText
 10
24.26708139979489
 20
262.3565081266852
 30
0.0
 40
7.0
 41
0.0
 71
     5
 72
     1
  1
150
 11
0.0000000000000001
 21
1.0
 31
0.0
 73
     1
 44
1.0
  0
POINT
  5
5A17
330
3567
100
AcDbEntity
  8
Defpoints
 62
     0
100
AcDbPoint
 10
100.7043558884183
 20
337.3565081266852
 30
0.0
  0
POINT
  5
5A18
330
3567
100
AcDbEntity
  8
Defpoints
 62
     0
100
AcDbPoint
 10
100.7043558884183
 20
187.3565081266852
 30
0.0
  0
POINT
  5
5A19
330
3567
100
AcDbEntity
  8
Defpoints
 62
     0
100
AcDbPoint
 10
30.84347976268714
 20
187.3565081266852
 30
0.0
  0
ENDBLK
  5
3569
330
3567
100
AcDbEntity
  8
0
100
AcDbBlockEnd
  0
BLOCK
  5
358E
330
358D
100
AcDbEntity
  8
0
100
AcDbBlockBegin
  2
*D16
 70
     1
 10
0.0
 20
0.0
 30
0.0
  3
*D16
  1

  0
LINE
  5
5A1A
330
358D
100
AcDbEntity
  8
AM_5 ( Bemassung)
100
AcDbLine
 10
140.2043563464828
 20
722.2581485290704
 30
0.0
 11
69.85435601255282
 21
722.2581485290704
 31
0.0
  0
LINE
  5
5A1B
330
358D
100
AcDbEntity
  8
AM_5 ( Bemassung)
100
AcDbLine
 10
95.85435701255283
 20
635.7581485290705
 30
0.0
 11
69.85435601255281
 21
635.7581485290705
 31
0.0
  0
LINE
  5
5A1C
330
358D
100
AcDbEntity
  8
AM_5 ( Bemassung)
100
AcDbLine
 10
71.85435601255282
 20
714.2581485290705
 30
0.0
 11
71.85435601255282
 21
643.7581485290705
 31
0.0
  0
SOLID
  5
5A1D
330
358D
100
AcDbEntity
  8
AM_5 ( Bemassung)
100
AcDbTrace
 10
70.5210226792195
 20
714.2581485290705
 30
0.0
 11
73.18768934588615
 21
714.2581485290705
 31
0.0
 12
71.85435601255282
 22
722.2581485290704
 32
0.0
 13
71.85435601255282
 23
722.2581485290704
 33
0.0
  0
SOLID
  5
5A1E
330
358D
100
AcDbEntity
  8
AM_5 ( Bemassung)
100
AcDbTrace
 10
70.52102267921949
 20
643.7581485290705
 30
0.0
 11
73.18768934588614
 21
643.7581485290705
 31
0.0
 12
71.85435601255282
 22
635.7581485290705
 32
0.0
 13
71.85435601255282
 23
635.7581485290705
 33
0.0
  0
MTEXT
  5
5A1F
330
358D
100
AcDbEntity
  8
AM_5 ( Bemassung)
 62
     2
100
AcDbMText
 10
65.27795764966049
 20
679.0081485290705
 30
0.0
 40
7.0
 41
0.0
 71
     5
 72
     1
  1
86.5
 11
0.0000000000000001
 21
1.0
 31
0.0
 73
     1
 44
1.0
  0
POINT
  5
5A20
330
358D
100
AcDbEntity
  8
Defpoints
 62
     0
100
AcDbPoint
 10
140.2043563464828
 20
722.2581485290704
 30
0.0
  0
POINT
  5
5A21
330
358D
100
AcDbEntity
  8
Defpoints
 62
     0
100
AcDbPoint
 10
95.85435701255283
 20
635.7581485290705
 30
0.0
  0
POINT
  5
5A22
330
358D
100
AcDbEntity
  8
Defpoints
 62
     0
100
AcDbPoint
 10
71.85435601255282
 20
635.7581485290705
 30
0.0
  0
ENDBLK
  5
358F
330
358D
100
AcDbEntity
  8
0
100
AcDbBlockEnd
  0
BLOCK
  5
5248
330
5247
100
AcDbEntity
  8
0
100
AcDbBlockBegin
  2
*D43
 70
     1
 10
0.0
 20
0.0
 30
0.0
  3
*D43
  1

  0
LINE
  5
5B07
330
5247
100
AcDbEntity
  8
AM_5 ( Bemassung)
100
AcDbLine
 10
91.70435587341831
 20
722.2581485290704
 30
0.0
 11
49.85435601255254
 21
722.2581485290704
 31
0.0
  0
LINE
  5
5B08
330
5247
100
AcDbEntity
  8
AM_5 ( Bemassung)
100
AcDbLine
 10
140.2043563464828
 20
547.2581511573064
 30
0.0
 11
49.85435601255249
 21
547.2581511573064
 31
0.0
  0
LINE
  5
5B09
330
5247
100
AcDbEntity
  8
AM_5 ( Bemassung)
100
AcDbLine
 10
51.85435601255253
 20
714.2581485290705
 30
0.0
 11
51.8543560125525
 21
555.2581511573064
 31
0.0
  0
SOLID
  5
5B0A
330
5247
100
AcDbEntity
  8
AM_5 ( Bemassung)
100
AcDbTrace
 10
50.52102267921919
 20
714.2581485290705
 30
0.0
 11
53.18768934588586
 21
714.2581485290705
 31
0.0
 12
51.85435601255253
 22
722.2581485290704
 32
0.0
 13
51.85435601255253
 23
722.2581485290704
 33
0.0
  0
SOLID
  5
5B0B
330
5247
100
AcDbEntity
  8
AM_5 ( Bemassung)
100
AcDbTrace
 10
50.52102267921916
 20
555.2581511573064
 30
0.0
 11
53.18768934588582
 21
555.2581511573064
 31
0.0
 12
51.8543560125525
 22
547.2581511573064
 32
0.0
 13
51.8543560125525
 23
547.2581511573064
 33
0.0
  0
MTEXT
  5
5B0C
330
5247
100
AcDbEntity
  8
AM_5 ( Bemassung)
 62
     2
100
AcDbMText
 10
45.27795764966018
 20
634.7581498431885
 30
0.0
 40
7.0
 41
0.0
 71
     5
 72
     1
  1
175
 11
0.0000000000000001
 21
1.0
 31
0.0
 73
     1
 44
1.0
  0
POINT
  5
5B0D
330
5247
100
AcDbEntity
  8
Defpoints
 62
     0
100
AcDbPoint
 10
91.70435587341831
 20
722.2581485290704
 30
0.0
  0
POINT
  5
5B0E
330
5247
100
AcDbEntity
  8
Defpoints
 62
     0
100
AcDbPoint
 10
140.2043563464828
 20
547.2581511573064
 30
0.0
  0
POINT
  5
5B0F
330
5247
100
AcDbEntity
  8
Defpoints
 62
     0
100
AcDbPoint
 10
51.8543560125525
 20
547.2581511573064
 30
0.0
  0
ENDBLK
  5
5249
330
5247
100
AcDbEntity
  8
0
100
AcDbBlockEnd
  0
BLOCK
  5
555D
330
555C
100
AcDbEntity
  8
0
100
AcDbBlockBegin
  2
*D50
 70
     1
 10
0.0
 20
0.0
 30
0.0
  3
*D50
  1

  0
LINE
  5
5CA8
330
555C
100
AcDbEntity
  8
AM_5 ( Bemassung)
100
AcDbLine
 10
90.70435588841837
 20
262.3565081266851
 30
0.0
 11
90.70435588841839
 21
402.5716236235671
 31
0.0
  0
LINE
  5
5CA9
330
555C
100
AcDbEntity
  8
AM_5 ( Bemassung)
100
AcDbLine
 10
250.7043558884184
 20
262.3565081266851
 30
0.0
 11
250.7043558884184
 21
402.5716236235671
 31
0.0
  0
LINE
  5
5CAA
330
555C
100
AcDbEntity
  8
AM_5 ( Bemassung)
100
AcDbLine
 10
98.70435588841839
 20
400.571623623567
 30
0.0
 11
242.7043558884184
 21
400.571623623567
 31
0.0
  0
SOLID
  5
5CAB
330
555C
100
AcDbEntity
  8
AM_5 ( Bemassung)
100
AcDbTrace
 10
98.70435588841839
 20
401.9049569569004
 30
0.0
 11
98.70435588841839
 21
399.2382902902337
 31
0.0
 12
90.70435588841839
 22
400.571623623567
 32
0.0
 13
90.70435588841839
 23
400.571623623567
 33
0.0
  0
SOLID
  5
5CAC
330
555C
100
AcDbEntity
  8
AM_5 ( Bemassung)
100
AcDbTrace
 10
242.7043558884184
 20
401.9049569569004
 30
0.0
 11
242.7043558884184
 21
399.2382902902337
 31
0.0
 12
250.7043558884184
 22
400.571623623567
 32
0.0
 13
250.7043558884184
 23
400.571623623567
 33
0.0
  0
MTEXT
  5
5CAD
330
555C
100
AcDbEntity
  8
AM_5 ( Bemassung)
 62
     2
100
AcDbMText
 10
170.7043558884184
 20
407.2005458609476
 30
0.0
 40
7.0
 41
0.0
 71
     5
 72
     1
  1
%%c160
 73
     1
 44
1.0
  0
POINT
  5
5CAE
330
555C
100
AcDbEntity
  8
Defpoints
 62
     0
100
AcDbPoint
 10
90.70435588841837
 20
262.3565081266851
 30
0.0
  0
POINT
  5
5CAF
330
555C
100
AcDbEntity
  8
Defpoints
 62
     0
100
AcDbPoint
 10
250.7043558884184
 20
262.3565081266851
 30
0.0
  0
POINT
  5
5CB0
330
555C
100
AcDbEntity
  8
Defpoints
 62
     0
100
AcDbPoint
 10
250.7043558884184
 20
400.571623623567
 30
0.0
  0
ENDBLK
  5
555E
330
555C
100
AcDbEntity
  8
0
100
AcDbBlockEnd
  0
BLOCK
  5
5CBD
330
5CB3
100
AcDbEntity
  8
0
100
AcDbBlockBegin
  2
*U60
 70
     1
 10
0.0
 20
0.0
 30
0.0
  3
*U60
  1

  0
LINE
  5
5CB4
330
5CB3
100
AcDbEntity
  8
AM_7N ( Normteile Mittelinien)
100
AcDbLine
 10
115.7043558884184
 20
732.2581485290704
 30
0.0
 11
115.7043558884184
 21
733.8581485290704
 31
0.0
  0
LINE
  5
5CB5
330
5CB3
100
AcDbEntity
  8
AM_0N ( Normteile sichtbar)
100
AcDbLine
 10
107.7043558884184
 20
732.2581485290704
 30
0.0
 11
112.0426471384184
 21
732.2581485290704
 31
0.0
  0
LINE
  5
5CB6
330
5CB3
100
AcDbEntity
  8
AM_9N ( Normteile verdeckt)
100
AcDbLine
 10
112.0426471384184
 20
732.2581485290704
 30
0.0
 11
119.3660646384184
 21
732.2581485290704
 31
0.0
  0
LINE
  5
5CB7
330
5CB3
100
AcDbEntity
  8
AM_0N ( Normteile sichtbar)
100
AcDbLine
 10
119.3660646384184
 20
732.2581485290704
 30
0.0
 11
123.7043558884183
 21
732.2581485290704
 31
0.0
  0
LINE
  5
5CB8
330
5CB3
100
AcDbEntity
  8
AM_0N ( Normteile sichtbar)
100
AcDbLine
 10
123.7043558884183
 20
733.8581485290704
 30
0.0
 11
121.4043558884183
 21
733.8581485290704
 31
0.0
  0
LINE
  5
5CB9
330
5CB3
100
AcDbEntity
  8
AM_9N ( Normteile verdeckt)
100
AcDbLine
 10
121.4043558884183
 20
733.8581485290704
 30
0.0
 11
110.0043558884184
 21
733.8581485290704
 31
0.0
  0
LINE
  5
5CBA
330
5CB3
100
AcDbEntity
  8
AM_0N ( Normteile sichtbar)
100
AcDbLine
 10
110.0043558884184
 20
733.8581485290704
 30
0.0
 11
107.7043558884184
 21
733.8581485290704
 31
0.0
  0
LINE
  5
5CBB
330
5CB3
100
AcDbEntity
  8
AM_0N ( Normteile sichtbar)
100
AcDbLine
 10
123.7043558884183
 20
732.2581485290704
 30
0.0
 11
123.7043558884183
 21
733.8581485290704
 31
0.0
  0
LINE
  5
5CBC
330
5CB3
100
AcDbEntity
  8
AM_0N ( Normteile sichtbar)
100
AcDbLine
 10
107.7043558884184
 20
733.8581485290704
 30
0.0
 11
107.7043558884184
 21
732.2581485290704
 31
0.0
  0
ENDBLK
  5
5CBE
330
5CB3
100
AcDbEntity
  8
0
100
AcDbBlockEnd
  0
BLOCK
  5
5CCA
330
5CC0
100
AcDbEntity
  8
0
100
AcDbBlockBegin
  2
*U61
 70
     1
 10
0.0
 20
0.0
 30
0.0
  3
*U61
  1

  0
LINE
  5
5CC1
330
5CC0
100
AcDbEntity
  8
AM_7N ( Normteile Mittelinien)
100
AcDbLine
 10
225.7043558884184
 20
732.2581485290704
 30
0.0
 11
225.7043558884184
 21
733.8581485290704
 31
0.0
  0
LINE
  5
5CC2
330
5CC0
100
AcDbEntity
  8
AM_0N ( Normteile sichtbar)
100
AcDbLine
 10
233.7043558884184
 20
732.2581485290704
 30
0.0
 11
229.3660646384184
 21
732.2581485290704
 31
0.0
  0
LINE
  5
5CC3
330
5CC0
100
AcDbEntity
  8
AM_9N ( Normteile verdeckt)
100
AcDbLine
 10
229.3660646384184
 20
732.2581485290704
 30
0.0
 11
222.0426471384184
 21
732.2581485290704
 31
0.0
  0
LINE
  5
5CC4
330
5CC0
100
AcDbEntity
  8
AM_0N ( Normteile sichtbar)
100
AcDbLine
 10
222.0426471384184
 20
732.2581485290704
 30
0.0
 11
217.7043558884184
 21
732.2581485290704
 31
0.0
  0
LINE
  5
5CC5
330
5CC0
100
AcDbEntity
  8
AM_0N ( Normteile sichtbar)
100
AcDbLine
 10
217.7043558884184
 20
733.8581485290704
 30
0.0
 11
220.0043558884184
 21
733.8581485290704
 31
0.0
  0
LINE
  5
5CC6
330
5CC0
100
AcDbEntity
  8
AM_9N ( Normteile verdeckt)
100
AcDbLine
 10
220.0043558884184
 20
733.8581485290704
 30
0.0
 11
231.4043558884184
 21
733.8581485290704
 31
0.0
  0
LINE
  5
5CC7
330
5CC0
100
AcDbEntity
  8
AM_0N ( Normteile sichtbar)
100
AcDbLine
 10
231.4043558884184
 20
733.8581485290704
 30
0.0
 11
233.7043558884184
 21
733.8581485290704
 31
0.0
  0
LINE
  5
5CC8
330
5CC0
100
AcDbEntity
  8
AM_0N ( Normteile sichtbar)
100
AcDbLine
 10
217.7043558884184
 20
732.2581485290704
 30
0.0
 11
217.7043558884184
 21
733.8581485290704
 31
0.0
  0
LINE
  5
5CC9
330
5CC0
100
AcDbEntity
  8
AM_0N ( Normteile sichtbar)
100
AcDbLine
 10
233.7043558884184
 20
733.8581485290704
 30
0.0
 11
233.7043558884184
 21
732.2581485290704
 31
0.0
  0
ENDBLK
  5
5CCB
330
5CC0
100
AcDbEntity
  8
0
100
AcDbBlockEnd
  0
BLOCK
  5
5CD7
330
5CCD
100
AcDbEntity
  8
0
100
AcDbBlockBegin
  2
*U62
 70
     1
 10
0.0
 20
0.0
 30
0.0
  3
*U62
  1

  0
LINE
  5
5CCE
330
5CCD
100
AcDbEntity
  8
AM_7N ( Normteile Mittelinien)
100
AcDbLine
 10
225.7043558884183
 20
269.8620616261501
 30
0.0
 11
225.7043558884183
 21
254.8509546272201
 31
0.0
  0
LINE
  5
5CCF
330
5CCD
100
AcDbEntity
  8
AM_9N ( Normteile verdeckt)
100
AcDbLine
 10
219.2043558884183
 20
258.6037313769526
 30
0.0
 11
225.7043558884183
 21
254.85095462722
 31
0.0
  0
LINE
  5
5CD0
330
5CCD
100
AcDbEntity
  8
AM_9N ( Normteile verdeckt)
100
AcDbLine
 10
225.7043558884183
 20
254.85095462722
 30
0.0
 11
232.2043558884183
 21
258.6037313769521
 31
0.0
  0
LINE
  5
5CD1
330
5CCD
100
AcDbEntity
  8
AM_9N ( Normteile verdeckt)
100
AcDbLine
 10
232.2043558884183
 20
258.6037313769521
 30
0.0
 11
232.2043558884183
 21
266.1092848764177
 31
0.0
  0
LINE
  5
5CD2
330
5CCD
100
AcDbEntity
  8
AM_9N ( Normteile verdeckt)
100
AcDbLine
 10
232.2043558884183
 20
266.1092848764177
 30
0.0
 11
225.7043558884185
 21
269.8620616261501
 31
0.0
  0
LINE
  5
5CD3
330
5CCD
100
AcDbEntity
  8
AM_9N ( Normteile verdeckt)
100
AcDbLine
 10
225.7043558884185
 20
269.8620616261501
 30
0.0
 11
219.2043558884183
 21
266.1092848764179
 31
0.0
  0
LINE
  5
5CD4
330
5CCD
100
AcDbEntity
  8
AM_9N ( Normteile verdeckt)
100
AcDbLine
 10
219.2043558884183
 20
266.1092848764179
 30
0.0
 11
219.2043558884183
 21
258.6037313769526
 31
0.0
  0
CIRCLE
  5
5CD5
330
5CCD
100
AcDbEntity
  8
AM_9N ( Normteile verdeckt)
100
AcDbCircle
 10
225.7043558884183
 20
262.3565081266851
 30
0.0
 40
6.5
  0
LINE
  5
5CD6
330
5CCD
100
AcDbEntity
  8
AM_7N ( Normteile Mittelinien)
100
AcDbLine
 10
218.1988023889533
 20
262.3565081266851
 30
0.0
 11
233.2099093878833
 21
262.3565081266851
 31
0.0
  0
ENDBLK
  5
5CD8
330
5CCD
100
AcDbEntity
  8
0
100
AcDbBlockEnd
  0
BLOCK
  5
5CDF
330
5CDA
100
AcDbEntity
  8
0
100
AcDbBlockBegin
  2
*U63
 70
     1
 10
0.0
 20
0.0
 30
0.0
  3
*U63
  1

  0
CIRCLE
  5
5CDB
330
5CDA
100
AcDbEntity
  8
AM_0N ( Normteile sichtbar)
100
AcDbCircle
 10
115.7043558884184
 20
262.356508126685
 30
0.0
 40
8.0
  0
LINE
  5
5CDC
330
5CDA
100
AcDbEntity
  8
AM_7N ( Normteile Mittelinien)
100
AcDbLine
 10
107.7043558884184
 20
262.356508126685
 30
0.0
 11
123.7043558884183
 21
262.356508126685
 31
0.0
  0
LINE
  5
5CDD
330
5CDA
100
AcDbEntity
  8
AM_7N ( Normteile Mittelinien)
100
AcDbLine
 10
115.7043558884184
 20
270.356508126685
 30
0.0
 11
115.7043558884184
 21
254.356508126685
 31
0.0
  0
CIRCLE
  5
5CDE
330
5CDA
100
AcDbEntity
  8
AM_9N ( Normteile verdeckt)
100
AcDbCircle
 10
115.7043558884184
 20
262.356508126685
 30
0.0
 40
4.2
  0
ENDBLK
  5
5CE0
330
5CDA
100
AcDbEntity
  8
0
100
AcDbBlockEnd
  0
BLOCK
  5
5CEC
330
5CE2
100
AcDbEntity
  8
0
100
AcDbBlockBegin
  2
*U64
 70
     1
 10
0.0
 20
0.0
 30
0.0
  3
*U64
  1

  0
LINE
  5
5CE3
330
5CE2
100
AcDbEntity
  8
AM_7N ( Normteile Mittelinien)
100
AcDbLine
 10
115.7043558884184
 20
269.86206162615
 30
0.0
 11
115.7043558884184
 21
254.85095462722
 31
0.0
  0
LINE
  5
5CE4
330
5CE2
100
AcDbEntity
  8
AM_0N ( Normteile sichtbar)
100
AcDbLine
 10
109.2043558884183
 20
258.6037313769525
 30
0.0
 11
115.7043558884184
 21
254.8509546272199
 31
0.0
  0
LINE
  5
5CE5
330
5CE2
100
AcDbEntity
  8
AM_0N ( Normteile sichtbar)
100
AcDbLine
 10
115.7043558884184
 20
254.8509546272199
 30
0.0
 11
122.2043558884184
 21
258.603731376952
 31
0.0
  0
LINE
  5
5CE6
330
5CE2
100
AcDbEntity
  8
AM_0N ( Normteile sichtbar)
100
AcDbLine
 10
122.2043558884184
 20
258.603731376952
 30
0.0
 11
122.2043558884184
 21
266.1092848764176
 31
0.0
  0
LINE
  5
5CE7
330
5CE2
100
AcDbEntity
  8
AM_0N ( Normteile sichtbar)
100
AcDbLine
 10
122.2043558884184
 20
266.1092848764176
 30
0.0
 11
115.7043558884186
 21
269.86206162615
 31
0.0
  0
LINE
  5
5CE8
330
5CE2
100
AcDbEntity
  8
AM_0N ( Normteile sichtbar)
100
AcDbLine
 10
115.7043558884186
 20
269.86206162615
 30
0.0
 11
109.2043558884183
 21
266.1092848764178
 31
0.0
  0
LINE
  5
5CE9
330
5CE2
100
AcDbEntity
  8
AM_0N ( Normteile sichtbar)
100
AcDbLine
 10
109.2043558884183
 20
266.1092848764178
 30
0.0
 11
109.2043558884183
 21
258.6037313769525
 31
0.0
  0
CIRCLE
  5
5CEA
330
5CE2
100
AcDbEntity
  8
AM_0N ( Normteile sichtbar)
100
AcDbCircle
 10
115.7043558884184
 20
262.356508126685
 30
0.0
 40
6.5
  0
LINE
  5
5CEB
330
5CE2
100
AcDbEntity
  8
AM_7N ( Normteile Mittelinien)
100
AcDbLine
 10
108.1988023889533
 20
262.356508126685
 30
0.0
 11
123.2099093878834
 21
262.356508126685
 31
0.0
  0
ENDBLK
  5
5CED
330
5CE2
100
AcDbEntity
  8
0
100
AcDbBlockEnd
  0
BLOCK
  5
5CF4
330
5CEF
100
AcDbEntity
  8
0
100
AcDbBlockBegin
  2
*U65
 70
     1
 10
0.0
 20
0.0
 30
0.0
  3
*U65
  1

  0
CIRCLE
  5
5CF0
330
5CEF
100
AcDbEntity
  8
AM_0N ( Normteile sichtbar)
100
AcDbCircle
 10
143.2043558884184
 20
214.725110918541
 30
0.0
 40
8.0
  0
LINE
  5
5CF1
330
5CEF
100
AcDbEntity
  8
AM_7N ( Normteile Mittelinien)
100
AcDbLine
 10
139.2043558884184
 20
207.7969076882654
 30
0.0
 11
147.2043558884184
 21
221.6533141488164
 31
0.0
  0
LINE
  5
5CF2
330
5CEF
100
AcDbEntity
  8
AM_7N ( Normteile Mittelinien)
100
AcDbLine
 10
136.2761526581429
 20
218.725110918541
 30
0.0
 11
150.1325591186939
 21
210.725110918541
 31
0.0
  0
CIRCLE
  5
5CF3
330
5CEF
100
AcDbEntity
  8
AM_9N ( Normteile verdeckt)
100
AcDbCircle
 10
143.2043558884184
 20
214.725110918541
 30
0.0
 40
4.2
  0
ENDBLK
  5
5CF5
330
5CEF
100
AcDbEntity
  8
0
100
AcDbBlockEnd
  0
BLOCK
  5
5D01
330
5CF7
100
AcDbEntity
  8
0
100
AcDbBlockBegin
  2
*U66
 70
     1
 10
0.0
 20
0.0
 30
0.0
  3
*U66
  1

  0
LINE
  5
5CF8
330
5CF7
100
AcDbEntity
  8
AM_7N ( Normteile Mittelinien)
100
AcDbLine
 10
136.7043558884185
 20
218.4778876682734
 30
0.0
 11
149.7043558884183
 21
210.9723341688085
 31
0.0
  0
LINE
  5
5CF9
330
5CF7
100
AcDbEntity
  8
AM_0N ( Normteile sichtbar)
100
AcDbLine
 10
143.2043558884183
 20
207.2195574190758
 30
0.0
 11
149.7043558884184
 21
210.9723341688084
 31
0.0
  0
LINE
  5
5CFA
330
5CF7
100
AcDbEntity
  8
AM_0N ( Normteile sichtbar)
100
AcDbLine
 10
149.7043558884184
 20
210.9723341688084
 30
0.0
 11
149.7043558884187
 21
218.4778876682733
 31
0.0
  0
LINE
  5
5CFB
330
5CF7
100
AcDbEntity
  8
AM_0N ( Normteile sichtbar)
100
AcDbLine
 10
149.7043558884187
 20
218.4778876682733
 30
0.0
 11
143.2043558884184
 21
222.2306644180061
 31
0.0
  0
LINE
  5
5CFC
330
5CF7
100
AcDbEntity
  8
AM_0N ( Normteile sichtbar)
100
AcDbLine
 10
143.2043558884184
 20
222.2306644180061
 30
0.0
 11
136.7043558884186
 21
218.4778876682736
 31
0.0
  0
LINE
  5
5CFD
330
5CF7
100
AcDbEntity
  8
AM_0N ( Normteile sichtbar)
100
AcDbLine
 10
136.7043558884186
 20
218.4778876682736
 30
0.0
 11
136.7043558884182
 21
210.9723341688085
 31
0.0
  0
LINE
  5
5CFE
330
5CF7
100
AcDbEntity
  8
AM_0N ( Normteile sichtbar)
100
AcDbLine
 10
136.7043558884182
 20
210.9723341688085
 30
0.0
 11
143.2043558884183
 21
207.2195574190758
 31
0.0
  0
CIRCLE
  5
5CFF
330
5CF7
100
AcDbEntity
  8
AM_0N ( Normteile sichtbar)
100
AcDbCircle
 10
143.2043558884184
 20
214.725110918541
 30
0.0
 40
6.5
  0
LINE
  5
5D00
330
5CF7
100
AcDbEntity
  8
AM_7N ( Normteile Mittelinien)
100
AcDbLine
 10
139.4515791386859
 20
208.225110918541
 30
0.0
 11
146.9571326381509
 21
221.2251109185408
 31
0.0
  0
ENDBLK
  5
5D02
330
5CF7
100
AcDbEntity
  8
0
100
AcDbBlockEnd
  0
BLOCK
  5
5D09
330
5D04
100
AcDbEntity
  8
0
100
AcDbBlockBegin
  2
*U67
 70
     1
 10
0.0
 20
0.0
 30
0.0
  3
*U67
  1

  0
CIRCLE
  5
5D05
330
5D04
100
AcDbEntity
  8
AM_0N ( Normteile sichtbar)
100
AcDbCircle
 10
198.2043558884184
 20
214.725110918541
 30
0.0
 40
8.0
  0
LINE
  5
5D06
330
5D04
100
AcDbEntity
  8
AM_7N ( Normteile Mittelinien)
100
AcDbLine
 10
202.2043558884184
 20
207.7969076882655
 30
0.0
 11
194.2043558884184
 21
221.6533141488165
 31
0.0
  0
LINE
  5
5D07
330
5D04
100
AcDbEntity
  8
AM_7N ( Normteile Mittelinien)
100
AcDbLine
 10
191.2761526581428
 20
210.725110918541
 30
0.0
 11
205.1325591186939
 21
218.725110918541
 31
0.0
  0
CIRCLE
  5
5D08
330
5D04
100
AcDbEntity
  8
AM_9N ( Normteile verdeckt)
100
AcDbCircle
 10
198.2043558884184
 20
214.725110918541
 30
0.0
 40
4.2
  0
ENDBLK
  5
5D0A
330
5D04
100
AcDbEntity
  8
0
100
AcDbBlockEnd
  0
BLOCK
  5
5D16
330
5D0C
100
AcDbEntity
  8
0
100
AcDbBlockBegin
  2
*U68
 70
     1
 10
0.0
 20
0.0
 30
0.0
  3
*U68
  1

  0
LINE
  5
5D0D
330
5D0C
100
AcDbEntity
  8
AM_7N ( Normteile Mittelinien)
100
AcDbLine
 10
191.7043558884185
 20
210.9723341688085
 30
0.0
 11
204.7043558884183
 21
218.4778876682734
 31
0.0
  0
LINE
  5
5D0E
330
5D0C
100
AcDbEntity
  8
AM_0N ( Normteile sichtbar)
100
AcDbLine
 10
204.7043558884184
 20
210.9723341688084
 30
0.0
 11
204.7043558884184
 21
218.4778876682735
 31
0.0
  0
LINE
  5
5D0F
330
5D0C
100
AcDbEntity
  8
AM_0N ( Normteile sichtbar)
100
AcDbLine
 10
204.7043558884184
 20
218.4778876682735
 30
0.0
 11
198.2043558884187
 21
222.2306644180064
 31
0.0
  0
LINE
  5
5D10
330
5D0C
100
AcDbEntity
  8
AM_0N ( Normteile sichtbar)
100
AcDbLine
 10
198.2043558884187
 20
222.2306644180064
 30
0.0
 11
191.7043558884184
 21
218.4778876682735
 31
0.0
  0
LINE
  5
5D11
330
5D0C
100
AcDbEntity
  8
AM_0N ( Normteile sichtbar)
100
AcDbLine
 10
191.7043558884184
 20
218.4778876682735
 30
0.0
 11
191.7043558884184
 21
210.9723341688086
 31
0.0
  0
LINE
  5
5D12
330
5D0C
100
AcDbEntity
  8
AM_0N ( Normteile sichtbar)
100
AcDbLine
 10
191.7043558884184
 20
210.9723341688086
 30
0.0
 11
198.2043558884182
 21
207.2195574190757
 31
0.0
  0
LINE
  5
5D13
330
5D0C
100
AcDbEntity
  8
AM_0N ( Normteile sichtbar)
100
AcDbLine
 10
198.2043558884182
 20
207.2195574190757
 30
0.0
 11
204.7043558884184
 21
210.9723341688084
 31
0.0
  0
CIRCLE
  5
5D14
330
5D0C
100
AcDbEntity
  8
AM_0N ( Normteile sichtbar)
100
AcDbCircle
 10
198.2043558884184
 20
214.725110918541
 30
0.0
 40
6.5
  0
LINE
  5
5D15
330
5D0C
100
AcDbEntity
  8
AM_7N ( Normteile Mittelinien)
100
AcDbLine
 10
201.9571326381509
 20
208.2251109185411
 30
0.0
 11
194.4515791386858
 21
221.2251109185409
 31
0.0
  0
ENDBLK
  5
5D17
330
5D0C
100
AcDbEntity
  8
0
100
AcDbBlockEnd
  0
BLOCK
  5
5D1E
330
5D19
100
AcDbEntity
  8
0
100
AcDbBlockBegin
  2
*U69
 70
     1
 10
0.0
 20
0.0
 30
0.0
  3
*U69
  1

  0
CIRCLE
  5
5D1A
330
5D19
100
AcDbEntity
  8
AM_0N ( Normteile sichtbar)
100
AcDbCircle
 10
225.7043558884184
 20
262.3565081266851
 30
0.0
 40
8.0
  0
LINE
  5
5D1B
330
5D19
100
AcDbEntity
  8
AM_7N ( Normteile Mittelinien)
100
AcDbLine
 10
233.7043558884183
 20
262.3565081266851
 30
0.0
 11
217.7043558884184
 21
262.3565081266851
 31
0.0
  0
LINE
  5
5D1C
330
5D19
100
AcDbEntity
  8
AM_7N ( Normteile Mittelinien)
100
AcDbLine
 10
225.7043558884184
 20
254.3565081266851
 30
0.0
 11
225.7043558884184
 21
270.3565081266851
 31
0.0
  0
CIRCLE
  5
5D1D
330
5D19
100
AcDbEntity
  8
AM_9N ( Normteile verdeckt)
100
AcDbCircle
 10
225.7043558884184
 20
262.3565081266851
 30
0.0
 40
4.2
  0
ENDBLK
  5
5D1F
330
5D19
100
AcDbEntity
  8
0
100
AcDbBlockEnd
  0
BLOCK
  5
5D2B
330
5D21
100
AcDbEntity
  8
0
100
AcDbBlockBegin
  2
*U70
 70
     1
 10
0.0
 20
0.0
 30
0.0
  3
*U70
  1

  0
LINE
  5
5D22
330
5D21
100
AcDbEntity
  8
AM_7N ( Normteile Mittelinien)
100
AcDbLine
 10
225.7043558884184
 20
254.8509546272201
 30
0.0
 11
225.7043558884184
 21
269.8620616261501
 31
0.0
  0
LINE
  5
5D23
330
5D21
100
AcDbEntity
  8
AM_0N ( Normteile sichtbar)
100
AcDbLine
 10
232.2043558884184
 20
266.1092848764177
 30
0.0
 11
225.7043558884184
 21
269.8620616261503
 31
0.0
  0
LINE
  5
5D24
330
5D21
100
AcDbEntity
  8
AM_0N ( Normteile sichtbar)
100
AcDbLine
 10
225.7043558884184
 20
269.8620616261503
 30
0.0
 11
219.2043558884183
 21
266.1092848764182
 31
0.0
  0
LINE
  5
5D25
330
5D21
100
AcDbEntity
  8
AM_0N ( Normteile sichtbar)
100
AcDbLine
 10
219.2043558884183
 20
266.1092848764182
 30
0.0
 11
219.2043558884183
 21
258.6037313769526
 31
0.0
  0
LINE
  5
5D26
330
5D21
100
AcDbEntity
  8
AM_0N ( Normteile sichtbar)
100
AcDbLine
 10
219.2043558884183
 20
258.6037313769526
 30
0.0
 11
225.7043558884181
 21
254.8509546272201
 31
0.0
  0
LINE
  5
5D27
330
5D21
100
AcDbEntity
  8
AM_0N ( Normteile sichtbar)
100
AcDbLine
 10
225.7043558884181
 20
254.8509546272201
 30
0.0
 11
232.2043558884184
 21
258.6037313769523
 31
0.0
  0
LINE
  5
5D28
330
5D21
100
AcDbEntity
  8
AM_0N ( Normteile sichtbar)
100
AcDbLine
 10
232.2043558884184
 20
258.6037313769523
 30
0.0
 11
232.2043558884184
 21
266.1092848764177
 31
0.0
  0
CIRCLE
  5
5D29
330
5D21
100
AcDbEntity
  8
AM_0N ( Normteile sichtbar)
100
AcDbCircle
 10
225.7043558884184
 20
262.3565081266851
 30
0.0
 40
6.5
  0
LINE
  5
5D2A
330
5D21
100
AcDbEntity
  8
AM_7N ( Normteile Mittelinien)
100
AcDbLine
 10
233.2099093878834
 20
262.3565081266851
 30
0.0
 11
218.1988023889533
 21
262.3565081266851
 31
0.0
  0
ENDBLK
  5
5D2C
330
5D21
100
AcDbEntity
  8
0
100
AcDbBlockEnd
  0
BLOCK
  5
5D33
330
5D2E
100
AcDbEntity
  8
0
100
AcDbBlockBegin
  2
*U71
 70
     1
 10
0.0
 20
0.0
 30
0.0
  3
*U71
  1

  0
CIRCLE
  5
5D2F
330
5D2E
100
AcDbEntity
  8
AM_0N ( Normteile sichtbar)
100
AcDbCircle
 10
198.2043558884183
 20
309.9879053348292
 30
0.0
 40
8.0
  0
LINE
  5
5D30
330
5D2E
100
AcDbEntity
  8
AM_7N ( Normteile Mittelinien)
100
AcDbLine
 10
202.2043558884183
 20
316.9161085651047
 30
0.0
 11
194.2043558884183
 21
303.0597021045537
 31
0.0
  0
LINE
  5
5D31
330
5D2E
100
AcDbEntity
  8
AM_7N ( Normteile Mittelinien)
100
AcDbLine
 10
205.1325591186938
 20
305.9879053348292
 30
0.0
 11
191.2761526581428
 21
313.9879053348292
 31
0.0
  0
CIRCLE
  5
5D32
330
5D2E
100
AcDbEntity
  8
AM_9N ( Normteile verdeckt)
100
AcDbCircle
 10
198.2043558884183
 20
309.9879053348292
 30
0.0
 40
4.2
  0
ENDBLK
  5
5D34
330
5D2E
100
AcDbEntity
  8
0
100
AcDbBlockEnd
  0
BLOCK
  5
5D40
330
5D36
100
AcDbEntity
  8
0
100
AcDbBlockBegin
  2
*U72
 70
     1
 10
0.0
 20
0.0
 30
0.0
  3
*U72
  1

  0
LINE
  5
5D37
330
5D36
100
AcDbEntity
  8
AM_7N ( Normteile Mittelinien)
100
AcDbLine
 10
204.7043558884182
 20
306.2351285850967
 30
0.0
 11
191.7043558884184
 21
313.7406820845617
 31
0.0
  0
LINE
  5
5D38
330
5D36
100
AcDbEntity
  8
AM_0N ( Normteile sichtbar)
100
AcDbLine
 10
198.2043558884183
 20
317.4934588342943
 30
0.0
 11
191.7043558884183
 21
313.7406820845618
 31
0.0
  0
LINE
  5
5D39
330
5D36
100
AcDbEntity
  8
AM_0N ( Normteile sichtbar)
100
AcDbLine
 10
191.7043558884183
 20
313.7406820845618
 30
0.0
 11
191.7043558884179
 21
306.2351285850969
 31
0.0
  0
LINE
  5
5D3A
330
5D36
100
AcDbEntity
  8
AM_0N ( Normteile sichtbar)
100
AcDbLine
 10
191.7043558884179
 20
306.2351285850969
 30
0.0
 11
198.2043558884183
 21
302.482351835364
 31
0.0
  0
LINE
  5
5D3B
330
5D36
100
AcDbEntity
  8
AM_0N ( Normteile sichtbar)
100
AcDbLine
 10
198.2043558884183
 20
302.482351835364
 30
0.0
 11
204.7043558884181
 21
306.2351285850965
 31
0.0
  0
LINE
  5
5D3C
330
5D36
100
AcDbEntity
  8
AM_0N ( Normteile sichtbar)
100
AcDbLine
 10
204.7043558884181
 20
306.2351285850965
 30
0.0
 11
204.7043558884185
 21
313.7406820845616
 31
0.0
  0
LINE
  5
5D3D
330
5D36
100
AcDbEntity
  8
AM_0N ( Normteile sichtbar)
100
AcDbLine
 10
204.7043558884185
 20
313.7406820845616
 30
0.0
 11
198.2043558884183
 21
317.4934588342943
 31
0.0
  0
CIRCLE
  5
5D3E
330
5D36
100
AcDbEntity
  8
AM_0N ( Normteile sichtbar)
100
AcDbCircle
 10
198.2043558884183
 20
309.9879053348292
 30
0.0
 40
6.5
  0
LINE
  5
5D3F
330
5D36
100
AcDbEntity
  8
AM_7N ( Normteile Mittelinien)
100
AcDbLine
 10
201.9571326381508
 20
316.4879053348291
 30
0.0
 11
194.4515791386858
 21
303.4879053348293
 31
0.0
  0
ENDBLK
  5
5D41
330
5D36
100
AcDbEntity
  8
0
100
AcDbBlockEnd
  0
BLOCK
  5
5D48
330
5D43
100
AcDbEntity
  8
0
100
AcDbBlockBegin
  2
*U73
 70
     1
 10
0.0
 20
0.0
 30
0.0
  3
*U73
  1

  0
CIRCLE
  5
5D44
330
5D43
100
AcDbEntity
  8
AM_0N ( Normteile sichtbar)
100
AcDbCircle
 10
143.2043558884184
 20
309.9879053348292
 30
0.0
 40
8.0
  0
LINE
  5
5D45
330
5D43
100
AcDbEntity
  8
AM_7N ( Normteile Mittelinien)
100
AcDbLine
 10
139.2043558884184
 20
316.9161085651047
 30
0.0
 11
147.2043558884183
 21
303.0597021045537
 31
0.0
  0
LINE
  5
5D46
330
5D43
100
AcDbEntity
  8
AM_7N ( Normteile Mittelinien)
100
AcDbLine
 10
150.1325591186938
 20
313.9879053348292
 30
0.0
 11
136.2761526581429
 21
305.9879053348292
 31
0.0
  0
CIRCLE
  5
5D47
330
5D43
100
AcDbEntity
  8
AM_9N ( Normteile verdeckt)
100
AcDbCircle
 10
143.2043558884184
 20
309.9879053348292
 30
0.0
 40
4.2
  0
ENDBLK
  5
5D49
330
5D43
100
AcDbEntity
  8
0
100
AcDbBlockEnd
  0
BLOCK
  5
5D55
330
5D4B
100
AcDbEntity
  8
0
100
AcDbBlockBegin
  2
*U74
 70
     1
 10
0.0
 20
0.0
 30
0.0
  3
*U74
  1

  0
LINE
  5
5D4C
330
5D4B
100
AcDbEntity
  8
AM_7N ( Normteile Mittelinien)
100
AcDbLine
 10
149.7043558884183
 20
313.7406820845617
 30
0.0
 11
136.7043558884184
 21
306.2351285850967
 31
0.0
  0
LINE
  5
5D4D
330
5D4B
100
AcDbEntity
  8
AM_0N ( Normteile sichtbar)
100
AcDbLine
 10
136.7043558884184
 20
313.7406820845618
 30
0.0
 11
136.7043558884183
 21
306.2351285850966
 31
0.0
  0
LINE
  5
5D4E
330
5D4B
100
AcDbEntity
  8
AM_0N ( Normteile sichtbar)
100
AcDbLine
 10
136.7043558884183
 20
306.2351285850966
 30
0.0
 11
143.204355888418
 21
302.4823518353638
 31
0.0
  0
LINE
  5
5D4F
330
5D4B
100
AcDbEntity
  8
AM_0N ( Normteile sichtbar)
100
AcDbLine
 10
143.204355888418
 20
302.4823518353638
 30
0.0
 11
149.7043558884183
 21
306.2351285850966
 31
0.0
  0
LINE
  5
5D50
330
5D4B
100
AcDbEntity
  8
AM_0N ( Normteile sichtbar)
100
AcDbLine
 10
149.7043558884183
 20
306.2351285850966
 30
0.0
 11
149.7043558884183
 21
313.7406820845615
 31
0.0
  0
LINE
  5
5D51
330
5D4B
100
AcDbEntity
  8
AM_0N ( Normteile sichtbar)
100
AcDbLine
 10
149.7043558884183
 20
313.7406820845615
 30
0.0
 11
143.2043558884186
 21
317.4934588342944
 31
0.0
  0
LINE
  5
5D52
330
5D4B
100
AcDbEntity
  8
AM_0N ( Normteile sichtbar)
100
AcDbLine
 10
143.2043558884186
 20
317.4934588342944
 30
0.0
 11
136.7043558884184
 21
313.7406820845618
 31
0.0
  0
CIRCLE
  5
5D53
330
5D4B
100
AcDbEntity
  8
AM_0N ( Normteile sichtbar)
100
AcDbCircle
 10
143.2043558884184
 20
309.9879053348292
 30
0.0
 40
6.5
  0
LINE
  5
5D54
330
5D4B
100
AcDbEntity
  8
AM_7N ( Normteile Mittelinien)
100
AcDbLine
 10
139.4515791386859
 20
316.4879053348291
 30
0.0
 11
146.9571326381509
 21
303.4879053348293
 31
0.0
  0
ENDBLK
  5
5D56
330
5D4B
100
AcDbEntity
  8
0
100
AcDbBlockEnd
  0
ENDSEC
  0
SECTION
  2
ENTITIES
  0
LINE
  5
33BB
330
74
100
AcDbEntity
  8
AM_7 (Mittellinie)
100
AcDbLine
 10
105.8543576074258
 20
629.9760521726352
 30
0.0
 11
105.8543576074258
 21
640.5580147282123
 31
0.0
  0
LINE
  5
33BC
330
74
100
AcDbEntity
  8
AM_3 ( Verdeckt )
100
AcDbLine
 10
110.3543576074258
 20
633.7581485290703
 30
0.0
 11
110.3543576074258
 21
635.7581485290705
 31
0.0
  0
LINE
  5
33BD
330
74
100
AcDbEntity
  8
AM_3 ( Verdeckt )
100
AcDbLine
 10
101.3543576074258
 20
633.7581485290703
 30
0.0
 11
101.3543576074258
 21
635.7581485290705
 31
0.0
  0
LINE
  5
33BE
330
74
100
AcDbEntity
  8
AM_3 ( Verdeckt )
100
AcDbLine
 10
231.0543541694104
 20
633.7581485290703
 30
0.0
 11
231.0543541694104
 21
635.7581485290705
 31
0.0
  0
LINE
  5
33BF
330
74
100
AcDbEntity
  8
AM_7 (Mittellinie)
100
AcDbLine
 10
235.5543541694104
 20
629.9760521726352
 30
0.0
 11
235.5543541694104
 21
640.5580147282123
 31
0.0
  0
LINE
  5
33C0
330
74
100
AcDbEntity
  8
AM_3 ( Verdeckt )
100
AcDbLine
 10
240.0543541694104
 20
633.7581485290703
 30
0.0
 11
240.0543541694104
 21
635.7581485290705
 31
0.0
  0
LINE
  5
33C1
330
74
100
AcDbEntity
  8
AM_3 ( Verdeckt )
100
AcDbLine
 10
238.5543541694104
 20
633.7581485290703
 30
0.0
 11
238.5543541694104
 21
635.7581485290705
 31
0.0
  0
LINE
  5
33C2
330
74
100
AcDbEntity
  8
AM_3 ( Verdeckt )
100
AcDbLine
 10
232.5543541694104
 20
633.7581485290703
 30
0.0
 11
232.5543541694104
 21
635.7581485290705
 31
0.0
  0
LINE
  5
33F0
330
74
100
AcDbEntity
  8
AM_0 ( Kontur 0.5 )
100
AcDbLine
 10
95.85435701255283
 20
635.7581485290705
 30
0.0
 11
95.85435701255283
 21
633.7581485290704
 31
0.0
  0
LINE
  5
33F1
102
{ACAD_REACTORS
330
3492
102
}
330
74
100
AcDbEntity
  8
AM_0 ( Kontur 0.5 )
100
AcDbLine
 10
245.5543547642845
 20
635.7581485290705
 30
0.0
 11
95.85435701255283
 21
635.7581485290705
 31
0.0
  0
LINE
  5
33F2
330
74
100
AcDbEntity
  8
AM_0 ( Kontur 0.5 )
100
AcDbLine
 10
245.5543547642845
 20
633.7581485290704
 30
0.0
 11
95.85435701255283
 21
633.7581485290704
 31
0.0
  0
LINE
  5
33F3
330
74
100
AcDbEntity
  8
AM_0 ( Kontur 0.5 )
100
AcDbLine
 10
139.2043563614998
 20
630.1081486139244
 30
0.0
 11
139.2043563614998
 21
633.7581485290704
 31
0.0
  0
LINE
  5
33F4
330
74
100
AcDbEntity
  8
AM_3 ( Verdeckt )
100
AcDbLine
 10
139.2043563614998
 20
633.7581485290704
 30
0.0
 11
139.2043563614998
 21
635.7581485290705
 31
0.0
  0
LINE
  5
33F5
330
74
100
AcDbEntity
  8
AM_3 ( Verdeckt )
100
AcDbLine
 10
138.7043563614998
 20
633.7581485290704
 30
0.0
 11
138.7043563614998
 21
635.7581485290705
 31
0.0
  0
LINE
  5
33F6
330
74
100
AcDbEntity
  8
AM_3 ( Verdeckt )
100
AcDbLine
 10
140.9043563359698
 20
572.2581507818444
 30
0.0
 11
200.5043554408683
 21
572.2581507818444
 31
0.0
  0
LINE
  5
33F7
330
74
100
AcDbEntity
  8
AM_3 ( Verdeckt )
100
AcDbLine
 10
200.5043554408683
 20
547.2581511573064
 30
0.0
 11
200.5043554408683
 21
572.2581507818444
 31
0.0
  0
LINE
  5
33F8
330
74
100
AcDbEntity
  8
AM_3 ( Verdeckt )
100
AcDbLine
 10
140.9043563359698
 20
547.2581511573064
 30
0.0
 11
140.9043563359698
 21
572.2581507818444
 31
0.0
  0
LINE
  5
33F9
330
74
100
AcDbEntity
  8
AM_3 ( Verdeckt )
100
AcDbLine
 10
145.7043562638798
 20
584.5739182618574
 30
0.0
 11
195.7043555129563
 21
584.5739182618574
 31
0.0
  0
LINE
  5
33FA
330
74
100
AcDbEntity
  8
AM_7 (Mittellinie)
100
AcDbLine
 10
170.7043558884184
 20
542.9369920677036
 30
0.0
 11
170.7043558884184
 21
727.257366178683
 31
0.0
  0
LINE
  5
33FB
330
74
100
AcDbEntity
  8
AM_3 ( Verdeckt )
100
AcDbLine
 10
140.9043563359698
 20
697.2581489045324
 30
0.0
 11
200.5043554408683
 21
697.2581489045324
 31
0.0
  0
LINE
  5
33FC
330
74
100
AcDbEntity
  8
AM_3 ( Verdeckt )
100
AcDbLine
 10
200.5043554408683
 20
722.2581485290704
 30
0.0
 11
200.5043554408683
 21
697.2581489045324
 31
0.0
  0
LINE
  5
33FD
330
74
100
AcDbEntity
  8
AM_3 ( Verdeckt )
100
AcDbLine
 10
140.9043563359698
 20
722.2581485290704
 30
0.0
 11
140.9043563359698
 21
697.2581489045324
 31
0.0
  0
LINE
  5
33FE
330
74
100
AcDbEntity
  8
AM_3 ( Verdeckt )
100
AcDbLine
 10
145.7043562638798
 20
684.9423814245197
 30
0.0
 11
195.7043555129563
 21
684.9423814245197
 31
0.0
  0
LINE
  5
33FF
330
74
100
AcDbEntity
  8
AM_0 ( Kontur 0.5 )
100
AcDbLine
 10
202.2043554153364
 20
548.2581511422875
 30
0.0
 11
201.2043554303552
 21
547.2581511573064
 31
0.0
  0
LINE
  5
3400
330
74
100
AcDbEntity
  8
AM_0 ( Kontur 0.5 )
100
AcDbLine
 10
140.2043563464828
 20
547.2581511573064
 30
0.0
 11
201.2043554303552
 21
547.2581511573064
 31
0.0
  0
LINE
  5
3401
330
74
100
AcDbEntity
  8
AM_3 ( Verdeckt )
100
AcDbLine
 10
199.0043554633951
 20
548.2581511422873
 30
0.0
 11
200.0043554483772
 21
547.2581511573064
 31
0.0
  0
LINE
  5
3402
330
74
100
AcDbEntity
  8
AM_3 ( Verdeckt )
100
AcDbLine
 10
199.0043554633951
 20
548.2581511422873
 30
0.0
 11
199.0043554633951
 21
572.2581507818444
 31
0.0
  0
LINE
  5
3403
330
74
100
AcDbEntity
  8
AM_3 ( Verdeckt )
100
AcDbLine
 10
199.0043554633951
 20
572.2581507818444
 30
0.0
 11
195.7043555129563
 21
584.5739182618574
 31
0.0
  0
LINE
  5
3404
330
74
100
AcDbEntity
  8
AM_3 ( Verdeckt )
100
AcDbLine
 10
195.7043555129563
 20
684.9423814245197
 30
0.0
 11
195.7043555129563
 21
584.5739182618574
 31
0.0
  0
LINE
  5
3405
330
74
100
AcDbEntity
  8
AM_3 ( Verdeckt )
100
AcDbLine
 10
199.0043554633951
 20
697.2581489045324
 30
0.0
 11
195.7043555129563
 21
684.9423814245197
 31
0.0
  0
LINE
  5
3406
330
74
100
AcDbEntity
  8
AM_3 ( Verdeckt )
100
AcDbLine
 10
199.0043554633951
 20
721.2581485440884
 30
0.0
 11
199.0043554633951
 21
697.2581489045324
 31
0.0
  0
LINE
  5
3407
330
74
100
AcDbEntity
  8
AM_3 ( Verdeckt )
100
AcDbLine
 10
199.0043554633951
 20
721.2581485440884
 30
0.0
 11
200.0043554483772
 21
722.2581485290704
 31
0.0
  0
LINE
  5
3408
330
74
100
AcDbEntity
  8
AM_0 ( Kontur 0.5 )
100
AcDbLine
 10
140.2043563464828
 20
722.2581485290704
 30
0.0
 11
201.2043554303552
 21
722.2581485290704
 31
0.0
  0
LINE
  5
3409
330
74
100
AcDbEntity
  8
AM_3 ( Verdeckt )
100
AcDbLine
 10
202.2043554153362
 20
721.2581485440884
 30
0.0
 11
201.2043554303552
 21
722.2581485290704
 31
0.0
  0
LINE
  5
340A
330
74
100
AcDbEntity
  8
AM_3 ( Verdeckt )
100
AcDbLine
 10
145.7043562638798
 20
584.5739182618574
 30
0.0
 11
145.7043562638798
 21
684.9423814245197
 31
0.0
  0
LINE
  5
340B
330
74
100
AcDbEntity
  8
AM_3 ( Verdeckt )
100
AcDbLine
 10
145.7043562638798
 20
584.5739182618574
 30
0.0
 11
142.4043563134418
 21
572.2581507818444
 31
0.0
  0
LINE
  5
340C
330
74
100
AcDbEntity
  8
AM_3 ( Verdeckt )
100
AcDbLine
 10
142.4043563134418
 20
548.2581511422873
 30
0.0
 11
142.4043563134418
 21
572.2581507818444
 31
0.0
  0
LINE
  5
340D
330
74
100
AcDbEntity
  8
AM_3 ( Verdeckt )
100
AcDbLine
 10
142.4043563134418
 20
548.2581511422873
 30
0.0
 11
141.4043563284608
 21
547.2581511573064
 31
0.0
  0
LINE
  5
340E
102
{ACAD_REACTORS
330
5254
102
}
330
74
100
AcDbEntity
  8
AM_0 ( Kontur 0.5 )
100
AcDbLine
 10
139.2043563614998
 20
548.2581511422873
 30
0.0
 11
140.2043563464828
 21
547.2581511573064
 31
0.0
  0
LINE
  5
340F
330
74
100
AcDbEntity
  8
AM_3 ( Verdeckt )
100
AcDbLine
 10
139.2043563614998
 20
721.2581485440884
 30
0.0
 11
140.2043563464828
 21
722.2581485290704
 31
0.0
  0
LINE
  5
3410
330
74
100
AcDbEntity
  8
AM_3 ( Verdeckt )
100
AcDbLine
 10
142.4043563134418
 20
721.2581485440884
 30
0.0
 11
141.4043563284608
 21
722.2581485290704
 31
0.0
  0
LINE
  5
3411
330
74
100
AcDbEntity
  8
AM_3 ( Verdeckt )
100
AcDbLine
 10
142.4043563134418
 20
721.2581485440884
 30
0.0
 11
142.4043563134418
 21
697.2581489045324
 31
0.0
  0
LINE
  5
3412
330
74
100
AcDbEntity
  8
AM_3 ( Verdeckt )
100
AcDbLine
 10
145.7043562638798
 20
684.9423814245197
 30
0.0
 11
142.4043563134418
 21
697.2581489045324
 31
0.0
  0
LINE
  5
3413
330
74
100
AcDbEntity
  8
AM_0 ( Kontur 0.5 )
100
AcDbLine
 10
245.5543547642845
 20
635.7581485290705
 30
0.0
 11
245.5543547642845
 21
633.7581485290704
 31
0.0
  0
LINE
  5
3414
330
74
100
AcDbEntity
  8
AM_0 ( Kontur 0.5 )
100
AcDbLine
 10
139.2043563614997
 20
635.7581485290705
 30
0.0
 11
139.2043563614998
 21
713.2581486642704
 31
0.0
  0
LINE
  5
3415
330
74
100
AcDbEntity
  8
AM_3 ( Verdeckt )
100
AcDbLine
 10
202.2043554153362
 20
635.7581485290705
 30
0.0
 11
202.2043554153362
 21
633.7581485290704
 31
0.0
  0
LINE
  5
3416
330
74
100
AcDbEntity
  8
AM_3 ( Verdeckt )
100
AcDbLine
 10
202.7043554153362
 20
635.7581485290705
 30
0.0
 11
202.7043554153363
 21
633.7581485290704
 31
0.0
  0
LINE
  5
3417
330
74
100
AcDbEntity
  8
AM_0 ( Kontur 0.5 )
100
AcDbLine
 10
202.2043554153362
 20
633.7581485290704
 30
0.0
 11
202.2043554153362
 21
630.1081486139244
 31
0.0
  0
LINE
  5
3418
330
74
100
AcDbEntity
  8
AM_0 ( Kontur 0.5 )
100
AcDbLine
 10
202.2043554153364
 20
635.7581485290705
 30
0.0
 11
202.2043554153364
 21
713.2581486642704
 31
0.0
  0
LINE
  5
3419
330
74
100
AcDbEntity
  8
AM_0 ( Kontur 0.5 )
100
AcDbLine
 10
202.2043554153364
 20
630.6081499055144
 30
0.0
 11
202.2043554153364
 21
548.2581511422877
 31
0.0
  0
LINE
  5
341A
330
74
100
AcDbEntity
  8
AM_0 ( Kontur 0.5 )
100
AcDbLine
 10
139.2043563614998
 20
630.6081499055144
 30
0.0
 11
139.2043563614998
 21
548.2581511422875
 31
0.0
  0
LINE
  5
341B
330
74
100
AcDbEntity
  8
AM_0 ( Kontur 0.5 )
100
AcDbLine
 10
139.2043563614998
 20
548.2581511422875
 30
0.0
 11
202.2043554153364
 21
548.2581511422877
 31
0.0
  0
LINE
  5
341C
330
74
100
AcDbEntity
  8
AM_0 ( Kontur 0.5 )
100
AcDbLine
 10
139.2043563614998
 20
721.2581485440884
 30
0.0
 11
202.2043554153364
 21
721.2581485440884
 31
0.0
  0
LINE
  5
341D
330
74
100
AcDbEntity
  8
AM_0 ( Kontur 0.5 )
100
AcDbLine
 10
100.7043558884183
 20
187.3565081266852
 30
0.0
 11
142.8655340742679
 21
187.3565081266852
 31
0.0
  0
LINE
  5
341E
330
74
100
AcDbEntity
  8
AM_0 ( Kontur 0.5 )
100
AcDbLine
 10
100.7043558884183
 20
337.3565081266852
 30
0.0
 11
142.8655340742686
 21
337.3565081266852
 31
0.0
  0
LINE
  5
341F
330
74
100
AcDbEntity
  8
AM_7 (Mittellinie)
100
AcDbLine
 10
170.7043558884184
 20
177.0812968260291
 30
0.0
 11
170.7043558884184
 21
343.2756553880831
 31
0.0
  0
LINE
  5
3420
330
74
100
AcDbEntity
  8
AM_7 (Mittellinie)
100
AcDbLine
 10
88.34329089028665
 20
262.3565081266851
 30
0.0
 11
254.537649452341
 21
262.3565081266851
 31
0.0
  0
LINE
  5
3421
330
74
100
AcDbEntity
  8
AM_0 ( Kontur 0.5 )
100
AcDbLine
 10
245.7043558884184
 20
192.3565081266852
 30
0.0
 11
245.7043558884184
 21
234.517686312535
 31
0.0
  0
LINE
  5
3422
330
74
100
AcDbEntity
  8
AM_0 ( Kontur 0.5 )
100
AcDbLine
 10
95.70435588841835
 20
192.3565081266852
 30
0.0
 11
95.70435588841835
 21
234.517686312535
 31
0.0
  0
ARC
  5
3423
330
74
100
AcDbEntity
  8
AM_0 ( Kontur 0.5 )
100
AcDbCircle
 10
240.7043558884184
 20
332.3565081266851
 30
0.0
 40
5.0
100
AcDbArc
 50
0.0
 51
90.0
  0
ARC
  5
3424
330
74
100
AcDbEntity
  8
AM_0 ( Kontur 0.5 )
100
AcDbCircle
 10
100.7043558884183
 20
332.3565081266851
 30
0.0
 40
5.0
100
AcDbArc
 50
90.0
 51
180.0
  0
ARC
  5
3425
102
{ACAD_REACTORS
330
3485
102
}
330
74
100
AcDbEntity
  8
AM_0 ( Kontur 0.5 )
100
AcDbCircle
 10
100.7043558884183
 20
192.3565081266852
 30
0.0
 40
5.0
100
AcDbArc
 50
180.0
 51
270.0
  0
ARC
  5
3426
330
74
100
AcDbEntity
  8
AM_0 ( Kontur 0.5 )
100
AcDbCircle
 10
240.7043558884184
 20
192.3565081266852
 30
0.0
 40
5.0
100
AcDbArc
 50
270.0
 51
0.0
  0
LINE
  5
3429
330
74
100
AcDbEntity
  8
AM_7 (Mittellinie)
100
AcDbLine
 10
105.7043557382335
 20
320.9855694374151
 30
0.0
 11
105.7043557382335
 21
334.0345911529412
 31
0.0
  0
CIRCLE
  5
342A
330
74
100
AcDbEntity
  8
AM_0 ( Kontur 0.5 )
100
AcDbCircle
 10
105.7043557382335
 20
327.35650827687
 30
0.0
 40
4.5
  0
LINE
  5
342B
330
74
100
AcDbEntity
  8
AM_7 (Mittellinie)
100
AcDbLine
 10
111.4515821670083
 20
327.35650827687
 30
0.0
 11
99.71140010132856
 21
327.35650827687
 31
0.0
  0
LINE
  5
342C
330
74
100
AcDbEntity
  8
AM_7 (Mittellinie)
100
AcDbLine
 10
235.7043560386034
 20
323.3873183441901
 30
0.0
 11
235.7043560386034
 21
331.3644446387622
 31
0.0
  0
CIRCLE
  5
342D
330
74
100
AcDbEntity
  8
AM_0 ( Kontur 0.5 )
100
AcDbCircle
 10
235.7043560386034
 20
327.35650827687
 30
0.0
 40
2.99999995494452
  0
LINE
  5
342E
330
74
100
AcDbEntity
  8
AM_7 (Mittellinie)
100
AcDbLine
 10
231.6315988067561
 20
327.35650827687
 30
0.0
 11
239.7385852968223
 21
327.35650827687
 31
0.0
  0
LINE
  5
342F
330
74
100
AcDbEntity
  8
AM_7 (Mittellinie)
100
AcDbLine
 10
235.7043560386034
 20
203.4591678574561
 30
0.0
 11
235.7043560386034
 21
191.069528911546
 31
0.0
  0
LINE
  5
3430
330
74
100
AcDbEntity
  8
AM_7 (Mittellinie)
100
AcDbLine
 10
229.5446396498053
 20
197.3565079765011
 30
0.0
 11
241.5845710448223
 21
197.3565079765011
 31
0.0
  0
CIRCLE
  5
3431
330
74
100
AcDbEntity
  8
AM_0 ( Kontur 0.5 )
100
AcDbCircle
 10
235.7043560386034
 20
197.3565079765011
 30
0.0
 40
4.5
  0
ARC
  5
343A
330
74
100
AcDbEntity
  8
AM_2 ( Kontur 0.25)
100
AcDbCircle
 10
170.7043558884184
 20
262.3565081266851
 30
0.0
 40
29.7999995524499
100
AcDbArc
 50
0.0
 51
22.40502402168061
  0
CIRCLE
  5
343B
330
74
100
AcDbEntity
  8
AM_0 ( Kontur 0.5 )
100
AcDbCircle
 10
170.7043558884184
 20
262.3565081266851
 30
0.0
 40
24.999999624538
  0
CIRCLE
  5
343C
330
74
100
AcDbEntity
  8
AM_0 ( Kontur 0.5 )
100
AcDbCircle
 10
170.7043558884184
 20
262.3565081266851
 30
0.0
 40
31.4999995269181
  0
CIRCLE
  5
343D
330
74
100
AcDbEntity
  8
AM_0 ( Kontur 0.5 )
100
AcDbCircle
 10
170.7043558884184
 20
262.3565081266851
 30
0.0
 40
28.29999957497669
  0
ARC
  5
343E
330
74
100
AcDbEntity
  8
AM_2 ( Kontur 0.25)
100
AcDbCircle
 10
170.7043558884184
 20
262.3565081266851
 30
0.0
 40
29.7999995524499
100
AcDbArc
 50
72.72246494685451
 51
0.0
  0
DIMENSION
  5
3483
102
{ACAD_XDICTIONARY
360
3484
102
}
102
{ACAD_REACTORS
330
3485
102
}
330
74
100
AcDbEntity
  8
AM_5 ( Bemassung)
100
AcDbDimension
  2
*D15
 10
30.84347976268714
 20
187.3565081266852
 30
0.0
 11
24.26708139979489
 21
262.3565081266852
 31
0.0
 70
    32
 71
     5
 42
150.0
  3
AM_DIN$0
100
AcDbAlignedDimension
 13
100.7043558884183
 23
337.3565081266852
 33
0.0
 14
100.7043558884183
 24
187.3565081266852
 34
0.0
 50
90.0
100
AcDbRotatedDimension
1001
ACAD
1000
DSTYLE
1002
{
1070
    40
1040
2.0
1002
}
1001
ACAD_DSTYLE_DIMINSPECT
1070
   396
1000
100%
1070
   395
1000

1070
   394
1070
    33
1070
   393
1070
     0
  0
DIMENSION
  5
3490
102
{ACAD_XDICTIONARY
360
3491
102
}
102
{ACAD_REACTORS
330
3492
102
}
330
74
100
AcDbEntity
  8
AM_5 ( Bemassung)
100
AcDbDimension
  2
*D16
 10
71.85435601255282
 20
635.7581485290705
 30
0.0
 11
65.27795764966049
 21
679.0081485290705
 31
0.0
 70
    32
 71
     5
 42
86.5
  3
AM_DIN$0
100
AcDbAlignedDimension
 13
140.2043563464828
 23
722.2581485290704
 33
0.0
 14
95.85435701255283
 24
635.7581485290705
 34
0.0
 50
90.0
100
AcDbRotatedDimension
1001
ACAD_DSTYLE_DIMINSPECT
1070
   396
1000
100%
1070
   395
1000

1070
   394
1070
    33
1070
   393
1070
     0
1001
ACAD
1000
DSTYLE
1002
{
1070
    40
1040
2.0
1002
}
  0
CIRCLE
  5
34B3
330
74
100
AcDbEntity
  8
AM_0 ( Kontur 0.5 )
100
AcDbCircle
 10
170.7043558884184
 20
262.3565081266851
 30
0.0
 40
31.65
  0
LINE
  5
4DAE
330
74
100
AcDbEntity
  8
AM_0 ( Kontur 0.5 )
100
AcDbLine
 10
250.7043558884184
 20
714.2581486492704
 30
0.0
 11
249.7043559034182
 21
713.2581486642704
 31
0.0
  0
LINE
  5
4DAF
330
74
100
AcDbEntity
  8
AM_0 ( Kontur 0.5 )
100
AcDbLine
 10
250.7043558884184
 20
721.2581485440702
 30
0.0
 11
249.7043559034182
 21
722.2581485290704
 31
0.0
  0
LINE
  5
4DB0
330
74
100
AcDbEntity
  8
AM_0 ( Kontur 0.5 )
100
AcDbLine
 10
250.7043558884184
 20
714.2581486492704
 30
0.0
 11
250.7043558884184
 21
721.2581485440702
 31
0.0
  0
LINE
  5
4DBC
330
74
100
AcDbEntity
  8
AM_0 ( Kontur 0.5 )
100
AcDbLine
 10
249.7043559034182
 20
713.2581486642704
 30
0.0
 11
233.7043558884184
 21
713.2581486642704
 31
0.0
  0
LINE
  5
4DBD
330
74
100
AcDbEntity
  8
AM_0 ( Kontur 0.5 )
100
AcDbLine
 10
217.7043558884184
 20
713.2581486642704
 30
0.0
 11
202.2043554153363
 21
713.2581486642704
 31
0.0
  0
LINE
  5
4DC4
330
74
100
AcDbEntity
  8
AM_0 ( Kontur 0.5 )
100
AcDbLine
 10
249.7043559034182
 20
722.2581485290704
 30
0.0
 11
229.7043558884184
 21
722.2581485290704
 31
0.0
1001
GENIUS_GENOREF_13
1005
4E68
  0
LINE
  5
4DCA
330
74
100
AcDbEntity
  8
AM_0 ( Kontur 0.5 )
100
AcDbLine
 10
139.2043563615013
 20
713.2581486642704
 30
0.0
 11
123.7043558884183
 21
713.2581486642704
 31
0.0
  0
LINE
  5
4DCB
330
74
100
AcDbEntity
  8
AM_0 ( Kontur 0.5 )
100
AcDbLine
 10
107.7043558884184
 20
713.2581486642704
 30
0.0
 11
91.70435587341831
 21
713.2581486642704
 31
0.0
  0
LINE
  5
4DD0
330
74
100
AcDbEntity
  8
AM_0 ( Kontur 0.5 )
100
AcDbLine
 10
91.70435587341831
 20
713.2581486642704
 30
0.0
 11
90.70435588841837
 21
714.2581486492704
 31
0.0
  0
LINE
  5
4DD1
330
74
100
AcDbEntity
  8
AM_0 ( Kontur 0.5 )
100
AcDbLine
 10
91.70435587341831
 20
722.2581485290704
 30
0.0
 11
90.70435588841837
 21
721.2581485440702
 31
0.0
  0
LINE
  5
4DD2
330
74
100
AcDbEntity
  8
AM_0 ( Kontur 0.5 )
100
AcDbLine
 10
90.70435588841837
 20
714.2581486492704
 30
0.0
 11
90.70435588841837
 21
721.2581485440702
 31
0.0
  0
LINE
  5
4DDC
330
74
100
AcDbEntity
  8
AM_0 ( Kontur 0.5 )
100
AcDbLine
 10
107.7043558884184
 20
713.2581486642704
 30
0.0
 11
107.7043558884184
 21
691.7581489796257
 31
0.0
  0
LINE
  5
4DDD
330
74
100
AcDbEntity
  8
AM_0 ( Kontur 0.5 )
100
AcDbLine
 10
107.7043558884184
 20
691.7581489796257
 30
0.0
 11
109.2043558884183
 21
690.2581489796257
 31
0.0
  0
LINE
  5
4DDE
330
74
100
AcDbEntity
  8
AM_0 ( Kontur 0.5 )
100
AcDbLine
 10
109.2043558884183
 20
690.2581489796257
 30
0.0
 11
122.2043558884184
 21
690.2581489796257
 31
0.0
  0
LINE
  5
4DDF
330
74
100
AcDbEntity
  8
AM_0 ( Kontur 0.5 )
100
AcDbLine
 10
122.2043558884184
 20
690.2581489796257
 30
0.0
 11
123.7043558884183
 21
691.7581489796257
 31
0.0
  0
LINE
  5
4DE0
330
74
100
AcDbEntity
  8
AM_0 ( Kontur 0.5 )
100
AcDbLine
 10
123.7043558884183
 20
691.7581489796258
 30
0.0
 11
123.7043558884183
 21
713.2581486642704
 31
0.0
  0
LINE
  5
4DEA
330
74
100
AcDbEntity
  8
AM_7 (Mittellinie)
100
AcDbLine
 10
115.7043558884184
 20
721.2581485290704
 30
0.0
 11
115.7043558884183
 21
690.2581489796257
 31
0.0
  0
LINE
  5
4E07
330
74
100
AcDbEntity
  8
AM_0 ( Kontur 0.5 )
100
AcDbLine
 10
231.2043558884184
 20
722.2581485290704
 30
0.0
 11
249.7043558884184
 21
722.2581485290704
 31
0.0
  0
LINE
  5
4E08
330
74
100
AcDbEntity
  8
AM_0 ( Kontur 0.5 )
100
AcDbLine
 10
249.7043558884184
 20
722.2581485290704
 30
0.0
 11
250.7043558884184
 21
723.2581485290705
 31
0.0
  0
LINE
  5
4E09
330
74
100
AcDbEntity
  8
AM_0 ( Kontur 0.5 )
100
AcDbLine
 10
250.7043558884184
 20
723.2581485290705
 30
0.0
 11
250.7043558884184
 21
731.2581485290705
 31
0.0
  0
LINE
  5
4E0A
330
74
100
AcDbEntity
  8
AM_0 ( Kontur 0.5 )
100
AcDbLine
 10
250.7043558884184
 20
731.2581485290705
 30
0.0
 11
249.7043558884184
 21
732.2581485290704
 31
0.0
  0
LINE
  5
4E0B
330
74
100
AcDbEntity
  8
AM_0 ( Kontur 0.5 )
100
AcDbLine
 10
249.7043558884184
 20
732.2581485290704
 30
0.0
 11
233.7043558884184
 21
732.2581485290704
 31
0.0
1001
GENIUS_GENOREF_13
1005
4E64
  0
LINE
  5
4E1A
330
74
100
AcDbEntity
  8
AM_0 ( Kontur 0.5 )
100
AcDbLine
 10
110.2043558884183
 20
722.2581485290704
 30
0.0
 11
91.70435588841838
 21
722.2581485290704
 31
0.0
1001
GENIUS_GENOREF_13
1005
4E68
  0
LINE
  5
4E1B
330
74
100
AcDbEntity
  8
AM_0 ( Kontur 0.5 )
100
AcDbLine
 10
91.70435588841838
 20
722.2581485290704
 30
0.0
 11
90.70435588841837
 21
723.2581485290705
 31
0.0
  0
LINE
  5
4E1C
330
74
100
AcDbEntity
  8
AM_0 ( Kontur 0.5 )
100
AcDbLine
 10
90.70435588841837
 20
723.2581485290705
 30
0.0
 11
90.70435588841837
 21
731.2581485290705
 31
0.0
  0
LINE
  5
4E1D
330
74
100
AcDbEntity
  8
AM_0 ( Kontur 0.5 )
100
AcDbLine
 10
90.70435588841837
 20
731.2581485290705
 30
0.0
 11
91.70435588841838
 21
732.2581485290704
 31
0.0
  0
LINE
  5
4E1E
330
74
100
AcDbEntity
  8
AM_0 ( Kontur 0.5 )
100
AcDbLine
 10
91.70435588841838
 20
732.2581485290704
 30
0.0
 11
107.7043558884184
 21
732.2581485290704
 31
0.0
1001
GENIUS_GENOREF_13
1005
4E62
  0
LINE
  5
4E23
330
74
100
AcDbEntity
  8
AM_0 ( Kontur 0.5 )
100
AcDbLine
 10
121.2043558884184
 20
722.2581485290704
 30
0.0
 11
129.7043558884183
 21
722.2581485290704
 31
0.0
1001
GENIUS_GENOREF_13
1005
4E68
  0
LINE
  5
4E27
330
74
100
AcDbEntity
  8
AM_0 ( Kontur 0.5 )
100
AcDbLine
 10
129.7043558884183
 20
732.2581485290704
 30
0.0
 11
123.7043558884183
 21
732.2581485290704
 31
0.0
1001
GENIUS_GENOREF_13
1005
4E62
  0
LINE
  5
4E28
330
74
100
AcDbEntity
  8
AM_7 (Mittellinie)
100
AcDbLine
 10
115.7043558884184
 20
740.7551997491132
 30
0.0
 11
115.7043558884184
 21
722.348027020445
 31
0.0
  0
LINE
  5
4E29
330
74
100
AcDbEntity
  8
AM_9 ( Unsichbar)
100
AcDbLine
 10
110.2043558884183
 20
732.2581485290704
 30
0.0
 11
121.2043558884184
 21
732.2581485290704
 31
0.0
1001
GENIUS_GENBH_13
1002
{
1000
OE
1000
CON1
1002
}
1001
GENIUS_GENOREF_13
1005
4E62
1005
4E68
  0
LINE
  5
4E2D
330
74
100
AcDbEntity
  8
AM_0 ( Kontur 0.5 )
100
AcDbLine
 10
129.7043558884183
 20
732.2581485290704
 30
0.0
 11
211.7043558884184
 21
732.2581485290704
 31
0.0
  0
LINE
  5
4E2E
330
74
100
AcDbEntity
  8
AM_0 ( Kontur 0.5 )
100
AcDbLine
 10
130.7043558884183
 20
731.2581485290705
 30
0.0
 11
210.7043558884184
 21
731.2581485290705
 31
0.0
  0
LINE
  5
4E2F
330
74
100
AcDbEntity
  8
AM_0 ( Kontur 0.5 )
100
AcDbLine
 10
130.7043558884183
 20
723.2581485290705
 30
0.0
 11
210.7043558884184
 21
723.2581485290705
 31
0.0
  0
LINE
  5
4E30
330
74
100
AcDbEntity
  8
AM_0 ( Kontur 0.5 )
100
AcDbLine
 10
129.7043558884183
 20
722.2581485290704
 30
0.0
 11
211.7043558884184
 21
722.2581485290704
 31
0.0
  0
LINE
  5
4E31
330
74
100
AcDbEntity
  8
AM_9 ( Unsichbar)
100
AcDbLine
 10
220.2043558884184
 20
732.2581485290704
 30
0.0
 11
231.2043558884184
 21
732.2581485290704
 31
0.0
1001
GENIUS_GENBH_13
1002
{
1000
OE
1000
CON1
1002
}
1001
GENIUS_GENOREF_13
1005
4E64
  0
INSERT
  5
4E35
330
74
100
AcDbEntity
  8
AM_0N ( Normteile sichtbar)
100
AcDbBlockReference
  2
*U60
 10
0.0
 20
0.0
 30
0.0
1001
GENIUS_GENOREF_13
1005
4E61
1005
4E68
  0
LINE
  5
4E36
330
74
100
AcDbEntity
  8
AM_9 ( Unsichbar)
100
AcDbLine
 10
123.7043558884183
 20
732.2581485290704
 30
0.0
 11
121.2043558884184
 21
732.2581485290704
 31
0.0
1001
GENIUS_GENBH_13
1002
{
1000
OE
1000
CON1
1002
}
1001
GENIUS_GENOREF_13
1005
4E62
1005
4E68
  0
LINE
  5
4E37
330
74
100
AcDbEntity
  8
AM_9 ( Unsichbar)
100
AcDbLine
 10
107.7043558884184
 20
732.2581485290704
 30
0.0
 11
110.2043558884183
 21
732.2581485290704
 31
0.0
1001
GENIUS_GENBH_13
1002
{
1000
OE
1000
CON1
1002
}
1001
GENIUS_GENOREF_13
1005
4E62
1005
4E68
  0
LINE
  5
4E3F
330
74
100
AcDbEntity
  8
AM_9 ( Unsichbar)
100
AcDbLine
 10
112.0426471384184
 20
731.2581485290705
 30
0.0
 11
119.3660646384184
 21
731.2581485290705
 31
0.0
1001
GENIUS_GENBH_13
1002
{
1000
OE
1000
CON1
1002
}
1001
GENIUS_GENOREF_13
1005
4E68
  0
LINE
  5
4E48
102
{ACAD_REACTORS
330
5254
102
}
330
74
100
AcDbEntity
  8
AM_0 ( Kontur 0.5 )
100
AcDbLine
 10
111.7043558884184
 20
722.2581485290704
 30
0.0
 11
91.70435587341831
 21
722.2581485290704
 31
0.0
1001
GENIUS_GENOREF_13
1005
4E68
  0
LINE
  5
4E4C
330
74
100
AcDbEntity
  8
AM_9 ( Unsichbar)
100
AcDbLine
 10
217.7043558884184
 20
732.2581485290704
 30
0.0
 11
220.2043558884184
 21
732.2581485290704
 31
0.0
1001
GENIUS_GENBH_13
1002
{
1000
OE
1000
CON1
1002
}
1001
GENIUS_GENOREF_13
1005
4E64
  0
LINE
  5
4E4D
330
74
100
AcDbEntity
  8
AM_9 ( Unsichbar)
100
AcDbLine
 10
233.7043558884184
 20
732.2581485290704
 30
0.0
 11
231.2043558884184
 21
732.2581485290704
 31
0.0
1001
GENIUS_GENBH_13
1002
{
1000
OE
1000
CON1
1002
}
1001
GENIUS_GENOREF_13
1005
4E64
  0
LINE
  5
4E55
330
74
100
AcDbEntity
  8
AM_9 ( Unsichbar)
100
AcDbLine
 10
222.0426471384184
 20
731.2581485290705
 30
0.0
 11
229.3660646384184
 21
731.2581485290705
 31
0.0
1001
GENIUS_GENBH_13
1002
{
1000
OE
1000
CON1
1002
}
  0
LINE
  5
4E5C
330
74
100
AcDbEntity
  8
AM_0 ( Kontur 0.5 )
100
AcDbLine
 10
221.7043558884184
 20
722.2581485290704
 30
0.0
 11
119.7043558884184
 21
722.2581485290704
 31
0.0
1001
GENIUS_GENOREF_13
1005
4E68
  0
POINT
  5
4E61
330
74
100
AcDbEntity
  8
0
 60
     1
100
AcDbPoint
 10
-349.0973243663364
 20
241.6579959780604
 30
0.0
1001
GENIUS_GENODEF_13
1002
{
1000
HIER
1070
     1
1002
}
1002
{
1000
MANEDIT
1070
     0
1002
}
1002
{
1000
NOSEL
1070
     1
1002
}
1002
{
1000
BEHIND
1070
     0
1002
}
1002
{
1000
OTHER
1070
     0
1002
}
1002
{
1000
REACTOR
1002
}
1001
GENIUS_GENOBJ-NBEHI-BHF_13
1002
{
1000
OWNER
1000
genbehi
1002
}
1001
GENIUS_GENOENT_13
1002
{
1000
MYREF
1005
4E61
1002
}
1002
{
1000
GRP
1005
0
1002
}
1001
GENIUS_GENOLIS_13
1002
{
1000
ENT
1005
4E35
1002
}
1001
GENIUS_GENBH_13
1002
{
1000
BGZLEVEL
1070
    -1
1002
}
1002
{
1000
FGZLEVEL
1070
    -1
1002
}
1002
{
1000
OIUMAP
1000
OIU
1002
}
1002
{
1000
FLAGS
1070
    32
1002
}
1002
{
1000
BGO
1005
4E62
1002
}
  0
POINT
  5
4E62
330
74
100
AcDbEntity
  8
0
 60
     1
100
AcDbPoint
 10
-349.0973243663364
 20
241.6579959780604
 30
0.0
1001
GENIUS_GENOLIS_13
1002
{
1000
ENT
1005
4E37
1005
4E36
1005
4E17
1005
4E1E
1005
4E20
1005
4E27
1005
4E29
1002
}
1001
GENIUS_GENOENT_13
1002
{
1000
MYREF
1005
4E62
1002
}
1002
{
1000
GRP
1005
0
1002
}
1001
GENIUS_GENOBJ-NBEHI-BHB_13
1002
{
1000
OWNER
1000
genbehi
1002
}
1001
GENIUS_GENBH_13
1002
{
1000
FGO
1005
4E61
1002
}
1001
GENIUS_GENODEF_13
1002
{
1000
HIER
1070
     1
1002
}
1002
{
1000
MANEDIT
1070
     1
1002
}
1002
{
1000
NOSEL
1070
     1
1002
}
1002
{
1000
BEHIND
1070
     0
1002
}
1002
{
1000
OTHER
1070
     1
1002
}
1002
{
1000
REACTOR
1002
}
  0
POINT
  5
4E64
330
74
100
AcDbEntity
  8
0
 60
     1
100
AcDbPoint
 10
-349.0973243663364
 20
241.6579959780604
 30
0.0
1001
GENIUS_GENOBJ-NBEHI-BHB_13
1002
{
1000
OWNER
1000
genbehi
1002
}
1001
GENIUS_GENOENT_13
1002
{
1000
MYREF
1005
4E64
1002
}
1002
{
1000
GRP
1005
0
1002
}
1001
GENIUS_GENOLIS_13
1002
{
1000
ENT
1005
4E4D
1005
4E4C
1005
4E03
1005
4E04
1005
4E0B
1005
4E0C
1005
4E0D
1005
4E14
1005
4E31
1002
}
1001
GENIUS_GENBH_13
1002
{
1000
FGO
1005
4E65
1002
}
1001
GENIUS_GENODEF_13
1002
{
1000
HIER
1070
     1
1002
}
1002
{
1000
MANEDIT
1070
     1
1002
}
1002
{
1000
NOSEL
1070
     1
1002
}
1002
{
1000
BEHIND
1070
     0
1002
}
1002
{
1000
OTHER
1070
     1
1002
}
1002
{
1000
REACTOR
1002
}
  0
POINT
  5
4E68
330
74
100
AcDbEntity
  8
0
 60
     1
100
AcDbPoint
 10
-349.0973243663364
 20
241.6579959780604
 30
0.0
1001
GENIUS_GENOBJ-NBEHI-BHB_13
1002
{
1000
OWNER
1000
genbehi
1002
}
1001
GENIUS_GENOENT_13
1002
{
1000
MYREF
1005
4E68
1002
}
1002
{
1000
GRP
1005
0
1002
}
1001
GENIUS_GENOLIS_13
1002
{
1000
ENT
1005
4E5C
1005
4E5B
1005
4E48
1005
4E47
1005
4E46
1005
4E45
1005
4E44
1005
4E43
1005
4E42
1005
4E41
1005
4E40
1005
4E3F
1005
4E3E
1005
4E3D
1005
4E3C
1005
4E3B
1005
4DC4
1005
4DC7
1005
4DCF
1005
4DD3
1005
4DD4
1005
4DD5
1005
4DD6
1005
4DD8
1005
4DDA
1005
4DDB
1005
4DE1
1005
4DE2
1005
4DE3
1005
4DE4
1005
4DE7
1005
4DE8
1005
4DE9
1005
4E16
1005
4E17
1005
4E18
1005
4E19
1005
4E1A
1005
4E1F
1005
4E20
1005
4E21
1005
4E22
1005
4E23
1005
4E29
1005
4E2A
1005
4E2B
1005
4E2C
1005
4E35
1005
4E36
1005
4E37
1002
}
1001
GENIUS_GENBH_13
1002
{
1000
FGO
1005
4E66
1002
}
1001
GENIUS_GENODEF_13
1002
{
1000
HIER
1070
     1
1002
}
1002
{
1000
MANEDIT
1070
     1
1002
}
1002
{
1000
NOSEL
1070
     1
1002
}
1002
{
1000
BEHIND
1070
     1
1002
}
1002
{
1000
OTHER
1070
     1
1002
}
1002
{
1000
REACTOR
1002
}
  0
LINE
  5
4E74
330
74
100
AcDbEntity
  8
AM_7N ( Normteile Mittelinien)
100
AcDbLine
 10
115.7043558884184
 20
739.1581485290703
 30
0.0
 11
115.7043558884184
 21
708.8581485290704
 31
0.0
1001
GENIUS_GENOREF_13
1005
4E66
  0
ARC
  5
4E7B
330
74
100
AcDbEntity
  8
AM_0N ( Normteile sichtbar)
100
AcDbCircle
 10
115.7043558884184
 20
726.7490155554225
 30
0.0
 40
12.40913297364792
100
AcDbArc
 50
72.38752601447669
 51
107.6124739855233
1001
GENIUS_GENOREF_13
1005
4E66
  0
LINE
  5
4E7C
330
74
100
AcDbEntity
  8
AM_0N ( Normteile sichtbar)
100
AcDbLine
 10
110.0043558884184
 20
734.4581485290704
 30
0.0
 11
121.4043558884183
 21
734.4581485290704
 31
0.0
1001
GENIUS_GENOREF_13
1005
4E66
  0
LINE
  5
4E7E
330
74
100
AcDbEntity
  8
AM_0N ( Normteile sichtbar)
100
AcDbLine
 10
122.2043558884184
 20
739.1581485290703
 30
0.0
 11
109.2043558884183
 21
739.1581485290703
 31
0.0
1001
GENIUS_GENOREF_13
1005
4E66
  0
LINE
  5
4E7F
330
74
100
AcDbEntity
  8
AM_0N ( Normteile sichtbar)
100
AcDbLine
 10
108.1968558884184
 20
738.5764681328618
 30
0.0
 11
108.1968558884184
 21
734.4581485290704
 31
0.0
1001
GENIUS_GENOREF_13
1005
4E66
  0
LINE
  5
4E80
330
74
100
AcDbEntity
  8
AM_0N ( Normteile sichtbar)
100
AcDbLine
 10
111.9496326381509
 20
738.5764681328618
 30
0.0
 11
111.9496326381509
 21
734.4581485290704
 31
0.0
1001
GENIUS_GENOREF_13
1005
4E66
  0
ARC
  5
4E81
330
74
100
AcDbEntity
  8
AM_0N ( Normteile sichtbar)
100
AcDbCircle
 10
110.0732442632846
 20
735.8408754682785
 30
0.0
 40
3.317273060791831
100
AcDbArc
 50
55.55312761773711
 51
115.5531276177371
1001
GENIUS_GENOREF_13
1005
4E66
  0
LINE
  5
4E82
330
74
100
AcDbEntity
  8
AM_0N ( Normteile sichtbar)
100
AcDbLine
 10
108.1968558884184
 20
738.5764681328618
 30
0.0
 11
109.2043558884183
 21
739.1581485290703
 31
0.0
1001
GENIUS_GENOREF_13
1005
4E66
  0
LINE
  5
4E84
330
74
100
AcDbEntity
  8
AM_0N ( Normteile sichtbar)
100
AcDbLine
 10
110.0043558884184
 20
734.4581485290704
 30
0.0
 11
110.0043558884184
 21
733.8581485290704
 31
0.0
1001
GENIUS_GENOREF_13
1005
4E66
  0
LINE
  5
4E85
330
74
100
AcDbEntity
  8
AM_0N ( Normteile sichtbar)
100
AcDbLine
 10
108.1968558884184
 20
734.4581485290704
 30
0.0
 11
110.0043558884184
 21
734.4581485290704
 31
0.0
1001
GENIUS_GENOREF_13
1005
4E66
  0
LINE
  5
4E86
330
74
100
AcDbEntity
  8
AM_0N ( Normteile sichtbar)
100
AcDbLine
 10
121.4043558884183
 20
734.4581485290704
 30
0.0
 11
123.2118558884183
 21
734.4581485290704
 31
0.0
1001
GENIUS_GENOREF_13
1005
4E66
  0
LINE
  5
4E87
330
74
100
AcDbEntity
  8
AM_0N ( Normteile sichtbar)
100
AcDbLine
 10
123.2118558884183
 20
738.5764681328618
 30
0.0
 11
122.2043558884184
 21
739.1581485290703
 31
0.0
1001
GENIUS_GENOREF_13
1005
4E66
  0
LINE
  5
4E88
330
74
100
AcDbEntity
  8
AM_0N ( Normteile sichtbar)
100
AcDbLine
 10
119.4590791386858
 20
738.5764681328618
 30
0.0
 11
119.4590791386858
 21
734.4581485290704
 31
0.0
1001
GENIUS_GENOREF_13
1005
4E66
  0
ARC
  5
4E89
330
74
100
AcDbEntity
  8
AM_0N ( Normteile sichtbar)
100
AcDbCircle
 10
121.3354675135521
 20
735.8408754682785
 30
0.0
 40
3.317273060791831
100
AcDbArc
 50
64.44687238226288
 51
124.4468723822629
1001
GENIUS_GENOREF_13
1005
4E66
  0
LINE
  5
4E8A
330
74
100
AcDbEntity
  8
AM_0N ( Normteile sichtbar)
100
AcDbLine
 10
121.4043558884183
 20
734.4581485290704
 30
0.0
 11
121.4043558884183
 21
733.8581485290704
 31
0.0
1001
GENIUS_GENOREF_13
1005
4E66
  0
LINE
  5
4E8B
330
74
100
AcDbEntity
  8
AM_0N ( Normteile sichtbar)
100
AcDbLine
 10
121.4043558884183
 20
733.8581485290704
 30
0.0
 11
119.3660646384184
 21
733.8581485290704
 31
0.0
1001
GENIUS_GENOREF_13
1005
4E66
  0
LINE
  5
4E8C
330
74
100
AcDbEntity
  8
AM_0N ( Normteile sichtbar)
100
AcDbLine
 10
123.2118558884183
 20
738.5764681328618
 30
0.0
 11
123.2118558884183
 21
734.4581485290704
 31
0.0
1001
GENIUS_GENOREF_13
1005
4E66
  0
LINE
  5
4E96
330
74
100
AcDbEntity
  8
AM_0 ( Kontur 0.5 )
100
AcDbLine
 10
110.0043558884184
 20
733.8581485290704
 30
0.0
 11
119.3660646384184
 21
733.8581485290704
 31
0.0
  0
LINE
  5
4E97
330
74
100
AcDbEntity
  8
AM_0 ( Kontur 0.5 )
100
AcDbLine
 10
119.3660646384184
 20
732.2581485290704
 30
0.0
 11
112.0426471384184
 21
732.2581485290704
 31
0.0
  0
LINE
  5
4E98
330
74
100
AcDbEntity
  8
AM_0 ( Kontur 0.5 )
100
AcDbLine
 10
130.7043558884183
 20
731.2581485290705
 30
0.0
 11
90.70435588841837
 21
731.2581485290705
 31
0.0
  0
LINE
  5
4E99
330
74
100
AcDbEntity
  8
AM_0 ( Kontur 0.5 )
100
AcDbLine
 10
130.7043558884183
 20
723.2581485290705
 30
0.0
 11
90.70435588841837
 21
723.2581485290705
 31
0.0
  0
LINE
  5
4E9B
330
74
100
AcDbEntity
  8
AM_0 ( Kontur 0.5 )
100
AcDbLine
 10
107.7043558884184
 20
713.2581486642704
 30
0.0
 11
123.7043558884183
 21
713.2581486642704
 31
0.0
  0
LINE
  5
4E9C
330
74
100
AcDbEntity
  8
AM_7 (Mittellinie)
100
AcDbLine
 10
170.7043558884184
 20
732.2581485290704
 30
0.0
 11
170.7043558884184
 21
699.9529524344587
 31
0.0
  0
LINE
  5
4EA1
330
74
100
AcDbEntity
  8
AM_0 ( Kontur 0.5 )
100
AcDbLine
 10
233.7043558884184
 20
713.2581486642704
 30
0.0
 11
233.7043558884184
 21
691.7581489796258
 31
0.0
  0
LINE
  5
4EA2
330
74
100
AcDbEntity
  8
AM_0 ( Kontur 0.5 )
100
AcDbLine
 10
233.7043558884184
 20
691.7581489796257
 30
0.0
 11
232.2043558884184
 21
690.2581489796257
 31
0.0
  0
LINE
  5
4EA3
330
74
100
AcDbEntity
  8
AM_0 ( Kontur 0.5 )
100
AcDbLine
 10
232.2043558884184
 20
690.2581489796257
 30
0.0
 11
219.2043558884184
 21
690.2581489796257
 31
0.0
  0
LINE
  5
4EA4
330
74
100
AcDbEntity
  8
AM_0 ( Kontur 0.5 )
100
AcDbLine
 10
219.2043558884184
 20
690.2581489796257
 30
0.0
 11
217.7043558884184
 21
691.7581489796257
 31
0.0
  0
LINE
  5
4EA5
330
74
100
AcDbEntity
  8
AM_0 ( Kontur 0.5 )
100
AcDbLine
 10
217.7043558884183
 20
691.7581489796258
 30
0.0
 11
217.7043558884184
 21
713.2581486642704
 31
0.0
  0
LINE
  5
4EA9
330
74
100
AcDbEntity
  8
AM_7 (Mittellinie)
100
AcDbLine
 10
225.7043558884184
 20
721.2581485290704
 30
0.0
 11
225.7043558884184
 21
690.2581489796257
 31
0.0
  0
LINE
  5
4EAA
330
74
100
AcDbEntity
  8
AM_7 (Mittellinie)
100
AcDbLine
 10
225.7043558884184
 20
740.7551997491132
 30
0.0
 11
225.7043558884184
 21
722.348027020445
 31
0.0
  0
LINE
  5
4EAB
330
74
100
AcDbEntity
  8
AM_9 ( Unsichbar)
100
AcDbLine
 10
231.2043558884184
 20
732.2581485290704
 30
0.0
 11
220.2043558884184
 21
732.2581485290704
 31
0.0
1001
GENIUS_GENBH_13
1002
{
1000
OE
1000
CON1
1002
}
1001
GENIUS_GENOREF_13
1005
4ECD
  0
INSERT
  5
4EAC
330
74
100
AcDbEntity
  8
AM_0N ( Normteile sichtbar)
100
AcDbBlockReference
  2
*U61
 10
0.0
 20
0.0
 30
0.0
1001
GENIUS_GENOREF_13
1005
4ECC
  0
LINE
  5
4EAD
330
74
100
AcDbEntity
  8
AM_9 ( Unsichbar)
100
AcDbLine
 10
217.7043558884184
 20
732.2581485290704
 30
0.0
 11
220.2043558884184
 21
732.2581485290704
 31
0.0
1001
GENIUS_GENBH_13
1002
{
1000
OE
1000
CON1
1002
}
1001
GENIUS_GENOREF_13
1005
4ECD
  0
LINE
  5
4EAE
330
74
100
AcDbEntity
  8
AM_9 ( Unsichbar)
100
AcDbLine
 10
233.7043558884184
 20
732.2581485290704
 30
0.0
 11
231.2043558884184
 21
732.2581485290704
 31
0.0
1001
GENIUS_GENBH_13
1002
{
1000
OE
1000
CON1
1002
}
1001
GENIUS_GENOREF_13
1005
4ECD
  0
LINE
  5
4EAF
330
74
100
AcDbEntity
  8
AM_7N ( Normteile Mittelinien)
100
AcDbLine
 10
225.7043558884184
 20
739.1581485290703
 30
0.0
 11
225.7043558884184
 21
708.8581485290704
 31
0.0
  0
ARC
  5
4EB0
330
74
100
AcDbEntity
  8
AM_0N ( Normteile sichtbar)
100
AcDbCircle
 10
225.7043558884184
 20
726.7490155554225
 30
0.0
 40
12.40913297364792
100
AcDbArc
 50
72.38752601447579
 51
107.6124739855242
  0
LINE
  5
4EB1
330
74
100
AcDbEntity
  8
AM_0N ( Normteile sichtbar)
100
AcDbLine
 10
231.4043558884184
 20
734.4581485290704
 30
0.0
 11
220.0043558884184
 21
734.4581485290704
 31
0.0
  0
LINE
  5
4EB2
330
74
100
AcDbEntity
  8
AM_0N ( Normteile sichtbar)
100
AcDbLine
 10
219.2043558884184
 20
739.1581485290703
 30
0.0
 11
232.2043558884184
 21
739.1581485290703
 31
0.0
  0
LINE
  5
4EB3
330
74
100
AcDbEntity
  8
AM_0N ( Normteile sichtbar)
100
AcDbLine
 10
233.2118558884184
 20
738.5764681328618
 30
0.0
 11
233.2118558884184
 21
734.4581485290704
 31
0.0
  0
LINE
  5
4EB4
330
74
100
AcDbEntity
  8
AM_0N ( Normteile sichtbar)
100
AcDbLine
 10
229.4590791386858
 20
738.5764681328618
 30
0.0
 11
229.4590791386858
 21
734.4581485290704
 31
0.0
  0
ARC
  5
4EB5
330
74
100
AcDbEntity
  8
AM_0N ( Normteile sichtbar)
100
AcDbCircle
 10
231.3354675135521
 20
735.8408754682785
 30
0.0
 40
3.317273060791831
100
AcDbArc
 50
64.44687238226245
 51
124.4468723822633
  0
LINE
  5
4EB6
330
74
100
AcDbEntity
  8
AM_0N ( Normteile sichtbar)
100
AcDbLine
 10
233.2118558884184
 20
738.5764681328618
 30
0.0
 11
232.2043558884184
 21
739.1581485290703
 31
0.0
  0
LINE
  5
4EB7
330
74
100
AcDbEntity
  8
AM_0N ( Normteile sichtbar)
100
AcDbLine
 10
231.4043558884184
 20
734.4581485290704
 30
0.0
 11
231.4043558884184
 21
733.8581485290704
 31
0.0
  0
LINE
  5
4EB8
330
74
100
AcDbEntity
  8
AM_0N ( Normteile sichtbar)
100
AcDbLine
 10
233.2118558884184
 20
734.4581485290704
 30
0.0
 11
231.4043558884184
 21
734.4581485290704
 31
0.0
  0
LINE
  5
4EB9
330
74
100
AcDbEntity
  8
AM_0N ( Normteile sichtbar)
100
AcDbLine
 10
220.0043558884184
 20
734.4581485290704
 30
0.0
 11
218.1968558884184
 21
734.4581485290704
 31
0.0
  0
LINE
  5
4EBA
330
74
100
AcDbEntity
  8
AM_0N ( Normteile sichtbar)
100
AcDbLine
 10
218.1968558884184
 20
738.5764681328618
 30
0.0
 11
219.2043558884184
 21
739.1581485290703
 31
0.0
  0
LINE
  5
4EBB
330
74
100
AcDbEntity
  8
AM_0N ( Normteile sichtbar)
100
AcDbLine
 10
221.9496326381509
 20
738.5764681328618
 30
0.0
 11
221.9496326381509
 21
734.4581485290704
 31
0.0
  0
ARC
  5
4EBC
330
74
100
AcDbEntity
  8
AM_0N ( Normteile sichtbar)
100
AcDbCircle
 10
220.0732442632847
 20
735.8408754682785
 30
0.0
 40
3.317273060791831
100
AcDbArc
 50
55.5531276177366
 51
115.5531276177375
  0
LINE
  5
4EBD
330
74
100
AcDbEntity
  8
AM_0N ( Normteile sichtbar)
100
AcDbLine
 10
220.0043558884184
 20
734.4581485290704
 30
0.0
 11
220.0043558884184
 21
733.8581485290704
 31
0.0
  0
LINE
  5
4EBE
330
74
100
AcDbEntity
  8
AM_0N ( Normteile sichtbar)
100
AcDbLine
 10
220.0043558884184
 20
733.8581485290704
 30
0.0
 11
222.0426471384184
 21
733.8581485290704
 31
0.0
  0
LINE
  5
4EBF
330
74
100
AcDbEntity
  8
AM_0N ( Normteile sichtbar)
100
AcDbLine
 10
218.1968558884184
 20
738.5764681328618
 30
0.0
 11
218.1968558884184
 21
734.4581485290704
 31
0.0
  0
LINE
  5
4EC2
330
74
100
AcDbEntity
  8
AM_9 ( Unsichbar)
100
AcDbLine
 10
229.3660646384184
 20
731.2581485290705
 30
0.0
 11
222.0426471384184
 21
731.2581485290705
 31
0.0
1001
GENIUS_GENBH_13
1002
{
1000
OE
1000
CON1
1002
}
  0
LINE
  5
4EC8
330
74
100
AcDbEntity
  8
AM_0 ( Kontur 0.5 )
100
AcDbLine
 10
231.4043558884184
 20
733.8581485290704
 30
0.0
 11
222.0426471384184
 21
733.8581485290704
 31
0.0
  0
LINE
  5
4EC9
330
74
100
AcDbEntity
  8
AM_0 ( Kontur 0.5 )
100
AcDbLine
 10
222.0426471384184
 20
732.2581485290704
 30
0.0
 11
229.3660646384184
 21
732.2581485290704
 31
0.0
  0
LINE
  5
4ECB
330
74
100
AcDbEntity
  8
AM_0 ( Kontur 0.5 )
100
AcDbLine
 10
233.7043558884184
 20
713.2581486642704
 30
0.0
 11
217.7043558884184
 21
713.2581486642704
 31
0.0
  0
POINT
  5
4ECC
330
74
100
AcDbEntity
  8
0
 60
     1
100
AcDbPoint
 10
742.6871005028776
 20
241.6579959780604
 30
0.0
 50
180.0
1001
GENIUS_GENODEF_13
1002
{
1000
HIER
1070
     1
1002
}
1002
{
1000
MANEDIT
1070
     0
1002
}
1002
{
1000
NOSEL
1070
     1
1002
}
1002
{
1000
BEHIND
1070
     0
1002
}
1002
{
1000
OTHER
1070
     0
1002
}
1002
{
1000
REACTOR
1002
}
1001
GENIUS_GENOBJ-NBEHI-BHF_13
1002
{
1000
OWNER
1000
genbehi
1002
}
1001
GENIUS_GENOENT_13
1002
{
1000
MYREF
1005
4ECC
1002
}
1002
{
1000
GRP
1005
0
1002
}
1001
GENIUS_GENOLIS_13
1002
{
1000
ENT
1005
4EAC
1002
}
1001
GENIUS_GENBH_13
1002
{
1000
BGZLEVEL
1070
    -1
1002
}
1002
{
1000
FGZLEVEL
1070
    -1
1002
}
1002
{
1000
OIUMAP
1000
OIU
1002
}
1002
{
1000
FLAGS
1070
    32
1002
}
1002
{
1000
BGO
1005
4ECD
1002
}
  0
POINT
  5
4ECD
330
74
100
AcDbEntity
  8
0
 60
     1
100
AcDbPoint
 10
742.6871005028776
 20
241.6579959780604
 30
0.0
 50
180.0
1001
GENIUS_GENOLIS_13
1002
{
1000
ENT
1005
4EAE
1005
4EAD
1005
4EAB
1002
}
1001
GENIUS_GENOENT_13
1002
{
1000
MYREF
1005
4ECD
1002
}
1002
{
1000
GRP
1005
0
1002
}
1001
GENIUS_GENOBJ-NBEHI-BHB_13
1002
{
1000
OWNER
1000
genbehi
1002
}
1001
GENIUS_GENBH_13
1002
{
1000
FGO
1005
4ECC
1002
}
1001
GENIUS_GENODEF_13
1002
{
1000
HIER
1070
     1
1002
}
1002
{
1000
MANEDIT
1070
     1
1002
}
1002
{
1000
NOSEL
1070
     1
1002
}
1002
{
1000
BEHIND
1070
     0
1002
}
1002
{
1000
OTHER
1070
     1
1002
}
1002
{
1000
REACTOR
1002
}
  0
LINE
  5
4ED0
330
74
100
AcDbEntity
  8
AM_0 ( Kontur 0.5 )
100
AcDbLine
 10
211.7043558884184
 20
732.2581485290704
 30
0.0
 11
217.7043558884184
 21
732.2581485290704
 31
0.0
  0
LINE
  5
4ED1
330
74
100
AcDbEntity
  8
AM_0 ( Kontur 0.5 )
100
AcDbLine
 10
210.7043558884184
 20
731.2581485290705
 30
0.0
 11
250.7043558884184
 21
731.2581485290705
 31
0.0
  0
LINE
  5
4ED2
330
74
100
AcDbEntity
  8
AM_0 ( Kontur 0.5 )
100
AcDbLine
 10
210.7043558884184
 20
723.2581485290705
 30
0.0
 11
250.7043558884184
 21
723.2581485290705
 31
0.0
  0
LINE
  5
4ED3
330
74
100
AcDbEntity
  8
AM_0 ( Kontur 0.5 )
100
AcDbLine
 10
90.70435588841837
 20
721.2581485440702
 30
0.0
 11
250.7043558884184
 21
721.2581485440702
 31
0.0
  0
LINE
  5
4ED5
330
74
100
AcDbEntity
  8
AM_0 ( Kontur 0.5 )
100
AcDbLine
 10
90.70435588841837
 20
714.2581486492704
 30
0.0
 11
250.7043558884184
 21
714.2581486492704
 31
0.0
  0
LINE
  5
4ED6
330
74
100
AcDbEntity
  8
AM_0 ( Kontur 0.5 )
100
AcDbLine
 10
139.2043563615013
 20
713.2581486642704
 30
0.0
 11
202.2043554153363
 21
713.2581486642704
 31
0.0
  0
LINE
  5
4F04
330
74
100
AcDbEntity
  8
AM_3 ( Verdeckt )
100
AcDbLine
 10
139.2043563614998
 20
713.2581486642704
 30
0.0
 11
139.2043563614998
 21
721.2581485440884
 31
0.0
  0
LINE
  5
4F05
330
74
100
AcDbEntity
  8
AM_3 ( Verdeckt )
100
AcDbLine
 10
202.2043554153364
 20
713.2581486642704
 30
0.0
 11
202.2043554153364
 21
721.2581485440884
 31
0.0
  0
POINT
  5
5131
330
74
100
AcDbEntity
  8
0
 60
     1
100
AcDbPoint
 10
0.0
 20
0.0
 30
0.0
1001
GENIUS_GENOBJ-NBEHI-BHB_13
1002
{
1000
OWNER
1000
genbehi
1002
}
1001
GENIUS_GENOENT_13
1002
{
1000
MYREF
1005
5131
1002
}
1002
{
1000
GRP
1005
0
1002
}
1001
GENIUS_GENODEF_13
1002
{
1000
HIER
1070
     1
1002
}
1002
{
1000
MANEDIT
1070
     0
1002
}
1002
{
1000
NOSEL
1070
     1
1002
}
1002
{
1000
BEHIND
1070
     0
1002
}
1002
{
1000
OTHER
1070
     1
1002
}
1002
{
1000
REACTOR
1002
}
1001
GENIUS_GENOLIS_13
1002
{
1000
ENT
1005
510A
1005
510B
1005
5112
1005
5113
1005
5114
1005
511B
1002
}
1001
GENIUS_GENBH_13
1002
{
1000
FGO
1005
5130
1002
}
  0
POINT
  5
5132
330
74
100
AcDbEntity
  8
0
 60
     1
100
AcDbPoint
 10
0.0
 20
0.0
 30
0.0
1001
GENIUS_GENOLIS_13
1002
{
1000
ENT
1005
512B
1005
512A
1005
5129
1005
5128
1005
5127
1005
5126
1005
50F7
1005
50F8
1005
50F9
1005
50FC
1005
50FD
1005
5103
1005
5104
1005
5107
1005
5108
1005
510A
1005
510B
1005
510C
1005
510D
1005
510E
1005
5113
1005
5114
1005
5115
1005
5116
1005
5117
1005
5121
1005
5122
1005
5123
1005
5124
1002
}
1001
GENIUS_GENOENT_13
1002
{
1000
MYREF
1005
5132
1002
}
1002
{
1000
GRP
1005
0
1002
}
1001
GENIUS_GENOBJ-NBEHI-BHB_13
1002
{
1000
OWNER
1000
genbehi
1002
}
1001
GENIUS_GENBH_13
1002
{
1000
FGO
1005
512F
1002
}
1001
GENIUS_GENODEF_13
1002
{
1000
HIER
1070
     1
1002
}
1002
{
1000
MANEDIT
1070
     1
1002
}
1002
{
1000
NOSEL
1070
     1
1002
}
1002
{
1000
BEHIND
1070
     0
1002
}
1002
{
1000
OTHER
1070
     1
1002
}
1002
{
1000
REACTOR
1002
}
  0
DIMENSION
  5
5246
102
{ACAD_XDICTIONARY
360
5253
102
}
102
{ACAD_REACTORS
330
5254
102
}
330
74
100
AcDbEntity
  8
AM_5 ( Bemassung)
100
AcDbDimension
  2
*D43
 10
51.8543560125525
 20
547.2581511573064
 30
0.0
 11
45.27795764966018
 21
634.7581498431885
 31
0.0
 70
    32
 71
     5
 42
174.999997371764
  3
AM_DIN$0
100
AcDbAlignedDimension
 13
91.70435587341831
 23
722.2581485290704
 33
0.0
 14
140.2043563464828
 24
547.2581511573064
 34
0.0
 50
90.00000000000003
100
AcDbRotatedDimension
1001
ACAD
1000
DSTYLE
1002
{
1070
    40
1040
2.0
1002
}
1001
ACAD_DSTYLE_DIMINSPECT
1070
   396
1000
100%
1070
   395
1000

1070
   394
1070
    33
1070
   393
1070
     0
  0
CIRCLE
  5
528D
330
74
100
AcDbEntity
  8
AM_0 ( Kontur 0.5 )
100
AcDbCircle
 10
170.7043558884184
 20
262.3565081266851
 30
0.0
 40
80.0
  0
LINE
  5
528F
330
74
100
AcDbEntity
  8
AM_3 ( Verdeckt )
100
AcDbLine
 10
142.8655340742686
 20
337.3565081266852
 30
0.0
 11
198.5431777025682
 21
337.3565081266852
 31
0.0
  0
LINE
  5
5290
330
74
100
AcDbEntity
  8
AM_0 ( Kontur 0.5 )
100
AcDbLine
 10
198.5431777025682
 20
337.3565081266852
 30
0.0
 11
240.7043558884184
 21
337.3565081266852
 31
0.0
  0
LINE
  5
5291
330
74
100
AcDbEntity
  8
AM_0 ( Kontur 0.5 )
100
AcDbLine
 10
95.70435588841835
 20
290.1953299408351
 30
0.0
 11
95.70435588841835
 21
332.3565081266851
 31
0.0
  0
LINE
  5
5292
330
74
100
AcDbEntity
  8
AM_3 ( Verdeckt )
100
AcDbLine
 10
95.70435588841835
 20
234.517686312535
 30
0.0
 11
95.70435588841835
 21
290.1953299408351
 31
0.0
  0
LINE
  5
5293
330
74
100
AcDbEntity
  8
AM_3 ( Verdeckt )
100
AcDbLine
 10
142.8655340742679
 20
187.3565081266852
 30
0.0
 11
198.5431777025688
 21
187.3565081266852
 31
0.0
  0
LINE
  5
5294
330
74
100
AcDbEntity
  8
AM_0 ( Kontur 0.5 )
100
AcDbLine
 10
198.5431777025688
 20
187.3565081266852
 30
0.0
 11
240.7043558884184
 21
187.3565081266852
 31
0.0
  0
LINE
  5
5295
330
74
100
AcDbEntity
  8
AM_0 ( Kontur 0.5 )
100
AcDbLine
 10
245.7043558884184
 20
290.1953299408352
 30
0.0
 11
245.7043558884184
 21
332.3565081266851
 31
0.0
  0
LINE
  5
5296
330
74
100
AcDbEntity
  8
AM_3 ( Verdeckt )
100
AcDbLine
 10
245.7043558884184
 20
234.517686312535
 30
0.0
 11
245.7043558884184
 21
290.1953299408352
 31
0.0
  0
CIRCLE
  5
5297
330
74
100
AcDbEntity
  8
AM_0 ( Kontur 0.5 )
100
AcDbCircle
 10
170.7043558884184
 20
262.3565081266851
 30
0.0
 40
78.0
  0
INSERT
  5
52A4
330
74
100
AcDbEntity
  8
AM_0N ( Normteile sichtbar)
100
AcDbBlockReference
  2
*U62
 10
0.0
 20
0.0
 30
0.0
1001
GENIUS_GENOREF_13
1005
52A5
1005
52AB
  0
POINT
  5
52A5
330
74
100
AcDbEntity
  8
0
 60
     1
100
AcDbPoint
 10
0.0
 20
0.0
 30
0.0
1001
GENIUS_GENOLIS_13
1002
{
1000
ENT
1005
52A4
1002
}
1001
GENIUS_GENOENT_13
1002
{
1000
MYREF
1005
52A5
1002
}
1002
{
1000
GRP
1005
0
1002
}
1001
GENIUS_GENOBJ-NBEHI-BHF_13
1002
{
1000
OWNER
1000
genbehi
1002
}
1001
GENIUS_GENODEF_13
1002
{
1000
HIER
1070
     1
1002
}
1002
{
1000
MANEDIT
1070
     0
1002
}
1002
{
1000
NOSEL
1070
     1
1002
}
1002
{
1000
BEHIND
1070
     0
1002
}
1002
{
1000
OTHER
1070
     0
1002
}
1002
{
1000
REACTOR
1002
}
1001
GENIUS_GENBH_13
1002
{
1000
BGZLEVEL
1070
    -1
1002
}
1002
{
1000
FGZLEVEL
1070
    -1
1002
}
1002
{
1000
OIUMAP
1000
OIU
1002
}
1002
{
1000
FLAGS
1070
    32
1002
}
1002
{
1000
BGO
1005
52A6
1002
}
  0
POINT
  5
52AB
330
74
100
AcDbEntity
  8
0
 60
     1
100
AcDbPoint
 10
0.0
 20
0.0
 30
0.0
1001
GENIUS_GENODEF_13
1002
{
1000
HIER
1070
     1
1002
}
1002
{
1000
MANEDIT
1070
     0
1002
}
1002
{
1000
NOSEL
1070
     1
1002
}
1002
{
1000
BEHIND
1070
     0
1002
}
1002
{
1000
OTHER
1070
     1
1002
}
1002
{
1000
REACTOR
1002
}
1001
GENIUS_GENOBJ-NBEHI-BHB_13
1002
{
1000
OWNER
1000
genbehi
1002
}
1001
GENIUS_GENOENT_13
1002
{
1000
MYREF
1005
52AB
1002
}
1002
{
1000
GRP
1005
0
1002
}
1001
GENIUS_GENOLIS_13
1002
{
1000
ENT
1005
52A4
1002
}
1001
GENIUS_GENBH_13
1002
{
1000
FGO
1005
52AA
1002
}
  0
INSERT
  5
52B7
330
74
100
AcDbEntity
  8
AM_0N ( Normteile sichtbar)
100
AcDbBlockReference
  2
*U63
 10
0.0
 20
0.0
 30
0.0
1001
GENIUS_GENOREF_13
1005
52B8
1005
52BE
  0
POINT
  5
52B8
330
74
100
AcDbEntity
  8
0
 60
     1
100
AcDbPoint
 10
0.0
 20
0.0
 30
0.0
1001
GENIUS_GENODEF_13
1002
{
1000
HIER
1070
     1
1002
}
1002
{
1000
MANEDIT
1070
     0
1002
}
1002
{
1000
NOSEL
1070
     1
1002
}
1002
{
1000
BEHIND
1070
     0
1002
}
1002
{
1000
OTHER
1070
     0
1002
}
1002
{
1000
REACTOR
1002
}
1001
GENIUS_GENOBJ-NBEHI-BHF_13
1002
{
1000
OWNER
1000
genbehi
1002
}
1001
GENIUS_GENOLIS_13
1002
{
1000
ENT
1005
52B7
1002
}
1001
GENIUS_GENOENT_13
1002
{
1000
MYREF
1005
52B8
1002
}
1002
{
1000
GRP
1005
0
1002
}
1001
GENIUS_GENBH_13
1002
{
1000
BGZLEVEL
1070
    -1
1002
}
1002
{
1000
FGZLEVEL
1070
    -1
1002
}
1002
{
1000
OIUMAP
1000
OIU
1002
}
1002
{
1000
FLAGS
1070
    32
1002
}
1002
{
1000
BGO
1005
52B9
1002
}
  0
INSERT
  5
52BC
330
74
100
AcDbEntity
  8
AM_0N ( Normteile sichtbar)
100
AcDbBlockReference
  2
*U64
 10
0.0
 20
0.0
 30
0.0
1001
GENIUS_GENOREF_13
1005
52BD
  0
POINT
  5
52BD
330
74
100
AcDbEntity
  8
0
 60
     1
100
AcDbPoint
 10
0.0
 20
0.0
 30
0.0
1001
GENIUS_GENODEF_13
1002
{
1000
HIER
1070
     1
1002
}
1002
{
1000
MANEDIT
1070
     0
1002
}
1002
{
1000
NOSEL
1070
     1
1002
}
1002
{
1000
BEHIND
1070
     0
1002
}
1002
{
1000
OTHER
1070
     0
1002
}
1002
{
1000
REACTOR
1002
}
1001
GENIUS_GENOBJ-NBEHI-BHF_13
1002
{
1000
OWNER
1000
genbehi
1002
}
1001
GENIUS_GENOENT_13
1002
{
1000
MYREF
1005
52BD
1002
}
1002
{
1000
GRP
1005
0
1002
}
1001
GENIUS_GENOLIS_13
1002
{
1000
ENT
1005
52BC
1002
}
1001
GENIUS_GENBH_13
1002
{
1000
BGZLEVEL
1070
    -1
1002
}
1002
{
1000
FGZLEVEL
1070
    -1
1002
}
1002
{
1000
OIUMAP
1000
OIU
1002
}
1002
{
1000
FLAGS
1070
    32
1002
}
1002
{
1000
BGO
1005
52BE
1002
}
  0
POINT
  5
52BE
330
74
100
AcDbEntity
  8
0
 60
     1
100
AcDbPoint
 10
0.0
 20
0.0
 30
0.0
1001
GENIUS_GENOLIS_13
1002
{
1000
ENT
1005
52B7
1002
}
1001
GENIUS_GENOENT_13
1002
{
1000
MYREF
1005
52BE
1002
}
1002
{
1000
GRP
1005
0
1002
}
1001
GENIUS_GENOBJ-NBEHI-BHB_13
1002
{
1000
OWNER
1000
genbehi
1002
}
1001
GENIUS_GENODEF_13
1002
{
1000
HIER
1070
     1
1002
}
1002
{
1000
MANEDIT
1070
     0
1002
}
1002
{
1000
NOSEL
1070
     1
1002
}
1002
{
1000
BEHIND
1070
     0
1002
}
1002
{
1000
OTHER
1070
     1
1002
}
1002
{
1000
REACTOR
1002
}
1001
GENIUS_GENBH_13
1002
{
1000
FGO
1005
52BD
1002
}
  0
LINE
  5
52BF
330
74
100
AcDbEntity
  8
AM_7 (Mittellinie)
100
AcDbLine
 10
102.4229753829745
 20
262.3565081266851
 30
0.0
 11
127.6077231591298
 21
262.3565081266851
 31
0.0
  0
INSERT
  5
52C0
330
74
100
AcDbEntity
  8
AM_0N ( Normteile sichtbar)
100
AcDbBlockReference
  2
*U65
 10
0.0
 20
0.0
 30
0.0
1001
GENIUS_GENOREF_13
1005
52C5
1005
52C4
  0
INSERT
  5
52C1
330
74
100
AcDbEntity
  8
AM_0N ( Normteile sichtbar)
100
AcDbBlockReference
  2
*U66
 10
0.0
 20
0.0
 30
0.0
1001
GENIUS_GENOREF_13
1005
52C3
  0
LINE
  5
52C2
330
74
100
AcDbEntity
  8
AM_7 (Mittellinie)
100
AcDbLine
 10
136.5636656356964
 20
203.2230980034992
 30
0.0
 11
149.1560395237741
 21
225.0337293655533
 31
0.0
  0
POINT
  5
52C3
330
74
100
AcDbEntity
  8
0
 60
     1
100
AcDbPoint
 10
312.5595788300969
 20
-16.6560546726875
 30
0.0
 50
60.0
1001
GENIUS_GENODEF_13
1002
{
1000
HIER
1070
     1
1002
}
1002
{
1000
MANEDIT
1070
     0
1002
}
1002
{
1000
NOSEL
1070
     1
1002
}
1002
{
1000
BEHIND
1070
     0
1002
}
1002
{
1000
OTHER
1070
     0
1002
}
1002
{
1000
REACTOR
1002
}
1001
GENIUS_GENOBJ-NBEHI-BHF_13
1002
{
1000
OWNER
1000
genbehi
1002
}
1001
GENIUS_GENOENT_13
1002
{
1000
MYREF
1005
52C3
1002
}
1002
{
1000
GRP
1005
0
1002
}
1001
GENIUS_GENOLIS_13
1002
{
1000
ENT
1005
52C1
1002
}
1001
GENIUS_GENBH_13
1002
{
1000
BGZLEVEL
1070
    -1
1002
}
1002
{
1000
FGZLEVEL
1070
    -1
1002
}
1002
{
1000
OIUMAP
1000
OIU
1002
}
1002
{
1000
FLAGS
1070
    32
1002
}
1002
{
1000
BGO
1005
52C4
1002
}
  0
POINT
  5
52C4
330
74
100
AcDbEntity
  8
0
 60
     1
100
AcDbPoint
 10
312.5595788300969
 20
-16.6560546726875
 30
0.0
 50
60.0
1001
GENIUS_GENOLIS_13
1002
{
1000
ENT
1005
52C0
1002
}
1001
GENIUS_GENOENT_13
1002
{
1000
MYREF
1005
52C4
1002
}
1002
{
1000
GRP
1005
0
1002
}
1001
GENIUS_GENOBJ-NBEHI-BHB_13
1002
{
1000
OWNER
1000
genbehi
1002
}
1001
GENIUS_GENODEF_13
1002
{
1000
HIER
1070
     1
1002
}
1002
{
1000
MANEDIT
1070
     0
1002
}
1002
{
1000
NOSEL
1070
     1
1002
}
1002
{
1000
BEHIND
1070
     0
1002
}
1002
{
1000
OTHER
1070
     1
1002
}
1002
{
1000
REACTOR
1002
}
1001
GENIUS_GENBH_13
1002
{
1000
FGO
1005
52C3
1002
}
  0
POINT
  5
52C5
330
74
100
AcDbEntity
  8
0
 60
     1
100
AcDbPoint
 10
312.5595788300969
 20
-16.6560546726875
 30
0.0
 50
60.0
1001
GENIUS_GENODEF_13
1002
{
1000
HIER
1070
     1
1002
}
1002
{
1000
MANEDIT
1070
     0
1002
}
1002
{
1000
NOSEL
1070
     1
1002
}
1002
{
1000
BEHIND
1070
     0
1002
}
1002
{
1000
OTHER
1070
     0
1002
}
1002
{
1000
REACTOR
1002
}
1001
GENIUS_GENOBJ-NBEHI-BHF_13
1002
{
1000
OWNER
1000
genbehi
1002
}
1001
GENIUS_GENOLIS_13
1002
{
1000
ENT
1005
52C0
1002
}
1001
GENIUS_GENOENT_13
1002
{
1000
MYREF
1005
52C5
1002
}
1002
{
1000
GRP
1005
0
1002
}
1001
GENIUS_GENBH_13
1002
{
1000
BGZLEVEL
1070
    -1
1002
}
1002
{
1000
FGZLEVEL
1070
    -1
1002
}
1002
{
1000
OIUMAP
1000
OIU
1002
}
1002
{
1000
FLAGS
1070
    32
1002
}
1002
{
1000
BGO
1005
52B9
1002
}
  0
INSERT
  5
52C6
330
74
100
AcDbEntity
  8
AM_0N ( Normteile sichtbar)
100
AcDbBlockReference
  2
*U67
 10
0.0
 20
0.0
 30
0.0
1001
GENIUS_GENOREF_13
1005
52CB
1005
52CA
  0
INSERT
  5
52C7
330
74
100
AcDbEntity
  8
AM_0N ( Normteile sichtbar)
100
AcDbBlockReference
  2
*U68
 10
0.0
 20
0.0
 30
0.0
1001
GENIUS_GENOREF_13
1005
52C9
  0
LINE
  5
52C8
330
74
100
AcDbEntity
  8
AM_7 (Mittellinie)
100
AcDbLine
 10
204.8450461411402
 20
203.2230980034992
 30
0.0
 11
192.2526722530626
 21
225.0337293655533
 31
0.0
  0
POINT
  5
52C9
330
74
100
AcDbEntity
  8
0
 60
     1
100
AcDbPoint
 10
483.2639347185152
 20
245.7004534539975
 30
0.0
 50
120.0
1001
GENIUS_GENODEF_13
1002
{
1000
HIER
1070
     1
1002
}
1002
{
1000
MANEDIT
1070
     0
1002
}
1002
{
1000
NOSEL
1070
     1
1002
}
1002
{
1000
BEHIND
1070
     0
1002
}
1002
{
1000
OTHER
1070
     0
1002
}
1002
{
1000
REACTOR
1002
}
1001
GENIUS_GENOBJ-NBEHI-BHF_13
1002
{
1000
OWNER
1000
genbehi
1002
}
1001
GENIUS_GENOENT_13
1002
{
1000
MYREF
1005
52C9
1002
}
1002
{
1000
GRP
1005
0
1002
}
1001
GENIUS_GENOLIS_13
1002
{
1000
ENT
1005
52C7
1002
}
1001
GENIUS_GENBH_13
1002
{
1000
BGZLEVEL
1070
    -1
1002
}
1002
{
1000
FGZLEVEL
1070
    -1
1002
}
1002
{
1000
OIUMAP
1000
OIU
1002
}
1002
{
1000
FLAGS
1070
    32
1002
}
1002
{
1000
BGO
1005
52CA
1002
}
  0
POINT
  5
52CA
330
74
100
AcDbEntity
  8
0
 60
     1
100
AcDbPoint
 10
483.2639347185152
 20
245.7004534539975
 30
0.0
 50
120.0
1001
GENIUS_GENOLIS_13
1002
{
1000
ENT
1005
52C6
1002
}
1001
GENIUS_GENOENT_13
1002
{
1000
MYREF
1005
52CA
1002
}
1002
{
1000
GRP
1005
0
1002
}
1001
GENIUS_GENOBJ-NBEHI-BHB_13
1002
{
1000
OWNER
1000
genbehi
1002
}
1001
GENIUS_GENODEF_13
1002
{
1000
HIER
1070
     1
1002
}
1002
{
1000
MANEDIT
1070
     0
1002
}
1002
{
1000
NOSEL
1070
     1
1002
}
1002
{
1000
BEHIND
1070
     0
1002
}
1002
{
1000
OTHER
1070
     1
1002
}
1002
{
1000
REACTOR
1002
}
1001
GENIUS_GENBH_13
1002
{
1000
FGO
1005
52C9
1002
}
  0
POINT
  5
52CB
330
74
100
AcDbEntity
  8
0
 60
     1
100
AcDbPoint
 10
483.2639347185152
 20
245.7004534539975
 30
0.0
 50
120.0
1001
GENIUS_GENODEF_13
1002
{
1000
HIER
1070
     1
1002
}
1002
{
1000
MANEDIT
1070
     0
1002
}
1002
{
1000
NOSEL
1070
     1
1002
}
1002
{
1000
BEHIND
1070
     0
1002
}
1002
{
1000
OTHER
1070
     0
1002
}
1002
{
1000
REACTOR
1002
}
1001
GENIUS_GENOBJ-NBEHI-BHF_13
1002
{
1000
OWNER
1000
genbehi
1002
}
1001
GENIUS_GENOLIS_13
1002
{
1000
ENT
1005
52C6
1002
}
1001
GENIUS_GENOENT_13
1002
{
1000
MYREF
1005
52CB
1002
}
1002
{
1000
GRP
1005
0
1002
}
1001
GENIUS_GENBH_13
1002
{
1000
BGZLEVEL
1070
    -1
1002
}
1002
{
1000
FGZLEVEL
1070
    -1
1002
}
1002
{
1000
OIUMAP
1000
OIU
1002
}
1002
{
1000
FLAGS
1070
    32
1002
}
1002
{
1000
BGO
1005
52B9
1002
}
  0
INSERT
  5
52CC
330
74
100
AcDbEntity
  8
AM_0N ( Normteile sichtbar)
100
AcDbBlockReference
  2
*U69
 10
0.0
 20
0.0
 30
0.0
1001
GENIUS_GENOREF_13
1005
52D1
1005
52D0
  0
INSERT
  5
52CD
330
74
100
AcDbEntity
  8
AM_0N ( Normteile sichtbar)
100
AcDbBlockReference
  2
*U70
 10
0.0
 20
0.0
 30
0.0
1001
GENIUS_GENOREF_13
1005
52CF
  0
LINE
  5
52CE
330
74
100
AcDbEntity
  8
AM_7 (Mittellinie)
100
AcDbLine
 10
238.9857363938622
 20
262.3565081266851
 30
0.0
 11
213.8009886177069
 21
262.3565081266851
 31
0.0
  0
POINT
  5
52CF
330
74
100
AcDbEntity
  8
0
 60
     1
100
AcDbPoint
 10
341.4087117768368
 20
524.7130162533701
 30
0.0
 50
180.0
1001
GENIUS_GENODEF_13
1002
{
1000
HIER
1070
     1
1002
}
1002
{
1000
MANEDIT
1070
     0
1002
}
1002
{
1000
NOSEL
1070
     1
1002
}
1002
{
1000
BEHIND
1070
     0
1002
}
1002
{
1000
OTHER
1070
     0
1002
}
1002
{
1000
REACTOR
1002
}
1001
GENIUS_GENOBJ-NBEHI-BHF_13
1002
{
1000
OWNER
1000
genbehi
1002
}
1001
GENIUS_GENOENT_13
1002
{
1000
MYREF
1005
52CF
1002
}
1002
{
1000
GRP
1005
0
1002
}
1001
GENIUS_GENOLIS_13
1002
{
1000
ENT
1005
52CD
1002
}
1001
GENIUS_GENBH_13
1002
{
1000
BGZLEVEL
1070
    -1
1002
}
1002
{
1000
FGZLEVEL
1070
    -1
1002
}
1002
{
1000
OIUMAP
1000
OIU
1002
}
1002
{
1000
FLAGS
1070
    32
1002
}
1002
{
1000
BGO
1005
52D0
1002
}
  0
POINT
  5
52D0
330
74
100
AcDbEntity
  8
0
 60
     1
100
AcDbPoint
 10
341.4087117768368
 20
524.7130162533701
 30
0.0
 50
180.0
1001
GENIUS_GENOLIS_13
1002
{
1000
ENT
1005
52CC
1002
}
1001
GENIUS_GENOENT_13
1002
{
1000
MYREF
1005
52D0
1002
}
1002
{
1000
GRP
1005
0
1002
}
1001
GENIUS_GENOBJ-NBEHI-BHB_13
1002
{
1000
OWNER
1000
genbehi
1002
}
1001
GENIUS_GENODEF_13
1002
{
1000
HIER
1070
     1
1002
}
1002
{
1000
MANEDIT
1070
     0
1002
}
1002
{
1000
NOSEL
1070
     1
1002
}
1002
{
1000
BEHIND
1070
     0
1002
}
1002
{
1000
OTHER
1070
     1
1002
}
1002
{
1000
REACTOR
1002
}
1001
GENIUS_GENBH_13
1002
{
1000
FGO
1005
52CF
1002
}
  0
POINT
  5
52D1
330
74
100
AcDbEntity
  8
0
 60
     1
100
AcDbPoint
 10
341.4087117768368
 20
524.7130162533701
 30
0.0
 50
180.0
1001
GENIUS_GENODEF_13
1002
{
1000
HIER
1070
     1
1002
}
1002
{
1000
MANEDIT
1070
     0
1002
}
1002
{
1000
NOSEL
1070
     1
1002
}
1002
{
1000
BEHIND
1070
     0
1002
}
1002
{
1000
OTHER
1070
     0
1002
}
1002
{
1000
REACTOR
1002
}
1001
GENIUS_GENOBJ-NBEHI-BHF_13
1002
{
1000
OWNER
1000
genbehi
1002
}
1001
GENIUS_GENOLIS_13
1002
{
1000
ENT
1005
52CC
1002
}
1001
GENIUS_GENOENT_13
1002
{
1000
MYREF
1005
52D1
1002
}
1002
{
1000
GRP
1005
0
1002
}
1001
GENIUS_GENBH_13
1002
{
1000
BGZLEVEL
1070
    -1
1002
}
1002
{
1000
FGZLEVEL
1070
    -1
1002
}
1002
{
1000
OIUMAP
1000
OIU
1002
}
1002
{
1000
FLAGS
1070
    32
1002
}
1002
{
1000
BGO
1005
52B9
1002
}
  0
INSERT
  5
52D2
330
74
100
AcDbEntity
  8
AM_0N ( Normteile sichtbar)
100
AcDbBlockReference
  2
*U71
 10
0.0
 20
0.0
 30
0.0
1001
GENIUS_GENOREF_13
1005
52D7
1005
52D6
  0
INSERT
  5
52D3
330
74
100
AcDbEntity
  8
AM_0N ( Normteile sichtbar)
100
AcDbBlockReference
  2
*U72
 10
0.0
 20
0.0
 30
0.0
1001
GENIUS_GENOREF_13
1005
52D5
  0
LINE
  5
52D4
330
74
100
AcDbEntity
  8
AM_7 (Mittellinie)
100
AcDbLine
 10
204.8450461411403
 20
321.4899182498709
 30
0.0
 11
192.2526722530626
 21
299.6792868878168
 31
0.0
  0
POINT
  5
52D5
330
74
100
AcDbEntity
  8
0
 60
     1
100
AcDbPoint
 10
28.84913294673987
 20
541.3690709260577
 30
0.0
 50
240.0
1001
GENIUS_GENODEF_13
1002
{
1000
HIER
1070
     1
1002
}
1002
{
1000
MANEDIT
1070
     0
1002
}
1002
{
1000
NOSEL
1070
     1
1002
}
1002
{
1000
BEHIND
1070
     0
1002
}
1002
{
1000
OTHER
1070
     0
1002
}
1002
{
1000
REACTOR
1002
}
1001
GENIUS_GENOBJ-NBEHI-BHF_13
1002
{
1000
OWNER
1000
genbehi
1002
}
1001
GENIUS_GENOENT_13
1002
{
1000
MYREF
1005
52D5
1002
}
1002
{
1000
GRP
1005
0
1002
}
1001
GENIUS_GENOLIS_13
1002
{
1000
ENT
1005
52D3
1002
}
1001
GENIUS_GENBH_13
1002
{
1000
BGZLEVEL
1070
    -1
1002
}
1002
{
1000
FGZLEVEL
1070
    -1
1002
}
1002
{
1000
OIUMAP
1000
OIU
1002
}
1002
{
1000
FLAGS
1070
    32
1002
}
1002
{
1000
BGO
1005
52D6
1002
}
  0
POINT
  5
52D6
330
74
100
AcDbEntity
  8
0
 60
     1
100
AcDbPoint
 10
28.84913294673987
 20
541.3690709260577
 30
0.0
 50
240.0
1001
GENIUS_GENOLIS_13
1002
{
1000
ENT
1005
52D2
1002
}
1001
GENIUS_GENOENT_13
1002
{
1000
MYREF
1005
52D6
1002
}
1002
{
1000
GRP
1005
0
1002
}
1001
GENIUS_GENOBJ-NBEHI-BHB_13
1002
{
1000
OWNER
1000
genbehi
1002
}
1001
GENIUS_GENODEF_13
1002
{
1000
HIER
1070
     1
1002
}
1002
{
1000
MANEDIT
1070
     0
1002
}
1002
{
1000
NOSEL
1070
     1
1002
}
1002
{
1000
BEHIND
1070
     0
1002
}
1002
{
1000
OTHER
1070
     1
1002
}
1002
{
1000
REACTOR
1002
}
1001
GENIUS_GENBH_13
1002
{
1000
FGO
1005
52D5
1002
}
  0
POINT
  5
52D7
330
74
100
AcDbEntity
  8
0
 60
     1
100
AcDbPoint
 10
28.84913294673987
 20
541.3690709260577
 30
0.0
 50
240.0
1001
GENIUS_GENODEF_13
1002
{
1000
HIER
1070
     1
1002
}
1002
{
1000
MANEDIT
1070
     0
1002
}
1002
{
1000
NOSEL
1070
     1
1002
}
1002
{
1000
BEHIND
1070
     0
1002
}
1002
{
1000
OTHER
1070
     0
1002
}
1002
{
1000
REACTOR
1002
}
1001
GENIUS_GENOBJ-NBEHI-BHF_13
1002
{
1000
OWNER
1000
genbehi
1002
}
1001
GENIUS_GENOLIS_13
1002
{
1000
ENT
1005
52D2
1002
}
1001
GENIUS_GENOENT_13
1002
{
1000
MYREF
1005
52D7
1002
}
1002
{
1000
GRP
1005
0
1002
}
1001
GENIUS_GENBH_13
1002
{
1000
BGZLEVEL
1070
    -1
1002
}
1002
{
1000
FGZLEVEL
1070
    -1
1002
}
1002
{
1000
OIUMAP
1000
OIU
1002
}
1002
{
1000
FLAGS
1070
    32
1002
}
1002
{
1000
BGO
1005
52B9
1002
}
  0
INSERT
  5
52D8
330
74
100
AcDbEntity
  8
AM_0N ( Normteile sichtbar)
100
AcDbBlockReference
  2
*U73
 10
0.0
 20
0.0
 30
0.0
1001
GENIUS_GENOREF_13
1005
52DD
1005
52DC
  0
INSERT
  5
52D9
330
74
100
AcDbEntity
  8
AM_0N ( Normteile sichtbar)
100
AcDbBlockReference
  2
*U74
 10
0.0
 20
0.0
 30
0.0
1001
GENIUS_GENOREF_13
1005
52DB
  0
LINE
  5
52DA
330
74
100
AcDbEntity
  8
AM_7 (Mittellinie)
100
AcDbLine
 10
136.5636656356965
 20
321.489918249871
 30
0.0
 11
149.1560395237741
 21
299.6792868878168
 31
0.0
  0
POINT
  5
52DB
330
74
100
AcDbEntity
  8
0
 60
     1
100
AcDbPoint
 10
-141.8552229416786
 20
279.0125627993728
 30
0.0
 50
300.0
1001
GENIUS_GENODEF_13
1002
{
1000
HIER
1070
     1
1002
}
1002
{
1000
MANEDIT
1070
     0
1002
}
1002
{
1000
NOSEL
1070
     1
1002
}
1002
{
1000
BEHIND
1070
     0
1002
}
1002
{
1000
OTHER
1070
     0
1002
}
1002
{
1000
REACTOR
1002
}
1001
GENIUS_GENOBJ-NBEHI-BHF_13
1002
{
1000
OWNER
1000
genbehi
1002
}
1001
GENIUS_GENOENT_13
1002
{
1000
MYREF
1005
52DB
1002
}
1002
{
1000
GRP
1005
0
1002
}
1001
GENIUS_GENOLIS_13
1002
{
1000
ENT
1005
52D9
1002
}
1001
GENIUS_GENBH_13
1002
{
1000
BGZLEVEL
1070
    -1
1002
}
1002
{
1000
FGZLEVEL
1070
    -1
1002
}
1002
{
1000
OIUMAP
1000
OIU
1002
}
1002
{
1000
FLAGS
1070
    32
1002
}
1002
{
1000
BGO
1005
52DC
1002
}
  0
POINT
  5
52DC
330
74
100
AcDbEntity
  8
0
 60
     1
100
AcDbPoint
 10
-141.8552229416786
 20
279.0125627993728
 30
0.0
 50
300.0
1001
GENIUS_GENOLIS_13
1002
{
1000
ENT
1005
52D8
1002
}
1001
GENIUS_GENOENT_13
1002
{
1000
MYREF
1005
52DC
1002
}
1002
{
1000
GRP
1005
0
1002
}
1001
GENIUS_GENOBJ-NBEHI-BHB_13
1002
{
1000
OWNER
1000
genbehi
1002
}
1001
GENIUS_GENODEF_13
1002
{
1000
HIER
1070
     1
1002
}
1002
{
1000
MANEDIT
1070
     0
1002
}
1002
{
1000
NOSEL
1070
     1
1002
}
1002
{
1000
BEHIND
1070
     0
1002
}
1002
{
1000
OTHER
1070
     1
1002
}
1002
{
1000
REACTOR
1002
}
1001
GENIUS_GENBH_13
1002
{
1000
FGO
1005
52DB
1002
}
  0
POINT
  5
52DD
330
74
100
AcDbEntity
  8
0
 60
     1
100
AcDbPoint
 10
-141.8552229416786
 20
279.0125627993728
 30
0.0
 50
300.0
1001
GENIUS_GENODEF_13
1002
{
1000
HIER
1070
     1
1002
}
1002
{
1000
MANEDIT
1070
     0
1002
}
1002
{
1000
NOSEL
1070
     1
1002
}
1002
{
1000
BEHIND
1070
     0
1002
}
1002
{
1000
OTHER
1070
     0
1002
}
1002
{
1000
REACTOR
1002
}
1001
GENIUS_GENOBJ-NBEHI-BHF_13
1002
{
1000
OWNER
1000
genbehi
1002
}
1001
GENIUS_GENOLIS_13
1002
{
1000
ENT
1005
52D8
1002
}
1001
GENIUS_GENOENT_13
1002
{
1000
MYREF
1005
52DD
1002
}
1002
{
1000
GRP
1005
0
1002
}
1001
GENIUS_GENBH_13
1002
{
1000
BGZLEVEL
1070
    -1
1002
}
1002
{
1000
FGZLEVEL
1070
    -1
1002
}
1002
{
1000
OIUMAP
1000
OIU
1002
}
1002
{
1000
FLAGS
1070
    32
1002
}
1002
{
1000
BGO
1005
52B9
1002
}
  0
CIRCLE
  5
52DE
330
74
100
AcDbEntity
  8
AM_7 (Mittellinie)
100
AcDbCircle
 10
170.7043558884184
 20
262.3565081266851
 30
0.0
 40
55.0
  0
POINT
  5
5351
330
74
100
AcDbEntity
  8
0
 60
     1
100
AcDbPoint
 10
0.0
 20
0.0
 30
0.0
1001
GENIUS_GENOBJ-NBEHI-BHB_13
1002
{
1000
OWNER
1000
genbehi
1002
}
1001
GENIUS_GENOENT_13
1002
{
1000
MYREF
1005
5351
1002
}
1002
{
1000
GRP
1005
0
1002
}
1001
GENIUS_GENODEF_13
1002
{
1000
HIER
1070
     1
1002
}
1002
{
1000
MANEDIT
1070
     0
1002
}
1002
{
1000
NOSEL
1070
     1
1002
}
1002
{
1000
BEHIND
1070
     0
1002
}
1002
{
1000
OTHER
1070
     1
1002
}
1002
{
1000
REACTOR
1002
}
1001
GENIUS_GENOLIS_13
1002
{
1000
ENT
1005
5327
1005
5328
1005
532F
1005
5330
1005
5331
1005
5338
1002
}
1001
GENIUS_GENBH_13
1002
{
1000
FGO
1005
5350
1002
}
  0
POINT
  5
5352
330
74
100
AcDbEntity
  8
0
 60
     1
100
AcDbPoint
 10
0.0
 20
0.0
 30
0.0
1001
GENIUS_GENOLIS_13
1002
{
1000
ENT
1005
5348
1005
5347
1005
5346
1005
5345
1005
5344
1005
5343
1005
5314
1005
5315
1005
5316
1005
5319
1005
531A
1005
5320
1005
5321
1005
5324
1005
5325
1005
5327
1005
5328
1005
5329
1005
532A
1005
532B
1005
5330
1005
5331
1005
5332
1005
5333
1005
5334
1005
533E
1005
533F
1005
5340
1005
5341
1002
}
1001
GENIUS_GENOENT_13
1002
{
1000
MYREF
1005
5352
1002
}
1002
{
1000
GRP
1005
0
1002
}
1001
GENIUS_GENOBJ-NBEHI-BHB_13
1002
{
1000
OWNER
1000
genbehi
1002
}
1001
GENIUS_GENBH_13
1002
{
1000
FGO
1005
534F
1002
}
1001
GENIUS_GENODEF_13
1002
{
1000
HIER
1070
     1
1002
}
1002
{
1000
MANEDIT
1070
     1
1002
}
1002
{
1000
NOSEL
1070
     1
1002
}
1002
{
1000
BEHIND
1070
     0
1002
}
1002
{
1000
OTHER
1070
     1
1002
}
1002
{
1000
REACTOR
1002
}
  0
LINE
  5
5466
330
74
100
AcDbEntity
  8
AM_0 ( Kontur 0.5 )
100
AcDbLine
 10
70.70435588841838
 20
722.2581485290704
 30
0.0
 11
270.7043558884184
 21
722.2581485290704
 31
0.0
  0
DIMENSION
  5
555B
330
74
100
AcDbEntity
  8
AM_5 ( Bemassung)
100
AcDbDimension
  2
*D50
 10
250.7043558884184
 20
400.571623623567
 30
0.0
 11
170.7043558884184
 21
407.2005458609476
 31
0.0
 70
    32
  1
%%c<>
 71
     5
 42
160.0
  3
AM_DIN$0
100
AcDbAlignedDimension
 13
90.70435588841837
 23
262.3565081266851
 33
0.0
 14
250.7043558884184
 24
262.3565081266851
 34
0.0
 50
0.0000000000000114
100
AcDbRotatedDimension
1001
ACAD
1000
DSTYLE
1002
{
1070
    40
1040
2.0
1002
}
1001
ACAD_DSTYLE_DIMINSPECT
1070
   396
1000
100%
1070
   395
1000

1070
   394
1070
    33
1070
   393
1070
     0
  0
LINE
  5
5C9C
330
74
100
AcDbEntity
  8
AM_3 ( Verdeckt )
  6
AM_ISO02W050x2
100
AcDbLine
 10
130.7043558884183
 20
732.2581485290704
 30
0.0
 11
130.7043558884183
 21
722.2581485290704
 31
0.0
  0
LINE
  5
5C9D
330
74
100
AcDbEntity
  8
AM_3 ( Verdeckt )
  6
AM_ISO02W050x2
100
AcDbLine
 10
210.7043558884184
 20
732.2581485290704
 30
0.0
 11
210.7043558884184
 21
722.2581485290704
 31
0.0
  0
CIRCLE
  5
5C9E
330
74
100
AcDbEntity
  8
AM_0 ( Kontur 0.5 )
100
AcDbCircle
 10
170.7043558884184
 20
262.3565081266851
 30
0.0
 40
40.0
  0
LINE
  5
5CB1
330
74
100
AcDbEntity
  8
AM_0 ( Kontur 0.5 )
100
AcDbLine
 10
107.7043558884184
 20
691.7581489796257
 30
0.0
 11
123.7043558884183
 21
691.7581489796257
 31
0.0
  0
LINE
  5
5CB2
330
74
100
AcDbEntity
  8
AM_0 ( Kontur 0.5 )
100
AcDbLine
 10
217.7043558884183
 20
691.7581489796258
 30
0.0
 11
233.7043558884185
 21
691.7581489796258
 31
0.0
  0
ENDSEC
  0
SECTION
  2
OBJECTS
  0
DICTIONARY
  5
C
330
0
100
AcDbDictionary
281
     1
  3
ACAD_2007HEADERVARS_RT
350
5D59
  3
ACAD_COLOR
350
6A
  3
ACAD_GROUP
350
D
  3
ACAD_LAYOUT
350
69
  3
ACAD_MATERIAL
350
10
  3
ACAD_MLEADERSTYLE
350
6D
  3
ACAD_MLINESTYLE
350
66
  3
ACAD_PLOTSETTINGS
350
68
  3
ACAD_PLOTSTYLENAME
350
E
  3
ACAD_SCALELIST
350
3A
  3
ACAD_TABLESTYLE
350
6B
  3
ACAD_VISUALSTYLE
350
29
  3
ACDB_RECOMPOSE_DATA
350
1B4
  3
AcDbVariableDictionary
350
1C9
  3
AcmDictionary
350
166
  3
AMG
350
10C
  3
AMGSNAPSETTINGS
350
19B
  3
ASE_INDEX_DICTIONARY
350
1CBE
  3
GENIUS
350
4D37
  0
DICTIONARY
  5
1B6
330
8
100
AcDbDictionary
280
     1
281
     1
  0
DICTIONARY
  5
256
330
2
100
AcDbDictionary
280
     1
281
     1
  3
ACAD_LAYERFILTERS
360
573A
  3
ACAD_LAYERSTATES
360
13C6
  3
ACLYDICTIONARY
360
5739
  3
AMLAYER_GROUPCOLORS
360
257
  0
DICTIONARY
  5
1A2
330
5C
100
AcDbDictionary
280
     1
281
     1
  3
ADSK_XREC_LAYER_RECONCILED
360
D41
  0
DICTIONARY
  5
2C7
330
27F
100
AcDbDictionary
280
     1
281
     1
  3
ADSK_XREC_LAYER_RECONCILED
360
D4D
  0
DICTIONARY
  5
2C9
330
2AA
100
AcDbDictionary
280
     1
281
     1
  3
ADSK_XREC_LAYER_RECONCILED
360
D4E
  0
DICTIONARY
  5
2CB
330
2AC
100
AcDbDictionary
280
     1
281
     1
  3
ADSK_XREC_LAYER_RECONCILED
360
D4F
  0
DICTIONARY
  5
2CD
330
2AE
100
AcDbDictionary
280
     1
281
     1
  3
ADSK_XREC_LAYER_RECONCILED
360
D50
  0
DICTIONARY
  5
2CF
330
2B1
100
AcDbDictionary
280
     1
281
     1
  3
ADSK_XREC_LAYER_RECONCILED
360
D51
  0
DICTIONARY
  5
A1F
330
9FC
100
AcDbDictionary
280
     1
281
     1
  3
ADSK_XREC_LAYER_RECONCILED
360
D54
  0
DICTIONARY
  5
A88
330
74
100
AcDbDictionary
280
     1
281
     1
  3
ACAD_SORTENTS
360
A89
  0
DICTIONARY
  5
3484
330
3483
100
AcDbDictionary
280
     1
281
     1
  3
ACAD_DIMASSOC
360
3485
  0
DICTIONARY
  5
3491
330
3490
100
AcDbDictionary
280
     1
281
     1
  3
ACAD_DIMASSOC
360
3492
  0
DICTIONARY
  5
5253
330
5246
100
AcDbDictionary
280
     1
281
     1
  3
ACAD_DIMASSOC
360
5254
  0
DICTIONARY
  5
5D59
102
{ACAD_REACTORS
330
C
102
}
330
C
100
AcDbDictionary
281
     1
  3
DIMJOGANG
350
5D5A
  0
DICTIONARY
  5
6A
102
{ACAD_REACTORS
330
C
102
}
330
C
100
AcDbDictionary
281
     1
  0
DICTIONARY
  5
D
102
{ACAD_REACTORS
330
C
102
}
330
C
100
AcDbDictionary
281
     1
  0
DICTIONARY
  5
69
102
{ACAD_REACTORS
330
C
102
}
330
C
100
AcDbDictionary
281
     1
  3
Layout1
350
73
  3
Model
350
77
  0
DICTIONARY
  5
10
102
{ACAD_REACTORS
330
C
102
}
330
C
100
AcDbDictionary
281
     1
  3
ByBlock
350
19
  3
ByLayer
350
11
  3
Global
350
21
  0
DICTIONARY
  5
6D
102
{ACAD_REACTORS
330
C
102
}
330
C
100
AcDbDictionary
281
     1
  3
Standard
350
6E
  0
DICTIONARY
  5
66
102
{ACAD_REACTORS
330
C
102
}
330
C
100
AcDbDictionary
281
     1
  3
Standard
350
67
  0
DICTIONARY
  5
68
102
{ACAD_REACTORS
330
C
102
}
330
C
100
AcDbDictionary
281
     1
  0
ACDBDICTIONARYWDFLT
  5
E
102
{ACAD_REACTORS
330
C
102
}
330
C
100
AcDbDictionary
281
     1
  3
Normal
350
F
100
AcDbDictionaryWithDefault
340
F
  0
DICTIONARY
  5
3A
102
{ACAD_REACTORS
330
C
102
}
330
C
100
AcDbDictionary
281
     1
  3
A0
350
3B
  3
A1
350
3C
  3
A2
350
3D
  3
A3
350
3E
  3
A4
350
3F
  3
A5
350
40
  3
A6
350
41
  3
A7
350
42
  3
A8
350
43
  3
A9
350
44
  3
B0
350
45
  3
B1
350
46
  3
B2
350
47
  3
B3
350
48
  3
B4
350
49
  3
B5
350
4A
  3
B6
350
4B
  3
B7
350
4C
  3
B8
350
4D
  3
B9
350
4E
  3
C0
350
4F
  3
C1
350
50
  3
C2
350
51
  3
C3
350
52
  3
C4
350
53
  3
C5
350
54
  3
C6
350
55
  3
C7
350
56
  3
C8
350
57
  3
C9
350
58
  3
D0
350
59
  3
D1
350
5A
  3
D2
350
5B
  0
DICTIONARY
  5
6B
102
{ACAD_REACTORS
330
C
102
}
330
C
100
AcDbDictionary
281
     1
  3
Standard
350
6C
  0
DICTIONARY
  5
29
102
{ACAD_REACTORS
330
C
102
}
330
C
100
AcDbDictionary
281
     1
  3
2dWireframe
350
2F
  3
3D Hidden
350
31
  3
3dWireframe
350
30
  3
Basic
350
2E
  3
Brighten
350
35
  3
ColorChange
350
39
  3
Conceptual
350
32
  3
Dim
350
34
  3
Facepattern
350
38
  3
Flat
350
2A
  3
FlatWithEdges
350
2B
  3
Gouraud
350
2C
  3
GouraudWithEdges
350
2D
  3
Linepattern
350
37
  3
Realistic
350
33
  3
Thicken
350
36
  0
XRECORD
  5
1B4
102
{ACAD_REACTORS
330
C
102
}
330
C
100
AcDbXrecord
280
     1
 90
        1
330
6C
  0
DICTIONARY
  5
1C9
102
{ACAD_REACTORS
330
C
102
}
330
C
100
AcDbDictionary
281
     1
  3
CANNOSCALE
350
1CC
  3
CMLEADERSTYLE
350
1CB
  3
CTABLESTYLE
350
1CA
  3
DIMASSOC
350
1CF
  3
INDEXCTL
350
1CE
  3
LIGHTINGUNITS
350
2D3
  3
MSLTSCALE
350
2D2
  3
SORTENTS
350
1CD
  0
DICTIONARY
  5
166
102
{ACAD_REACTORS
330
C
102
}
330
C
100
AcDbDictionary
281
     1
  3
AcmBOM
350
2B6
  3
AcmStdDictionary
350
171
  3
AMDTSECTSYM_ARROWCOLOR
350
186
  0
DICTIONARY
  5
10C
102
{ACAD_REACTORS
330
C
102
}
330
C
100
AcDbDictionary
281
     1
  0
DICTIONARY
  5
19B
102
{ACAD_REACTORS
330
C
102
}
330
C
100
AcDbDictionary
281
     1
  0
DICTIONARY
  5
1CBE
102
{ACAD_REACTORS
330
C
102
}
330
C
100
AcDbDictionary
281
     1
  3
ASEBlockHierarchyIndexRecord
350
1CBF
1001
DCO15
1040
1632736611.555
  0
DICTIONARY
  5
4D37
102
{ACAD_REACTORS
330
C
102
}
330
C
100
AcDbDictionary
281
     1
  3
ScratchBlock
350
4D38
  0
DICTIONARY
  5
573A
102
{ACAD_REACTORS
330
256
102
}
330
256
100
AcDbDictionary
281
     1
  0
DICTIONARY
  5
13C6
102
{ACAD_REACTORS
330
256
102
}
330
256
100
AcDbDictionary
281
     1
  0
DICTIONARY
  5
5739
102
{ACAD_REACTORS
330
256
102
}
330
256
100
AcDbDictionary
281
     1
1001
ACAD
1000
<All
  0
DICTIONARY
  5
257
102
{ACAD_REACTORS
330
256
102
}
330
256
100
AcDbDictionary
280
     1
281
     1
  0
XRECORD
  5
D41
102
{ACAD_REACTORS
330
1A2
102
}
330
1A2
100
AcDbXrecord
280
     1
290
     1
  0
XRECORD
  5
D4D
102
{ACAD_REACTORS
330
2C7
102
}
330
2C7
100
AcDbXrecord
280
     1
290
     1
  0
XRECORD
  5
D4E
102
{ACAD_REACTORS
330
2C9
102
}
330
2C9
100
AcDbXrecord
280
     1
290
     1
  0
XRECORD
  5
D4F
102
{ACAD_REACTORS
330
2CB
102
}
330
2CB
100
AcDbXrecord
280
     1
290
     1
  0
XRECORD
  5
D50
102
{ACAD_REACTORS
330
2CD
102
}
330
2CD
100
AcDbXrecord
280
     1
290
     1
  0
XRECORD
  5
D51
102
{ACAD_REACTORS
330
2CF
102
}
330
2CF
100
AcDbXrecord
280
     1
290
     1
  0
XRECORD
  5
D54
102
{ACAD_REACTORS
330
A1F
102
}
330
A1F
100
AcDbXrecord
280
     1
290
     1
  0
SORTENTSTABLE
  5
A89
102
{ACAD_REACTORS
330
A88
102
}
330
A88
100
AcDbSortentsTable
330
74
331
342D
  5
3438
331
33BF
  5
33BF
331
33F6
  5
33F7
331
33FE
  5
33FF
331
343D
  5
3448
331
4DD0
  5
4DE3
331
3406
  5
3407
331
4ECC
  5
4ECD
331
52C7
  5
52C8
331
4DE0
  5
4E07
331
4E27
  5
4E3E
331
52CF
  5
52D0
331
5132
  5
516F
331
5290
  5
3425
331
4F04
  5
3416
331
4E2F
  5
4E4D
331
4EA5
  5
4EB0
331
52D7
  5
52D8
331
340E
  5
340F
331
3416
  5
3418
331
341E
  5
3423
331
3426
  5
3431
331
4EAD
  5
4EB8
331
4E37
  5
4E54
331
4EB5
  5
4EC0
331
4E7E
  5
4E58
331
4E3F
  5
4E8B
331
4EBD
  5
4EC8
331
4E86
  5
4E79
331
4E08
  5
4E28
331
52B8
  5
52B9
331
342E
  5
3439
331
33C0
  5
33C0
331
33F7
  5
33F8
331
33FF
  5
3400
331
343E
  5
3449
331
4DD1
  5
4DE4
331
3407
  5
3408
331
52C0
  5
52C1
331
4ECD
  5
4ED0
331
4E96
  5
4EA1
331
52C8
  5
52C9
331
4ED5
  5
50CA
331
4E28
  5
4E46
331
52D0
  5
52D1
331
5291
  5
342D
331
4F05
  5
341B
331
340F
  5
3410
331
3417
  5
3419
331
341F
  5
3426
331
4E30
  5
4E4E
331
52D8
  5
52D9
331
4EAE
  5
4EB9
331
4EB6
  5
4EC1
331
4E7F
  5
4E59
331
4EBE
  5
4EC9
331
4E87
  5
4E7A
331
4E48
  5
4E94
331
4DCA
  5
4DDE
331
4E09
  5
4E29
331
33F0
  5
33F1
331
342F
  5
343A
331
33C1
  5
33C1
331
33F8
  5
33F9
331
3400
  5
3401
331
4DD2
  5
4DE8
331
52C1
  5
52C2
331
4E97
  5
4EA2
331
52C9
  5
52CA
331
4ED6
  5
512F
331
4E29
  5
4E47
331
52D1
  5
52D2
331
5292
  5
342C
331
4E68
  5
4E72
331
4DEA
  5
4E0B
331
3408
  5
3409
331
3410
  5
3411
331
3418
  5
341A
331
3420
  5
3427
331
4E31
  5
4E50
331
52D9
  5
52DA
331
4EAF
  5
4EBA
331
4EB7
  5
4EC2
331
4E80
  5
4E5A
331
4EBF
  5
4ECA
331
4E88
  5
4E7C
331
4DCB
  5
4DDF
331
4E0A
  5
4E2D
331
33F1
  5
33F2
331
3430
  5
343B
331
33C2
  5
33C2
331
33F9
  5
33FA
331
3401
  5
3402
331
4E1A
  5
4E2F
331
52C2
  5
52C3
331
4E98
  5
4EA3
331
52CA
  5
52CB
331
4E61
  5
4E62
331
52D2
  5
52D3
331
5293
  5
3421
331
555B
  5
5637
331
3409
  5
340A
331
3411
  5
3412
331
3419
  5
341C
331
3421
  5
3428
331
52DA
  5
52DB
331
4EB0
  5
4EBB
331
4DBC
  5
4DD8
331
52AB
  5
52B0
331
4EB8
  5
4EC3
331
4E81
  5
4E61
331
4DC4
  5
4DDD
331
4E89
  5
4E7D
331
4E0B
  5
4E2E
331
3429
  5
3434
331
33BB
  5
33BB
331
33F2
  5
33F3
331
3431
  5
343C
331
33FA
  5
33FB
331
3402
  5
3403
331
4EC8
  5
4F05
331
4E1B
  5
4E30
331
52C3
  5
52C4
331
4ED0
  5
4FBA
331
4E99
  5
4EA4
331
4DDC
  5
4DF0
331
4E23
  5
4E37
331
4E62
  5
4E64
331
4EA1
  5
4EAC
331
52CB
  5
52CC
331
52D3
  5
52D4
331
5294
  5
3422
331
340A
  5
340B
331
3412
  5
3413
331
3490
  5
37D2
331
341A
  5
341D
331
3422
  5
342B
331
4EA9
  5
4EB4
331
52DB
  5
52DC
331
52A4
  5
52A5
331
4DBD
  5
4DDC
331
4EB1
  5
4EBC
331
4E82
  5
4E74
331
4EB9
  5
4EC4
331
4E8A
  5
4E7E
331
52BC
  5
52BD
331
342A
  5
3435
331
33BC
  5
33BC
331
33F3
  5
33F4
331
33FB
  5
33FC
331
343A
  5
3445
331
3403
  5
3404
331
4E1C
  5
4E31
331
4EC9
  5
4F06
331
52C4
  5
52C5
331
4DDD
  5
4DFB
331
4ED1
  5
4FFD
331
52CC
  5
52CD
331
528D
  5
5297
331
4EA2
  5
4EAD
331
4DAE
  5
4DD1
331
52D4
  5
52D5
331
5246
  5
5278
331
5295
  5
342A
331
5466
  5
562D
331
340B
  5
340C
331
3413
  5
3414
331
341B
  5
341E
331
3423
  5
342E
331
4EAA
  5
4EB5
331
52DC
  5
52DD
331
52A5
  5
52A6
331
4E7B
  5
4E56
331
4EB2
  5
4EBD
331
4EBA
  5
4EC5
331
4E8B
  5
4E83
331
4E4C
  5
4E96
331
4EC2
  5
4ED1
331
52BD
  5
52BE
331
342B
  5
3436
331
33BD
  5
33BD
331
33F4
  5
33F5
331
33FC
  5
33FD
331
343B
  5
3446
331
3404
  5
3405
331
4E1D
  5
4E35
331
52C5
  5
52C6
331
4E9B
  5
4EA6
331
4DDE
  5
4DFC
331
4E5C
  5
4E9F
331
4ED2
  5
5078
331
52CD
  5
52CE
331
4E64
  5
4E66
331
4DAF
  5
4DD2
331
4E2D
  5
4E4B
331
4EA3
  5
4EAE
331
52D5
  5
52D6
331
5296
  5
3429
331
5351
  5
5352
331
340C
  5
340D
331
3414
  5
3415
331
341C
  5
341F
331
3424
  5
342F
331
4EAB
  5
4EB6
331
4E74
  5
4E55
331
4E35
  5
4E52
331
52DD
  5
52DE
331
4EB3
  5
4EBE
331
4E7C
  5
4E57
331
4EBB
  5
4EC6
331
4E84
  5
4E76
331
4E8C
  5
4E84
331
4E4D
  5
4E97
331
52BE
  5
52BF
331
342C
  5
3437
331
33BE
  5
33BE
331
33F5
  5
33F6
331
33FD
  5
33FE
331
343C
  5
3447
331
3483
  5
34B0
331
3405
  5
3406
331
4ECB
  5
4FB9
331
4E55
  5
4E9A
331
4E1E
  5
4E36
331
52C6
  5
52C7
331
4ED3
  5
5099
331
4E9C
  5
4EA7
331
4DDF
  5
4E00
331
52CE
  5
52CF
331
5131
  5
5132
331
528F
  5
3424
331
4EA4
  5
4EAF
331
4E2E
  5
4E4C
331
52D6
  5
52D7
331
5297
  5
529D
331
5352
  5
5390
331
340D
  5
340E
331
3415
  5
3417
331
34B3
  5
37D4
331
341D
  5
3420
331
4DB0
  5
4DD3
331
3425
  5
3430
331
4EAC
  5
4EB7
331
4E36
  5
4E53
331
52DE
  5
52DF
331
4EB4
  5
4EBF
331
4EBC
  5
4EC7
331
4E85
  5
4E78
331
4E07
  5
4E27
331
52B7
  5
52B8
331
52BF
  5
52C0
  0
DIMASSOC
  5
3485
102
{ACAD_REACTORS
330
3484
102
}
330
3484
100
AcDbDimAssoc
330
3483
 90
        2
 70
     0
 71
     0
  1
AcDbOsnapPointRef
 72
     1
331
3425
 73
     0
 91
        0
 40
0.0
 10
0.0
 20
0.0
 30
2.000000000000000E+50
 75
     0
  0
DIMASSOC
  5
3492
102
{ACAD_REACTORS
330
3491
102
}
330
3491
100
AcDbDimAssoc
330
3490
 90
        2
 70
     0
 71
     0
  1
AcDbOsnapPointRef
 72
     1
331
33F1
 73
     0
 91
        0
 40
0.0
 10
0.0
 20
0.0
 30
2.000000000000000E+50
 75
     0
  0
DIMASSOC
  5
5254
102
{ACAD_REACTORS
330
5253
102
}
330
5253
100
AcDbDimAssoc
330
5246
 90
        3
 70
     0
 71
     0
  1
AcDbOsnapPointRef
 72
     1
331
4E48
 73
     0
 91
        0
 40
0.0
 10
0.0
 20
0.0
 30
2.000000000000000E+50
 75
     0
  1
AcDbOsnapPointRef
 72
     1
331
340E
 73
     0
 91
        0
 40
0.0
 10
0.0
 20
0.0
 30
2.000000000000000E+50
 75
     0
  0
XRECORD
  5
5D5A
102
{ACAD_REACTORS
330
5D59
102
}
330
5D59
100
AcDbXrecord
280
     1
 40
1.570796326794896
  0
LAYOUT
  5
73
102
{ACAD_REACTORS
330
69
102
}
330
69
100
AcDbPlotSettings
  1

  2
\\OASE42\HP DesignJet 500 42+HPGL2 Card
  4

  6

 40
0.0
 41
0.0
 42
0.0
 43
0.0
 44
0.0
 45
0.0
 46
0.0
 47
0.0
 48
0.0
 49
0.0
140
0.0
141
0.0
142
1.0
143
1.0
 70
   688
 72
     0
 73
     0
 74
     5
  7
monochrome.ctb
 75
    16
147
1.0
 76
     0
 77
     2
 78
   300
148
0.0
149
0.0
100
AcDbLayout
  1
Layout1
 70
     1
 71
     1
 10
0.0
 20
0.0
 11
12.0
 21
9.0
 12
0.0
 22
0.0
 32
0.0
 14
1.000000000000000E+20
 24
1.000000000000000E+20
 34
1.000000000000000E+20
 15
-1.000000000000000E+20
 25
-1.000000000000000E+20
 35
-1.000000000000000E+20
146
0.0
 13
0.0
 23
0.0
 33
0.0
 16
1.0
 26
0.0
 36
0.0
 17
0.0
 27
1.0
 37
0.0
 76
     0
330
70
  0
LAYOUT
  5
77
102
{ACAD_REACTORS
330
69
102
}
330
69
100
AcDbPlotSettings
  1

  2
none_device
  4
ISO_A4_(210.00_x_297.00_MM)
  6

 40
7.5
 41
20.0
 42
7.5
 43
20.0
 44
210.0
 45
297.0
 46
0.0
 47
0.0
 48
0.0
 49
0.0
140
0.0
141
0.0
142
1.0
143
5.336774324043415
 70
 11952
 72
     1
 73
     1
 74
     0
  7
monochrome.ctb
 75
     0
147
0.1873791056696489
 76
     0
 77
     2
 78
   300
148
91.77549510735445
149
3.336998230916208
100
AcDbLayout
  1
Model
 70
     1
 71
     0
 10
0.0
 20
0.0
 11
12.0
 21
9.0
 12
0.0
 22
0.0
 32
0.0
 14
0.0
 24
0.0
 34
0.0
 15
0.0
 25
0.0
 35
0.0
146
0.0
 13
0.0
 23
0.0
 33
0.0
 16
1.0
 26
0.0
 36
0.0
 17
0.0
 27
1.0
 37
0.0
 76
     0
330
74
331
82
1001
ACAD_PSEXT
1000
Kein
1000
Kein
1000
Nicht anwendbar
1000
Das Layout wird erst geplottet, wenn ein neuer Plotter-Konfigurationsname ausgewählt wird.
1070
     0
  0
MATERIAL
  5
19
102
{ACAD_XDICTIONARY
360
1A
102
}
102
{ACAD_REACTORS
330
10
102
}
330
10
100
AcDbMaterial
  1
ByBlock
 72
     0
 43
0.0208333333333333
 43
0.0
 43
0.0
 43
0.0
 43
0.0
 43
0.0208333333333333
 43
0.0
 43
0.0
 43
0.0
 43
0.0
 43
1.0
 43
0.0
 43
0.0
 43
0.0
 43
0.0
 43
1.0
 77
     0
 47
0.0208333333333333
 47
0.0
 47
0.0
 47
0.0
 47
0.0
 47
0.0208333333333333
 47
0.0
 47
0.0
 47
0.0
 47
0.0
 47
1.0
 47
0.0
 47
0.0
 47
0.0
 47
0.0
 47
1.0
171
     0
 49
0.0208333333333333
 49
0.0
 49
0.0
 49
0.0
 49
0.0
 49
0.0208333333333333
 49
0.0
 49
0.0
 49
0.0
 49
0.0
 49
1.0
 49
0.0
 49
0.0
 49
0.0
 49
0.0
 49
1.0
175
     0
142
0.0208333333333333
142
0.0
142
0.0
142
0.0
142
0.0
142
0.0208333333333333
142
0.0
142
0.0
142
0.0
142
0.0
142
1.0
142
0.0
142
0.0
142
0.0
142
0.0
142
1.0
179
     0
144
0.0208333333333333
144
0.0
144
0.0
144
0.0
144
0.0
144
0.0208333333333333
144
0.0
144
0.0
144
0.0
144
0.0
144
1.0
144
0.0
144
0.0
144
0.0
144
0.0
144
1.0
147
0.0208333333333333
147
0.0
147
0.0
147
0.0
147
0.0
147
0.0208333333333333
147
0.0
147
0.0
147
0.0
147
0.0
147
1.0
147
0.0
147
0.0
147
0.0
147
0.0
147
1.0
  0
MATERIAL
  5
11
102
{ACAD_XDICTIONARY
360
12
102
}
102
{ACAD_REACTORS
330
10
102
}
330
10
100
AcDbMaterial
  1
ByLayer
 72
     0
 43
0.0208333333333333
 43
0.0
 43
0.0
 43
0.0
 43
0.0
 43
0.0208333333333333
 43
0.0
 43
0.0
 43
0.0
 43
0.0
 43
1.0
 43
0.0
 43
0.0
 43
0.0
 43
0.0
 43
1.0
 77
     0
 47
0.0208333333333333
 47
0.0
 47
0.0
 47
0.0
 47
0.0
 47
0.0208333333333333
 47
0.0
 47
0.0
 47
0.0
 47
0.0
 47
1.0
 47
0.0
 47
0.0
 47
0.0
 47
0.0
 47
1.0
171
     0
 49
0.0208333333333333
 49
0.0
 49
0.0
 49
0.0
 49
0.0
 49
0.0208333333333333
 49
0.0
 49
0.0
 49
0.0
 49
0.0
 49
1.0
 49
0.0
 49
0.0
 49
0.0
 49
0.0
 49
1.0
175
     0
142
0.0208333333333333
142
0.0
142
0.0
142
0.0
142
0.0
142
0.0208333333333333
142
0.0
142
0.0
142
0.0
142
0.0
142
1.0
142
0.0
142
0.0
142
0.0
142
0.0
142
1.0
179
     0
144
0.0208333333333333
144
0.0
144
0.0
144
0.0
144
0.0
144
0.0208333333333333
144
0.0
144
0.0
144
0.0
144
0.0
144
1.0
144
0.0
144
0.0
144
0.0
144
0.0
144
1.0
147
0.0208333333333333
147
0.0
147
0.0
147
0.0
147
0.0
147
0.0208333333333333
147
0.0
147
0.0
147
0.0
147
0.0
147
1.0
147
0.0
147
0.0
147
0.0
147
0.0
147
1.0
  0
MATERIAL
  5
21
102
{ACAD_XDICTIONARY
360
22
102
}
102
{ACAD_REACTORS
330
10
102
}
330
10
100
AcDbMaterial
  1
Global
 72
     0
 43
0.0208333333333333
 43
0.0
 43
0.0
 43
0.0
 43
0.0
 43
0.0208333333333333
 43
0.0
 43
0.0
 43
0.0
 43
0.0
 43
1.0
 43
0.0
 43
0.0
 43
0.0
 43
0.0
 43
1.0
 77
     0
 47
0.0208333333333333
 47
0.0
 47
0.0
 47
0.0
 47
0.0
 47
0.0208333333333333
 47
0.0
 47
0.0
 47
0.0
 47
0.0
 47
1.0
 47
0.0
 47
0.0
 47
0.0
 47
0.0
 47
1.0
171
     0
 49
0.0208333333333333
 49
0.0
 49
0.0
 49
0.0
 49
0.0
 49
0.0208333333333333
 49
0.0
 49
0.0
 49
0.0
 49
0.0
 49
1.0
 49
0.0
 49
0.0
 49
0.0
 49
0.0
 49
1.0
175
     0
142
0.0208333333333333
142
0.0
142
0.0
142
0.0
142
0.0
142
0.0208333333333333
142
0.0
142
0.0
142
0.0
142
0.0
142
1.0
142
0.0
142
0.0
142
0.0
142
0.0
142
1.0
179
     0
144
0.0208333333333333
144
0.0
144
0.0
144
0.0
144
0.0
144
0.0208333333333333
144
0.0
144
0.0
144
0.0
144
0.0
144
1.0
144
0.0
144
0.0
144
0.0
144
0.0
144
1.0
147
0.0208333333333333
147
0.0
147
0.0
147
0.0
147
0.0
147
0.0208333333333333
147
0.0
147
0.0
147
0.0
147
0.0
147
1.0
147
0.0
147
0.0
147
0.0
147
0.0
147
1.0
  0
MLEADERSTYLE
  5
6E
102
{ACAD_REACTORS
330
6D
102
}
330
6D
100
AcDbMLeaderStyle
170
     2
171
     1
172
     0
 90
        2
 40
0.0
 41
0.0
173
     1
 91
-1056964608
340
62
 92
       -2
290
     1
 42
0.09
291
     1
 43
0.36
  3
Standard
 44
0.18
300

342
5D
174
     1
178
     6
175
     1
176
     0
 93
-1056964608
 45
0.18
292
     0
297
     0
 46
0.18
 94
-1056964608
 47
1.0
 49
1.0
140
1.0
293
     1
141
0.0
294
     1
177
     0
142
1.0
295
     0
296
     0
143
0.125
1001
ACAD_MLEADERVER
1070
     2
  0
MLINESTYLE
  5
67
102
{ACAD_REACTORS
330
66
102
}
330
66
100
AcDbMlineStyle
  2
STANDARD
 70
     0
  3

 62
   256
 51
90.0
 52
90.0
 71
     2
 49
0.5
 62
   256
  6
BYLAYER
 49
-0.5
 62
   256
  6
BYLAYER
  0
ACDBPLACEHOLDER
  5
F
102
{ACAD_REACTORS
330
E
102
}
330
E
  0
SCALE
  5
3B
102
{ACAD_REACTORS
330
3A
102
}
330
3A
100
AcDbScale
 70
     0
300
1:1
140
1.0
141
1.0
290
     1
  0
SCALE
  5
3C
102
{ACAD_REACTORS
330
3A
102
}
330
3A
100
AcDbScale
 70
     0
300
1:2
140
1.0
141
2.0
290
     0
  0
SCALE
  5
3D
102
{ACAD_REACTORS
330
3A
102
}
330
3A
100
AcDbScale
 70
     0
300
1:4
140
1.0
141
4.0
290
     0
  0
SCALE
  5
3E
102
{ACAD_REACTORS
330
3A
102
}
330
3A
100
AcDbScale
 70
     0
300
1:5
140
1.0
141
5.0
290
     0
  0
SCALE
  5
3F
102
{ACAD_REACTORS
330
3A
102
}
330
3A
100
AcDbScale
 70
     0
300
1:8
140
1.0
141
8.0
290
     0
  0
SCALE
  5
40
102
{ACAD_REACTORS
330
3A
102
}
330
3A
100
AcDbScale
 70
     0
300
1:10
140
1.0
141
10.0
290
     0
  0
SCALE
  5
41
102
{ACAD_REACTORS
330
3A
102
}
330
3A
100
AcDbScale
 70
     0
300
1:16
140
1.0
141
16.0
290
     0
  0
SCALE
  5
42
102
{ACAD_REACTORS
330
3A
102
}
330
3A
100
AcDbScale
 70
     0
300
1:20
140
1.0
141
20.0
290
     0
  0
SCALE
  5
43
102
{ACAD_REACTORS
330
3A
102
}
330
3A
100
AcDbScale
 70
     0
300
1:30
140
1.0
141
30.0
290
     0
  0
SCALE
  5
44
102
{ACAD_REACTORS
330
3A
102
}
330
3A
100
AcDbScale
 70
     0
300
1:40
140
1.0
141
40.0
290
     0
  0
SCALE
  5
45
102
{ACAD_REACTORS
330
3A
102
}
330
3A
100
AcDbScale
 70
     0
300
1:50
140
1.0
141
50.0
290
     0
  0
SCALE
  5
46
102
{ACAD_REACTORS
330
3A
102
}
330
3A
100
AcDbScale
 70
     0
300
1:100
140
1.0
141
100.0
290
     0
  0
SCALE
  5
47
102
{ACAD_REACTORS
330
3A
102
}
330
3A
100
AcDbScale
 70
     0
300
2:1
140
2.0
141
1.0
290
     0
  0
SCALE
  5
48
102
{ACAD_REACTORS
330
3A
102
}
330
3A
100
AcDbScale
 70
     0
300
4:1
140
4.0
141
1.0
290
     0
  0
SCALE
  5
49
102
{ACAD_REACTORS
330
3A
102
}
330
3A
100
AcDbScale
 70
     0
300
8:1
140
8.0
141
1.0
290
     0
  0
SCALE
  5
4A
102
{ACAD_REACTORS
330
3A
102
}
330
3A
100
AcDbScale
 70
     0
300
10:1
140
10.0
141
1.0
290
     0
  0
SCALE
  5
4B
102
{ACAD_REACTORS
330
3A
102
}
330
3A
100
AcDbScale
 70
     0
300
100:1
140
100.0
141
1.0
290
     0
  0
SCALE
  5
4C
102
{ACAD_REACTORS
330
3A
102
}
330
3A
100
AcDbScale
 70
     0
300
1/128" = 1'-0"
140
0.0078125
141
12.0
290
     0
  0
SCALE
  5
4D
102
{ACAD_REACTORS
330
3A
102
}
330
3A
100
AcDbScale
 70
     0
300
1/64" = 1'-0"
140
0.015625
141
12.0
290
     0
  0
SCALE
  5
4E
102
{ACAD_REACTORS
330
3A
102
}
330
3A
100
AcDbScale
 70
     0
300
1/32" = 1'-0"
140
0.03125
141
12.0
290
     0
  0
SCALE
  5
4F
102
{ACAD_REACTORS
330
3A
102
}
330
3A
100
AcDbScale
 70
     0
300
1/16" = 1'-0"
140
0.0625
141
12.0
290
     0
  0
SCALE
  5
50
102
{ACAD_REACTORS
330
3A
102
}
330
3A
100
AcDbScale
 70
     0
300
3/32" = 1'-0"
140
0.09375
141
12.0
290
     0
  0
SCALE
  5
51
102
{ACAD_REACTORS
330
3A
102
}
330
3A
100
AcDbScale
 70
     0
300
1/8" = 1'-0"
140
0.125
141
12.0
290
     0
  0
SCALE
  5
52
102
{ACAD_REACTORS
330
3A
102
}
330
3A
100
AcDbScale
 70
     0
300
3/16" = 1'-0"
140
0.1875
141
12.0
290
     0
  0
SCALE
  5
53
102
{ACAD_REACTORS
330
3A
102
}
330
3A
100
AcDbScale
 70
     0
300
1/4" = 1'-0"
140
0.25
141
12.0
290
     0
  0
SCALE
  5
54
102
{ACAD_REACTORS
330
3A
102
}
330
3A
100
AcDbScale
 70
     0
300
3/8" = 1'-0"
140
0.375
141
12.0
290
     0
  0
SCALE
  5
55
102
{ACAD_REACTORS
330
3A
102
}
330
3A
100
AcDbScale
 70
     0
300
1/2" = 1'-0"
140
0.5
141
12.0
290
     0
  0
SCALE
  5
56
102
{ACAD_REACTORS
330
3A
102
}
330
3A
100
AcDbScale
 70
     0
300
3/4" = 1'-0"
140
0.75
141
12.0
290
     0
  0
SCALE
  5
57
102
{ACAD_REACTORS
330
3A
102
}
330
3A
100
AcDbScale
 70
     0
300
1" = 1'-0"
140
1.0
141
12.0
290
     0
  0
SCALE
  5
58
102
{ACAD_REACTORS
330
3A
102
}
330
3A
100
AcDbScale
 70
     0
300
1-1/2" = 1'-0"
140
1.5
141
12.0
290
     0
  0
SCALE
  5
59
102
{ACAD_REACTORS
330
3A
102
}
330
3A
100
AcDbScale
 70
     0
300
3" = 1'-0"
140
3.0
141
12.0
290
     0
  0
SCALE
  5
5A
102
{ACAD_REACTORS
330
3A
102
}
330
3A
100
AcDbScale
 70
     0
300
6" = 1'-0"
140
6.0
141
12.0
290
     0
  0
SCALE
  5
5B
102
{ACAD_REACTORS
330
3A
102
}
330
3A
100
AcDbScale
 70
     0
300
1'-0" = 1'-0"
140
12.0
141
12.0
290
     0
  0
TABLESTYLE
  5
6C
102
{ACAD_XDICTIONARY
360
1B2
102
}
102
{ACAD_REACTORS
330
6B
102
}
330
6B
100
AcDbTableStyle
  3
Standard
 70
     0
 71
     0
 40
0.06
 41
0.06
280
     0
281
     0
  7
STANDARD
140
0.18
170
     2
 62
     0
 63
     7
283
     0
274
    -2
284
     1
 64
     0
275
    -2
285
     1
 65
     0
276
    -2
286
     1
 66
     0
277
    -2
287
     1
 67
     0
278
    -2
288
     1
 68
     0
279
    -2
289
     1
 69
     0
  7
STANDARD
140
0.25
170
     5
 62
     0
 63
     7
283
     0
274
    -2
284
     1
 64
     0
275
    -2
285
     1
 65
     0
276
    -2
286
     1
 66
     0
277
    -2
287
     1
 67
     0
278
    -2
288
     1
 68
     0
279
    -2
289
     1
 69
     0
  7
STANDARD
140
0.18
170
     5
 62
     0
 63
     7
283
     0
274
    -2
284
     1
 64
     0
275
    -2
285
     1
 65
     0
276
    -2
286
     1
 66
     0
277
    -2
287
     1
 67
     0
278
    -2
288
     1
 68
     0
279
    -2
289
     1
 69
     0
  0
VISUALSTYLE
  5
2F
102
{ACAD_REACTORS
330
29
102
}
330
29
100
AcDbVisualStyle
  2
2dWireframe
 70
     4
 71
     0
 72
     2
 73
     0
 90
        0
 40
-0.6
 41
-30.0
 62
     5
 63
     7
 74
     1
 91
        4
 64
     7
 65
   257
 75
     1
175
     1
 42
1.0
 92
        0
 66
   257
 43
1.0
 76
     1
 77
     6
 78
     2
 67
     7
 79
     5
170
     0
171
     0
290
     0
174
     0
 93
        1
 44
0.0
173
     0
291
     0
 45
0.0
1001
ACAD
1000
AcDbSavedByObjectVersion
1070
     0
  0
VISUALSTYLE
  5
31
102
{ACAD_REACTORS
330
29
102
}
330
29
100
AcDbVisualStyle
  2
3D Hidden
 70
     6
 71
     1
 72
     2
 73
     2
 90
        0
 40
-0.6
 41
-30.0
 62
     5
 63
     7
 74
     2
 91
        2
 64
     7
 65
   257
 75
     2
175
     1
 42
40.0
 92
        0
 66
   257
 43
1.0
 76
     1
 77
     6
 78
     2
 67
     7
 79
     3
170
     0
171
     0
290
     0
174
     0
 93
        1
 44
0.0
173
     0
291
     0
 45
0.0
1001
ACAD
1000
AcDbSavedByObjectVersion
1070
     0
  0
VISUALSTYLE
  5
30
102
{ACAD_REACTORS
330
29
102
}
330
29
100
AcDbVisualStyle
  2
3dWireframe
 70
     5
 71
     0
 72
     2
 73
     0
 90
        0
 40
-0.6
 41
-30.0
 62
     5
 63
     7
 74
     1
 91
        4
 64
     7
 65
   257
 75
     1
175
     1
 42
1.0
 92
        0
 66
   257
 43
1.0
 76
     1
 77
     6
 78
     2
 67
     7
 79
     5
170
     0
171
     0
290
     0
174
     0
 93
        1
 44
0.0
173
     0
291
     0
 45
0.0
1001
ACAD
1000
AcDbSavedByObjectVersion
1070
     0
  0
VISUALSTYLE
  5
2E
102
{ACAD_REACTORS
330
29
102
}
330
29
100
AcDbVisualStyle
  2
Basic
 70
     7
 71
     1
 72
     0
 73
     1
 90
        0
 40
-0.6
 41
-30.0
 62
     5
 63
     7
 74
     0
 91
        4
 64
     7
 65
   257
 75
     1
175
     1
 42
1.0
 92
        8
 66
     7
 43
1.0
 76
     1
 77
     6
 78
     2
 67
     7
 79
     5
170
     0
171
     0
290
     0
174
     0
 93
        1
 44
0.0
173
     0
291
     1
 45
0.0
1001
ACAD
1000
AcDbSavedByObjectVersion
1070
     0
  0
VISUALSTYLE
  5
35
102
{ACAD_REACTORS
330
29
102
}
330
29
100
AcDbVisualStyle
  2
Brighten
 70
    12
 71
     2
 72
     2
 73
     0
 90
        0
 40
-0.6
 41
-30.0
 62
     5
 63
     7
 74
     1
 91
        4
 64
     7
 65
   257
 75
     1
175
     1
 42
1.0
 92
        8
 66
     7
 43
1.0
 76
     1
 77
     6
 78
     2
 67
     7
 79
     5
170
     0
171
     0
290
     0
174
     0
 93
        1
 44
50.0
173
     0
291
     1
 45
0.0
1001
ACAD
1000
AcDbSavedByObjectVersion
1070
     0
  0
VISUALSTYLE
  5
39
102
{ACAD_REACTORS
330
29
102
}
330
29
100
AcDbVisualStyle
  2
ColorChange
 70
    16
 71
     2
 72
     2
 73
     3
 90
        0
 40
-0.6
 41
-30.0
 62
     5
 63
     8
 74
     1
 91
        4
 64
     7
 65
   257
 75
     1
175
     1
 42
1.0
 92
        8
 66
     8
 43
1.0
 76
     1
 77
     6
 78
     2
 67
     7
 79
     5
170
     0
171
     0
290
     0
174
     0
 93
        1
 44
0.0
173
     0
291
     1
 45
0.0
1001
ACAD
1000
AcDbSavedByObjectVersion
1070
     0
  0
VISUALSTYLE
  5
32
102
{ACAD_REACTORS
330
29
102
}
330
29
100
AcDbVisualStyle
  2
Conceptual
 70
     9
 71
     3
 72
     2
 73
     0
 90
        0
 40
-0.6
 41
-30.0
 62
     5
 63
     7
 74
     2
 91
        2
 64
     7
 65
   257
 75
     1
175
     1
 42
40.0
 92
        8
 66
     7
 43
1.0
 76
     1
 77
     6
 78
     2
 67
     7
 79
     3
170
     0
171
     0
290
     0
174
     0
 93
        1
 44
0.0
173
     0
291
     0
 45
0.0
1001
ACAD
1000
AcDbSavedByObjectVersion
1070
     0
  0
VISUALSTYLE
  5
34
102
{ACAD_REACTORS
330
29
102
}
330
29
100
AcDbVisualStyle
  2
Dim
 70
    11
 71
     2
 72
     2
 73
     0
 90
        0
 40
-0.6
 41
-30.0
 62
     5
 63
     7
 74
     1
 91
        4
 64
     7
 65
   257
 75
     1
175
     1
 42
1.0
 92
        8
 66
     7
 43
1.0
 76
     1
 77
     6
 78
     2
 67
     7
 79
     5
170
     0
171
     0
290
     0
174
     0
 93
        1
 44
-50.0
173
     0
291
     1
 45
0.0
1001
ACAD
1000
AcDbSavedByObjectVersion
1070
     0
  0
VISUALSTYLE
  5
38
102
{ACAD_REACTORS
330
29
102
}
330
29
100
AcDbVisualStyle
  2
Facepattern
 70
    15
 71
     2
 72
     2
 73
     0
 90
        0
 40
-0.6
 41
-30.0
 62
     5
 63
     7
 74
     1
 91
        4
 64
     7
 65
   257
 75
     1
175
     1
 42
1.0
 92
        8
 66
     7
 43
1.0
 76
     1
 77
     6
 78
     2
 67
     7
 79
     5
170
     0
171
     0
290
     0
174
     0
 93
        1
 44
0.0
173
     0
291
     1
 45
0.0
1001
ACAD
1000
AcDbSavedByObjectVersion
1070
     0
  0
VISUALSTYLE
  5
2A
102
{ACAD_REACTORS
330
29
102
}
330
29
100
AcDbVisualStyle
  2
Flat
 70
     0
 71
     2
 72
     1
 73
     1
 90
        2
 40
-0.6
 41
30.0
 62
     5
 63
     7
 74
     0
 91
        4
 64
     7
 65
   257
 75
     1
175
     1
 42
1.0
 92
        8
 66
     7
 43
1.0
 76
     1
 77
     6
 78
     2
 67
     7
 79
     5
170
     0
171
     0
290
     0
174
     0
 93
       13
 44
0.0
173
     0
291
     1
 45
0.0
1001
ACAD
1000
AcDbSavedByObjectVersion
1070
     0
  0
VISUALSTYLE
  5
2B
102
{ACAD_REACTORS
330
29
102
}
330
29
100
AcDbVisualStyle
  2
FlatWithEdges
 70
     1
 71
     2
 72
     1
 73
     1
 90
        2
 40
-0.6
 41
30.0
 62
     5
 63
     7
 74
     1
 91
        4
 64
     7
 65
   257
 75
     1
175
     1
 42
1.0
 92
        0
 66
   257
 43
1.0
 76
     1
 77
     6
 78
     2
 67
     7
 79
     5
170
     0
171
     0
290
     0
174
     0
 93
       13
 44
0.0
173
     0
291
     1
 45
0.0
1001
ACAD
1000
AcDbSavedByObjectVersion
1070
     0
  0
VISUALSTYLE
  5
2C
102
{ACAD_REACTORS
330
29
102
}
330
29
100
AcDbVisualStyle
  2
Gouraud
 70
     2
 71
     2
 72
     2
 73
     1
 90
        2
 40
-0.6
 41
30.0
 62
     5
 63
     7
 74
     0
 91
        4
 64
     7
 65
   257
 75
     1
175
     1
 42
1.0
 92
        0
 66
     7
 43
1.0
 76
     1
 77
     6
 78
     2
 67
     7
 79
     5
170
     0
171
     0
290
     0
174
     0
 93
       13
 44
0.0
173
     0
291
     1
 45
0.0
1001
ACAD
1000
AcDbSavedByObjectVersion
1070
     0
  0
VISUALSTYLE
  5
2D
102
{ACAD_REACTORS
330
29
102
}
330
29
100
AcDbVisualStyle
  2
GouraudWithEdges
 70
     3
 71
     2
 72
     2
 73
     1
 90
        2
 40
-0.6
 41
30.0
 62
     5
 63
     7
 74
     1
 91
        4
 64
     7
 65
   257
 75
     1
175
     1
 42
1.0
 92
        0
 66
   257
 43
1.0
 76
     1
 77
     6
 78
     2
 67
     7
 79
     5
170
     0
171
     0
290
     0
174
     0
 93
       13
 44
0.0
173
     0
291
     1
 45
0.0
1001
ACAD
1000
AcDbSavedByObjectVersion
1070
     0
  0
VISUALSTYLE
  5
37
102
{ACAD_REACTORS
330
29
102
}
330
29
100
AcDbVisualStyle
  2
Linepattern
 70
    14
 71
     2
 72
     2
 73
     0
 90
        0
 40
-0.6
 41
-30.0
 62
     5
 63
     7
 74
     1
 91
        4
 64
     7
 65
   257
 75
     7
175
     7
 42
1.0
 92
        8
 66
     7
 43
1.0
 76
     1
 77
     6
 78
     2
 67
     7
 79
     5
170
     0
171
     0
290
     0
174
     0
 93
        1
 44
0.0
173
     0
291
     1
 45
0.0
1001
ACAD
1000
AcDbSavedByObjectVersion
1070
     0
  0
VISUALSTYLE
  5
33
102
{ACAD_REACTORS
330
29
102
}
330
29
100
AcDbVisualStyle
  2
Realistic
 70
     8
 71
     2
 72
     2
 73
     0
 90
        0
 40
-0.6
 41
-30.0
 62
     5
 63
     7
 74
     1
 91
        0
 64
     7
 65
   257
 75
     1
175
     1
 42
1.0
 92
        8
 66
     8
 43
1.0
 76
     1
 77
     6
 78
     2
 67
     7
 79
     5
170
     0
171
     0
290
     0
174
     0
 93
       13
 44
0.0
173
     0
291
     0
 45
0.0
1001
ACAD
1000
AcDbSavedByObjectVersion
1070
     0
  0
VISUALSTYLE
  5
36
102
{ACAD_REACTORS
330
29
102
}
330
29
100
AcDbVisualStyle
  2
Thicken
 70
    13
 71
     2
 72
     2
 73
     0
 90
        0
 40
-0.6
 41
-30.0
 62
     5
 63
     7
 74
     1
 91
        4
 64
     7
 65
   257
 75
     1
175
     1
 42
1.0
 92
       12
 66
     7
 43
1.0
 76
     1
 77
     6
 78
     2
 67
     7
 79
     5
170
     0
171
     0
290
     0
174
     0
 93
        1
 44
0.0
173
     0
291
     1
 45
0.0
1001
ACAD
1000
AcDbSavedByObjectVersion
1070
     0
  0
DICTIONARYVAR
  5
1CC
102
{ACAD_REACTORS
330
1C9
102
}
330
1C9
100
DictionaryVariables
280
     0
  1
1:1
  0
DICTIONARYVAR
  5
1CB
102
{ACAD_REACTORS
330
1C9
102
}
330
1C9
100
DictionaryVariables
280
     0
  1
STANDARD
  0
DICTIONARYVAR
  5
1CA
102
{ACAD_REACTORS
330
1C9
102
}
330
1C9
100
DictionaryVariables
280
     0
  1
STANDARD
  0
DICTIONARYVAR
  5
1CF
102
{ACAD_REACTORS
330
1C9
102
}
330
1C9
100
DictionaryVariables
280
     0
  1
1
  0
DICTIONARYVAR
  5
1CE
102
{ACAD_REACTORS
330
1C9
102
}
330
1C9
100
DictionaryVariables
280
     0
  1
0
  0
DICTIONARYVAR
  5
2D3
102
{ACAD_REACTORS
330
1C9
102
}
330
1C9
100
DictionaryVariables
280
     0
  1
0
  0
DICTIONARYVAR
  5
2D2
102
{ACAD_REACTORS
330
1C9
102
}
330
1C9
100
DictionaryVariables
280
     0
  1
0
  0
DICTIONARYVAR
  5
1CD
102
{ACAD_REACTORS
330
1C9
102
}
330
1C9
100
DictionaryVariables
280
     0
  1
127
  0
DICTIONARY
  5
2B6
102
{ACAD_REACTORS
330
166
102
}
330
166
100
AcDbDictionary
281
     1
  0
DICTIONARY
  5
171
102
{ACAD_REACTORS
330
166
102
}
330
166
100
AcDbDictionary
281
     1
  0
XRECORD
  5
186
102
{ACAD_REACTORS
330
166
102
}
330
166
100
AcDbXrecord
280
     1
 90
-1023410169
  0
XRECORD
  5
1CBF
102
{ACAD_REACTORS
330
1CBE
102
}
330
1CBE
100
AcDbXrecord
280
     1
330
10F5
330
1276
330
3BC
330
B3D
330
0
330
0
330
0
330
0
330
0
330
0
330
0
330
0
330
0
330
0
330
0
330
0
330
0
330
0
330
0
330
0
330
0
330
0
330
0
330
0
330
0
330
0
330
0
330
0
330
0
330
0
330
0
330
0
330
0
330
0
330
0
330
0
330
0
330
0
330
0
330
0
330
0
330
0
330
0
330
0
330
0
330
0
330
0
330
0
330
0
330
0
330
0
330
0
330
0
330
0
330
0
330
0
330
0
330
0
330
0
330
0
330
0
330
0
330
0
330
0
330
0
330
0
330
0
330
0
330
0
330
0
  0
XRECORD
  5
4D38
102
{ACAD_REACTORS
330
4D37
102
}
330
4D37
100
AcDbXrecord
280
     1
330
0
  0
DICTIONARY
  5
1A
330
19
100
AcDbDictionary
280
     1
281
     1
  3
ACAD_XREC_ROUNDTRIP
360
5D5C
  3
BUMPTILE
360
1C
  3
DIFFUSETILE
360
1B
  3
OPACITYTILE
360
1F
  3
REFLECTIONTILE
360
1E
  3
REFRACTIONTILE
360
20
  3
SPECULARTILE
360
1D
  0
DICTIONARY
  5
12
330
11
100
AcDbDictionary
280
     1
281
     1
  3
ACAD_XREC_ROUNDTRIP
360
5D5B
  3
BUMPTILE
360
14
  3
DIFFUSETILE
360
13
  3
OPACITYTILE
360
17
  3
REFLECTIONTILE
360
16
  3
REFRACTIONTILE
360
18
  3
SPECULARTILE
360
15
  0
DICTIONARY
  5
22
330
21
100
AcDbDictionary
280
     1
281
     1
  3
ACAD_XREC_ROUNDTRIP
360
5D5D
  3
BUMPTILE
360
24
  3
DIFFUSETILE
360
23
  3
OPACITYTILE
360
27
  3
REFLECTIONTILE
360
26
  3
REFRACTIONTILE
360
28
  3
SPECULARTILE
360
25
  0
DICTIONARY
  5
1B2
330
6C
100
AcDbDictionary
280
     1
281
     1
  3
ACAD_ROUNDTRIP_2008_TABLESTYLE_CELLSTYLEMAP
360
5D58
  3
ACAD_XREC_ROUNDTRIP
360
5D5E
  0
XRECORD
  5
5D5C
102
{ACAD_REACTORS
330
1A
102
}
330
1A
100
AcDbXrecord
280
     1
102
MATERIAL
148
0.0
149
0.0
149
0.0
 93
        0
 94
      127
282
     0
 72
     0
 77
     0
171
     0
175
     0
179
     0
273
     0
  0
XRECORD
  5
1C
102
{ACAD_REACTORS
330
1A
102
}
330
1A
100
AcDbXrecord
280
     1
270
     1
271
     1
  0
XRECORD
  5
1B
102
{ACAD_REACTORS
330
1A
102
}
330
1A
100
AcDbXrecord
280
     1
270
     1
271
     1
  0
XRECORD
  5
1F
102
{ACAD_REACTORS
330
1A
102
}
330
1A
100
AcDbXrecord
280
     1
270
     1
271
     1
  0
XRECORD
  5
1E
102
{ACAD_REACTORS
330
1A
102
}
330
1A
100
AcDbXrecord
280
     1
270
     1
271
     1
  0
XRECORD
  5
20
102
{ACAD_REACTORS
330
1A
102
}
330
1A
100
AcDbXrecord
280
     1
270
     1
271
     1
  0
XRECORD
  5
1D
102
{ACAD_REACTORS
330
1A
102
}
330
1A
100
AcDbXrecord
280
     1
270
     1
271
     1
  0
XRECORD
  5
5D5B
102
{ACAD_REACTORS
330
12
102
}
330
12
100
AcDbXrecord
280
     1
102
MATERIAL
148
0.0
149
0.0
149
0.0
 93
        0
 94
      127
282
     0
 72
     0
 77
     0
171
     0
175
     0
179
     0
273
     0
  0
XRECORD
  5
14
102
{ACAD_REACTORS
330
12
102
}
330
12
100
AcDbXrecord
280
     1
270
     1
271
     1
  0
XRECORD
  5
13
102
{ACAD_REACTORS
330
12
102
}
330
12
100
AcDbXrecord
280
     1
270
     1
271
     1
  0
XRECORD
  5
17
102
{ACAD_REACTORS
330
12
102
}
330
12
100
AcDbXrecord
280
     1
270
     1
271
     1
  0
XRECORD
  5
16
102
{ACAD_REACTORS
330
12
102
}
330
12
100
AcDbXrecord
280
     1
270
     1
271
     1
  0
XRECORD
  5
18
102
{ACAD_REACTORS
330
12
102
}
330
12
100
AcDbXrecord
280
     1
270
     1
271
     1
  0
XRECORD
  5
15
102
{ACAD_REACTORS
330
12
102
}
330
12
100
AcDbXrecord
280
     1
270
     1
271
     1
  0
XRECORD
  5
5D5D
102
{ACAD_REACTORS
330
22
102
}
330
22
100
AcDbXrecord
280
     1
102
MATERIAL
148
0.0
149
0.0
149
0.0
 93
        0
 94
      127
282
     0
 72
     0
 77
     0
171
     0
175
     0
179
     0
273
     0
  0
XRECORD
  5
24
102
{ACAD_REACTORS
330
22
102
}
330
22
100
AcDbXrecord
280
     1
270
     1
271
     1
  0
XRECORD
  5
23
102
{ACAD_REACTORS
330
22
102
}
330
22
100
AcDbXrecord
280
     1
270
     1
271
     1
  0
XRECORD
  5
27
102
{ACAD_REACTORS
330
22
102
}
330
22
100
AcDbXrecord
280
     1
270
     1
271
     1
  0
XRECORD
  5
26
102
{ACAD_REACTORS
330
22
102
}
330
22
100
AcDbXrecord
280
     1
270
     1
271
     1
  0
XRECORD
  5
28
102
{ACAD_REACTORS
330
22
102
}
330
22
100
AcDbXrecord
280
     1
270
     1
271
     1
  0
XRECORD
  5
25
102
{ACAD_REACTORS
330
22
102
}
330
22
100
AcDbXrecord
280
     1
270
     1
271
     1
  0
CELLSTYLEMAP
  5
5D58
102
{ACAD_REACTORS
330
1B2
102
}
330
1B2
100
AcDbCellStyleMap
 90
        3
300
CELLSTYLE
  1
TABLEFORMAT_BEGIN
 90
        5
170
     1
 91
        0
 92
    32768
 62
   257
 93
        1
300
CONTENTFORMAT
  1
CONTENTFORMAT_BEGIN
 90
        0
 91
        0
 92
      512
 93
        0
300

 40
0.0
140
1.0
 94
        5
 62
     0
340
5D
144
0.25
309
CONTENTFORMAT_END
171
     0
 94
        0
309
TABLEFORMAT_END
  1
CELLSTYLE_BEGIN
 90
        1
 91
        1
300
_TITLE
309
CELLSTYLE_END
300
CELLSTYLE
  1
TABLEFORMAT_BEGIN
 90
        5
170
     1
 91
        0
 92
        0
 62
   257
 93
        1
300
CONTENTFORMAT
  1
CONTENTFORMAT_BEGIN
 90
        0
 91
        0
 92
      512
 93
        0
300

 40
0.0
140
1.0
 94
        5
 62
     0
340
5D
144
0.18
309
CONTENTFORMAT_END
171
     0
 94
        0
309
TABLEFORMAT_END
  1
CELLSTYLE_BEGIN
 90
        2
 91
        1
300
_HEADER
309
CELLSTYLE_END
300
CELLSTYLE
  1
TABLEFORMAT_BEGIN
 90
        5
170
     1
 91
        0
 92
        0
 62
   257
 93
        1
300
CONTENTFORMAT
  1
CONTENTFORMAT_BEGIN
 90
        0
 91
        0
 92
      512
 93
        0
300

 40
0.0
140
1.0
 94
        2
 62
     0
340
5D
144
0.18
309
CONTENTFORMAT_END
171
     0
 94
        0
309
TABLEFORMAT_END
  1
CELLSTYLE_BEGIN
 90
        3
 91
        2
300
_DATA
309
CELLSTYLE_END
  0
XRECORD
  5
5D5E
102
{ACAD_REACTORS
330
1B2
102
}
330
1B2
100
AcDbXrecord
280
     1
102
ACAD_ROUNDTRIP_PRE2007_TABLESTYLE
 90
      512
 91
        0
  1

 92
      512
 93
        0
  2

 94
      512
 95
        0
  3

  0
ENDSEC
  0
EOF
