  0
SECTION
  2
HEADER
  9
$ACADVER
  1
AC1027
  9
$ACADMAINTVER
 70
   105
  9
$DWGCODEPAGE
  3
ANSI_1252
  9
$LASTSAVEDBY
  1
guzb562
  9
$REQUIREDVERSIONS
160
                 0
  9
$INSBASE
 10
0.0
 20
0.0
 30
0.0
  9
$EXTMIN
 10
3480.593247119756
 20
3223.791154408457
 30
-39.90391037738618
  9
$EXTMAX
 10
3654.738688381429
 20
3544.893604304351
 30
3.157138269702406
  9
$LIMMIN
 10
0.0
 20
0.0
  9
$LIMMAX
 10
8400.0
 20
5940.0
  9
$ORTHOMODE
 70
     0
  9
$REGENMODE
 70
     1
  9
$FILLMODE
 70
     1
  9
$QTEXTMODE
 70
     0
  9
$MIRRTEXT
 70
     1
  9
$LTSCALE
 40
20.0
  9
$ATTMODE
 70
     1
  9
$TEXTSIZE
 40
3.5
  9
$TRACEWID
 40
1.0
  9
$TEXTSTYLE
  7
STANDARD
  9
$CLAYER
  8
AM_0 ( Kontur 0.5 )
  9
$CELTYPE
  6
ByLayer
  9
$CECOLOR
 62
   256
  9
$CELTSCALE
 40
1.0
  9
$DISPSILH
 70
     0
  9
$DIMSCALE
 40
1.0
  9
$DIMASZ
 40
5.0
  9
$DIMEXO
 40
1.0
  9
$DIMDLI
 40
10.0
  9
$DIMRND
 40
0.0
  9
$DIMDLE
 40
0.0
  9
$DIMEXE
 40
1.0
  9
$DIMTP
 40
0.1
  9
$DIMTM
 40
0.1
  9
$DIMTXT
 40
5.0
  9
$DIMCEN
 40
0.0
  9
$DIMTSZ
 40
0.0
  9
$DIMTOL
 70
     0
  9
$DIMLIM
 70
     0
  9
$DIMTIH
 70
     0
  9
$DIMTOH
 70
     0
  9
$DIMSE1
 70
     0
  9
$DIMSE2
 70
     0
  9
$DIMTAD
 70
     1
  9
$DIMZIN
 70
     8
  9
$DIMBLK
  1

  9
$DIMASO
 70
     1
  9
$DIMSHO
 70
     1
  9
$DIMPOST
  1

  9
$DIMAPOST
  1
"
  9
$DIMALT
 70
     0
  9
$DIMALTD
 70
     2
  9
$DIMALTF
 40
0.0393701
  9
$DIMLFAC
 40
1.0
  9
$DIMTOFL
 70
     1
  9
$DIMTVP
 40
0.0
  9
$DIMTIX
 70
     0
  9
$DIMSOXD
 70
     0
  9
$DIMSAH
 70
     0
  9
$DIMBLK1
  1

  9
$DIMBLK2
  1

  9
$DIMSTYLE
  2
AM_DIN
  9
$DIMCLRD
 70
   256
  9
$DIMCLRE
 70
   256
  9
$DIMCLRT
 70
     2
  9
$DIMTFAC
 40
0.71
  9
$DIMGAP
 40
1.5
  9
$DIMJUST
 70
     0
  9
$DIMSD1
 70
     0
  9
$DIMSD2
 70
     0
  9
$DIMTOLJ
 70
     0
  9
$DIMTZIN
 70
     8
  9
$DIMALTZ
 70
     0
  9
$DIMALTTZ
 70
     0
  9
$DIMUPT
 70
     0
  9
$DIMDEC
 70
     2
  9
$DIMTDEC
 70
     2
  9
$DIMALTU
 70
     2
  9
$DIMALTTD
 70
     2
  9
$DIMTXSTY
  7
STANDARD
  9
$DIMAUNIT
 70
     0
  9
$DIMADEC
 70
     0
  9
$DIMALTRND
 40
0.0
  9
$DIMAZIN
 70
     2
  9
$DIMDSEP
 70
    46
  9
$DIMATFIT
 70
     3
  9
$DIMFRAC
 70
     0
  9
$DIMLDRBLK
  1

  9
$DIMLUNIT
 70
     2
  9
$DIMLWD
 70
    -1
  9
$DIMLWE
 70
    -1
  9
$DIMTMOVE
 70
     0
  9
$DIMFXL
 40
1.0
  9
$DIMFXLON
 70
     0
  9
$DIMJOGANG
 40
0.7853981633974483
  9
$DIMTFILL
 70
     0
  9
$DIMTFILLCLR
 70
     0
  9
$DIMARCSYM
 70
     1
  9
$DIMLTYPE
  6

  9
$DIMLTEX1
  6

  9
$DIMLTEX2
  6

  9
$DIMTXTDIRECTION
 70
     0
  9
$LUNITS
 70
     2
  9
$LUPREC
 70
     2
  9
$SKETCHINC
 40
1.0
  9
$FILLETRAD
 40
50.0
  9
$AUNITS
 70
     0
  9
$AUPREC
 70
     0
  9
$MENU
  1
ACAD
  9
$ELEVATION
 40
0.0
  9
$PELEVATION
 40
0.0
  9
$THICKNESS
 40
0.0
  9
$LIMCHECK
 70
     0
  9
$CHAMFERA
 40
50.0
  9
$CHAMFERB
 40
50.0
  9
$CHAMFERC
 40
0.0
  9
$CHAMFERD
 40
0.0
  9
$SKPOLY
 70
     0
  9
$TDCREATE
 40
2454727.465150255
  9
$TDUCREATE
 40
2454727.381816921
  9
$TDUPDATE
 40
2457897.385586574
  9
$TDUUPDATE
 40
2457897.302253241
  9
$TDINDWG
 40
0.0083436111
  9
$TDUSRTIMER
 40
0.0083427083
  9
$USRTIMER
 70
     1
  9
$ANGBASE
 50
0.0
  9
$ANGDIR
 70
     0
  9
$PDMODE
 70
     0
  9
$PDSIZE
 40
0.0
  9
$PLINEWID
 40
0.0
  9
$SPLFRAME
 70
     0
  9
$SPLINETYPE
 70
     6
  9
$SPLINESEGS
 70
    12
  9
$HANDSEED
  5
1BC4
  9
$SURFTAB1
 70
     6
  9
$SURFTAB2
 70
     6
  9
$SURFTYPE
 70
     6
  9
$SURFU
 70
     6
  9
$SURFV
 70
     6
  9
$UCSBASE
  2

  9
$UCSNAME
  2

  9
$UCSORG
 10
0.0
 20
0.0
 30
0.0
  9
$UCSXDIR
 10
1.0
 20
0.0
 30
0.0
  9
$UCSYDIR
 10
0.0
 20
1.0
 30
0.0
  9
$UCSORTHOREF
  2

  9
$UCSORTHOVIEW
 70
     0
  9
$UCSORGTOP
 10
0.0
 20
0.0
 30
0.0
  9
$UCSORGBOTTOM
 10
0.0
 20
0.0
 30
0.0
  9
$UCSORGLEFT
 10
0.0
 20
0.0
 30
0.0
  9
$UCSORGRIGHT
 10
0.0
 20
0.0
 30
0.0
  9
$UCSORGFRONT
 10
0.0
 20
0.0
 30
0.0
  9
$UCSORGBACK
 10
0.0
 20
0.0
 30
0.0
  9
$PUCSBASE
  2

  9
$PUCSNAME
  2

  9
$PUCSORG
 10
0.0
 20
0.0
 30
0.0
  9
$PUCSXDIR
 10
1.0
 20
0.0
 30
0.0
  9
$PUCSYDIR
 10
0.0
 20
1.0
 30
0.0
  9
$PUCSORTHOREF
  2

  9
$PUCSORTHOVIEW
 70
     0
  9
$PUCSORGTOP
 10
0.0
 20
0.0
 30
0.0
  9
$PUCSORGBOTTOM
 10
0.0
 20
0.0
 30
0.0
  9
$PUCSORGLEFT
 10
0.0
 20
0.0
 30
0.0
  9
$PUCSORGRIGHT
 10
0.0
 20
0.0
 30
0.0
  9
$PUCSORGFRONT
 10
0.0
 20
0.0
 30
0.0
  9
$PUCSORGBACK
 10
0.0
 20
0.0
 30
0.0
  9
$USERI1
 70
     0
  9
$USERI2
 70
     0
  9
$USERI3
 70
     0
  9
$USERI4
 70
     0
  9
$USERI5
 70
     0
  9
$USERR1
 40
0.0
  9
$USERR2
 40
0.0
  9
$USERR3
 40
0.0
  9
$USERR4
 40
0.0
  9
$USERR5
 40
0.0
  9
$WORLDVIEW
 70
     1
  9
$SHADEDGE
 70
     3
  9
$SHADEDIF
 70
    70
  9
$TILEMODE
 70
     1
  9
$MAXACTVP
 70
    64
  9
$PINSBASE
 10
0.0
 20
0.0
 30
0.0
  9
$PLIMCHECK
 70
     0
  9
$PEXTMIN
 10
1.000000000000000E+20
 20
1.000000000000000E+20
 30
1.000000000000000E+20
  9
$PEXTMAX
 10
-1.000000000000000E+20
 20
-1.000000000000000E+20
 30
-1.000000000000000E+20
  9
$PLIMMIN
 10
0.0
 20
0.0
  9
$PLIMMAX
 10
12.0
 20
9.0
  9
$UNITMODE
 70
     0
  9
$VISRETAIN
 70
     1
  9
$PLINEGEN
 70
     0
  9
$PSLTSCALE
 70
     1
  9
$TREEDEPTH
 70
  3020
  9
$CMLSTYLE
  2
Standard
  9
$CMLJUST
 70
     0
  9
$CMLSCALE
 40
1.0
  9
$PROXYGRAPHICS
 70
     1
  9
$MEASUREMENT
 70
     1
  9
$CELWEIGHT
370
    -1
  9
$ENDCAPS
280
     0
  9
$JOINSTYLE
280
     0
  9
$LWDISPLAY
290
     0
  9
$INSUNITS
 70
     4
  9
$HYPERLINKBASE
  1

  9
$STYLESHEET
  1

  9
$XEDIT
290
     1
  9
$CEPSNTYPE
380
     0
  9
$PSTYLEMODE
290
     1
  9
$FINGERPRINTGUID
  2
{E1174A5A-5929-4C62-BDCF-E13A718591C6}
  9
$VERSIONGUID
  2
{2F3B5D61-9789-437B-94B7-1F3FCDA7DF06}
  9
$EXTNAMES
290
     1
  9
$PSVPSCALE
 40
0.0
  9
$OLESTARTUP
290
     0
  9
$SORTENTS
280
   127
  9
$INDEXCTL
280
     0
  9
$HIDETEXT
280
     0
  9
$XCLIPFRAME
280
     0
  9
$HALOGAP
280
     0
  9
$OBSCOLOR
 70
   257
  9
$OBSLTYPE
280
     0
  9
$INTERSECTIONDISPLAY
280
     0
  9
$INTERSECTIONCOLOR
 70
   257
  9
$DIMASSOC
280
     2
  9
$PROJECTNAME
  1

  9
$CAMERADISPLAY
290
     0
  9
$LENSLENGTH
 40
50.0
  9
$CAMERAHEIGHT
 40
0.0
  9
$STEPSPERSEC
 40
2.0
  9
$STEPSIZE
 40
6.0
  9
$3DDWFPREC
 40
2.0
  9
$PSOLWIDTH
 40
0.25
  9
$PSOLHEIGHT
 40
4.0
  9
$LOFTANG1
 40
1.570796326794896
  9
$LOFTANG2
 40
1.570796326794896
  9
$LOFTMAG1
 40
0.0
  9
$LOFTMAG2
 40
0.0
  9
$LOFTPARAM
 70
     7
  9
$LOFTNORMALS
280
     1
  9
$LATITUDE
 40
37.795
  9
$LONGITUDE
 40
-122.394
  9
$NORTHDIRECTION
 40
0.0
  9
$TIMEZONE
 70
 -8000
  9
$LIGHTGLYPHDISPLAY
280
     1
  9
$TILEMODELIGHTSYNCH
280
     1
  9
$CMATERIAL
347
11
  9
$SOLIDHIST
280
     1
  9
$SHOWHIST
280
     1
  9
$DWFFRAME
280
     2
  9
$DGNFRAME
280
     0
  9
$REALWORLDSCALE
290
     1
  9
$INTERFERECOLOR
 62
     1
  9
$INTERFEREOBJVS
345
33
  9
$INTERFEREVPVS
346
1B41
  9
$CSHADOW
280
     0
  9
$SHADOWPLANELOCATION
 40
0.0
  0
ENDSEC
  0
SECTION
  2
CLASSES
  0
CLASS
  1
ACDBDICTIONARYWDFLT
  2
AcDbDictionaryWithDefault
  3
ObjectDBX Classes
 90
        0
 91
        1
280
     0
281
     0
  0
CLASS
  1
MATERIAL
  2
AcDbMaterial
  3
ObjectDBX Classes
 90
     1153
 91
        3
280
     0
281
     0
  0
CLASS
  1
VISUALSTYLE
  2
AcDbVisualStyle
  3
ObjectDBX Classes
 90
     4095
 91
       26
280
     0
281
     0
  0
CLASS
  1
SCALE
  2
AcDbScale
  3
ObjectDBX Classes
 90
     1153
 91
       33
280
     0
281
     0
  0
CLASS
  1
TABLESTYLE
  2
AcDbTableStyle
  3
ObjectDBX Classes
 90
     4095
 91
        1
280
     0
281
     0
  0
CLASS
  1
MLEADERSTYLE
  2
AcDbMLeaderStyle
  3
ACDB_MLEADERSTYLE_CLASS
 90
     4095
 91
        1
280
     0
281
     0
  0
CLASS
  1
AMGSETTINGSOBJ
  2
AmgSettingsObj
  3
"AcadM|Product Description: AutoCAD Mechanical|Company: Autodesk, Inc."
 90
     1024
 91
        2
280
     0
281
     0
  0
CLASS
  1
ACME_DOCUMENT
  2
AcMeDbDoc
  3
AcMeServices
 90
     1024
 91
        2
280
     0
281
     0
  0
CLASS
  1
ACMESCOPE
  2
AcMeScope
  3
AcMeServices
 90
     1024
 91
        1
280
     0
281
     0
  0
CLASS
  1
ACMECOMMANDHISTORY
  2
AcMeCommandHistory
  3
AcMeServices
 90
     1024
 91
        1
280
     0
281
     0
  0
CLASS
  1
ACIMSYSVARMAN
  2
AcImSysVarManager
  3
AcMeServices
 90
     1024
 91
        5
280
     0
281
     0
  0
CLASS
  1
ACIMINTSYSVAR
  2
AcImIntSysVar
  3
AcMeServices
 90
     1024
 91
       27
280
     0
281
     0
  0
CLASS
  1
ACMEDRAWINGMAN
  2
AcMeDrawingMan
  3
AcMeServices
 90
     1024
 91
        2
280
     0
281
     0
  0
CLASS
  1
ACMEVIEW
  2
AcMeView
  3
AcMeServices
 90
     1024
 91
        2
280
     0
281
     0
  0
CLASS
  1
ACDBENTITYCACHE
  2
AcMeEntityCache
  3
AcMeServices
 90
     1024
 91
        1
280
     0
281
     0
  0
CLASS
  1
GSMANAGER
  2
AcMeGSManager
  3
AcMeServices
 90
     1024
 91
        0
280
     0
281
     0
  0
CLASS
  1
AMDTINTERNALREACTOR
  2
AmdtInternalReactor
  3
AcMeServices
 90
     1024
 91
        1
280
     0
281
     0
  0
CLASS
  1
ACMESTATEMGR
  2
AcMeStateMgr
  3
AcMeServices
 90
     1024
 91
        1
280
     0
281
     0
  0
CLASS
  1
ACGREFMASTER
  2
AcGrefMaster
  3
AcAttribServices
 90
     1024
 91
        1
280
     0
281
     0
  0
CLASS
  1
AM_DRAWING_MGR
  2
AcDmDwgMgr
  3
AcMechDwgViewMgmt
 90
     1024
 91
        1
280
     0
281
     0
  0
CLASS
  1
AM_DWG_DOCUMENT
  2
AcDmDwgDocument
  3
AcMechDwgViewMgmt
 90
     1024
 91
        1
280
     0
281
     0
  0
CLASS
  1
AM_DWG_SHEET
  2
AcDmSheet
  3
AcMechDwgViewMgmt
 90
     1024
 91
        1
280
     0
281
     0
  0
CLASS
  1
AM_VIEWDIMPARMAP
  2
AcDmViewDimParMap
  3
AcMechDwgViewMgmt
 90
     1024
 91
        1
280
     0
281
     0
  0
CLASS
  1
ACIMREALSYSVAR
  2
AcImRealSysVar
  3
AcMeServices
 90
     1024
 91
        1
280
     0
281
     0
  0
CLASS
  1
AM_DWGMGR_NAME
  2
AcDmDwgMgrName
  3
AcMechDwgViewMgmt
 90
     1024
 91
        1
280
     0
281
     0
  0
CLASS
  1
ACME_DATABASE
  2
AcMeDbDatabase
  3
AcMeServices
 90
     1024
 91
        1
280
     0
281
     0
  0
CLASS
  1
ACRFINSADJUSTERMGR
  2
AcRfInsAdjusterMgr
  3
AcMeServices
 90
     1024
 91
        1
280
     0
281
     0
  0
CLASS
  1
ACGREFACADMASTER
  2
AcGrefacadMaster
  3
AcGrefServices
 90
     1024
 91
        1
280
     0
281
     0
  0
CLASS
  1
AMDTMENUSTATEMGR
  2
AmdtMenuStateMgr
  3
McadcomServices
 90
     1024
 91
        1
280
     0
281
     0
  0
CLASS
  1
AMDTMCOMMENUSTATE
  2
AmdtMcomMenuState
  3
McadcomServices
 90
     1024
 91
        1
280
     0
281
     0
  0
CLASS
  1
AMIMASTER
  2
AmiMaster
  3
AmiServices
 90
     1024
 91
        1
280
     0
281
     0
  0
CLASS
  1
MAPIAMMOUDLE
  2
MApiAmModule
  3
MApiAmServices
 90
     1024
 91
        1
280
     0
281
     0
  0
CLASS
  1
ACIMSTRSYSVAR
  2
AcImStrSysVar
  3
AcMeServices
 90
     1024
 91
        5
280
     0
281
     0
  0
CLASS
  1
AMDTADMENUSTATE
  2
AmdtAdMenuState
  3
DesignerServices
 90
     1024
 91
        0
280
     0
281
     0
  0
CLASS
  1
ADAPPL
  2
AcAdAppl
  3
DesignerAssemblies
 90
     1024
 91
        2
280
     0
281
     0
  0
CLASS
  1
DEPMGR
  2
AcAdDepMgr
  3
DesignerAssemblies
 90
     1024
 91
        2
280
     0
281
     0
  0
CLASS
  1
PARAMMGR
  2
AcAdParamMgr
  3
DesignerAssemblies
 90
     1024
 91
        2
280
     0
281
     0
  0
CLASS
  1
PARAMSCOPE
  2
AcAdParamScope
  3
DesignerAssemblies
 90
     1024
 91
        2
280
     0
281
     0
  0
CLASS
  1
NAMEDAPPL
  2
AcAdNamedAppl
  3
DesignerAssemblies
 90
     1024
 91
        2
280
     0
281
     0
  0
CLASS
  1
AMDTDMMENUSTATE
  2
AmdtDmMenuState
  3
AcMechDwgViewMgmt
 90
     1024
 91
        0
280
     0
281
     0
  0
CLASS
  1
AMDTAMMENUSTATE
  2
AmdtAmMenuState
  3
DesignerAssemblies
 90
     1024
 91
        1
280
     0
281
     0
  0
CLASS
  1
ACAMPROJECT
  2
AcAmProject
  3
DesignerAssemblies
 90
     1024
 91
        1
280
     0
281
     0
  0
CLASS
  1
ACAMGRCOMPDEF
  2
AcAmGrCompDef
  3
DesignerAssemblies
 90
     1024
 91
        1
280
     0
281
     0
  0
CLASS
  1
ACCMCONTEXT
  2
AcCmContext
  3
DesignerAssemblies
 90
     1024
 91
        1
280
     0
281
     0
  0
CLASS
  1
ACAMCOMPDEF
  2
AcAmCompDef
  3
DesignerAssemblies
 90
     1024
 91
        1
280
     0
281
     0
  0
CLASS
  1
ACAMCOMPDEFMGR
  2
AcAmCompDefMgr
  3
DesignerAssemblies
 90
     1024
 91
        1
280
     0
281
     0
  0
CLASS
  1
AMCONTEXTMGR
  2
AcAmContextMgr
  3
DesignerAssemblies
 90
     1024
 91
        1
280
     0
281
     0
  0
CLASS
  1
ACAMCONTEXTMODELER
  2
AcAmContextModeler
  3
DesignerAssemblies
 90
     1024
 91
        1
280
     0
281
     0
  0
CLASS
  1
ACMDATADICTIONARY
  2
AcmDataDictionary
  3
"AcmSymBB|Product Description: AutoCAD Mechanical|Company: Autodesk, Inc."
 90
     1024
 91
        1
280
     0
281
     0
  0
CLASS
  1
CATALOGSTATE
  2
AcAmCatalogState
  3
DesignerAssemblies
 90
     1024
 91
        1
280
     0
281
     0
  0
CLASS
  1
ACAMGRCOMPDEFSET
  2
AcAmGrCompDefSet
  3
DesignerAssemblies
 90
     1024
 91
        1
280
     0
281
     0
  0
CLASS
  1
AMDTBROWSERDBTAB
  2
AmdtBrowserDbTab
  3
McadcomServices
 90
     1024
 91
        1
280
     0
281
     0
  0
CLASS
  1
CBROWSERAPPOBJECT
  2
CBrowserAppObject
  3
McadcomServices
 90
     1024
 91
        2
280
     0
281
     0
  0
CLASS
  1
DM_PLACEHOLDER
  2
AcDmSelsetPlaceholder
  3
McadcomServices
 90
     1024
 91
        1
280
     0
281
     0
  0
CLASS
  1
ACMSTANDARDANSI
  2
AcmStandardANSI
  3
"Amdt_StdImp|Product Description: AutoCAD Mechanical|Company: Autodesk, Inc."
 90
     1024
 91
        1
280
     0
281
     0
  0
CLASS
  1
AMGOBJPROPCFG
  2
AmgObjPropCfg
  3
"AmgLay|Product Description: AutoCAD Mechanical|Company: Autodesk, Inc."
 90
     1024
 91
        1
280
     0
281
     0
  0
CLASS
  1
ACMSURFSTANDARDANSI
  2
AcmSurfTextStdANSI
  3
"Amdt_StdImp|Product Description: AutoCAD Mechanical|Company: Autodesk, Inc."
 90
     1024
 91
        1
280
     0
281
     0
  0
CLASS
  1
ACMFCFSTANDARDANSI
  2
AcmFCFStdANSI
  3
"Amdt_StdImp|Product Description: AutoCAD Mechanical|Company: Autodesk, Inc."
 90
     1024
 91
        1
280
     0
281
     0
  0
CLASS
  1
ACMWELDSTANDARDANSI
  2
AcmWeldingStdANSI
  3
"Amdt_StdImp|Product Description: AutoCAD Mechanical|Company: Autodesk, Inc."
 90
     1024
 91
        1
280
     0
281
     0
  0
CLASS
  1
ACMIDSTANDARDANSI
  2
AcmIdStdANSI
  3
"Amdt_StdImp|Product Description: AutoCAD Mechanical|Company: Autodesk, Inc."
 90
     1024
 91
        1
280
     0
281
     0
  0
CLASS
  1
ACMDATUMSTANDARDANSI
  2
AcmDatumStdANSI
  3
"Amdt_StdImp|Product Description: AutoCAD Mechanical|Company: Autodesk, Inc."
 90
     1024
 91
        1
280
     0
281
     0
  0
CLASS
  1
ACMBOMSTANDARDANSI
  2
AcmBOMStdANSI
  3
"Amdt_StdImp|Product Description: AutoCAD Mechanical|Company: Autodesk, Inc."
 90
     1024
 91
        1
280
     0
281
     0
  0
CLASS
  1
ACMDETAILSTANDARDANSI
  2
AmdtDetailSymStdANSI
  3
"Amdt_StdImp|Product Description: AutoCAD Mechanical|Company: Autodesk, Inc."
 90
     1024
 91
        1
280
     0
281
     0
  0
CLASS
  1
ACMSECTIONSTANDARDANSI
  2
AmdtSectionSymStdANSI
  3
"Amdt_StdImp|Product Description: AutoCAD Mechanical|Company: Autodesk, Inc."
 90
     1024
 91
        1
280
     0
281
     0
  0
CLASS
  1
ACMCENTERLINESTANDARDANSI
  2
AmdtCenterLineStdANSI
  3
"Amdt_StdImp|Product Description: AutoCAD Mechanical|Company: Autodesk, Inc."
 90
     1024
 91
        1
280
     0
281
     0
  0
CLASS
  1
ACMTHREADLINESTANDARDANSI
  2
AmdtThreadLineStdANSI
  3
"Amdt_StdImp|Product Description: AutoCAD Mechanical|Company: Autodesk, Inc."
 90
     1024
 91
        1
280
     0
281
     0
  0
CLASS
  1
ACMNOTESTANDARDANSI
  2
AmdtNoteStdANSI
  3
"Amdt_StdImp|Product Description: AutoCAD Mechanical|Company: Autodesk, Inc."
 90
     1024
 91
        1
280
     0
281
     0
  0
CLASS
  1
ACMTAPERSTANDARDANSI
  2
AcmTaperStdANSI
  3
"Amdt_StdImp|Product Description: AutoCAD Mechanical|Company: Autodesk, Inc."
 90
     1024
 91
        1
280
     0
281
     0
  0
CLASS
  1
ACMANOOTATIONVIEWSTANDARDANSI
  2
AmdtAnViewStdANSI
  3
"Amdt_StdImp|Product Description: AutoCAD Mechanical|Company: Autodesk, Inc."
 90
     1024
 91
        1
280
     0
281
     0
  0
CLASS
  1
AMDTNOTETEMPLATEDB
  2
AmdtNoteTemplateDB
  3
AcmSymBB|Product Description: AutoCAD Mechanical|Company: Autodesk, Inc.
 90
     1024
 91
       18
280
     0
281
     0
  0
CLASS
  1
ACAMGLAYSTD
  2
AcAmgLayStd
  3
"AmgLay|Product Description: AutoCAD Mechanical|Company: Autodesk, Inc."
 90
     1024
 91
        3
280
     0
281
     0
  0
CLASS
  1
ACAMGDIMSTD
  2
AcAmgDimStd
  3
"AmgDim|Product Description: AutoCAD Mechanical|Company: Autodesk, Inc."
 90
     1024
 91
        3
280
     0
281
     0
  0
CLASS
  1
ACAMGHOLECHARTSTDANSI
  2
AcAmgHoleChartStdANSI
  3
AmgDim|Product Description: AutoCAD Mechanical|Company: Autodesk, Inc.
 90
     1024
 91
        1
280
     0
281
     0
  0
CLASS
  1
ACAMGTITLESTD
  2
AcAmgTitleStd
  3
"AmgTitle|Product Description: AutoCAD Mechanical|Company: Autodesk, Inc."
 90
     1024
 91
        3
280
     0
281
     0
  0
CLASS
  1
ACAMGFILTERDAT
  2
AcAmgFilterDat
  3
"AcadM|Product Description: AutoCAD Mechanical|Company: Autodesk, Inc."
 90
     1024
 91
        0
280
     0
281
     0
  0
CLASS
  1
CELLSTYLEMAP
  2
AcDbCellStyleMap
  3
ObjectDBX Classes
 90
     1152
 91
        2
280
     0
281
     0
  0
CLASS
  1
DICTIONARYVAR
  2
AcDbDictionaryVar
  3
ObjectDBX Classes
 90
        0
 91
       16
280
     0
281
     0
  0
CLASS
  1
ACMDATAENTRYPART
  2
AcmDataEntryPart
  3
AcmSymBB|Product Description: AutoCAD Mechanical|Company: Autodesk, Inc.
 90
     1024
 91
        0
280
     0
281
     0
  0
CLASS
  1
ACMPARTREF
  2
AcmPartRef
  3
"AcmSymBB|Product Description: AutoCAD Mechanical|Company: Autodesk, Inc."
 90
     1024
 91
        0
280
     0
281
     1
  0
CLASS
  1
ACDBLINERES
  2
AcDbLineRes
  3
AcGrefServices
 90
     1024
 91
        0
280
     0
281
     0
  0
CLASS
  1
ACMSTANDARDDIN
  2
AcmStandardDIN
  3
"Amdt_StdImp|Product Description: AutoCAD Mechanical|Company: Autodesk, Inc."
 90
     1024
 91
        1
280
     0
281
     0
  0
CLASS
  1
AMDTEDGESTANDARDDIN13715
  2
AmdtEdgeStdDIN13715
  3
"Amdt_StdImp|Product Description: AutoCAD Mechanical|Company: Autodesk, Inc."
 90
     1024
 91
        1
280
     0
281
     0
  0
CLASS
  1
ACMSURFSTANDARDDIN2002
  2
AcmSurfTextStdDIN2002
  3
"Amdt_StdImp|Product Description: AutoCAD Mechanical|Company: Autodesk, Inc."
 90
     1024
 91
        1
280
     0
281
     0
  0
CLASS
  1
ACMFCFSTANDARDDIN
  2
AcmFCFStdDIN
  3
"Amdt_StdImp|Product Description: AutoCAD Mechanical|Company: Autodesk, Inc."
 90
     1024
 91
        1
280
     0
281
     0
  0
CLASS
  1
ACMWELDSTANDARDDIN
  2
AcmWeldingStdDIN
  3
"Amdt_StdImp|Product Description: AutoCAD Mechanical|Company: Autodesk, Inc."
 90
     1024
 91
        1
280
     0
281
     0
  0
CLASS
  1
ACMIDSTANDARDDIN
  2
AcmIdStdDIN
  3
"Amdt_StdImp|Product Description: AutoCAD Mechanical|Company: Autodesk, Inc."
 90
     1024
 91
        1
280
     0
281
     0
  0
CLASS
  1
ACMDATUMSTANDARDDIN
  2
AcmDatumStdDIN
  3
"Amdt_StdImp|Product Description: AutoCAD Mechanical|Company: Autodesk, Inc."
 90
     1024
 91
        1
280
     0
281
     0
  0
CLASS
  1
ACMBOMSTANDARDDIN
  2
AcmBOMStdDIN
  3
"Amdt_StdImp|Product Description: AutoCAD Mechanical|Company: Autodesk, Inc."
 90
     1024
 91
        1
280
     0
281
     0
  0
CLASS
  1
ACMDETAILSTANDARDDIN
  2
AmdtDetailSymStdDIN
  3
"Amdt_StdImp|Product Description: AutoCAD Mechanical|Company: Autodesk, Inc."
 90
     1024
 91
        1
280
     0
281
     0
  0
CLASS
  1
ACMSECTIONSTANDARDDIN
  2
AmdtSectionSymStdDIN
  3
"Amdt_StdImp|Product Description: AutoCAD Mechanical|Company: Autodesk, Inc."
 90
     1024
 91
        1
280
     0
281
     0
  0
CLASS
  1
ACMCENTERLINESTANDARDDIN
  2
AmdtCenterLineStdDIN
  3
"Amdt_StdImp|Product Description: AutoCAD Mechanical|Company: Autodesk, Inc."
 90
     1024
 91
        1
280
     0
281
     0
  0
CLASS
  1
ACMTHREADLINESTANDARDDIN
  2
AmdtThreadLineStdDIN
  3
"Amdt_StdImp|Product Description: AutoCAD Mechanical|Company: Autodesk, Inc."
 90
     1024
 91
        1
280
     0
281
     0
  0
CLASS
  1
ACMNOTESTANDARDDIN
  2
AmdtNoteStdDIN
  3
"Amdt_StdImp|Product Description: AutoCAD Mechanical|Company: Autodesk, Inc."
 90
     1024
 91
        1
280
     0
281
     0
  0
CLASS
  1
ACMTAPERSTANDARDDIN
  2
AcmTaperStdDIN
  3
"Amdt_StdImp|Product Description: AutoCAD Mechanical|Company: Autodesk, Inc."
 90
     1024
 91
        1
280
     0
281
     0
  0
CLASS
  1
ACMANOOTATIONVIEWSTANDARDDIN
  2
AmdtAnViewStdDIN
  3
"Amdt_StdImp|Product Description: AutoCAD Mechanical|Company: Autodesk, Inc."
 90
     1024
 91
        1
280
     0
281
     0
  0
CLASS
  1
ACAMGHOLECHARTSTDDIN
  2
AcAmgHoleChartStdDIN
  3
AmgDim|Product Description: AutoCAD Mechanical|Company: Autodesk, Inc.
 90
     1024
 91
        1
280
     0
281
     0
  0
CLASS
  1
ACMDATAENTRYBLOCK
  2
AcmDataEntryBlock
  3
AcmSymBB|Product Description: AutoCAD Mechanical|Company: Autodesk, Inc.
 90
     1024
 91
        1
280
     0
281
     0
  0
CLASS
  1
ACMBOM
  2
AcmBom
  3
"AcmSymBB|Product Description: AutoCAD Mechanical|Company: Autodesk, Inc."
 90
     1024
 91
        1
280
     0
281
     0
  0
CLASS
  1
AMDTFORMULAUPDATEDISPATCHER
  2
AmdtFormulaUpdateDispatcher
  3
AcMeServices
 90
     1024
 91
        1
280
     0
281
     0
  0
CLASS
  1
ACMBOMROW
  2
AcmBomRow
  3
"AcmSymBB|Product Description: AutoCAD Mechanical|Company: Autodesk, Inc."
 90
     1024
 91
        0
280
     0
281
     0
  0
CLASS
  1
ACMPARTLIST
  2
AcmPartList
  3
"AcmSymBB|Product Description: AutoCAD Mechanical|Company: Autodesk, Inc."
 90
     1024
 91
        0
280
     0
281
     1
  0
CLASS
  1
CAMSSTRUCTBTNSTATE
  2
StructBtnState
  3
DesignerAssemblies
 90
     1024
 91
        1
280
     0
281
     0
  0
CLASS
  1
ACRFATTGENMGR
  2
AcRfAttGeneralMgr
  3
AcAttribServices
 90
     1024
 91
        1
280
     0
281
     0
  0
CLASS
  1
ACRFOBJATTMGR
  2
AcRfObjAttGroupMgr
  3
AcAttribServices
 90
     1024
 91
        1
280
     0
281
     0
  0
CLASS
  1
ACRFMCADAPIATTHOLDER
  2
AcRfMCADAPIAttHolder
  3
AcAttribServices
 90
     1024
 91
        1
280
     0
281
     0
  0
CLASS
  1
AMDTSYSATTR
  2
AmdtSystemAttribute
  3
AcAttribServices
 90
     1024
 91
        1
280
     0
281
     0
  0
CLASS
  1
SORTENTSTABLE
  2
AcDbSortentsTable
  3
ObjectDBX Classes
 90
        0
 91
        1
280
     0
281
     0
  0
CLASS
  1
ACMSTANDARDISO
  2
AcmStandardISO
  3
"Amdt_StdImp|Product Description: AutoCAD Mechanical|Company: Autodesk, Inc."
 90
     1024
 91
        1
280
     0
281
     0
  0
CLASS
  1
AMDTEDGESTANDARDISO
  2
AmdtEdgeStdISO
  3
"Amdt_StdImp|Product Description: AutoCAD Mechanical|Company: Autodesk, Inc."
 90
     1024
 91
        1
280
     0
281
     0
  0
CLASS
  1
ACMSURFSTANDARDISO2002
  2
AcmSurfTextStdISO2002
  3
"Amdt_StdImp|Product Description: AutoCAD Mechanical|Company: Autodesk, Inc."
 90
     1024
 91
        1
280
     0
281
     0
  0
CLASS
  1
ACMFCFSTANDARDISO
  2
AcmFCFStdISO
  3
"Amdt_StdImp|Product Description: AutoCAD Mechanical|Company: Autodesk, Inc."
 90
     1024
 91
        1
280
     0
281
     0
  0
CLASS
  1
ACMWELDSTANDARDISO
  2
AcmWeldingStdISO
  3
"Amdt_StdImp|Product Description: AutoCAD Mechanical|Company: Autodesk, Inc."
 90
     1024
 91
        1
280
     0
281
     0
  0
CLASS
  1
ACMIDSTANDARDISO
  2
AcmIdStdISO
  3
"Amdt_StdImp|Product Description: AutoCAD Mechanical|Company: Autodesk, Inc."
 90
     1024
 91
        1
280
     0
281
     0
  0
CLASS
  1
ACMDATUMSTANDARDISO
  2
AcmDatumStdISO
  3
"Amdt_StdImp|Product Description: AutoCAD Mechanical|Company: Autodesk, Inc."
 90
     1024
 91
        1
280
     0
281
     0
  0
CLASS
  1
ACMBOMSTANDARDISO
  2
AcmBOMStdISO
  3
"Amdt_StdImp|Product Description: AutoCAD Mechanical|Company: Autodesk, Inc."
 90
     1024
 91
        1
280
     0
281
     0
  0
CLASS
  1
ACMDETAILSTANDARDISO
  2
AmdtDetailSymStdISO
  3
"Amdt_StdImp|Product Description: AutoCAD Mechanical|Company: Autodesk, Inc."
 90
     1024
 91
        1
280
     0
281
     0
  0
CLASS
  1
ACMSECTIONSTANDARDISO2001
  2
AmdtSectionSymStdISO2001
  3
"Amdt_StdImp|Product Description: AutoCAD Mechanical|Company: Autodesk, Inc."
 90
     1024
 91
        1
280
     0
281
     0
  0
CLASS
  1
ACMCENTERLINESTANDARDISO
  2
AmdtCenterLineStdISO
  3
"Amdt_StdImp|Product Description: AutoCAD Mechanical|Company: Autodesk, Inc."
 90
     1024
 91
        1
280
     0
281
     0
  0
CLASS
  1
ACMNOTESTANDARDISO
  2
AmdtNoteStdISO
  3
"Amdt_StdImp|Product Description: AutoCAD Mechanical|Company: Autodesk, Inc."
 90
     1024
 91
        1
280
     0
281
     0
  0
CLASS
  1
ACAMGHOLECHARTSTDISO
  2
AcAmgHoleChartStdISO
  3
AmgDim|Product Description: AutoCAD Mechanical|Company: Autodesk, Inc.
 90
     1024
 91
        1
280
     0
281
     0
  0
CLASS
  1
ACMTHREADLINESTANDARDISO
  2
AmdtThreadLineStdISO
  3
"Amdt_StdImp|Product Description: AutoCAD Mechanical|Company: Autodesk, Inc."
 90
     1024
 91
        1
280
     0
281
     0
  0
CLASS
  1
ACMTAPERSTANDARDISO
  2
AcmTaperStdISO
  3
"Amdt_StdImp|Product Description: AutoCAD Mechanical|Company: Autodesk, Inc."
 90
     1024
 91
        1
280
     0
281
     0
  0
CLASS
  1
ACMANOOTATIONVIEWSTANDARDISO
  2
AmdtAnViewStdISO
  3
"Amdt_StdImp|Product Description: AutoCAD Mechanical|Company: Autodesk, Inc."
 90
     1024
 91
        1
280
     0
281
     0
  0
CLASS
  1
ACMSTANDARDGB
  2
AcmStandardGB
  3
"Amdt_StdImp|Product Description: AutoCAD Mechanical|Company: Autodesk, Inc."
 90
     1024
 91
        0
280
     0
281
     0
  0
CLASS
  1
ACMSURFSTANDARDGB
  2
AcmSurfTextStdGB
  3
"Amdt_StdImp|Product Description: AutoCAD Mechanical|Company: Autodesk, Inc."
 90
     1024
 91
        0
280
     0
281
     0
  0
CLASS
  1
ACMFCFSTANDARDGB
  2
AcmFCFStdGB
  3
"Amdt_StdImp|Product Description: AutoCAD Mechanical|Company: Autodesk, Inc."
 90
     1024
 91
        0
280
     0
281
     0
  0
CLASS
  1
ACMWELDSTANDARDGB
  2
AcmWeldingStdGB
  3
"Amdt_StdImp|Product Description: AutoCAD Mechanical|Company: Autodesk, Inc."
 90
     1024
 91
        0
280
     0
281
     0
  0
CLASS
  1
ACMIDSTANDARDGB
  2
AcmIdStdGB
  3
"Amdt_StdImp|Product Description: AutoCAD Mechanical|Company: Autodesk, Inc."
 90
     1024
 91
        0
280
     0
281
     0
  0
CLASS
  1
ACMDATUMSTANDARDGB
  2
AcmDatumStdGB
  3
"Amdt_StdImp|Product Description: AutoCAD Mechanical|Company: Autodesk, Inc."
 90
     1024
 91
        0
280
     0
281
     0
  0
CLASS
  1
ACMBOMSTANDARDGB
  2
AcmBOMStdGB
  3
"Amdt_StdImp|Product Description: AutoCAD Mechanical|Company: Autodesk, Inc."
 90
     1024
 91
        0
280
     0
281
     0
  0
CLASS
  1
ACMDETAILSTANDARDGB
  2
AmdtDetailSymStdGB
  3
"Amdt_StdImp|Product Description: AutoCAD Mechanical|Company: Autodesk, Inc."
 90
     1024
 91
        0
280
     0
281
     0
  0
CLASS
  1
ACMSECTIONSTANDARDGB1998
  2
AmdtSectionSymStdGB1998
  3
"Amdt_StdImp|Product Description: AutoCAD Mechanical|Company: Autodesk, Inc."
 90
     1024
 91
        0
280
     0
281
     0
  0
CLASS
  1
ACMCENTERLINESTANDARDGB
  2
AmdtCenterLineStdGB
  3
"Amdt_StdImp|Product Description: AutoCAD Mechanical|Company: Autodesk, Inc."
 90
     1024
 91
        0
280
     0
281
     0
  0
CLASS
  1
ACMTHREADLINESTANDARDGB
  2
AmdtThreadLineStdGB
  3
"Amdt_StdImp|Product Description: AutoCAD Mechanical|Company: Autodesk, Inc."
 90
     1024
 91
        0
280
     0
281
     0
  0
CLASS
  1
ACMNOTESTANDARDGB
  2
AmdtNoteStdGB
  3
"Amdt_StdImp|Product Description: AutoCAD Mechanical|Company: Autodesk, Inc."
 90
     1024
 91
        0
280
     0
281
     0
  0
CLASS
  1
ACMTAPERSTANDARDGB
  2
AcmTaperStdGB
  3
"Amdt_StdImp|Product Description: AutoCAD Mechanical|Company: Autodesk, Inc."
 90
     1024
 91
        0
280
     0
281
     0
  0
CLASS
  1
ACMANOOTATIONVIEWSTANDARDGB
  2
AmdtAnViewStdGB
  3
"Amdt_StdImp|Product Description: AutoCAD Mechanical|Company: Autodesk, Inc."
 90
     1024
 91
        0
280
     0
281
     0
  0
CLASS
  1
ACAMGHOLECHARTSTDGB
  2
AcAmgHoleChartStdGB
  3
AmgDim|Product Description: AutoCAD Mechanical|Company: Autodesk, Inc.
 90
     1024
 91
        0
280
     0
281
     0
  0
CLASS
  1
ACMSTANDARDCSN
  2
AcmStandardCSN
  3
"Amdt_StdImp|Product Description: AutoCAD Mechanical|Company: Autodesk, Inc."
 90
     1024
 91
        0
280
     0
281
     0
  0
CLASS
  1
ACMSURFSTANDARDCSN
  2
AcmSurfTextStdCSN
  3
"Amdt_StdImp|Product Description: AutoCAD Mechanical|Company: Autodesk, Inc."
 90
     1024
 91
        0
280
     0
281
     0
  0
CLASS
  1
ACMFCFSTANDARDCSN
  2
AcmFCFStdCSN
  3
"Amdt_StdImp|Product Description: AutoCAD Mechanical|Company: Autodesk, Inc."
 90
     1024
 91
        0
280
     0
281
     0
  0
CLASS
  1
ACMWELDSTANDARDCSN
  2
AcmWeldingStdCSN
  3
"Amdt_StdImp|Product Description: AutoCAD Mechanical|Company: Autodesk, Inc."
 90
     1024
 91
        0
280
     0
281
     0
  0
CLASS
  1
ACMIDSTANDARDCSN
  2
AcmIdStdCSN
  3
"Amdt_StdImp|Product Description: AutoCAD Mechanical|Company: Autodesk, Inc."
 90
     1024
 91
        0
280
     0
281
     0
  0
CLASS
  1
ACMDATUMSTANDARDCSN
  2
AcmDatumStdCSN
  3
"Amdt_StdImp|Product Description: AutoCAD Mechanical|Company: Autodesk, Inc."
 90
     1024
 91
        0
280
     0
281
     0
  0
CLASS
  1
ACMBOMSTANDARDCSN
  2
AcmBOMStdCSN
  3
"Amdt_StdImp|Product Description: AutoCAD Mechanical|Company: Autodesk, Inc."
 90
     1024
 91
        0
280
     0
281
     0
  0
CLASS
  1
ACMDETAILSTANDARDCSN
  2
AmdtDetailSymStdCSN
  3
"Amdt_StdImp|Product Description: AutoCAD Mechanical|Company: Autodesk, Inc."
 90
     1024
 91
        0
280
     0
281
     0
  0
CLASS
  1
ACMSECTIONSTANDARDCSN2002
  2
AmdtSectionSymStdCSN2002
  3
"Amdt_StdImp|Product Description: AutoCAD Mechanical|Company: Autodesk, Inc."
 90
     1024
 91
        0
280
     0
281
     0
  0
CLASS
  1
ACMCENTERLINESTANDARDCSN
  2
AmdtCenterLineStdCSN
  3
"Amdt_StdImp|Product Description: AutoCAD Mechanical|Company: Autodesk, Inc."
 90
     1024
 91
        0
280
     0
281
     0
  0
CLASS
  1
ACMTHREADLINESTANDARDCSN
  2
AmdtThreadLineStdCSN
  3
"Amdt_StdImp|Product Description: AutoCAD Mechanical|Company: Autodesk, Inc."
 90
     1024
 91
        0
280
     0
281
     0
  0
CLASS
  1
ACMNOTESTANDARDCSN
  2
AmdtNoteStdCSN
  3
"Amdt_StdImp|Product Description: AutoCAD Mechanical|Company: Autodesk, Inc."
 90
     1024
 91
        0
280
     0
281
     0
  0
CLASS
  1
ACMTAPERSTANDARDCSN
  2
AcmTaperStdCSN
  3
"Amdt_StdImp|Product Description: AutoCAD Mechanical|Company: Autodesk, Inc."
 90
     1024
 91
        0
280
     0
281
     0
  0
CLASS
  1
ACMANOOTATIONVIEWSTANDARDCSN
  2
AmdtAnViewStdCSN
  3
"Amdt_StdImp|Product Description: AutoCAD Mechanical|Company: Autodesk, Inc."
 90
     1024
 91
        0
280
     0
281
     0
  0
CLASS
  1
ACAMGHOLECHARTSTDCSN
  2
AcAmgHoleChartStdCSN
  3
AmgDim|Product Description: AutoCAD Mechanical|Company: Autodesk, Inc.
 90
     1024
 91
        0
280
     0
281
     0
  0
CLASS
  1
DIMASSOC
  2
AcDbDimAssoc
  3
"AcDbDimAssoc|Product Desc:     AcDim ARX App For Dimension|Company:          Autodesk, Inc.|WEB Address:      www.autodesk.com"
 90
        0
 91
        3
280
     0
281
     0
  0
CLASS
  1
ACDBCIRCARCRES
  2
AcDbCircArcRes
  3
AcGrefServices
 90
     1024
 91
        0
280
     0
281
     0
  0
CLASS
  1
ACDB_BLKREFOBJECTCONTEXTDATA_CLASS
  2
AcDbBlkRefObjectContextData
  3
ObjectDBX Classes
 90
     1153
 91
        0
280
     0
281
     0
  0
CLASS
  1
ACAD_EVALUATION_GRAPH
  2
AcDbEvalGraph
  3
ObjectDBX Classes
 90
     1153
 91
        0
280
     0
281
     0
  0
CLASS
  1
ACAECUSTOBJ
  2
AcAeEditorObj
  3
AcAeEditorObj
 90
     1024
 91
        0
280
     0
281
     0
  0
CLASS
  1
ACDB_DYNAMICBLOCKPURGEPREVENTER_VERSION
  2
AcDbDynamicBlockPurgePreventer
  3
ObjectDBX Classes
 90
     1153
 91
        0
280
     0
281
     0
  0
CLASS
  1
ACDBSECTIONVIEWSTYLE
  2
AcDbSectionViewStyle
  3
ObjectDBX Classes
 90
     1025
 91
        4
280
     0
281
     0
  0
CLASS
  1
ACDBDETAILVIEWSTYLE
  2
AcDbDetailViewStyle
  3
ObjectDBX Classes
 90
     1025
 91
        4
280
     0
281
     0
  0
CLASS
  1
ACMSECTIONSTANDARDCUSTOM
  2
AmdtSectionSymStdCustom
  3
"Amdt_StdImp|Product Description: AutoCAD Mechanical|Company: Autodesk, Inc."
 90
     1024
 91
        3
280
     0
281
     0
  0
CLASS
  1
ACMDETAILTANDARDCUSTOM
  2
AmdtDetailSymStdCustom
  3
"Amdt_StdImp|Product Description: AutoCAD Mechanical|Company: Autodesk, Inc."
 90
     1024
 91
        3
280
     0
281
     0
  0
CLASS
  1
FIELD
  2
AcDbField
  3
ObjectDBX Classes
 90
     1152
 91
       16
280
     0
281
     0
  0
CLASS
  1
FIELDLIST
  2
AcDbFieldList
  3
ObjectDBX Classes
 90
     1152
 91
        1
280
     0
281
     0
  0
CLASS
  1
EXACXREFPANELOBJECT
  2
ExAcXREFPanelObject
  3
EXAC_ESW
 90
     1025
 91
        1
280
     0
281
     0
  0
CLASS
  1
NPOCOLLECTION
  2
AcDbImpNonPersistentObjectsCollection
  3
ObjectDBX Classes
 90
     1153
 91
        1
280
     0
281
     0
  0
ENDSEC
  0
SECTION
  2
TABLES
  0
TABLE
  2
VPORT
  5
8
102
{ACAD_XDICTIONARY
360
1B6
102
}
330
0
100
AcDbSymbolTable
 70
     1
  0
VPORT
  5
82
330
8
100
AcDbSymbolTableRecord
100
AcDbViewportTableRecord
  2
*Active
 70
     0
 10
0.0
 20
0.0
 11
1.0
 21
1.0
 12
3781.254352579047
 22
3202.812872668979
 13
0.0
 23
0.0
 14
50.0
 24
50.0
 15
200.0
 25
200.0
 16
0.0
 26
0.0
 36
1.0
 17
0.0
 27
0.0
 37
0.0
 40
1324.901879765215
 41
1.986052998605299
 42
50.0
 43
0.0
 44
0.0
 50
0.0
 51
0.0
 71
    16
 72
 10000
 73
     1
 74
     1
 75
     0
 76
     0
 77
     0
 78
     0
281
     0
 65
     1
110
0.0
120
0.0
130
0.0
111
1.0
121
0.0
131
0.0
112
0.0
122
1.0
132
0.0
 79
     0
146
0.0
348
2F
 60
     3
 61
     5
292
     1
282
     1
141
0.0
142
0.0
 63
   250
421
  3355443
1001
ACAD_NAV_VCDISPLAY
1070
     3
  0
ENDTAB
  0
TABLE
  2
LTYPE
  5
5
330
0
100
AcDbSymbolTable
 70
    22
  0
LTYPE
  5
62
330
5
100
AcDbSymbolTableRecord
100
AcDbLinetypeTableRecord
  2
ByBlock
 70
     0
  3

 72
    65
 73
     0
 40
0.0
  0
LTYPE
  5
63
330
5
100
AcDbSymbolTableRecord
100
AcDbLinetypeTableRecord
  2
ByLayer
 70
     0
  3

 72
    65
 73
     0
 40
0.0
  0
LTYPE
  5
64
330
5
100
AcDbSymbolTableRecord
100
AcDbLinetypeTableRecord
  2
CONTINUOUS
 70
     0
  3
Solid line
 72
    65
 73
     0
 40
0.0
  0
LTYPE
  5
78
330
5
100
AcDbSymbolTableRecord
100
AcDbLinetypeTableRecord
  2
DASHED
 70
     0
  3
Dashed line
 72
    65
 73
     2
 40
0.75
 49
0.5
 74
     0
 49
-0.25
 74
     0
  0
LTYPE
  5
79
330
5
100
AcDbSymbolTableRecord
100
AcDbLinetypeTableRecord
  2
CENTER
 70
     0
  3
Center line
 72
    65
 73
     4
 40
2.0
 49
1.25
 74
     0
 49
-0.25
 74
     0
 49
0.25
 74
     0
 49
-0.25
 74
     0
  0
LTYPE
  5
13E
330
5
100
AcDbSymbolTableRecord
100
AcDbLinetypeTableRecord
  2
HIDDEN
 70
     0
  3
Verdeckt
 72
    65
 73
     2
 40
0.375
 49
0.25
 74
     0
 49
-0.125
 74
     0
  0
LTYPE
  5
13F
330
5
100
AcDbSymbolTableRecord
100
AcDbLinetypeTableRecord
  2
PHANTOM2
 70
     0
  3
Phantom (.5x) ___ _ _ ___ _ _ ___ _ _ ___ _ _
 72
    65
 73
     6
 40
1.25
 49
0.625
 74
     0
 49
-0.125
 74
     0
 49
0.125
 74
     0
 49
-0.125
 74
     0
 49
0.125
 74
     0
 49
-0.125
 74
     0
  0
LTYPE
  5
183
330
5
100
AcDbSymbolTableRecord
100
AcDbLinetypeTableRecord
  2
ACANSTGB
 70
     0
  3
__ . . __ . .
 72
    65
 73
     6
 40
0.35433070866
 49
0.15748031496
 74
     0
 49
-0.03937007874
 74
     0
 49
0.03937007874
 74
     0
 49
-0.03937007874
 74
     0
 49
0.03937007874
 74
     0
 49
-0.03937007874
 74
     0
  0
LTYPE
  5
184
330
5
100
AcDbSymbolTableRecord
100
AcDbLinetypeTableRecord
  2
ACANSTGL
 70
     0
  3
_ _ _ _ _
 72
    65
 73
     2
 40
0.11811023622
 49
0.07874015748
 74
     0
 49
-0.03937007874
 74
     0
  0
LTYPE
  5
26A
330
5
100
AcDbSymbolTableRecord
100
AcDbLinetypeTableRecord
  2
ACDINWELD
 70
     0
  3
_ _ _ _ _
 72
    65
 73
     2
 40
2.0
 49
2.0
 74
     0
 49
-1.0
 74
     0
  0
LTYPE
  5
26B
330
5
100
AcDbSymbolTableRecord
100
AcDbLinetypeTableRecord
  2
ACDINTGB
 70
     0
  3
__ . . __ . .
 72
    65
 73
     6
 40
9.0
 49
4.0
 74
     0
 49
-1.0
 74
     0
 49
1.0
 74
     0
 49
-1.0
 74
     0
 49
1.0
 74
     0
 49
-1.0
 74
     0
  0
LTYPE
  5
26C
330
5
100
AcDbSymbolTableRecord
100
AcDbLinetypeTableRecord
  2
ACDINTGL
 70
     0
  3
_ _ _ _ _
 72
    65
 73
     2
 40
3.0
 49
2.0
 74
     0
 49
-1.0
 74
     0
  0
LTYPE
  5
2A6
330
5
100
AcDbSymbolTableRecord
100
AcDbLinetypeTableRecord
  2
Amconstr
 70
     0
  3
_______________________
 72
    65
 73
     2
 40
9999.0
 49
9999.0
 74
     0
 49
0.0
 74
     0
  0
LTYPE
  5
2A7
330
5
100
AcDbSymbolTableRecord
100
AcDbLinetypeTableRecord
  2
Amzigzag
 70
     0
  3
/\/-/\/-/\/-/\/-/\/-/\/
 72
    65
 73
     2
 40
11.0001
 49
0.0001
 74
     4
 75
   136
340
2A8
 46
0.04
 50
0.0
 44
0.0
 45
0.0
 49
-11.0
 74
     0
  0
LTYPE
  5
38A
330
5
100
AcDbSymbolTableRecord
100
AcDbLinetypeTableRecord
  2
HIDDEN2
 70
     0
  3
Hidden (.5x) _ _ _ _ _ _ _ _ _ _ _ _ _ _ _ _ _
 72
    65
 73
     2
 40
0.1875
 49
0.125
 74
     0
 49
-0.0625
 74
     0
  0
LTYPE
  5
38B
330
5
100
AcDbSymbolTableRecord
100
AcDbLinetypeTableRecord
  2
CENTER2
 70
     0
  3
Center (.5x) ___ _ ___ _ ___ _ ___ _ ___ _ ___
 72
    65
 73
     4
 40
1.125
 49
0.75
 74
     0
 49
-0.125
 74
     0
 49
0.125
 74
     0
 49
-0.125
 74
     0
  0
LTYPE
  5
3C3
330
5
100
AcDbSymbolTableRecord
100
AcDbLinetypeTableRecord
  2
AM_ISO02W050
 70
     0
  3
__ __ __ __ __ __ __ __ __ __ __ __ __ __ __
 72
    65
 73
     2
 40
7.5
 49
6.0
 74
     0
 49
-1.5
 74
     0
  0
LTYPE
  5
3C4
330
5
100
AcDbSymbolTableRecord
100
AcDbLinetypeTableRecord
  2
AM_ISO08W050
 70
     0
  3
____ . ____ . ____ . ____ . ____ . ____ . ____
 72
    65
 73
     4
 40
18.0
 49
12.0
 74
     0
 49
-1.5
 74
     0
 49
3.0
 74
     0
 49
-1.5
 74
     0
  0
LTYPE
  5
3C5
330
5
100
AcDbSymbolTableRecord
100
AcDbLinetypeTableRecord
  2
AM_ISO09W050
 70
     0
  3
_____ . . _____ . . _____ . . ____ .. ____
 72
    65
 73
     6
 40
22.5
 49
12.0
 74
     0
 49
-1.5
 74
     0
 49
3.0
 74
     0
 49
-1.5
 74
     0
 49
3.0
 74
     0
 49
-1.5
 74
     0
  0
LTYPE
  5
3C6
330
5
100
AcDbSymbolTableRecord
100
AcDbLinetypeTableRecord
  2
AM_ISO08W050x2
 70
     0
  3
__ . __ . __ . __ . __ . __
 72
    65
 73
     4
 40
9.0
 49
6.0
 74
     0
 49
-0.75
 74
     0
 49
1.5
 74
     0
 49
-0.75
 74
     0
  0
LTYPE
  5
3C7
330
5
100
AcDbSymbolTableRecord
100
AcDbLinetypeTableRecord
  2
AM_ISO02W050x2
 70
     0
  3
 _ _ _ _ _ _ _ _ _ _ _ _
 72
    65
 73
     2
 40
3.75
 49
3.0
 74
     0
 49
-0.75
 74
     0
  0
LTYPE
  5
3C8
330
5
100
AcDbSymbolTableRecord
100
AcDbLinetypeTableRecord
  2
ACISOWELD
 70
     0
  3
_ _ _ _ _
 72
    65
 73
     2
 40
2.0
 49
2.0
 74
     0
 49
-1.0
 74
     0
  0
LTYPE
  5
3C9
330
5
100
AcDbSymbolTableRecord
100
AcDbLinetypeTableRecord
  2
ACISOTGB
 70
     0
  3
__ . . __ . .
 72
    65
 73
     6
 40
9.0
 49
4.0
 74
     0
 49
-1.0
 74
     0
 49
1.0
 74
     0
 49
-1.0
 74
     0
 49
1.0
 74
     0
 49
-1.0
 74
     0
  0
LTYPE
  5
3CA
330
5
100
AcDbSymbolTableRecord
100
AcDbLinetypeTableRecord
  2
ACISOTGL
 70
     0
  3
_ _ _ _ _
 72
    65
 73
     2
 40
3.0
 49
2.0
 74
     0
 49
-1.0
 74
     0
  0
ENDTAB
  0
TABLE
  2
LAYER
  5
2
102
{ACAD_XDICTIONARY
360
256
102
}
330
0
100
AcDbSymbolTable
 70
     8
  0
LAYER
  5
5C
102
{ACAD_XDICTIONARY
360
1A2
102
}
330
2
100
AcDbSymbolTableRecord
100
AcDbLayerTableRecord
  2
0
 70
     0
 62
     7
  6
CONTINUOUS
370
    -3
390
F
347
21
348
0
  0
LAYER
  5
27F
102
{ACAD_XDICTIONARY
360
2C7
102
}
330
2
100
AcDbSymbolTableRecord
100
AcDbLayerTableRecord
  2
Defpoints
 70
     0
 62
     7
  6
CONTINUOUS
290
     0
370
    -3
390
F
347
21
348
0
  0
LAYER
  5
2AE
102
{ACAD_XDICTIONARY
360
2CD
102
}
330
2
100
AcDbSymbolTableRecord
100
AcDbLayerTableRecord
  2
AM_2 ( Kontur 0.25)
 70
     0
 62
     5
  6
CONTINUOUS
370
    25
390
F
347
21
348
0
1001
AcAecLayerStandard
1000

1000

  0
LAYER
  5
1173
330
2
100
AcDbSymbolTableRecord
100
AcDbLayerTableRecord
  2
AM_0 ( Kontur 0.5 )
 70
     0
 62
     7
  6
CONTINUOUS
370
    50
390
F
347
21
348
0
1001
AcAecLayerStandard
1000

1000

  0
LAYER
  5
1174
330
2
100
AcDbSymbolTableRecord
100
AcDbLayerTableRecord
  2
AM_7 (Mittellinie)
 70
     0
 62
     4
  6
AM_ISO08W050
370
    25
390
F
347
21
348
0
1001
AcAecLayerStandard
1000

1000

  0
LAYER
  5
1175
330
2
100
AcDbSymbolTableRecord
100
AcDbLayerTableRecord
  2
AM_3 ( Verdeckt )
 70
     0
 62
     6
  6
AM_ISO02W050
370
    25
390
F
347
21
348
0
1001
AcAecLayerStandard
1000

1000

  0
LAYER
  5
18F5
330
2
100
AcDbSymbolTableRecord
100
AcDbLayerTableRecord
  2
AM_5 ( Bemassung)
 70
     0
 62
     3
  6
CONTINUOUS
370
    25
390
F
347
21
348
0
1001
AcAecLayerStandard
1000

1000

  0
ENDTAB
  0
TABLE
  2
STYLE
  5
3
330
0
100
AcDbSymbolTable
 70
     8
  0
STYLE
  5
5D
330
3
100
AcDbSymbolTableRecord
100
AcDbTextStyleTableRecord
  2
STANDARD
 70
     0
 40
0.0
 41
1.0
 50
0.0
 71
     0
 42
3.5
  3
ARIAL.TTF
  4

1001
ACAD
1000
Arial
1071
       34
  0
STYLE
  5
174
330
3
100
AcDbSymbolTableRecord
100
AcDbTextStyleTableRecord
  2
ACANSTS
 70
     0
 40
1.0
 41
1.0
 50
0.0
 71
     0
 42
3.5
  3
romans.shx
  4

  0
STYLE
  5
182
330
3
100
AcDbSymbolTableRecord
100
AcDbTextStyleTableRecord
  2
ACANSGDT
 70
     0
 40
0.0
 41
1.0
 50
0.0
 71
     0
 42
3.5
  3
amgdt.shx
  4

  0
STYLE
  5
25A
330
3
100
AcDbSymbolTableRecord
100
AcDbTextStyleTableRecord
  2
ACDINTS
 70
     0
 40
1.0
 41
1.0
 50
0.0
 71
     0
 42
3.5
  3
isocp.shx
  4

  0
STYLE
  5
269
330
3
100
AcDbSymbolTableRecord
100
AcDbTextStyleTableRecord
  2
ACDINGDT
 70
     0
 40
0.0
 41
1.0
 50
0.0
 71
     0
 42
3.5
  3
amgdt.shx
  4

  0
STYLE
  5
2A8
330
3
100
AcDbSymbolTableRecord
100
AcDbTextStyleTableRecord
  2

 70
     1
 40
0.0
 41
1.0
 50
0.0
 71
     0
 42
2.5
  3
genltshp.shx
  4

  0
STYLE
  5
3CB
330
3
100
AcDbSymbolTableRecord
100
AcDbTextStyleTableRecord
  2
ACISOTS
 70
     0
 40
1.0
 41
1.0
 50
0.0
 71
     0
 42
2.5
  3
ARIALN.TTF
  4

1001
ACAD
1000
Arial Narrow
1071
       34
  0
STYLE
  5
3CC
330
3
100
AcDbSymbolTableRecord
100
AcDbTextStyleTableRecord
  2
ACISOGDT
 70
     0
 40
0.0
 41
1.0
 50
0.0
 71
     0
 42
2.5
  3
amgdt.shx
  4

  0
ENDTAB
  0
TABLE
  2
VIEW
  5
6
330
0
100
AcDbSymbolTable
 70
     7
  0
VIEW
  5
51B
330
6
100
AcDbSymbolTableRecord
100
AcDbViewTableRecord
  2
AM_VIEW1
 70
     0
 40
2970.0
 10
5244.127408818744
 20
7963.547409082302
 41
4538.252933507171
 11
0.0
 21
0.0
 31
1.0
 12
0.0
 22
0.0
 32
0.0
 42
50.0
 43
0.0
 44
0.0
 50
0.0
 71
    16
281
     0
 72
     0
 73
     0
348
2F
  0
VIEW
  5
51C
330
6
100
AcDbSymbolTableRecord
100
AcDbViewTableRecord
  2
AM_VIEW2
 70
     0
 40
2970.0
 10
9105.874475311576
 20
7963.547409082302
 41
4538.252933507171
 11
0.0
 21
0.0
 31
1.0
 12
0.0
 22
0.0
 32
0.0
 42
50.0
 43
0.0
 44
0.0
 50
0.0
 71
    16
281
     0
 72
     0
 73
     0
348
2F
  0
VIEW
  5
51D
330
6
100
AcDbSymbolTableRecord
100
AcDbViewTableRecord
  2
AM_VIEW3
 70
     0
 40
2970.0
 10
5244.127408818744
 20
4993.547409082303
 41
4538.252933507171
 11
0.0
 21
0.0
 31
1.0
 12
0.0
 22
0.0
 32
0.0
 42
50.0
 43
0.0
 44
0.0
 50
0.0
 71
    16
281
     0
 72
     0
 73
     0
348
2F
  0
VIEW
  5
51E
330
6
100
AcDbSymbolTableRecord
100
AcDbViewTableRecord
  2
AM_VIEW4
 70
     0
 40
2970.0
 10
9105.874475311576
 20
4993.547409082303
 41
4538.252933507171
 11
0.0
 21
0.0
 31
1.0
 12
0.0
 22
0.0
 32
0.0
 42
50.0
 43
0.0
 44
0.0
 50
0.0
 71
    16
281
     0
 72
     0
 73
     0
348
2F
  0
VIEW
  5
51F
330
6
100
AcDbSymbolTableRecord
100
AcDbViewTableRecord
  2
AM_VIEW5
 70
     0
 40
2970.0
 10
7175.000942065159
 20
6478.547409082302
 41
4538.252933507172
 11
0.0
 21
0.0
 31
1.0
 12
0.0
 22
0.0
 32
0.0
 42
50.0
 43
0.0
 44
0.0
 50
0.0
 71
    16
281
     0
 72
     0
 73
     0
348
2F
  0
VIEW
  5
520
330
6
100
AcDbSymbolTableRecord
100
AcDbViewTableRecord
  2
AM_VIEW6
 70
     0
 40
5939.940599999999
 10
7175.000942065159
 20
6478.547409082302
 41
9076.415101955673
 11
0.0
 21
0.0
 31
1.0
 12
0.0
 22
0.0
 32
0.0
 42
50.0
 43
0.0
 44
0.0
 50
0.0
 71
    16
281
     0
 72
     0
 73
     0
348
2F
  0
ENDTAB
  0
TABLE
  2
UCS
  5
7
330
0
100
AcDbSymbolTable
 70
     0
  0
ENDTAB
  0
TABLE
  2
APPID
  5
9
330
0
100
AcDbSymbolTable
 70
    67
  0
APPID
  5
5E
330
9
100
AcDbSymbolTableRecord
100
AcDbRegAppTableRecord
  2
ACAD
 70
     0
  0
APPID
  5
144
330
9
100
AcDbSymbolTableRecord
100
AcDbRegAppTableRecord
  2
ACATTRIBSERVICES
 70
     0
  0
APPID
  5
24A
330
9
100
AcDbSymbolTableRecord
100
AcDbRegAppTableRecord
  2
AcAecLayerStandard
 70
     0
  0
APPID
  5
280
330
9
100
AcDbSymbolTableRecord
100
AcDbRegAppTableRecord
  2
ACAD_DSTYLE_DIMJOGGED_JOGANGLE_SYMBOL
 70
     0
  0
APPID
  5
287
330
9
100
AcDbSymbolTableRecord
100
AcDbRegAppTableRecord
  2
GENIUS_GENOREF_13
 70
     0
  0
APPID
  5
29A
330
9
100
AcDbSymbolTableRecord
100
AcDbRegAppTableRecord
  2
ACAD_PSEXT
 70
     0
  0
APPID
  5
3D5
330
9
100
AcDbSymbolTableRecord
100
AcDbRegAppTableRecord
  2
DCO15
 70
     0
  0
APPID
  5
5BA
330
9
100
AcDbSymbolTableRecord
100
AcDbRegAppTableRecord
  2
ACAD_DSTYLE_DIMINSPECT
 70
     0
  0
APPID
  5
1BA1
330
9
100
AcDbSymbolTableRecord
100
AcDbRegAppTableRecord
  2
ACAD_NAV_VCDISPLAY
 70
     0
  0
ENDTAB
  0
TABLE
  2
DIMSTYLE
  5
A
330
0
100
AcDbSymbolTable
 70
    23
100
AcDbDimStyleTable
 71
     5
340
276
340
27B
340
5F
340
27C
340
3CE
  0
DIMSTYLE
105
5F
330
A
100
AcDbSymbolTableRecord
100
AcDbDimStyleTableRecord
  2
STANDARD
 70
     0
 41
2.68
140
3.5
178
     6
340
5D
  0
DIMSTYLE
105
18F
330
A
100
AcDbSymbolTableRecord
100
AcDbDimStyleTableRecord
  2
AM_ANSI
 70
     0
  4
mm
 41
0.1
 42
0.05
 43
0.5
 44
0.1
 47
0.1
 48
0.1
 78
     7
 79
     2
 90
     1
140
0.12
141
0.0
146
0.71
147
0.06
176
   256
177
   256
178
     2
274
     4
284
     7
340
5D
371
    -1
372
    -1
  0
DIMSTYLE
105
190
330
A
100
AcDbSymbolTableRecord
100
AcDbDimStyleTableRecord
  2
AM_ANSI$3
 70
     0
  4
mm
 41
0.1
 42
0.05
 43
0.5
 44
0.1
 47
0.1
 48
0.1
 78
     7
 79
     2
 90
     1
140
0.12
141
0.0
146
0.71
147
0.06
176
   256
177
   256
178
     2
274
     4
284
     7
288
     1
289
     0
340
5D
371
    -1
372
    -1
  0
DIMSTYLE
105
191
330
A
100
AcDbSymbolTableRecord
100
AcDbDimStyleTableRecord
  2
AM_ANSI$4
 70
     0
  4
mm
 41
0.1
 42
0.05
 43
0.5
 44
0.1
 47
0.1
 48
0.1
 78
     7
 79
     2
 90
     1
140
0.12
141
0.0
146
0.71
147
0.06
176
   256
177
   256
178
     2
274
     4
284
     7
288
     1
289
     0
340
5D
371
    -1
372
    -1
  0
DIMSTYLE
105
192
330
A
100
AcDbSymbolTableRecord
100
AcDbDimStyleTableRecord
  2
AM_ANSI$7
 70
     0
  4
mm
 41
0.1
 42
0.05
 43
0.5
 44
0.1
 47
0.1
 48
0.1
 78
     7
 79
     2
 90
     1
140
0.24
141
0.0
146
0.71
147
0.06
176
   256
177
   256
178
     2
274
     4
284
     7
340
5D
371
    -1
372
    -1
  0
DIMSTYLE
105
193
330
A
100
AcDbSymbolTableRecord
100
AcDbDimStyleTableRecord
  2
AM_ANSI$SF
 70
     0
  4
mm
 41
0.1
 42
0.05
 43
0.5
 44
0.1
 47
0.1
 48
0.1
 75
     1
 76
     1
 78
     7
 79
     2
 90
     1
140
0.12
141
0.0
146
0.71
147
0.06
176
   256
177
   256
178
     2
274
     4
284
     7
340
5D
371
    -1
372
    -1
  0
DIMSTYLE
105
198
330
A
100
AcDbSymbolTableRecord
100
AcDbDimStyleTableRecord
  2
AM_ANSI$SH
 70
     0
  4
mm
 41
0.1
 42
0.05
 43
0.5
 44
0.1
 47
0.1
 48
0.1
 75
     1
 76
     1
 78
     7
 79
     2
 90
     1
140
0.12
141
0.0
146
0.71
147
0.06
173
     1
176
   256
177
   256
178
     2
274
     4
284
     7
340
5D
343
194
371
    -1
372
    -1
  0
DIMSTYLE
105
276
330
A
100
AcDbSymbolTableRecord
100
AcDbDimStyleTableRecord
  2
AM_DIN
 70
     0
  4
"
 41
5.0
 42
1.0
 43
10.0
 44
1.0
 47
0.1
 48
0.1
 50
90.0
 73
     0
 74
     0
 77
     1
 78
     8
 79
     2
140
5.0
141
0.0
143
0.0393701
146
0.71
147
1.5
172
     1
176
   256
177
   256
178
     2
271
     2
272
     2
283
     0
284
     8
340
5D
371
    -1
372
    -1
1001
ACAD_DSTYLE_DIMJOGGED_JOGANGLE_SYMBOL
1070
   384
1040
1.570796326794896
  0
DIMSTYLE
105
277
330
A
100
AcDbSymbolTableRecord
100
AcDbDimStyleTableRecord
  2
AM_DIN$3
 70
     0
  4
"
 41
3.5
 42
1.0
 43
10.0
 44
1.0
 47
0.1
 48
0.1
 50
90.0
 73
     0
 77
     1
 78
     8
 79
     2
140
3.5
141
0.0
143
0.0393701
146
0.71
147
1.5
176
   256
177
   256
178
     2
271
     2
272
     2
283
     0
284
     8
288
     1
289
     0
340
5D
371
    -1
372
    -1
1001
ACAD_DSTYLE_DIMJOGGED_JOGANGLE_SYMBOL
1070
   384
1040
1.570796326794896
  0
DIMSTYLE
105
278
330
A
100
AcDbSymbolTableRecord
100
AcDbDimStyleTableRecord
  2
AM_DIN$4
 70
     0
  4
"
 41
4.0
 42
1.0
 43
10.0
 44
1.0
 47
0.1
 48
0.1
 50
90.0
 73
     0
 77
     1
 78
     8
 79
     2
140
3.5
141
0.0
143
0.0393701
146
0.71
147
1.5
176
   256
177
   256
178
     2
271
     2
272
     2
283
     0
284
     8
288
     1
289
     0
340
5D
371
    -1
372
    -1
1001
ACAD_DSTYLE_DIMJOGGED_JOGANGLE_SYMBOL
1070
   384
1040
1.570796326794896
  0
DIMSTYLE
105
279
330
A
100
AcDbSymbolTableRecord
100
AcDbDimStyleTableRecord
  2
AM_DIN$6
 70
     0
  4
"
 41
4.0
 42
0.0
 43
10.0
 44
1.0
 47
0.1
 48
0.1
 50
90.0
 73
     0
 74
     0
 78
     8
 79
     2
140
3.5
141
0.0
143
0.0393701
146
0.71
147
1.5
172
     1
176
   256
177
   256
178
     2
271
     2
272
     2
283
     0
284
     8
340
5D
371
    -1
372
    -1
1001
ACAD_DSTYLE_DIMJOGGED_JOGANGLE_SYMBOL
1070
   384
1040
1.570796326794896
  0
DIMSTYLE
105
27A
330
A
100
AcDbSymbolTableRecord
100
AcDbDimStyleTableRecord
  2
AM_DIN$7
 70
     0
  4
"
 41
4.0
 42
1.0
 43
10.0
 44
1.0
 47
0.1
 48
0.1
 50
90.0
 73
     0
 74
     0
 77
     1
 78
     8
 79
     2
140
5.0
141
0.0
143
0.0393701
146
0.71
147
1.5
172
     1
176
   256
177
   256
178
     2
271
     2
272
     2
283
     0
284
     8
340
5D
371
    -1
372
    -1
1001
ACAD_DSTYLE_DIMJOGGED_JOGANGLE_SYMBOL
1070
   384
1040
1.570796326794896
  0
DIMSTYLE
105
27B
330
A
100
AcDbSymbolTableRecord
100
AcDbDimStyleTableRecord
  2
AM_DIN$SF
 70
     0
  4
"
 41
4.0
 42
1.0
 43
10.0
 44
1.0
 47
0.1
 48
0.1
 50
90.0
 73
     0
 74
     0
 75
     1
 76
     1
 77
     1
 78
     8
 79
     2
140
3.5
141
0.0
143
0.0393701
146
0.71
147
1.5
172
     1
176
   256
177
   256
178
     2
271
     2
272
     2
283
     0
284
     8
340
5D
371
    -1
372
    -1
1001
ACAD_DSTYLE_DIMJOGGED_JOGANGLE_SYMBOL
1070
   384
1040
1.570796326794896
  0
DIMSTYLE
105
27C
330
A
100
AcDbSymbolTableRecord
100
AcDbDimStyleTableRecord
  2
AM_DIN$SH
 70
     0
  4
"
 41
4.0
 42
1.0
 43
10.0
 44
1.0
 47
0.1
 48
0.1
 50
90.0
 73
     0
 74
     0
 75
     1
 76
     1
 77
     1
 78
     8
 79
     2
140
3.5
141
0.0
143
0.0393701
144
2.0
146
0.71
147
1.5
172
     1
173
     1
176
   256
177
   256
178
     2
271
     2
272
     2
283
     0
284
     8
340
5D
343
194
371
    -1
372
    -1
1001
ACAD_DSTYLE_DIMJOGGED_JOGANGLE_SYMBOL
1070
   384
1040
1.570796326794896
  0
DIMSTYLE
105
32F
102
{ACAD_REACTORS
330
18F6
330
1918
330
19AD
330
19FF
102
}
330
A
100
AcDbSymbolTableRecord
100
AcDbDimStyleTableRecord
  2
AM_DIN$0
 70
     0
  4
"
 41
4.0
 42
0.0
 43
10.0
 44
1.0
 47
0.1
 48
0.1
 50
90.0
 73
     0
 74
     0
 77
     1
 78
     8
 79
     2
140
3.5
141
0.0
143
0.0393701
146
0.71
147
1.5
172
     1
176
   256
177
   256
178
     2
271
     2
272
     2
283
     0
284
     8
340
5D
371
    -1
372
    -1
1001
ACAD_DSTYLE_DIMJOGGED_JOGANGLE_SYMBOL
1070
   384
1040
1.570796326794896
  0
DIMSTYLE
105
330
330
A
100
AcDbSymbolTableRecord
100
AcDbDimStyleTableRecord
  2
AM_DIN$2
 70
     0
  4
"
 41
4.0
 42
0.0
 43
10.0
 44
1.0
 47
0.1
 48
0.1
 50
90.0
 73
     0
 74
     0
 77
     1
 78
     8
 79
     2
140
3.5
141
0.0
143
0.0393701
146
0.71
147
1.5
172
     1
176
   256
177
   256
178
     2
271
     2
272
     2
283
     0
284
     8
340
5D
371
    -1
372
    -1
1001
ACAD_DSTYLE_DIMJOGGED_JOGANGLE_SYMBOL
1070
   384
1040
1.570796326794896
  0
DIMSTYLE
105
3CE
330
A
100
AcDbSymbolTableRecord
100
AcDbDimStyleTableRecord
  2
AM_ISO
 70
     0
  4
"
 41
2.5
 42
1.0
 43
10.0
 44
1.0
 47
0.1
 48
0.1
 73
     0
 74
     0
 77
     1
 78
     8
 79
     2
 90
     1
140
3.5
141
0.0
143
0.0393701
146
0.71
147
1.5
172
     1
176
   256
177
   256
178
     2
271
     2
272
     3
274
     4
283
     0
284
     8
340
5D
371
    -1
372
    -1
1001
ACAD_DSTYLE_DIMJOGGED_JOGANGLE_SYMBOL
1070
   384
1040
0.7853981633974483
  0
DIMSTYLE
105
3CF
330
A
100
AcDbSymbolTableRecord
100
AcDbDimStyleTableRecord
  2
AM_ISO$3
 70
     0
  4
"
 41
2.5
 42
1.0
 43
10.0
 44
1.0
 47
0.1
 48
0.1
 73
     0
 77
     1
 78
     8
 79
     2
 90
     1
140
3.5
141
0.0
143
0.0393701
146
0.71
147
1.5
176
   256
177
   256
178
     2
271
     2
272
     3
274
     4
283
     0
284
     8
288
     1
289
     0
340
5D
371
    -1
372
    -1
1001
ACAD_DSTYLE_DIMJOGGED_JOGANGLE_SYMBOL
1070
   384
1040
0.7853981633974483
  0
DIMSTYLE
105
3D0
330
A
100
AcDbSymbolTableRecord
100
AcDbDimStyleTableRecord
  2
AM_ISO$4
 70
     0
  4
"
 41
2.5
 42
1.0
 43
10.0
 44
1.0
 47
0.1
 48
0.1
 73
     0
 77
     1
 78
     8
 79
     2
 90
     1
140
3.5
141
0.0
143
0.0393701
146
0.71
147
1.5
176
   256
177
   256
178
     2
271
     2
272
     3
274
     4
283
     0
284
     8
288
     1
289
     0
340
5D
371
    -1
372
    -1
1001
ACAD_DSTYLE_DIMJOGGED_JOGANGLE_SYMBOL
1070
   384
1040
0.7853981633974483
  0
DIMSTYLE
105
3D1
330
A
100
AcDbSymbolTableRecord
100
AcDbDimStyleTableRecord
  2
AM_ISO$6
 70
     0
  4
"
 41
2.5
 42
1.0
 43
10.0
 44
1.0
 47
0.1
 48
0.1
 73
     0
 74
     0
 78
     8
 79
     2
 90
     1
140
3.5
141
0.0
143
0.0393701
146
0.71
147
1.5
172
     1
176
   256
177
   256
178
     2
271
     2
272
     3
274
     4
283
     0
284
     8
340
5D
371
    -1
372
    -1
1001
ACAD_DSTYLE_DIMJOGGED_JOGANGLE_SYMBOL
1070
   384
1040
0.7853981633974483
  0
DIMSTYLE
105
3D2
330
A
100
AcDbSymbolTableRecord
100
AcDbDimStyleTableRecord
  2
AM_ISO$7
 70
     0
  4
"
 41
2.5
 42
1.0
 43
10.0
 44
1.0
 47
0.1
 48
0.1
 73
     0
 74
     0
 77
     1
 78
     8
 79
     2
 90
     1
140
5.0
141
0.0
143
0.0393701
146
0.71
147
1.5
172
     1
176
   256
177
   256
178
     2
271
     2
272
     3
274
     4
283
     0
284
     8
340
5D
371
    -1
372
    -1
1001
ACAD_DSTYLE_DIMJOGGED_JOGANGLE_SYMBOL
1070
   384
1040
0.7853981633974483
  0
DIMSTYLE
105
3D3
330
A
100
AcDbSymbolTableRecord
100
AcDbDimStyleTableRecord
  2
AM_ISO$SF
 70
     0
  4
"
 41
2.5
 42
1.0
 43
10.0
 44
1.0
 47
0.1
 48
0.1
 73
     0
 74
     0
 75
     1
 76
     1
 77
     1
 78
     8
 79
     2
 90
     1
140
3.5
141
0.0
143
0.0393701
146
0.71
147
1.5
172
     1
176
   256
177
   256
178
     2
271
     2
272
     3
274
     4
283
     0
284
     8
340
5D
371
    -1
372
    -1
1001
ACAD_DSTYLE_DIMJOGGED_JOGANGLE_SYMBOL
1070
   384
1040
0.7853981633974483
  0
DIMSTYLE
105
3D4
330
A
100
AcDbSymbolTableRecord
100
AcDbDimStyleTableRecord
  2
AM_ISO$SH
 70
     0
  4
"
 41
2.5
 42
1.0
 43
10.0
 44
1.0
 47
0.1
 48
0.1
 73
     0
 74
     0
 75
     1
 76
     1
 77
     1
 78
     8
 79
     2
 90
     1
140
3.5
141
0.0
143
0.0393701
144
2.0
146
0.71
147
1.5
172
     1
173
     1
176
   256
177
   256
178
     2
271
     2
272
     3
274
     4
283
     0
284
     8
340
5D
343
194
371
    -1
372
    -1
1001
ACAD_DSTYLE_DIMJOGGED_JOGANGLE_SYMBOL
1070
   384
1040
0.7853981633974483
  0
ENDTAB
  0
TABLE
  2
BLOCK_RECORD
  5
1
330
0
100
AcDbSymbolTable
 70
    12
  0
BLOCK_RECORD
  5
74
102
{ACAD_XDICTIONARY
360
A88
102
}
330
1
100
AcDbSymbolTableRecord
100
AcDbBlockTableRecord
  2
*Model_Space
340
77
 70
     0
280
     1
281
     0
  0
BLOCK_RECORD
  5
70
330
1
100
AcDbSymbolTableRecord
100
AcDbBlockTableRecord
  2
*Paper_Space
340
73
 70
     0
280
     1
281
     0
  0
BLOCK_RECORD
  5
194
330
1
100
AcDbSymbolTableRecord
100
AcDbBlockTableRecord
  2
GENAXEH
340
0
 70
     0
280
     1
281
     0
  0
BLOCK_RECORD
  5
18F8
330
1
100
AcDbSymbolTableRecord
100
AcDbBlockTableRecord
  2
*D2
340
0
 70
     0
280
     1
281
     0
  0
BLOCK_RECORD
  5
1919
330
1
100
AcDbSymbolTableRecord
100
AcDbBlockTableRecord
  2
*D3
340
0
 70
     0
280
     1
281
     0
  0
BLOCK_RECORD
  5
19AE
330
1
100
AcDbSymbolTableRecord
100
AcDbBlockTableRecord
  2
*D5
340
0
 70
     0
280
     1
281
     0
  0
BLOCK_RECORD
  5
1A00
330
1
100
AcDbSymbolTableRecord
100
AcDbBlockTableRecord
  2
*D7
340
0
 70
     0
280
     1
281
     0
  0
BLOCK_RECORD
  5
1B6D
330
1
100
AcDbSymbolTableRecord
100
AcDbBlockTableRecord
  2
_ACMFILLED
340
0
 70
     0
280
     1
281
     0
  0
BLOCK_RECORD
  5
1B78
330
1
100
AcDbSymbolTableRecord
100
AcDbBlockTableRecord
  2
_ACMFILLEDHALF
340
0
 70
     0
280
     1
281
     0
  0
BLOCK_RECORD
  5
1B84
330
1
100
AcDbSymbolTableRecord
100
AcDbBlockTableRecord
  2
_ACMFILLED15
340
0
 70
     0
280
     1
281
     0
  0
ENDTAB
  0
ENDSEC
  0
SECTION
  2
BLOCKS
  0
BLOCK
  5
75
330
74
100
AcDbEntity
  8
0
100
AcDbBlockBegin
  2
*Model_Space
 70
     0
 10
0.0
 20
0.0
 30
0.0
  3
*Model_Space
  1

  0
ENDBLK
  5
76
330
74
100
AcDbEntity
  8
0
100
AcDbBlockEnd
  0
BLOCK
  5
71
330
70
100
AcDbEntity
 67
     1
  8
0
100
AcDbBlockBegin
  2
*Paper_Space
 70
     0
 10
0.0
 20
0.0
 30
0.0
  3
*Paper_Space
  1

  0
ENDBLK
  5
72
330
70
100
AcDbEntity
 67
     1
  8
0
100
AcDbBlockEnd
  0
BLOCK
  5
1AC4
330
194
100
AcDbEntity
  8
0
100
AcDbBlockBegin
  2
GENAXEH
 70
     0
 10
0.0
 20
0.0
 30
0.0
  3
GENAXEH
  1

  0
LINE
  5
1AC5
330
194
100
AcDbEntity
  8
0
100
AcDbLine
 10
-1.0
 20
0.0
 30
0.0
 11
1.0
 21
0.0
 31
0.0
  0
ENDBLK
  5
1AC6
330
194
100
AcDbEntity
  8
0
100
AcDbBlockEnd
  0
BLOCK
  5
18F9
330
18F8
100
AcDbEntity
  8
0
100
AcDbBlockBegin
  2
*D2
 70
     1
 10
0.0
 20
0.0
 30
0.0
  3
*D2
  1

  0
LINE
  5
196E
330
18F8
100
AcDbEntity
  8
AM_5 ( Bemassung)
440
 16777216
100
AcDbLine
 10
3544.531721607164
 20
3508.75922504105
 30
0.0
 11
3637.706864060293
 21
3508.75922504105
 31
0.0
  0
LINE
  5
196F
330
18F8
100
AcDbEntity
  8
AM_5 ( Bemassung)
440
 16777216
100
AcDbLine
 10
3544.531721607164
 20
3456.75922582201
 30
0.0
 11
3637.706864060293
 21
3456.75922582201
 31
0.0
  0
LINE
  5
1970
330
18F8
100
AcDbEntity
  8
AM_5 ( Bemassung)
440
 16777216
100
AcDbLine
 10
3635.706864060293
 20
3500.75922504105
 30
0.0
 11
3635.706864060293
 21
3464.759225822009
 31
0.0
  0
SOLID
  5
1971
330
18F8
100
AcDbEntity
  8
AM_5 ( Bemassung)
440
 16777216
100
AcDbTrace
 10
3634.373530726961
 20
3500.75922504105
 30
0.0
 11
3637.040197393627
 21
3500.75922504105
 31
0.0
 12
3635.706864060293
 22
3508.75922504105
 32
0.0
 13
3635.706864060293
 23
3508.75922504105
 33
0.0
  0
SOLID
  5
1972
330
18F8
100
AcDbEntity
  8
AM_5 ( Bemassung)
440
 16777216
100
AcDbTrace
 10
3634.373530726961
 20
3464.759225822009
 30
0.0
 11
3637.040197393627
 21
3464.759225822009
 31
0.0
 12
3635.706864060293
 22
3456.75922582201
 32
0.0
 13
3635.706864060293
 23
3456.75922582201
 33
0.0
  0
MTEXT
  5
1973
330
18F8
100
AcDbEntity
  8
AM_5 ( Bemassung)
 62
     2
440
 16777216
100
AcDbMText
 10
3629.13285314624
 20
3481.28848701839
 30
0.0
 40
7.0
 41
0.0
 46
0.0
 71
     5
 72
     1
  1
52
 11
0.0000000000000001
 21
1.0
 31
0.0
 73
     1
 44
1.0
  0
POINT
  5
1974
330
18F8
100
AcDbEntity
  8
Defpoints
 62
     0
440
 16777216
100
AcDbPoint
 10
3544.531721607164
 20
3508.75922504105
 30
0.0
  0
POINT
  5
1975
330
18F8
100
AcDbEntity
  8
Defpoints
 62
     0
440
 16777216
100
AcDbPoint
 10
3544.531721607164
 20
3456.75922582201
 30
0.0
  0
POINT
  5
1976
330
18F8
100
AcDbEntity
  8
Defpoints
 62
     0
440
 16777216
100
AcDbPoint
 10
3635.706864060293
 20
3456.75922582201
 30
0.0
  0
ENDBLK
  5
18FA
330
18F8
100
AcDbEntity
  8
0
100
AcDbBlockEnd
  0
BLOCK
  5
191A
330
1919
100
AcDbEntity
  8
0
100
AcDbBlockBegin
  2
*D3
 70
     1
 10
0.0
 20
0.0
 30
0.0
  3
*D3
  1

  0
LINE
  5
1977
330
1919
100
AcDbEntity
  8
AM_5 ( Bemassung)
440
 16777216
100
AcDbLine
 10
3577.481957912461
 20
3475.75922582201
 30
0.0
 11
3619.410598001393
 21
3475.75922582201
 31
0.0
  0
LINE
  5
1978
330
1919
100
AcDbEntity
  8
AM_5 ( Bemassung)
440
 16777216
100
AcDbLine
 10
3544.531721607164
 20
3456.75922582201
 30
0.0
 11
3619.410598001393
 21
3456.75922582201
 31
0.0
  0
LINE
  5
1979
330
1919
100
AcDbEntity
  8
AM_5 ( Bemassung)
440
 16777216
100
AcDbLine
 10
3617.410598001393
 20
3483.759225822009
 30
0.0
 11
3617.410598001393
 21
3491.75922582201
 31
0.0
  0
LINE
  5
197A
330
1919
100
AcDbEntity
  8
AM_5 ( Bemassung)
440
 16777216
100
AcDbLine
 10
3617.410598001393
 20
3448.75922582201
 30
0.0
 11
3617.410598001393
 21
3440.759225822009
 31
0.0
  0
LINE
  5
197B
330
1919
100
AcDbEntity
  8
AM_5 ( Bemassung)
440
 16777216
100
AcDbLine
 10
3617.410598001393
 20
3475.75922582201
 30
0.0
 11
3617.410598001393
 21
3456.75922582201
 31
0.0
  0
SOLID
  5
197C
330
1919
100
AcDbEntity
  8
AM_5 ( Bemassung)
440
 16777216
100
AcDbTrace
 10
3616.077264668059
 20
3483.759225822009
 30
0.0
 11
3618.743931334726
 21
3483.759225822009
 31
0.0
 12
3617.410598001393
 22
3475.75922582201
 32
0.0
 13
3617.410598001393
 23
3475.75922582201
 33
0.0
  0
SOLID
  5
197D
330
1919
100
AcDbEntity
  8
AM_5 ( Bemassung)
440
 16777216
100
AcDbTrace
 10
3616.077264668059
 20
3448.75922582201
 30
0.0
 11
3618.743931334726
 21
3448.75922582201
 31
0.0
 12
3617.410598001393
 22
3456.75922582201
 32
0.0
 13
3617.410598001393
 23
3456.75922582201
 33
0.0
  0
MTEXT
  5
197E
330
1919
100
AcDbEntity
  8
AM_5 ( Bemassung)
 62
     2
440
 16777216
100
AcDbMText
 10
3610.83658708734
 20
3466.25922582201
 30
0.0
 40
7.0
 41
0.0
 46
0.0
 71
     5
 72
     1
  1
19
 11
0.0000000000000001
 21
1.0
 31
0.0
 73
     1
 44
1.0
  0
POINT
  5
197F
330
1919
100
AcDbEntity
  8
Defpoints
 62
     0
440
 16777216
100
AcDbPoint
 10
3577.481957912461
 20
3475.75922582201
 30
0.0000000000004547
  0
POINT
  5
1980
330
1919
100
AcDbEntity
  8
Defpoints
 62
     0
440
 16777216
100
AcDbPoint
 10
3544.531721607164
 20
3456.75922582201
 30
0.0
  0
POINT
  5
1981
330
1919
100
AcDbEntity
  8
Defpoints
 62
     0
440
 16777216
100
AcDbPoint
 10
3617.410598001393
 20
3456.75922582201
 30
0.0
  0
ENDBLK
  5
191B
330
1919
100
AcDbEntity
  8
0
100
AcDbBlockEnd
  0
BLOCK
  5
19AF
330
19AE
100
AcDbEntity
  8
0
100
AcDbBlockBegin
  2
*D5
 70
     1
 10
0.0
 20
0.0
 30
0.0
  3
*D5
  1

  0
LINE
  5
1A32
330
19AE
100
AcDbEntity
  8
AM_5 ( Bemassung)
440
 16777216
100
AcDbLine
 10
3602.031721607164
 20
3508.75922504105
 30
0.0
 11
3602.031721607164
 21
3534.75922504105
 31
0.0
  0
LINE
  5
1A33
330
19AE
100
AcDbEntity
  8
AM_5 ( Bemassung)
440
 16777216
100
AcDbLine
 10
3487.031721607163
 20
3508.75922504105
 30
0.0
 11
3487.031721607163
 21
3534.75922504105
 31
0.0
  0
LINE
  5
1A34
330
19AE
100
AcDbEntity
  8
AM_5 ( Bemassung)
440
 16777216
100
AcDbLine
 10
3594.031721607163
 20
3532.75922504105
 30
0.0
 11
3495.031721607164
 21
3532.75922504105
 31
0.0
  0
SOLID
  5
1A35
330
19AE
100
AcDbEntity
  8
AM_5 ( Bemassung)
440
 16777216
100
AcDbTrace
 10
3594.031721607163
 20
3534.092558374383
 30
0.0
 11
3594.031721607163
 21
3531.425891707716
 31
0.0
 12
3602.031721607164
 22
3532.75922504105
 32
0.0
 13
3602.031721607164
 23
3532.75922504105
 33
0.0
  0
SOLID
  5
1A36
330
19AE
100
AcDbEntity
  8
AM_5 ( Bemassung)
440
 16777216
100
AcDbTrace
 10
3495.031721607164
 20
3534.092558374383
 30
0.0
 11
3495.031721607164
 21
3531.425891707716
 31
0.0
 12
3487.031721607163
 22
3532.75922504105
 32
0.0
 13
3487.031721607163
 23
3532.75922504105
 33
0.0
  0
MTEXT
  5
1A37
330
19AE
100
AcDbEntity
  8
AM_5 ( Bemassung)
 62
     2
440
 16777216
100
AcDbMText
 10
3544.531721607164
 20
3539.529006760013
 30
0.0
 40
7.0
 41
0.0
 46
0.0
 71
     5
 72
     1
  1
%%c 115
 73
     1
 44
1.0
  0
POINT
  5
1A38
330
19AE
100
AcDbEntity
  8
Defpoints
 62
     0
440
 16777216
100
AcDbPoint
 10
3602.031721607164
 20
3508.75922504105
 30
0.0
  0
POINT
  5
1A39
330
19AE
100
AcDbEntity
  8
Defpoints
 62
     0
440
 16777216
100
AcDbPoint
 10
3487.031721607163
 20
3508.75922504105
 30
0.0
  0
POINT
  5
1A3A
330
19AE
100
AcDbEntity
  8
Defpoints
 62
     0
440
 16777216
100
AcDbPoint
 10
3487.031721607163
 20
3532.75922504105
 30
0.0
  0
ENDBLK
  5
19B0
330
19AE
100
AcDbEntity
  8
0
100
AcDbBlockEnd
  0
BLOCK
  5
1A01
330
1A00
100
AcDbEntity
  8
0
100
AcDbBlockBegin
  2
*D7
 70
     1
 10
0.0
 20
0.0
 30
0.0
  3
*D7
  1

  0
LINE
  5
1A17
330
1A00
100
AcDbEntity
  8
AM_5 ( Bemassung)
440
 16777216
100
AcDbLine
 10
3544.531721607164
 20
3456.75922582201
 30
0.0
 11
3654.738688381429
 21
3456.75922582201
 31
0.0
  0
LINE
  5
1A18
330
1A00
100
AcDbEntity
  8
AM_5 ( Bemassung)
440
 16777216
100
AcDbLine
 10
3544.531721607164
 20
3513.75922582201
 30
0.0
 11
3654.738688381429
 21
3513.75922582201
 31
0.0
  0
LINE
  5
1A19
330
1A00
100
AcDbEntity
  8
AM_5 ( Bemassung)
440
 16777216
100
AcDbLine
 10
3652.738688381429
 20
3464.759225822009
 30
0.0
 11
3652.738688381429
 21
3505.759225822009
 31
0.0
  0
SOLID
  5
1A1A
330
1A00
100
AcDbEntity
  8
AM_5 ( Bemassung)
440
 16777216
100
AcDbTrace
 10
3651.405355048095
 20
3464.759225822009
 30
0.0
 11
3654.072021714763
 21
3464.759225822009
 31
0.0
 12
3652.738688381429
 22
3456.75922582201
 32
0.0
 13
3652.738688381429
 23
3456.75922582201
 33
0.0
  0
SOLID
  5
1A1B
330
1A00
100
AcDbEntity
  8
AM_5 ( Bemassung)
440
 16777216
100
AcDbTrace
 10
3651.405355048095
 20
3505.759225822009
 30
0.0
 11
3654.072021714763
 21
3505.759225822009
 31
0.0
 12
3652.738688381429
 22
3513.75922582201
 32
0.0
 13
3652.738688381429
 23
3513.75922582201
 33
0.0
  0
MTEXT
  5
1A1C
330
1A00
100
AcDbEntity
  8
AM_5 ( Bemassung)
 62
     2
440
 16777216
100
AcDbMText
 10
3646.179002160419
 20
3485.259225822011
 30
0.0
 40
7.0
 41
0.0
 46
0.0
 71
     5
 72
     1
  1
57
 11
0.0000000000000001
 21
1.0
 31
0.0
 73
     1
 44
1.0
  0
POINT
  5
1A1D
330
1A00
100
AcDbEntity
  8
Defpoints
 62
     0
440
 16777216
100
AcDbPoint
 10
3544.531721607164
 20
3456.75922582201
 30
0.0
  0
POINT
  5
1A1E
330
1A00
100
AcDbEntity
  8
Defpoints
 62
     0
440
 16777216
100
AcDbPoint
 10
3544.531721607164
 20
3513.75922582201
 30
0.0
  0
POINT
  5
1A1F
330
1A00
100
AcDbEntity
  8
Defpoints
 62
     0
440
 16777216
100
AcDbPoint
 10
3652.738688381429
 20
3513.75922582201
 30
0.0
  0
ENDBLK
  5
1A02
330
1A00
100
AcDbEntity
  8
0
100
AcDbBlockEnd
  0
BLOCK
  5
1B6E
330
1B6D
100
AcDbEntity
  8
0
100
AcDbBlockBegin
  2
_ACMFILLED
 70
     0
 10
0.0
 20
0.0
 30
0.0
  3
_ACMFILLED
  1

  0
TRACE
  5
1B70
330
1B6D
100
AcDbEntity
  8
AM_0 ( Kontur 0.5 )
 62
     0
100
AcDbTrace
 10
-1.0
 20
-0.166666666
 30
0.0
 11
-1.0
 21
0.166666666
 31
0.0
 12
0.0
 22
0.0
 32
0.0
 13
0.0
 23
0.0
 33
0.0
  0
ENDBLK
  5
1B6F
330
1B6D
100
AcDbEntity
  8
0
100
AcDbBlockEnd
  0
BLOCK
  5
1B79
330
1B78
100
AcDbEntity
  8
0
100
AcDbBlockBegin
  2
_ACMFILLEDHALF
 70
     0
 10
0.0
 20
0.0
 30
0.0
  3
_ACMFILLEDHALF
  1

  0
TRACE
  5
1B7B
330
1B78
100
AcDbEntity
  8
AM_0 ( Kontur 0.5 )
 62
     0
100
AcDbTrace
 10
-0.8
 20
0.0
 30
0.0
 11
-1.0
 21
0.166666666
 31
0.0
 12
0.0
 22
0.0
 32
0.0
 13
0.0
 23
0.0
 33
0.0
  0
LINE
  5
1B7C
330
1B78
100
AcDbEntity
  8
AM_0 ( Kontur 0.5 )
 62
     0
100
AcDbLine
 10
-1.0
 20
0.0
 30
0.0
 11
-0.8
 21
0.0
 31
0.0
  0
ENDBLK
  5
1B7A
330
1B78
100
AcDbEntity
  8
0
100
AcDbBlockEnd
  0
BLOCK
  5
1B85
330
1B84
100
AcDbEntity
  8
0
100
AcDbBlockBegin
  2
_ACMFILLED15
 70
     0
 10
0.0
 20
0.0
 30
0.0
  3
_ACMFILLED15
  1

  0
TRACE
  5
1B87
330
1B84
100
AcDbEntity
  8
AM_0 ( Kontur 0.5 )
 62
     0
100
AcDbTrace
 10
-1.0
 20
-0.131652497
 30
0.0
 11
-1.0
 21
0.131652497
 31
0.0
 12
0.0
 22
0.0
 32
0.0
 13
0.0
 23
0.0
 33
0.0
  0
ENDBLK
  5
1B86
330
1B84
100
AcDbEntity
  8
0
100
AcDbBlockEnd
  0
ENDSEC
  0
SECTION
  2
ENTITIES
  0
LINE
  5
13F7
330
74
100
AcDbEntity
  8
AM_0 ( Kontur 0.5 )
100
AcDbLine
 10
3564.149505438842
 20
3460.759226047289
 30
-24.94474700316529
 11
3552.147958441222
 21
3468.259225934649
 31
-19.97354346729138
  0
ARC
  5
13F8
330
74
100
AcDbEntity
  8
AM_0 ( Kontur 0.5 )
100
AcDbCircle
 10
3475.75922582201
 20
-3303.314599806443
 30
1358.672187888434
 40
13.2499998010049
210
0.382683432365099
220
0.0
230
0.923879532511283
100
AcDbArc
 50
0.0
 51
180.0
  0
LINE
  5
13F9
330
74
100
AcDbEntity
  8
AM_0 ( Kontur 0.5 )
100
AcDbLine
 10
3567.210972851784
 20
3461.23751866358
 30
-19.71849522215008
 11
3566.445605998552
 21
3460.759226047289
 31
-19.40146989134918
  0
LINE
  5
13FA
330
74
100
AcDbEntity
  8
AM_0 ( Kontur 0.5 )
100
AcDbLine
 10
3555.974792707392
 20
3483.25922570937
 30
-10.73474828093128
 11
3567.976339705023
 21
3490.759225596729
 31
-15.70595181680508
  0
LINE
  5
13FB
330
74
100
AcDbEntity
  8
AM_0 ( Kontur 0.5 )
100
AcDbLine
 10
3567.976339705023
 20
3490.759225596729
 30
-15.70595181680508
 11
3571.037807117964
 21
3490.759225596729
 31
-8.314915667716983
  0
ARC
  5
13FC
330
74
100
AcDbEntity
  8
AM_0 ( Kontur 0.5 )
100
AcDbCircle
 10
3475.75922582201
 20
-3305.162358843713
 30
1369.043074878155
 40
8.24999987610316
210
0.382683432365099
220
0.0
230
0.923879532511283
100
AcDbArc
 50
0.0
 51
180.0
  0
CIRCLE
  5
13FD
330
74
100
AcDbEntity
  8
AM_0 ( Kontur 0.5 )
100
AcDbCircle
 10
3475.75922582201
 20
3244.278261015923
 30
1343.824055824884
 40
4.99999992490753
210
0.38268343236509
220
0.0
230
-0.9238795325112867
  0
ARC
  5
13FE
330
74
100
AcDbEntity
  8
AM_0 ( Kontur 0.5 )
100
AcDbCircle
 10
3475.75922582201
 20
-3305.162358843713
 30
1369.043074878155
 40
8.24999987610316
210
0.382683432365099
220
0.0
230
0.923879532511283
100
AcDbArc
 50
180.0
 51
0.0
  0
CIRCLE
  5
13FF
330
74
100
AcDbEntity
  8
AM_0 ( Kontur 0.5 )
100
AcDbCircle
 10
3475.75922582201
 20
-3305.162358843713
 30
1369.043074878155
 40
4.99999992490753
210
0.382683432365099
220
0.0
230
0.923879532511283
  0
LINE
  5
1400
330
74
100
AcDbEntity
  8
AM_0 ( Kontur 0.5 )
100
AcDbLine
 10
3566.445605998552
 20
3460.759226047289
 30
-19.40146989134918
 11
3554.444059000922
 21
3468.259225934649
 31
-14.43026635547528
  0
LINE
  5
1401
102
{ACAD_REACTORS
330
1905
330
1A0D
102
}
330
74
100
AcDbEntity
  8
AM_7 (Mittellinie)
100
AcDbLine
 10
3544.531721607164
 20
3456.189626508751
 30
0.0
 11
3544.531721607164
 21
3518.70006397134
 31
0.0
  0
LINE
  5
1402
330
74
100
AcDbEntity
  8
AM_2 ( Kontur 0.25)
100
AcDbLine
 10
3527.283102452472
 20
3460.13761648172
 30
-39.90391037738618
 11
3525.205711743904
 21
3460.13761648172
 31
-39.90391037738618
  0
LINE
  5
1403
330
74
100
AcDbEntity
  8
AM_0 ( Kontur 0.5 )
100
AcDbLine
 10
3566.445605998552
 20
3490.759225596729
 30
-19.40146989134918
 11
3564.149505438842
 21
3490.759225596729
 31
-24.94474700316518
  0
LINE
  5
1404
330
74
100
AcDbEntity
  8
AM_3 ( Verdeckt )
100
AcDbLine
 10
3495.781722339322
 20
3497.059225216761
 30
0.0
 11
3495.781722339322
 21
3498.75922519123
 31
0.0
  0
LINE
  5
1405
330
74
100
AcDbEntity
  8
AM_3 ( Verdeckt )
100
AcDbLine
 10
3499.681722280743
 20
3497.059225216761
 30
0.0
 11
3499.681722280743
 21
3498.75922519123
 31
0.0
  0
ARC
  5
1406
330
74
100
AcDbEntity
  8
AM_3 ( Verdeckt )
100
AcDbCircle
 10
-3502.531722237943
 20
3462.7592257319
 30
0.0
 40
1.99999996996301
210
0.0
220
0.0
230
-1.0
100
AcDbArc
 50
270.0
 51
0.0
  0
LINE
  5
1407
330
74
100
AcDbEntity
  8
AM_3 ( Verdeckt )
100
AcDbLine
 10
3500.531722267985
 20
3498.75922519123
 30
0.0
 11
3500.531722267985
 21
3462.7592257319
 31
0.0
  0
LINE
  5
1408
330
74
100
AcDbEntity
  8
AM_3 ( Verdeckt )
100
AcDbLine
 10
3502.531722237943
 20
3460.75922576194
 30
0.0
 11
3567.976339705023
 21
3460.75922576194
 31
0.0
  0
LINE
  5
1409
330
74
100
AcDbEntity
  8
AM_0 ( Kontur 0.5 )
100
AcDbLine
 10
3515.083968577972
 20
3462.597531230859
 30
-9.533394249828582
 11
3518.025636096373
 21
3460.759226047289
 31
-8.314915667717077
  0
ARC
  5
140A
330
74
100
AcDbEntity
  8
AM_0 ( Kontur 0.5 )
100
AcDbCircle
 10
3475.75922582201
 20
3246.126020053195
 30
1354.194942814604
 40
13.2499998010049
210
0.38268343236509
220
0.0
230
-0.9238795325112867
100
AcDbArc
 50
0.000000000000072
 51
180.0000000000001
  0
LINE
  5
140B
330
74
100
AcDbEntity
  8
AM_0 ( Kontur 0.5 )
100
AcDbLine
 10
3521.087103509313
 20
3460.759226047289
 30
-15.70595181680518
 11
3533.088650506943
 21
3468.259225934649
 31
-10.73474828093128
  0
LINE
  5
140C
330
74
100
AcDbEntity
  8
AM_0 ( Kontur 0.5 )
100
AcDbLine
 10
3522.617837215784
 20
3490.759225596729
 30
-19.40146989134918
 11
3524.913937775494
 21
3490.759225596729
 31
-24.94474700316518
  0
LINE
  5
140D
330
74
100
AcDbEntity
  8
AM_0 ( Kontur 0.5 )
100
AcDbLine
 10
3521.087103509313
 20
3460.759226047289
 30
-15.70595181680518
 11
3518.025636096373
 21
3460.759226047289
 31
-8.314915667717077
  0
LINE
  5
140E
330
74
100
AcDbEntity
  8
AM_0 ( Kontur 0.5 )
100
AcDbLine
 10
3522.617837215784
 20
3460.759226047289
 30
-19.40146989134918
 11
3524.913937775494
 21
3460.759226047289
 31
-24.94474700316529
  0
LINE
  5
140F
330
74
100
AcDbEntity
  8
AM_0 ( Kontur 0.5 )
100
AcDbLine
 10
3517.257358687324
 20
3462.509226020999
 30
-8.874343453231382
 11
3513.518577799405
 21
3462.508962120269
 31
-39.90391037738618
  0
LINE
  5
1410
330
74
100
AcDbEntity
  8
AM_0 ( Kontur 0.5 )
100
AcDbLine
 10
3522.617837215784
 20
3460.759226047289
 30
-19.40146989134918
 11
3534.619384213414
 21
3468.259225934649
 31
-14.43026635547528
  0
LINE
  5
1411
330
74
100
AcDbEntity
  8
AM_0 ( Kontur 0.5 )
100
AcDbLine
 10
3521.852470362553
 20
3461.23751866358
 30
-19.71849522215008
 11
3522.617837215784
 21
3460.759226047289
 31
-19.40146989134918
  0
LINE
  5
1412
330
74
100
AcDbEntity
  8
AM_0 ( Kontur 0.5 )
100
AcDbLine
 10
3521.087103509313
 20
3490.759225596729
 30
-15.70595181680508
 11
3518.025636096373
 21
3490.759225596729
 31
-8.314915667716983
  0
POLYLINE
  5
1413
330
74
100
AcDbEntity
  8
AM_0 ( Kontur 0.5 )
100
AcDb3dPolyline
 66
     1
 10
0.0
 20
0.0
 30
0.0
 70
     8
  0
VERTEX
  5
1414
330
1413
100
AcDbEntity
  8
AM_0 ( Kontur 0.5 )
 62
     3
100
AcDbVertex
100
AcDb3dPolylineVertex
 10
3521.852470362553
 20
3490.28093298044
 30
-19.71849522215008
 70
    32
  0
VERTEX
  5
1415
330
1413
100
AcDbEntity
  8
AM_0 ( Kontur 0.5 )
 62
     3
100
AcDbVertex
100
AcDb3dPolylineVertex
 10
3522.617837215784
 20
3490.759225596729
 30
-19.40146989134918
 70
    32
  0
SEQEND
  5
1416
330
1413
100
AcDbEntity
  8
AM_0 ( Kontur 0.5 )
 62
     3
  0
ARC
  5
1417
330
74
100
AcDbEntity
  8
AM_0 ( Kontur 0.5 )
100
AcDbCircle
 10
3594.031720863755
 20
3489.7592253264
 30
0.0
 40
1.99999996996301
100
AcDbArc
 50
90.0
 51
180.0
  0
LINE
  5
1418
330
74
100
AcDbEntity
  8
AM_0 ( Kontur 0.5 )
100
AcDbLine
 10
3534.619384213414
 20
3483.25922570937
 30
-14.43026635547528
 11
3522.617837215784
 21
3490.759225596729
 31
-19.40146989134918
  0
ARC
  5
1419
330
74
100
AcDbEntity
  8
AM_0 ( Kontur 0.5 )
100
AcDbCircle
 10
3495.031722350584
 20
3489.7592253264
 30
0.0
 40
1.99999996996301
100
AcDbArc
 50
0.0
 51
90.0
  0
ARC
  5
141A
330
74
100
AcDbEntity
  8
AM_3 ( Verdeckt )
100
AcDbCircle
 10
3586.531720976392
 20
3462.7592257319
 30
0.0
 40
1.99999996996301
100
AcDbArc
 50
270.0
 51
0.0
  0
ARC
  5
141B
330
74
100
AcDbEntity
  8
AM_3 ( Verdeckt )
100
AcDbCircle
 10
3585.058543483343
 20
3462.7592257319
 30
0.0
 40
1.99999996996301
100
AcDbArc
 50
183.000000000006
 51
270.0
  0
ARC
  5
141C
330
74
100
AcDbEntity
  8
AM_3 ( Verdeckt )
100
AcDbCircle
 10
3568.004898769814
 20
3462.7592257319
 30
0.0
 40
1.99999996996301
100
AcDbArc
 50
270.0
 51
356.999999999994
  0
LINE
  5
141D
330
74
100
AcDbEntity
  8
AM_0 ( Kontur 0.5 )
100
AcDbLine
 10
3601.281720754864
 20
3491.759225296359
 30
0.0
 11
3592.031720893793
 21
3491.759225296359
 31
0.0
  0
LINE
  5
141E
330
74
100
AcDbEntity
  8
AM_3 ( Verdeckt )
100
AcDbLine
 10
3593.281720875013
 20
3497.059225216761
 30
0.0
 11
3589.381720933584
 21
3497.059225216761
 31
0.0
  0
ARC
  5
141F
330
74
100
AcDbEntity
  8
AM_0 ( Kontur 0.5 )
100
AcDbCircle
 10
3541.066208324773
 20
3489.759225326395
 30
0.0000000000000142
 40
1.99999996996301
100
AcDbArc
 50
90.0
 51
180.0
  0
LINE
  5
1420
330
74
100
AcDbEntity
  8
AM_3 ( Verdeckt )
100
AcDbLine
 10
3589.381720933584
 20
3497.059225216761
 30
0.0
 11
3589.381720933584
 21
3498.75922519123
 31
0.0
  0
ARC
  5
1421
330
74
100
AcDbEntity
  8
AM_0 ( Kontur 0.5 )
100
AcDbCircle
 10
3543.142605394914
 20
3489.759225326395
 30
0.0000000000000142
 40
1.99999996996301
100
AcDbArc
 50
90.0
 51
180.0
  0
LINE
  5
1422
330
74
100
AcDbEntity
  8
AM_3 ( Verdeckt )
100
AcDbLine
 10
3593.281720875013
 20
3497.059225216761
 30
0.0
 11
3593.281720875013
 21
3498.75922519123
 31
0.0
  0
LINE
  5
1423
330
74
100
AcDbEntity
  8
AM_0 ( Kontur 0.5 )
100
AcDbLine
 10
3536.915484773113
 20
3483.25922570937
 30
-19.97354346729138
 11
3524.913937775494
 21
3490.759225596729
 31
-24.94474700316518
  0
LINE
  5
1424
330
74
100
AcDbEntity
  8
AM_0 ( Kontur 0.5 )
100
AcDbLine
 10
3524.913937775494
 20
3460.759226047289
 30
-24.94474700316529
 11
3536.915484773113
 21
3468.259225934649
 31
-19.97354346729138
  0
LINE
  5
1425
330
74
100
AcDbEntity
  8
AM_0 ( Kontur 0.5 )
100
AcDbLine
 10
3533.088650506943
 20
3483.25922570937
 30
-10.73474828093128
 11
3521.087103509313
 21
3490.759225596729
 31
-15.70595181680508
  0
LINE
  5
1426
330
74
100
AcDbEntity
  8
AM_0 ( Kontur 0.5 )
100
AcDbLine
 10
3530.027183093993
 20
3468.259225934649
 30
-3.343712131843183
 11
3518.025636096373
 21
3460.759226047289
 31
-8.314915667717077
  0
POLYLINE
  5
1427
330
74
100
AcDbEntity
  8
AM_0 ( Kontur 0.5 )
100
AcDb2dPolyline
 66
     1
 10
0.0
 20
0.0
 30
-39.90391037738618
  0
VERTEX
  5
1428
330
1427
100
AcDbEntity
  8
AM_0 ( Kontur 0.5 )
 62
     3
100
AcDbVertex
100
AcDb2dVertex
 10
3521.145626180305
 20
3460.795798001379
 30
-39.90391037738618
  0
VERTEX
  5
1429
330
1427
100
AcDbEntity
  8
AM_0 ( Kontur 0.5 )
 62
     3
100
AcDbVertex
100
AcDb2dVertex
 10
3523.382822589435
 20
3460.267988213259
 30
-39.90391037738618
  0
VERTEX
  5
142A
330
1427
100
AcDbEntity
  8
AM_0 ( Kontur 0.5 )
 62
     3
100
AcDbVertex
100
AcDb2dVertex
 10
3525.684230406663
 20
3460.146540470859
 30
-39.90391037738618
  0
VERTEX
  5
142B
330
1427
100
AcDbEntity
  8
AM_0 ( Kontur 0.5 )
 62
     3
100
AcDbVertex
100
AcDb2dVertex
 10
3527.968675078054
 20
3460.438575715719
 30
-39.90391037738618
  0
VERTEX
  5
142C
330
1427
100
AcDbEntity
  8
AM_0 ( Kontur 0.5 )
 62
     3
100
AcDbVertex
100
AcDb2dVertex
 10
3530.156874501104
 20
3461.127145476229
 30
-39.90391037738618
  0
VERTEX
  5
142D
330
1427
100
AcDbEntity
  8
AM_0 ( Kontur 0.5 )
 62
     3
100
AcDbVertex
100
AcDb2dVertex
 10
3532.179797425524
 20
3462.174585874191
 30
-39.90391037738618
  0
VERTEX
  5
142E
330
1427
100
AcDbEntity
  8
AM_0 ( Kontur 0.5 )
 62
     3
100
AcDbVertex
100
AcDb2dVertex
 10
3533.984132666573
 20
3463.52936255062
 30
-39.90391037738618
  0
VERTEX
  5
142F
330
1427
100
AcDbEntity
  8
AM_0 ( Kontur 0.5 )
 62
     3
100
AcDbVertex
100
AcDb2dVertex
 10
3535.533871764163
 20
3465.13402303212
 30
-39.90391037738618
  0
VERTEX
  5
1430
330
1427
100
AcDbEntity
  8
AM_0 ( Kontur 0.5 )
 62
     3
100
AcDbVertex
100
AcDb2dVertex
 10
3536.808504527343
 20
3466.932017190128
 30
-39.90391037738618
  0
VERTEX
  5
1431
330
1427
100
AcDbEntity
  8
AM_0 ( Kontur 0.5 )
 62
     3
100
AcDbVertex
100
AcDb2dVertex
 10
3537.799200319835
 20
3468.872125255239
 30
-39.90391037738618
  0
VERTEX
  5
1432
330
1427
100
AcDbEntity
  8
AM_0 ( Kontur 0.5 )
 62
     3
100
AcDbVertex
100
AcDb2dVertex
 10
3538.504421298205
 20
3470.91030247422
 30
-39.90391037738618
  0
VERTEX
  5
1433
330
1427
100
AcDbEntity
  8
AM_0 ( Kontur 0.5 )
 62
     3
100
AcDbVertex
100
AcDb2dVertex
 10
3538.925999617423
 20
3473.009423042089
 30
-39.90391037738618
  0
VERTEX
  5
1434
330
1427
100
AcDbEntity
  8
AM_0 ( Kontur 0.5 )
 62
     3
100
AcDbVertex
100
AcDb2dVertex
 10
3539.066208354813
 20
3475.137616246809
 30
-39.90391037738618
  0
SEQEND
  5
1435
330
1427
100
AcDbEntity
  8
AM_0 ( Kontur 0.5 )
 62
     3
  0
ARC
  5
1436
330
74
100
AcDbEntity
  8
AM_0 ( Kontur 0.5 )
100
AcDbCircle
 10
3475.75922582201
 20
3244.278261015927
 30
1348.824055749785
 40
13.2499998010048
210
0.38268343236509
220
0.0
230
-0.9238795325112867
100
AcDbArc
 50
1.217407076742169
 51
180.0
  0
LINE
  5
1437
330
74
100
AcDbEntity
  8
AM_0 ( Kontur 0.5 )
100
AcDbLine
 10
3518.025636096373
 20
3490.759225596729
 30
-39.90391037738618
 11
3530.027183093993
 21
3483.25922570937
 31
-39.90391037738618
  0
LINE
  5
1438
330
74
100
AcDbEntity
  8
AM_0 ( Kontur 0.5 )
100
AcDbLine
 10
3541.142605424953
 20
3475.137615418959
 30
-39.90391037738618
 11
3541.142605424953
 21
3489.78268919634
 31
-39.90391037738618
  0
LINE
  5
1439
330
74
100
AcDbEntity
  8
AM_0 ( Kontur 0.5 )
100
AcDbLine
 10
3522.617837215784
 20
3490.759225596729
 30
-19.40146989134918
 11
3521.852470362553
 21
3490.28093298044
 31
-19.71849522215008
  0
LINE
  5
143A
330
74
100
AcDbEntity
  8
AM_3 ( Verdeckt )
100
AcDbLine
 10
3576.531721126573
 20
3460.82334097462
 30
0.0
 11
3574.910721150923
 21
3461.75922574692
 31
0.0
  0
LINE
  5
143B
330
74
100
AcDbEntity
  8
AM_0 ( Kontur 0.5 )
100
AcDbLine
 10
3518.025636096373
 20
3490.759225596729
 30
-8.314915667716983
 11
3515.245369375842
 21
3489.02178290747
 31
-9.466539850374783
  0
ARC
  5
143C
330
74
100
AcDbEntity
  8
AM_0 ( Kontur 0.5 )
100
AcDbCircle
 10
-3589.031720938844
 20
3459.759225776951
 30
0.0
 40
2.99999995494452
210
0.0
220
0.0
230
-1.0
100
AcDbArc
 50
180.0
 51
270.0
  0
LINE
  5
143D
330
74
100
AcDbEntity
  8
AM_3 ( Verdeckt )
100
AcDbLine
 10
3571.531721201663
 20
3472.759225581711
 30
0.0
 11
3570.531721216684
 21
3472.759225581711
 31
0.0
  0
LINE
  5
143E
330
74
100
AcDbEntity
  8
AM_0 ( Kontur 0.5 )
100
AcDbLine
 10
3592.031720893793
 20
3491.759225296359
 30
0.0
 11
3487.781722459463
 21
3491.759225296359
 31
0.0
  0
LINE
  5
143F
330
74
100
AcDbEntity
  8
AM_3 ( Verdeckt )
100
AcDbLine
 10
3574.531721156612
 20
3471.759225596731
 30
0.0
 11
3574.531721156612
 21
3463.75922571688
 31
0.0
  0
LINE
  5
1440
330
74
100
AcDbEntity
  8
AM_3 ( Verdeckt )
100
AcDbLine
 10
3582.531721036465
 20
3472.759225581711
 30
0.0
 11
3583.061284443833
 21
3462.654553820981
 31
0.0
  0
LINE
  5
1441
330
74
100
AcDbEntity
  8
AM_3 ( Verdeckt )
100
AcDbLine
 10
3578.531721096543
 20
3471.759225596731
 30
0.0
 11
3578.531721096543
 21
3463.75922571688
 31
0.0
  0
LINE
  5
1442
330
74
100
AcDbEntity
  8
AM_3 ( Verdeckt )
100
AcDbLine
 10
3578.152721102236
 20
3461.75922574692
 30
0.0
 11
3576.531721126573
 21
3460.82334097462
 31
0.0
  0
LINE
  5
1443
330
74
100
AcDbEntity
  8
AM_3 ( Verdeckt )
100
AcDbLine
 10
3578.531721096543
 20
3463.75922571688
 30
0.0
 11
3574.531721156612
 21
3463.75922571688
 31
0.0
  0
LINE
  5
1444
330
74
100
AcDbEntity
  8
AM_3 ( Verdeckt )
100
AcDbLine
 10
3570.531721216684
 20
3472.759225581711
 30
0.0
 11
3570.002157809323
 21
3462.654553820981
 31
0.0
  0
LINE
  5
1445
102
{ACAD_REACTORS
330
1905
102
}
330
74
100
AcDbEntity
  8
AM_0 ( Kontur 0.5 )
100
AcDbLine
 10
3589.031720938844
 20
3456.75922582201
 30
0.0
 11
3500.031722275493
 21
3456.75922582201
 31
0.0
  0
LINE
  5
1446
330
74
100
AcDbEntity
  8
AM_3 ( Verdeckt )
100
AcDbLine
 10
3578.152721102236
 20
3461.75922574692
 30
0.0
 11
3574.910721150923
 21
3461.75922574692
 31
0.0
  0
LINE
  5
1447
330
74
100
AcDbEntity
  8
AM_3 ( Verdeckt )
100
AcDbLine
 10
3586.531720976392
 20
3460.75922576194
 30
0.0
 11
3585.058543483343
 21
3460.75922576194
 31
0.0
  0
LINE
  5
1448
330
74
100
AcDbEntity
  8
AM_0 ( Kontur 0.5 )
100
AcDbLine
 10
3592.031720893793
 20
3459.759225776951
 30
0.0
 11
3592.031720893793
 21
3489.7592253264
 31
0.0
  0
LINE
  5
1449
330
74
100
AcDbEntity
  8
AM_3 ( Verdeckt )
100
AcDbLine
 10
3581.531721051483
 20
3471.759225596731
 30
0.0
 11
3571.531721201663
 21
3471.759225596731
 31
0.0
  0
LINE
  5
144A
330
74
100
AcDbEntity
  8
AM_3 ( Verdeckt )
100
AcDbLine
 10
3582.531721036465
 20
3472.759225581711
 30
0.0
 11
3581.531721051483
 21
3472.759225581711
 31
0.0
  0
LINE
  5
144B
330
74
100
AcDbEntity
  8
AM_3 ( Verdeckt )
100
AcDbLine
 10
3576.531721126573
 20
3473.9886731614
 30
0.0
 11
3576.531721126573
 21
3458.212938468711
 31
0.0
  0
LINE
  5
144C
330
74
100
AcDbEntity
  8
AM_0 ( Kontur 0.5 )
100
AcDbLine
 10
3497.031722320544
 20
3459.759225776951
 30
0.0
 11
3497.031722320544
 21
3489.7592253264
 31
0.0
  0
LINE
  5
144D
330
74
100
AcDbEntity
  8
AM_0 ( Kontur 0.5 )
100
AcDbLine
 10
3602.031721607164
 20
3498.75922519123
 30
0.0
 11
3487.031721607163
 21
3498.75922519123
 31
0.0
  0
LINE
  5
144E
330
74
100
AcDbEntity
  8
AM_3 ( Verdeckt )
100
AcDbLine
 10
3581.531721051483
 20
3472.759225581711
 30
0.0
 11
3581.531721051483
 21
3471.759225596731
 31
0.0
  0
LINE
  5
144F
330
74
100
AcDbEntity
  8
AM_0 ( Kontur 0.5 )
100
AcDbLine
 10
3487.781722459463
 20
3491.759225296359
 30
0.0
 11
3487.781722459463
 21
3498.75922519123
 31
0.0
  0
LINE
  5
1451
330
74
100
AcDbEntity
  8
AM_3 ( Verdeckt )
100
AcDbLine
 10
3571.531721201663
 20
3472.759225581711
 30
0.0
 11
3571.531721201663
 21
3471.759225596731
 31
0.0
  0
LINE
  5
1452
330
74
100
AcDbEntity
  8
AM_0 ( Kontur 0.5 )
100
AcDbLine
 10
3566.445605998552
 20
3460.759226047289
 30
-19.40146989134918
 11
3564.149505438842
 21
3460.759226047289
 31
-24.94474700316529
  0
LINE
  5
1453
330
74
100
AcDbEntity
  8
AM_3 ( Verdeckt )
100
AcDbLine
 10
3578.152721102236
 20
3471.759225596731
 30
0.0
 11
3578.152721102236
 21
3461.75922574692
 31
0.0
  0
LINE
  5
1454
330
74
100
AcDbEntity
  8
AM_0 ( Kontur 0.5 )
100
AcDbLine
 10
3601.281720754864
 20
3491.759225296359
 30
0.0
 11
3601.281720754864
 21
3498.75922519123
 31
0.0
  0
LINE
  5
1455
330
74
100
AcDbEntity
  8
AM_3 ( Verdeckt )
100
AcDbLine
 10
3574.910721150923
 20
3471.759225596731
 30
0.0
 11
3574.910721150923
 21
3461.75922574692
 31
0.0
  0
ARC
  5
1456
330
74
100
AcDbEntity
  8
AM_0 ( Kontur 0.5 )
100
AcDbCircle
 10
-3500.031722275493
 20
3459.759225776951
 30
0.0
 40
2.99999995494452
210
0.0
220
0.0
230
-1.0
100
AcDbArc
 50
270.0
 51
0.0
  0
LINE
  5
1457
330
74
100
AcDbEntity
  8
AM_3 ( Verdeckt )
100
AcDbLine
 10
3588.531720946354
 20
3498.75922519123
 30
0.0
 11
3588.531720946354
 21
3462.7592257319
 31
0.0
  0
LINE
  5
1458
330
74
100
AcDbEntity
  8
AM_0 ( Kontur 0.5 )
100
AcDbLine
 10
3571.037807117964
 20
3490.759225596729
 30
-8.314915667716983
 11
3573.818073838494
 21
3489.02178290747
 31
-9.466539850374783
  0
LINE
  5
1459
330
74
100
AcDbEntity
  8
AM_0 ( Kontur 0.5 )
100
AcDbLine
 10
3552.147958441222
 20
3483.25922570937
 30
-19.97354346729138
 11
3564.149505438842
 21
3490.759225596729
 31
-24.94474700316518
  0
LINE
  5
145A
330
74
100
AcDbEntity
  8
AM_0 ( Kontur 0.5 )
100
AcDbLine
 10
3571.037807117964
 20
3490.759225596729
 30
-39.90391037738618
 11
3559.036260120343
 21
3483.25922570937
 31
-39.90391037738618
  0
LINE
  5
145B
330
74
100
AcDbEntity
  8
AM_0 ( Kontur 0.5 )
100
AcDbLine
 10
3559.036260120343
 20
3468.259225934649
 30
-3.343712131843183
 11
3571.037807117964
 21
3460.759226047289
 31
-8.314915667717077
  0
LINE
  5
145C
330
74
100
AcDbEntity
  8
AM_0 ( Kontur 0.5 )
100
AcDbLine
 10
3554.444059000922
 20
3483.25922570937
 30
-14.43026635547528
 11
3566.445605998552
 21
3490.759225596729
 31
-19.40146989134918
  0
POLYLINE
  5
145D
330
74
100
AcDbEntity
  8
AM_0 ( Kontur 0.5 )
100
AcDb2dPolyline
 66
     1
 10
0.0
 20
0.0
 30
39.90391037738618
210
0.0
220
0.0
230
-1.0
  0
VERTEX
  5
145E
330
145D
100
AcDbEntity
  8
AM_0 ( Kontur 0.5 )
 62
     3
100
AcDbVertex
100
AcDb2dVertex
 10
-3567.917817034034
 20
3460.795798001379
 30
39.90391037738618
  0
VERTEX
  5
145F
330
145D
100
AcDbEntity
  8
AM_0 ( Kontur 0.5 )
 62
     3
100
AcDbVertex
100
AcDb2dVertex
 10
-3565.680620624905
 20
3460.267988213259
 30
39.90391037738618
  0
VERTEX
  5
1460
330
145D
100
AcDbEntity
  8
AM_0 ( Kontur 0.5 )
 62
     3
100
AcDbVertex
100
AcDb2dVertex
 10
-3563.379212807672
 20
3460.146540470859
 30
39.90391037738618
  0
VERTEX
  5
1461
330
145D
100
AcDbEntity
  8
AM_0 ( Kontur 0.5 )
 62
     3
100
AcDbVertex
100
AcDb2dVertex
 10
-3561.094768136283
 20
3460.438575715719
 30
39.90391037738618
  0
VERTEX
  5
1462
330
145D
100
AcDbEntity
  8
AM_0 ( Kontur 0.5 )
 62
     3
100
AcDbVertex
100
AcDb2dVertex
 10
-3558.906568713233
 20
3461.127145476229
 30
39.90391037738618
  0
VERTEX
  5
1463
330
145D
100
AcDbEntity
  8
AM_0 ( Kontur 0.5 )
 62
     3
100
AcDbVertex
100
AcDb2dVertex
 10
-3556.883645788815
 20
3462.174585874191
 30
39.90391037738618
  0
VERTEX
  5
1464
330
145D
100
AcDbEntity
  8
AM_0 ( Kontur 0.5 )
 62
     3
100
AcDbVertex
100
AcDb2dVertex
 10
-3555.079310547763
 20
3463.52936255062
 30
39.90391037738618
  0
VERTEX
  5
1465
330
145D
100
AcDbEntity
  8
AM_0 ( Kontur 0.5 )
 62
     3
100
AcDbVertex
100
AcDb2dVertex
 10
-3553.529571450165
 20
3465.13402303212
 30
39.90391037738618
  0
VERTEX
  5
1466
330
145D
100
AcDbEntity
  8
AM_0 ( Kontur 0.5 )
 62
     3
100
AcDbVertex
100
AcDb2dVertex
 10
-3552.254938686993
 20
3466.932017190128
 30
39.90391037738618
  0
VERTEX
  5
1467
330
145D
100
AcDbEntity
  8
AM_0 ( Kontur 0.5 )
 62
     3
100
AcDbVertex
100
AcDb2dVertex
 10
-3551.264242894504
 20
3468.872125255239
 30
39.90391037738618
  0
VERTEX
  5
1468
330
145D
100
AcDbEntity
  8
AM_0 ( Kontur 0.5 )
 62
     3
100
AcDbVertex
100
AcDb2dVertex
 10
-3550.559021916134
 20
3470.91030247422
 30
39.90391037738618
  0
VERTEX
  5
1469
330
145D
100
AcDbEntity
  8
AM_0 ( Kontur 0.5 )
 62
     3
100
AcDbVertex
100
AcDb2dVertex
 10
-3550.137443596913
 20
3473.009423042089
 30
39.90391037738618
  0
VERTEX
  5
146A
330
145D
100
AcDbEntity
  8
AM_0 ( Kontur 0.5 )
 62
     3
100
AcDbVertex
100
AcDb2dVertex
 10
-3549.997234859523
 20
3475.137616246809
 30
39.90391037738618
  0
SEQEND
  5
146B
330
145D
100
AcDbEntity
  8
AM_0 ( Kontur 0.5 )
 62
     3
  0
ARC
  5
146C
330
74
100
AcDbEntity
  8
AM_0 ( Kontur 0.5 )
100
AcDbCircle
 10
-3547.997234889554
 20
3489.759225326395
 30
-0.0000000000000142
 40
1.99999996996301
210
0.0
220
0.0
230
-1.0
100
AcDbArc
 50
90.0
 51
180.0
  0
LINE
  5
146D
330
74
100
AcDbEntity
  8
AM_0 ( Kontur 0.5 )
100
AcDbLine
 10
3566.445605998552
 20
3490.759225596729
 30
-19.40146989134918
 11
3567.210972851784
 21
3490.28093298044
 31
-19.71849522215008
  0
POLYLINE
  5
146E
330
74
100
AcDbEntity
  8
AM_0 ( Kontur 0.5 )
100
AcDb2dPolyline
 66
     1
 10
0.0
 20
0.0
 30
39.90391037738618
210
0.0
220
0.0
230
-1.0
  0
VERTEX
  5
146F
330
146E
100
AcDbEntity
  8
AM_0 ( Kontur 0.5 )
 62
     3
100
AcDbVertex
100
AcDb2dVertex
 10
-3561.780837581222
 20
3460.137616472089
 30
39.90391037738618
  0
VERTEX
  5
1470
330
146E
100
AcDbEntity
  8
AM_0 ( Kontur 0.5 )
 62
     3
100
AcDbVertex
100
AcDb2dVertex
 10
-3559.439222611985
 20
3460.35324118801
 30
39.90391037738618
  0
VERTEX
  5
1471
330
146E
100
AcDbEntity
  8
AM_0 ( Kontur 0.5 )
 62
     3
100
AcDbVertex
100
AcDb2dVertex
 10
-3557.183027883784
 20
3460.987013033939
 30
39.90391037738618
  0
VERTEX
  5
1472
330
146E
100
AcDbEntity
  8
AM_0 ( Kontur 0.5 )
 62
     3
100
AcDbVertex
100
AcDb2dVertex
 10
-3555.088081143504
 20
3462.002342151349
 30
39.90391037738618
  0
VERTEX
  5
1473
330
146E
100
AcDbEntity
  8
AM_0 ( Kontur 0.5 )
 62
     3
100
AcDbVertex
100
AcDb2dVertex
 10
-3553.213876215655
 20
3463.346205509859
 30
39.90391037738618
  0
VERTEX
  5
1474
330
146E
100
AcDbEntity
  8
AM_0 ( Kontur 0.5 )
 62
     3
100
AcDbVertex
100
AcDb2dVertex
 10
-3551.601146563733
 20
3464.957925229319
 30
39.90391037738618
  0
VERTEX
  5
1475
330
146E
100
AcDbEntity
  8
AM_0 ( Kontur 0.5 )
 62
     3
100
AcDbVertex
100
AcDb2dVertex
 10
-3550.273422909073
 20
3466.776990100099
 30
39.90391037738618
  0
VERTEX
  5
1476
330
146E
100
AcDbEntity
  8
AM_0 ( Kontur 0.5 )
 62
     3
100
AcDbVertex
100
AcDb2dVertex
 10
-3549.241081142673
 20
3468.748291210908
 30
39.90391037738618
  0
VERTEX
  5
1477
330
146E
100
AcDbEntity
  8
AM_0 ( Kontur 0.5 )
 62
     3
100
AcDbVertex
100
AcDb2dVertex
 10
-3548.506190726434
 20
3470.824422023149
 30
39.90391037738618
  0
VERTEX
  5
1478
330
146E
100
AcDbEntity
  8
AM_0 ( Kontur 0.5 )
 62
     3
100
AcDbVertex
100
AcDb2dVertex
 10
-3548.066918754873
 20
3472.96554488884
 30
39.90391037738618
  0
VERTEX
  5
1479
330
146E
100
AcDbEntity
  8
AM_0 ( Kontur 0.5 )
 62
     3
100
AcDbVertex
100
AcDb2dVertex
 10
-3547.920837789384
 20
3475.137616246809
 30
39.90391037738618
  0
SEQEND
  5
147A
330
146E
100
AcDbEntity
  8
AM_0 ( Kontur 0.5 )
 62
     3
  0
LINE
  5
147B
330
74
100
AcDbEntity
  8
AM_0 ( Kontur 0.5 )
100
AcDbLine
 10
3554.444059000922
 20
3483.25922570937
 30
-14.43026635547528
 11
3552.147958441222
 21
3483.25922570937
 31
-19.97354346729138
  0
LINE
  5
147C
330
74
100
AcDbEntity
  8
AM_0 ( Kontur 0.5 )
100
AcDbLine
 10
3554.444059000922
 20
3468.259225934649
 30
-14.43026635547528
 11
3552.147958441222
 21
3468.259225934649
 31
-19.97354346729138
  0
LINE
  5
147D
330
74
100
AcDbEntity
  8
AM_0 ( Kontur 0.5 )
100
AcDbLine
 10
3555.974792707392
 20
3468.259225934649
 30
-10.73474828093128
 11
3559.036260120343
 21
3468.259225934649
 31
-3.343712131843183
  0
LINE
  5
147E
330
74
100
AcDbEntity
  8
AM_0 ( Kontur 0.5 )
100
AcDbLine
 10
3555.974792707392
 20
3483.25922570937
 30
-10.73474828093128
 11
3559.036260120343
 21
3483.25922570937
 31
-3.343712131842976
  0
LINE
  5
147F
330
74
100
AcDbEntity
  8
AM_0 ( Kontur 0.5 )
100
AcDbLine
 10
3554.444059000922
 20
3468.259225934649
 30
-14.43026635547528
 11
3554.444059000922
 21
3483.25922570937
 31
-14.43026635547528
  0
LINE
  5
1480
330
74
100
AcDbEntity
  8
AM_0 ( Kontur 0.5 )
100
AcDbLine
 10
3559.036260120343
 20
3483.25922570937
 30
-39.90391037738618
 11
3559.036260120343
 21
3468.259225934649
 31
-3.343712131843183
  0
LINE
  5
1481
330
74
100
AcDbEntity
  8
AM_0 ( Kontur 0.5 )
100
AcDbLine
 10
3571.806084527013
 20
3489.009225623009
 30
-8.874343453230984
 11
3575.45505188447
 21
3489.031999661045
 31
-38.034208528035
  0
LINE
  5
1482
330
74
100
AcDbEntity
  8
AM_0 ( Kontur 0.5 )
100
AcDbLine
 10
3552.147958441222
 20
3468.259225934649
 30
-19.97354346729138
 11
3552.147958441222
 21
3483.25922570937
 31
-19.97354346729138
  0
LINE
  5
1483
330
74
100
AcDbEntity
  8
AM_0 ( Kontur 0.5 )
100
AcDbLine
 10
3549.997234859523
 20
3475.137616246809
 30
-39.90391037738618
 11
3549.997234859523
 21
3489.757822206831
 31
-39.90391037738618
  0
LINE
  5
1484
330
74
100
AcDbEntity
  8
AM_0 ( Kontur 0.5 )
100
AcDbLine
 10
3555.974792707392
 20
3468.259225934649
 30
-10.73474828093128
 11
3555.974792707392
 21
3483.25922570937
 31
-10.73474828093128
  0
ARC
  5
1485
330
74
100
AcDbEntity
  8
AM_0 ( Kontur 0.5 )
100
AcDbCircle
 10
-3579.717234413172
 20
3489.759225326395
 30
-0.0000000000000142
 40
1.99999996996301
210
0.0
220
0.0
230
-1.0
100
AcDbArc
 50
0.0
 51
90.0
  0
LINE
  5
1486
330
74
100
AcDbEntity
  8
AM_0 ( Kontur 0.5 )
100
AcDbLine
 10
3577.717234443205
 20
3488.782602491461
 30
-39.90391037738618
 11
3577.717234443205
 21
3489.772814688296
 31
-39.90391037738618
  0
POLYLINE
  5
1487
330
74
100
AcDbEntity
  8
AM_0 ( Kontur 0.5 )
100
AcDb3dPolyline
 66
     1
 10
0.0
 20
0.0
 30
0.0
 70
     8
  0
VERTEX
  5
1488
330
1487
100
AcDbEntity
  8
AM_0 ( Kontur 0.5 )
 62
     3
100
AcDbVertex
100
AcDb3dPolylineVertex
 10
3575.491804234044
 20
3462.514072216329
 30
-4.600810190802177
 70
    32
  0
VERTEX
  5
1489
330
1487
100
AcDbEntity
  8
AM_0 ( Kontur 0.5 )
 62
     3
100
AcDbVertex
100
AcDb3dPolylineVertex
 10
3577.427610170992
 20
3462.653522701609
 30
-5.070034806766884
 70
    32
  0
VERTEX
  5
148A
330
1487
100
AcDbEntity
  8
AM_0 ( Kontur 0.5 )
 62
     3
100
AcDbVertex
100
AcDb3dPolylineVertex
 10
3579.317931887465
 20
3463.106478224929
 30
-5.530262023359084
 70
    32
  0
VERTEX
  5
148B
330
1487
100
AcDbEntity
  8
AM_0 ( Kontur 0.5 )
 62
     3
100
AcDbVertex
100
AcDb3dPolylineVertex
 10
3581.116273120724
 20
3463.855980125289
 30
-5.971827586714281
 70
    32
  0
VERTEX
  5
148C
330
1487
100
AcDbEntity
  8
AM_0 ( Kontur 0.5 )
 62
     3
100
AcDbVertex
100
AcDb3dPolylineVertex
 10
3582.779820652263
 20
3464.881999388359
 30
-6.385055269265079
 70
    32
  0
VERTEX
  5
148D
330
1487
100
AcDbEntity
  8
AM_0 ( Kontur 0.5 )
 62
     3
100
AcDbVertex
100
AcDb3dPolylineVertex
 10
3584.270399349413
 20
3466.158038874539
 30
-6.760316392230079
 70
    32
  0
VERTEX
  5
148E
330
1487
100
AcDbEntity
  8
AM_0 ( Kontur 0.5 )
 62
     3
100
AcDbVertex
100
AcDb3dPolylineVertex
 10
3585.555092807943
 20
3467.652358849669
 30
-7.088264099116576
 70
    32
  0
VERTEX
  5
148F
330
1487
100
AcDbEntity
  8
AM_0 ( Kontur 0.5 )
 62
     3
100
AcDbVertex
100
AcDb3dPolylineVertex
 10
3586.606546213843
 20
3469.329118857189
 30
-7.360198787450982
 70
    32
  0
VERTEX
  5
1490
330
1487
100
AcDbEntity
  8
AM_0 ( Kontur 0.5 )
 62
     3
100
AcDbVertex
100
AcDb3dPolylineVertex
 10
3587.403055730764
 20
3471.14935039477
 30
-7.568504159553982
 70
    32
  0
VERTEX
  5
1491
330
1487
100
AcDbEntity
  8
AM_0 ( Kontur 0.5 )
 62
     3
100
AcDbVertex
100
AcDb3dPolylineVertex
 10
3587.928567411863
 20
3473.071774725949
 30
-7.70709148392698
 70
    32
  0
VERTEX
  5
1492
330
1487
100
AcDbEntity
  8
AM_0 ( Kontur 0.5 )
 62
     3
100
AcDbVertex
100
AcDb3dPolylineVertex
 10
3588.172656763644
 20
3475.053524469999
 30
-7.771785832925082
 70
    32
  0
VERTEX
  5
1493
330
1487
100
AcDbEntity
  8
AM_0 ( Kontur 0.5 )
 62
     3
100
AcDbVertex
100
AcDb3dPolylineVertex
 10
3588.130522892694
 20
3477.05082271102
 30
-7.760603778015576
 70
    32
  0
VERTEX
  5
1494
330
1487
100
AcDbEntity
  8
AM_0 ( Kontur 0.5 )
 62
     3
100
AcDbVertex
100
AcDb3dPolylineVertex
 10
3587.802991306383
 20
3479.019654517119
 30
-7.673889072895781
 70
    32
  0
VERTEX
  5
1495
330
1487
100
AcDbEntity
  8
AM_0 ( Kontur 0.5 )
 62
     3
100
AcDbVertex
100
AcDb3dPolylineVertex
 10
3587.196515191614
 20
3480.916439779929
 30
-7.514290078699886
 70
    32
  0
VERTEX
  5
1496
330
1487
100
AcDbEntity
  8
AM_0 ( Kontur 0.5 )
 62
     3
100
AcDbVertex
100
AcDb3dPolylineVertex
 10
3586.323175030183
 20
3482.698707153189
 30
-7.286579809100686
 70
    32
  0
VERTEX
  5
1497
330
1487
100
AcDbEntity
  8
AM_0 ( Kontur 0.5 )
 62
     3
100
AcDbVertex
100
AcDb3dPolylineVertex
 10
3585.200683750772
 20
3484.32577995378
 30
-6.997339491113186
 70
    32
  0
VERTEX
  5
1498
330
1487
100
AcDbEntity
  8
AM_0 ( Kontur 0.5 )
 62
     3
100
AcDbVertex
100
AcDb3dPolylineVertex
 10
3583.852404321993
 20
3485.759516758859
 30
-6.654549815646183
 70
    32
  0
VERTEX
  5
1499
330
1487
100
AcDbEntity
  8
AM_0 ( Kontur 0.5 )
 62
     3
100
AcDbVertex
100
AcDb3dPolylineVertex
 10
3582.307339926593
 20
3486.965170552669
 30
-6.267144087605487
 70
    32
  0
VERTEX
  5
149A
330
1487
100
AcDbEntity
  8
AM_0 ( Kontur 0.5 )
 62
     3
100
AcDbVertex
100
AcDb3dPolylineVertex
 10
3580.599997965334
 20
3487.912420958779
 30
-5.844584698909784
 70
    32
  0
VERTEX
  5
149B
330
1487
100
AcDbEntity
  8
AM_0 ( Kontur 0.5 )
 62
     3
100
AcDbVertex
100
AcDb3dPolylineVertex
 10
3578.769969165973
 20
3488.576552381739
 30
-5.396524364815284
 70
    32
  0
VERTEX
  5
149C
330
1487
100
AcDbEntity
  8
AM_0 ( Kontur 0.5 )
 62
     3
100
AcDbVertex
100
AcDb3dPolylineVertex
 10
3576.861440707534
 20
3488.93964524814
 30
-4.932678591250486
 70
    32
  0
VERTEX
  5
149D
330
1487
100
AcDbEntity
  8
AM_0 ( Kontur 0.5 )
 62
     3
100
AcDbVertex
100
AcDb3dPolylineVertex
 10
3575.568540779764
 20
3489.009225623019
 30
-4.619397593279579
 70
    32
  0
SEQEND
  5
149E
330
1487
100
AcDbEntity
  8
AM_0 ( Kontur 0.5 )
 62
     3
  0
LINE
  5
149F
330
74
100
AcDbEntity
  8
AM_0 ( Kontur 0.5 )
100
AcDbLine
 10
3547.920837789384
 20
3475.137615418959
 30
-39.90391037738618
 11
3547.920837789384
 21
3489.78268919634
 31
-39.90391037738618
  0
ARC
  5
14A0
330
74
100
AcDbEntity
  8
AM_0 ( Kontur 0.5 )
100
AcDbCircle
 10
-3545.920837819423
 20
3489.759225326395
 30
-0.0000000000000142
 40
1.99999996996301
210
0.0
220
0.0
230
-1.0
100
AcDbArc
 50
90.0
 51
180.0
  0
ARC
  5
14A1
330
74
100
AcDbEntity
  8
AM_0 ( Kontur 0.5 )
100
AcDbCircle
 10
3475.75922582201
 20
3244.278261015927
 30
1343.824055824885
 40
8.24999987610316
210
0.38268343236509
220
0.0
230
-0.9238795325112867
100
AcDbArc
 50
0.0
 51
180.0
  0
ARC
  5
14A2
330
74
100
AcDbEntity
  8
AM_0 ( Kontur 0.5 )
100
AcDbCircle
 10
3475.75922582201
 20
3244.278261015927
 30
1343.824055824885
 40
8.24999987610316
210
0.38268343236509
220
0.0
230
-0.9238795325112867
100
AcDbArc
 50
180.0
 51
0.0
  0
POLYLINE
  5
14A3
330
74
100
AcDbEntity
  8
AM_0 ( Kontur 0.5 )
100
AcDb3dPolyline
 66
     1
 10
0.0
 20
0.0
 30
0.0
 70
     8
  0
VERTEX
  5
14A4
330
14A3
100
AcDbEntity
  8
AM_0 ( Kontur 0.5 )
 62
     3
100
AcDbVertex
100
AcDb3dPolylineVertex
 10
3513.571638980283
 20
3462.514072216329
 30
-4.600810190802177
 70
    32
  0
VERTEX
  5
14A5
330
14A3
100
AcDbEntity
  8
AM_0 ( Kontur 0.5 )
 62
     3
100
AcDbVertex
100
AcDb3dPolylineVertex
 10
3511.635833043342
 20
3462.653522701609
 30
-5.070034806766884
 70
    32
  0
VERTEX
  5
14A6
330
14A3
100
AcDbEntity
  8
AM_0 ( Kontur 0.5 )
 62
     3
100
AcDbVertex
100
AcDb3dPolylineVertex
 10
3509.745511326872
 20
3463.106478224929
 30
-5.530262023359084
 70
    32
  0
VERTEX
  5
14A7
330
14A3
100
AcDbEntity
  8
AM_0 ( Kontur 0.5 )
 62
     3
100
AcDbVertex
100
AcDb3dPolylineVertex
 10
3507.947170093614
 20
3463.855980125289
 30
-5.971827586714281
 70
    32
  0
VERTEX
  5
14A8
330
14A3
100
AcDbEntity
  8
AM_0 ( Kontur 0.5 )
 62
     3
100
AcDbVertex
100
AcDb3dPolylineVertex
 10
3506.283622562063
 20
3464.881999388359
 30
-6.385055269265079
 70
    32
  0
VERTEX
  5
14A9
330
14A3
100
AcDbEntity
  8
AM_0 ( Kontur 0.5 )
 62
     3
100
AcDbVertex
100
AcDb3dPolylineVertex
 10
3504.793043864914
 20
3466.158038874539
 30
-6.760316392230079
 70
    32
  0
VERTEX
  5
14AA
330
14A3
100
AcDbEntity
  8
AM_0 ( Kontur 0.5 )
 62
     3
100
AcDbVertex
100
AcDb3dPolylineVertex
 10
3503.508350406394
 20
3467.652358849669
 30
-7.088264099116576
 70
    32
  0
VERTEX
  5
14AB
330
14A3
100
AcDbEntity
  8
AM_0 ( Kontur 0.5 )
 62
     3
100
AcDbVertex
100
AcDb3dPolylineVertex
 10
3502.456897000493
 20
3469.329118857189
 30
-7.360198787450982
 70
    32
  0
VERTEX
  5
14AC
330
14A3
100
AcDbEntity
  8
AM_0 ( Kontur 0.5 )
 62
     3
100
AcDbVertex
100
AcDb3dPolylineVertex
 10
3501.660387483573
 20
3471.14935039477
 30
-7.568504159553982
 70
    32
  0
VERTEX
  5
14AD
330
14A3
100
AcDbEntity
  8
AM_0 ( Kontur 0.5 )
 62
     3
100
AcDbVertex
100
AcDb3dPolylineVertex
 10
3501.134875802473
 20
3473.071774725949
 30
-7.70709148392698
 70
    32
  0
VERTEX
  5
14AE
330
14A3
100
AcDbEntity
  8
AM_0 ( Kontur 0.5 )
 62
     3
100
AcDbVertex
100
AcDb3dPolylineVertex
 10
3500.890786450695
 20
3475.053524469999
 30
-7.771785832925082
 70
    32
  0
VERTEX
  5
14AF
330
14A3
100
AcDbEntity
  8
AM_0 ( Kontur 0.5 )
 62
     3
100
AcDbVertex
100
AcDb3dPolylineVertex
 10
3500.932920321643
 20
3477.05082271102
 30
-7.760603778015576
 70
    32
  0
VERTEX
  5
14B0
330
14A3
100
AcDbEntity
  8
AM_0 ( Kontur 0.5 )
 62
     3
100
AcDbVertex
100
AcDb3dPolylineVertex
 10
3501.260451907962
 20
3479.019654517119
 30
-7.673889072895781
 70
    32
  0
VERTEX
  5
14B1
330
14A3
100
AcDbEntity
  8
AM_0 ( Kontur 0.5 )
 62
     3
100
AcDbVertex
100
AcDb3dPolylineVertex
 10
3501.866928022722
 20
3480.916439779929
 30
-7.514290078699886
 70
    32
  0
VERTEX
  5
14B2
330
14A3
100
AcDbEntity
  8
AM_0 ( Kontur 0.5 )
 62
     3
100
AcDbVertex
100
AcDb3dPolylineVertex
 10
3502.740268184156
 20
3482.698707153189
 30
-7.286579809100686
 70
    32
  0
VERTEX
  5
14B3
330
14A3
100
AcDbEntity
  8
AM_0 ( Kontur 0.5 )
 62
     3
100
AcDbVertex
100
AcDb3dPolylineVertex
 10
3503.862759463564
 20
3484.32577995378
 30
-6.997339491113186
 70
    32
  0
VERTEX
  5
14B4
330
14A3
100
AcDbEntity
  8
AM_0 ( Kontur 0.5 )
 62
     3
100
AcDbVertex
100
AcDb3dPolylineVertex
 10
3505.211038892343
 20
3485.759516758859
 30
-6.654549815646183
 70
    32
  0
VERTEX
  5
14B5
330
14A3
100
AcDbEntity
  8
AM_0 ( Kontur 0.5 )
 62
     3
100
AcDbVertex
100
AcDb3dPolylineVertex
 10
3506.756103287734
 20
3486.965170552669
 30
-6.267144087605487
 70
    32
  0
VERTEX
  5
14B6
330
14A3
100
AcDbEntity
  8
AM_0 ( Kontur 0.5 )
 62
     3
100
AcDbVertex
100
AcDb3dPolylineVertex
 10
3508.463445249005
 20
3487.912420958779
 30
-5.844584698909784
 70
    32
  0
VERTEX
  5
14B7
330
14A3
100
AcDbEntity
  8
AM_0 ( Kontur 0.5 )
 62
     3
100
AcDbVertex
100
AcDb3dPolylineVertex
 10
3510.293474048364
 20
3488.576552381739
 30
-5.396524364815284
 70
    32
  0
VERTEX
  5
14B8
330
14A3
100
AcDbEntity
  8
AM_0 ( Kontur 0.5 )
 62
     3
100
AcDbVertex
100
AcDb3dPolylineVertex
 10
3512.202002506804
 20
3488.93964524814
 30
-4.932678591250486
 70
    32
  0
VERTEX
  5
14B9
330
14A3
100
AcDbEntity
  8
AM_0 ( Kontur 0.5 )
 62
     3
100
AcDbVertex
100
AcDb3dPolylineVertex
 10
3513.494902434564
 20
3489.009225623019
 30
-4.619397593279579
 70
    32
  0
SEQEND
  5
14BA
330
14A3
100
AcDbEntity
  8
AM_0 ( Kontur 0.5 )
 62
     3
  0
LINE
  5
14BB
330
74
100
AcDbEntity
  8
AM_0 ( Kontur 0.5 )
100
AcDbLine
 10
3511.346208771124
 20
3488.76283901782
 30
-39.90391037738618
 11
3511.346208771124
 21
3489.758848693025
 31
-39.90391037738618
  0
ARC
  5
14BC
330
74
100
AcDbEntity
  8
AM_0 ( Kontur 0.5 )
100
AcDbCircle
 10
3509.346208801163
 20
3489.759225326395
 30
0.0000000000000142
 40
1.99999996996301
100
AcDbArc
 50
0.0
 51
90.0
  0
LINE
  5
14BD
330
74
100
AcDbEntity
  8
AM_0 ( Kontur 0.5 )
100
AcDbLine
 10
3533.088650506943
 20
3468.259225934649
 30
-10.73474828093128
 11
3533.088650506943
 21
3483.25922570937
 31
-10.73474828093128
  0
LINE
  5
14BE
330
74
100
AcDbEntity
  8
AM_0 ( Kontur 0.5 )
100
AcDbLine
 10
3539.066208354813
 20
3475.137616246809
 30
-39.90391037738618
 11
3539.066208354813
 21
3489.807541728298
 31
-39.90391037738618
  0
LINE
  5
14BF
330
74
100
AcDbEntity
  8
AM_0 ( Kontur 0.5 )
100
AcDbLine
 10
3536.915484773113
 20
3468.259225934649
 30
-19.97354346729138
 11
3536.915484773113
 21
3483.25922570937
 31
-19.97354346729138
  0
LINE
  5
14C0
330
74
100
AcDbEntity
  8
AM_0 ( Kontur 0.5 )
100
AcDbLine
 10
3517.257358687324
 20
3489.009225623009
 30
-8.874343453230984
 11
3513.374423134234
 21
3489.033459909951
 31
-39.90391037738618
  0
LINE
  5
14C1
330
74
100
AcDbEntity
  8
AM_0 ( Kontur 0.5 )
100
AcDbLine
 10
3530.027183093993
 20
3483.25922570937
 30
-39.90391037738618
 11
3530.027183093993
 21
3468.259225934649
 31
-3.343712131843183
  0
LINE
  5
14C2
330
74
100
AcDbEntity
  8
AM_0 ( Kontur 0.5 )
100
AcDbLine
 10
3534.619384213414
 20
3468.259225934649
 30
-14.43026635547528
 11
3534.619384213414
 21
3483.25922570937
 31
-14.43026635547528
  0
LINE
  5
14C3
330
74
100
AcDbEntity
  8
AM_0 ( Kontur 0.5 )
100
AcDbLine
 10
3533.088650506943
 20
3483.25922570937
 30
-10.73474828093128
 11
3530.027183093993
 21
3483.25922570937
 31
-3.343712131842976
  0
LINE
  5
14C4
330
74
100
AcDbEntity
  8
AM_0 ( Kontur 0.5 )
100
AcDbLine
 10
3533.088650506943
 20
3468.259225934649
 30
-10.73474828093128
 11
3530.027183093993
 21
3468.259225934649
 31
-3.343712131843183
  0
LINE
  5
14C5
330
74
100
AcDbEntity
  8
AM_0 ( Kontur 0.5 )
100
AcDbLine
 10
3534.619384213414
 20
3468.259225934649
 30
-14.43026635547528
 11
3536.915484773113
 21
3468.259225934649
 31
-19.97354346729138
  0
LINE
  5
14C6
330
74
100
AcDbEntity
  8
AM_0 ( Kontur 0.5 )
100
AcDbLine
 10
3534.619384213414
 20
3483.25922570937
 30
-14.43026635547528
 11
3536.915484773113
 21
3483.25922570937
 31
-19.97354346729138
  0
POLYLINE
  5
14C7
330
74
100
AcDbEntity
  8
AM_0 ( Kontur 0.5 )
100
AcDb2dPolyline
 66
     1
 10
0.0
 20
0.0
 30
-39.90391037738618
  0
VERTEX
  5
14C8
330
14C7
100
AcDbEntity
  8
AM_0 ( Kontur 0.5 )
 62
     3
100
AcDbVertex
100
AcDb2dVertex
 10
3527.282605633104
 20
3460.137616472089
 30
-39.90391037738618
  0
VERTEX
  5
14C9
330
14C7
100
AcDbEntity
  8
AM_0 ( Kontur 0.5 )
 62
     3
100
AcDbVertex
100
AcDb2dVertex
 10
3529.624220602343
 20
3460.35324118801
 30
-39.90391037738618
  0
VERTEX
  5
14CA
330
14C7
100
AcDbEntity
  8
AM_0 ( Kontur 0.5 )
 62
     3
100
AcDbVertex
100
AcDb2dVertex
 10
3531.880415330544
 20
3460.987013033939
 30
-39.90391037738618
  0
VERTEX
  5
14CB
330
14C7
100
AcDbEntity
  8
AM_0 ( Kontur 0.5 )
 62
     3
100
AcDbVertex
100
AcDb2dVertex
 10
3533.975362070822
 20
3462.002342151349
 30
-39.90391037738618
  0
VERTEX
  5
14CC
330
14C7
100
AcDbEntity
  8
AM_0 ( Kontur 0.5 )
 62
     3
100
AcDbVertex
100
AcDb2dVertex
 10
3535.849566998673
 20
3463.346205509859
 30
-39.90391037738618
  0
VERTEX
  5
14CD
330
14C7
100
AcDbEntity
  8
AM_0 ( Kontur 0.5 )
 62
     3
100
AcDbVertex
100
AcDb2dVertex
 10
3537.462296650593
 20
3464.957925229319
 30
-39.90391037738618
  0
VERTEX
  5
14CE
330
14C7
100
AcDbEntity
  8
AM_0 ( Kontur 0.5 )
 62
     3
100
AcDbVertex
100
AcDb2dVertex
 10
3538.790020305254
 20
3466.776990100099
 30
-39.90391037738618
  0
VERTEX
  5
14CF
330
14C7
100
AcDbEntity
  8
AM_0 ( Kontur 0.5 )
 62
     3
100
AcDbVertex
100
AcDb2dVertex
 10
3539.822362071654
 20
3468.748291210908
 30
-39.90391037738618
  0
VERTEX
  5
14D0
330
14C7
100
AcDbEntity
  8
AM_0 ( Kontur 0.5 )
 62
     3
100
AcDbVertex
100
AcDb2dVertex
 10
3540.557252487893
 20
3470.824422023149
 30
-39.90391037738618
  0
VERTEX
  5
14D1
330
14C7
100
AcDbEntity
  8
AM_0 ( Kontur 0.5 )
 62
     3
100
AcDbVertex
100
AcDb2dVertex
 10
3540.996524459455
 20
3472.96554488884
 30
-39.90391037738618
  0
VERTEX
  5
14D2
330
14C7
100
AcDbEntity
  8
AM_0 ( Kontur 0.5 )
 62
     3
100
AcDbVertex
100
AcDb2dVertex
 10
3541.142605424943
 20
3475.137616246809
 30
-39.90391037738618
  0
SEQEND
  5
14D3
330
14C7
100
AcDbEntity
  8
AM_0 ( Kontur 0.5 )
 62
     3
  0
LINE
  5
14D4
102
{ACAD_REACTORS
330
1905
330
19BB
102
}
330
74
100
AcDbEntity
  8
AM_0 ( Kontur 0.5 )
100
AcDbLine
 10
3602.031721607164
 20
3508.75922504105
 30
0.0
 11
3487.031721607163
 21
3508.75922504105
 31
0.0
  0
LINE
  5
14D7
330
74
100
AcDbEntity
  8
AM_0 ( Kontur 0.5 )
100
AcDbLine
 10
3539.531721682263
 20
3508.759225897104
 30
0.0
 11
3549.531721532073
 21
3508.759225897104
 31
0.0
  0
LINE
  5
14D9
330
74
100
AcDbEntity
  8
AM_0 ( Kontur 0.5 )
100
AcDbLine
 10
3571.806084527013
 20
3462.509226020999
 30
-8.874343453231382
 11
3575.544865414933
 21
3462.508962120269
 31
-39.90391037738618
  0
LINE
  5
14DA
330
74
100
AcDbEntity
  8
AM_0 ( Kontur 0.5 )
100
AcDbLine
 10
3539.531721682263
 20
3508.759225897104
 30
0.0
 11
3539.809697530173
 21
3511.936504377614
 31
0.0
  0
LINE
  5
14DB
330
74
100
AcDbEntity
  8
AM_0 ( Kontur 0.5 )
100
AcDbLine
 10
3549.531721532073
 20
3508.759225897104
 30
0.0
 11
3549.253745684163
 21
3511.936504377614
 31
0.0
  0
ARC
  5
14DC
330
74
100
AcDbEntity
  8
AM_0 ( Kontur 0.5 )
100
AcDbCircle
 10
3540.805892213303
 20
3511.849348636174
 30
0.0
 40
0.999999984981507
100
AcDbArc
 50
117.4469642044702
 51
174.9999999999994
  0
ARC
  5
14DD
330
74
100
AcDbEntity
  8
AM_0 ( Kontur 0.5 )
100
AcDbCircle
 10
3548.257551001035
 20
3511.849348636174
 30
0.0
 40
0.999999984981507
100
AcDbArc
 50
5.000000000000611
 51
62.55303579552968
  0
LINE
  5
14DE
330
74
100
AcDbEntity
  8
AM_0 ( Kontur 0.5 )
100
AcDbLine
 10
3544.531721607164
 20
3511.259225859554
 30
0.0
 11
3546.531721577134
 21
3513.536306954364
 31
0.0
  0
LINE
  5
14DF
330
74
100
AcDbEntity
  8
AM_0 ( Kontur 0.5 )
100
AcDbLine
 10
3542.531721637203
 20
3513.536306954364
 30
0.0
 11
3544.531721607164
 21
3511.259225859554
 31
0.0
  0
ARC
  5
14E0
330
74
100
AcDbEntity
  8
AM_0 ( Kontur 0.5 )
100
AcDbCircle
 10
3544.531721607164
 20
3504.675892625094
 30
0.0
 40
9.08333319691534
100
AcDbArc
 50
62.55303579552968
 51
117.4469642044702
  0
LINE
  5
14E1
330
74
100
AcDbEntity
  8
AM_0 ( Kontur 0.5 )
100
AcDbLine
 10
3567.976339705023
 20
3460.759226047289
 30
-15.70595181680518
 11
3571.037807117964
 21
3460.759226047289
 31
-8.314915667717077
  0
LINE
  5
14E2
330
74
100
AcDbEntity
  8
AM_0 ( Kontur 0.5 )
100
AcDbLine
 10
3573.979474636355
 20
3462.597531230859
 30
-9.533394249828582
 11
3571.037807117964
 21
3460.759226047289
 31
-8.314915667717077
  0
LINE
  5
14E4
330
74
100
AcDbEntity
  8
AM_0 ( Kontur 0.5 )
100
AcDbLine
 10
3584.565042002714
 20
3508.759225897104
 30
0.0
 11
3594.565041852533
 21
3508.759225897104
 31
0.0
  0
LINE
  5
14E6
330
74
100
AcDbEntity
  8
AM_0 ( Kontur 0.5 )
100
AcDbLine
 10
3584.565042002714
 20
3508.759225897104
 30
0.0
 11
3584.843017850623
 21
3511.936504377614
 31
0.0
  0
LINE
  5
14E7
330
74
100
AcDbEntity
  8
AM_0 ( Kontur 0.5 )
100
AcDbLine
 10
3594.565041852533
 20
3508.759225897104
 30
0.0
 11
3594.287066004623
 21
3511.936504377614
 31
0.0
  0
ARC
  5
14E8
330
74
100
AcDbEntity
  8
AM_0 ( Kontur 0.5 )
100
AcDbCircle
 10
3585.839212533763
 20
3511.849348636174
 30
0.0
 40
0.999999984981507
100
AcDbArc
 50
117.4469642044702
 51
174.9999999999994
  0
ARC
  5
14E9
330
74
100
AcDbEntity
  8
AM_0 ( Kontur 0.5 )
100
AcDbCircle
 10
3593.290871321493
 20
3511.849348636174
 30
0.0
 40
0.999999984981507
100
AcDbArc
 50
5.000000000000611
 51
62.55303579552968
  0
LINE
  5
14EA
330
74
100
AcDbEntity
  8
AM_0 ( Kontur 0.5 )
100
AcDbLine
 10
3589.565041927623
 20
3511.259225859554
 30
0.0
 11
3591.565041897593
 21
3513.536306954364
 31
0.0
  0
LINE
  5
14EB
330
74
100
AcDbEntity
  8
AM_0 ( Kontur 0.5 )
100
AcDbLine
 10
3587.565041957663
 20
3513.536306954364
 30
0.0
 11
3589.565041927623
 21
3511.259225859554
 31
0.0
  0
ARC
  5
14EC
330
74
100
AcDbEntity
  8
AM_0 ( Kontur 0.5 )
100
AcDbCircle
 10
3589.565041927623
 20
3504.675892625094
 30
0.0
 40
9.08333319691534
100
AcDbArc
 50
62.55303579552968
 51
117.4469642044702
  0
LINE
  5
14ED
330
74
100
AcDbEntity
  8
AM_0 ( Kontur 0.5 )
100
AcDbLine
 10
3504.498401211613
 20
3508.759225897104
 30
0.0
 11
3494.498401361804
 21
3508.759225897104
 31
0.0
  0
LINE
  5
14EF
330
74
100
AcDbEntity
  8
AM_0 ( Kontur 0.5 )
100
AcDbLine
 10
3504.498401211613
 20
3508.759225897104
 30
0.0
 11
3504.220425363705
 21
3511.936504377614
 31
0.0
  0
LINE
  5
14F0
330
74
100
AcDbEntity
  8
AM_0 ( Kontur 0.5 )
100
AcDbLine
 10
3494.498401361804
 20
3508.759225897104
 30
0.0
 11
3494.776377209714
 21
3511.936504377614
 31
0.0
  0
ARC
  5
14F1
330
74
100
AcDbEntity
  8
AM_0 ( Kontur 0.5 )
100
AcDbCircle
 10
-3503.224230680574
 20
3511.849348636174
 30
0.0
 40
0.999999984981507
210
0.0
220
0.0
230
-1.0
100
AcDbArc
 50
117.4469642044702
 51
174.9999999999994
  0
ARC
  5
14F2
330
74
100
AcDbEntity
  8
AM_0 ( Kontur 0.5 )
100
AcDbCircle
 10
-3495.772571892843
 20
3511.849348636174
 30
0.0
 40
0.999999984981507
210
0.0
220
0.0
230
-1.0
100
AcDbArc
 50
5.000000000000611
 51
62.55303579552968
  0
LINE
  5
14F3
330
74
100
AcDbEntity
  8
AM_0 ( Kontur 0.5 )
100
AcDbLine
 10
3499.498401286713
 20
3511.259225859554
 30
0.0
 11
3497.498401316744
 21
3513.536306954364
 31
0.0
  0
LINE
  5
14F4
330
74
100
AcDbEntity
  8
AM_0 ( Kontur 0.5 )
100
AcDbLine
 10
3501.498401256672
 20
3513.536306954364
 30
0.0
 11
3499.498401286713
 21
3511.259225859554
 31
0.0
  0
ARC
  5
14F5
330
74
100
AcDbEntity
  8
AM_0 ( Kontur 0.5 )
100
AcDbCircle
 10
-3499.498401286713
 20
3504.675892625094
 30
0.0
 40
9.08333319691534
210
0.0
220
0.0
230
-1.0
100
AcDbArc
 50
62.55303579552968
 51
117.4469642044702
  0
ARC
  5
14F6
330
74
100
AcDbEntity
  8
AM_0 ( Kontur 0.5 )
100
AcDbCircle
 10
3475.75922582201
 20
-3305.162358843713
 30
1364.043074953265
 40
13.2499998010048
210
0.382683432365099
220
0.0
230
0.923879532511283
100
AcDbArc
 50
1.217407076742313
 51
180.0
  0
POLYLINE
  5
14F7
330
74
100
AcDbEntity
  8
AM_0 ( Kontur 0.5 )
100
AcDb3dPolyline
 66
     1
 10
0.0
 20
0.0
 30
0.0
 70
     8
  0
VERTEX
  5
14F8
330
14F7
100
AcDbEntity
  8
AM_0 ( Kontur 0.5 )
 62
     3
100
AcDbVertex
100
AcDb3dPolylineVertex
 10
3567.210972851784
 20
3490.28093298044
 30
-19.71849522215008
 70
    32
  0
VERTEX
  5
14F9
330
14F7
100
AcDbEntity
  8
AM_0 ( Kontur 0.5 )
 62
     3
100
AcDbVertex
100
AcDb3dPolylineVertex
 10
3566.445605998552
 20
3490.759225596729
 30
-19.40146989134918
 70
    32
  0
SEQEND
  5
14FA
330
14F7
100
AcDbEntity
  8
AM_0 ( Kontur 0.5 )
 62
     3
  0
LINE
  5
14FB
330
74
100
AcDbEntity
  8
AM_0 ( Kontur 0.5 )
100
AcDbLine
 10
3567.976339705023
 20
3460.759226047289
 30
-15.70595181680518
 11
3555.974792707392
 21
3468.259225934649
 31
-10.73474828093128
  0
LINE
  5
14FC
330
74
100
AcDbEntity
  8
AM_3 ( Verdeckt )
100
AcDbLine
 10
3495.781722339322
 20
3497.059225216761
 30
0.0
 11
3499.681722280743
 21
3497.059225216761
 31
0.0
  0
LINE
  5
14FD
330
74
100
AcDbEntity
  8
AM_3 ( Verdeckt )
100
AcDbLine
 10
3549.999041871823
 20
3246.533390613684
 30
0.0
 11
3548.729739792242
 21
3249.597756908944
 31
0.0
  0
LINE
  5
14FE
330
74
100
AcDbEntity
  8
AM_3 ( Verdeckt )
100
AcDbLine
 10
3576.600206198965
 20
3258.093149744914
 30
0.0
 11
3550.731579677155
 21
3247.378013799623
 31
0.0
  0
LINE
  5
14FF
330
74
100
AcDbEntity
  8
AM_3 ( Verdeckt )
100
AcDbLine
 10
3576.531721126573
 20
3306.340857733504
 30
0.0
 11
3576.531721126573
 21
3292.019261889485
 31
0.0
  0
LINE
  5
1500
330
74
100
AcDbEntity
  8
AM_3 ( Verdeckt )
100
AcDbLine
 10
3570.531721216684
 20
3301.429557666523
 30
0.0
 11
3570.531721216684
 21
3296.429557741614
 31
0.0
  0
LINE
  5
1501
330
74
100
AcDbEntity
  8
AM_3 ( Verdeckt )
100
AcDbLine
 10
3582.531721036465
 20
3301.429557666523
 30
0.0
 11
3582.531721036465
 21
3296.429557741614
 31
0.0
  0
LINE
  5
1502
330
74
100
AcDbEntity
  8
AM_3 ( Verdeckt )
100
AcDbLine
 10
3580.531721066505
 20
3294.429557771654
 30
0.0
 11
3572.531721186654
 21
3294.429557771654
 31
0.0
  0
LINE
  5
1503
330
74
100
AcDbEntity
  8
AM_3 ( Verdeckt )
100
AcDbLine
 10
3580.531721066505
 20
3303.429557636484
 30
0.0
 11
3572.531721186654
 21
3303.429557636484
 31
0.0
  0
LINE
  5
1504
330
74
100
AcDbEntity
  8
AM_3 ( Verdeckt )
100
AcDbLine
 10
3571.531721201663
 20
3303.161608448074
 30
0.0
 11
3571.531721201663
 21
3294.697506960064
 31
0.0
  0
LINE
  5
1505
330
74
100
AcDbEntity
  8
AM_3 ( Verdeckt )
100
AcDbLine
 10
3581.531721051483
 20
3303.161608448074
 30
0.0
 11
3581.531721051483
 21
3294.697506960064
 31
0.0
  0
LINE
  5
1506
330
74
100
AcDbEntity
  8
AM_3 ( Verdeckt )
100
AcDbLine
 10
3511.348015783434
 20
3258.013893412214
 30
0.0
 11
3512.617317863004
 21
3261.078259707484
 31
0.0
  0
LINE
  5
1507
330
74
100
AcDbEntity
  8
AM_3 ( Verdeckt )
100
AcDbLine
 10
3577.715427430903
 20
3258.013893412214
 30
0.0
 11
3576.446125351333
 21
3261.078259707484
 31
0.0
  0
LINE
  5
1508
330
74
100
AcDbEntity
  8
AM_3 ( Verdeckt )
100
AcDbLine
 10
3554.242321847973
 20
3248.832210820764
 30
0.0
 11
3551.487537639634
 21
3255.482848217953
 31
0.0
  0
LINE
  5
1509
330
74
100
AcDbEntity
  8
AM_3 ( Verdeckt )
100
AcDbLine
 10
3573.089464028143
 20
3256.638952723774
 30
0.0
 11
3570.334679819803
 21
3263.289590120955
 31
0.0
  0
LINE
  5
150A
330
74
100
AcDbEntity
  8
AM_3 ( Verdeckt )
100
AcDbLine
 10
3554.604923229623
 20
3249.707607994084
 30
0.0
 11
3552.165526077722
 21
3255.596833682223
 31
0.0
  0
LINE
  5
150B
330
74
100
AcDbEntity
  8
AM_3 ( Verdeckt )
100
AcDbLine
 10
3572.214066854824
 20
3257.001554105424
 30
0.0
 11
3569.774669702923
 21
3262.890779793553
 31
0.0
  0
LINE
  5
150C
330
74
100
AcDbEntity
  8
AM_3 ( Verdeckt )
100
AcDbLine
 10
3550.922921390462
 20
3246.916074040304
 30
0.0
 11
3550.731579677155
 21
3247.378013799623
 31
0.0
  0
LINE
  5
150D
330
74
100
AcDbEntity
  8
AM_3 ( Verdeckt )
100
AcDbLine
 10
3576.791547912273
 20
3257.631209985594
 30
0.0
 11
3576.600206198965
 21
3258.093149744914
 31
0.0
  0
ARC
  5
150E
330
74
100
AcDbEntity
  8
AM_3 ( Verdeckt )
100
AcDbCircle
 10
3576.531721126573
 20
3298.929557704064
 30
0.0
 40
1.99999996996301
100
AcDbArc
 50
259.9999999999961
 51
169.9999999999961
  0
CIRCLE
  5
150F
330
74
100
AcDbEntity
  8
AM_3 ( Verdeckt )
100
AcDbCircle
 10
3576.531721126573
 20
3298.929557704064
 30
0.0
 40
1.62099997565502
  0
LINE
  5
1510
330
74
100
AcDbEntity
  8
AM_7 (Mittellinie)
100
AcDbLine
 10
3559.298912274493
 20
3263.278405716864
 30
0.0
 11
3574.559391328334
 21
3226.436350216773
 31
0.0
  0
ARC
  5
1511
330
74
100
AcDbEntity
  8
AM_3 ( Verdeckt )
100
AcDbCircle
 10
3544.531721607164
 20
3298.929557704064
 30
0.0
 40
47.4999992866216
100
AcDbArc
 50
268.3814573371409
 51
271.618542662859
  0
ARC
  5
1512
330
74
100
AcDbEntity
  8
AM_3 ( Verdeckt )
100
AcDbCircle
 10
3544.531721607164
 20
3298.929557704064
 30
0.0
 40
47.4999992866216
100
AcDbArc
 50
133.3814573371702
 51
226.6185426628298
  0
LINE
  5
1513
330
74
100
AcDbEntity
  8
AM_3 ( Verdeckt )
100
AcDbLine
 10
3577.715427430903
 20
3258.013893412214
 30
0.0
 11
3549.999041871823
 21
3246.533390613684
 31
0.0
  0
LINE
  5
1514
330
74
100
AcDbEntity
  8
AM_3 ( Verdeckt )
100
AcDbLine
 10
3538.140521823873
 20
3246.916074040304
 30
0.0
 11
3538.331863537184
 21
3247.378013799623
 31
0.0
  0
LINE
  5
1515
330
74
100
AcDbEntity
  8
AM_3 ( Verdeckt )
100
AcDbLine
 10
3534.821121366364
 20
3248.832210820764
 30
0.0
 11
3537.575905574704
 21
3255.482848217953
 31
0.0
  0
LINE
  5
1516
330
74
100
AcDbEntity
  8
AM_3 ( Verdeckt )
100
AcDbLine
 10
3534.458519984713
 20
3249.707607994084
 30
0.0
 11
3536.897917136613
 21
3255.596833682223
 31
0.0
  0
LINE
  5
1517
330
74
100
AcDbEntity
  8
AM_3 ( Verdeckt )
100
AcDbLine
 10
3512.271895302063
 20
3257.631209985594
 30
0.0
 11
3512.463237015373
 21
3258.093149744914
 31
0.0
  0
LINE
  5
1518
330
74
100
AcDbEntity
  8
AM_3 ( Verdeckt )
100
AcDbLine
 10
3516.849376359515
 20
3257.001554105424
 30
0.0
 11
3519.288773511414
 21
3262.890779793553
 31
0.0
  0
LINE
  5
1519
330
74
100
AcDbEntity
  8
AM_3 ( Verdeckt )
100
AcDbLine
 10
3515.973979186194
 20
3256.638952723774
 30
0.0
 11
3518.728763394534
 21
3263.289590120955
 31
0.0
  0
LINE
  5
151A
330
74
100
AcDbEntity
  8
AM_3 ( Verdeckt )
100
AcDbLine
 10
3511.348015783434
 20
3258.013893412214
 30
0.0
 11
3539.064401342514
 21
3246.533390613684
 31
0.0
  0
LINE
  5
151B
330
74
100
AcDbEntity
  8
AM_3 ( Verdeckt )
100
AcDbLine
 10
3512.463237015373
 20
3258.093149744914
 30
0.0
 11
3538.331863537184
 21
3247.378013799623
 31
0.0
  0
LINE
  5
151C
330
74
100
AcDbEntity
  8
AM_3 ( Verdeckt )
100
AcDbLine
 10
3572.214066854824
 20
3257.001554105424
 30
0.0
 11
3554.604923229623
 21
3249.707607994084
 31
0.0
  0
LINE
  5
151D
330
74
100
AcDbEntity
  8
AM_3 ( Verdeckt )
100
AcDbLine
 10
3516.849376359515
 20
3257.001554105424
 30
0.0
 11
3534.458519984713
 21
3249.707607994084
 31
0.0
  0
LINE
  5
151E
330
74
100
AcDbEntity
  8
AM_3 ( Verdeckt )
100
AcDbLine
 10
3572.214066854824
 20
3257.001554105424
 30
0.0
 11
3573.089464028143
 21
3256.638952723774
 31
0.0
  0
LINE
  5
151F
330
74
100
AcDbEntity
  8
AM_3 ( Verdeckt )
100
AcDbLine
 10
3534.458519984713
 20
3249.707607994084
 30
0.0
 11
3534.821121366364
 21
3248.832210820764
 31
0.0
  0
LINE
  5
1520
330
74
100
AcDbEntity
  8
AM_3 ( Verdeckt )
100
AcDbLine
 10
3516.849376359515
 20
3257.001554105424
 30
0.0
 11
3515.973979186194
 21
3256.638952723774
 31
0.0
  0
LINE
  5
1521
330
74
100
AcDbEntity
  8
AM_3 ( Verdeckt )
100
AcDbLine
 10
3554.604923229623
 20
3249.707607994084
 30
0.0
 11
3554.242321847973
 21
3248.832210820764
 31
0.0
  0
ARC
  5
1522
330
74
100
AcDbEntity
  8
AM_3 ( Verdeckt )
100
AcDbCircle
 10
3543.105341977994
 20
3248.449706629094
 30
0.0
 40
2.99999995494452
100
AcDbArc
 50
88.38145733714089
 51
157.5000000000087
  0
ARC
  5
1523
330
74
100
AcDbEntity
  8
AM_3 ( Verdeckt )
100
AcDbCircle
 10
3545.958101236343
 20
3248.449706629094
 30
0.0
 40
2.99999995494452
100
AcDbArc
 50
22.49999999999124
 51
91.61854266285912
  0
ARC
  5
1524
330
74
100
AcDbEntity
  8
AM_3 ( Verdeckt )
100
AcDbCircle
 10
3579.217763907234
 20
3262.226309987334
 30
0.0
 40
2.99999995494452
100
AcDbArc
 50
133.3814573371702
 51
202.4999999999912
  0
ARC
  5
1525
330
74
100
AcDbEntity
  8
AM_3 ( Verdeckt )
100
AcDbCircle
 10
3509.845679307105
 20
3262.226309987334
 30
0.0
 40
2.99999995494452
100
AcDbArc
 50
337.5000000000087
 51
46.61854266282978
  0
LINE
  5
1526
330
74
100
AcDbEntity
  8
AM_3 ( Verdeckt )
100
AcDbLine
 10
3539.064401342514
 20
3351.325724794454
 30
0.0
 11
3540.333703422084
 21
3348.261358499194
 31
0.0
  0
LINE
  5
1527
330
74
100
AcDbEntity
  8
AM_3 ( Verdeckt )
100
AcDbLine
 10
3549.999041871823
 20
3351.325724794454
 30
0.0
 11
3548.729739792242
 21
3348.261358499194
 31
0.0
  0
LINE
  5
1528
330
74
100
AcDbEntity
  8
AM_3 ( Verdeckt )
100
AcDbLine
 10
3576.600206198965
 20
3339.765965663224
 30
0.0
 11
3550.731579677155
 21
3350.481101608514
 31
0.0
  0
LINE
  5
1529
330
74
100
AcDbEntity
  8
AM_3 ( Verdeckt )
100
AcDbLine
 10
3511.348015783434
 20
3339.845221995924
 30
0.0
 11
3512.617317863004
 21
3336.780855700654
 31
0.0
  0
LINE
  5
152A
330
74
100
AcDbEntity
  8
AM_3 ( Verdeckt )
100
AcDbLine
 10
3577.715427430903
 20
3339.845221995924
 30
0.0
 11
3576.446125351333
 21
3336.780855700654
 31
0.0
  0
LINE
  5
152B
330
74
100
AcDbEntity
  8
AM_3 ( Verdeckt )
100
AcDbLine
 10
3554.242321847973
 20
3349.026904587373
 30
0.0
 11
3551.487537639634
 21
3342.376267190183
 31
0.0
  0
LINE
  5
152C
330
74
100
AcDbEntity
  8
AM_3 ( Verdeckt )
100
AcDbLine
 10
3573.089464028143
 20
3341.220162684364
 30
0.0
 11
3570.334679819803
 21
3334.569525287184
 31
0.0
  0
LINE
  5
152D
330
74
100
AcDbEntity
  8
AM_3 ( Verdeckt )
100
AcDbLine
 10
3554.604923229623
 20
3348.151507414054
 30
0.0
 11
3552.165526077722
 21
3342.262281725913
 31
0.0
  0
LINE
  5
152E
330
74
100
AcDbEntity
  8
AM_3 ( Verdeckt )
100
AcDbLine
 10
3572.214066854824
 20
3340.857561302714
 30
0.0
 11
3569.774669702923
 21
3334.968335614584
 31
0.0
  0
LINE
  5
152F
330
74
100
AcDbEntity
  8
AM_3 ( Verdeckt )
100
AcDbLine
 10
3550.922921390462
 20
3350.943041367834
 30
0.0
 11
3550.731579677155
 21
3350.481101608514
 31
0.0
  0
LINE
  5
1530
330
74
100
AcDbEntity
  8
AM_3 ( Verdeckt )
100
AcDbLine
 10
3576.791547912273
 20
3340.227905422534
 30
0.0
 11
3576.600206198965
 21
3339.765965663224
 31
0.0
  0
ARC
  5
1531
330
74
100
AcDbEntity
  8
AM_3 ( Verdeckt )
100
AcDbCircle
 10
-3544.531721607164
 20
3298.929557704064
 30
0.0
 40
47.4999992866216
210
0.0
220
0.0
230
-1.0
100
AcDbArc
 50
88.38145733714089
 51
91.61854266285912
  0
LINE
  5
1532
330
74
100
AcDbEntity
  8
AM_3 ( Verdeckt )
100
AcDbLine
 10
3577.715427430903
 20
3339.845221995924
 30
0.0
 11
3549.999041871823
 21
3351.325724794454
 31
0.0
  0
LINE
  5
1533
330
74
100
AcDbEntity
  8
AM_3 ( Verdeckt )
100
AcDbLine
 10
3538.140521823873
 20
3350.943041367834
 30
0.0
 11
3538.331863537184
 21
3350.481101608514
 31
0.0
  0
LINE
  5
1534
330
74
100
AcDbEntity
  8
AM_3 ( Verdeckt )
100
AcDbLine
 10
3534.821121366364
 20
3349.026904587373
 30
0.0
 11
3537.575905574704
 21
3342.376267190183
 31
0.0
  0
LINE
  5
1535
330
74
100
AcDbEntity
  8
AM_3 ( Verdeckt )
100
AcDbLine
 10
3534.458519984713
 20
3348.151507414054
 30
0.0
 11
3536.897917136613
 21
3342.262281725913
 31
0.0
  0
LINE
  5
1536
330
74
100
AcDbEntity
  8
AM_3 ( Verdeckt )
100
AcDbLine
 10
3512.271895302063
 20
3340.227905422534
 30
0.0
 11
3512.463237015373
 21
3339.765965663224
 31
0.0
  0
LINE
  5
1537
330
74
100
AcDbEntity
  8
AM_3 ( Verdeckt )
100
AcDbLine
 10
3516.849376359515
 20
3340.857561302714
 30
0.0
 11
3519.288773511414
 21
3334.968335614584
 31
0.0
  0
LINE
  5
1538
330
74
100
AcDbEntity
  8
AM_3 ( Verdeckt )
100
AcDbLine
 10
3515.973979186194
 20
3341.220162684364
 30
0.0
 11
3518.728763394534
 21
3334.569525287184
 31
0.0
  0
LINE
  5
1539
330
74
100
AcDbEntity
  8
AM_3 ( Verdeckt )
100
AcDbLine
 10
3511.348015783434
 20
3339.845221995924
 30
0.0
 11
3539.064401342514
 21
3351.325724794454
 31
0.0
  0
LINE
  5
153A
330
74
100
AcDbEntity
  8
AM_3 ( Verdeckt )
100
AcDbLine
 10
3512.463237015373
 20
3339.765965663224
 30
0.0
 11
3538.331863537184
 21
3350.481101608514
 31
0.0
  0
LINE
  5
153B
330
74
100
AcDbEntity
  8
AM_3 ( Verdeckt )
100
AcDbLine
 10
3572.214066854824
 20
3340.857561302714
 30
0.0
 11
3554.604923229623
 21
3348.151507414054
 31
0.0
  0
LINE
  5
153C
330
74
100
AcDbEntity
  8
AM_3 ( Verdeckt )
100
AcDbLine
 10
3516.849376359515
 20
3340.857561302714
 30
0.0
 11
3534.458519984713
 21
3348.151507414054
 31
0.0
  0
LINE
  5
153D
330
74
100
AcDbEntity
  8
AM_3 ( Verdeckt )
100
AcDbLine
 10
3572.214066854824
 20
3340.857561302714
 30
0.0
 11
3573.089464028143
 21
3341.220162684364
 31
0.0
  0
LINE
  5
153E
330
74
100
AcDbEntity
  8
AM_3 ( Verdeckt )
100
AcDbLine
 10
3534.458519984713
 20
3348.151507414054
 30
0.0
 11
3534.821121366364
 21
3349.026904587373
 31
0.0
  0
LINE
  5
153F
330
74
100
AcDbEntity
  8
AM_3 ( Verdeckt )
100
AcDbLine
 10
3516.849376359515
 20
3340.857561302714
 30
0.0
 11
3515.973979186194
 21
3341.220162684364
 31
0.0
  0
LINE
  5
1540
330
74
100
AcDbEntity
  8
AM_3 ( Verdeckt )
100
AcDbLine
 10
3554.604923229623
 20
3348.151507414054
 30
0.0
 11
3554.242321847973
 21
3349.026904587373
 31
0.0
  0
ARC
  5
1541
330
74
100
AcDbEntity
  8
AM_3 ( Verdeckt )
100
AcDbCircle
 10
-3543.105341977994
 20
3349.409408779044
 30
0.0
 40
2.99999995494452
210
0.0
220
0.0
230
-1.0
100
AcDbArc
 50
268.3814573371409
 51
337.5000000000087
  0
ARC
  5
1542
330
74
100
AcDbEntity
  8
AM_3 ( Verdeckt )
100
AcDbCircle
 10
-3545.958101236343
 20
3349.409408779044
 30
0.0
 40
2.99999995494452
210
0.0
220
0.0
230
-1.0
100
AcDbArc
 50
202.4999999999912
 51
271.618542662859
  0
ARC
  5
1543
330
74
100
AcDbEntity
  8
AM_3 ( Verdeckt )
100
AcDbCircle
 10
-3579.217763907234
 20
3335.632805420804
 30
0.0
 40
2.99999995494452
210
0.0
220
0.0
230
-1.0
100
AcDbArc
 50
313.3814573371702
 51
22.49999999999124
  0
ARC
  5
1544
330
74
100
AcDbEntity
  8
AM_3 ( Verdeckt )
100
AcDbCircle
 10
-3509.845679307105
 20
3335.632805420804
 30
0.0
 40
2.99999995494452
210
0.0
220
0.0
230
-1.0
100
AcDbArc
 50
157.5000000000087
 51
226.6185426628298
  0
ARC
  5
1545
330
74
100
AcDbEntity
  8
AM_3 ( Verdeckt )
100
AcDbCircle
 10
3544.531721607164
 20
3298.929557704064
 30
0.0
 40
47.4999992866216
100
AcDbArc
 50
313.3814573371702
 51
46.61854266282978
  0
ARC
  5
1546
330
74
100
AcDbEntity
  8
AM_3 ( Verdeckt )
100
AcDbCircle
 10
3544.531721607164
 20
3298.929557704064
 30
0.0
 40
47.4999992866216
100
AcDbArc
 50
88.17714004771202
 51
91.82285995228795
  0
LINE
  5
1547
330
74
100
AcDbEntity
  8
AM_3 ( Verdeckt )
100
AcDbLine
 10
3581.161721057043
 20
3293.799557781114
 30
0.0
 11
3571.901721196115
 21
3293.799557781114
 31
0.0
  0
LINE
  5
1548
330
74
100
AcDbEntity
  8
AM_3 ( Verdeckt )
100
AcDbLine
 10
3583.161721027003
 20
3302.059557657064
 30
0.0
 11
3583.161721027003
 21
3295.799557751074
 31
0.0
  0
LINE
  5
1549
330
74
100
AcDbEntity
  8
AM_3 ( Verdeckt )
100
AcDbLine
 10
3581.161721057043
 20
3304.059557627024
 30
0.0
 11
3571.901721196115
 21
3304.059557627024
 31
0.0
  0
LINE
  5
154A
330
74
100
AcDbEntity
  8
AM_3 ( Verdeckt )
100
AcDbLine
 10
3569.901721226143
 20
3302.059557657064
 30
0.0
 11
3569.901721226143
 21
3295.799557751074
 31
0.0
  0
ARC
  5
154B
330
74
100
AcDbEntity
  8
AM_3 ( Verdeckt )
100
AcDbCircle
 10
3572.531721186654
 20
3296.429557741614
 30
0.0
 40
1.99999996996301
100
AcDbArc
 50
180.0
 51
270.0
  0
ARC
  5
154C
330
74
100
AcDbEntity
  8
AM_3 ( Verdeckt )
100
AcDbCircle
 10
3571.901721196115
 20
3295.799557751074
 30
0.0
 40
1.99999996996301
100
AcDbArc
 50
180.0
 51
270.0
  0
ARC
  5
154D
330
74
100
AcDbEntity
  8
AM_3 ( Verdeckt )
100
AcDbCircle
 10
3572.531721186654
 20
3301.429557666523
 30
0.0
 40
1.99999996996301
100
AcDbArc
 50
90.0
 51
180.0
  0
ARC
  5
154E
330
74
100
AcDbEntity
  8
AM_3 ( Verdeckt )
100
AcDbCircle
 10
3580.531721066505
 20
3301.429557666523
 30
0.0
 40
1.99999996996301
100
AcDbArc
 50
0.0
 51
90.0
  0
ARC
  5
154F
330
74
100
AcDbEntity
  8
AM_3 ( Verdeckt )
100
AcDbCircle
 10
3581.161721057043
 20
3302.059557657064
 30
0.0
 40
1.99999996996301
100
AcDbArc
 50
0.0
 51
90.0
  0
ARC
  5
1550
330
74
100
AcDbEntity
  8
AM_3 ( Verdeckt )
100
AcDbCircle
 10
3571.901721196115
 20
3302.059557657064
 30
0.0
 40
1.99999996996301
100
AcDbArc
 50
90.0
 51
180.0
  0
ARC
  5
1551
330
74
100
AcDbEntity
  8
AM_3 ( Verdeckt )
100
AcDbCircle
 10
3580.531721066505
 20
3296.429557741614
 30
0.0
 40
1.99999996996301
100
AcDbArc
 50
270.0
 51
0.0
  0
ARC
  5
1552
330
74
100
AcDbEntity
  8
AM_3 ( Verdeckt )
100
AcDbCircle
 10
3581.161721057043
 20
3295.799557751074
 30
0.0
 40
1.99999996996301
100
AcDbArc
 50
270.0
 51
0.0
  0
CIRCLE
  5
1553
330
74
100
AcDbEntity
  8
AM_3 ( Verdeckt )
100
AcDbCircle
 10
3544.531721607164
 20
3298.929557704064
 30
0.0
 40
44.8499993264206
  0
LINE
  5
1554
330
74
100
AcDbEntity
  8
AM_7 (Mittellinie)
100
AcDbLine
 10
3529.151920532913
 20
3336.059682044123
 30
0.0
 11
3514.504051886004
 21
3371.422765191365
 31
0.0
  0
LINE
  5
1555
330
74
100
AcDbEntity
  8
AM_7 (Mittellinie)
100
AcDbLine
 10
3529.151920532913
 20
3261.799433364013
 30
0.0
 11
3514.504051886004
 21
3226.436350216773
 31
0.0
  0
CIRCLE
  5
1556
330
74
100
AcDbEntity
  8
AM_0 ( Kontur 0.5 )
100
AcDbCircle
 10
3576.531721126573
 20
3298.929557704064
 30
0.0
 40
1.62099997565502
  0
ARC
  5
1557
330
74
100
AcDbEntity
  8
AM_2 ( Kontur 0.25)
100
AcDbCircle
 10
3576.531721126573
 20
3298.929557704064
 30
0.0
 40
1.99999996996301
100
AcDbArc
 50
79.99999999999609
 51
349.9999999999961
  0
LINE
  5
1558
330
74
100
AcDbEntity
  8
AM_0 ( Kontur 0.5 )
100
AcDbLine
 10
3581.531721051483
 20
3303.161608448074
 30
0.0
 11
3581.531721051483
 21
3294.697506960064
 31
0.0
  0
LINE
  5
1559
330
74
100
AcDbEntity
  8
AM_0 ( Kontur 0.5 )
100
AcDbLine
 10
3571.531721201663
 20
3303.161608448074
 30
0.0
 11
3571.531721201663
 21
3294.697506960064
 31
0.0
  0
LINE
  5
155A
330
74
100
AcDbEntity
  8
AM_0 ( Kontur 0.5 )
100
AcDbLine
 10
3580.531721066505
 20
3303.429557636484
 30
0.0
 11
3572.531721186654
 21
3303.429557636484
 31
0.0
  0
LINE
  5
155B
330
74
100
AcDbEntity
  8
AM_0 ( Kontur 0.5 )
100
AcDbLine
 10
3580.531721066505
 20
3294.429557771654
 30
0.0
 11
3572.531721186654
 21
3294.429557771654
 31
0.0
  0
LINE
  5
155C
330
74
100
AcDbEntity
  8
AM_0 ( Kontur 0.5 )
100
AcDbLine
 10
3582.531721036465
 20
3301.429557666523
 30
0.0
 11
3582.531721036465
 21
3296.429557741614
 31
0.0
  0
LINE
  5
155D
330
74
100
AcDbEntity
  8
AM_0 ( Kontur 0.5 )
100
AcDbLine
 10
3570.531721216684
 20
3301.429557666523
 30
0.0
 11
3570.531721216684
 21
3296.429557741614
 31
0.0
  0
LINE
  5
155E
330
74
100
AcDbEntity
  8
AM_7 (Mittellinie)
100
AcDbLine
 10
3576.531721126573
 20
3306.340857733504
 30
0.0
 11
3576.531721126573
 21
3292.019261889485
 31
0.0
  0
CIRCLE
  5
155F
330
74
100
AcDbEntity
  8
AM_0 ( Kontur 0.5 )
100
AcDbCircle
 10
3544.531721607164
 20
3298.929557704064
 30
0.0
 40
43.99999933918628
  0
LINE
  5
1560
330
74
100
AcDbEntity
  8
AM_0 ( Kontur 0.5 )
100
AcDbLine
 10
3581.161721057043
 20
3293.799557781114
 30
0.0
 11
3571.901721196115
 21
3293.799557781114
 31
0.0
  0
CIRCLE
  5
1561
330
74
100
AcDbEntity
  8
AM_3 ( Verdeckt )
100
AcDbCircle
 10
3544.531721607164
 20
3298.929557704064
 30
0.0
 40
56.7499991477005
  0
LINE
  5
1562
330
74
100
AcDbEntity
  8
AM_0 ( Kontur 0.5 )
100
AcDbLine
 10
3583.161721027003
 20
3302.059557657064
 30
0.0
 11
3583.161721027003
 21
3295.799557751074
 31
0.0
  0
LINE
  5
1563
330
74
100
AcDbEntity
  8
AM_0 ( Kontur 0.5 )
100
AcDbLine
 10
3581.161721057043
 20
3304.059557627024
 30
0.0
 11
3571.901721196115
 21
3304.059557627024
 31
0.0
  0
LINE
  5
1564
330
74
100
AcDbEntity
  8
AM_0 ( Kontur 0.5 )
100
AcDbLine
 10
3569.901721226143
 20
3302.059557657064
 30
0.0
 11
3569.901721226143
 21
3295.799557751074
 31
0.0
  0
ARC
  5
1565
330
74
100
AcDbEntity
  8
AM_0 ( Kontur 0.5 )
100
AcDbCircle
 10
3572.531721186654
 20
3296.429557741614
 30
0.0
 40
1.99999996996301
100
AcDbArc
 50
180.0
 51
270.0
  0
ARC
  5
1566
330
74
100
AcDbEntity
  8
AM_0 ( Kontur 0.5 )
100
AcDbCircle
 10
3571.901721196115
 20
3295.799557751074
 30
0.0
 40
1.99999996996301
100
AcDbArc
 50
180.0
 51
270.0
  0
ARC
  5
1567
330
74
100
AcDbEntity
  8
AM_0 ( Kontur 0.5 )
100
AcDbCircle
 10
3572.531721186654
 20
3301.429557666523
 30
0.0
 40
1.99999996996301
100
AcDbArc
 50
90.0
 51
180.0
  0
ARC
  5
1568
330
74
100
AcDbEntity
  8
AM_0 ( Kontur 0.5 )
100
AcDbCircle
 10
3580.531721066505
 20
3301.429557666523
 30
0.0
 40
1.99999996996301
100
AcDbArc
 50
0.0
 51
90.0
  0
ARC
  5
1569
330
74
100
AcDbEntity
  8
AM_0 ( Kontur 0.5 )
100
AcDbCircle
 10
3581.161721057043
 20
3302.059557657064
 30
0.0
 40
1.99999996996301
100
AcDbArc
 50
0.0
 51
90.0
  0
ARC
  5
156A
330
74
100
AcDbEntity
  8
AM_0 ( Kontur 0.5 )
100
AcDbCircle
 10
3571.901721196115
 20
3302.059557657064
 30
0.0
 40
1.99999996996301
100
AcDbArc
 50
90.0
 51
180.0
  0
ARC
  5
156B
330
74
100
AcDbEntity
  8
AM_0 ( Kontur 0.5 )
100
AcDbCircle
 10
3580.531721066505
 20
3296.429557741614
 30
0.0
 40
1.99999996996301
100
AcDbArc
 50
270.0
 51
0.0
  0
ARC
  5
156C
330
74
100
AcDbEntity
  8
AM_0 ( Kontur 0.5 )
100
AcDbCircle
 10
3581.161721057043
 20
3295.799557751074
 30
0.0
 40
1.99999996996301
100
AcDbArc
 50
270.0
 51
0.0
  0
ARC
  5
156D
330
74
100
AcDbEntity
  8
AM_7 (Mittellinie)
100
AcDbCircle
 10
3544.531721607164
 20
3298.929557704064
 30
0.0
 40
51.9999992190384
100
AcDbArc
 50
262.8958854916646
 51
276.4774051806045
  0
LINE
  5
156E
330
74
100
AcDbEntity
  8
AM_7 (Mittellinie)
100
AcDbLine
 10
3584.116084068384
 20
3321.783600026753
 30
0.0
 11
3594.963892176383
 21
3328.046584958024
 31
0.0
  0
ARC
  5
156F
330
74
100
AcDbEntity
  8
AM_7 (Mittellinie)
100
AcDbCircle
 10
3544.531721607164
 20
3298.929557704064
 30
0.0
 40
51.9999992190384
100
AcDbArc
 50
22.89588549168472
 51
36.47740518062747
  0
ARC
  5
1570
330
74
100
AcDbEntity
  8
AM_7 (Mittellinie)
100
AcDbCircle
 10
3544.531721607164
 20
3298.929557704064
 30
0.0
 40
51.9999992190384
100
AcDbArc
 50
82.89588549166458
 51
96.47740518060452
  0
LINE
  5
1571
330
74
100
AcDbEntity
  8
AM_3 ( Verdeckt )
100
AcDbLine
 10
3539.064401342514
 20
3246.533390613684
 30
0.0
 11
3540.333703422084
 21
3249.597756908944
 31
0.0
  0
LINE
  5
1572
330
74
100
AcDbEntity
  8
AM_7 (Mittellinie)
100
AcDbLine
 10
3559.298912274493
 20
3334.580709691274
 30
0.0
 11
3574.559391328334
 21
3371.422765191354
 31
0.0
  0
LINE
  5
1573
330
74
100
AcDbEntity
  8
AM_7 (Mittellinie)
100
AcDbLine
 10
3544.531721607164
 20
3352.585893436234
 30
0.0
 11
3544.531721607164
 21
3244.698794070724
 31
0.0
  0
LINE
  5
1574
330
74
100
AcDbEntity
  8
AM_2 ( Kontur 0.25)
100
AcDbLine
 10
3563.383650169563
 20
3309.508484743754
 30
0.0
 11
3559.511579623523
 21
3309.424405995204
 31
0.0
  0
LINE
  5
1575
330
74
100
AcDbEntity
  8
AM_2 ( Kontur 0.25)
100
AcDbLine
 10
3558.257126082955
 20
3304.381960657144
 30
0.0
 11
3554.385055536913
 21
3304.297881908603
 31
0.0
  0
LINE
  5
1576
330
74
100
AcDbEntity
  8
AM_2 ( Kontur 0.25)
100
AcDbLine
 10
3556.380327292806
 20
3316.406019832444
 30
0.0
 11
3552.508256746763
 21
3316.490098580985
 31
0.0
  0
LINE
  5
1577
330
74
100
AcDbEntity
  8
AM_2 ( Kontur 0.25)
100
AcDbLine
 10
3558.235417043423
 20
3305.381724973154
 30
0.0
 11
3554.363346497393
 21
3305.297646224604
 31
0.0
  0
CIRCLE
  5
1578
330
74
100
AcDbEntity
  8
AM_2 ( Kontur 0.25)
100
AcDbCircle
 10
-3554.455146539543
 20
3316.947941364723
 30
0.0
 40
1.99999996996301
210
0.0
220
0.0
230
-1.0
  0
LINE
  5
1579
330
74
100
AcDbEntity
  8
AM_2 ( Kontur 0.25)
100
AcDbLine
 10
3554.490154786354
 20
3320.978797048665
 30
0.0
 11
3550.424290855594
 21
3316.912933117905
 31
0.0
  0
LINE
  5
157A
330
74
100
AcDbEntity
  8
AM_2 ( Kontur 0.25)
100
AcDbLine
 10
3563.361941130035
 20
3310.508249059764
 30
0.0
 11
3559.489870584005
 21
3310.424170311214
 31
0.0
  0
CIRCLE
  5
157B
330
74
100
AcDbEntity
  8
AM_2 ( Kontur 0.25)
100
AcDbCircle
 10
3561.436760376783
 20
3309.966327527483
 30
0.0
 40
2.24999996620839
  0
LINE
  5
157C
330
74
100
AcDbEntity
  8
AM_2 ( Kontur 0.25)
100
AcDbLine
 10
3556.402036332324
 20
3317.405784148454
 30
0.0
 11
3552.529965786283
 21
3317.489862896994
 31
0.0
  0
LINE
  5
157D
330
74
100
AcDbEntity
  8
AM_2 ( Kontur 0.25)
100
AcDbLine
 10
3551.148703956754
 20
3295.682423670314
 30
0.0
 11
3540.171242682375
 21
3306.659884944683
 31
0.0
  0
LINE
  5
157E
330
74
100
AcDbEntity
  8
AM_2 ( Kontur 0.25)
100
AcDbLine
 10
3549.372824336523
 20
3307.711351463764
 30
0.0
 11
3548.312164180674
 21
3306.650691307914
 31
0.0
  0
LINE
  5
157F
330
74
100
AcDbEntity
  8
AM_2 ( Kontur 0.25)
100
AcDbLine
 10
3557.326694562433
 20
3310.010529411073
 30
0.0
 11
3556.266034406583
 21
3308.949869255223
 31
0.0
  0
LINE
  5
1580
330
74
100
AcDbEntity
  8
AM_2 ( Kontur 0.25)
100
AcDbLine
 10
3555.214567887504
 20
3299.748287601075
 30
0.0
 11
3544.237106613135
 21
3310.725748875444
 31
0.0
  0
CIRCLE
  5
1581
330
74
100
AcDbEntity
  8
AM_2 ( Kontur 0.25)
100
AcDbCircle
 10
-3554.455146539543
 20
3316.947941364723
 30
0.0
 40
2.24999996620839
210
0.0
220
0.0
230
-1.0
  0
CIRCLE
  5
1582
330
74
100
AcDbEntity
  8
AM_2 ( Kontur 0.25)
100
AcDbCircle
 10
3551.183712203563
 20
3299.713279354264
 30
0.0
 40
1.99999996996301
  0
CIRCLE
  5
1583
330
74
100
AcDbEntity
  8
AM_2 ( Kontur 0.25)
100
AcDbCircle
 10
3551.183712203563
 20
3299.713279354264
 30
0.0
 40
2.24999996620839
  0
CIRCLE
  5
1584
330
74
100
AcDbEntity
  8
AM_2 ( Kontur 0.25)
100
AcDbCircle
 10
-3544.202098366323
 20
3306.694893191506
 30
0.0
 40
2.24999996620839
210
0.0
220
0.0
230
-1.0
  0
CIRCLE
  5
1585
330
74
100
AcDbEntity
  8
AM_2 ( Kontur 0.25)
100
AcDbCircle
 10
-3544.202098366323
 20
3306.694893191506
 30
0.0
 40
1.99999996996301
210
0.0
220
0.0
230
-1.0
  0
LINE
  5
1586
330
74
100
AcDbEntity
  8
AM_2 ( Kontur 0.25)
100
AcDbLine
 10
3546.127279119583
 20
3306.152971659223
 30
0.0
 11
3542.255208573543
 21
3306.237050407764
 31
0.0
  0
LINE
  5
1587
330
74
100
AcDbEntity
  8
AM_2 ( Kontur 0.25)
100
AcDbLine
 10
3546.148988159104
 20
3307.152735975234
 30
0.0
 11
3542.276917613072
 21
3307.236814723773
 31
0.0
  0
LINE
  5
1588
330
74
100
AcDbEntity
  8
AM_2 ( Kontur 0.25)
100
AcDbLine
 10
3544.237106613135
 20
3310.725748875444
 30
0.0
 11
3540.171242682375
 21
3306.659884944683
 31
0.0
  0
LINE
  5
1589
330
74
100
AcDbEntity
  8
AM_2 ( Kontur 0.25)
100
AcDbLine
 10
3555.214567887504
 20
3299.748287601075
 30
0.0
 11
3551.148703956754
 21
3295.682423670314
 31
0.0
  0
LINE
  5
158A
330
74
100
AcDbEntity
  8
AM_2 ( Kontur 0.25)
100
AcDbLine
 10
3565.467616060722
 20
3310.001335774294
 30
0.0
 11
3561.401752129964
 21
3305.935471843534
 31
0.0
  0
LINE
  5
158B
330
74
100
AcDbEntity
  8
AM_2 ( Kontur 0.25)
100
AcDbLine
 10
3552.200170475823
 20
3304.884005324464
 30
0.0
 11
3551.139510319972
 21
3303.823345168614
 31
0.0
  0
LINE
  5
158C
330
74
100
AcDbEntity
  8
AM_2 ( Kontur 0.25)
100
AcDbLine
 10
3549.258531450304
 20
3299.171357821985
 30
0.0
 11
3553.130601996343
 21
3299.255436570535
 31
0.0
  0
LINE
  5
158D
330
74
100
AcDbEntity
  8
AM_2 ( Kontur 0.25)
100
AcDbLine
 10
3556.275228043354
 20
3300.808947756924
 30
0.0
 11
3545.297766768984
 21
3311.786409031294
 31
0.0
  0
LINE
  5
158E
330
74
100
AcDbEntity
  8
AM_2 ( Kontur 0.25)
100
AcDbLine
 10
3554.499348423134
 20
3312.837875550374
 30
0.0
 11
3553.438688267284
 21
3311.777215394524
 31
0.0
  0
LINE
  5
158F
330
74
100
AcDbEntity
  8
AM_2 ( Kontur 0.25)
100
AcDbLine
 10
3565.467616060722
 20
3310.001335774294
 30
0.0
 11
3554.490154786354
 21
3320.978797048665
 31
0.0
  0
LINE
  5
1590
330
74
100
AcDbEntity
  8
AM_2 ( Kontur 0.25)
100
AcDbLine
 10
3560.341091974113
 20
3304.874811687684
 30
0.0
 11
3549.363630699743
 21
3315.852272962054
 31
0.0
  0
LINE
  5
1591
330
74
100
AcDbEntity
  8
AM_2 ( Kontur 0.25)
100
AcDbLine
 10
3549.236822410784
 20
3300.171122137994
 30
0.0
 11
3553.108892956814
 21
3300.255200886545
 31
0.0
  0
CIRCLE
  5
1592
330
74
100
AcDbEntity
  8
AM_2 ( Kontur 0.25)
100
AcDbCircle
 10
3556.310236290173
 20
3304.839803440874
 30
0.0
 40
1.99999996996301
  0
CIRCLE
  5
1593
330
74
100
AcDbEntity
  8
AM_2 ( Kontur 0.25)
100
AcDbCircle
 10
3556.310236290173
 20
3304.839803440874
 30
0.0
 40
2.24999996620839
  0
CIRCLE
  5
1594
330
74
100
AcDbEntity
  8
AM_2 ( Kontur 0.25)
100
AcDbCircle
 10
-3549.328622452933
 20
3311.821417278114
 30
0.0
 40
2.24999996620839
210
0.0
220
0.0
230
-1.0
  0
CIRCLE
  5
1595
330
74
100
AcDbEntity
  8
AM_2 ( Kontur 0.25)
100
AcDbCircle
 10
-3549.328622452933
 20
3311.821417278114
 30
0.0
 40
1.99999996996301
210
0.0
220
0.0
230
-1.0
  0
LINE
  5
1596
330
74
100
AcDbEntity
  8
AM_2 ( Kontur 0.25)
100
AcDbLine
 10
3551.253803206193
 20
3311.279495745834
 30
0.0
 11
3547.381732660154
 21
3311.363574494374
 31
0.0
  0
LINE
  5
1597
330
74
100
AcDbEntity
  8
AM_2 ( Kontur 0.25)
100
AcDbLine
 10
3551.275512245713
 20
3312.279260061844
 30
0.0
 11
3547.403441699684
 21
3312.363338810384
 31
0.0
  0
LINE
  5
1598
330
74
100
AcDbEntity
  8
AM_2 ( Kontur 0.25)
100
AcDbLine
 10
3549.363630699743
 20
3315.852272962054
 30
0.0
 11
3545.297766768984
 21
3311.786409031294
 31
0.0
  0
LINE
  5
1599
330
74
100
AcDbEntity
  8
AM_2 ( Kontur 0.25)
100
AcDbLine
 10
3560.341091974113
 20
3304.874811687684
 30
0.0
 11
3556.275228043354
 21
3300.808947756924
 31
0.0
  0
CIRCLE
  5
159A
330
74
100
AcDbEntity
  8
AM_2 ( Kontur 0.25)
100
AcDbCircle
 10
3561.436760376783
 20
3309.966327527483
 30
0.0
 40
1.99999996996301
  0
LINE
  5
159B
330
74
100
AcDbEntity
  8
AM_2 ( Kontur 0.25)
100
AcDbLine
 10
3561.401752129964
 20
3305.935471843534
 30
0.0
 11
3550.424290855594
 21
3316.912933117905
 31
0.0
  0
LINE
  5
159C
330
74
100
AcDbEntity
  8
AM_2 ( Kontur 0.25)
100
AcDbLine
 10
3551.590936087793
 20
3307.102117075733
 30
0.0
 11
3544.275007971464
 21
3299.786188959404
 31
0.0
  0
LINE
  5
159D
330
74
100
AcDbEntity
  8
AM_0 ( Kontur 0.5 )
100
AcDbLine
 10
3590.465041914113
 20
3326.488403016985
 30
0.0
 11
3588.665041941143
 21
3326.488403016985
 31
0.0
  0
LINE
  5
159E
330
74
100
AcDbEntity
  8
AM_0 ( Kontur 0.5 )
100
AcDbLine
 10
3588.665041941143
 20
3326.488403016985
 30
0.0
 11
3587.765041954663
 21
3324.929557313584
 31
0.0
  0
LINE
  5
159F
330
74
100
AcDbEntity
  8
AM_0 ( Kontur 0.5 )
100
AcDbLine
 10
3587.765041954663
 20
3324.929557313584
 30
0.0
 11
3588.665041941143
 21
3323.370711610184
 31
0.0
  0
LINE
  5
15A0
330
74
100
AcDbEntity
  8
AM_0 ( Kontur 0.5 )
100
AcDbLine
 10
3588.665041941143
 20
3323.370711610184
 30
0.0
 11
3590.465041914113
 21
3323.370711610184
 31
0.0
  0
LINE
  5
15A1
330
74
100
AcDbEntity
  8
AM_0 ( Kontur 0.5 )
100
AcDbLine
 10
3590.465041914113
 20
3323.370711610184
 30
0.0
 11
3591.365041900593
 21
3324.929557313584
 31
0.0
  0
LINE
  5
15A2
330
74
100
AcDbEntity
  8
AM_0 ( Kontur 0.5 )
100
AcDbLine
 10
3591.365041900593
 20
3324.929557313584
 30
0.0
 11
3590.465041914113
 21
3326.488403016985
 31
0.0
  0
CIRCLE
  5
15A3
330
74
100
AcDbEntity
  8
AM_0 ( Kontur 0.5 )
100
AcDbCircle
 10
3589.565041927623
 20
3324.929557313584
 30
0.0
 40
3.49999994743527
  0
LINE
  5
15A4
330
74
100
AcDbEntity
  8
AM_0 ( Kontur 0.5 )
100
AcDbLine
 10
3542.731721634205
 20
3350.929556923104
 30
0.0
 11
3543.631721620684
 21
3349.370711219704
 31
0.0
  0
LINE
  5
15A5
330
74
100
AcDbEntity
  8
AM_0 ( Kontur 0.5 )
100
AcDbLine
 10
3543.631721620684
 20
3349.370711219704
 30
0.0
 11
3545.431721593653
 21
3349.370711219704
 31
0.0
  0
LINE
  5
15A6
330
74
100
AcDbEntity
  8
AM_0 ( Kontur 0.5 )
100
AcDbLine
 10
3545.431721593653
 20
3349.370711219704
 30
0.0
 11
3546.331721580133
 21
3350.929556923104
 31
0.0
  0
LINE
  5
15A7
330
74
100
AcDbEntity
  8
AM_0 ( Kontur 0.5 )
100
AcDbLine
 10
3543.631721620684
 20
3352.488402626504
 30
0.0
 11
3542.731721634205
 21
3350.929556923104
 31
0.0
  0
CIRCLE
  5
15A8
330
74
100
AcDbEntity
  8
AM_0 ( Kontur 0.5 )
100
AcDbCircle
 10
3544.531721607164
 20
3350.929556923104
 30
0.0
 40
3.49999994743527
  0
ARC
  5
15A9
330
74
100
AcDbEntity
  8
AM_7 (Mittellinie)
100
AcDbCircle
 10
3544.531721607164
 20
3298.929557704064
 30
0.0
 40
51.9999992190384
100
AcDbArc
 50
82.89588549166458
 51
96.47740518060452
  0
LINE
  5
15AA
330
74
100
AcDbEntity
  8
AM_7 (Mittellinie)
100
AcDbLine
 10
3544.531721607164
 20
3344.637642349435
 30
0.0
 11
3544.531721607164
 21
3357.163612211984
 31
0.0
  0
LINE
  5
15AB
330
74
100
AcDbEntity
  8
AM_0 ( Kontur 0.5 )
100
AcDbLine
 10
3546.331721580133
 20
3350.929556923104
 30
0.0
 11
3545.431721593653
 21
3352.488402626504
 31
0.0
  0
LINE
  5
15AC
330
74
100
AcDbEntity
  8
AM_0 ( Kontur 0.5 )
100
AcDbLine
 10
3545.431721593653
 20
3352.488402626504
 30
0.0
 11
3543.631721620684
 21
3352.488402626504
 31
0.0
  0
LINE
  5
15AD
330
74
100
AcDbEntity
  8
AM_0 ( Kontur 0.5 )
100
AcDbLine
 10
3498.598401300223
 20
3323.370711610184
 30
0.0
 11
3500.398401273193
 21
3323.370711610184
 31
0.0
  0
LINE
  5
15AE
330
74
100
AcDbEntity
  8
AM_0 ( Kontur 0.5 )
100
AcDbLine
 10
3500.398401273193
 20
3323.370711610184
 30
0.0
 11
3501.298401259673
 21
3324.929557313584
 31
0.0
  0
LINE
  5
15AF
330
74
100
AcDbEntity
  8
AM_0 ( Kontur 0.5 )
100
AcDbLine
 10
3501.298401259673
 20
3324.929557313584
 30
0.0
 11
3500.398401273193
 21
3326.488403016985
 31
0.0
  0
LINE
  5
15B0
330
74
100
AcDbEntity
  8
AM_0 ( Kontur 0.5 )
100
AcDbLine
 10
3497.698401313743
 20
3324.929557313584
 30
0.0
 11
3498.598401300223
 21
3323.370711610184
 31
0.0
  0
CIRCLE
  5
15B1
330
74
100
AcDbEntity
  8
AM_0 ( Kontur 0.5 )
100
AcDbCircle
 10
3499.498401286713
 20
3324.929557313584
 30
0.0
 40
3.49999994743527
  0
ARC
  5
15B2
330
74
100
AcDbEntity
  8
AM_7 (Mittellinie)
100
AcDbCircle
 10
3544.531721607164
 20
3298.929557704064
 30
0.0
 40
51.9999992190384
100
AcDbArc
 50
142.8958854916825
 51
156.4774051806246
  0
LINE
  5
15B3
330
74
100
AcDbEntity
  8
AM_7 (Mittellinie)
100
AcDbLine
 10
3504.947359145955
 20
3321.783600026753
 30
0.0
 11
3494.099551037944
 21
3328.046584958024
 31
0.0
  0
LINE
  5
15B4
330
74
100
AcDbEntity
  8
AM_0 ( Kontur 0.5 )
100
AcDbLine
 10
3500.398401273193
 20
3326.488403016985
 30
0.0
 11
3498.598401300223
 21
3326.488403016985
 31
0.0
  0
LINE
  5
15B5
330
74
100
AcDbEntity
  8
AM_0 ( Kontur 0.5 )
100
AcDbLine
 10
3498.598401300223
 20
3326.488403016985
 30
0.0
 11
3497.698401313743
 21
3324.929557313584
 31
0.0
  0
LINE
  5
15B6
330
74
100
AcDbEntity
  8
AM_0 ( Kontur 0.5 )
100
AcDbLine
 10
3500.398401273193
 20
3271.370712391153
 30
0.0
 11
3501.298401259673
 21
3272.929558094554
 31
0.0
  0
LINE
  5
15B7
330
74
100
AcDbEntity
  8
AM_0 ( Kontur 0.5 )
100
AcDbLine
 10
3501.298401259673
 20
3272.929558094554
 30
0.0
 11
3500.398401273193
 21
3274.488403797953
 31
0.0
  0
LINE
  5
15B8
330
74
100
AcDbEntity
  8
AM_0 ( Kontur 0.5 )
100
AcDbLine
 10
3500.398401273193
 20
3274.488403797953
 30
0.0
 11
3498.598401300223
 21
3274.488403797953
 31
0.0
  0
LINE
  5
15B9
330
74
100
AcDbEntity
  8
AM_0 ( Kontur 0.5 )
100
AcDbLine
 10
3498.598401300223
 20
3271.370712391153
 30
0.0
 11
3500.398401273193
 21
3271.370712391153
 31
0.0
  0
CIRCLE
  5
15BA
330
74
100
AcDbEntity
  8
AM_0 ( Kontur 0.5 )
100
AcDbCircle
 10
3499.498401286713
 20
3272.929558094554
 30
0.0
 40
3.49999994743527
  0
ARC
  5
15BB
330
74
100
AcDbEntity
  8
AM_7 (Mittellinie)
100
AcDbCircle
 10
3544.531721607164
 20
3298.929557704064
 30
0.0
 40
51.9999992190384
100
AcDbArc
 50
202.8958854916847
 51
216.4774051806274
  0
LINE
  5
15BC
330
74
100
AcDbEntity
  8
AM_7 (Mittellinie)
100
AcDbLine
 10
3504.947359145955
 20
3276.075515381383
 30
0.0
 11
3494.099551037944
 21
3269.812530450114
 31
0.0
  0
LINE
  5
15BD
330
74
100
AcDbEntity
  8
AM_0 ( Kontur 0.5 )
100
AcDbLine
 10
3498.598401300223
 20
3274.488403797953
 30
0.0
 11
3497.698401313743
 21
3272.929558094554
 31
0.0
  0
LINE
  5
15BE
330
74
100
AcDbEntity
  8
AM_0 ( Kontur 0.5 )
100
AcDbLine
 10
3497.698401313743
 20
3272.929558094554
 30
0.0
 11
3498.598401300223
 21
3271.370712391153
 31
0.0
  0
LINE
  5
15BF
330
74
100
AcDbEntity
  8
AM_0 ( Kontur 0.5 )
100
AcDbLine
 10
3546.331721580133
 20
3246.929558485034
 30
0.0
 11
3545.431721593653
 21
3248.488404188434
 31
0.0
  0
LINE
  5
15C0
330
74
100
AcDbEntity
  8
AM_0 ( Kontur 0.5 )
100
AcDbLine
 10
3545.431721593653
 20
3248.488404188434
 30
0.0
 11
3543.631721620684
 21
3248.488404188434
 31
0.0
  0
LINE
  5
15C1
330
74
100
AcDbEntity
  8
AM_0 ( Kontur 0.5 )
100
AcDbLine
 10
3543.631721620684
 20
3248.488404188434
 30
0.0
 11
3542.731721634205
 21
3246.929558485034
 31
0.0
  0
LINE
  5
15C2
330
74
100
AcDbEntity
  8
AM_0 ( Kontur 0.5 )
100
AcDbLine
 10
3545.431721593653
 20
3245.370712781634
 30
0.0
 11
3546.331721580133
 21
3246.929558485034
 31
0.0
  0
CIRCLE
  5
15C3
330
74
100
AcDbEntity
  8
AM_0 ( Kontur 0.5 )
100
AcDbCircle
 10
3544.531721607164
 20
3246.929558485034
 30
0.0
 40
3.49999994743527
  0
ARC
  5
15C4
330
74
100
AcDbEntity
  8
AM_7 (Mittellinie)
100
AcDbCircle
 10
3544.531721607164
 20
3298.929557704064
 30
0.0
 40
51.9999992190384
100
AcDbArc
 50
262.8958854916646
 51
276.4774051806045
  0
LINE
  5
15C5
330
74
100
AcDbEntity
  8
AM_7 (Mittellinie)
100
AcDbLine
 10
3544.531721607164
 20
3253.221473058705
 30
0.0
 11
3544.531721607164
 21
3240.695503196155
 31
0.0
  0
LINE
  5
15C6
330
74
100
AcDbEntity
  8
AM_0 ( Kontur 0.5 )
100
AcDbLine
 10
3542.731721634205
 20
3246.929558485034
 30
0.0
 11
3543.631721620684
 21
3245.370712781634
 31
0.0
  0
LINE
  5
15C7
330
74
100
AcDbEntity
  8
AM_0 ( Kontur 0.5 )
100
AcDbLine
 10
3543.631721620684
 20
3245.370712781634
 30
0.0
 11
3545.431721593653
 21
3245.370712781634
 31
0.0
  0
LINE
  5
15C8
330
74
100
AcDbEntity
  8
AM_0 ( Kontur 0.5 )
100
AcDbLine
 10
3590.465041914113
 20
3274.488403797944
 30
0.0
 11
3588.665041941143
 21
3274.488403797944
 31
0.0
  0
LINE
  5
15C9
330
74
100
AcDbEntity
  8
AM_0 ( Kontur 0.5 )
100
AcDbLine
 10
3588.665041941143
 20
3274.488403797944
 30
0.0
 11
3587.765041954663
 21
3272.929558094544
 31
0.0
  0
LINE
  5
15CA
330
74
100
AcDbEntity
  8
AM_0 ( Kontur 0.5 )
100
AcDbLine
 10
3587.765041954663
 20
3272.929558094544
 30
0.0
 11
3588.665041941143
 21
3271.370712391143
 31
0.0
  0
LINE
  5
15CB
330
74
100
AcDbEntity
  8
AM_0 ( Kontur 0.5 )
100
AcDbLine
 10
3591.365041900593
 20
3272.929558094544
 30
0.0
 11
3590.465041914113
 21
3274.488403797944
 31
0.0
  0
CIRCLE
  5
15CC
330
74
100
AcDbEntity
  8
AM_0 ( Kontur 0.5 )
100
AcDbCircle
 10
3589.565041927623
 20
3272.929558094544
 30
0.0
 40
3.49999994743527
  0
ARC
  5
15CD
330
74
100
AcDbEntity
  8
AM_7 (Mittellinie)
100
AcDbCircle
 10
3544.531721607164
 20
3298.929557704064
 30
0.0
 40
51.9999992190384
100
AcDbArc
 50
322.8958854916827
 51
336.4774051806247
  0
LINE
  5
15CE
330
74
100
AcDbEntity
  8
AM_7 (Mittellinie)
100
AcDbLine
 10
3584.116084068384
 20
3276.075515381383
 30
0.0
 11
3594.963892176383
 21
3269.812530450114
 31
0.0
  0
LINE
  5
15CF
330
74
100
AcDbEntity
  8
AM_0 ( Kontur 0.5 )
100
AcDbLine
 10
3588.665041941143
 20
3271.370712391143
 30
0.0
 11
3590.465041914113
 21
3271.370712391153
 31
0.0
  0
LINE
  5
15D0
330
74
100
AcDbEntity
  8
AM_0 ( Kontur 0.5 )
100
AcDbLine
 10
3590.465041914113
 20
3271.370712391153
 30
0.0
 11
3591.365041900593
 21
3272.929558094544
 31
0.0
  0
LINE
  5
15D1
330
74
100
AcDbEntity
  8
AM_3 ( Verdeckt )
100
AcDbLine
 10
3549.999041871823
 20
3246.533390613684
 30
0.0
 11
3577.715427430903
 21
3258.013893412214
 31
0.0
  0
LINE
  5
15D2
330
74
100
AcDbEntity
  8
AM_0 ( Kontur 0.5 )
100
AcDbLine
 10
3579.334841176123
 20
3254.104282785414
 30
0.0
 11
3579.628844563993
 21
3253.394495819034
 31
0.0
  0
LINE
  5
15D3
330
74
100
AcDbEntity
  8
AM_0 ( Kontur 0.5 )
100
AcDbLine
 10
3551.618455617042
 20
3242.623779986884
 30
0.0
 11
3551.912459004913
 21
3241.913993020503
 31
0.0
  0
LINE
  5
15D4
330
74
100
AcDbEntity
  8
AM_0 ( Kontur 0.5 )
100
AcDbLine
 10
3555.505140631142
 20
3242.319738291346
 30
0.0
 11
3576.801529790993
 21
3251.140991510923
 31
0.0
  0
LINE
  5
15D5
330
74
100
AcDbEntity
  8
AM_3 ( Verdeckt )
100
AcDbLine
 10
3557.772761447534
 20
3248.670978507994
 30
0.0
 11
3559.303495154004
 21
3244.975460433444
 31
0.0
  0
LINE
  5
15D6
330
74
100
AcDbEntity
  8
AM_3 ( Verdeckt )
100
AcDbLine
 10
3570.707074708434
 20
3254.028546480633
 30
0.0
 11
3572.237808414904
 21
3250.333028406094
 31
0.0
  0
LINE
  5
15D7
330
74
100
AcDbEntity
  8
AM_0 ( Kontur 0.5 )
100
AcDbLine
 10
3553.825876138005
 20
3237.294595427324
 30
0.0
 11
3581.542261697084
 21
3248.775098225854
 31
0.0
  0
LINE
  5
15D8
330
74
100
AcDbEntity
  8
AM_0 ( Kontur 0.5 )
100
AcDbLine
 10
3566.567681141293
 20
3224.171756740183
 30
0.0
 11
3581.811693198793
 21
3230.486033279374
 31
0.0
  0
LINE
  5
15D9
330
74
100
AcDbEntity
  8
AM_0 ( Kontur 0.5 )
100
AcDbLine
 10
3582.755217376484
 20
3241.273793865704
 30
0.0
 11
3584.517673658883
 21
3237.018848005644
 31
0.0
  0
LINE
  5
15DA
330
74
100
AcDbEntity
  8
AM_0 ( Kontur 0.5 )
100
AcDbLine
 10
3558.272410132633
 20
3231.132683060334
 30
0.0
 11
3560.034866415023
 21
3226.877737200273
 31
0.0
  0
ARC
  5
15DB
330
74
100
AcDbEntity
  8
AM_0 ( Kontur 0.5 )
100
AcDbCircle
 10
3579.898276065705
 20
3235.105430872554
 30
0.0
 40
4.99999992490753
100
AcDbArc
 50
292.5000000000153
 51
22.49999999999124
  0
ARC
  5
15DC
330
74
100
AcDbEntity
  8
AM_0 ( Kontur 0.5 )
100
AcDbCircle
 10
3564.654264008213
 20
3228.791154333364
 30
0.0
 40
4.99999992490753
100
AcDbArc
 50
202.4999999999912
 51
292.5000000000153
  0
LINE
  5
15DD
330
74
100
AcDbEntity
  8
AM_0 ( Kontur 0.5 )
100
AcDbLine
 10
3581.542261697084
 20
3248.775098225854
 30
0.0
 11
3583.838362256794
 21
3243.231821114044
 31
0.0
  0
LINE
  5
15DE
330
74
100
AcDbEntity
  8
AM_0 ( Kontur 0.5 )
100
AcDbLine
 10
3553.825876138005
 20
3237.294595427324
 30
0.0
 11
3556.121976697715
 21
3231.751318315505
 31
0.0
  0
LINE
  5
15DF
330
74
100
AcDbEntity
  8
AM_0 ( Kontur 0.5 )
100
AcDbLine
 10
3561.216912287092
 20
3240.356062840265
 30
0.0
 11
3563.513012846794
 21
3234.812785728454
 31
0.0
  0
LINE
  5
15E0
330
74
100
AcDbEntity
  8
AM_0 ( Kontur 0.5 )
100
AcDbLine
 10
3574.151225547993
 20
3245.713630812914
 30
0.0
 11
3576.447326107704
 21
3240.170353701094
 31
0.0
  0
LINE
  5
15E1
330
74
100
AcDbEntity
  8
AM_0 ( Kontur 0.5 )
100
AcDbLine
 10
3576.546979795724
 20
3251.035553450584
 30
0.0
 11
3578.077713502203
 21
3247.340035376043
 31
0.0
  0
ARC
  5
15E2
330
74
100
AcDbEntity
  8
AM_0 ( Kontur 0.5 )
100
AcDbCircle
 10
-3558.583542134164
 20
3236.261077216184
 30
0.0
 40
5.137823443849758
210
0.0
220
0.0
230
-1.0
100
AcDbArc
 50
196.372927101933
 51
298.6270728980386
  0
ARC
  5
15E3
330
74
100
AcDbEntity
  8
AM_0 ( Kontur 0.5 )
100
AcDbCircle
 10
3578.908891544156
 20
3244.680112601775
 30
0.0
 40
5.137823443849758
100
AcDbArc
 50
241.3729271019613
 51
343.6270728980671
  0
ARC
  5
15E4
330
74
100
AcDbEntity
  8
AM_0 ( Kontur 0.5 )
100
AcDbCircle
 10
-3565.674980927802
 20
3247.885214299424
 30
0.0
 40
13.249999801005
210
0.0
220
0.0
230
-1.0
100
AcDbArc
 50
215.6092081981586
 51
279.3907918018446
  0
LINE
  5
15E5
330
74
100
AcDbEntity
  8
AM_0 ( Kontur 0.5 )
100
AcDbLine
 10
3555.759690626415
 20
3242.425176351684
 30
0.0
 11
3557.290424332884
 21
3238.729658277144
 31
0.0
  0
LINE
  5
15E6
330
74
100
AcDbEntity
  8
AM_3 ( Verdeckt )
100
AcDbLine
 10
3550.381725298443
 20
3245.609511095044
 30
0.0
 11
3551.618455617042
 21
3242.623779986884
 31
0.0
  0
LINE
  5
15E7
330
74
100
AcDbEntity
  8
AM_3 ( Verdeckt )
100
AcDbLine
 10
3578.098110857522
 20
3257.090013893584
 30
0.0
 11
3579.334841176123
 21
3254.104282785414
 31
0.0
  0
ARC
  5
15E8
330
74
100
AcDbEntity
  8
AM_0 ( Kontur 0.5 )
100
AcDbCircle
 10
-3552.790695053843
 20
3250.246247202254
 30
0.0
 40
8.378410249377751
210
0.0
220
0.0
230
-1.0
100
AcDbArc
 50
229.7556610313751
 51
276.0168723282723
  0
ARC
  5
15E9
330
74
100
AcDbEntity
  8
AM_0 ( Kontur 0.5 )
100
AcDbCircle
 10
3573.116044463834
 20
3258.665282587844
 30
0.0
 40
8.378410249377751
100
AcDbArc
 50
274.7556610313527
 51
321.0168723282942
  0
ARC
  5
15EA
330
74
100
AcDbEntity
  8
AM_3 ( Verdeckt )
100
AcDbCircle
 10
3556.586249545623
 20
3269.827352867044
 30
0.0
 40
24.9999996245438
100
AcDbArc
 50
276.2397952916864
 51
308.7602047083196
  0
ARC
  5
15EB
330
74
100
AcDbEntity
  8
AM_3 ( Verdeckt )
100
AcDbCircle
 10
3556.894525398604
 20
3240.338724326245
 30
0.0
 40
8.378410249377751
100
AcDbArc
 50
83.98312767172768
 51
141.0168723282941
  0
ARC
  5
15EC
330
74
100
AcDbEntity
  8
AM_3 ( Verdeckt )
100
AcDbCircle
 10
-3573.424320316813
 20
3229.176654047044
 30
0.0
 40
24.9999996245438
210
0.0
220
0.0
230
-1.0
100
AcDbArc
 50
51.23979529168035
 51
83.76020470831358
  0
ARC
  5
15ED
330
74
100
AcDbEntity
  8
AM_3 ( Verdeckt )
100
AcDbCircle
 10
-3577.219874808593
 20
3248.757759711835
 30
0.0
 40
8.378410249377751
210
0.0
220
0.0
230
-1.0
100
AcDbArc
 50
38.9831276717058
 51
96.01687232827231
  0
ARC
  5
15EE
330
74
100
AcDbEntity
  8
AM_3 ( Verdeckt )
100
AcDbCircle
 10
3573.116044463834
 20
3258.665282587844
 30
0.0
 40
8.378410249377751
100
AcDbArc
 50
263.9831276717277
 51
274.7556610313527
  0
ARC
  5
15EF
330
74
100
AcDbEntity
  8
AM_3 ( Verdeckt )
100
AcDbCircle
 10
-3552.790695053843
 20
3250.246247202254
 30
0.0
 40
8.378410249377751
210
0.0
220
0.0
230
-1.0
100
AcDbArc
 50
218.9831276717058
 51
229.7556610313751
  0
LINE
  5
15F0
330
74
100
AcDbEntity
  8
AM_7 (Mittellinie)
100
AcDbLine
 10
3480.593247119756
 20
3298.929557704064
 30
0.0
 11
3611.859509797581
 21
3298.929557704064
 31
0.0
  0
ARC
  5
15F1
330
74
100
AcDbEntity
  8
AM_0 ( Kontur 0.5 )
100
AcDbCircle
 10
3524.409179206124
 20
3228.791154333364
 30
0.0
 40
4.99999992490753
100
AcDbArc
 50
247.4999999999847
 51
337.5000000000087
  0
LINE
  5
15F2
330
74
100
AcDbEntity
  8
AM_0 ( Kontur 0.5 )
100
AcDbLine
 10
3535.237567076333
 20
3237.294595427324
 30
0.0
 11
3532.941466516623
 21
3231.751318315505
 31
0.0
  0
LINE
  5
15F3
330
74
100
AcDbEntity
  8
AM_0 ( Kontur 0.5 )
100
AcDbLine
 10
3530.791033081704
 20
3231.132683060334
 30
0.0
 11
3529.028576799305
 21
3226.877737200273
 31
0.0
  0
LINE
  5
15F4
330
74
100
AcDbEntity
  8
AM_0 ( Kontur 0.5 )
100
AcDbLine
 10
3527.846530927243
 20
3240.356062840265
 30
0.0
 11
3525.550430367542
 21
3234.812785728454
 31
0.0
  0
ARC
  5
15F5
330
74
100
AcDbEntity
  8
AM_0 ( Kontur 0.5 )
100
AcDbCircle
 10
3530.479901080172
 20
3236.261077216184
 30
0.0
 40
5.137823443849758
100
AcDbArc
 50
196.372927101933
 51
298.6270728980386
  0
ARC
  5
15F6
330
74
100
AcDbEntity
  8
AM_0 ( Kontur 0.5 )
100
AcDbCircle
 10
-3523.388462286533
 20
3247.885214299424
 30
0.0
 40
13.249999801005
210
0.0
220
0.0
230
-1.0
100
AcDbArc
 50
260.6092081981554
 51
324.3907918018414
  0
LINE
  5
15F7
330
74
100
AcDbEntity
  8
AM_0 ( Kontur 0.5 )
100
AcDbLine
 10
3507.251750015544
 20
3230.486033279374
 30
0.0
 11
3522.495762073044
 21
3224.171756740183
 31
0.0
  0
ARC
  5
15F8
330
74
100
AcDbEntity
  8
AM_0 ( Kontur 0.5 )
100
AcDbCircle
 10
3509.165167148636
 20
3235.105430872554
 30
0.0
 40
4.99999992490753
100
AcDbArc
 50
157.5000000000087
 51
247.4999999999847
  0
LINE
  5
15F9
330
74
100
AcDbEntity
  8
AM_0 ( Kontur 0.5 )
100
AcDbLine
 10
3507.521181517254
 20
3248.775098225854
 30
0.0
 11
3505.225080957543
 21
3243.231821114044
 31
0.0
  0
LINE
  5
15FA
330
74
100
AcDbEntity
  8
AM_0 ( Kontur 0.5 )
100
AcDbLine
 10
3506.308225837854
 20
3241.273793865704
 30
0.0
 11
3504.545769555454
 21
3237.018848005644
 31
0.0
  0
ARC
  5
15FB
330
74
100
AcDbEntity
  8
AM_0 ( Kontur 0.5 )
100
AcDbCircle
 10
-3510.154551670183
 20
3244.680112601775
 30
0.0
 40
5.137823443849758
210
0.0
220
0.0
230
-1.0
100
AcDbArc
 50
241.3729271019613
 51
343.6270728980671
  0
LINE
  5
15FC
330
74
100
AcDbEntity
  8
AM_0 ( Kontur 0.5 )
100
AcDbLine
 10
3514.912217666342
 20
3245.713630812914
 30
0.0
 11
3512.616117106634
 21
3240.170353701094
 31
0.0
  0
LINE
  5
15FD
330
74
100
AcDbEntity
  8
AM_0 ( Kontur 0.5 )
100
AcDbLine
 10
3507.521181517254
 20
3248.775098225854
 30
0.0
 11
3535.237567076333
 21
3237.294595427324
 31
0.0
  0
LINE
  5
15FE
330
74
100
AcDbEntity
  8
AM_3 ( Verdeckt )
100
AcDbLine
 10
3518.356368505904
 20
3254.028546480644
 30
0.0
 11
3516.825634799435
 21
3250.333028406094
 31
0.0
  0
ARC
  5
15FF
330
74
100
AcDbEntity
  8
AM_3 ( Verdeckt )
100
AcDbCircle
 10
3511.843568405743
 20
3248.757759711835
 30
0.0
 40
8.378410249377751
100
AcDbArc
 50
38.9831276717058
 51
96.01687232827231
  0
LINE
  5
1600
330
74
100
AcDbEntity
  8
AM_3 ( Verdeckt )
100
AcDbLine
 10
3510.965332356813
 20
3257.090013893584
 30
0.0
 11
3509.728602038213
 21
3254.104282785414
 31
0.0
  0
LINE
  5
1601
330
74
100
AcDbEntity
  8
AM_0 ( Kontur 0.5 )
100
AcDbLine
 10
3509.728602038213
 20
3254.104282785414
 30
0.0
 11
3509.434598650344
 21
3253.394495819034
 31
0.0
  0
LINE
  5
1602
330
74
100
AcDbEntity
  8
AM_0 ( Kontur 0.5 )
100
AcDbLine
 10
3512.516463418613
 20
3251.035553450584
 30
0.0
 11
3510.985729712134
 21
3247.340035376043
 31
0.0
  0
ARC
  5
1603
330
74
100
AcDbEntity
  8
AM_0 ( Kontur 0.5 )
100
AcDbCircle
 10
-3515.947398750505
 20
3258.665282587844
 30
0.0
 40
8.378410249377751
210
0.0
220
0.0
230
-1.0
100
AcDbArc
 50
274.7556610313527
 51
321.0168723282942
  0
LINE
  5
1604
330
74
100
AcDbEntity
  8
AM_0 ( Kontur 0.5 )
100
AcDbLine
 10
3537.444987597292
 20
3242.623779986884
 30
0.0
 11
3537.150984209424
 21
3241.913993020503
 31
0.0
  0
LINE
  5
1605
330
74
100
AcDbEntity
  8
AM_0 ( Kontur 0.5 )
100
AcDbLine
 10
3512.261913423343
 20
3251.140991510923
 30
0.0
 11
3533.558302583184
 21
3242.319738291346
 31
0.0
  0
LINE
  5
1606
330
74
100
AcDbEntity
  8
AM_0 ( Kontur 0.5 )
100
AcDbLine
 10
3533.303752587924
 20
3242.425176351684
 30
0.0
 11
3531.773018881454
 21
3238.729658277144
 31
0.0
  0
ARC
  5
1607
330
74
100
AcDbEntity
  8
AM_0 ( Kontur 0.5 )
100
AcDbCircle
 10
3536.272748160494
 20
3250.246247202254
 30
0.0
 40
8.378410249377751
100
AcDbArc
 50
229.7556610313185
 51
276.0168723282723
  0
LINE
  5
1608
330
74
100
AcDbEntity
  8
AM_3 ( Verdeckt )
100
AcDbLine
 10
3538.681717915892
 20
3245.609511095044
 30
0.0
 11
3537.444987597292
 21
3242.623779986884
 31
0.0
  0
ARC
  5
1609
330
74
100
AcDbEntity
  8
AM_3 ( Verdeckt )
100
AcDbCircle
 10
-3532.168917815734
 20
3240.338724326245
 30
0.0
 40
8.378410249377751
210
0.0
220
0.0
230
-1.0
100
AcDbArc
 50
83.98312767172768
 51
141.0168723282941
  0
ARC
  5
160A
330
74
100
AcDbEntity
  8
AM_3 ( Verdeckt )
100
AcDbCircle
 10
-3515.639122897523
 20
3229.176654047044
 30
0.0
 40
24.9999996245438
210
0.0
220
0.0
230
-1.0
100
AcDbArc
 50
96.23979529168643
 51
128.7602047083195
  0
LINE
  5
160B
330
74
100
AcDbEntity
  8
AM_3 ( Verdeckt )
100
AcDbLine
 10
3531.290681766805
 20
3248.670978507994
 30
0.0
 11
3529.759948060333
 21
3244.975460433444
 31
0.0
  0
ARC
  5
160C
330
74
100
AcDbEntity
  8
AM_3 ( Verdeckt )
100
AcDbCircle
 10
-3515.947398750505
 20
3258.665282587844
 30
0.0
 40
8.378410249377751
210
0.0
220
0.0
230
-1.0
100
AcDbArc
 50
263.9831276717277
 51
274.7556610313527
  0
ARC
  5
160D
330
74
100
AcDbEntity
  8
AM_3 ( Verdeckt )
100
AcDbCircle
 10
3532.477193668713
 20
3269.827352867044
 30
0.0
 40
24.9999996245438
100
AcDbArc
 50
231.2397952916803
 51
263.7602047083135
  0
ARC
  5
160E
330
74
100
AcDbEntity
  8
AM_3 ( Verdeckt )
100
AcDbCircle
 10
3536.272748160494
 20
3250.246247202254
 30
0.0
 40
8.378410249377751
100
AcDbArc
 50
218.9831276717058
 51
229.7556610313185
  0
ARC
  5
160F
330
74
100
AcDbEntity
  8
AM_0 ( Kontur 0.5 )
100
AcDbCircle
 10
-3579.898276065705
 20
3362.753684535584
 30
0.0
 40
4.99999992490753
210
0.0
220
0.0
230
-1.0
100
AcDbArc
 50
112.5000000000153
 51
202.4999999999912
  0
LINE
  5
1610
330
74
100
AcDbEntity
  8
AM_0 ( Kontur 0.5 )
100
AcDbLine
 10
3581.542261697084
 20
3349.084017182284
 30
0.0
 11
3583.838362256794
 21
3354.627294294096
 31
0.0
  0
LINE
  5
1611
330
74
100
AcDbEntity
  8
AM_0 ( Kontur 0.5 )
100
AcDbLine
 10
3582.755217376484
 20
3356.585321542434
 30
0.0
 11
3584.517673658883
 21
3360.840267402494
 31
0.0
  0
LINE
  5
1612
330
74
100
AcDbEntity
  8
AM_0 ( Kontur 0.5 )
100
AcDbLine
 10
3574.151225547993
 20
3352.145484595224
 30
0.0
 11
3576.447326107704
 21
3357.688761707034
 31
0.0
  0
ARC
  5
1613
330
74
100
AcDbEntity
  8
AM_0 ( Kontur 0.5 )
100
AcDbCircle
 10
-3578.908891544156
 20
3353.179002806364
 30
0.0
 40
5.137823443849758
210
0.0
220
0.0
230
-1.0
100
AcDbArc
 50
61.37292710196138
 51
163.627072898067
  0
ARC
  5
1614
330
74
100
AcDbEntity
  8
AM_0 ( Kontur 0.5 )
100
AcDbCircle
 10
3565.674980927802
 20
3349.973901108704
 30
0.0
 40
13.249999801005
100
AcDbArc
 50
35.60920819815861
 51
99.39079180184462
  0
LINE
  5
1615
330
74
100
AcDbEntity
  8
AM_0 ( Kontur 0.5 )
100
AcDbLine
 10
3566.567681141293
 20
3373.687358667954
 30
0.0
 11
3581.811693198793
 21
3367.373082128764
 31
0.0
  0
ARC
  5
1616
330
74
100
AcDbEntity
  8
AM_0 ( Kontur 0.5 )
100
AcDbCircle
 10
-3564.654264008213
 20
3369.067961074775
 30
0.0
 40
4.99999992490753
210
0.0
220
0.0
230
-1.0
100
AcDbArc
 50
22.49999999999124
 51
112.5000000000153
  0
LINE
  5
1617
330
74
100
AcDbEntity
  8
AM_0 ( Kontur 0.5 )
100
AcDbLine
 10
3553.825876138005
 20
3360.564519980814
 30
0.0
 11
3556.121976697715
 21
3366.107797092624
 31
0.0
  0
LINE
  5
1618
330
74
100
AcDbEntity
  8
AM_0 ( Kontur 0.5 )
100
AcDbLine
 10
3558.272410132633
 20
3366.726432347804
 30
0.0
 11
3560.034866415023
 21
3370.981378207864
 31
0.0
  0
ARC
  5
1619
330
74
100
AcDbEntity
  8
AM_0 ( Kontur 0.5 )
100
AcDbCircle
 10
3558.583542134164
 20
3361.598038191953
 30
0.0
 40
5.137823443849758
100
AcDbArc
 50
16.37292710193294
 51
118.6270728980386
  0
LINE
  5
161A
330
74
100
AcDbEntity
  8
AM_0 ( Kontur 0.5 )
100
AcDbLine
 10
3561.216912287092
 20
3357.503052567873
 30
0.0
 11
3563.513012846794
 21
3363.046329679684
 31
0.0
  0
LINE
  5
161B
330
74
100
AcDbEntity
  8
AM_0 ( Kontur 0.5 )
100
AcDbLine
 10
3553.825876138005
 20
3360.564519980814
 30
0.0
 11
3581.542261697084
 21
3349.084017182284
 31
0.0
  0
LINE
  5
161C
330
74
100
AcDbEntity
  8
AM_3 ( Verdeckt )
100
AcDbLine
 10
3557.772761447534
 20
3349.188136900144
 30
0.0
 11
3559.303495154004
 21
3352.883654974694
 31
0.0
  0
ARC
  5
161D
330
74
100
AcDbEntity
  8
AM_3 ( Verdeckt )
100
AcDbCircle
 10
-3556.894525398604
 20
3357.520391081894
 30
0.0
 40
8.378410249377751
210
0.0
220
0.0
230
-1.0
100
AcDbArc
 50
263.9831276717277
 51
321.0168723282942
  0
LINE
  5
161E
330
74
100
AcDbEntity
  8
AM_3 ( Verdeckt )
100
AcDbLine
 10
3550.381725298443
 20
3352.249604313084
 30
0.0
 11
3551.618455617042
 21
3355.235335421254
 31
0.0
  0
LINE
  5
161F
330
74
100
AcDbEntity
  8
AM_0 ( Kontur 0.5 )
100
AcDbLine
 10
3551.618455617042
 20
3355.235335421254
 30
0.0
 11
3551.912459004913
 21
3355.945122387634
 31
0.0
  0
LINE
  5
1620
330
74
100
AcDbEntity
  8
AM_0 ( Kontur 0.5 )
100
AcDbLine
 10
3555.759690626415
 20
3355.433939056454
 30
0.0
 11
3557.290424332884
 21
3359.129457130995
 31
0.0
  0
ARC
  5
1621
330
74
100
AcDbEntity
  8
AM_0 ( Kontur 0.5 )
100
AcDbCircle
 10
3552.790695053843
 20
3347.612868205884
 30
0.0
 40
8.378410249377751
100
AcDbArc
 50
49.75566103137508
 51
96.01687232827231
  0
LINE
  5
1622
330
74
100
AcDbEntity
  8
AM_0 ( Kontur 0.5 )
100
AcDbLine
 10
3579.334841176123
 20
3343.754832622724
 30
0.0
 11
3579.628844563993
 21
3344.464619589104
 31
0.0
  0
LINE
  5
1623
330
74
100
AcDbEntity
  8
AM_0 ( Kontur 0.5 )
100
AcDbLine
 10
3555.505140631142
 20
3355.539377116794
 30
0.0
 11
3576.801529790993
 21
3346.718123897214
 31
0.0
  0
LINE
  5
1624
330
74
100
AcDbEntity
  8
AM_0 ( Kontur 0.5 )
100
AcDbLine
 10
3576.546979795724
 20
3346.823561957554
 30
0.0
 11
3578.077713502203
 21
3350.519080032095
 31
0.0
  0
ARC
  5
1625
330
74
100
AcDbEntity
  8
AM_0 ( Kontur 0.5 )
100
AcDbCircle
 10
-3573.116044463834
 20
3339.193832820294
 30
0.0
 40
8.378410249377751
210
0.0
220
0.0
230
-1.0
100
AcDbArc
 50
94.75566103135269
 51
141.0168723282941
  0
LINE
  5
1626
330
74
100
AcDbEntity
  8
AM_3 ( Verdeckt )
100
AcDbLine
 10
3578.098110857522
 20
3340.769101514554
 30
0.0
 11
3579.334841176123
 21
3343.754832622724
 31
0.0
  0
ARC
  5
1627
330
74
100
AcDbEntity
  8
AM_3 ( Verdeckt )
100
AcDbCircle
 10
3577.219874808593
 20
3349.101355696304
 30
0.0
 40
8.378410249377751
100
AcDbArc
 50
218.9831276717058
 51
276.0168723282723
  0
ARC
  5
1628
330
74
100
AcDbEntity
  8
AM_3 ( Verdeckt )
100
AcDbCircle
 10
3573.424320316813
 20
3368.682461361094
 30
0.0
 40
24.9999996245438
100
AcDbArc
 50
231.2397952916803
 51
263.7602047083135
  0
LINE
  5
1629
330
74
100
AcDbEntity
  8
AM_3 ( Verdeckt )
100
AcDbLine
 10
3570.707074708434
 20
3343.830568927494
 30
0.0
 11
3572.237808414904
 21
3347.526087002044
 31
0.0
  0
ARC
  5
162A
330
74
100
AcDbEntity
  8
AM_3 ( Verdeckt )
100
AcDbCircle
 10
3552.790695053843
 20
3347.612868205884
 30
0.0
 40
8.378410249377751
100
AcDbArc
 50
38.9831276717058
 51
49.75566103137508
  0
ARC
  5
162B
330
74
100
AcDbEntity
  8
AM_3 ( Verdeckt )
100
AcDbCircle
 10
-3556.586249545623
 20
3328.031762541094
 30
0.0
 40
24.9999996245438
210
0.0
220
0.0
230
-1.0
100
AcDbArc
 50
96.23979529168643
 51
128.7602047083195
  0
ARC
  5
162C
330
74
100
AcDbEntity
  8
AM_3 ( Verdeckt )
100
AcDbCircle
 10
-3573.116044463834
 20
3339.193832820294
 30
0.0
 40
8.378410249377751
210
0.0
220
0.0
230
-1.0
100
AcDbArc
 50
83.98312767172768
 51
94.75566103135269
  0
ARC
  5
162D
330
74
100
AcDbEntity
  8
AM_0 ( Kontur 0.5 )
100
AcDbCircle
 10
-3524.409179206124
 20
3369.067961074775
 30
0.0
 40
4.99999992490753
210
0.0
220
0.0
230
-1.0
100
AcDbArc
 50
67.49999999998468
 51
157.5000000000087
  0
LINE
  5
162E
330
74
100
AcDbEntity
  8
AM_0 ( Kontur 0.5 )
100
AcDbLine
 10
3535.237567076333
 20
3360.564519980814
 30
0.0
 11
3532.941466516623
 21
3366.107797092634
 31
0.0
  0
LINE
  5
162F
330
74
100
AcDbEntity
  8
AM_0 ( Kontur 0.5 )
100
AcDbLine
 10
3530.791033081704
 20
3366.726432347804
 30
0.0
 11
3529.028576799305
 21
3370.981378207864
 31
0.0
  0
LINE
  5
1630
330
74
100
AcDbEntity
  8
AM_0 ( Kontur 0.5 )
100
AcDbLine
 10
3527.846530927243
 20
3357.503052567873
 30
0.0
 11
3525.550430367542
 21
3363.046329679684
 31
0.0
  0
ARC
  5
1631
330
74
100
AcDbEntity
  8
AM_0 ( Kontur 0.5 )
100
AcDbCircle
 10
-3530.479901080172
 20
3361.598038191953
 30
0.0
 40
5.137823443849758
210
0.0
220
0.0
230
-1.0
100
AcDbArc
 50
16.37292710193294
 51
118.6270728980386
  0
ARC
  5
1632
330
74
100
AcDbEntity
  8
AM_0 ( Kontur 0.5 )
100
AcDbCircle
 10
3523.388462286533
 20
3349.973901108704
 30
0.0
 40
13.249999801005
100
AcDbArc
 50
80.60920819815541
 51
144.3907918018414
  0
LINE
  5
1633
330
74
100
AcDbEntity
  8
AM_0 ( Kontur 0.5 )
100
AcDbLine
 10
3507.251750015544
 20
3367.373082128764
 30
0.0
 11
3522.495762073044
 21
3373.687358667954
 31
0.0
  0
ARC
  5
1634
330
74
100
AcDbEntity
  8
AM_0 ( Kontur 0.5 )
100
AcDbCircle
 10
-3509.165167148636
 20
3362.753684535584
 30
0.0
 40
4.99999992490753
210
0.0
220
0.0
230
-1.0
100
AcDbArc
 50
337.5000000000087
 51
67.49999999998468
  0
LINE
  5
1635
330
74
100
AcDbEntity
  8
AM_0 ( Kontur 0.5 )
100
AcDbLine
 10
3507.521181517254
 20
3349.084017182284
 30
0.0
 11
3505.225080957543
 21
3354.627294294096
 31
0.0
  0
LINE
  5
1636
330
74
100
AcDbEntity
  8
AM_0 ( Kontur 0.5 )
100
AcDbLine
 10
3506.308225837854
 20
3356.585321542434
 30
0.0
 11
3504.545769555454
 21
3360.840267402494
 31
0.0
  0
ARC
  5
1637
330
74
100
AcDbEntity
  8
AM_0 ( Kontur 0.5 )
100
AcDbCircle
 10
3510.154551670183
 20
3353.179002806364
 30
0.0
 40
5.137823443849758
100
AcDbArc
 50
61.37292710196138
 51
163.627072898067
  0
LINE
  5
1638
330
74
100
AcDbEntity
  8
AM_0 ( Kontur 0.5 )
100
AcDbLine
 10
3514.912217666342
 20
3352.145484595224
 30
0.0
 11
3512.616117106634
 21
3357.688761707044
 31
0.0
  0
LINE
  5
1639
330
74
100
AcDbEntity
  8
AM_0 ( Kontur 0.5 )
100
AcDbLine
 10
3507.521181517254
 20
3349.084017182284
 30
0.0
 11
3535.237567076333
 21
3360.564519980814
 31
0.0
  0
LINE
  5
163A
330
74
100
AcDbEntity
  8
AM_3 ( Verdeckt )
100
AcDbLine
 10
3518.356368505904
 20
3343.830568927494
 30
0.0
 11
3516.825634799435
 21
3347.526087002044
 31
0.0
  0
ARC
  5
163B
330
74
100
AcDbEntity
  8
AM_3 ( Verdeckt )
100
AcDbCircle
 10
-3511.843568405743
 20
3349.101355696304
 30
0.0
 40
8.378410249377751
210
0.0
220
0.0
230
-1.0
100
AcDbArc
 50
218.9831276717058
 51
276.0168723282723
  0
LINE
  5
163C
330
74
100
AcDbEntity
  8
AM_3 ( Verdeckt )
100
AcDbLine
 10
3510.965332356813
 20
3340.769101514554
 30
0.0
 11
3509.728602038213
 21
3343.754832622724
 31
0.0
  0
LINE
  5
163D
330
74
100
AcDbEntity
  8
AM_0 ( Kontur 0.5 )
100
AcDbLine
 10
3509.728602038213
 20
3343.754832622724
 30
0.0
 11
3509.434598650344
 21
3344.464619589104
 31
0.0
  0
LINE
  5
163E
330
74
100
AcDbEntity
  8
AM_0 ( Kontur 0.5 )
100
AcDbLine
 10
3512.516463418613
 20
3346.823561957554
 30
0.0
 11
3510.985729712134
 21
3350.519080032095
 31
0.0
  0
ARC
  5
163F
330
74
100
AcDbEntity
  8
AM_0 ( Kontur 0.5 )
100
AcDbCircle
 10
3515.947398750505
 20
3339.193832820294
 30
0.0
 40
8.378410249377751
100
AcDbArc
 50
94.75566103135269
 51
141.0168723282941
  0
LINE
  5
1640
330
74
100
AcDbEntity
  8
AM_0 ( Kontur 0.5 )
100
AcDbLine
 10
3537.444987597292
 20
3355.235335421254
 30
0.0
 11
3537.150984209424
 21
3355.945122387634
 31
0.0
  0
LINE
  5
1641
330
74
100
AcDbEntity
  8
AM_0 ( Kontur 0.5 )
100
AcDbLine
 10
3512.261913423343
 20
3346.718123897214
 30
0.0
 11
3533.558302583184
 21
3355.539377116794
 31
0.0
  0
LINE
  5
1642
330
74
100
AcDbEntity
  8
AM_0 ( Kontur 0.5 )
100
AcDbLine
 10
3533.303752587924
 20
3355.433939056454
 30
0.0
 11
3531.773018881454
 21
3359.129457130995
 31
0.0
  0
ARC
  5
1643
330
74
100
AcDbEntity
  8
AM_0 ( Kontur 0.5 )
100
AcDbCircle
 10
-3536.272748160494
 20
3347.612868205884
 30
0.0
 40
8.378410249377751
210
0.0
220
0.0
230
-1.0
100
AcDbArc
 50
49.75566103131846
 51
96.01687232827231
  0
LINE
  5
1644
330
74
100
AcDbEntity
  8
AM_3 ( Verdeckt )
100
AcDbLine
 10
3538.681717915892
 20
3352.249604313094
 30
0.0
 11
3537.444987597292
 21
3355.235335421254
 31
0.0
  0
ARC
  5
1645
330
74
100
AcDbEntity
  8
AM_3 ( Verdeckt )
100
AcDbCircle
 10
3532.168917815734
 20
3357.520391081894
 30
0.0
 40
8.378410249377751
100
AcDbArc
 50
263.9831276717277
 51
321.0168723282942
  0
ARC
  5
1646
330
74
100
AcDbEntity
  8
AM_3 ( Verdeckt )
100
AcDbCircle
 10
3515.639122897523
 20
3368.682461361094
 30
0.0
 40
24.9999996245438
100
AcDbArc
 50
276.2397952916864
 51
308.7602047083196
  0
LINE
  5
1647
330
74
100
AcDbEntity
  8
AM_3 ( Verdeckt )
100
AcDbLine
 10
3531.290681766805
 20
3349.188136900144
 30
0.0
 11
3529.759948060333
 21
3352.883654974694
 31
0.0
  0
ARC
  5
1648
330
74
100
AcDbEntity
  8
AM_3 ( Verdeckt )
100
AcDbCircle
 10
3515.947398750505
 20
3339.193832820294
 30
0.0
 40
8.378410249377751
100
AcDbArc
 50
83.98312767172768
 51
94.75566103135269
  0
ARC
  5
1649
330
74
100
AcDbEntity
  8
AM_3 ( Verdeckt )
100
AcDbCircle
 10
-3532.477193668713
 20
3328.031762541094
 30
0.0
 40
24.9999996245438
210
0.0
220
0.0
230
-1.0
100
AcDbArc
 50
51.23979529168035
 51
83.76020470831358
  0
ARC
  5
164A
330
74
100
AcDbEntity
  8
AM_3 ( Verdeckt )
100
AcDbCircle
 10
-3536.272748160494
 20
3347.612868205884
 30
0.0
 40
8.378410249377751
210
0.0
220
0.0
230
-1.0
100
AcDbArc
 50
38.9831276717058
 51
49.75566103131846
  0
LINE
  5
164B
330
74
100
AcDbEntity
  8
AM_2 ( Kontur 0.25)
100
AcDbLine
 10
3536.261982727463
 20
3282.386817301656
 30
0.0
 11
3536.346061476005
 21
3286.258887847694
 31
0.0
  0
LINE
  5
164C
330
74
100
AcDbEntity
  8
AM_2 ( Kontur 0.25)
100
AcDbLine
 10
3541.388506814073
 20
3287.513341388264
 30
0.0
 11
3541.472585562615
 21
3291.385411934304
 31
0.0
  0
LINE
  5
164D
330
74
100
AcDbEntity
  8
AM_2 ( Kontur 0.25)
100
AcDbLine
 10
3529.364447638772
 20
3289.390140178414
 30
0.0
 11
3529.280368890223
 21
3293.262210724454
 31
0.0
  0
LINE
  5
164E
330
74
100
AcDbEntity
  8
AM_2 ( Kontur 0.25)
100
AcDbLine
 10
3540.388742498063
 20
3287.535050427794
 30
0.0
 11
3540.472821246606
 21
3291.407120973824
 31
0.0
  0
CIRCLE
  5
164F
330
74
100
AcDbEntity
  8
AM_2 ( Kontur 0.25)
100
AcDbCircle
 10
3528.822526106493
 20
3291.315320931673
 30
0.0
 40
1.99999996996301
  0
LINE
  5
1650
330
74
100
AcDbEntity
  8
AM_2 ( Kontur 0.25)
100
AcDbLine
 10
3524.791670422554
 20
3291.280312684864
 30
0.0
 11
3528.857534353303
 21
3295.346176615624
 31
0.0
  0
LINE
  5
1651
330
74
100
AcDbEntity
  8
AM_2 ( Kontur 0.25)
100
AcDbLine
 10
3535.262218411454
 20
3282.408526341184
 30
0.0
 11
3535.346297160005
 21
3286.280596887214
 31
0.0
  0
CIRCLE
  5
1652
330
74
100
AcDbEntity
  8
AM_2 ( Kontur 0.25)
100
AcDbCircle
 10
-3535.804139943734
 20
3284.333707094435
 30
0.0
 40
2.24999996620839
210
0.0
220
0.0
230
-1.0
  0
LINE
  5
1653
330
74
100
AcDbEntity
  8
AM_2 ( Kontur 0.25)
100
AcDbLine
 10
3528.364683322764
 20
3289.368431138895
 30
0.0
 11
3528.280604574224
 21
3293.240501684924
 31
0.0
  0
LINE
  5
1654
330
74
100
AcDbEntity
  8
AM_2 ( Kontur 0.25)
100
AcDbLine
 10
3550.088043800894
 20
3294.621763514464
 30
0.0
 11
3539.110582526522
 21
3305.599224788834
 31
0.0
  0
LINE
  5
1655
330
74
100
AcDbEntity
  8
AM_2 ( Kontur 0.25)
100
AcDbLine
 10
3538.059116007455
 20
3296.397643134695
 30
0.0
 11
3539.119776163304
 21
3297.458303290544
 31
0.0
  0
LINE
  5
1656
330
74
100
AcDbEntity
  8
AM_2 ( Kontur 0.25)
100
AcDbLine
 10
3535.759938060144
 20
3288.443772908784
 30
0.0
 11
3536.820598215993
 21
3289.504433064634
 31
0.0
  0
LINE
  5
1657
330
74
100
AcDbEntity
  8
AM_2 ( Kontur 0.25)
100
AcDbLine
 10
3546.022179870143
 20
3290.555899583704
 30
0.0
 11
3535.044718595773
 21
3301.533360858084
 31
0.0
  0
CIRCLE
  5
1658
330
74
100
AcDbEntity
  8
AM_2 ( Kontur 0.25)
100
AcDbCircle
 10
3528.822526106493
 20
3291.315320931673
 30
0.0
 40
2.24999996620839
  0
CIRCLE
  5
1659
330
74
100
AcDbEntity
  8
AM_2 ( Kontur 0.25)
100
AcDbCircle
 10
-3546.057188116954
 20
3294.586755267654
 30
0.0
 40
1.99999996996301
210
0.0
220
0.0
230
-1.0
  0
CIRCLE
  5
165A
330
74
100
AcDbEntity
  8
AM_2 ( Kontur 0.25)
100
AcDbCircle
 10
-3546.057188116954
 20
3294.586755267654
 30
0.0
 40
2.24999996620839
210
0.0
220
0.0
230
-1.0
  0
CIRCLE
  5
165B
330
74
100
AcDbEntity
  8
AM_2 ( Kontur 0.25)
100
AcDbCircle
 10
3539.075574279713
 20
3301.568369104894
 30
0.0
 40
2.24999996620839
  0
CIRCLE
  5
165C
330
74
100
AcDbEntity
  8
AM_2 ( Kontur 0.25)
100
AcDbCircle
 10
3539.075574279713
 20
3301.568369104894
 30
0.0
 40
1.99999996996301
  0
LINE
  5
165D
330
74
100
AcDbEntity
  8
AM_2 ( Kontur 0.25)
100
AcDbLine
 10
3539.617495811994
 20
3299.643188351634
 30
0.0
 11
3539.533417063443
 21
3303.515258897674
 31
0.0
  0
LINE
  5
165E
330
74
100
AcDbEntity
  8
AM_2 ( Kontur 0.25)
100
AcDbLine
 10
3538.617731495985
 20
3299.621479312115
 30
0.0
 11
3538.533652747444
 21
3303.493549858144
 31
0.0
  0
LINE
  5
165F
330
74
100
AcDbEntity
  8
AM_2 ( Kontur 0.25)
100
AcDbLine
 10
3535.044718595773
 20
3301.533360858084
 30
0.0
 11
3539.110582526522
 21
3305.599224788834
 31
0.0
  0
LINE
  5
1660
330
74
100
AcDbEntity
  8
AM_2 ( Kontur 0.25)
100
AcDbLine
 10
3546.022179870143
 20
3290.555899583704
 30
0.0
 11
3550.088043800894
 21
3294.621763514464
 31
0.0
  0
LINE
  5
1661
330
74
100
AcDbEntity
  8
AM_2 ( Kontur 0.25)
100
AcDbLine
 10
3535.769131696922
 20
3280.302851410494
 30
0.0
 11
3539.834995627674
 21
3284.368715341253
 31
0.0
  0
LINE
  5
1662
330
74
100
AcDbEntity
  8
AM_2 ( Kontur 0.25)
100
AcDbLine
 10
3540.886462146755
 20
3293.570296995394
 30
0.0
 11
3541.947122302604
 21
3294.630957151244
 31
0.0
  0
LINE
  5
1663
330
74
100
AcDbEntity
  8
AM_2 ( Kontur 0.25)
100
AcDbLine
 10
3546.599109649223
 20
3296.511936020914
 30
0.0
 11
3546.515030900684
 21
3292.639865474875
 31
0.0
  0
LINE
  5
1664
330
74
100
AcDbEntity
  8
AM_2 ( Kontur 0.25)
100
AcDbLine
 10
3544.961519714294
 20
3289.495239427854
 30
0.0
 11
3533.984058439914
 21
3300.472700702234
 31
0.0
  0
LINE
  5
1665
330
74
100
AcDbEntity
  8
AM_2 ( Kontur 0.25)
100
AcDbLine
 10
3532.932591920842
 20
3291.271119048084
 30
0.0
 11
3533.993252076694
 21
3292.331779203934
 31
0.0
  0
LINE
  5
1666
330
74
100
AcDbEntity
  8
AM_2 ( Kontur 0.25)
100
AcDbLine
 10
3535.769131696922
 20
3280.302851410494
 30
0.0
 11
3524.791670422554
 21
3291.280312684864
 31
0.0
  0
LINE
  5
1667
330
74
100
AcDbEntity
  8
AM_2 ( Kontur 0.25)
100
AcDbLine
 10
3540.895655783534
 20
3285.429375497094
 30
0.0
 11
3529.918194509154
 21
3296.406836771473
 31
0.0
  0
LINE
  5
1668
330
74
100
AcDbEntity
  8
AM_2 ( Kontur 0.25)
100
AcDbLine
 10
3545.599345333223
 20
3296.533645060434
 30
0.0
 11
3545.515266584672
 21
3292.661574514403
 31
0.0
  0
CIRCLE
  5
1669
330
74
100
AcDbEntity
  8
AM_2 ( Kontur 0.25)
100
AcDbCircle
 10
-3540.930664030343
 20
3289.460231181044
 30
0.0
 40
1.99999996996301
210
0.0
220
0.0
230
-1.0
  0
CIRCLE
  5
166A
330
74
100
AcDbEntity
  8
AM_2 ( Kontur 0.25)
100
AcDbCircle
 10
-3540.930664030343
 20
3289.460231181044
 30
0.0
 40
2.24999996620839
210
0.0
220
0.0
230
-1.0
  0
CIRCLE
  5
166B
330
74
100
AcDbEntity
  8
AM_2 ( Kontur 0.25)
100
AcDbCircle
 10
3533.949050193104
 20
3296.441845018283
 30
0.0
 40
2.24999996620839
  0
CIRCLE
  5
166C
330
74
100
AcDbEntity
  8
AM_2 ( Kontur 0.25)
100
AcDbCircle
 10
3533.949050193104
 20
3296.441845018283
 30
0.0
 40
1.99999996996301
  0
LINE
  5
166D
330
74
100
AcDbEntity
  8
AM_2 ( Kontur 0.25)
100
AcDbLine
 10
3534.490971725384
 20
3294.516664265024
 30
0.0
 11
3534.406892976834
 21
3298.388734811064
 31
0.0
  0
LINE
  5
166E
330
74
100
AcDbEntity
  8
AM_2 ( Kontur 0.25)
100
AcDbLine
 10
3533.491207409373
 20
3294.494955225503
 30
0.0
 11
3533.407128660833
 21
3298.367025771534
 31
0.0
  0
LINE
  5
166F
330
74
100
AcDbEntity
  8
AM_2 ( Kontur 0.25)
100
AcDbLine
 10
3529.918194509154
 20
3296.406836771473
 30
0.0
 11
3533.984058439914
 21
3300.472700702234
 31
0.0
  0
LINE
  5
1670
330
74
100
AcDbEntity
  8
AM_2 ( Kontur 0.25)
100
AcDbLine
 10
3540.895655783534
 20
3285.429375497094
 30
0.0
 11
3544.961519714294
 21
3289.495239427854
 31
0.0
  0
CIRCLE
  5
1671
330
74
100
AcDbEntity
  8
AM_2 ( Kontur 0.25)
100
AcDbCircle
 10
-3535.804139943734
 20
3284.333707094435
 30
0.0
 40
1.99999996996301
210
0.0
220
0.0
230
-1.0
  0
LINE
  5
1672
330
74
100
AcDbEntity
  8
AM_2 ( Kontur 0.25)
100
AcDbLine
 10
3539.834995627674
 20
3284.368715341253
 30
0.0
 11
3528.857534353303
 21
3295.346176615624
 31
0.0
  0
LINE
  5
1673
330
74
100
AcDbEntity
  8
AM_2 ( Kontur 0.25)
100
AcDbLine
 10
3538.668350395484
 20
3294.179531383424
 30
0.0
 11
3545.984278511813
 21
3301.495459499754
 31
0.0
  0
DIMENSION
  5
18F6
102
{ACAD_XDICTIONARY
360
1904
102
}
102
{ACAD_REACTORS
330
1905
102
}
330
74
100
AcDbEntity
  8
AM_5 ( Bemassung)
100
AcDbDimension
280
     0
  2
*D2
 10
3635.706864060293
 20
3456.75922582201
 30
0.0
 11
3635.706864060292
 21
3481.28848701839
 31
0.0
 70
   160
 71
     5
 42
51.99999921904055
 73
     0
 74
     0
 75
     0
  3
AM_DIN$0
100
AcDbAlignedDimension
 13
3544.531721607164
 23
3508.75922504105
 33
0.0
 14
3544.531721607164
 24
3456.75922582201
 34
0.0
 50
90.00000000000005
100
AcDbRotatedDimension
1001
ACAD
1000
DSTYLE
1002
{
1070
    40
1040
2.0
1002
}
1001
ACAD_DSTYLE_DIMINSPECT
1070
   396
1000
100%
1070
   395
1000

1070
   394
1070
    33
1070
   393
1070
     0
  0
DIMENSION
  5
1918
330
74
100
AcDbEntity
  8
AM_5 ( Bemassung)
100
AcDbDimension
280
     0
  2
*D3
 10
3617.410598001393
 20
3456.75922582201
 30
0.0
 11
3617.410598001393
 21
3466.25922582201
 31
0.0
 70
   160
 71
     5
 42
19.0
 73
     0
 74
     0
 75
     0
  3
AM_DIN$0
100
AcDbAlignedDimension
 13
3577.481957912461
 23
3475.75922582201
 33
0.0000000000004547
 14
3544.531721607164
 24
3456.75922582201
 34
0.0
 50
90.00000000000005
100
AcDbRotatedDimension
1001
ACAD
1000
DSTYLE
1002
{
1070
    40
1040
2.0
1002
}
1001
ACAD_DSTYLE_DIMINSPECT
1070
   396
1000
100%
1070
   395
1000

1070
   394
1070
    33
1070
   393
1070
     0
  0
LINE
  5
19AB
102
{ACAD_REACTORS
330
19BB
102
}
330
74
100
AcDbEntity
  8
AM_0 ( Kontur 0.5 )
100
AcDbLine
 10
3487.031721607163
 20
3508.75922504105
 30
0.0
 11
3487.031721607163
 21
3498.75922519123
 31
0.0
  0
LINE
  5
19AC
330
74
100
AcDbEntity
  8
AM_0 ( Kontur 0.5 )
100
AcDbLine
 10
3602.031721607164
 20
3508.75922504105
 30
0.0
 11
3602.031721607164
 21
3498.75922519123
 31
0.0
  0
DIMENSION
  5
19AD
102
{ACAD_XDICTIONARY
360
19BA
102
}
102
{ACAD_REACTORS
330
19BB
102
}
330
74
100
AcDbEntity
  8
AM_5 ( Bemassung)
100
AcDbDimension
280
     0
  2
*D5
 10
3487.031721607163
 20
3532.75922504105
 30
0.0
 11
3544.531721607164
 21
3539.529006760013
 31
0.0
 70
    32
  1
%%c <>
 71
     5
 42
115.0
 73
     0
 74
     0
 75
     0
  3
AM_DIN$0
100
AcDbAlignedDimension
 13
3602.031721607164
 23
3508.75922504105
 33
0.0
 14
3487.031721607163
 24
3508.75922504105
 34
0.0
100
AcDbRotatedDimension
1001
ACAD
1000
DSTYLE
1002
{
1070
    40
1040
2.0
1002
}
1001
ACAD_DSTYLE_DIMINSPECT
1070
   396
1000
100%
1070
   395
1000

1070
   394
1070
    33
1070
   393
1070
     0
  0
CIRCLE
  5
19EF
330
74
100
AcDbEntity
  8
AM_0 ( Kontur 0.5 )
100
AcDbCircle
 10
3544.531721607164
 20
3298.929557704064
 30
0.0
 40
57.5
  0
LINE
  5
19F4
330
74
100
AcDbEntity
  8
AM_7 (Mittellinie)
  6
AM_ISO08W050x2
100
AcDbLine
 10
3577.481957912461
 20
3475.75922582201
 30
0.0000000000004547
 11
3590.717882940873
 21
3475.75922582201
 31
0.0000000000004547
1001
GENIUS_GENOREF_13
1005
19F8
  0
LINE
  5
19F5
330
74
100
AcDbEntity
  8
AM_7 (Mittellinie)
  6
AM_ISO08W050x2
100
AcDbLine
 10
3577.481957912461
 20
3475.75922582201
 30
0.0000000000004547
 11
3577.481957912461
 21
3488.995150850423
 31
0.0000000000004547
1001
GENIUS_GENOREF_13
1005
19F8
  0
LINE
  5
19F6
330
74
100
AcDbEntity
  8
AM_7 (Mittellinie)
  6
AM_ISO08W050x2
100
AcDbLine
 10
3577.481957912461
 20
3475.75922582201
 30
0.0000000000004547
 11
3564.246032884046
 21
3475.75922582201
 31
0.0000000000004547
1001
GENIUS_GENOREF_13
1005
19F8
  0
LINE
  5
19F7
330
74
100
AcDbEntity
  8
AM_7 (Mittellinie)
  6
AM_ISO08W050x2
100
AcDbLine
 10
3577.481957912461
 20
3475.75922582201
 30
0.0000000000004547
 11
3577.481957912461
 21
3462.523300793596
 31
0.0000000000004547
1001
GENIUS_GENOREF_13
1005
19F8
  0
LINE
  5
19FA
330
74
100
AcDbEntity
  8
AM_7 (Mittellinie)
  6
AM_ISO08W050x2
100
AcDbLine
 10
3511.581485301764
 20
3475.75922582201
 30
0.0000000001025455
 11
3522.115691983491
 21
3475.75922582201
 31
0.0000000001025455
1001
GENIUS_GENOREF_13
1005
19FE
  0
LINE
  5
19FB
330
74
100
AcDbEntity
  8
AM_7 (Mittellinie)
  6
AM_ISO08W050x2
100
AcDbLine
 10
3511.581485301764
 20
3475.75922582201
 30
0.0000000001025455
 11
3511.581485301764
 21
3486.293432503738
 31
0.0000000001025455
1001
GENIUS_GENOREF_13
1005
19FE
  0
LINE
  5
19FC
330
74
100
AcDbEntity
  8
AM_7 (Mittellinie)
  6
AM_ISO08W050x2
100
AcDbLine
 10
3511.581485301764
 20
3475.75922582201
 30
0.0000000001025455
 11
3501.047278620036
 21
3475.75922582201
 31
0.0000000001025455
1001
GENIUS_GENOREF_13
1005
19FE
  0
LINE
  5
19FD
330
74
100
AcDbEntity
  8
AM_7 (Mittellinie)
  6
AM_ISO08W050x2
100
AcDbLine
 10
3511.581485301764
 20
3475.75922582201
 30
0.0000000001025455
 11
3511.581485301764
 21
3465.225019140282
 31
0.0000000001025455
1001
GENIUS_GENOREF_13
1005
19FE
  0
DIMENSION
  5
19FF
102
{ACAD_XDICTIONARY
360
1A0C
102
}
102
{ACAD_REACTORS
330
1A0D
102
}
330
74
100
AcDbEntity
  8
AM_5 ( Bemassung)
100
AcDbDimension
280
     0
  2
*D7
 10
3652.738688381429
 20
3513.75922582201
 30
0.0
 11
3646.179002160419
 21
3485.259225822011
 31
0.0
 70
    32
 71
     5
 42
57.0
 73
     0
 74
     0
 75
     0
  3
AM_DIN$0
100
AcDbAlignedDimension
 13
3544.531721607164
 23
3456.75922582201
 33
0.0
 14
3544.531721607164
 24
3513.75922582201
 34
0.0
 50
90.00000000000005
100
AcDbRotatedDimension
1001
ACAD
1000
DSTYLE
1002
{
1070
    40
1040
2.0
1002
}
1001
ACAD_DSTYLE_DIMINSPECT
1070
   396
1000
100%
1070
   395
1000

1070
   394
1070
    33
1070
   393
1070
     0
  0
ENDSEC
  0
SECTION
  2
OBJECTS
  0
DICTIONARY
  5
C
330
0
100
AcDbDictionary
281
     1
  3
ACAD_CIP_PREVIOUS_PRODUCT_INFO
350
1B59
  3
ACAD_COLOR
350
6A
  3
ACAD_DETAILVIEWSTYLE
350
1B4D
  3
ACAD_FIELDLIST
350
1B75
  3
ACAD_GROUP
350
D
  3
ACAD_LAYOUT
350
69
  3
ACAD_MATERIAL
350
10
  3
ACAD_MLEADERSTYLE
350
6D
  3
ACAD_MLINESTYLE
350
66
  3
ACAD_PLOTSETTINGS
350
68
  3
ACAD_PLOTSTYLENAME
350
E
  3
ACAD_SCALELIST
350
3A
  3
ACAD_SECTIONVIEWSTYLE
350
1B4B
  3
ACAD_TABLESTYLE
350
6B
  3
ACAD_VISUALSTYLE
350
29
  3
ACDB_RECOMPOSE_DATA
350
1BC3
  3
AcDbVariableDictionary
350
1C9
  3
AcmDictionary
350
166
  3
AMG
350
10C
  3
AMGSNAPSETTINGS
350
19B
  3
ASE_INDEX_DICTIONARY
350
1153
  0
DICTIONARY
  5
1B6
330
8
100
AcDbDictionary
280
     1
281
     1
  0
DICTIONARY
  5
256
330
2
100
AcDbDictionary
280
     1
281
     1
  3
ACAD_LAYERSTATES
360
1BA5
  3
AMLAYER_GROUPCOLORS
360
257
  0
DICTIONARY
  5
1A2
330
5C
100
AcDbDictionary
280
     1
281
     1
  3
ADSK_XREC_LAYER_RECONCILED
360
D41
  0
DICTIONARY
  5
2C7
330
27F
100
AcDbDictionary
280
     1
281
     1
  3
ADSK_XREC_LAYER_RECONCILED
360
D4D
  0
DICTIONARY
  5
2CD
330
2AE
100
AcDbDictionary
280
     1
281
     1
  3
ADSK_XREC_LAYER_RECONCILED
360
D50
  0
DICTIONARY
  5
A88
330
74
100
AcDbDictionary
280
     1
281
     1
  3
ACAD_SORTENTS
360
A89
  0
DICTIONARY
  5
1904
330
18F6
100
AcDbDictionary
280
     1
281
     1
  3
ACAD_DIMASSOC
360
1905
  0
DICTIONARY
  5
19BA
330
19AD
100
AcDbDictionary
280
     1
281
     1
  3
ACAD_DIMASSOC
360
19BB
  0
DICTIONARY
  5
1A0C
330
19FF
100
AcDbDictionary
280
     1
281
     1
  3
ACAD_DIMASSOC
360
1A0D
  0
XRECORD
  5
1B59
102
{ACAD_REACTORS
330
C
102
}
330
C
100
AcDbXrecord
280
     1
300
AMECH_PP
300
2016
300
PDSU_F_S
  0
DICTIONARY
  5
6A
102
{ACAD_REACTORS
330
C
102
}
330
C
100
AcDbDictionary
281
     1
  0
DICTIONARY
  5
1B4D
102
{ACAD_REACTORS
330
C
102
}
330
C
100
AcDbDictionary
281
     1
  3
Metric50
350
1B4E
  0
FIELDLIST
  5
1B75
102
{ACAD_REACTORS
330
C
102
}
330
C
100
AcDbIdSet
 90
       16
330
1B73
330
1B74
330
1B76
330
1B77
330
1B80
330
1B81
330
1B82
330
1B8A
330
1B8B
330
1B8C
330
1B90
330
1B91
330
1B92
330
1B97
330
1B98
330
1B99
100
AcDbFieldList
  0
DICTIONARY
  5
D
102
{ACAD_REACTORS
330
C
102
}
330
C
100
AcDbDictionary
281
     1
  0
DICTIONARY
  5
69
102
{ACAD_REACTORS
330
C
102
}
330
C
100
AcDbDictionary
281
     1
  3
Layout1
350
73
  3
Model
350
77
  0
DICTIONARY
  5
10
102
{ACAD_REACTORS
330
C
102
}
330
C
100
AcDbDictionary
281
     1
  3
ByBlock
350
19
  3
ByLayer
350
11
  3
Global
350
21
  0
DICTIONARY
  5
6D
102
{ACAD_REACTORS
330
C
102
}
330
C
100
AcDbDictionary
281
     1
  3
Standard
350
6E
  0
DICTIONARY
  5
66
102
{ACAD_REACTORS
330
C
102
}
330
C
100
AcDbDictionary
281
     1
  3
Standard
350
67
  0
DICTIONARY
  5
68
102
{ACAD_REACTORS
330
C
102
}
330
C
100
AcDbDictionary
281
     1
  0
ACDBDICTIONARYWDFLT
  5
E
102
{ACAD_REACTORS
330
C
102
}
330
C
100
AcDbDictionary
281
     1
  3
Normal
350
F
100
AcDbDictionaryWithDefault
340
F
  0
DICTIONARY
  5
3A
102
{ACAD_REACTORS
330
C
102
}
330
C
100
AcDbDictionary
281
     1
  3
A0
350
3B
  3
A1
350
3C
  0
DICTIONARY
  5
1B4B
102
{ACAD_REACTORS
330
C
102
}
330
C
100
AcDbDictionary
281
     1
  3
Metric50
350
1B4C
  0
DICTIONARY
  5
6B
102
{ACAD_REACTORS
330
C
102
}
330
C
100
AcDbDictionary
281
     1
  3
Standard
350
6C
  0
DICTIONARY
  5
29
102
{ACAD_REACTORS
330
C
102
}
330
C
100
AcDbDictionary
281
     1
  3
2dWireframe
350
2F
  3
3D Hidden
350
31
  3
3dWireframe
350
30
  3
Basic
350
2E
  3
Brighten
350
35
  3
ColorChange
350
39
  3
Conceptual
350
32
  3
Dim
350
34
  3
EdgeColorOff
350
1B4A
  3
Facepattern
350
38
  3
Flat
350
2A
  3
FlatWithEdges
350
2B
  3
Gouraud
350
2C
  3
GouraudWithEdges
350
2D
  3
Hidden
350
1B42
  3
JitterOff
350
1B48
  3
Linepattern
350
37
  3
OverhangOff
350
1B49
  3
Realistic
350
33
  3
Shaded
350
1B47
  3
Shaded with edges
350
1B46
  3
Shades of Gray
350
1B43
  3
Sketchy
350
1B44
  3
Thicken
350
36
  3
Wireframe
350
1B41
  3
X-Ray
350
1B45
  0
XRECORD
  5
1BC3
102
{ACAD_REACTORS
330
C
102
}
330
C
100
AcDbXrecord
280
     1
 90
        1
330
6C
330
1B4C
330
1B4E
  0
DICTIONARY
  5
1C9
102
{ACAD_REACTORS
330
C
102
}
330
C
100
AcDbDictionary
281
     1
  3
CANNOSCALE
350
1CC
  3
CMLEADERSTYLE
350
1CB
  3
CTABLESTYLE
350
1CA
  3
CVIEWDETAILSTYLE
350
1BBA
  3
CVIEWSECTIONSTYLE
350
1BBB
  3
DIMASSOC
350
1CF
  3
INDEXCTL
350
1CE
  3
LAYEREVAL
350
1BBC
  3
LAYERNOTIFY
350
1BBD
  3
LIGHTINGUNITS
350
2D3
  3
MSLTSCALE
350
2D2
  3
SORTENTS
350
1CD
  0
DICTIONARY
  5
166
102
{ACAD_REACTORS
330
C
102
}
330
C
100
AcDbDictionary
281
     1
  3
AcmBOM
350
2B6
  3
AcmStdDictionary
350
171
  3
AMDTSECTSYM_ARROWCOLOR
350
186
  0
DICTIONARY
  5
10C
102
{ACAD_REACTORS
330
C
102
}
330
C
100
AcDbDictionary
281
     1
  0
DICTIONARY
  5
19B
102
{ACAD_REACTORS
330
C
102
}
330
C
100
AcDbDictionary
281
     1
  0
DICTIONARY
  5
1153
102
{ACAD_REACTORS
330
C
102
}
330
C
100
AcDbDictionary
281
     1
  3
ASEBlockHierarchyIndexRecord
350
1154
1001
DCO15
1040
1635049673.674
  0
DICTIONARY
  5
1BA5
102
{ACAD_REACTORS
330
256
102
}
330
256
100
AcDbDictionary
281
     1
  0
DICTIONARY
  5
257
102
{ACAD_REACTORS
330
256
102
}
330
256
100
AcDbDictionary
280
     1
281
     1
  0
XRECORD
  5
D41
102
{ACAD_REACTORS
330
1A2
102
}
330
1A2
100
AcDbXrecord
280
     1
290
     1
  0
XRECORD
  5
D4D
102
{ACAD_REACTORS
330
2C7
102
}
330
2C7
100
AcDbXrecord
280
     1
290
     1
  0
XRECORD
  5
D50
102
{ACAD_REACTORS
330
2CD
102
}
330
2CD
100
AcDbXrecord
280
     1
290
     1
  0
SORTENTSTABLE
  5
A89
102
{ACAD_REACTORS
330
A88
102
}
330
A88
100
AcDbSortentsTable
330
74
  0
DIMASSOC
  5
1905
102
{ACAD_REACTORS
330
1904
102
}
330
1904
100
AcDbDimAssoc
330
18F6
 90
        3
 70
     0
 71
     0
  1
AcDbOsnapPointRef
 72
     6
331
1401
 73
     0
 91
        0
 40
0.8409731345067113
 10
0.0
 20
0.0
 30
0.0
332
14D4
 74
     0
 92
        0
 75
     0
  1
AcDbOsnapPointRef
 72
     6
331
1401
 73
     0
 91
        0
 40
0.0091120673023588
 10
0.0
 20
0.0
 30
0.0
332
1445
 74
     0
 92
        0
 75
     0
  0
DIMASSOC
  5
19BB
102
{ACAD_REACTORS
330
19BA
102
}
330
19BA
100
AcDbDimAssoc
330
19AD
 90
        2
 70
     0
 71
     0
  1
AcDbOsnapPointRef
 72
     6
331
14D4
 73
     0
 91
        0
 40
1.0
 10
0.0
 20
0.0
 30
0.0
332
19AB
 74
     0
 92
        0
 75
     0
  0
DIMASSOC
  5
1A0D
102
{ACAD_REACTORS
330
1A0C
102
}
330
1A0C
100
AcDbDimAssoc
330
19FF
 90
        1
 70
     0
 71
     0
  1
AcDbOsnapPointRef
 72
     6
331
1401
 73
     0
 91
        0
 40
0.0091120673023588
 10
0.0
 20
0.0
 30
0.0
 75
     0
  0
ACDBDETAILVIEWSTYLE
  5
1B4E
102
{ACAD_XDICTIONARY
360
1BC1
102
}
102
{ACAD_REACTORS
330
1B4D
330
1B67
330
1B69
330
1B6B
102
}
330
1B4D
100
AcDbModelDocViewStyle
 70
     0
  3
Metric50
290
     0
100
AcDbDetailViewStyle
 70
     0
 71
     0
 90
        3
 71
     1
340
5D
 62
   256
 40
5.0
340
0
 62
   256
 40
5.0
300

 40
0.0
280
     1
 71
     2
340
64
 90
       25
 62
   256
 71
     3
340
5D
 62
   256
 40
5.0
 90
        0
 40
15.0
 90
        1
300
%<\AcVar ViewDetailId>% (%<\AcVar ViewScale \f "%sn">%)
 71
     4
340
64
 90
       25
 62
   256
340
64
 90
       25
 62
   256
280
     0
  0
LAYOUT
  5
73
102
{ACAD_REACTORS
330
69
102
}
330
69
100
AcDbPlotSettings
  1

  2
\\OASE42\HP DesignJet 500 42+HPGL2 Card
  4

  6

 40
0.0
 41
0.0
 42
0.0
 43
0.0
 44
0.0
 45
0.0
 46
0.0
 47
0.0
 48
0.0
 49
0.0
140
0.0
141
0.0
142
1.0
143
1.0
 70
   688
 72
     0
 73
     0
 74
     5
  7
C:\Dokumente und Einstellungen\guzb562\Anwendungsdaten\Autodesk\Autodesk Mechanical Desktop 2008\R17.1\deu\Plot Styles\OASE.ctb
 75
    16
147
1.0
 76
     0
 77
     2
 78
   300
148
0.0
149
0.0
100
AcDbLayout
  1
Layout1
 70
     1
 71
     1
 10
0.0
 20
0.0
 11
12.0
 21
9.0
 12
0.0
 22
0.0
 32
0.0
 14
1.000000000000000E+20
 24
1.000000000000000E+20
 34
1.000000000000000E+20
 15
-1.000000000000000E+20
 25
-1.000000000000000E+20
 35
-1.000000000000000E+20
146
0.0
 13
0.0
 23
0.0
 33
0.0
 16
1.0
 26
0.0
 36
0.0
 17
0.0
 27
1.0
 37
0.0
 76
     0
330
70
  0
LAYOUT
  5
77
102
{ACAD_REACTORS
330
69
102
}
330
69
100
AcDbPlotSettings
  1

  2
HP DesignJet 500 42+HPGL2 Card.pc3
  4
User622
  6

 40
0.0
 41
0.0845947265625
 42
0.084716796875
 43
0.0
 44
841.0786743164063
 45
1189.05859375
 46
0.0
 47
0.0
 48
0.0
 49
0.0
140
0.0
141
0.0
142
1.0
143
8.825566186707652
 70
 11952
 72
     1
 73
     1
 74
     0
  7
C:\Dokumente und Einstellungen\guzb562\Anwendungsdaten\Autodesk\Autodesk Mechanical Desktop 2008\R17.1\deu\Plot Styles\OASE.ctb
 75
     0
147
0.1133071781282563
 76
     0
 77
     2
 78
   300
148
375.8176034259132
149
23.23337679269889
100
AcDbLayout
  1
Model
 70
     1
 71
     0
 10
0.0
 20
0.0
 11
12.0
 21
9.0
 12
0.0
 22
0.0
 32
0.0
 14
0.0
 24
0.0
 34
0.0
 15
0.0
 25
0.0
 35
0.0
146
0.0
 13
0.0
 23
0.0
 33
0.0
 16
1.0
 26
0.0
 36
0.0
 17
0.0
 27
1.0
 37
0.0
 76
     0
330
74
331
82
1001
ACAD_PSEXT
1000
HP DesignJet 500 42+HPGL2 Card.pc3
1000
HP DesignJet 500 42+HPGL2 Card
1000
\\oase42
1000

1070
     0
  0
MATERIAL
  5
19
102
{ACAD_XDICTIONARY
360
1A
102
}
102
{ACAD_REACTORS
330
10
102
}
330
10
100
AcDbMaterial
  1
ByBlock
 72
     0
 43
0.0208333333333333
 43
0.0
 43
0.0
 43
0.0
 43
0.0
 43
0.0208333333333333
 43
0.0
 43
0.0
 43
0.0
 43
0.0
 43
1.0
 43
0.0
 43
0.0
 43
0.0
 43
0.0
 43
1.0
 77
     0
 47
0.0208333333333333
 47
0.0
 47
0.0
 47
0.0
 47
0.0
 47
0.0208333333333333
 47
0.0
 47
0.0
 47
0.0
 47
0.0
 47
1.0
 47
0.0
 47
0.0
 47
0.0
 47
0.0
 47
1.0
171
     0
 49
0.0208333333333333
 49
0.0
 49
0.0
 49
0.0
 49
0.0
 49
0.0208333333333333
 49
0.0
 49
0.0
 49
0.0
 49
0.0
 49
1.0
 49
0.0
 49
0.0
 49
0.0
 49
0.0
 49
1.0
175
     0
142
0.0208333333333333
142
0.0
142
0.0
142
0.0
142
0.0
142
0.0208333333333333
142
0.0
142
0.0
142
0.0
142
0.0
142
1.0
142
0.0
142
0.0
142
0.0
142
0.0
142
1.0
179
     0
144
0.0208333333333333
144
0.0
144
0.0
144
0.0
144
0.0
144
0.0208333333333333
144
0.0
144
0.0
144
0.0
144
0.0
144
1.0
144
0.0
144
0.0
144
0.0
144
0.0
144
1.0
147
0.0208333333333333
147
0.0
147
0.0
147
0.0
147
0.0
147
0.0208333333333333
147
0.0
147
0.0
147
0.0
147
0.0
147
1.0
147
0.0
147
0.0
147
0.0
147
0.0
147
1.0
  0
MATERIAL
  5
11
102
{ACAD_XDICTIONARY
360
12
102
}
102
{ACAD_REACTORS
330
10
102
}
330
10
100
AcDbMaterial
  1
ByLayer
 72
     0
 43
0.0208333333333333
 43
0.0
 43
0.0
 43
0.0
 43
0.0
 43
0.0208333333333333
 43
0.0
 43
0.0
 43
0.0
 43
0.0
 43
1.0
 43
0.0
 43
0.0
 43
0.0
 43
0.0
 43
1.0
 77
     0
 47
0.0208333333333333
 47
0.0
 47
0.0
 47
0.0
 47
0.0
 47
0.0208333333333333
 47
0.0
 47
0.0
 47
0.0
 47
0.0
 47
1.0
 47
0.0
 47
0.0
 47
0.0
 47
0.0
 47
1.0
171
     0
 49
0.0208333333333333
 49
0.0
 49
0.0
 49
0.0
 49
0.0
 49
0.0208333333333333
 49
0.0
 49
0.0
 49
0.0
 49
0.0
 49
1.0
 49
0.0
 49
0.0
 49
0.0
 49
0.0
 49
1.0
175
     0
142
0.0208333333333333
142
0.0
142
0.0
142
0.0
142
0.0
142
0.0208333333333333
142
0.0
142
0.0
142
0.0
142
0.0
142
1.0
142
0.0
142
0.0
142
0.0
142
0.0
142
1.0
179
     0
144
0.0208333333333333
144
0.0
144
0.0
144
0.0
144
0.0
144
0.0208333333333333
144
0.0
144
0.0
144
0.0
144
0.0
144
1.0
144
0.0
144
0.0
144
0.0
144
0.0
144
1.0
147
0.0208333333333333
147
0.0
147
0.0
147
0.0
147
0.0
147
0.0208333333333333
147
0.0
147
0.0
147
0.0
147
0.0
147
1.0
147
0.0
147
0.0
147
0.0
147
0.0
147
1.0
  0
MATERIAL
  5
21
102
{ACAD_XDICTIONARY
360
22
102
}
102
{ACAD_REACTORS
330
10
102
}
330
10
100
AcDbMaterial
  1
Global
 72
     0
 43
0.0208333333333333
 43
0.0
 43
0.0
 43
0.0
 43
0.0
 43
0.0208333333333333
 43
0.0
 43
0.0
 43
0.0
 43
0.0
 43
1.0
 43
0.0
 43
0.0
 43
0.0
 43
0.0
 43
1.0
 77
     0
 47
0.0208333333333333
 47
0.0
 47
0.0
 47
0.0
 47
0.0
 47
0.0208333333333333
 47
0.0
 47
0.0
 47
0.0
 47
0.0
 47
1.0
 47
0.0
 47
0.0
 47
0.0
 47
0.0
 47
1.0
171
     0
 49
0.0208333333333333
 49
0.0
 49
0.0
 49
0.0
 49
0.0
 49
0.0208333333333333
 49
0.0
 49
0.0
 49
0.0
 49
0.0
 49
1.0
 49
0.0
 49
0.0
 49
0.0
 49
0.0
 49
1.0
175
     0
142
0.0208333333333333
142
0.0
142
0.0
142
0.0
142
0.0
142
0.0208333333333333
142
0.0
142
0.0
142
0.0
142
0.0
142
1.0
142
0.0
142
0.0
142
0.0
142
0.0
142
1.0
179
     0
144
0.0208333333333333
144
0.0
144
0.0
144
0.0
144
0.0
144
0.0208333333333333
144
0.0
144
0.0
144
0.0
144
0.0
144
1.0
144
0.0
144
0.0
144
0.0
144
0.0
144
1.0
147
0.0208333333333333
147
0.0
147
0.0
147
0.0
147
0.0
147
0.0208333333333333
147
0.0
147
0.0
147
0.0
147
0.0
147
1.0
147
0.0
147
0.0
147
0.0
147
0.0
147
1.0
  0
MLEADERSTYLE
  5
6E
102
{ACAD_REACTORS
330
6D
102
}
330
6D
100
AcDbMLeaderStyle
179
     2
170
     2
171
     1
172
     0
 90
        2
 40
0.0
 41
0.0
173
     1
 91
-1056964608
340
62
 92
       -2
290
     1
 42
0.09
291
     1
 43
0.36
  3
Standard
 44
0.18
300

342
5D
174
     1
178
     6
175
     1
176
     0
 93
-1056964608
 45
0.18
292
     0
297
     0
 46
0.18
 94
-1056964608
 47
1.0
 49
1.0
140
1.0
293
     1
141
0.0
294
     1
177
     0
142
1.0
295
     0
296
     0
143
0.125
271
     0
272
     9
273
     9
298
     0
  0
MLINESTYLE
  5
67
102
{ACAD_REACTORS
330
66
102
}
330
66
100
AcDbMlineStyle
  2
STANDARD
 70
     0
  3

 62
   256
 51
90.0
 52
90.0
 71
     2
 49
0.5
 62
   256
  6
BYLAYER
 49
-0.5
 62
   256
  6
BYLAYER
  0
ACDBPLACEHOLDER
  5
F
102
{ACAD_REACTORS
330
E
102
}
330
E
  0
SCALE
  5
3B
102
{ACAD_REACTORS
330
3A
102
}
330
3A
100
AcDbScale
 70
     0
300
1:1
140
1.0
141
1.0
290
     1
  0
SCALE
  5
3C
102
{ACAD_REACTORS
330
3A
102
}
330
3A
100
AcDbScale
 70
     0
300
1:2
140
1.0
141
2.0
290
     0
  0
ACDBSECTIONVIEWSTYLE
  5
1B4C
102
{ACAD_XDICTIONARY
360
1BBF
102
}
102
{ACAD_REACTORS
330
1B4B
330
1B66
330
1B68
330
1B6A
102
}
330
1B4B
100
AcDbModelDocViewStyle
 70
     0
  3
Metric50
290
     0
100
AcDbSectionViewStyle
 70
     0
 71
     0
 90
      102
 71
     1
340
5D
 62
   256
 40
5.0
340
0
340
0
 62
   256
 40
5.0
300
I, O, Q, S, X, Z
 40
10.0
 90
        0
 40
2.5
 90
        0
 71
     2
340
64
 90
       25
 62
   256
340
64
 90
       50
 62
   256
 40
5.0
 40
2.5
 40
5.0
 71
     3
340
5D
 62
   256
 40
5.0
 90
        0
 40
15.0
 90
        1
300
%<\AcVar ViewSectionStartId>%-%<\AcVar ViewSectionEndId>% (%<\AcVar ViewScale \f "%sn">%)
 71
     4
 62
   256
 62
   257
300
ANSI31
 40
1.0
 90
        0
290
     0
290
     0
 90
        6
 40
0.0
 40
1.570796326794896
 40
0.2617993877991494
 40
1.308996938995747
 40
-0.2617993877991494
 40
1.832595714594046
  0
TABLESTYLE
  5
6C
102
{ACAD_XDICTIONARY
360
1B2
102
}
102
{ACAD_REACTORS
330
6B
102
}
330
6B
100
AcDbTableStyle
280
     0
  3
Standard
 70
     0
 71
     0
 40
0.06
 41
0.06
280
     0
281
     0
  7
STANDARD
140
0.18
170
     2
 62
     0
 63
     7
283
     0
 90
      512
 91
        0
  1

274
    -2
284
     1
 64
     0
275
    -2
285
     1
 65
     0
276
    -2
286
     1
 66
     0
277
    -2
287
     1
 67
     0
278
    -2
288
     1
 68
     0
279
    -2
289
     1
 69
     0
  7
STANDARD
140
0.25
170
     5
 62
     0
 63
     7
283
     0
 90
      512
 91
        0
  1

274
    -2
284
     1
 64
     0
275
    -2
285
     1
 65
     0
276
    -2
286
     1
 66
     0
277
    -2
287
     1
 67
     0
278
    -2
288
     1
 68
     0
279
    -2
289
     1
 69
     0
  7
STANDARD
140
0.18
170
     5
 62
     0
 63
     7
283
     0
 90
      512
 91
        0
  1

274
    -2
284
     1
 64
     0
275
    -2
285
     1
 65
     0
276
    -2
286
     1
 66
     0
277
    -2
287
     1
 67
     0
278
    -2
288
     1
 68
     0
279
    -2
289
     1
 69
     0
  0
VISUALSTYLE
  5
2F
102
{ACAD_REACTORS
330
29
102
}
330
29
100
AcDbVisualStyle
  2
2dWireframe
 70
     4
177
     3
291
     0
 70
    58
 90
        0
176
     1
 90
        2
176
     1
 90
        0
176
     1
 90
        0
176
     1
 40
0.6
176
     1
 40
30.0
176
     1
 62
     7
176
     1
 90
        1
176
     1
 90
        4
176
     1
 62
     7
176
     1
 62
   257
176
     1
 90
        1
176
     1
 90
        1
176
     1
 40
1.0
176
     1
 90
        0
176
     1
 62
   257
176
     1
 40
1.0
176
     1
 90
        1
176
     1
 90
        6
176
     1
 90
        2
176
     1
 62
     7
176
     1
 90
        5
176
     1
 90
        0
176
     1
 90
        0
176
     1
290
     0
176
     1
 90
        1
176
     1
 40
0.0
176
     1
 90
        0
176
     1
290
     1
176
     1
290
     1
176
     1
290
     0
176
     1
290
     0
176
     1
290
     0
176
     1
290
     0
176
     1
290
     0
176
     1
290
     0
176
     1
290
     0
176
     1
 90
       50
176
     1
 40
0.0
176
     1
 40
1.0
176
     1
 90
        0
176
     1
 62
    18
420
        0
176
     1
 90
       50
176
     1
 90
        3
176
     1
 62
     5
420
      255
176
     1
290
     0
176
     1
 90
       50
176
     1
 90
       50
176
     1
 90
       50
176
     1
290
     0
176
     1
 90
       50
176
     1
 62
   256
176
     0
 40
1.0
176
     0
 90
        2
176
     1
  1
strokes_ogs.tif
176
     1
290
     0
176
     1
 40
1.0
176
     1
 40
1.0
176
     1
  0
VISUALSTYLE
  5
31
102
{ACAD_REACTORS
330
29
102
}
330
29
100
AcDbVisualStyle
  2
3D Hidden
 70
     6
177
     3
291
     0
 70
    58
 90
        1
176
     1
 90
        2
176
     1
 90
        2
176
     1
 90
        0
176
     1
 40
0.6
176
     1
 40
30.0
176
     1
 62
     7
176
     1
 90
        2
176
     1
 90
        2
176
     1
 62
     7
176
     1
 62
   257
176
     1
 90
        2
176
     1
 90
        1
176
     1
 40
40.0
176
     1
 90
        0
176
     1
 62
   257
176
     1
 40
1.0
176
     1
 90
        1
176
     1
 90
        6
176
     1
 90
        2
176
     1
 62
     7
176
     1
 90
        3
176
     1
 90
        0
176
     1
 90
        0
176
     1
290
     0
176
     1
 90
        1
176
     1
 40
0.0
176
     1
 90
        0
176
     1
290
     0
176
     1
290
     1
176
     1
290
     1
176
     1
290
     0
176
     1
290
     0
176
     1
290
     0
176
     1
290
     0
176
     1
290
     0
176
     1
290
     0
176
     1
 90
       50
176
     1
 40
0.0
176
     1
 40
1.0
176
     1
 90
        0
176
     1
 62
    18
420
        0
176
     1
 90
       50
176
     1
 90
        3
176
     1
 62
     5
420
      255
176
     1
290
     0
176
     1
 90
       50
176
     1
 90
       50
176
     1
 90
       50
176
     1
290
     0
176
     1
 90
       50
176
     1
 62
   256
176
     0
 40
1.0
176
     0
 90
        2
176
     1
  1
strokes_ogs.tif
176
     1
290
     0
176
     1
 40
1.0
176
     1
 40
1.0
176
     1
  0
VISUALSTYLE
  5
30
102
{ACAD_REACTORS
330
29
102
}
330
29
100
AcDbVisualStyle
  2
3dWireframe
 70
     5
177
     3
291
     0
 70
    58
 90
        0
176
     1
 90
        2
176
     1
 90
        0
176
     1
 90
        0
176
     1
 40
0.6
176
     1
 40
30.0
176
     1
 62
     7
176
     1
 90
        1
176
     1
 90
        4
176
     1
 62
     7
176
     1
 62
   257
176
     1
 90
        1
176
     1
 90
        1
176
     1
 40
1.0
176
     1
 90
        0
176
     1
 62
   257
176
     1
 40
1.0
176
     1
 90
        1
176
     1
 90
        6
176
     1
 90
        2
176
     1
 62
     7
176
     1
 90
        5
176
     1
 90
        0
176
     1
 90
        0
176
     1
290
     0
176
     1
 90
        1
176
     1
 40
0.0
176
     1
 90
        0
176
     1
290
     0
176
     1
290
     1
176
     1
290
     1
176
     1
290
     0
176
     1
290
     0
176
     1
290
     0
176
     1
290
     0
176
     1
290
     0
176
     1
290
     0
176
     1
 90
       50
176
     1
 40
0.0
176
     1
 40
1.0
176
     1
 90
        0
176
     1
 62
    18
420
        0
176
     1
 90
       50
176
     1
 90
        3
176
     1
 62
     5
420
      255
176
     1
290
     0
176
     1
 90
       50
176
     1
 90
       50
176
     1
 90
       50
176
     1
290
     0
176
     1
 90
       50
176
     1
 62
   256
176
     0
 40
1.0
176
     0
 90
        2
176
     1
  1
strokes_ogs.tif
176
     1
290
     0
176
     1
 40
1.0
176
     1
 40
1.0
176
     1
  0
VISUALSTYLE
  5
2E
102
{ACAD_REACTORS
330
29
102
}
330
29
100
AcDbVisualStyle
  2
Basic
 70
     7
177
     3
291
     1
 70
    58
 90
        1
176
     1
 90
        0
176
     1
 90
        1
176
     1
 90
        0
176
     1
 40
0.6
176
     1
 40
30.0
176
     1
 62
     7
176
     1
 90
        0
176
     1
 90
        4
176
     1
 62
     7
176
     1
 62
   257
176
     1
 90
        1
176
     1
 90
        1
176
     1
 40
1.0
176
     1
 90
        8
176
     1
 62
     7
176
     1
 40
1.0
176
     1
 90
        1
176
     1
 90
        6
176
     1
 90
        2
176
     1
 62
     7
176
     1
 90
        5
176
     1
 90
        0
176
     1
 90
        0
176
     1
290
     0
176
     1
 90
        1
176
     1
 40
0.0
176
     1
 90
        0
176
     1
290
     0
176
     1
290
     1
176
     1
290
     1
176
     1
290
     0
176
     1
290
     0
176
     1
290
     0
176
     1
290
     0
176
     1
290
     0
176
     1
290
     0
176
     1
 90
       50
176
     1
 40
0.0
176
     1
 40
1.0
176
     1
 90
        0
176
     1
 62
    18
420
        0
176
     1
 90
       50
176
     1
 90
        3
176
     1
 62
     5
420
      255
176
     1
290
     0
176
     1
 90
       50
176
     1
 90
       50
176
     1
 90
       50
176
     1
290
     0
176
     1
 90
       50
176
     1
 62
   256
176
     0
 40
1.0
176
     0
 90
        2
176
     1
  1
strokes_ogs.tif
176
     1
290
     0
176
     1
 40
1.0
176
     1
 40
1.0
176
     1
  0
VISUALSTYLE
  5
35
102
{ACAD_REACTORS
330
29
102
}
330
29
100
AcDbVisualStyle
  2
Brighten
 70
    12
177
     3
291
     1
 70
    58
 90
        2
176
     1
 90
        2
176
     1
 90
        0
176
     1
 90
        0
176
     1
 40
0.6
176
     1
 40
30.0
176
     1
 62
     7
176
     1
 90
        1
176
     1
 90
        4
176
     1
 62
     7
176
     1
 62
   257
176
     1
 90
        1
176
     1
 90
        1
176
     1
 40
1.0
176
     1
 90
        8
176
     1
 62
     7
176
     1
 40
1.0
176
     1
 90
        1
176
     1
 90
        6
176
     1
 90
        2
176
     1
 62
     7
176
     1
 90
        5
176
     1
 90
        0
176
     1
 90
        0
176
     1
290
     0
176
     1
 90
        1
176
     1
 40
50.0
176
     1
 90
        0
176
     1
290
     0
176
     1
290
     1
176
     1
290
     1
176
     1
290
     0
176
     1
290
     0
176
     1
290
     0
176
     1
290
     0
176
     1
290
     0
176
     1
290
     0
176
     1
 90
       50
176
     1
 40
0.0
176
     1
 40
1.0
176
     1
 90
        0
176
     1
 62
    18
420
        0
176
     1
 90
       50
176
     1
 90
        3
176
     1
 62
     5
420
      255
176
     1
290
     0
176
     1
 90
       50
176
     1
 90
       50
176
     1
 90
       50
176
     1
290
     0
176
     1
 90
       50
176
     1
 62
   256
176
     0
 40
1.0
176
     0
 90
        2
176
     1
  1
strokes_ogs.tif
176
     1
290
     0
176
     1
 40
1.0
176
     1
 40
1.0
176
     1
  0
VISUALSTYLE
  5
39
102
{ACAD_REACTORS
330
29
102
}
330
29
100
AcDbVisualStyle
  2
ColorChange
 70
    16
177
     3
291
     1
 70
    58
 90
        2
176
     1
 90
        2
176
     1
 90
        3
176
     1
 90
        0
176
     1
 40
0.6
176
     1
 40
30.0
176
     1
 62
     8
176
     1
 90
        1
176
     1
 90
        4
176
     1
 62
     7
176
     1
 62
   257
176
     1
 90
        1
176
     1
 90
        1
176
     1
 40
1.0
176
     1
 90
        8
176
     1
 62
     8
176
     1
 40
1.0
176
     1
 90
        1
176
     1
 90
        6
176
     1
 90
        2
176
     1
 62
     7
176
     1
 90
        5
176
     1
 90
        0
176
     1
 90
        0
176
     1
290
     0
176
     1
 90
        1
176
     1
 40
0.0
176
     1
 90
        0
176
     1
290
     0
176
     1
290
     1
176
     1
290
     1
176
     1
290
     0
176
     1
290
     0
176
     1
290
     0
176
     1
290
     0
176
     1
290
     0
176
     1
290
     0
176
     1
 90
       50
176
     1
 40
0.0
176
     1
 40
1.0
176
     1
 90
        0
176
     1
 62
    18
420
        0
176
     1
 90
       50
176
     1
 90
        3
176
     1
 62
     5
420
      255
176
     1
290
     0
176
     1
 90
       50
176
     1
 90
       50
176
     1
 90
       50
176
     1
290
     0
176
     1
 90
       50
176
     1
 62
   256
176
     0
 40
1.0
176
     0
 90
        2
176
     1
  1
strokes_ogs.tif
176
     1
290
     0
176
     1
 40
1.0
176
     1
 40
1.0
176
     1
  0
VISUALSTYLE
  5
32
102
{ACAD_REACTORS
330
29
102
}
330
29
100
AcDbVisualStyle
  2
Conceptual
 70
     9
177
     3
291
     0
 70
    58
 90
        3
176
     1
 90
        2
176
     1
 90
        0
176
     1
 90
        0
176
     1
 40
0.6
176
     1
 40
30.0
176
     1
 62
     7
176
     1
 90
        2
176
     1
 90
        2
176
     1
 62
     7
176
     1
 62
   257
176
     1
 90
        1
176
     1
 90
        1
176
     1
 40
40.0
176
     1
 90
        8
176
     1
 62
     7
176
     1
 40
1.0
176
     1
 90
        1
176
     1
 90
        6
176
     1
 90
        2
176
     1
 62
     7
176
     1
 90
        3
176
     1
 90
        0
176
     1
 90
        0
176
     1
290
     0
176
     1
 90
        1
176
     1
 40
0.0
176
     1
 90
        0
176
     1
290
     0
176
     1
290
     1
176
     1
290
     1
176
     1
290
     0
176
     1
290
     0
176
     1
290
     0
176
     1
290
     0
176
     1
290
     0
176
     1
290
     0
176
     1
 90
       50
176
     1
 40
0.0
176
     1
 40
1.0
176
     1
 90
        0
176
     1
 62
    18
420
        0
176
     1
 90
       50
176
     1
 90
        3
176
     1
 62
     5
420
      255
176
     1
290
     0
176
     1
 90
       50
176
     1
 90
       50
176
     1
 90
       50
176
     1
290
     0
176
     1
 90
       50
176
     1
 62
   256
176
     0
 40
1.0
176
     0
 90
        2
176
     1
  1
strokes_ogs.tif
176
     1
290
     0
176
     1
 40
1.0
176
     1
 40
1.0
176
     1
  0
VISUALSTYLE
  5
34
102
{ACAD_REACTORS
330
29
102
}
330
29
100
AcDbVisualStyle
  2
Dim
 70
    11
177
     3
291
     1
 70
    58
 90
        2
176
     1
 90
        2
176
     1
 90
        0
176
     1
 90
        0
176
     1
 40
0.6
176
     1
 40
30.0
176
     1
 62
     7
176
     1
 90
        1
176
     1
 90
        4
176
     1
 62
     7
176
     1
 62
   257
176
     1
 90
        1
176
     1
 90
        1
176
     1
 40
1.0
176
     1
 90
        8
176
     1
 62
     7
176
     1
 40
1.0
176
     1
 90
        1
176
     1
 90
        6
176
     1
 90
        2
176
     1
 62
     7
176
     1
 90
        5
176
     1
 90
        0
176
     1
 90
        0
176
     1
290
     0
176
     1
 90
        1
176
     1
 40
-50.0
176
     1
 90
        0
176
     1
290
     0
176
     1
290
     1
176
     1
290
     1
176
     1
290
     0
176
     1
290
     0
176
     1
290
     0
176
     1
290
     0
176
     1
290
     0
176
     1
290
     0
176
     1
 90
       50
176
     1
 40
0.0
176
     1
 40
1.0
176
     1
 90
        0
176
     1
 62
    18
420
        0
176
     1
 90
       50
176
     1
 90
        3
176
     1
 62
     5
420
      255
176
     1
290
     0
176
     1
 90
       50
176
     1
 90
       50
176
     1
 90
       50
176
     1
290
     0
176
     1
 90
       50
176
     1
 62
   256
176
     0
 40
1.0
176
     0
 90
        2
176
     1
  1
strokes_ogs.tif
176
     1
290
     0
176
     1
 40
1.0
176
     1
 40
1.0
176
     1
  0
VISUALSTYLE
  5
1B4A
102
{ACAD_REACTORS
330
29
102
}
330
29
100
AcDbVisualStyle
  2
EdgeColorOff
 70
    22
177
     3
291
     1
 70
    58
 90
        2
176
     0
 90
        2
176
     0
 90
        0
176
     0
 90
        0
176
     0
 40
0.6
176
     0
 40
30.0
176
     0
 62
     7
420
 16777215
176
     0
 90
        1
176
     0
 90
        4
176
     0
 62
     7
176
     0
 62
   257
176
     0
 90
        1
176
     0
 90
        1
176
     0
 40
1.0
176
     0
 90
        8
176
     2
 62
     7
176
     0
 40
1.0
176
     0
 90
        1
176
     0
 90
        6
176
     0
 90
        2
176
     0
 62
     7
176
     0
 90
        5
176
     0
 90
        0
176
     0
 90
        0
176
     0
290
     0
176
     0
 90
        1
176
     0
 40
0.0
176
     0
 90
        0
176
     0
290
     0
176
     0
290
     1
176
     0
290
     1
176
     0
290
     0
176
     0
290
     0
176
     0
290
     0
176
     0
290
     0
176
     0
290
     0
176
     0
290
     0
176
     0
 90
       50
176
     0
 40
0.0
176
     0
 40
1.0
176
     0
 90
        0
176
     0
 62
    18
420
        0
176
     0
 90
       50
176
     0
 90
        3
176
     0
 62
     5
420
      255
176
     0
290
     0
176
     0
 90
       50
176
     0
 90
       50
176
     0
 90
       50
176
     0
290
     0
176
     0
 90
       50
176
     0
 62
   256
176
     0
 40
1.0
176
     0
 90
        2
176
     0
  1
strokes_ogs.tif
176
     0
290
     0
176
     0
 40
1.0
176
     0
 40
1.0
176
     0
  0
VISUALSTYLE
  5
38
102
{ACAD_REACTORS
330
29
102
}
330
29
100
AcDbVisualStyle
  2
Facepattern
 70
    15
177
     3
291
     1
 70
    58
 90
        2
176
     1
 90
        2
176
     1
 90
        0
176
     1
 90
        0
176
     1
 40
0.6
176
     1
 40
30.0
176
     1
 62
     7
176
     1
 90
        1
176
     1
 90
        4
176
     1
 62
     7
176
     1
 62
   257
176
     1
 90
        1
176
     1
 90
        1
176
     1
 40
1.0
176
     1
 90
        8
176
     1
 62
     7
176
     1
 40
1.0
176
     1
 90
        1
176
     1
 90
        6
176
     1
 90
        2
176
     1
 62
     7
176
     1
 90
        5
176
     1
 90
        0
176
     1
 90
        0
176
     1
290
     0
176
     1
 90
        1
176
     1
 40
0.0
176
     1
 90
        0
176
     1
290
     0
176
     1
290
     1
176
     1
290
     1
176
     1
290
     0
176
     1
290
     0
176
     1
290
     0
176
     1
290
     0
176
     1
290
     0
176
     1
290
     0
176
     1
 90
       50
176
     1
 40
0.0
176
     1
 40
1.0
176
     1
 90
        0
176
     1
 62
    18
420
        0
176
     1
 90
       50
176
     1
 90
        3
176
     1
 62
     5
420
      255
176
     1
290
     0
176
     1
 90
       50
176
     1
 90
       50
176
     1
 90
       50
176
     1
290
     0
176
     1
 90
       50
176
     1
 62
   256
176
     0
 40
1.0
176
     0
 90
        2
176
     1
  1
strokes_ogs.tif
176
     1
290
     0
176
     1
 40
1.0
176
     1
 40
1.0
176
     1
  0
VISUALSTYLE
  5
2A
102
{ACAD_REACTORS
330
29
102
}
330
29
100
AcDbVisualStyle
  2
Flat
 70
     0
177
     3
291
     1
 70
    58
 90
        2
176
     1
 90
        1
176
     1
 90
        1
176
     1
 90
        2
176
     1
 40
0.6
176
     1
 40
30.0
176
     1
 62
     7
176
     1
 90
        0
176
     1
 90
        4
176
     1
 62
     7
176
     1
 62
   257
176
     1
 90
        1
176
     1
 90
        1
176
     1
 40
1.0
176
     1
 90
        8
176
     1
 62
     7
176
     1
 40
1.0
176
     1
 90
        1
176
     1
 90
        6
176
     1
 90
        2
176
     1
 62
     7
176
     1
 90
        5
176
     1
 90
        0
176
     1
 90
        0
176
     1
290
     0
176
     1
 90
       13
176
     1
 40
0.0
176
     1
 90
        0
176
     1
290
     0
176
     1
290
     1
176
     1
290
     1
176
     1
290
     0
176
     1
290
     0
176
     1
290
     0
176
     1
290
     0
176
     1
290
     0
176
     1
290
     0
176
     1
 90
       50
176
     1
 40
0.0
176
     1
 40
1.0
176
     1
 90
        0
176
     1
 62
    18
420
        0
176
     1
 90
       50
176
     1
 90
        3
176
     1
 62
     5
420
      255
176
     1
290
     0
176
     1
 90
       50
176
     1
 90
       50
176
     1
 90
       50
176
     1
290
     0
176
     1
 90
       50
176
     1
 62
   256
176
     0
 40
1.0
176
     0
 90
        2
176
     1
  1
strokes_ogs.tif
176
     1
290
     0
176
     1
 40
1.0
176
     1
 40
1.0
176
     1
  0
VISUALSTYLE
  5
2B
102
{ACAD_REACTORS
330
29
102
}
330
29
100
AcDbVisualStyle
  2
FlatWithEdges
 70
     1
177
     3
291
     1
 70
    58
 90
        2
176
     1
 90
        1
176
     1
 90
        1
176
     1
 90
        2
176
     1
 40
0.6
176
     1
 40
30.0
176
     1
 62
     7
176
     1
 90
        1
176
     1
 90
        4
176
     1
 62
     7
176
     1
 62
   257
176
     1
 90
        1
176
     1
 90
        1
176
     1
 40
1.0
176
     1
 90
        0
176
     1
 62
   257
176
     1
 40
1.0
176
     1
 90
        1
176
     1
 90
        6
176
     1
 90
        2
176
     1
 62
     7
176
     1
 90
        5
176
     1
 90
        0
176
     1
 90
        0
176
     1
290
     0
176
     1
 90
       13
176
     1
 40
0.0
176
     1
 90
        0
176
     1
290
     0
176
     1
290
     1
176
     1
290
     1
176
     1
290
     0
176
     1
290
     0
176
     1
290
     0
176
     1
290
     0
176
     1
290
     0
176
     1
290
     0
176
     1
 90
       50
176
     1
 40
0.0
176
     1
 40
1.0
176
     1
 90
        0
176
     1
 62
    18
420
        0
176
     1
 90
       50
176
     1
 90
        3
176
     1
 62
     5
420
      255
176
     1
290
     0
176
     1
 90
       50
176
     1
 90
       50
176
     1
 90
       50
176
     1
290
     0
176
     1
 90
       50
176
     1
 62
   256
176
     0
 40
1.0
176
     0
 90
        2
176
     1
  1
strokes_ogs.tif
176
     1
290
     0
176
     1
 40
1.0
176
     1
 40
1.0
176
     1
  0
VISUALSTYLE
  5
2C
102
{ACAD_REACTORS
330
29
102
}
330
29
100
AcDbVisualStyle
  2
Gouraud
 70
     2
177
     3
291
     1
 70
    58
 90
        2
176
     1
 90
        2
176
     1
 90
        1
176
     1
 90
        2
176
     1
 40
0.6
176
     1
 40
30.0
176
     1
 62
     7
176
     1
 90
        0
176
     1
 90
        4
176
     1
 62
     7
176
     1
 62
   257
176
     1
 90
        1
176
     1
 90
        1
176
     1
 40
1.0
176
     1
 90
        0
176
     1
 62
     7
176
     1
 40
1.0
176
     1
 90
        1
176
     1
 90
        6
176
     1
 90
        2
176
     1
 62
     7
176
     1
 90
        5
176
     1
 90
        0
176
     1
 90
        0
176
     1
290
     0
176
     1
 90
       13
176
     1
 40
0.0
176
     1
 90
        0
176
     1
290
     0
176
     1
290
     1
176
     1
290
     1
176
     1
290
     0
176
     1
290
     0
176
     1
290
     0
176
     1
290
     0
176
     1
290
     0
176
     1
290
     0
176
     1
 90
       50
176
     1
 40
0.0
176
     1
 40
1.0
176
     1
 90
        0
176
     1
 62
    18
420
        0
176
     1
 90
       50
176
     1
 90
        3
176
     1
 62
     5
420
      255
176
     1
290
     0
176
     1
 90
       50
176
     1
 90
       50
176
     1
 90
       50
176
     1
290
     0
176
     1
 90
       50
176
     1
 62
   256
176
     0
 40
1.0
176
     0
 90
        2
176
     1
  1
strokes_ogs.tif
176
     1
290
     0
176
     1
 40
1.0
176
     1
 40
1.0
176
     1
  0
VISUALSTYLE
  5
2D
102
{ACAD_REACTORS
330
29
102
}
330
29
100
AcDbVisualStyle
  2
GouraudWithEdges
 70
     3
177
     3
291
     1
 70
    58
 90
        2
176
     1
 90
        2
176
     1
 90
        1
176
     1
 90
        2
176
     1
 40
0.6
176
     1
 40
30.0
176
     1
 62
     7
176
     1
 90
        1
176
     1
 90
        4
176
     1
 62
     7
176
     1
 62
   257
176
     1
 90
        1
176
     1
 90
        1
176
     1
 40
1.0
176
     1
 90
        0
176
     1
 62
   257
176
     1
 40
1.0
176
     1
 90
        1
176
     1
 90
        6
176
     1
 90
        2
176
     1
 62
     7
176
     1
 90
        5
176
     1
 90
        0
176
     1
 90
        0
176
     1
290
     0
176
     1
 90
       13
176
     1
 40
0.0
176
     1
 90
        0
176
     1
290
     0
176
     1
290
     1
176
     1
290
     1
176
     1
290
     0
176
     1
290
     0
176
     1
290
     0
176
     1
290
     0
176
     1
290
     0
176
     1
290
     0
176
     1
 90
       50
176
     1
 40
0.0
176
     1
 40
1.0
176
     1
 90
        0
176
     1
 62
    18
420
        0
176
     1
 90
       50
176
     1
 90
        3
176
     1
 62
     5
420
      255
176
     1
290
     0
176
     1
 90
       50
176
     1
 90
       50
176
     1
 90
       50
176
     1
290
     0
176
     1
 90
       50
176
     1
 62
   256
176
     0
 40
1.0
176
     0
 90
        2
176
     1
  1
strokes_ogs.tif
176
     1
290
     0
176
     1
 40
1.0
176
     1
 40
1.0
176
     1
  0
VISUALSTYLE
  5
1B42
102
{ACAD_REACTORS
330
29
102
}
330
29
100
AcDbVisualStyle
  2
Hidden
 70
     6
177
     3
291
     0
 70
    58
 90
        1
176
     1
 90
        2
176
     1
 90
        2
176
     1
 90
        0
176
     1
 40
0.6
176
     1
 40
30.0
176
     1
 62
     7
420
 16777215
176
     1
 90
        2
176
     1
 90
        2
176
     1
 62
     7
176
     1
 62
   257
176
     1
 90
        2
176
     1
 90
        1
176
     1
 40
40.0
176
     1
 90
        0
176
     1
 62
   257
176
     1
 40
1.0
176
     1
 90
        1
176
     1
 90
        6
176
     1
 90
        2
176
     1
 62
     7
176
     1
 90
        3
176
     1
 90
        0
176
     1
 90
        0
176
     1
290
     0
176
     1
 90
        1
176
     1
 40
0.0
176
     1
 90
        0
176
     1
290
     0
176
     1
290
     1
176
     1
290
     1
176
     1
290
     0
176
     1
290
     0
176
     1
290
     0
176
     1
290
     0
176
     1
290
     0
176
     1
290
     0
176
     1
 90
       50
176
     1
 40
0.0
176
     1
 40
1.0
176
     1
 90
        0
176
     1
 62
    18
420
        0
176
     1
 90
       50
176
     1
 90
        3
176
     1
 62
     5
420
      255
176
     1
290
     0
176
     1
 90
       50
176
     1
 90
       50
176
     1
 90
       50
176
     1
290
     0
176
     1
 90
       50
176
     1
 62
   256
176
     0
 40
1.0
176
     0
 90
        2
176
     1
  1
strokes_ogs.tif
176
     1
290
     0
176
     1
 40
1.0
176
     1
 40
1.0
176
     1
  0
VISUALSTYLE
  5
1B48
102
{ACAD_REACTORS
330
29
102
}
330
29
100
AcDbVisualStyle
  2
JitterOff
 70
    20
177
     3
291
     1
 70
    58
 90
        2
176
     0
 90
        2
176
     0
 90
        0
176
     0
 90
        0
176
     0
 40
0.6
176
     0
 40
30.0
176
     0
 62
     7
420
 16777215
176
     0
 90
        1
176
     0
 90
        4
176
     0
 62
     7
176
     0
 62
   257
176
     0
 90
        1
176
     0
 90
        1
176
     0
 40
1.0
176
     0
 90
       10
176
     2
 62
     7
176
     0
 40
1.0
176
     0
 90
        1
176
     0
 90
        6
176
     0
 90
        2
176
     0
 62
     7
176
     0
 90
        5
176
     0
 90
        0
176
     0
 90
        0
176
     0
290
     0
176
     0
 90
        1
176
     0
 40
0.0
176
     0
 90
        0
176
     0
290
     0
176
     0
290
     1
176
     0
290
     1
176
     0
290
     0
176
     0
290
     0
176
     0
290
     0
176
     0
290
     0
176
     0
290
     0
176
     0
290
     0
176
     0
 90
       50
176
     0
 40
0.0
176
     0
 40
1.0
176
     0
 90
        0
176
     0
 62
    18
420
        0
176
     0
 90
       50
176
     0
 90
        3
176
     0
 62
     5
420
      255
176
     0
290
     0
176
     0
 90
       50
176
     0
 90
       50
176
     0
 90
       50
176
     0
290
     0
176
     0
 90
       50
176
     0
 62
   256
176
     0
 40
1.0
176
     0
 90
        2
176
     0
  1
strokes_ogs.tif
176
     0
290
     0
176
     0
 40
1.0
176
     0
 40
1.0
176
     0
  0
VISUALSTYLE
  5
37
102
{ACAD_REACTORS
330
29
102
}
330
29
100
AcDbVisualStyle
  2
Linepattern
 70
    14
177
     3
291
     1
 70
    58
 90
        2
176
     1
 90
        2
176
     1
 90
        0
176
     1
 90
        0
176
     1
 40
0.6
176
     1
 40
30.0
176
     1
 62
     7
176
     1
 90
        1
176
     1
 90
        4
176
     1
 62
     7
176
     1
 62
   257
176
     1
 90
        7
176
     1
 90
        7
176
     1
 40
1.0
176
     1
 90
        8
176
     1
 62
     7
176
     1
 40
1.0
176
     1
 90
        1
176
     1
 90
        6
176
     1
 90
        2
176
     1
 62
     7
176
     1
 90
        5
176
     1
 90
        0
176
     1
 90
        0
176
     1
290
     0
176
     1
 90
        1
176
     1
 40
0.0
176
     1
 90
        0
176
     1
290
     0
176
     1
290
     1
176
     1
290
     1
176
     1
290
     0
176
     1
290
     0
176
     1
290
     0
176
     1
290
     0
176
     1
290
     0
176
     1
290
     0
176
     1
 90
       50
176
     1
 40
0.0
176
     1
 40
1.0
176
     1
 90
        0
176
     1
 62
    18
420
        0
176
     1
 90
       50
176
     1
 90
        3
176
     1
 62
     5
420
      255
176
     1
290
     0
176
     1
 90
       50
176
     1
 90
       50
176
     1
 90
       50
176
     1
290
     0
176
     1
 90
       50
176
     1
 62
   256
176
     0
 40
1.0
176
     0
 90
        2
176
     1
  1
strokes_ogs.tif
176
     1
290
     0
176
     1
 40
1.0
176
     1
 40
1.0
176
     1
  0
VISUALSTYLE
  5
1B49
102
{ACAD_REACTORS
330
29
102
}
330
29
100
AcDbVisualStyle
  2
OverhangOff
 70
    21
177
     3
291
     1
 70
    58
 90
        2
176
     0
 90
        2
176
     0
 90
        0
176
     0
 90
        0
176
     0
 40
0.6
176
     0
 40
30.0
176
     0
 62
     7
420
 16777215
176
     0
 90
        1
176
     0
 90
        4
176
     0
 62
     7
176
     0
 62
   257
176
     0
 90
        1
176
     0
 90
        1
176
     0
 40
1.0
176
     0
 90
        9
176
     2
 62
     7
176
     0
 40
1.0
176
     0
 90
        1
176
     0
 90
        6
176
     0
 90
        2
176
     0
 62
     7
176
     0
 90
        5
176
     0
 90
        0
176
     0
 90
        0
176
     0
290
     0
176
     0
 90
        1
176
     0
 40
0.0
176
     0
 90
        0
176
     0
290
     0
176
     0
290
     1
176
     0
290
     1
176
     0
290
     0
176
     0
290
     0
176
     0
290
     0
176
     0
290
     0
176
     0
290
     0
176
     0
290
     0
176
     0
 90
       50
176
     0
 40
0.0
176
     0
 40
1.0
176
     0
 90
        0
176
     0
 62
    18
420
        0
176
     0
 90
       50
176
     0
 90
        3
176
     0
 62
     5
420
      255
176
     0
290
     0
176
     0
 90
       50
176
     0
 90
       50
176
     0
 90
       50
176
     0
290
     0
176
     0
 90
       50
176
     0
 62
   256
176
     0
 40
1.0
176
     0
 90
        2
176
     0
  1
strokes_ogs.tif
176
     0
290
     0
176
     0
 40
1.0
176
     0
 40
1.0
176
     0
  0
VISUALSTYLE
  5
33
102
{ACAD_REACTORS
330
29
102
}
330
29
100
AcDbVisualStyle
  2
Realistic
 70
     8
177
     3
291
     0
 70
    58
 90
        2
176
     1
 90
        2
176
     1
 90
        0
176
     1
 90
        0
176
     1
 40
0.6
176
     1
 40
30.0
176
     1
 62
     7
176
     1
 90
        1
176
     1
 90
        0
176
     1
 62
     7
176
     1
 62
   257
176
     1
 90
        1
176
     1
 90
        1
176
     1
 40
1.0
176
     1
 90
        8
176
     1
 62
     8
176
     1
 40
1.0
176
     1
 90
        1
176
     1
 90
        6
176
     1
 90
        2
176
     1
 62
     7
176
     1
 90
        5
176
     1
 90
        0
176
     1
 90
        0
176
     1
290
     0
176
     1
 90
       13
176
     1
 40
0.0
176
     1
 90
        0
176
     1
290
     0
176
     1
290
     1
176
     1
290
     1
176
     1
290
     0
176
     1
290
     0
176
     1
290
     0
176
     1
290
     0
176
     1
290
     0
176
     1
290
     0
176
     1
 90
       50
176
     1
 40
0.0
176
     1
 40
1.0
176
     1
 90
        0
176
     1
 62
    18
420
        0
176
     1
 90
       50
176
     1
 90
        3
176
     1
 62
     5
420
      255
176
     1
290
     0
176
     1
 90
       50
176
     1
 90
       50
176
     1
 90
       50
176
     1
290
     0
176
     1
 90
       50
176
     1
 62
   256
176
     0
 40
1.0
176
     0
 90
        2
176
     1
  1
strokes_ogs.tif
176
     1
290
     0
176
     1
 40
1.0
176
     1
 40
1.0
176
     1
  0
VISUALSTYLE
  5
1B47
102
{ACAD_REACTORS
330
29
102
}
330
29
100
AcDbVisualStyle
  2
Shaded
 70
    27
177
     3
291
     0
 70
    58
 90
        2
176
     1
 90
        2
176
     1
 90
        1
176
     1
 90
        2
176
     1
 40
0.6
176
     1
 40
30.0
176
     1
 62
     7
420
 16777215
176
     1
 90
        0
176
     1
 90
        4
176
     1
 62
     7
176
     1
 62
   257
176
     1
 90
        1
176
     1
 90
        1
176
     1
 40
1.0
176
     1
 90
        8
176
     1
 62
   257
176
     1
 40
1.0
176
     1
 90
        1
176
     1
 90
        6
176
     1
 90
        2
176
     1
 62
     8
420
  7895160
176
     1
 90
        3
176
     1
 90
        0
176
     1
 90
        0
176
     1
290
     0
176
     1
 90
        5
176
     1
 40
0.0
176
     1
 90
        0
176
     1
290
     0
176
     1
290
     1
176
     1
290
     1
176
     1
290
     0
176
     1
290
     0
176
     1
290
     0
176
     1
290
     0
176
     1
290
     0
176
     1
290
     0
176
     1
 90
       50
176
     1
 40
0.0
176
     1
 40
1.0
176
     1
 90
        0
176
     1
 62
    18
420
        0
176
     1
 90
       50
176
     1
 90
        3
176
     1
 62
     5
420
      255
176
     1
290
     0
176
     1
 90
       50
176
     1
 90
       50
176
     1
 90
       50
176
     1
290
     0
176
     1
 90
       50
176
     1
 62
   256
176
     0
 40
1.0
176
     0
 90
        2
176
     1
  1
strokes_ogs.tif
176
     1
290
     0
176
     1
 40
1.0
176
     1
 40
1.0
176
     1
  0
VISUALSTYLE
  5
1B46
102
{ACAD_REACTORS
330
29
102
}
330
29
100
AcDbVisualStyle
  2
Shaded with edges
 70
    26
177
     3
291
     0
 70
    58
 90
        2
176
     1
 90
        2
176
     1
 90
        1
176
     1
 90
        2
176
     1
 40
0.6
176
     1
 40
30.0
176
     1
 62
     7
420
 16777215
176
     1
 90
        1
176
     1
 90
       10
176
     1
 62
     7
176
     1
 62
   257
176
     1
 90
        2
176
     1
 90
        1
176
     1
 40
1.0
176
     1
 90
        8
176
     1
 62
   257
176
     1
 40
1.0
176
     1
 90
        1
176
     1
 90
        6
176
     1
 90
        2
176
     1
 62
     7
176
     1
 90
        3
176
     1
 90
        0
176
     1
 90
        0
176
     1
290
     0
176
     1
 90
        5
176
     1
 40
0.0
176
     1
 90
        0
176
     1
290
     0
176
     1
290
     1
176
     1
290
     1
176
     1
290
     0
176
     1
290
     0
176
     1
290
     0
176
     1
290
     0
176
     1
290
     0
176
     1
290
     0
176
     1
 90
       50
176
     1
 40
0.0
176
     1
 40
1.0
176
     1
 90
        0
176
     1
 62
    18
420
        0
176
     1
 90
       50
176
     1
 90
        3
176
     1
 62
     5
420
      255
176
     1
290
     0
176
     1
 90
       50
176
     1
 90
       50
176
     1
 90
       50
176
     1
290
     0
176
     1
 90
       50
176
     1
 62
   256
176
     0
 40
1.0
176
     0
 90
        2
176
     1
  1
strokes_ogs.tif
176
     1
290
     0
176
     1
 40
1.0
176
     1
 40
1.0
176
     1
  0
VISUALSTYLE
  5
1B43
102
{ACAD_REACTORS
330
29
102
}
330
29
100
AcDbVisualStyle
  2
Shades of Gray
 70
    23
177
     3
291
     0
 70
    58
 90
        2
176
     1
 90
        2
176
     1
 90
        3
176
     1
 90
        0
176
     1
 40
0.6
176
     1
 40
30.0
176
     1
 62
     7
420
 16777215
176
     1
 90
        2
176
     1
 90
        2
176
     1
 62
     7
176
     1
 62
     7
176
     1
 90
        1
176
     1
 90
        1
176
     1
 40
40.0
176
     1
 90
        8
176
     1
 62
     7
176
     1
 40
1.0
176
     1
 90
        1
176
     1
 90
        6
176
     1
 90
        2
176
     1
 62
     7
176
     1
 90
        3
176
     1
 90
        0
176
     1
 90
        0
176
     1
290
     0
176
     1
 90
        1
176
     1
 40
0.0
176
     1
 90
        0
176
     1
290
     0
176
     1
290
     1
176
     1
290
     1
176
     1
290
     0
176
     1
290
     0
176
     1
290
     0
176
     1
290
     0
176
     1
290
     0
176
     1
290
     0
176
     1
 90
       50
176
     1
 40
0.0
176
     1
 40
1.0
176
     1
 90
        0
176
     1
 62
    18
420
        0
176
     1
 90
       50
176
     1
 90
        3
176
     1
 62
     5
420
      255
176
     1
290
     0
176
     1
 90
       50
176
     1
 90
       50
176
     1
 90
       50
176
     1
290
     0
176
     1
 90
       50
176
     1
 62
   256
176
     0
 40
1.0
176
     0
 90
        2
176
     1
  1
strokes_ogs.tif
176
     1
290
     0
176
     1
 40
1.0
176
     1
 40
1.0
176
     1
  0
VISUALSTYLE
  5
1B44
102
{ACAD_REACTORS
330
29
102
}
330
29
100
AcDbVisualStyle
  2
Sketchy
 70
    24
177
     3
291
     0
 70
    58
 90
        1
176
     1
 90
        2
176
     1
 90
        2
176
     1
 90
        0
176
     1
 40
0.6
176
     1
 40
30.0
176
     1
 62
     7
420
 16777215
176
     1
 90
        2
176
     1
 90
        2
176
     1
 62
     7
176
     1
 62
     7
176
     1
 90
        1
176
     1
 90
        1
176
     1
 40
40.0
176
     1
 90
       11
176
     1
 62
     7
176
     1
 40
1.0
176
     1
 90
        1
176
     1
 90
        6
176
     1
 90
        2
176
     1
 62
     7
176
     1
 90
        6
176
     1
 90
        0
176
     1
 90
        0
176
     1
290
     0
176
     1
 90
        1
176
     1
 40
0.0
176
     1
 90
        0
176
     1
290
     0
176
     1
290
     1
176
     1
290
     1
176
     1
290
     0
176
     1
290
     0
176
     1
290
     0
176
     1
290
     0
176
     1
290
     0
176
     1
290
     0
176
     1
 90
       50
176
     1
 40
0.0
176
     1
 40
1.0
176
     1
 90
        0
176
     1
 62
    18
420
        0
176
     1
 90
       50
176
     1
 90
        3
176
     1
 62
     5
420
      255
176
     1
290
     0
176
     1
 90
       50
176
     1
 90
       50
176
     1
 90
       50
176
     1
290
     0
176
     1
 90
       50
176
     1
 62
   256
176
     0
 40
1.0
176
     0
 90
        2
176
     1
  1
strokes_ogs.tif
176
     1
290
     0
176
     1
 40
1.0
176
     1
 40
1.0
176
     1
  0
VISUALSTYLE
  5
36
102
{ACAD_REACTORS
330
29
102
}
330
29
100
AcDbVisualStyle
  2
Thicken
 70
    13
177
     3
291
     1
 70
    58
 90
        2
176
     1
 90
        2
176
     1
 90
        0
176
     1
 90
        0
176
     1
 40
0.6
176
     1
 40
30.0
176
     1
 62
     7
176
     1
 90
        1
176
     1
 90
        4
176
     1
 62
     7
176
     1
 62
   257
176
     1
 90
        1
176
     1
 90
        1
176
     1
 40
1.0
176
     1
 90
       12
176
     1
 62
     7
176
     1
 40
1.0
176
     1
 90
        1
176
     1
 90
        6
176
     1
 90
        2
176
     1
 62
     7
176
     1
 90
        5
176
     1
 90
        0
176
     1
 90
        0
176
     1
290
     0
176
     1
 90
        1
176
     1
 40
0.0
176
     1
 90
        0
176
     1
290
     0
176
     1
290
     1
176
     1
290
     1
176
     1
290
     0
176
     1
290
     0
176
     1
290
     0
176
     1
290
     0
176
     1
290
     0
176
     1
290
     0
176
     1
 90
       50
176
     1
 40
0.0
176
     1
 40
1.0
176
     1
 90
        0
176
     1
 62
    18
420
        0
176
     1
 90
       50
176
     1
 90
        3
176
     1
 62
     5
420
      255
176
     1
290
     0
176
     1
 90
       50
176
     1
 90
       50
176
     1
 90
       50
176
     1
290
     0
176
     1
 90
       50
176
     1
 62
   256
176
     0
 40
1.0
176
     0
 90
        2
176
     1
  1
strokes_ogs.tif
176
     1
290
     0
176
     1
 40
1.0
176
     1
 40
1.0
176
     1
  0
VISUALSTYLE
  5
1B41
102
{ACAD_REACTORS
330
29
102
}
330
29
100
AcDbVisualStyle
  2
Wireframe
 70
     5
177
     3
291
     0
 70
    58
 90
        0
176
     1
 90
        2
176
     1
 90
        0
176
     1
 90
        0
176
     1
 40
0.6
176
     1
 40
30.0
176
     1
 62
     7
420
 16777215
176
     1
 90
        1
176
     1
 90
        4
176
     1
 62
     7
176
     1
 62
   257
176
     1
 90
        1
176
     1
 90
        1
176
     1
 40
1.0
176
     1
 90
        0
176
     1
 62
   257
176
     1
 40
1.0
176
     1
 90
        1
176
     1
 90
        6
176
     1
 90
        2
176
     1
 62
     7
176
     1
 90
        3
176
     1
 90
        0
176
     1
 90
        0
176
     1
290
     0
176
     1
 90
        1
176
     1
 40
0.0
176
     1
 90
        0
176
     1
290
     0
176
     1
290
     1
176
     1
290
     1
176
     1
290
     0
176
     1
290
     0
176
     1
290
     0
176
     1
290
     0
176
     1
290
     0
176
     1
290
     0
176
     1
 90
       50
176
     1
 40
0.0
176
     1
 40
1.0
176
     1
 90
        0
176
     1
 62
    18
420
        0
176
     1
 90
       50
176
     1
 90
        3
176
     1
 62
     5
420
      255
176
     1
290
     0
176
     1
 90
       50
176
     1
 90
       50
176
     1
 90
       50
176
     1
290
     0
176
     1
 90
       50
176
     1
 62
   256
176
     0
 40
1.0
176
     0
 90
        2
176
     1
  1
strokes_ogs.tif
176
     1
290
     0
176
     1
 40
1.0
176
     1
 40
1.0
176
     1
  0
VISUALSTYLE
  5
1B45
102
{ACAD_REACTORS
330
29
102
}
330
29
100
AcDbVisualStyle
  2
X-Ray
 70
    25
177
     3
291
     0
 70
    58
 90
        2
176
     1
 90
        2
176
     1
 90
        1
176
     1
 90
        1
176
     1
 40
0.5
176
     1
 40
30.0
176
     1
 62
     7
420
 16777215
176
     1
 90
        1
176
     1
 90
        0
176
     1
 62
     7
176
     1
 62
   257
176
     1
 90
        1
176
     1
 90
        1
176
     1
 40
1.0
176
     1
 90
        8
176
     1
 62
     7
176
     1
 40
1.0
176
     1
 90
        1
176
     1
 90
        6
176
     1
 90
        2
176
     1
 62
     7
176
     1
 90
        3
176
     1
 90
        0
176
     1
 90
        0
176
     1
290
     0
176
     1
 90
       13
176
     1
 40
0.0
176
     1
 90
        0
176
     1
290
     0
176
     1
290
     1
176
     1
290
     1
176
     1
290
     0
176
     1
290
     0
176
     1
290
     0
176
     1
290
     0
176
     1
290
     0
176
     1
290
     0
176
     1
 90
       50
176
     1
 40
0.0
176
     1
 40
1.0
176
     1
 90
        0
176
     1
 62
    18
420
        0
176
     1
 90
       50
176
     1
 90
        3
176
     1
 62
     5
420
      255
176
     1
290
     0
176
     1
 90
       50
176
     1
 90
       50
176
     1
 90
       50
176
     1
290
     0
176
     1
 90
       50
176
     1
 62
   256
176
     0
 40
1.0
176
     0
 90
        2
176
     1
  1
strokes_ogs.tif
176
     1
290
     0
176
     1
 40
1.0
176
     1
 40
1.0
176
     1
  0
DICTIONARYVAR
  5
1CC
102
{ACAD_REACTORS
330
1C9
102
}
330
1C9
100
DictionaryVariables
280
     0
  1
1:2
  0
DICTIONARYVAR
  5
1CB
102
{ACAD_REACTORS
330
1C9
102
}
330
1C9
100
DictionaryVariables
280
     0
  1
STANDARD
  0
DICTIONARYVAR
  5
1CA
102
{ACAD_REACTORS
330
1C9
102
}
330
1C9
100
DictionaryVariables
280
     0
  1
STANDARD
  0
DICTIONARYVAR
  5
1BBA
102
{ACAD_REACTORS
330
1C9
102
}
330
1C9
100
DictionaryVariables
280
     0
  1
Metric50
  0
DICTIONARYVAR
  5
1BBB
102
{ACAD_REACTORS
330
1C9
102
}
330
1C9
100
DictionaryVariables
280
     0
  1
Metric50
  0
DICTIONARYVAR
  5
1CF
102
{ACAD_REACTORS
330
1C9
102
}
330
1C9
100
DictionaryVariables
280
     0
  1
1
  0
DICTIONARYVAR
  5
1CE
102
{ACAD_REACTORS
330
1C9
102
}
330
1C9
100
DictionaryVariables
280
     0
  1
0
  0
DICTIONARYVAR
  5
1BBC
102
{ACAD_REACTORS
330
1C9
102
}
330
1C9
100
DictionaryVariables
280
     0
  1
1
  0
DICTIONARYVAR
  5
1BBD
102
{ACAD_REACTORS
330
1C9
102
}
330
1C9
100
DictionaryVariables
280
     0
  1
15
  0
DICTIONARYVAR
  5
2D3
102
{ACAD_REACTORS
330
1C9
102
}
330
1C9
100
DictionaryVariables
280
     0
  1
0
  0
DICTIONARYVAR
  5
2D2
102
{ACAD_REACTORS
330
1C9
102
}
330
1C9
100
DictionaryVariables
280
     0
  1
0
  0
DICTIONARYVAR
  5
1CD
102
{ACAD_REACTORS
330
1C9
102
}
330
1C9
100
DictionaryVariables
280
     0
  1
127
  0
DICTIONARY
  5
2B6
102
{ACAD_REACTORS
330
166
102
}
330
166
100
AcDbDictionary
281
     1
  0
DICTIONARY
  5
171
102
{ACAD_REACTORS
330
166
102
}
330
166
100
AcDbDictionary
281
     1
  0
XRECORD
  5
186
102
{ACAD_REACTORS
330
166
102
}
330
166
100
AcDbXrecord
280
     1
 90
-1023410169
  0
XRECORD
  5
1154
102
{ACAD_REACTORS
330
1153
102
}
330
1153
100
AcDbXrecord
280
     1
  0
DICTIONARY
  5
1BC1
330
1B4E
100
AcDbDictionary
280
     1
281
     1
  3
ACAD_XREC_ROUNDTRIP
360
1BC2
  0
DICTIONARY
  5
1A
330
19
100
AcDbDictionary
280
     1
281
     1
  3
ACAD_XREC_ROUNDTRIP
360
1A48
  3
BUMPTILE
360
1C
  3
DIFFUSETILE
360
1B
  3
OPACITYTILE
360
1F
  3
REFLECTIONTILE
360
1E
  3
REFRACTIONTILE
360
20
  3
SPECULARTILE
360
1D
  0
DICTIONARY
  5
12
330
11
100
AcDbDictionary
280
     1
281
     1
  3
ACAD_XREC_ROUNDTRIP
360
1A47
  3
BUMPTILE
360
14
  3
DIFFUSETILE
360
13
  3
OPACITYTILE
360
17
  3
REFLECTIONTILE
360
16
  3
REFRACTIONTILE
360
18
  3
SPECULARTILE
360
15
  0
DICTIONARY
  5
22
330
21
100
AcDbDictionary
280
     1
281
     1
  3
ACAD_XREC_ROUNDTRIP
360
1A49
  3
BUMPTILE
360
24
  3
DIFFUSETILE
360
23
  3
OPACITYTILE
360
27
  3
REFLECTIONTILE
360
26
  3
REFRACTIONTILE
360
28
  3
SPECULARTILE
360
25
  0
DICTIONARY
  5
1BBF
330
1B4C
100
AcDbDictionary
280
     1
281
     1
  3
ACAD_XREC_ROUNDTRIP
360
1BC0
  0
DICTIONARY
  5
1B2
330
6C
100
AcDbDictionary
280
     1
281
     1
  3
ACAD_ROUNDTRIP_2008_TABLESTYLE_CELLSTYLEMAP
360
1BBE
  0
XRECORD
  5
1BC2
102
{ACAD_REACTORS
330
1BC1
102
}
330
1BC1
100
AcDbXrecord
280
     1
102
DISPLAYNAME
  1
Metric50
102
FLAGS
 90
        0
  0
XRECORD
  5
1A48
102
{ACAD_REACTORS
330
1A
102
}
330
1A
100
AcDbXrecord
280
     1
102
MATERIAL
148
0.0
149
0.0
149
0.0
 93
        0
 94
      127
282
     0
 72
     0
 77
     0
171
     0
175
     0
179
     0
273
     0
  0
XRECORD
  5
1C
102
{ACAD_REACTORS
330
1A
102
}
330
1A
100
AcDbXrecord
280
     1
270
     1
271
     1
  0
XRECORD
  5
1B
102
{ACAD_REACTORS
330
1A
102
}
330
1A
100
AcDbXrecord
280
     1
270
     1
271
     1
  0
XRECORD
  5
1F
102
{ACAD_REACTORS
330
1A
102
}
330
1A
100
AcDbXrecord
280
     1
270
     1
271
     1
  0
XRECORD
  5
1E
102
{ACAD_REACTORS
330
1A
102
}
330
1A
100
AcDbXrecord
280
     1
270
     1
271
     1
  0
XRECORD
  5
20
102
{ACAD_REACTORS
330
1A
102
}
330
1A
100
AcDbXrecord
280
     1
270
     1
271
     1
  0
XRECORD
  5
1D
102
{ACAD_REACTORS
330
1A
102
}
330
1A
100
AcDbXrecord
280
     1
270
     1
271
     1
  0
XRECORD
  5
1A47
102
{ACAD_REACTORS
330
12
102
}
330
12
100
AcDbXrecord
280
     1
102
MATERIAL
148
0.0
149
0.0
149
0.0
 93
        0
 94
      127
282
     0
 72
     0
 77
     0
171
     0
175
     0
179
     0
273
     0
  0
XRECORD
  5
14
102
{ACAD_REACTORS
330
12
102
}
330
12
100
AcDbXrecord
280
     1
270
     1
271
     1
  0
XRECORD
  5
13
102
{ACAD_REACTORS
330
12
102
}
330
12
100
AcDbXrecord
280
     1
270
     1
271
     1
  0
XRECORD
  5
17
102
{ACAD_REACTORS
330
12
102
}
330
12
100
AcDbXrecord
280
     1
270
     1
271
     1
  0
XRECORD
  5
16
102
{ACAD_REACTORS
330
12
102
}
330
12
100
AcDbXrecord
280
     1
270
     1
271
     1
  0
XRECORD
  5
18
102
{ACAD_REACTORS
330
12
102
}
330
12
100
AcDbXrecord
280
     1
270
     1
271
     1
  0
XRECORD
  5
15
102
{ACAD_REACTORS
330
12
102
}
330
12
100
AcDbXrecord
280
     1
270
     1
271
     1
  0
XRECORD
  5
1A49
102
{ACAD_REACTORS
330
22
102
}
330
22
100
AcDbXrecord
280
     1
102
MATERIAL
148
0.0
149
0.0
149
0.0
 93
        0
 94
      127
282
     0
 72
     0
 77
     0
171
     0
175
     0
179
     0
273
     0
  0
XRECORD
  5
24
102
{ACAD_REACTORS
330
22
102
}
330
22
100
AcDbXrecord
280
     1
270
     1
271
     1
  0
XRECORD
  5
23
102
{ACAD_REACTORS
330
22
102
}
330
22
100
AcDbXrecord
280
     1
270
     1
271
     1
  0
XRECORD
  5
27
102
{ACAD_REACTORS
330
22
102
}
330
22
100
AcDbXrecord
280
     1
270
     1
271
     1
  0
XRECORD
  5
26
102
{ACAD_REACTORS
330
22
102
}
330
22
100
AcDbXrecord
280
     1
270
     1
271
     1
  0
XRECORD
  5
28
102
{ACAD_REACTORS
330
22
102
}
330
22
100
AcDbXrecord
280
     1
270
     1
271
     1
  0
XRECORD
  5
25
102
{ACAD_REACTORS
330
22
102
}
330
22
100
AcDbXrecord
280
     1
270
     1
271
     1
  0
XRECORD
  5
1BC0
102
{ACAD_REACTORS
330
1BBF
102
}
330
1BBF
100
AcDbXrecord
280
     1
102
DISPLAYNAME
  1
Metric50
102
FLAGS
 90
        0
  0
CELLSTYLEMAP
  5
1BBE
102
{ACAD_REACTORS
330
1B2
102
}
330
1B2
100
AcDbCellStyleMap
 90
        3
300
CELLSTYLE
  1
TABLEFORMAT_BEGIN
 90
        5
170
     1
 91
        0
 92
    32768
 62
   257
 93
        1
300
CONTENTFORMAT
  1
CONTENTFORMAT_BEGIN
 90
        0
 91
        0
 92
      512
 93
        0
300

 40
0.0
140
1.0
 94
        5
 62
     0
340
5D
144
0.25
309
CONTENTFORMAT_END
171
     1
301
MARGIN
  1
CELLMARGIN_BEGIN
 40
0.06
 40
0.06
 40
0.06
 40
0.06
 40
0.18
 40
0.18
309
CELLMARGIN_END
 94
        6
 95
        1
302
GRIDFORMAT
  1
GRIDFORMAT_BEGIN
 90
        0
 91
        1
 62
     0
 92
       -2
340
0
 93
        0
 40
0.045
309
GRIDFORMAT_END
 95
        2
302
GRIDFORMAT
  1
GRIDFORMAT_BEGIN
 90
        0
 91
        1
 62
     0
 92
       -2
340
0
 93
        0
 40
0.045
309
GRIDFORMAT_END
 95
        4
302
GRIDFORMAT
  1
GRIDFORMAT_BEGIN
 90
        0
 91
        1
 62
     0
 92
       -2
340
0
 93
        0
 40
0.045
309
GRIDFORMAT_END
 95
        8
302
GRIDFORMAT
  1
GRIDFORMAT_BEGIN
 90
        0
 91
        1
 62
     0
 92
       -2
340
0
 93
        0
 40
0.045
309
GRIDFORMAT_END
 95
       16
302
GRIDFORMAT
  1
GRIDFORMAT_BEGIN
 90
        0
 91
        1
 62
     0
 92
       -2
340
0
 93
        0
 40
0.045
309
GRIDFORMAT_END
 95
       32
302
GRIDFORMAT
  1
GRIDFORMAT_BEGIN
 90
        0
 91
        1
 62
     0
 92
       -2
340
0
 93
        0
 40
0.045
309
GRIDFORMAT_END
309
TABLEFORMAT_END
  1
CELLSTYLE_BEGIN
 90
        1
 91
        1
300
_TITLE
309
CELLSTYLE_END
300
CELLSTYLE
  1
TABLEFORMAT_BEGIN
 90
        5
170
     1
 91
        0
 92
        0
 62
   257
 93
        1
300
CONTENTFORMAT
  1
CONTENTFORMAT_BEGIN
 90
        0
 91
        0
 92
      512
 93
        0
300

 40
0.0
140
1.0
 94
        5
 62
     0
340
5D
144
0.18
309
CONTENTFORMAT_END
171
     1
301
MARGIN
  1
CELLMARGIN_BEGIN
 40
0.06
 40
0.06
 40
0.06
 40
0.06
 40
0.18
 40
0.18
309
CELLMARGIN_END
 94
        6
 95
        1
302
GRIDFORMAT
  1
GRIDFORMAT_BEGIN
 90
        0
 91
        1
 62
     0
 92
       -2
340
0
 93
        0
 40
0.045
309
GRIDFORMAT_END
 95
        2
302
GRIDFORMAT
  1
GRIDFORMAT_BEGIN
 90
        0
 91
        1
 62
     0
 92
       -2
340
0
 93
        0
 40
0.045
309
GRIDFORMAT_END
 95
        4
302
GRIDFORMAT
  1
GRIDFORMAT_BEGIN
 90
        0
 91
        1
 62
     0
 92
       -2
340
0
 93
        0
 40
0.045
309
GRIDFORMAT_END
 95
        8
302
GRIDFORMAT
  1
GRIDFORMAT_BEGIN
 90
        0
 91
        1
 62
     0
 92
       -2
340
0
 93
        0
 40
0.045
309
GRIDFORMAT_END
 95
       16
302
GRIDFORMAT
  1
GRIDFORMAT_BEGIN
 90
        0
 91
        1
 62
     0
 92
       -2
340
0
 93
        0
 40
0.045
309
GRIDFORMAT_END
 95
       32
302
GRIDFORMAT
  1
GRIDFORMAT_BEGIN
 90
        0
 91
        1
 62
     0
 92
       -2
340
0
 93
        0
 40
0.045
309
GRIDFORMAT_END
309
TABLEFORMAT_END
  1
CELLSTYLE_BEGIN
 90
        2
 91
        1
300
_HEADER
309
CELLSTYLE_END
300
CELLSTYLE
  1
TABLEFORMAT_BEGIN
 90
        5
170
     1
 91
        0
 92
        0
 62
   257
 93
        1
300
CONTENTFORMAT
  1
CONTENTFORMAT_BEGIN
 90
        0
 91
        0
 92
      512
 93
        0
300

 40
0.0
140
1.0
 94
        2
 62
     0
340
5D
144
0.18
309
CONTENTFORMAT_END
171
     1
301
MARGIN
  1
CELLMARGIN_BEGIN
 40
0.06
 40
0.06
 40
0.06
 40
0.06
 40
0.18
 40
0.18
309
CELLMARGIN_END
 94
        6
 95
        1
302
GRIDFORMAT
  1
GRIDFORMAT_BEGIN
 90
        0
 91
        1
 62
     0
 92
       -2
340
0
 93
        0
 40
0.045
309
GRIDFORMAT_END
 95
        2
302
GRIDFORMAT
  1
GRIDFORMAT_BEGIN
 90
        0
 91
        1
 62
     0
 92
       -2
340
0
 93
        0
 40
0.045
309
GRIDFORMAT_END
 95
        4
302
GRIDFORMAT
  1
GRIDFORMAT_BEGIN
 90
        0
 91
        1
 62
     0
 92
       -2
340
0
 93
        0
 40
0.045
309
GRIDFORMAT_END
 95
        8
302
GRIDFORMAT
  1
GRIDFORMAT_BEGIN
 90
        0
 91
        1
 62
     0
 92
       -2
340
0
 93
        0
 40
0.045
309
GRIDFORMAT_END
 95
       16
302
GRIDFORMAT
  1
GRIDFORMAT_BEGIN
 90
        0
 91
        1
 62
     0
 92
       -2
340
0
 93
        0
 40
0.045
309
GRIDFORMAT_END
 95
       32
302
GRIDFORMAT
  1
GRIDFORMAT_BEGIN
 90
        0
 91
        1
 62
     0
 92
       -2
340
0
 93
        0
 40
0.045
309
GRIDFORMAT_END
309
TABLEFORMAT_END
  1
CELLSTYLE_BEGIN
 90
        3
 91
        2
300
_DATA
309
CELLSTYLE_END
  0
ENDSEC
  0
SECTION
  2
ACDSDATA
 70
     2
 71
     8
  0
ACDSSCHEMA
 90
        0
  1
AcDb_Thumbnail_Schema
  2
AcDbDs::ID
280
    10
 91
        8
  2
Thumbnail_Data
280
    15
 91
        0
101
ACDSRECORD
 95
        0
 90
        1
  2
AcDbDs::TreatedAsObjectData
280
     1
291
     1
101
ACDSRECORD
 95
        0
 90
        2
  2
AcDbDs::Legacy
280
     1
291
     1
101
ACDSRECORD
  1
AcDbDs::ID
 90
        3
  2
AcDs:Indexable
280
     1
291
     1
101
ACDSRECORD
  1
AcDbDs::ID
 90
        4
  2
AcDbDs::HandleAttribute
280
     7
282
     1
  0
ACDSSCHEMA
 90
        1
  1
AcDbDs::TreatedAsObjectDataSchema
  2
AcDbDs::TreatedAsObjectData
280
     1
 91
        0
  0
ACDSSCHEMA
 90
        2
  1
AcDbDs::LegacySchema
  2
AcDbDs::Legacy
280
     1
 91
        0
  0
ACDSSCHEMA
 90
        3
  1
AcDbDs::IndexedPropertySchema
  2
AcDs:Indexable
280
     1
 91
        0
  0
ACDSSCHEMA
 90
        4
  1
AcDbDs::HandleAttributeSchema
  2
AcDbDs::HandleAttribute
280
     7
 91
        1
284
     1
  0
ACDSRECORD
 90
        0
  2
AcDbDs::ID
280
    10
320
77
  2
Thumbnail_Data
280
    15
 94
     1081
310
89504E470D0A1A0A0000000D4948445200000100000000800803000000D36B473800000300504C5445000000000000C8C8C80000000000000000000000000000000000000000000000000000330000660000990000CC0000FF0033000033330033660033990033CC0033FF0066000066330066660066990066CC0066FF0099
310
000099330099660099990099CC0099FF00CC0000CC3300CC6600CC9900CCCC00CCFF00FF0000FF3300FF6600FF9900FFCC00FFFF3300003300333300663300993300CC3300FF3333003333333333663333993333CC3333FF3366003366333366663366993366CC3366FF3399003399333399663399993399CC3399FF33CC00
310
33CC3333CC6633CC9933CCCC33CCFF33FF0033FF3333FF6633FF9933FFCC33FFFF6600006600336600666600996600CC6600FF6633006633336633666633996633CC6633FF6666006666336666666666996666CC6666FF6699006699336699666699996699CC6699FF66CC0066CC3366CC6666CC9966CCCC66CCFF66FF0066
310
FF3366FF6666FF9966FFCC66FFFF9900009900339900669900999900CC9900FF9933009933339933669933999933CC9933FF9966009966339966669966999966CC9966FF9999009999339999669999999999CC9999FF99CC0099CC3399CC6699CC9999CCCC99CCFF99FF0099FF3399FF6699FF9999FFCC99FFFFCC0000CC00
310
33CC0066CC0099CC00CCCC00FFCC3300CC3333CC3366CC3399CC33CCCC33FFCC6600CC6633CC6666CC6699CC66CCCC66FFCC9900CC9933CC9966CC9999CC99CCCC99FFCCCC00CCCC33CCCC66CCCC99CCCCCCCCCCFFCCFF00CCFF33CCFF66CCFF99CCFFCCCCFFFFFF0000FF0033FF0066FF0099FF00CCFF00FFFF3300FF3333
310
FF3366FF3399FF33CCFF33FFFF6600FF6633FF6666FF6699FF66CCFF66FFFF9900FF9933FF9966FF9999FF99CCFF99FFFFCC00FFCC33FFCC66FFCC99FFCCCCFFCCFFFFFF00FFFF33FFFF66FFFF99FFFFCCFFFFFF0000000D0D0D1A1A1A2828283535354343435050505D5D5D6B6B6B787878868686939393A1A1A1AEAEAEBB
310
BBBBC9C9C9D6D6D6E4E4E4F1F1F1FFFFFF00000000000000000000000000000000000000000000000000000000000008F1915C000000F44944415478DAEDD8B17186300C06506FC01A7FA3FD07D01AACE13E369023772993EE7BEF38436B61D992C70000000000000000F8BBCF729EE77E7D3203708DF57EC605606E9F575A
310
0066CF47CF2B21E20230EB9EFF7AADF907E641D58EC01AEBDA0FF302F0AC80AE3B030253207C131CF3FD08AD047E150500645502CF103AFFDEFD505FBD50A4FEEE073B37057A8BCD815A7D50AF273500F7E2AFA353B7C17D0F328EA532035035ABF6F4F7BD48651E02732F803163CFC19DFB473DB990B907AC5F5FA32BFA18
310
E8CEAD85EF2268C720B61778E476437B13C8AD84AF108C1F97C300000000000000000000000000000000FCA32F9205A330341748B70000000049454E44AE426082
  0
ENDSEC
  0
EOF
