  0
SECTION
  2
HEADER
  9
$ACADVER
  1
AC1018
  9
$ACADMAINTVER
 70
   104
  9
$DWGCODEPAGE
  3
ANSI_1252
  9
$LASTSAVEDBY
  1
guzb562
  9
$INSBASE
 10
99.40800000000001
 20
164.345
 30
0.0
  9
$EXTMIN
 10
9.490967390000548
 20
14.18975908564141
 30
-0.0000000000112497
  9
$EXTMAX
 10
155.4985051107343
 20
301.7614753448421
 30
0.0000000000002956
  9
$LIMMIN
 10
0.0
 20
0.0
  9
$LIMMAX
 10
250.0
 20
330.0
  9
$ORTHOMODE
 70
     0
  9
$REGENMODE
 70
     1
  9
$FILLMODE
 70
     1
  9
$QTEXTMODE
 70
     0
  9
$MIRRTEXT
 70
     0
  9
$LTSCALE
 40
5.0
  9
$ATTMODE
 70
     1
  9
$TEXTSIZE
 40
5.0
  9
$TRACEWID
 40
1.0
  9
$TEXTSTYLE
  7
ROMANS
  9
$CLAYER
  8
AM_3 ( Verdeckt )
  9
$CELTYPE
  6
AM_ISO02W050x2
  9
$CECOLOR
 62
   256
  9
$CELTSCALE
 40
1.0
  9
$DISPSILH
 70
     0
  9
$DIMSCALE
 40
1.0
  9
$DIMASZ
 40
5.0
  9
$DIMEXO
 40
1.0
  9
$DIMDLI
 40
10.0
  9
$DIMRND
 40
0.0
  9
$DIMDLE
 40
0.0
  9
$DIMEXE
 40
1.0
  9
$DIMTP
 40
0.1
  9
$DIMTM
 40
0.1
  9
$DIMTXT
 40
5.0
  9
$DIMCEN
 40
0.0
  9
$DIMTSZ
 40
0.0
  9
$DIMTOL
 70
     0
  9
$DIMLIM
 70
     0
  9
$DIMTIH
 70
     0
  9
$DIMTOH
 70
     0
  9
$DIMSE1
 70
     0
  9
$DIMSE2
 70
     0
  9
$DIMTAD
 70
     1
  9
$DIMZIN
 70
     8
  9
$DIMBLK
  1

  9
$DIMASO
 70
     1
  9
$DIMSHO
 70
     1
  9
$DIMPOST
  1

  9
$DIMAPOST
  1
"
  9
$DIMALT
 70
     0
  9
$DIMALTD
 70
     2
  9
$DIMALTF
 40
0.0393701
  9
$DIMLFAC
 40
1.0
  9
$DIMTOFL
 70
     1
  9
$DIMTVP
 40
0.0
  9
$DIMTIX
 70
     0
  9
$DIMSOXD
 70
     0
  9
$DIMSAH
 70
     0
  9
$DIMBLK1
  1

  9
$DIMBLK2
  1

  9
$DIMSTYLE
  2
AM_DIN
  9
$DIMCLRD
 70
   256
  9
$DIMCLRE
 70
   256
  9
$DIMCLRT
 70
     2
  9
$DIMTFAC
 40
0.71
  9
$DIMGAP
 40
1.5
  9
$DIMJUST
 70
     0
  9
$DIMSD1
 70
     0
  9
$DIMSD2
 70
     0
  9
$DIMTOLJ
 70
     0
  9
$DIMTZIN
 70
     8
  9
$DIMALTZ
 70
     0
  9
$DIMALTTZ
 70
     0
  9
$DIMUPT
 70
     0
  9
$DIMDEC
 70
     2
  9
$DIMTDEC
 70
     2
  9
$DIMALTU
 70
     2
  9
$DIMALTTD
 70
     2
  9
$DIMTXSTY
  7
STANDARD
  9
$DIMAUNIT
 70
     0
  9
$DIMADEC
 70
     0
  9
$DIMALTRND
 40
0.0
  9
$DIMAZIN
 70
     2
  9
$DIMDSEP
 70
    46
  9
$DIMATFIT
 70
     3
  9
$DIMFRAC
 70
     0
  9
$DIMLDRBLK
  1

  9
$DIMLUNIT
 70
     2
  9
$DIMLWD
 70
    -1
  9
$DIMLWE
 70
    -1
  9
$DIMTMOVE
 70
     0
  9
$LUNITS
 70
     2
  9
$LUPREC
 70
     2
  9
$SKETCHINC
 40
1.0
  9
$FILLETRAD
 40
50.0
  9
$AUNITS
 70
     0
  9
$AUPREC
 70
     1
  9
$MENU
  1
acad
  9
$ELEVATION
 40
0.0
  9
$PELEVATION
 40
0.0
  9
$THICKNESS
 40
0.0
  9
$LIMCHECK
 70
     0
  9
$CHAMFERA
 40
50.0
  9
$CHAMFERB
 40
50.0
  9
$CHAMFERC
 40
0.0
  9
$CHAMFERD
 40
0.0
  9
$SKPOLY
 70
     0
  9
$TDCREATE
 40
2450893.392472454
  9
$TDUCREATE
 40
2450893.309139121
  9
$TDUPDATE
 40
2454733.460470903
  9
$TDUUPDATE
 40
2454733.377137569
  9
$TDINDWG
 40
0.1565233681
  9
$TDUSRTIMER
 40
0.1565231829
  9
$USRTIMER
 70
     1
  9
$ANGBASE
 50
0.0
  9
$ANGDIR
 70
     0
  9
$PDMODE
 70
     3
  9
$PDSIZE
 40
0.0
  9
$PLINEWID
 40
0.0
  9
$SPLFRAME
 70
     0
  9
$SPLINETYPE
 70
     6
  9
$SPLINESEGS
 70
     8
  9
$HANDSEED
  5
8B4
  9
$SURFTAB1
 70
     6
  9
$SURFTAB2
 70
     6
  9
$SURFTYPE
 70
     6
  9
$SURFU
 70
     6
  9
$SURFV
 70
     6
  9
$UCSBASE
  2

  9
$UCSNAME
  2

  9
$UCSORG
 10
0.0
 20
0.0
 30
0.0
  9
$UCSXDIR
 10
1.0
 20
0.0
 30
0.0
  9
$UCSYDIR
 10
0.0
 20
1.0
 30
0.0
  9
$UCSORTHOREF
  2

  9
$UCSORTHOVIEW
 70
     0
  9
$UCSORGTOP
 10
0.0
 20
0.0
 30
0.0
  9
$UCSORGBOTTOM
 10
0.0
 20
0.0
 30
0.0
  9
$UCSORGLEFT
 10
0.0
 20
0.0
 30
0.0
  9
$UCSORGRIGHT
 10
0.0
 20
0.0
 30
0.0
  9
$UCSORGFRONT
 10
0.0
 20
0.0
 30
0.0
  9
$UCSORGBACK
 10
0.0
 20
0.0
 30
0.0
  9
$PUCSBASE
  2

  9
$PUCSNAME
  2

  9
$PUCSORG
 10
0.0
 20
0.0
 30
0.0
  9
$PUCSXDIR
 10
1.0
 20
0.0
 30
0.0
  9
$PUCSYDIR
 10
0.0
 20
1.0
 30
0.0
  9
$PUCSORTHOREF
  2

  9
$PUCSORTHOVIEW
 70
     0
  9
$PUCSORGTOP
 10
0.0
 20
0.0
 30
0.0
  9
$PUCSORGBOTTOM
 10
0.0
 20
0.0
 30
0.0
  9
$PUCSORGLEFT
 10
0.0
 20
0.0
 30
0.0
  9
$PUCSORGRIGHT
 10
0.0
 20
0.0
 30
0.0
  9
$PUCSORGFRONT
 10
0.0
 20
0.0
 30
0.0
  9
$PUCSORGBACK
 10
0.0
 20
0.0
 30
0.0
  9
$USERI1
 70
     0
  9
$USERI2
 70
     0
  9
$USERI3
 70
     0
  9
$USERI4
 70
     0
  9
$USERI5
 70
     0
  9
$USERR1
 40
0.0
  9
$USERR2
 40
0.0
  9
$USERR3
 40
0.0
  9
$USERR4
 40
0.0
  9
$USERR5
 40
0.0
  9
$WORLDVIEW
 70
     1
  9
$SHADEDGE
 70
     3
  9
$SHADEDIF
 70
    70
  9
$TILEMODE
 70
     1
  9
$MAXACTVP
 70
    16
  9
$PINSBASE
 10
0.0
 20
0.0
 30
0.0
  9
$PLIMCHECK
 70
     0
  9
$PEXTMIN
 10
1.000000000000000E+20
 20
1.000000000000000E+20
 30
1.000000000000000E+20
  9
$PEXTMAX
 10
-1.000000000000000E+20
 20
-1.000000000000000E+20
 30
-1.000000000000000E+20
  9
$PLIMMIN
 10
0.0
 20
0.0
  9
$PLIMMAX
 10
420.0
 20
297.0
  9
$UNITMODE
 70
     0
  9
$VISRETAIN
 70
     0
  9
$PLINEGEN
 70
     0
  9
$PSLTSCALE
 70
     1
  9
$TREEDEPTH
 70
  3020
  9
$CMLSTYLE
  2
STANDARD
  9
$CMLJUST
 70
     0
  9
$CMLSCALE
 40
1.0
  9
$PROXYGRAPHICS
 70
     1
  9
$MEASUREMENT
 70
     0
  9
$CELWEIGHT
370
    -1
  9
$ENDCAPS
280
     0
  9
$JOINSTYLE
280
     0
  9
$LWDISPLAY
290
     0
  9
$INSUNITS
 70
     0
  9
$HYPERLINKBASE
  1

  9
$STYLESHEET
  1

  9
$XEDIT
290
     1
  9
$CEPSNTYPE
380
     0
  9
$PSTYLEMODE
290
     1
  9
$FINGERPRINTGUID
  2
{DA3D453A-8D72-4AD4-83A3-7B4B87D2DE45}
  9
$VERSIONGUID
  2
{F8E76A58-0D95-4D78-8F2B-1CA7E31DF9D5}
  9
$EXTNAMES
290
     1
  9
$PSVPSCALE
 40
0.0
  9
$OLESTARTUP
290
     0
  9
$SORTENTS
280
   127
  9
$INDEXCTL
280
     0
  9
$HIDETEXT
280
     0
  9
$XCLIPFRAME
290
     0
  9
$HALOGAP
280
     0
  9
$OBSCOLOR
 70
   257
  9
$OBSLTYPE
280
     0
  9
$INTERSECTIONDISPLAY
280
     0
  9
$INTERSECTIONCOLOR
 70
   257
  9
$DIMASSOC
280
     2
  9
$PROJECTNAME
  1

  0
ENDSEC
  0
SECTION
  2
CLASSES
  0
CLASS
  1
DICTIONARYVAR
  2
AcDbDictionaryVar
  3
ObjectDBX Classes
 90
        0
 91
       11
280
     0
281
     0
  0
CLASS
  1
ACDBDICTIONARYWDFLT
  2
AcDbDictionaryWithDefault
  3
ObjectDBX Classes
 90
        0
 91
        1
280
     0
281
     0
  0
CLASS
  1
TABLESTYLE
  2
AcDbTableStyle
  3
ObjectDBX Classes
 90
     4095
 91
        1
280
     0
281
     0
  0
CLASS
  1
MATERIAL
  2
AcDbMaterial
  3
ObjectDBX Classes
 90
     1153
 91
        3
280
     0
281
     0
  0
CLASS
  1
VISUALSTYLE
  2
AcDbVisualStyle
  3
ObjectDBX Classes
 90
     4095
 91
       16
280
     0
281
     0
  0
CLASS
  1
SCALE
  2
AcDbScale
  3
ObjectDBX Classes
 90
     1153
 91
       33
280
     0
281
     0
  0
CLASS
  1
MLEADERSTYLE
  2
AcDbMLeaderStyle
  3
ACDB_MLEADERSTYLE_CLASS
 90
     4095
 91
        1
280
     0
281
     0
  0
CLASS
  1
AMGSETTINGSOBJ
  2
AmgSettingsObj
  3
"AcadM|Product Description: AutoCAD Mechanical|Company: Autodesk, Inc."
 90
     1024
 91
        5
280
     0
281
     0
  0
CLASS
  1
ACME_DOCUMENT
  2
AcMeDbDoc
  3
AcMeServices
 90
     1024
 91
        1
280
     0
281
     0
  0
CLASS
  1
ACMESCOPE
  2
AcMeScope
  3
AcMeServices
 90
     1024
 91
        1
280
     0
281
     0
  0
CLASS
  1
ACMECOMMANDHISTORY
  2
AcMeCommandHistory
  3
AcMeServices
 90
     1024
 91
        1
280
     0
281
     0
  0
CLASS
  1
ACIMSYSVARMAN
  2
AcImSysVarManager
  3
AcMeServices
 90
     1024
 91
        5
280
     0
281
     0
  0
CLASS
  1
ACIMINTSYSVAR
  2
AcImIntSysVar
  3
AcMeServices
 90
     1024
 91
       29
280
     0
281
     0
  0
CLASS
  1
ACMEDRAWINGMAN
  2
AcMeDrawingMan
  3
AcMeServices
 90
     1024
 91
        1
280
     0
281
     0
  0
CLASS
  1
ACMEVIEW
  2
AcMeView
  3
AcMeServices
 90
     1024
 91
        1
280
     0
281
     0
  0
CLASS
  1
ACDBENTITYCACHE
  2
AcMeEntityCache
  3
AcMeServices
 90
     1024
 91
        1
280
     0
281
     0
  0
CLASS
  1
GSMANAGER
  2
AcMeGSManager
  3
AcMeServices
 90
     1024
 91
        1
280
     0
281
     0
  0
CLASS
  1
AMDTINTERNALREACTOR
  2
AmdtInternalReactor
  3
AcMeServices
 90
     1024
 91
        2
280
     0
281
     0
  0
CLASS
  1
ACMESTATEMGR
  2
AcMeStateMgr
  3
AcMeServices
 90
     1024
 91
        1
280
     0
281
     0
  0
CLASS
  1
ACGREFMASTER
  2
AcGrefMaster
  3
AcAttribServices
 90
     1024
 91
        1
280
     0
281
     0
  0
CLASS
  1
AM_DRAWING_MGR
  2
AcDmDwgMgr
  3
AcMechDwgViewMgmt
 90
     1024
 91
        1
280
     0
281
     0
  0
CLASS
  1
AM_DWG_DOCUMENT
  2
AcDmDwgDocument
  3
AcMechDwgViewMgmt
 90
     1024
 91
        1
280
     0
281
     0
  0
CLASS
  1
AM_DWG_SHEET
  2
AcDmSheet
  3
AcMechDwgViewMgmt
 90
     1024
 91
        1
280
     0
281
     0
  0
CLASS
  1
AM_VIEWDIMPARMAP
  2
AcDmViewDimParMap
  3
AcMechDwgViewMgmt
 90
     1024
 91
        1
280
     0
281
     0
  0
CLASS
  1
ACIMREALSYSVAR
  2
AcImRealSysVar
  3
AcMeServices
 90
     1024
 91
        1
280
     0
281
     0
  0
CLASS
  1
AM_DWGMGR_NAME
  2
AcDmDwgMgrName
  3
AcMechDwgViewMgmt
 90
     1024
 91
        1
280
     0
281
     0
  0
CLASS
  1
ACME_DATABASE
  2
AcMeDbDatabase
  3
AcMeServices
 90
     1024
 91
        2
280
     0
281
     0
  0
CLASS
  1
ACRFINSADJUSTERMGR
  2
AcRfInsAdjusterMgr
  3
AcMeServices
 90
     1024
 91
        1
280
     0
281
     0
  0
CLASS
  1
ACGREFACADMASTER
  2
AcGrefacadMaster
  3
AcGrefServices
 90
     1024
 91
        1
280
     0
281
     0
  0
CLASS
  1
AMDTMENUSTATEMGR
  2
AmdtMenuStateMgr
  3
McadcomServices
 90
     1024
 91
        1
280
     0
281
     0
  0
CLASS
  1
AMDTMCOMMENUSTATE
  2
AmdtMcomMenuState
  3
McadcomServices
 90
     1024
 91
        1
280
     0
281
     0
  0
CLASS
  1
AMIMASTER
  2
AmiMaster
  3
AmiServices
 90
     1024
 91
        1
280
     0
281
     0
  0
CLASS
  1
MAPIAMMOUDLE
  2
MApiAmModule
  3
MApiAmServices
 90
     1024
 91
        1
280
     0
281
     0
  0
CLASS
  1
ACIMSTRSYSVAR
  2
AcImStrSysVar
  3
AcMeServices
 90
     1024
 91
        5
280
     0
281
     0
  0
CLASS
  1
AMDTADMENUSTATE
  2
AmdtAdMenuState
  3
DesignerServices
 90
     1024
 91
        1
280
     0
281
     0
  0
CLASS
  1
ADAPPL
  2
AcAdAppl
  3
DesignerServices
 90
     1024
 91
        1
280
     0
281
     0
  0
CLASS
  1
DEPMGR
  2
AcAdDepMgr
  3
DesignerServices
 90
     1024
 91
        1
280
     0
281
     0
  0
CLASS
  1
PARAMMGR
  2
AcAdParamMgr
  3
DesignerServices
 90
     1024
 91
        1
280
     0
281
     0
  0
CLASS
  1
PARAMSCOPE
  2
AcAdParamScope
  3
DesignerServices
 90
     1024
 91
        1
280
     0
281
     0
  0
CLASS
  1
NAMEDAPPL
  2
AcAdNamedAppl
  3
DesignerServices
 90
     1024
 91
        1
280
     0
281
     0
  0
CLASS
  1
AMDTDMMENUSTATE
  2
AmdtDmMenuState
  3
AcMechDwgViewMgmt
 90
     1024
 91
        1
280
     0
281
     0
  0
CLASS
  1
AMDTAMMENUSTATE
  2
AmdtAmMenuState
  3
DesignerAssemblies
 90
     1024
 91
        1
280
     0
281
     0
  0
CLASS
  1
ACAMPROJECT
  2
AcAmProject
  3
DesignerAssemblies
 90
     1024
 91
        1
280
     0
281
     0
  0
CLASS
  1
ACAMGRCOMPDEF
  2
AcAmGrCompDef
  3
DesignerAssemblies
 90
     1024
 91
        1
280
     0
281
     0
  0
CLASS
  1
ACCMCONTEXT
  2
AcCmContext
  3
DesignerAssemblies
 90
     1024
 91
        1
280
     0
281
     0
  0
CLASS
  1
ACAMCOMPDEF
  2
AcAmCompDef
  3
DesignerAssemblies
 90
     1024
 91
        1
280
     0
281
     0
  0
CLASS
  1
ACAMCOMPDEFMGR
  2
AcAmCompDefMgr
  3
DesignerAssemblies
 90
     1024
 91
        1
280
     0
281
     0
  0
CLASS
  1
AMCONTEXTMGR
  2
AcAmContextMgr
  3
DesignerAssemblies
 90
     1024
 91
        1
280
     0
281
     0
  0
CLASS
  1
ACAMCONTEXTMODELER
  2
AcAmContextModeler
  3
DesignerAssemblies
 90
     1024
 91
        1
280
     0
281
     0
  0
CLASS
  1
ACMDATADICTIONARY
  2
AcmDataDictionary
  3
"AcmSymBB|Product Description: AutoCAD Mechanical|Company: Autodesk, Inc."
 90
     1024
 91
        1
280
     0
281
     0
  0
CLASS
  1
CATALOGSTATE
  2
AcAmCatalogState
  3
DesignerAssemblies
 90
     1024
 91
        1
280
     0
281
     0
  0
CLASS
  1
ACAMGRCOMPDEFSET
  2
AcAmGrCompDefSet
  3
DesignerAssemblies
 90
     1024
 91
        1
280
     0
281
     0
  0
CLASS
  1
AMDTBROWSERDBTAB
  2
AmdtBrowserDbTab
  3
McadcomServices
 90
     1024
 91
        1
280
     0
281
     0
  0
CLASS
  1
CBROWSERAPPOBJECT
  2
CBrowserAppObject
  3
McadcomServices
 90
     1024
 91
        3
280
     0
281
     0
  0
CLASS
  1
DM_PLACEHOLDER
  2
AcDmSelsetPlaceholder
  3
AcMechDwgViewMgmt
 90
     1024
 91
        1
280
     0
281
     0
  0
CLASS
  1
EXACXREFPANELOBJECT
  2
ExAcXREFPanelObject
  3
EXAC_ESW
 90
     1025
 91
        1
280
     0
281
     0
  0
CLASS
  1
NPOCOLLECTION
  2
AcDbImpNonPersistentObjectsCollection
  3
ObjectDBX Classes
 90
     1153
 91
        1
280
     0
281
     0
  0
CLASS
  1
ACMSTANDARDANSI
  2
AcmStandardANSI
  3
"Amdt_StdImp|Product Description: AutoCAD Mechanical|Company: Autodesk, Inc."
 90
     1024
 91
        2
280
     0
281
     0
  0
CLASS
  1
AMGOBJPROPCFG
  2
AmgObjPropCfg
  3
"AmgLay|Product Description: AutoCAD Mechanical|Company: Autodesk, Inc."
 90
     1025
 91
        2
280
     0
281
     0
  0
CLASS
  1
ACMSURFSTANDARDANSI
  2
AcmSurfTextStdANSI
  3
"Amdt_StdImp|Product Description: AutoCAD Mechanical|Company: Autodesk, Inc."
 90
     1024
 91
        2
280
     0
281
     0
  0
CLASS
  1
ACMFCFSTANDARDANSI
  2
AcmFCFStdANSI
  3
"Amdt_StdImp|Product Description: AutoCAD Mechanical|Company: Autodesk, Inc."
 90
     1024
 91
        2
280
     0
281
     0
  0
CLASS
  1
ACMWELDSTANDARDANSI
  2
AcmWeldingStdANSI
  3
"Amdt_StdImp|Product Description: AutoCAD Mechanical|Company: Autodesk, Inc."
 90
     1024
 91
        2
280
     0
281
     0
  0
CLASS
  1
ACMIDSTANDARDANSI
  2
AcmIdStdANSI
  3
"Amdt_StdImp|Product Description: AutoCAD Mechanical|Company: Autodesk, Inc."
 90
     1024
 91
        2
280
     0
281
     0
  0
CLASS
  1
ACMDATUMSTANDARDANSI
  2
AcmDatumStdANSI
  3
"Amdt_StdImp|Product Description: AutoCAD Mechanical|Company: Autodesk, Inc."
 90
     1024
 91
        2
280
     0
281
     0
  0
CLASS
  1
ACMBOMSTANDARDANSI
  2
AcmBOMStdANSI
  3
"Amdt_StdImp|Product Description: AutoCAD Mechanical|Company: Autodesk, Inc."
 90
     1024
 91
        2
280
     0
281
     0
  0
CLASS
  1
ACMDETAILSTANDARDANSI
  2
AmdtDetailSymStdANSI
  3
"Amdt_StdImp|Product Description: AutoCAD Mechanical|Company: Autodesk, Inc."
 90
     1024
 91
        2
280
     0
281
     0
  0
CLASS
  1
ACMSECTIONSTANDARDANSI
  2
AmdtSectionSymStdANSI
  3
"Amdt_StdImp|Product Description: AutoCAD Mechanical|Company: Autodesk, Inc."
 90
     1024
 91
        2
280
     0
281
     0
  0
CLASS
  1
ACMCENTERLINESTANDARDANSI
  2
AmdtCenterLineStdANSI
  3
"Amdt_StdImp|Product Description: AutoCAD Mechanical|Company: Autodesk, Inc."
 90
     1024
 91
        2
280
     0
281
     0
  0
CLASS
  1
ACMTHREADLINESTANDARDANSI
  2
AmdtThreadLineStdANSI
  3
"Amdt_StdImp|Product Description: AutoCAD Mechanical|Company: Autodesk, Inc."
 90
     1024
 91
        2
280
     0
281
     0
  0
CLASS
  1
ACMNOTESTANDARDANSI
  2
AmdtNoteStdANSI
  3
"Amdt_StdImp|Product Description: AutoCAD Mechanical|Company: Autodesk, Inc."
 90
     1024
 91
        2
280
     0
281
     0
  0
CLASS
  1
ACMTAPERSTANDARDANSI
  2
AcmTaperStdANSI
  3
"Amdt_StdImp|Product Description: AutoCAD Mechanical|Company: Autodesk, Inc."
 90
     1024
 91
        2
280
     0
281
     0
  0
CLASS
  1
ACMANOOTATIONVIEWSTANDARDANSI
  2
AmdtAnViewStdANSI
  3
"Amdt_StdImp|Product Description: AutoCAD Mechanical|Company: Autodesk, Inc."
 90
     1024
 91
        2
280
     0
281
     0
  0
CLASS
  1
AMDTNOTETEMPLATEDB
  2
AmdtNoteTemplateDB
  3
AcmSymBB|Product Description: AutoCAD Mechanical|Company: Autodesk, Inc.
 90
     1024
 91
       24
280
     0
281
     0
  0
CLASS
  1
ACAMGLAYSTD
  2
AcAmgLayStd
  3
"AmgLay|Product Description: AutoCAD Mechanical|Company: Autodesk, Inc."
 90
     1024
 91
        4
280
     0
281
     0
  0
CLASS
  1
ACAMGDIMSTD
  2
AcAmgDimStd
  3
"AmgDim|Product Description: AutoCAD Mechanical|Company: Autodesk, Inc."
 90
     1024
 91
        4
280
     0
281
     0
  0
CLASS
  1
ACAMGHOLECHARTSTDANSI
  2
AcAmgHoleChartStdANSI
  3
AmgDim|Product Description: AutoCAD Mechanical|Company: Autodesk, Inc.
 90
     1024
 91
        2
280
     0
281
     0
  0
CLASS
  1
ACAMGTITLESTD
  2
AcAmgTitleStd
  3
"AmgTitle|Product Description: AutoCAD Mechanical|Company: Autodesk, Inc."
 90
     4095
 91
        4
280
     0
281
     0
  0
CLASS
  1
ACMSTANDARDDIN
  2
AcmStandardDIN
  3
"Amdt_StdImp|Product Description: AutoCAD Mechanical|Company: Autodesk, Inc."
 90
     1024
 91
        1
280
     0
281
     0
  0
CLASS
  1
AMDTEDGESTANDARDDIN13715
  2
AmdtEdgeStdDIN13715
  3
"Amdt_StdImp|Product Description: AutoCAD Mechanical|Company: Autodesk, Inc."
 90
     1024
 91
        1
280
     0
281
     0
  0
CLASS
  1
ACMSURFSTANDARDDIN2002
  2
AcmSurfTextStdDIN2002
  3
"Amdt_StdImp|Product Description: AutoCAD Mechanical|Company: Autodesk, Inc."
 90
     1024
 91
        1
280
     0
281
     0
  0
CLASS
  1
ACMFCFSTANDARDDIN
  2
AcmFCFStdDIN
  3
"Amdt_StdImp|Product Description: AutoCAD Mechanical|Company: Autodesk, Inc."
 90
     1024
 91
        1
280
     0
281
     0
  0
CLASS
  1
ACMWELDSTANDARDDIN
  2
AcmWeldingStdDIN
  3
"Amdt_StdImp|Product Description: AutoCAD Mechanical|Company: Autodesk, Inc."
 90
     1024
 91
        1
280
     0
281
     0
  0
CLASS
  1
ACMIDSTANDARDDIN
  2
AcmIdStdDIN
  3
"Amdt_StdImp|Product Description: AutoCAD Mechanical|Company: Autodesk, Inc."
 90
     1024
 91
        1
280
     0
281
     0
  0
CLASS
  1
ACMDATUMSTANDARDDIN
  2
AcmDatumStdDIN
  3
"Amdt_StdImp|Product Description: AutoCAD Mechanical|Company: Autodesk, Inc."
 90
     1024
 91
        1
280
     0
281
     0
  0
CLASS
  1
ACMBOMSTANDARDDIN
  2
AcmBOMStdDIN
  3
"Amdt_StdImp|Product Description: AutoCAD Mechanical|Company: Autodesk, Inc."
 90
     1024
 91
        1
280
     0
281
     0
  0
CLASS
  1
ACMDETAILSTANDARDDIN
  2
AmdtDetailSymStdDIN
  3
"Amdt_StdImp|Product Description: AutoCAD Mechanical|Company: Autodesk, Inc."
 90
     1024
 91
        1
280
     0
281
     0
  0
CLASS
  1
ACMSECTIONSTANDARDDIN
  2
AmdtSectionSymStdDIN
  3
"Amdt_StdImp|Product Description: AutoCAD Mechanical|Company: Autodesk, Inc."
 90
     1024
 91
        1
280
     0
281
     0
  0
CLASS
  1
ACMCENTERLINESTANDARDDIN
  2
AmdtCenterLineStdDIN
  3
"Amdt_StdImp|Product Description: AutoCAD Mechanical|Company: Autodesk, Inc."
 90
     1024
 91
        1
280
     0
281
     0
  0
CLASS
  1
ACMTHREADLINESTANDARDDIN
  2
AmdtThreadLineStdDIN
  3
"Amdt_StdImp|Product Description: AutoCAD Mechanical|Company: Autodesk, Inc."
 90
     1024
 91
        1
280
     0
281
     0
  0
CLASS
  1
ACMNOTESTANDARDDIN
  2
AmdtNoteStdDIN
  3
"Amdt_StdImp|Product Description: AutoCAD Mechanical|Company: Autodesk, Inc."
 90
     1024
 91
        1
280
     0
281
     0
  0
CLASS
  1
ACMTAPERSTANDARDDIN
  2
AcmTaperStdDIN
  3
"Amdt_StdImp|Product Description: AutoCAD Mechanical|Company: Autodesk, Inc."
 90
     1024
 91
        1
280
     0
281
     0
  0
CLASS
  1
ACMANOOTATIONVIEWSTANDARDDIN
  2
AmdtAnViewStdDIN
  3
"Amdt_StdImp|Product Description: AutoCAD Mechanical|Company: Autodesk, Inc."
 90
     1024
 91
        1
280
     0
281
     0
  0
CLASS
  1
ACAMGHOLECHARTSTDDIN
  2
AcAmgHoleChartStdDIN
  3
AmgDim|Product Description: AutoCAD Mechanical|Company: Autodesk, Inc.
 90
     1024
 91
        1
280
     0
281
     0
  0
CLASS
  1
ACMSTANDARDISO
  2
AcmStandardISO
  3
"Amdt_StdImp|Product Description: AutoCAD Mechanical|Company: Autodesk, Inc."
 90
     1024
 91
        1
280
     0
281
     0
  0
CLASS
  1
AMDTEDGESTANDARDISO
  2
AmdtEdgeStdISO
  3
"Amdt_StdImp|Product Description: AutoCAD Mechanical|Company: Autodesk, Inc."
 90
     1024
 91
        1
280
     0
281
     0
  0
CLASS
  1
ACMSURFSTANDARDISO2002
  2
AcmSurfTextStdISO2002
  3
"Amdt_StdImp|Product Description: AutoCAD Mechanical|Company: Autodesk, Inc."
 90
     1024
 91
        1
280
     0
281
     0
  0
CLASS
  1
ACMFCFSTANDARDISO
  2
AcmFCFStdISO
  3
"Amdt_StdImp|Product Description: AutoCAD Mechanical|Company: Autodesk, Inc."
 90
     1024
 91
        1
280
     0
281
     0
  0
CLASS
  1
ACMWELDSTANDARDISO
  2
AcmWeldingStdISO
  3
"Amdt_StdImp|Product Description: AutoCAD Mechanical|Company: Autodesk, Inc."
 90
     1024
 91
        1
280
     0
281
     0
  0
CLASS
  1
ACMIDSTANDARDISO
  2
AcmIdStdISO
  3
"Amdt_StdImp|Product Description: AutoCAD Mechanical|Company: Autodesk, Inc."
 90
     1024
 91
        1
280
     0
281
     0
  0
CLASS
  1
ACMDATUMSTANDARDISO
  2
AcmDatumStdISO
  3
"Amdt_StdImp|Product Description: AutoCAD Mechanical|Company: Autodesk, Inc."
 90
     1024
 91
        1
280
     0
281
     0
  0
CLASS
  1
ACMBOMSTANDARDISO
  2
AcmBOMStdISO
  3
"Amdt_StdImp|Product Description: AutoCAD Mechanical|Company: Autodesk, Inc."
 90
     1024
 91
        1
280
     0
281
     0
  0
CLASS
  1
ACMDETAILSTANDARDISO
  2
AmdtDetailSymStdISO
  3
"Amdt_StdImp|Product Description: AutoCAD Mechanical|Company: Autodesk, Inc."
 90
     1024
 91
        1
280
     0
281
     0
  0
CLASS
  1
ACMSECTIONSTANDARDISO2001
  2
AmdtSectionSymStdISO2001
  3
"Amdt_StdImp|Product Description: AutoCAD Mechanical|Company: Autodesk, Inc."
 90
     1024
 91
        1
280
     0
281
     0
  0
CLASS
  1
ACMCENTERLINESTANDARDISO
  2
AmdtCenterLineStdISO
  3
"Amdt_StdImp|Product Description: AutoCAD Mechanical|Company: Autodesk, Inc."
 90
     1024
 91
        1
280
     0
281
     0
  0
CLASS
  1
ACMNOTESTANDARDISO
  2
AmdtNoteStdISO
  3
"Amdt_StdImp|Product Description: AutoCAD Mechanical|Company: Autodesk, Inc."
 90
     1024
 91
        1
280
     0
281
     0
  0
CLASS
  1
ACAMGHOLECHARTSTDISO
  2
AcAmgHoleChartStdISO
  3
AmgDim|Product Description: AutoCAD Mechanical|Company: Autodesk, Inc.
 90
     1024
 91
        1
280
     0
281
     0
  0
CLASS
  1
ACMTHREADLINESTANDARDISO
  2
AmdtThreadLineStdISO
  3
"Amdt_StdImp|Product Description: AutoCAD Mechanical|Company: Autodesk, Inc."
 90
     1024
 91
        1
280
     0
281
     0
  0
CLASS
  1
ACMTAPERSTANDARDISO
  2
AcmTaperStdISO
  3
"Amdt_StdImp|Product Description: AutoCAD Mechanical|Company: Autodesk, Inc."
 90
     1024
 91
        1
280
     0
281
     0
  0
CLASS
  1
ACMANOOTATIONVIEWSTANDARDISO
  2
AmdtAnViewStdISO
  3
"Amdt_StdImp|Product Description: AutoCAD Mechanical|Company: Autodesk, Inc."
 90
     1024
 91
        1
280
     0
281
     0
  0
CLASS
  1
ACAMGFILTERDAT
  2
AcAmgFilterDat
  3
"AcadM|Product Description: AutoCAD Mechanical|Company: Autodesk, Inc."
 90
     1024
 91
        6
280
     0
281
     0
  0
CLASS
  1
SORTENTSTABLE
  2
AcDbSortentsTable
  3
ObjectDBX Classes
 90
        0
 91
        2
280
     0
281
     0
  0
CLASS
  1
DIMASSOC
  2
AcDbDimAssoc
  3
"AcDbDimAssoc|Product Desc:     AcDim ARX App For Dimension|Company:          Autodesk, Inc.|WEB Address:      www.autodesk.com"
 90
        0
 91
       13
280
     0
281
     0
  0
CLASS
  1
CELLSTYLEMAP
  2
AcDbCellStyleMap
  3
ObjectDBX Classes
 90
     1152
 91
        4
280
     0
281
     0
  0
ENDSEC
  0
SECTION
  2
TABLES
  0
TABLE
  2
VPORT
  5
12
330
0
100
AcDbSymbolTable
 70
     1
  0
VPORT
  5
1DF
330
12
100
AcDbSymbolTableRecord
100
AcDbViewportTableRecord
  2
*Active
 70
     0
 10
0.0
 20
0.0
 11
1.0
 21
1.0
 12
82.49473625036742
 22
157.9756172152417
 13
0.0
 23
0.0
 14
2.5
 24
2.5
 15
20.0
 25
20.0
 16
0.0
 26
0.0
 36
1.0
 17
0.0
 27
0.0
 37
0.0
 40
289.6505479430022
 41
1.443908323281061
 42
50.0
 43
0.0
 44
0.0
 50
0.0
 51
0.0
 71
     0
 72
  1000
 73
     1
 74
     0
 75
     0
 76
     0
 77
     0
 78
     0
281
     0
 65
     1
110
0.0
120
0.0
130
0.0
111
1.0
121
0.0
131
0.0
112
0.0
122
1.0
132
0.0
 79
     0
146
0.0
  0
ENDTAB
  0
TABLE
  2
LTYPE
  5
D
330
0
100
AcDbSymbolTable
 70
    25
  0
LTYPE
  5
E
330
D
100
AcDbSymbolTableRecord
100
AcDbLinetypeTableRecord
  2
BYBLOCK
 70
     0
  3

 72
    65
 73
     0
 40
0.0
  0
LTYPE
  5
F
330
D
100
AcDbSymbolTableRecord
100
AcDbLinetypeTableRecord
  2
BYLAYER
 70
     0
  3

 72
    65
 73
     0
 40
0.0
  0
LTYPE
  5
5
330
D
100
AcDbSymbolTableRecord
100
AcDbLinetypeTableRecord
  2
CONTINUOUS
 70
     0
  3
Solid line
 72
    65
 73
     0
 40
0.0
  0
LTYPE
  5
38
330
D
100
AcDbSymbolTableRecord
100
AcDbLinetypeTableRecord
  2
DASHED
 70
     0
  3
Dashed line
 72
    65
 73
     2
 40
0.75
 49
0.5
 74
     0
 49
-0.25
 74
     0
  0
LTYPE
  5
26
330
D
100
AcDbSymbolTableRecord
100
AcDbLinetypeTableRecord
  2
CENTER
 70
     0
  3
Center line
 72
    65
 73
     4
 40
2.0
 49
1.25
 74
     0
 49
-0.25
 74
     0
 49
0.25
 74
     0
 49
-0.25
 74
     0
  0
LTYPE
  5
26A
330
D
100
AcDbSymbolTableRecord
100
AcDbLinetypeTableRecord
  2
HIDDEN
 70
     0
  3
Verdeckt
 72
    65
 73
     2
 40
0.375
 49
0.25
 74
     0
 49
-0.125
 74
     0
  0
LTYPE
  5
26B
330
D
100
AcDbSymbolTableRecord
100
AcDbLinetypeTableRecord
  2
PHANTOM2
 70
     0
  3
Phantom (.5x) ___ _ _ ___ _ _ ___ _ _ ___ _ _
 72
    65
 73
     6
 40
1.25
 49
0.625
 74
     0
 49
-0.125
 74
     0
 49
0.125
 74
     0
 49
-0.125
 74
     0
 49
0.125
 74
     0
 49
-0.125
 74
     0
  0
LTYPE
  5
2B1
330
D
100
AcDbSymbolTableRecord
100
AcDbLinetypeTableRecord
  2
ACANSTGB
 70
     0
  3
__ . . __ . .
 72
    65
 73
     6
 40
0.35433070866
 49
0.15748031496
 74
     0
 49
-0.03937007874
 74
     0
 49
0.03937007874
 74
     0
 49
-0.03937007874
 74
     0
 49
0.03937007874
 74
     0
 49
-0.03937007874
 74
     0
  0
LTYPE
  5
2B2
330
D
100
AcDbSymbolTableRecord
100
AcDbLinetypeTableRecord
  2
ACANSTGL
 70
     0
  3
_ _ _ _ _
 72
    65
 73
     2
 40
0.11811023622
 49
0.07874015748
 74
     0
 49
-0.03937007874
 74
     0
  0
LTYPE
  5
31F
330
D
100
AcDbSymbolTableRecord
100
AcDbLinetypeTableRecord
  2
AM_ISO02W050
 70
     0
  3
__ __ __ __ __ __ __ __ __ __ __ __ __ __ __
 72
    65
 73
     2
 40
7.5
 49
6.0
 74
     0
 49
-1.5
 74
     0
  0
LTYPE
  5
320
330
D
100
AcDbSymbolTableRecord
100
AcDbLinetypeTableRecord
  2
AM_ISO08W050
 70
     0
  3
____ . ____ . ____ . ____ . ____ . ____ . ____
 72
    65
 73
     4
 40
18.0
 49
12.0
 74
     0
 49
-1.5
 74
     0
 49
3.0
 74
     0
 49
-1.5
 74
     0
  0
LTYPE
  5
321
330
D
100
AcDbSymbolTableRecord
100
AcDbLinetypeTableRecord
  2
AM_ISO09W050
 70
     0
  3
_____ . . _____ . . _____ . . ____ .. ____
 72
    65
 73
     6
 40
22.5
 49
12.0
 74
     0
 49
-1.5
 74
     0
 49
3.0
 74
     0
 49
-1.5
 74
     0
 49
3.0
 74
     0
 49
-1.5
 74
     0
  0
LTYPE
  5
322
330
D
100
AcDbSymbolTableRecord
100
AcDbLinetypeTableRecord
  2
Amconstr
 70
     0
  3
_______________________
 72
    65
 73
     2
 40
9999.0
 49
9999.0
 74
     0
 49
0.0
 74
     0
  0
LTYPE
  5
323
330
D
100
AcDbSymbolTableRecord
100
AcDbLinetypeTableRecord
  2
AM_ISO08W050x2
 70
     0
  3
__ . __ . __ . __ . __ . __
 72
    65
 73
     4
 40
9.0
 49
6.0
 74
     0
 49
-0.75
 74
     0
 49
1.5
 74
     0
 49
-0.75
 74
     0
  0
LTYPE
  5
324
330
D
100
AcDbSymbolTableRecord
100
AcDbLinetypeTableRecord
  2
AM_ISO02W050x2
 70
     0
  3
 _ _ _ _ _ _ _ _ _ _ _ _
 72
    65
 73
     2
 40
3.75
 49
3.0
 74
     0
 49
-0.75
 74
     0
  0
LTYPE
  5
325
330
D
100
AcDbSymbolTableRecord
100
AcDbLinetypeTableRecord
  2
Amzigzag
 70
     0
  3
/\/-/\/-/\/-/\/-/\/-/\/
 72
    65
 73
     2
 40
11.0001
 49
0.0001
 74
     4
 75
   136
340
326
 46
0.04
 50
0.0
 44
0.0
 45
0.0
 49
-11.0
 74
     0
  0
LTYPE
  5
33C
330
D
100
AcDbSymbolTableRecord
100
AcDbLinetypeTableRecord
  2
ACDINWELD
 70
     0
  3
_ _ _ _ _
 72
    65
 73
     2
 40
2.0
 49
2.0
 74
     0
 49
-1.0
 74
     0
  0
LTYPE
  5
33F
330
D
100
AcDbSymbolTableRecord
100
AcDbLinetypeTableRecord
  2
ACDINTGB
 70
     0
  3
__ . . __ . .
 72
    65
 73
     6
 40
9.0
 49
4.0
 74
     0
 49
-1.0
 74
     0
 49
1.0
 74
     0
 49
-1.0
 74
     0
 49
1.0
 74
     0
 49
-1.0
 74
     0
  0
LTYPE
  5
340
330
D
100
AcDbSymbolTableRecord
100
AcDbLinetypeTableRecord
  2
ACDINTGL
 70
     0
  3
_ _ _ _ _
 72
    65
 73
     2
 40
3.0
 49
2.0
 74
     0
 49
-1.0
 74
     0
  0
LTYPE
  5
352
330
D
100
AcDbSymbolTableRecord
100
AcDbLinetypeTableRecord
  2
CENTER2
 70
     0
  3
Center (.5x) ___ _ ___ _ ___ _ ___ _ ___ _ ___
 72
    65
 73
     4
 40
1.125
 49
0.75
 74
     0
 49
-0.125
 74
     0
 49
0.125
 74
     0
 49
-0.125
 74
     0
  0
LTYPE
  5
353
330
D
100
AcDbSymbolTableRecord
100
AcDbLinetypeTableRecord
  2
HIDDEN2
 70
     0
  3
Hidden (.5x) _ _ _ _ _ _ _ _ _ _ _ _ _ _ _ _ _
 72
    65
 73
     2
 40
0.1875
 49
0.125
 74
     0
 49
-0.0625
 74
     0
  0
LTYPE
  5
367
330
D
100
AcDbSymbolTableRecord
100
AcDbLinetypeTableRecord
  2
ACISOWELD
 70
     0
  3
_ _ _ _ _
 72
    65
 73
     2
 40
2.0
 49
2.0
 74
     0
 49
-1.0
 74
     0
  0
LTYPE
  5
36A
330
D
100
AcDbSymbolTableRecord
100
AcDbLinetypeTableRecord
  2
ACISOTGB
 70
     0
  3
__ . . __ . .
 72
    65
 73
     6
 40
9.0
 49
4.0
 74
     0
 49
-1.0
 74
     0
 49
1.0
 74
     0
 49
-1.0
 74
     0
 49
1.0
 74
     0
 49
-1.0
 74
     0
  0
LTYPE
  5
36B
330
D
100
AcDbSymbolTableRecord
100
AcDbLinetypeTableRecord
  2
ACISOTGL
 70
     0
  3
_ _ _ _ _
 72
    65
 73
     2
 40
3.0
 49
2.0
 74
     0
 49
-1.0
 74
     0
  0
ENDTAB
  0
TABLE
  2
LAYER
  5
A
102
{ACAD_XDICTIONARY
360
390
102
}
330
0
100
AcDbSymbolTable
 70
    14
  0
LAYER
  5
4
102
{ACAD_XDICTIONARY
360
89F
102
}
330
A
100
AcDbSymbolTableRecord
100
AcDbLayerTableRecord
  2
0
 70
     0
 62
     7
  6
CONTINUOUS
370
    -3
390
191
  0
LAYER
  5
2C9
330
A
100
AcDbSymbolTableRecord
100
AcDbLayerTableRecord
  2
Defpoints
 70
     0
 62
     7
  6
CONTINUOUS
290
     0
370
    -3
390
191
  0
LAYER
  5
38F
102
{ACAD_XDICTIONARY
360
8A1
102
}
330
A
100
AcDbSymbolTableRecord
100
AcDbLayerTableRecord
  2
AM_0 ( Kontur 0.5 )
 70
     0
 62
     7
  6
CONTINUOUS
370
    50
390
191
1001
AcAecLayerStandard
1000

1000

  0
LAYER
  5
3D6
102
{ACAD_XDICTIONARY
360
8A3
102
}
330
A
100
AcDbSymbolTableRecord
100
AcDbLayerTableRecord
  2
AM_7 (Mittellinie)
 70
     0
 62
     4
  6
AM_ISO08W050
370
    25
390
191
1001
AcAecLayerStandard
1000

1000

  0
LAYER
  5
3D8
102
{ACAD_XDICTIONARY
360
8A5
102
}
330
A
100
AcDbSymbolTableRecord
100
AcDbLayerTableRecord
  2
AM_3 ( Verdeckt )
 70
     0
 62
     6
  6
AM_ISO02W050
370
    25
390
191
1001
AcAecLayerStandard
1000

1000

  0
LAYER
  5
3DA
102
{ACAD_XDICTIONARY
360
8A7
102
}
330
A
100
AcDbSymbolTableRecord
100
AcDbLayerTableRecord
  2
AM_5 ( Bemassung)
 70
     0
 62
     3
  6
CONTINUOUS
370
    25
390
191
1001
AcAecLayerStandard
1000

1000

  0
ENDTAB
  0
TABLE
  2
STYLE
  5
B
330
0
100
AcDbSymbolTable
 70
     9
  0
STYLE
  5
C
330
B
100
AcDbSymbolTableRecord
100
AcDbTextStyleTableRecord
  2
STANDARD
 70
     0
 40
0.0
 41
1.0
 50
0.0
 71
     0
 42
3.5
  3
ARIAL.TTF
  4

1001
ACAD
1000
Arial
1071
       34
  0
STYLE
  5
1C
330
B
100
AcDbSymbolTableRecord
100
AcDbTextStyleTableRecord
  2
ROMANS
 70
     0
 40
10.0
 41
1.0
 50
0.0
 71
     0
 42
5.0
  3
romand.shx
  4

  0
STYLE
  5
2A2
330
B
100
AcDbSymbolTableRecord
100
AcDbTextStyleTableRecord
  2
ACANSTS
 70
     0
 40
1.0
 41
1.0
 50
0.0
 71
     0
 42
3.5
  3
romans.shx
  4

  0
STYLE
  5
2B0
330
B
100
AcDbSymbolTableRecord
100
AcDbTextStyleTableRecord
  2
ACANSGDT
 70
     0
 40
0.0
 41
1.0
 50
0.0
 71
     0
 42
3.5
  3
amgdt.shx
  4

  0
STYLE
  5
326
330
B
100
AcDbSymbolTableRecord
100
AcDbTextStyleTableRecord
  2

 70
     1
 40
0.0
 41
1.0
 50
0.0
 71
     0
 42
2.5
  3
genltshp.shx
  4

  0
STYLE
  5
33A
330
B
100
AcDbSymbolTableRecord
100
AcDbTextStyleTableRecord
  2
ACDINGDT
 70
     0
 40
0.0
 41
1.0
 50
0.0
 71
     0
 42
3.5
  3
amgdt.shx
  4

  0
STYLE
  5
343
330
B
100
AcDbSymbolTableRecord
100
AcDbTextStyleTableRecord
  2
ACDINTS
 70
     0
 40
1.0
 41
1.0
 50
0.0
 71
     0
 42
3.5
  3
isocp.shx
  4

  0
STYLE
  5
361
330
B
100
AcDbSymbolTableRecord
100
AcDbTextStyleTableRecord
  2
ACISOTS
 70
     0
 40
1.0
 41
1.0
 50
0.0
 71
     0
 42
2.5
  3
ARIALN.TTF
  4

1001
ACAD
1000
Arial Narrow
1071
       34
  0
STYLE
  5
365
330
B
100
AcDbSymbolTableRecord
100
AcDbTextStyleTableRecord
  2
ACISOGDT
 70
     0
 40
0.0
 41
1.0
 50
0.0
 71
     0
 42
2.5
  3
amgdt.shx
  4

  0
ENDTAB
  0
TABLE
  2
VIEW
  5
10
330
0
100
AcDbSymbolTable
 70
     0
  0
ENDTAB
  0
TABLE
  2
UCS
  5
11
330
0
100
AcDbSymbolTable
 70
     0
  0
ENDTAB
  0
TABLE
  2
APPID
  5
14
330
0
100
AcDbSymbolTable
 70
    64
  0
APPID
  5
15
330
14
100
AcDbSymbolTableRecord
100
AcDbRegAppTableRecord
  2
ACAD
 70
     0
  0
APPID
  5
234
330
14
100
AcDbSymbolTableRecord
100
AcDbRegAppTableRecord
  2
ACAD_MLEADERVER
 70
     0
  0
APPID
  5
23D
330
14
100
AcDbSymbolTableRecord
100
AcDbRegAppTableRecord
  2
MCAD_NO_VIS
 70
     0
  0
APPID
  5
23E
330
14
100
AcDbSymbolTableRecord
100
AcDbRegAppTableRecord
  2
ACAD_TEMP_GRAPHIC
 70
     0
  0
APPID
  5
26D
330
14
100
AcDbSymbolTableRecord
100
AcDbRegAppTableRecord
  2
AD_DRAW
 70
     0
  0
APPID
  5
270
330
14
100
AcDbSymbolTableRecord
100
AcDbRegAppTableRecord
  2
ACATTRIBSERVICES
 70
     0
  0
APPID
  5
291
330
14
100
AcDbSymbolTableRecord
100
AcDbRegAppTableRecord
  2
DESIGNERASSEMBLIES
 70
     0
  0
APPID
  5
297
330
14
100
AcDbSymbolTableRecord
100
AcDbRegAppTableRecord
  2
ACADM_DIM_EDIT
 70
     0
  0
APPID
  5
298
330
14
100
AcDbSymbolTableRecord
100
AcDbRegAppTableRecord
  2
AMDT_DM_ADJ
 70
     0
  0
APPID
  5
2CA
330
14
100
AcDbSymbolTableRecord
100
AcDbRegAppTableRecord
  2
AcadAnnotative
 70
     0
  0
APPID
  5
2CB
330
14
100
AcDbSymbolTableRecord
100
AcDbRegAppTableRecord
  2
ACAD_DSTYLE_DIMARC_LENGTH_SYMBOL
 70
     0
  0
APPID
  5
2CC
330
14
100
AcDbSymbolTableRecord
100
AcDbRegAppTableRecord
  2
AcAecLayerStandard
 70
     0
  0
APPID
  5
2CD
330
14
100
AcDbSymbolTableRecord
100
AcDbRegAppTableRecord
  2
ACAD_DSTYLE_DIMJOGGED_JOGANGLE_SYMBOL
 70
     0
  0
APPID
  5
2CE
330
14
100
AcDbSymbolTableRecord
100
AcDbRegAppTableRecord
  2
AcadAnnoPO
 70
     0
  0
APPID
  5
2CF
330
14
100
AcDbSymbolTableRecord
100
AcDbRegAppTableRecord
  2
ACAD_EXEMPT_FROM_CAD_STANDARDS
 70
     0
  0
APPID
  5
2D0
330
14
100
AcDbSymbolTableRecord
100
AcDbRegAppTableRecord
  2
GENIUS_GENODEF_13
 70
     0
  0
APPID
  5
2D1
330
14
100
AcDbSymbolTableRecord
100
AcDbRegAppTableRecord
  2
GENIUS_GENOBJ-N-CRS_13
 70
     0
  0
APPID
  5
2D2
330
14
100
AcDbSymbolTableRecord
100
AcDbRegAppTableRecord
  2
GENIUS_GENOENT_13
 70
     0
  0
APPID
  5
2D3
330
14
100
AcDbSymbolTableRecord
100
AcDbRegAppTableRecord
  2
GENIUS_GENOLIS_13
 70
     0
  0
APPID
  5
2D4
330
14
100
AcDbSymbolTableRecord
100
AcDbRegAppTableRecord
  2
GENIUS_GENOREF_13
 70
     0
  0
APPID
  5
2D5
330
14
100
AcDbSymbolTableRecord
100
AcDbRegAppTableRecord
  2
GEVID1190879659
 70
     0
  0
APPID
  5
2D6
330
14
100
AcDbSymbolTableRecord
100
AcDbRegAppTableRecord
  2
GEVDC
 70
     0
  0
APPID
  5
2D7
330
14
100
AcDbSymbolTableRecord
100
AcDbRegAppTableRecord
  2
GENIUS_GENBH_13
 70
     0
  0
APPID
  5
2D8
330
14
100
AcDbSymbolTableRecord
100
AcDbRegAppTableRecord
  2
GENIUS_GENOBJ-NBEHI-BHF_13
 70
     0
  0
APPID
  5
2D9
330
14
100
AcDbSymbolTableRecord
100
AcDbRegAppTableRecord
  2
GENIUS_GENOBJ-NBEHI-BHB_13
 70
     0
  0
APPID
  5
2DA
330
14
100
AcDbSymbolTableRecord
100
AcDbRegAppTableRecord
  2
GEVID1190879660
 70
     0
  0
APPID
  5
2DB
330
14
100
AcDbSymbolTableRecord
100
AcDbRegAppTableRecord
  2
GEVID1190879661
 70
     0
  0
APPID
  5
2DC
330
14
100
AcDbSymbolTableRecord
100
AcDbRegAppTableRecord
  2
ACAD_DSTYLE_DIMRADIAL_EXTENSION
 70
     0
  0
APPID
  5
2DD
330
14
100
AcDbSymbolTableRecord
100
AcDbRegAppTableRecord
  2
GEVID1190879662
 70
     0
  0
APPID
  5
2DE
330
14
100
AcDbSymbolTableRecord
100
AcDbRegAppTableRecord
  2
GEVID1190879663
 70
     0
  0
APPID
  5
2DF
330
14
100
AcDbSymbolTableRecord
100
AcDbRegAppTableRecord
  2
GEVID1190879664
 70
     0
  0
APPID
  5
2E0
330
14
100
AcDbSymbolTableRecord
100
AcDbRegAppTableRecord
  2
GEVID1190879665
 70
     0
  0
APPID
  5
2E1
330
14
100
AcDbSymbolTableRecord
100
AcDbRegAppTableRecord
  2
GEVID1190879666
 70
     0
  0
APPID
  5
2E2
330
14
100
AcDbSymbolTableRecord
100
AcDbRegAppTableRecord
  2
GENIUS_GENOBJ-N-CEN_13
 70
     0
  0
APPID
  5
2E3
330
14
100
AcDbSymbolTableRecord
100
AcDbRegAppTableRecord
  2
GENIUS_GENCEN_19
 70
     0
  0
APPID
  5
2E4
330
14
100
AcDbSymbolTableRecord
100
AcDbRegAppTableRecord
  2
GEVID1190879667
 70
     0
  0
APPID
  5
2E5
330
14
100
AcDbSymbolTableRecord
100
AcDbRegAppTableRecord
  2
GENIUS_GENOBJ-N-CRC_13
 70
     0
  0
APPID
  5
2E6
330
14
100
AcDbSymbolTableRecord
100
AcDbRegAppTableRecord
  2
GENIUS_GENCRC_14
 70
     0
  0
APPID
  5
2E7
330
14
100
AcDbSymbolTableRecord
100
AcDbRegAppTableRecord
  2
ACAD_PSEXT
 70
     0
  0
APPID
  5
2E8
330
14
100
AcDbSymbolTableRecord
100
AcDbRegAppTableRecord
  2
GEVID1190888456
 70
     0
  0
APPID
  5
2E9
330
14
100
AcDbSymbolTableRecord
100
AcDbRegAppTableRecord
  2
GEVID1190888457
 70
     0
  0
APPID
  5
2EA
330
14
100
AcDbSymbolTableRecord
100
AcDbRegAppTableRecord
  2
GEVID1190888458
 70
     0
  0
APPID
  5
2EB
330
14
100
AcDbSymbolTableRecord
100
AcDbRegAppTableRecord
  2
GEVID1190888459
 70
     0
  0
APPID
  5
2EC
330
14
100
AcDbSymbolTableRecord
100
AcDbRegAppTableRecord
  2
GEVID1190888460
 70
     0
  0
APPID
  5
2ED
330
14
100
AcDbSymbolTableRecord
100
AcDbRegAppTableRecord
  2
GEVID1190888461
 70
     0
  0
APPID
  5
2EE
330
14
100
AcDbSymbolTableRecord
100
AcDbRegAppTableRecord
  2
GEVID1190888462
 70
     0
  0
APPID
  5
2EF
330
14
100
AcDbSymbolTableRecord
100
AcDbRegAppTableRecord
  2
ACAD_DSTYLE_DIMJAG
 70
     0
  0
APPID
  5
2F0
330
14
100
AcDbSymbolTableRecord
100
AcDbRegAppTableRecord
  2
ACAD_DSTYLE_DIMTALN
 70
     0
  0
APPID
  5
2F1
330
14
100
AcDbSymbolTableRecord
100
AcDbRegAppTableRecord
  2
GENIUS_GENBLLY_14
 70
     0
  0
APPID
  5
2F2
330
14
100
AcDbSymbolTableRecord
100
AcDbRegAppTableRecord
  2
DCO15
 70
     0
  0
APPID
  5
2F3
330
14
100
AcDbSymbolTableRecord
100
AcDbRegAppTableRecord
  2
GENIUS_GENREC_14
 70
     0
  0
APPID
  5
2F4
330
14
100
AcDbSymbolTableRecord
100
AcDbRegAppTableRecord
  2
GENIUS_GENOBJ-N-REC_13
 70
     0
  0
APPID
  5
2F5
330
14
100
AcDbSymbolTableRecord
100
AcDbRegAppTableRecord
  2
GENIUS_GENOBJ-N-TIT_13
 70
     0
  0
APPID
  5
2F6
330
14
100
AcDbSymbolTableRecord
100
AcDbRegAppTableRecord
  2
GENIUS_GENTITLE_13
 70
     0
  0
APPID
  5
2F7
330
14
100
AcDbSymbolTableRecord
100
AcDbRegAppTableRecord
  2
GENIUS_GENSCREG_15
 70
     0
  0
APPID
  5
2F8
330
14
100
AcDbSymbolTableRecord
100
AcDbRegAppTableRecord
  2
GENIUS_GENOBJ-N-SDF_13
 70
     0
  0
APPID
  5
2F9
330
14
100
AcDbSymbolTableRecord
100
AcDbRegAppTableRecord
  2
ACAD_DSTYLE_DIMINSPECT
 70
     0
  0
APPID
  5
2FA
330
14
100
AcDbSymbolTableRecord
100
AcDbRegAppTableRecord
  2
GENIUS_GENDIMSH_14
 70
     0
  0
APPID
  5
2FB
330
14
100
AcDbSymbolTableRecord
100
AcDbRegAppTableRecord
  2
GENIUS_GENOBJ-N-HTC_13
 70
     0
  0
APPID
  5
2FC
330
14
100
AcDbSymbolTableRecord
100
AcDbRegAppTableRecord
  2
GENIUS_GENHATCH_13
 70
     0
  0
APPID
  5
2FD
330
14
100
AcDbSymbolTableRecord
100
AcDbRegAppTableRecord
  2
ACAUTHENVIRON
 70
     0
  0
APPID
  5
2FE
330
14
100
AcDbSymbolTableRecord
100
AcDbRegAppTableRecord
  2
AcDbDynamicBlockTrueName
 70
     0
  0
APPID
  5
2FF
330
14
100
AcDbSymbolTableRecord
100
AcDbRegAppTableRecord
  2
AcDbDynamicBlockGUID
 70
     0
  0
APPID
  5
300
330
14
100
AcDbSymbolTableRecord
100
AcDbRegAppTableRecord
  2
ACDBBLOCKREPETAG
 70
     0
  0
ENDTAB
  0
TABLE
  2
DIMSTYLE
  5
16
330
0
100
AcDbSymbolTable
 70
    24
100
AcDbDimStyleTable
 71
     2
340
355
340
2BD
  0
DIMSTYLE
105
1E
330
16
100
AcDbSymbolTableRecord
100
AcDbDimStyleTableRecord
  2
STANDARD
 70
     0
340
C
  0
DIMSTYLE
105
2BD
330
16
100
AcDbSymbolTableRecord
100
AcDbDimStyleTableRecord
  2
AM_ANSI
 70
     0
  4
mm
 40
20.0
 41
0.1
 42
0.05
 43
0.5
 44
0.1
 47
0.1
 48
0.1
 78
     7
 79
     2
140
0.12
141
0.0
146
0.71
147
0.06
176
   256
177
   256
178
     2
274
     4
284
     7
340
C
371
    -1
372
    -1
1001
ACAD_DSTYLE_DIMARC_LENGTH_SYMBOL
1070
   379
1070
     1
  0
DIMSTYLE
105
2BE
330
16
100
AcDbSymbolTableRecord
100
AcDbDimStyleTableRecord
  2
AM_ANSI$3
 70
     0
  4
mm
 40
20.0
 41
0.1
 42
0.05
 43
0.5
 44
0.1
 47
0.1
 48
0.1
 78
     7
 79
     2
140
0.12
141
0.0
146
0.71
147
0.06
176
   256
177
   256
178
     2
274
     4
284
     7
288
     1
289
     0
340
C
371
    -1
372
    -1
1001
ACAD_DSTYLE_DIMARC_LENGTH_SYMBOL
1070
   379
1070
     1
  0
DIMSTYLE
105
2BF
330
16
100
AcDbSymbolTableRecord
100
AcDbDimStyleTableRecord
  2
AM_ANSI$4
 70
     0
  4
mm
 40
20.0
 41
0.1
 42
0.05
 43
0.5
 44
0.1
 47
0.1
 48
0.1
 78
     7
 79
     2
140
0.12
141
0.0
146
0.71
147
0.06
176
   256
177
   256
178
     2
274
     4
284
     7
288
     1
289
     0
340
C
371
    -1
372
    -1
1001
ACAD_DSTYLE_DIMARC_LENGTH_SYMBOL
1070
   379
1070
     1
  0
DIMSTYLE
105
2C0
330
16
100
AcDbSymbolTableRecord
100
AcDbDimStyleTableRecord
  2
AM_ANSI$7
 70
     0
  4
mm
 40
20.0
 41
0.1
 42
0.05
 43
0.5
 44
0.1
 47
0.1
 48
0.1
 78
     7
 79
     2
140
0.24
141
0.0
146
0.71
147
0.06
176
   256
177
   256
178
     2
274
     4
284
     7
340
C
371
    -1
372
    -1
1001
ACAD_DSTYLE_DIMARC_LENGTH_SYMBOL
1070
   379
1070
     1
  0
DIMSTYLE
105
2C1
330
16
100
AcDbSymbolTableRecord
100
AcDbDimStyleTableRecord
  2
AM_ANSI$SF
 70
     0
  4
mm
 40
20.0
 41
0.1
 42
0.05
 43
0.5
 44
0.1
 47
0.1
 48
0.1
 75
     1
 76
     1
 78
     7
 79
     2
140
0.12
141
0.0
146
0.71
147
0.06
176
   256
177
   256
178
     2
274
     4
284
     7
340
C
371
    -1
372
    -1
1001
ACAD_DSTYLE_DIMARC_LENGTH_SYMBOL
1070
   379
1070
     1
  0
DIMSTYLE
105
2C6
330
16
100
AcDbSymbolTableRecord
100
AcDbDimStyleTableRecord
  2
AM_ANSI$SH
 70
     0
  4
mm
 40
20.0
 41
0.1
 42
0.05
 43
0.5
 44
0.1
 47
0.1
 48
0.1
 75
     1
 76
     1
 78
     7
 79
     2
140
0.12
141
0.0
146
0.71
147
0.06
173
     1
176
   256
177
   256
178
     2
274
     4
284
     7
340
C
343
2C2
371
    -1
372
    -1
1001
ACAD_DSTYLE_DIMARC_LENGTH_SYMBOL
1070
   379
1070
     1
  0
DIMSTYLE
105
355
102
{ACAD_REACTORS
330
336
102
}
330
16
100
AcDbSymbolTableRecord
100
AcDbDimStyleTableRecord
  2
AM_DIN
 70
     0
  4
"
 41
5.0
 42
1.0
 43
10.0
 44
1.0
 47
0.1
 48
0.1
 73
     0
 74
     0
 77
     1
 78
     8
 79
     2
140
5.0
141
0.0
143
0.0393701
146
0.71
147
1.5
172
     1
176
   256
177
   256
178
     2
271
     2
272
     2
283
     0
284
     8
340
C
371
    -1
372
    -1
1001
ACAD_DSTYLE_DIMJOGGED_JOGANGLE_SYMBOL
1070
   384
1040
1.570796326794896
  0
DIMSTYLE
105
356
102
{ACAD_REACTORS
330
3DD
330
3FF
330
420
330
453
330
474
330
495
330
4B6
330
54D
330
5A0
330
5C7
330
5EE
102
}
330
16
100
AcDbSymbolTableRecord
100
AcDbDimStyleTableRecord
  2
AM_DIN$0
 70
     0
  4
"
 41
4.0
 42
0.0
 43
10.0
 44
1.0
 47
0.1
 48
0.1
 73
     0
 74
     0
 77
     1
 78
     8
 79
     2
140
3.5
141
0.0
143
0.0393701
146
0.71
147
1.5
172
     1
176
   256
177
   256
178
     2
271
     2
272
     2
283
     0
284
     8
340
C
371
    -1
372
    -1
1001
ACAD_DSTYLE_DIMJOGGED_JOGANGLE_SYMBOL
1070
   384
1040
1.570796326794896
  0
DIMSTYLE
105
357
330
16
100
AcDbSymbolTableRecord
100
AcDbDimStyleTableRecord
  2
AM_DIN$2
 70
     0
  4
"
 41
4.0
 42
0.0
 43
10.0
 44
1.0
 47
0.1
 48
0.1
 73
     0
 74
     0
 77
     1
 78
     8
 79
     2
140
3.5
141
0.0
143
0.0393701
146
0.71
147
1.5
172
     1
176
   256
177
   256
178
     2
271
     2
272
     2
283
     0
284
     8
340
C
371
    -1
372
    -1
1001
ACAD_DSTYLE_DIMJOGGED_JOGANGLE_SYMBOL
1070
   384
1040
1.570796326794896
  0
DIMSTYLE
105
358
330
16
100
AcDbSymbolTableRecord
100
AcDbDimStyleTableRecord
  2
AM_DIN$3
 70
     0
  4
"
 41
3.5
 42
1.0
 43
10.0
 44
1.0
 47
0.1
 48
0.1
 73
     0
 77
     1
 78
     8
 79
     2
140
3.5
141
0.0
143
0.0393701
146
0.71
147
1.5
176
   256
177
   256
178
     2
271
     2
272
     2
283
     0
284
     8
288
     1
289
     0
340
C
371
    -1
372
    -1
1001
ACAD_DSTYLE_DIMJOGGED_JOGANGLE_SYMBOL
1070
   384
1040
1.570796326794896
  0
DIMSTYLE
105
359
330
16
100
AcDbSymbolTableRecord
100
AcDbDimStyleTableRecord
  2
AM_DIN$4
 70
     0
  4
"
 41
4.0
 42
1.0
 43
10.0
 44
1.0
 47
0.1
 48
0.1
 73
     0
 77
     1
 78
     8
 79
     2
140
3.5
141
0.0
143
0.0393701
146
0.71
147
1.5
176
   256
177
   256
178
     2
271
     2
272
     2
283
     0
284
     8
288
     1
289
     0
340
C
371
    -1
372
    -1
1001
ACAD_DSTYLE_DIMJOGGED_JOGANGLE_SYMBOL
1070
   384
1040
1.570796326794896
  0
DIMSTYLE
105
35A
330
16
100
AcDbSymbolTableRecord
100
AcDbDimStyleTableRecord
  2
AM_DIN$6
 70
     0
  4
"
 41
4.0
 42
0.0
 43
10.0
 44
1.0
 47
0.1
 48
0.1
 73
     0
 74
     0
 78
     8
 79
     2
140
3.5
141
0.0
143
0.0393701
146
0.71
147
1.5
172
     1
176
   256
177
   256
178
     2
271
     2
272
     2
283
     0
284
     8
340
C
371
    -1
372
    -1
1001
ACAD_DSTYLE_DIMJOGGED_JOGANGLE_SYMBOL
1070
   384
1040
1.570796326794896
  0
DIMSTYLE
105
35B
330
16
100
AcDbSymbolTableRecord
100
AcDbDimStyleTableRecord
  2
AM_DIN$7
 70
     0
  4
"
 41
5.0
 42
1.0
 43
10.0
 44
1.0
 47
0.1
 48
0.1
 73
     0
 74
     0
 77
     1
 78
     8
 79
     2
140
5.0
141
0.0
143
0.0393701
146
0.71
147
1.5
172
     1
176
   256
177
   256
178
     2
271
     2
272
     2
283
     0
284
     8
340
C
371
    -1
372
    -1
1001
ACAD_DSTYLE_DIMJOGGED_JOGANGLE_SYMBOL
1070
   384
1040
1.570796326794896
  0
DIMSTYLE
105
35C
330
16
100
AcDbSymbolTableRecord
100
AcDbDimStyleTableRecord
  2
AM_DIN$SF
 70
     0
  4
"
 41
4.0
 42
1.0
 43
10.0
 44
1.0
 47
0.1
 48
0.1
 73
     0
 74
     0
 75
     1
 76
     1
 77
     1
 78
     8
 79
     2
140
3.5
141
0.0
143
0.0393701
146
0.71
147
1.5
172
     1
176
   256
177
   256
178
     2
271
     2
272
     2
283
     0
284
     8
340
C
371
    -1
372
    -1
1001
ACAD_DSTYLE_DIMJOGGED_JOGANGLE_SYMBOL
1070
   384
1040
1.570796326794896
  0
DIMSTYLE
105
35D
330
16
100
AcDbSymbolTableRecord
100
AcDbDimStyleTableRecord
  2
AM_DIN$SH
 70
     0
  4
"
 41
4.0
 42
1.0
 43
10.0
 44
1.0
 47
0.1
 48
0.1
 73
     0
 74
     0
 75
     1
 76
     1
 77
     1
 78
     8
 79
     2
140
3.5
141
0.0
143
0.0393701
144
2.0
146
0.71
147
1.5
172
     1
173
     1
176
   256
177
   256
178
     2
271
     2
272
     2
283
     0
284
     8
340
C
343
2C2
371
    -1
372
    -1
1001
ACAD_DSTYLE_DIMJOGGED_JOGANGLE_SYMBOL
1070
   384
1040
1.570796326794896
  0
DIMSTYLE
105
379
330
16
100
AcDbSymbolTableRecord
100
AcDbDimStyleTableRecord
  2
AM_ISO
 70
     0
  4
"
 41
2.5
 42
1.0
 43
10.0
 44
1.0
 47
0.1
 48
0.1
 73
     0
 74
     0
 77
     1
 78
     8
 79
     2
140
3.5
141
0.0
143
0.0393701
146
0.71
147
1.5
172
     1
176
   256
177
   256
178
     2
271
     2
272
     3
274
     4
283
     0
284
     8
340
C
371
    -1
372
    -1
1001
ACAD_DSTYLE_DIMJOGGED_JOGANGLE_SYMBOL
1070
   384
1040
0.7853981633974483
1001
ACAD_DSTYLE_DIMARC_LENGTH_SYMBOL
1070
   379
1070
     1
  0
DIMSTYLE
105
37A
330
16
100
AcDbSymbolTableRecord
100
AcDbDimStyleTableRecord
  2
AM_ISO$3
 70
     0
  4
"
 41
2.5
 42
1.0
 43
10.0
 44
1.0
 47
0.1
 48
0.1
 73
     0
 77
     1
 78
     8
 79
     2
140
3.5
141
0.0
143
0.0393701
146
0.71
147
1.5
176
   256
177
   256
178
     2
271
     2
272
     3
274
     4
283
     0
284
     8
288
     1
289
     0
340
C
371
    -1
372
    -1
1001
ACAD_DSTYLE_DIMJOGGED_JOGANGLE_SYMBOL
1070
   384
1040
0.7853981633974483
1001
ACAD_DSTYLE_DIMARC_LENGTH_SYMBOL
1070
   379
1070
     1
  0
DIMSTYLE
105
37B
330
16
100
AcDbSymbolTableRecord
100
AcDbDimStyleTableRecord
  2
AM_ISO$4
 70
     0
  4
"
 41
2.5
 42
1.0
 43
10.0
 44
1.0
 47
0.1
 48
0.1
 73
     0
 77
     1
 78
     8
 79
     2
140
3.5
141
0.0
143
0.0393701
146
0.71
147
1.5
176
   256
177
   256
178
     2
271
     2
272
     3
274
     4
283
     0
284
     8
288
     1
289
     0
340
C
371
    -1
372
    -1
1001
ACAD_DSTYLE_DIMJOGGED_JOGANGLE_SYMBOL
1070
   384
1040
0.7853981633974483
1001
ACAD_DSTYLE_DIMARC_LENGTH_SYMBOL
1070
   379
1070
     1
  0
DIMSTYLE
105
37C
330
16
100
AcDbSymbolTableRecord
100
AcDbDimStyleTableRecord
  2
AM_ISO$6
 70
     0
  4
"
 41
2.5
 42
1.0
 43
10.0
 44
1.0
 47
0.1
 48
0.1
 73
     0
 74
     0
 78
     8
 79
     2
140
3.5
141
0.0
143
0.0393701
146
0.71
147
1.5
172
     1
176
   256
177
   256
178
     2
271
     2
272
     3
274
     4
283
     0
284
     8
340
C
371
    -1
372
    -1
1001
ACAD_DSTYLE_DIMJOGGED_JOGANGLE_SYMBOL
1070
   384
1040
0.7853981633974483
1001
ACAD_DSTYLE_DIMARC_LENGTH_SYMBOL
1070
   379
1070
     1
  0
DIMSTYLE
105
37D
330
16
100
AcDbSymbolTableRecord
100
AcDbDimStyleTableRecord
  2
AM_ISO$7
 70
     0
  4
"
 41
2.5
 42
1.0
 43
10.0
 44
1.0
 47
0.1
 48
0.1
 73
     0
 74
     0
 77
     1
 78
     8
 79
     2
140
5.0
141
0.0
143
0.0393701
146
0.71
147
1.5
172
     1
176
   256
177
   256
178
     2
271
     2
272
     3
274
     4
283
     0
284
     8
340
C
371
    -1
372
    -1
1001
ACAD_DSTYLE_DIMJOGGED_JOGANGLE_SYMBOL
1070
   384
1040
0.7853981633974483
1001
ACAD_DSTYLE_DIMARC_LENGTH_SYMBOL
1070
   379
1070
     1
  0
DIMSTYLE
105
37E
330
16
100
AcDbSymbolTableRecord
100
AcDbDimStyleTableRecord
  2
AM_ISO$SF
 70
     0
  4
"
 41
2.5
 42
1.0
 43
10.0
 44
1.0
 47
0.1
 48
0.1
 73
     0
 74
     0
 75
     1
 76
     1
 77
     1
 78
     8
 79
     2
140
3.5
141
0.0
143
0.0393701
146
0.71
147
1.5
172
     1
176
   256
177
   256
178
     2
271
     2
272
     3
274
     4
283
     0
284
     8
340
C
371
    -1
372
    -1
1001
ACAD_DSTYLE_DIMJOGGED_JOGANGLE_SYMBOL
1070
   384
1040
0.7853981633974483
1001
ACAD_DSTYLE_DIMARC_LENGTH_SYMBOL
1070
   379
1070
     1
  0
DIMSTYLE
105
37F
330
16
100
AcDbSymbolTableRecord
100
AcDbDimStyleTableRecord
  2
AM_ISO$SH
 70
     0
  4
"
 41
2.5
 42
1.0
 43
10.0
 44
1.0
 47
0.1
 48
0.1
 73
     0
 74
     0
 75
     1
 76
     1
 77
     1
 78
     8
 79
     2
140
3.5
141
0.0
143
0.0393701
144
2.0
146
0.71
147
1.5
172
     1
173
     1
176
   256
177
   256
178
     2
271
     2
272
     3
274
     4
283
     0
284
     8
340
C
343
2C2
371
    -1
372
    -1
1001
ACAD_DSTYLE_DIMJOGGED_JOGANGLE_SYMBOL
1070
   384
1040
0.7853981633974483
1001
ACAD_DSTYLE_DIMARC_LENGTH_SYMBOL
1070
   379
1070
     1
  0
ENDTAB
  0
TABLE
  2
BLOCK_RECORD
  5
1
330
0
100
AcDbSymbolTable
 70
    31
  0
BLOCK_RECORD
  5
2
102
{ACAD_XDICTIONARY
360
17E
102
}
330
1
100
AcDbSymbolTableRecord
100
AcDbBlockTableRecord
  2
*MODEL_SPACE
340
196
  0
BLOCK_RECORD
  5
7
102
{ACAD_XDICTIONARY
360
180
102
}
330
1
100
AcDbSymbolTableRecord
100
AcDbBlockTableRecord
  2
*PAPER_SPACE
340
197
  0
BLOCK_RECORD
  5
2C2
330
1
100
AcDbSymbolTableRecord
100
AcDbBlockTableRecord
  2
GENAXEH
340
0
310
2800000020000000200000000100080000000000000400000000000000000000000000000000000000000000000080000080000000808000800000008000800080800000C0C0C000C0DCC000F0CAA6000020400000206000002080000020A0000020C0000020E00000400000004020000040400000406000004080000040A0
310
000040C0000040E00000600000006020000060400000606000006080000060A0000060C0000060E00000800000008020000080400000806000008080000080A0000080C0000080E00000A0000000A0200000A0400000A0600000A0800000A0A00000A0C00000A0E00000C0000000C0200000C0400000C0600000C0800000C0
310
A00000C0C00000C0E00000E0000000E0200000E0400000E0600000E0800000E0A00000E0C00000E0E00040000000400020004000400040006000400080004000A0004000C0004000E00040200000402020004020400040206000402080004020A0004020C0004020E000404000004040200040404000404060004040800040
310
40A0004040C0004040E00040600000406020004060400040606000406080004060A0004060C0004060E00040800000408020004080400040806000408080004080A0004080C0004080E00040A0000040A0200040A0400040A0600040A0800040A0A00040A0C00040A0E00040C0000040C0200040C0400040C0600040C08000
310
40C0A00040C0C00040C0E00040E0000040E0200040E0400040E0600040E0800040E0A00040E0C00040E0E00080000000800020008000400080006000800080008000A0008000C0008000E00080200000802020008020400080206000802080008020A0008020C0008020E00080400000804020008040400080406000804080
310
008040A0008040C0008040E00080600000806020008060400080606000806080008060A0008060C0008060E00080800000808020008080400080806000808080008080A0008080C0008080E00080A0000080A0200080A0400080A0600080A0800080A0A00080A0C00080A0E00080C0000080C0200080C0400080C0600080C0
310
800080C0A00080C0C00080C0E00080E0000080E0200080E0400080E0600080E0800080E0A00080E0C00080E0E000C0000000C0002000C0004000C0006000C0008000C000A000C000C000C000E000C0200000C0202000C0204000C0206000C0208000C020A000C020C000C020E000C0400000C0402000C0404000C0406000C0
310
408000C040A000C040C000C040E000C0600000C0602000C0604000C0606000C0608000C060A000C060C000C060E000C0800000C0802000C0804000C0806000C0808000C080A000C080C000C080E000C0A00000C0A02000C0A04000C0A06000C0A08000C0A0A000C0A0C000C0A0E000C0C00000C0C02000C0C04000C0C06000
310
C0C08000C0C0A000F0FBFF00A4A0A000808080000000FF0000FF000000FFFF00FF000000FF00FF00FFFF0000FFFFFF0000000000000000000000000000000000000000000000000000000000000000000000000000000000000000000000000000000000000000000000000000000000000000000000000000000000000000
310
00000000000000000000000000000000000000000000000000000000000000000000000000000000000000000000000000000000000000000000000000000000000000000000000000000000000000000000000000000000000000000000000000000000000000000000000000000000000000000000000000000000000000
310
00000000000000000000000000000000000000000000000000000000000000000000000000000000000000000000000000000000000000000000000000000000000000000000000000000000000000000000000000000000000000000000000000000000000000000000000000000000000000000000000000000000000000
310
00000000000000000000000000000000000000000000000000000000000000000000000000000000000000000000000000000000000000000000000000000000000000000000000000000000000000000000000000000000000000000000000000000000000000000000000000000000000000000000000000000000000000
310
0000000000000000000000000000000000000000000000000000000000000000000000000000000000000000000000000000000000FFFFFFFFFFFFFFFFFFFFFFFFFFFFFFFFFFFFFFFFFFFFFFFFFFFFFFFFFFFF0000000000000000000000000000000000000000000000000000000000000000000000000000000000000000
310
00000000000000000000000000000000000000000000000000000000000000000000000000000000000000000000000000000000000000000000000000000000000000000000000000000000000000000000000000000000000000000000000000000000000000000000000000000000000000000000000000000000000000
310
00000000000000000000000000000000000000000000000000000000000000000000000000000000000000000000000000000000000000000000000000000000000000000000000000000000000000000000000000000000000000000000000000000000000000000000000000000000000000000000000000000000000000
310
00000000000000000000000000000000000000000000000000000000000000000000000000000000000000000000000000000000000000000000000000000000000000000000000000000000000000000000000000000000000000000000000000000000000000000000000000000000000000000000000000000000000000
310
0000000000000000000000000000000000000000000000000000000000000000000000000000000000000000000000000000000000000000
  0
BLOCK_RECORD
  5
3DF
330
1
100
AcDbSymbolTableRecord
100
AcDbBlockTableRecord
  2
*D4
340
0
  0
BLOCK_RECORD
  5
400
330
1
100
AcDbSymbolTableRecord
100
AcDbBlockTableRecord
  2
*D5
340
0
  0
BLOCK_RECORD
  5
421
330
1
100
AcDbSymbolTableRecord
100
AcDbBlockTableRecord
  2
*D6
340
0
  0
BLOCK_RECORD
  5
454
330
1
100
AcDbSymbolTableRecord
100
AcDbBlockTableRecord
  2
*D7
340
0
  0
BLOCK_RECORD
  5
475
330
1
100
AcDbSymbolTableRecord
100
AcDbBlockTableRecord
  2
*D8
340
0
  0
BLOCK_RECORD
  5
496
330
1
100
AcDbSymbolTableRecord
100
AcDbBlockTableRecord
  2
*D9
340
0
  0
BLOCK_RECORD
  5
4B7
330
1
100
AcDbSymbolTableRecord
100
AcDbBlockTableRecord
  2
*D10
340
0
  0
BLOCK_RECORD
  5
54E
330
1
100
AcDbSymbolTableRecord
100
AcDbBlockTableRecord
  2
*D13
340
0
  0
BLOCK_RECORD
  5
5A1
330
1
100
AcDbSymbolTableRecord
100
AcDbBlockTableRecord
  2
*D14
340
0
  0
BLOCK_RECORD
  5
5C8
330
1
100
AcDbSymbolTableRecord
100
AcDbBlockTableRecord
  2
*D15
340
0
  0
BLOCK_RECORD
  5
5EF
330
1
100
AcDbSymbolTableRecord
100
AcDbBlockTableRecord
  2
*D16
340
0
  0
ENDTAB
  0
ENDSEC
  0
SECTION
  2
BLOCKS
  0
BLOCK
  5
3
330
2
100
AcDbEntity
  8
0
100
AcDbBlockBegin
  2
*MODEL_SPACE
 70
     0
 10
0.0
 20
0.0
 30
0.0
  3
*MODEL_SPACE
  1

  0
ENDBLK
  5
6
330
2
100
AcDbEntity
  8
0
100
AcDbBlockEnd
  0
BLOCK
  5
8
330
7
100
AcDbEntity
 67
     1
  8
0
100
AcDbBlockBegin
  2
*PAPER_SPACE
 70
     0
 10
0.0
 20
0.0
 30
0.0
  3
*PAPER_SPACE
  1

  0
ENDBLK
  5
9
330
7
100
AcDbEntity
 67
     1
  8
0
100
AcDbBlockEnd
  0
BLOCK
  5
331
330
2C2
100
AcDbEntity
  8
0
100
AcDbBlockBegin
  2
GENAXEH
 70
     0
 10
0.0
 20
0.0
 30
0.0
  3
GENAXEH
  1

  0
LINE
  5
332
330
2C2
100
AcDbEntity
  8
0
100
AcDbLine
 10
-1.0
 20
0.0
 30
0.0
 11
1.0
 21
0.0
 31
0.0
  0
ENDBLK
  5
333
330
2C2
100
AcDbEntity
  8
0
100
AcDbBlockEnd
  0
BLOCK
  5
3E0
330
3DF
100
AcDbEntity
  8
0
100
AcDbBlockBegin
  2
*D4
 70
     1
 10
0.0
 20
0.0
 30
0.0
  3
*D4
  1

  0
LINE
  5
441
330
3DF
100
AcDbEntity
  8
AM_5 ( Bemassung)
100
AcDbLine
 10
139.9900757248636
 20
242.2210398005062
 30
0.0
 11
139.9900757248636
 21
296.7541931733279
 31
0.0
  0
LINE
  5
442
330
3DF
100
AcDbEntity
  8
AM_5 ( Bemassung)
100
AcDbLine
 10
59.99007572486354
 20
242.2210398005062
 30
0.0
 11
59.99007572486354
 21
296.7541931733279
 31
0.0
  0
LINE
  5
443
330
3DF
100
AcDbEntity
  8
AM_5 ( Bemassung)
100
AcDbLine
 10
135.9900757248636
 20
295.754193173328
 30
0.0
 11
63.99007572486354
 21
295.754193173328
 31
0.0
  0
SOLID
  5
444
330
3DF
100
AcDbEntity
  8
AM_5 ( Bemassung)
100
AcDbTrace
 10
135.9900757248636
 20
296.4208598399947
 30
0.0
 11
135.9900757248636
 21
295.0875265066613
 31
0.0
 12
139.9900757248636
 22
295.754193173328
 32
0.0
 13
139.9900757248636
 23
295.754193173328
 33
0.0
  0
SOLID
  5
445
330
3DF
100
AcDbEntity
  8
AM_5 ( Bemassung)
100
AcDbTrace
 10
63.99007572486354
 20
296.4208598399947
 30
0.0
 11
63.99007572486354
 21
295.0875265066613
 31
0.0
 12
59.99007572486354
 22
295.754193173328
 32
0.0
 13
59.99007572486354
 23
295.754193173328
 33
0.0
  0
MTEXT
  5
446
330
3DF
100
AcDbEntity
  8
AM_5 ( Bemassung)
 62
     2
100
AcDbMText
 10
99.99007572486357
 20
299.0411986303539
 30
0.0
 40
3.5
 41
0.0
 71
     5
 72
     1
  1
80
 73
     1
 44
1.0
  0
POINT
  5
447
330
3DF
100
AcDbEntity
  8
Defpoints
 62
     0
100
AcDbPoint
 10
139.9900757248636
 20
242.2210398005062
 30
0.0
  0
POINT
  5
448
330
3DF
100
AcDbEntity
  8
Defpoints
 62
     0
100
AcDbPoint
 10
59.99007572486354
 20
242.2210398005062
 30
0.0
  0
POINT
  5
449
330
3DF
100
AcDbEntity
  8
Defpoints
 62
     0
100
AcDbPoint
 10
59.99007572486354
 20
295.754193173328
 30
0.0
  0
ENDBLK
  5
3E1
330
3DF
100
AcDbEntity
  8
0
100
AcDbBlockEnd
  0
BLOCK
  5
401
330
400
100
AcDbEntity
  8
0
100
AcDbBlockBegin
  2
*D5
 70
     1
 10
0.0
 20
0.0
 30
0.0
  3
*D5
  1

  0
LINE
  5
44A
330
400
100
AcDbEntity
  8
AM_5 ( Bemassung)
100
AcDbLine
 10
70.99007572486354
 20
230.2210398005065
 30
0.0
 11
70.99007572486354
 21
284.5561675420564
 31
0.0
  0
LINE
  5
44B
330
400
100
AcDbEntity
  8
AM_5 ( Bemassung)
100
AcDbLine
 10
128.9900757248636
 20
230.2210398005065
 30
0.0
 11
128.9900757248636
 21
284.5561675420564
 31
0.0
  0
LINE
  5
44C
330
400
100
AcDbEntity
  8
AM_5 ( Bemassung)
100
AcDbLine
 10
74.99007572486354
 20
283.5561675420564
 30
0.0
 11
124.9900757248636
 21
283.5561675420564
 31
0.0
  0
SOLID
  5
44D
330
400
100
AcDbEntity
  8
AM_5 ( Bemassung)
100
AcDbTrace
 10
74.99007572486354
 20
284.2228342087231
 30
0.0
 11
74.99007572486354
 21
282.8895008753897
 31
0.0
 12
70.99007572486354
 22
283.5561675420564
 32
0.0
 13
70.99007572486354
 23
283.5561675420564
 33
0.0
  0
SOLID
  5
44E
330
400
100
AcDbEntity
  8
AM_5 ( Bemassung)
100
AcDbTrace
 10
124.9900757248636
 20
284.2228342087231
 30
0.0
 11
124.9900757248636
 21
282.8895008753897
 31
0.0
 12
128.9900757248636
 22
283.5561675420564
 32
0.0
 13
128.9900757248636
 23
283.5561675420564
 33
0.0
  0
MTEXT
  5
44F
330
400
100
AcDbEntity
  8
AM_5 ( Bemassung)
 62
     2
100
AcDbMText
 10
99.99007572486357
 20
286.8431729990824
 30
0.0
 40
3.5
 41
0.0
 71
     5
 72
     1
  1
58
 73
     1
 44
1.0
  0
POINT
  5
450
330
400
100
AcDbEntity
  8
Defpoints
 62
     0
100
AcDbPoint
 10
70.99007572486354
 20
230.2210398005065
 30
0.0
  0
POINT
  5
451
330
400
100
AcDbEntity
  8
Defpoints
 62
     0
100
AcDbPoint
 10
128.9900757248636
 20
230.2210398005065
 30
0.0
  0
POINT
  5
452
330
400
100
AcDbEntity
  8
Defpoints
 62
     0
100
AcDbPoint
 10
128.9900757248636
 20
283.5561675420564
 30
0.0
  0
ENDBLK
  5
402
330
400
100
AcDbEntity
  8
0
100
AcDbBlockEnd
  0
BLOCK
  5
422
330
421
100
AcDbEntity
  8
0
100
AcDbBlockBegin
  2
*D6
 70
     1
 10
0.0
 20
0.0
 30
0.0
  3
*D6
  1

  0
LINE
  5
622
330
421
100
AcDbEntity
  8
AM_5 ( Bemassung)
100
AcDbLine
 10
78.79007572486355
 20
254.7210398005062
 30
0.0
 11
78.79007572486355
 21
268.2210408005062
 31
0.0
  0
LINE
  5
623
330
421
100
AcDbEntity
  8
AM_5 ( Bemassung)
100
AcDbLine
 10
121.1900757248634
 20
254.7210398005062
 30
0.0
 11
121.1900757248634
 21
268.2210408005062
 31
0.0
  0
LINE
  5
624
330
421
100
AcDbEntity
  8
AM_5 ( Bemassung)
100
AcDbLine
 10
82.79007572486355
 20
267.2210408005062
 30
0.0
 11
117.1900757248634
 21
267.2210408005062
 31
0.0
  0
SOLID
  5
625
330
421
100
AcDbEntity
  8
AM_5 ( Bemassung)
100
AcDbTrace
 10
82.79007572486355
 20
267.8877074671729
 30
0.0
 11
82.79007572486355
 21
266.5543741338395
 31
0.0
 12
78.79007572486355
 22
267.2210408005062
 32
0.0
 13
78.79007572486355
 23
267.2210408005062
 33
0.0
  0
SOLID
  5
626
330
421
100
AcDbEntity
  8
AM_5 ( Bemassung)
100
AcDbTrace
 10
117.1900757248634
 20
267.8877074671729
 30
0.0
 11
117.1900757248634
 21
266.5543741338395
 31
0.0
 12
121.1900757248634
 22
267.2210408005062
 32
0.0
 13
121.1900757248634
 23
267.2210408005062
 33
0.0
  0
MTEXT
  5
627
330
421
100
AcDbEntity
  8
AM_5 ( Bemassung)
 62
     2
100
AcDbMText
 10
99.99007572486348
 20
270.6059316599878
 30
0.0
 40
3.5
 41
0.0
 71
     5
 72
     1
  1
%%c 42.4
 73
     1
 44
1.0
  0
POINT
  5
628
330
421
100
AcDbEntity
  8
Defpoints
 62
     0
100
AcDbPoint
 10
78.79007572486355
 20
254.7210398005062
 30
0.0
  0
POINT
  5
629
330
421
100
AcDbEntity
  8
Defpoints
 62
     0
100
AcDbPoint
 10
121.1900757248634
 20
254.7210398005062
 30
0.0
  0
POINT
  5
62A
330
421
100
AcDbEntity
  8
Defpoints
 62
     0
100
AcDbPoint
 10
121.1900757248634
 20
267.2210408005062
 30
0.0
  0
ENDBLK
  5
423
330
421
100
AcDbEntity
  8
0
100
AcDbBlockEnd
  0
BLOCK
  5
455
330
454
100
AcDbEntity
  8
0
100
AcDbBlockBegin
  2
*D7
 70
     1
 10
0.0
 20
0.0
 30
0.0
  3
*D7
  1

  0
LINE
  5
62B
330
454
100
AcDbEntity
  8
AM_5 ( Bemassung)
100
AcDbLine
 10
79.29007572486355
 20
255.2210398005062
 30
0.0
 11
14.48269844956728
 21
255.2210398005063
 31
0.0
  0
LINE
  5
62C
330
454
100
AcDbEntity
  8
AM_5 ( Bemassung)
100
AcDbLine
 10
79.49007572486355
 20
140.7210398005064
 30
0.0
 11
14.48269844956725
 21
140.7210398005064
 31
0.0
  0
LINE
  5
62D
330
454
100
AcDbEntity
  8
AM_5 ( Bemassung)
100
AcDbLine
 10
15.48269844956728
 20
251.2210398005063
 30
0.0
 11
15.48269844956726
 21
144.7210398005064
 31
0.0
  0
SOLID
  5
62E
330
454
100
AcDbEntity
  8
AM_5 ( Bemassung)
100
AcDbTrace
 10
14.81603178290061
 20
251.2210398005063
 30
0.0
 11
16.14936511623395
 21
251.2210398005063
 31
0.0
 12
15.48269844956728
 22
255.2210398005063
 32
0.0
 13
15.48269844956728
 23
255.2210398005063
 33
0.0
  0
SOLID
  5
62F
330
454
100
AcDbEntity
  8
AM_5 ( Bemassung)
100
AcDbTrace
 10
14.81603178290059
 20
144.7210398005064
 30
0.0
 11
16.14936511623392
 21
144.7210398005064
 31
0.0
 12
15.48269844956726
 22
140.7210398005064
 32
0.0
 13
15.48269844956726
 23
140.7210398005064
 33
0.0
  0
MTEXT
  5
630
330
454
100
AcDbEntity
  8
AM_5 ( Bemassung)
 62
     2
100
AcDbMText
 10
12.19569299254131
 20
195.8395740535953
 30
0.0
 40
3.5
 41
0.0
 71
     5
 72
     1
  1
114.5
 11
0.0000000000000001
 21
1.0
 31
0.0
 73
     1
 44
1.0
  0
POINT
  5
631
330
454
100
AcDbEntity
  8
Defpoints
 62
     0
100
AcDbPoint
 10
79.29007572486355
 20
255.2210398005062
 30
0.0
  0
POINT
  5
632
330
454
100
AcDbEntity
  8
Defpoints
 62
     0
100
AcDbPoint
 10
79.49007572486355
 20
140.7210398005064
 30
0.0
  0
POINT
  5
633
330
454
100
AcDbEntity
  8
Defpoints
 62
     0
100
AcDbPoint
 10
15.48269844956726
 20
140.7210398005064
 30
0.0
  0
ENDBLK
  5
456
330
454
100
AcDbEntity
  8
0
100
AcDbBlockEnd
  0
BLOCK
  5
476
330
475
100
AcDbEntity
  8
0
100
AcDbBlockBegin
  2
*D8
 70
     1
 10
0.0
 20
0.0
 30
0.0
  3
*D8
  1

  0
LINE
  5
48C
330
475
100
AcDbEntity
  8
AM_5 ( Bemassung)
100
AcDbLine
 10
70.99007572486354
 20
230.2210398005065
 30
0.0
 11
25.31523986035257
 21
230.2210398005065
 31
0.0
  0
LINE
  5
48D
330
475
100
AcDbEntity
  8
AM_5 ( Bemassung)
100
AcDbLine
 10
70.99007572486354
 20
170.2210398005064
 30
0.0
 11
25.31523986035256
 21
170.2210398005065
 31
0.0
  0
LINE
  5
48E
330
475
100
AcDbEntity
  8
AM_5 ( Bemassung)
100
AcDbLine
 10
26.31523986035257
 20
226.2210398005065
 30
0.0
 11
26.31523986035257
 21
174.2210398005065
 31
0.0
  0
SOLID
  5
48F
330
475
100
AcDbEntity
  8
AM_5 ( Bemassung)
100
AcDbTrace
 10
25.64857319368591
 20
226.2210398005065
 30
0.0
 11
26.98190652701924
 21
226.2210398005065
 31
0.0
 12
26.31523986035257
 22
230.2210398005065
 32
0.0
 13
26.31523986035257
 23
230.2210398005065
 33
0.0
  0
SOLID
  5
490
330
475
100
AcDbEntity
  8
AM_5 ( Bemassung)
100
AcDbTrace
 10
25.6485731936859
 20
174.2210398005065
 30
0.0
 11
26.98190652701923
 21
174.2210398005065
 31
0.0
 12
26.31523986035257
 22
170.2210398005065
 32
0.0
 13
26.31523986035257
 23
170.2210398005065
 33
0.0
  0
MTEXT
  5
491
330
475
100
AcDbEntity
  8
AM_5 ( Bemassung)
 62
     2
100
AcDbMText
 10
23.02823440332661
 20
200.2210398005065
 30
0.0
 40
3.5
 41
0.0
 71
     5
 72
     1
  1
60
 11
0.0000000000000001
 21
1.0
 31
0.0
 73
     1
 44
1.0
  0
POINT
  5
492
330
475
100
AcDbEntity
  8
Defpoints
 62
     0
100
AcDbPoint
 10
70.99007572486354
 20
230.2210398005065
 30
0.0
  0
POINT
  5
493
330
475
100
AcDbEntity
  8
Defpoints
 62
     0
100
AcDbPoint
 10
70.99007572486354
 20
170.2210398005064
 30
0.0
  0
POINT
  5
494
330
475
100
AcDbEntity
  8
Defpoints
 62
     0
100
AcDbPoint
 10
26.31523986035257
 20
170.2210398005065
 30
0.0
  0
ENDBLK
  5
477
330
475
100
AcDbEntity
  8
0
100
AcDbBlockEnd
  0
BLOCK
  5
497
330
496
100
AcDbEntity
  8
0
100
AcDbBlockBegin
  2
*D9
 70
     1
 10
0.0
 20
0.0
 30
0.0
  3
*D9
  1

  0
LINE
  5
4F8
330
496
100
AcDbEntity
  8
AM_5 ( Bemassung)
100
AcDbLine
 10
70.99007572486354
 20
230.2210398005065
 30
0.0
 11
25.31979807138281
 21
230.2210398005065
 31
0.0
  0
LINE
  5
4F9
330
496
100
AcDbEntity
  8
AM_5 ( Bemassung)
100
AcDbLine
 10
79.29007572486355
 20
255.2210398005062
 30
0.0
 11
25.31979807138282
 21
255.2210398005063
 31
0.0
  0
LINE
  5
4FA
330
496
100
AcDbEntity
  8
AM_5 ( Bemassung)
100
AcDbLine
 10
26.31979807138282
 20
234.2210398005065
 30
0.0
 11
26.31979807138283
 21
251.2210398005063
 31
0.0
  0
SOLID
  5
4FB
330
496
100
AcDbEntity
  8
AM_5 ( Bemassung)
100
AcDbTrace
 10
25.65313140471615
 20
234.2210398005065
 30
0.0
 11
26.98646473804949
 21
234.2210398005065
 31
0.0
 12
26.31979807138282
 22
230.2210398005065
 32
0.0
 13
26.31979807138282
 23
230.2210398005065
 33
0.0
  0
SOLID
  5
4FC
330
496
100
AcDbEntity
  8
AM_5 ( Bemassung)
100
AcDbTrace
 10
25.65313140471616
 20
251.2210398005063
 30
0.0
 11
26.98646473804949
 21
251.2210398005063
 31
0.0
 12
26.31979807138283
 22
255.2210398005063
 32
0.0
 13
26.31979807138283
 23
255.2210398005063
 33
0.0
  0
MTEXT
  5
4FD
330
496
100
AcDbEntity
  8
AM_5 ( Bemassung)
 62
     2
100
AcDbMText
 10
23.03279261435686
 20
242.7210398005064
 30
0.0
 40
3.5
 41
0.0
 71
     5
 72
     1
  1
25
 11
0.0000000000000001
 21
1.0
 31
0.0
 73
     1
 44
1.0
  0
POINT
  5
4FE
330
496
100
AcDbEntity
  8
Defpoints
 62
     0
100
AcDbPoint
 10
70.99007572486354
 20
230.2210398005065
 30
0.0
  0
POINT
  5
4FF
330
496
100
AcDbEntity
  8
Defpoints
 62
     0
100
AcDbPoint
 10
79.29007572486355
 20
255.2210398005062
 30
0.0
  0
POINT
  5
500
330
496
100
AcDbEntity
  8
Defpoints
 62
     0
100
AcDbPoint
 10
26.31979807138283
 20
255.2210398005063
 30
0.0
  0
ENDBLK
  5
498
330
496
100
AcDbEntity
  8
0
100
AcDbBlockEnd
  0
BLOCK
  5
4B8
330
4B7
100
AcDbEntity
  8
0
100
AcDbBlockBegin
  2
*D10
 70
     1
 10
0.0
 20
0.0
 30
0.0
  3
*D10
  1

  0
LINE
  5
880
330
4B7
100
AcDbEntity
  8
AM_5 ( Bemassung)
100
AcDbLine
 10
99.99007572486355
 20
255.2210398005062
 30
0.0
 11
155.4925158102198
 21
255.2210398005062
 31
0.0
  0
LINE
  5
881
330
4B7
100
AcDbEntity
  8
AM_5 ( Bemassung)
100
AcDbLine
 10
99.99007572486355
 20
200.2210398005062
 30
0.0
 11
155.4925158102198
 21
200.2210398005062
 31
0.0
  0
LINE
  5
882
330
4B7
100
AcDbEntity
  8
AM_5 ( Bemassung)
100
AcDbLine
 10
154.4925158102198
 20
251.2210398005063
 30
0.0
 11
154.4925158102198
 21
204.2210398005062
 31
0.0
  0
SOLID
  5
883
330
4B7
100
AcDbEntity
  8
AM_5 ( Bemassung)
100
AcDbTrace
 10
153.8258491435532
 20
251.2210398005063
 30
0.0
 11
155.1591824768865
 21
251.2210398005063
 31
0.0
 12
154.4925158102198
 22
255.2210398005062
 32
0.0
 13
154.4925158102198
 23
255.2210398005062
 33
0.0
  0
SOLID
  5
884
330
4B7
100
AcDbEntity
  8
AM_5 ( Bemassung)
100
AcDbTrace
 10
153.8258491435532
 20
204.2210398005062
 30
0.0
 11
155.1591824768865
 21
204.2210398005062
 31
0.0
 12
154.4925158102198
 22
200.2210398005062
 32
0.0
 13
154.4925158102198
 23
200.2210398005062
 33
0.0
  0
MTEXT
  5
885
330
4B7
100
AcDbEntity
  8
AM_5 ( Bemassung)
 62
     2
100
AcDbMText
 10
151.212672699715
 20
227.7210398005063
 30
0.0
 40
3.5
 41
0.0
 71
     5
 72
     1
  1
55
 11
0.0000000000000001
 21
1.0
 31
0.0
 73
     1
 44
1.0
  0
POINT
  5
886
330
4B7
100
AcDbEntity
  8
Defpoints
 62
     0
100
AcDbPoint
 10
99.99007572486355
 20
255.2210398005062
 30
0.0
  0
POINT
  5
887
330
4B7
100
AcDbEntity
  8
Defpoints
 62
     0
100
AcDbPoint
 10
99.99007572486355
 20
200.2210398005062
 30
0.0
  0
POINT
  5
888
330
4B7
100
AcDbEntity
  8
Defpoints
 62
     0
100
AcDbPoint
 10
154.4925158102198
 20
200.2210398005062
 30
0.0
  0
ENDBLK
  5
4B9
330
4B7
100
AcDbEntity
  8
0
100
AcDbBlockEnd
  0
BLOCK
  5
54F
330
54E
100
AcDbEntity
  8
0
100
AcDbBlockBegin
  2
*D13
 70
     1
 10
0.0
 20
0.0
 30
0.0
  3
*D13
  1

  0
LINE
  5
574
330
54E
100
AcDbEntity
  8
AM_5 ( Bemassung)
100
AcDbLine
 10
78.79007572486355
 20
255.2210398005062
 30
0.0
 11
42.77737032269476
 21
255.2210398005063
 31
0.0
  0
LINE
  5
575
330
54E
100
AcDbEntity
  8
AM_5 ( Bemassung)
100
AcDbLine
 10
70.99007572486354
 20
245.2210398005063
 30
0.0
 11
42.77737032269476
 21
245.2210398005063
 31
0.0
  0
LINE
  5
576
330
54E
100
AcDbEntity
  8
AM_5 ( Bemassung)
100
AcDbLine
 10
43.77737032269476
 20
259.2210398005063
 30
0.0
 11
43.77737032269476
 21
263.2210398005063
 31
0.0
  0
LINE
  5
577
330
54E
100
AcDbEntity
  8
AM_5 ( Bemassung)
100
AcDbLine
 10
43.77737032269476
 20
241.2210398005063
 30
0.0
 11
43.77737032269475
 21
237.2210398005063
 31
0.0
  0
LINE
  5
578
330
54E
100
AcDbEntity
  8
AM_5 ( Bemassung)
100
AcDbLine
 10
43.77737032269476
 20
255.2210398005063
 30
0.0
 11
43.77737032269476
 21
245.2210398005063
 31
0.0
  0
SOLID
  5
579
330
54E
100
AcDbEntity
  8
AM_5 ( Bemassung)
100
AcDbTrace
 10
43.1107036560281
 20
259.2210398005063
 30
0.0
 11
44.44403698936143
 21
259.2210398005063
 31
0.0
 12
43.77737032269476
 22
255.2210398005063
 32
0.0
 13
43.77737032269476
 23
255.2210398005063
 33
0.0
  0
SOLID
  5
57A
330
54E
100
AcDbEntity
  8
AM_5 ( Bemassung)
100
AcDbTrace
 10
43.1107036560281
 20
241.2210398005063
 30
0.0
 11
44.44403698936143
 21
241.2210398005063
 31
0.0
 12
43.77737032269476
 22
245.2210398005063
 32
0.0
 13
43.77737032269476
 23
245.2210398005063
 33
0.0
  0
MTEXT
  5
57B
330
54E
100
AcDbEntity
  8
AM_5 ( Bemassung)
 62
     2
100
AcDbMText
 10
40.4903648656688
 20
250.2210398005063
 30
0.0
 40
3.5
 41
0.0
 71
     5
 72
     1
  1
10
 11
0.0000000000000001
 21
1.0
 31
0.0
 73
     1
 44
1.0
  0
POINT
  5
57C
330
54E
100
AcDbEntity
  8
Defpoints
 62
     0
100
AcDbPoint
 10
78.79007572486355
 20
255.2210398005062
 30
0.0
  0
POINT
  5
57D
330
54E
100
AcDbEntity
  8
Defpoints
 62
     0
100
AcDbPoint
 10
70.99007572486354
 20
245.2210398005063
 30
0.0
  0
POINT
  5
57E
330
54E
100
AcDbEntity
  8
Defpoints
 62
     0
100
AcDbPoint
 10
43.77737032269476
 20
245.2210398005063
 30
0.0
  0
ENDBLK
  5
550
330
54E
100
AcDbEntity
  8
0
100
AcDbBlockEnd
  0
BLOCK
  5
5A2
330
5A1
100
AcDbEntity
  8
0
100
AcDbBlockBegin
  2
*D14
 70
     1
 10
0.0
 20
0.0
 30
0.0
  3
*D14
  1

  0
LINE
  5
5BC
330
5A1
100
AcDbEntity
  8
AM_5 ( Bemassung)
100
AcDbLine
 10
65.99007572486354
 20
170.2210398005064
 30
0.0
 11
65.99007572486354
 21
127.4454224485325
 31
0.0
  0
LINE
  5
5BD
330
5A1
100
AcDbEntity
  8
AM_5 ( Bemassung)
100
AcDbLine
 10
75.99007572486354
 20
170.2210398005064
 30
0.0
 11
75.99007572486354
 21
127.4454224485325
 31
0.0
  0
LINE
  5
5BE
330
5A1
100
AcDbEntity
  8
AM_5 ( Bemassung)
100
AcDbLine
 10
61.99007572486355
 20
128.4454224485325
 30
0.0
 11
57.99007572486354
 21
128.4454224485325
 31
0.0
  0
LINE
  5
5BF
330
5A1
100
AcDbEntity
  8
AM_5 ( Bemassung)
100
AcDbLine
 10
79.99007572486354
 20
128.4454224485325
 30
0.0
 11
83.99007572486354
 21
128.4454224485325
 31
0.0
  0
LINE
  5
5C0
330
5A1
100
AcDbEntity
  8
AM_5 ( Bemassung)
100
AcDbLine
 10
65.99007572486354
 20
128.4454224485325
 30
0.0
 11
75.99007572486354
 21
128.4454224485325
 31
0.0
  0
SOLID
  5
5C1
330
5A1
100
AcDbEntity
  8
AM_5 ( Bemassung)
100
AcDbTrace
 10
61.99007572486355
 20
129.1120891151992
 30
0.0
 11
61.99007572486355
 21
127.7787557818659
 31
0.0
 12
65.99007572486354
 22
128.4454224485325
 32
0.0
 13
65.99007572486354
 23
128.4454224485325
 33
0.0
  0
SOLID
  5
5C2
330
5A1
100
AcDbEntity
  8
AM_5 ( Bemassung)
100
AcDbTrace
 10
79.99007572486354
 20
129.1120891151992
 30
0.0
 11
79.99007572486354
 21
127.7787557818659
 31
0.0
 12
75.99007572486354
 22
128.4454224485325
 32
0.0
 13
75.99007572486354
 23
128.4454224485325
 33
0.0
  0
MTEXT
  5
5C3
330
5A1
100
AcDbEntity
  8
AM_5 ( Bemassung)
 62
     2
100
AcDbMText
 10
70.99007572486354
 20
131.7324279055585
 30
0.0
 40
3.5
 41
0.0
 71
     5
 72
     1
  1
10
 73
     1
 44
1.0
  0
POINT
  5
5C4
330
5A1
100
AcDbEntity
  8
Defpoints
 62
     0
100
AcDbPoint
 10
65.99007572486354
 20
170.2210398005064
 30
0.0
  0
POINT
  5
5C5
330
5A1
100
AcDbEntity
  8
Defpoints
 62
     0
100
AcDbPoint
 10
75.99007572486354
 20
170.2210398005064
 30
0.0
  0
POINT
  5
5C6
330
5A1
100
AcDbEntity
  8
Defpoints
 62
     0
100
AcDbPoint
 10
75.99007572486354
 20
128.4454224485325
 30
0.0
  0
ENDBLK
  5
5A3
330
5A1
100
AcDbEntity
  8
0
100
AcDbBlockEnd
  0
BLOCK
  5
5C9
330
5C8
100
AcDbEntity
  8
0
100
AcDbBlockBegin
  2
*D15
 70
     1
 10
0.0
 20
0.0
 30
0.0
  3
*D15
  1

  0
LINE
  5
5E3
330
5C8
100
AcDbEntity
  8
AM_5 ( Bemassung)
100
AcDbLine
 10
139.4082033627252
 20
63.8349118788334
 30
0.0
 11
152.4082043627252
 21
63.83491187883339
 31
0.0
  0
LINE
  5
5E4
330
5C8
100
AcDbEntity
  8
AM_5 ( Bemassung)
100
AcDbLine
 10
139.4082033627252
 20
60.83491187883339
 30
0.0
 11
152.4082043627252
 21
60.83491187883338
 31
0.0
  0
LINE
  5
5E5
330
5C8
100
AcDbEntity
  8
AM_5 ( Bemassung)
100
AcDbLine
 10
151.4082043627252
 20
67.83491187883339
 30
0.0
 11
151.4082043627252
 21
71.8349118788334
 31
0.0
  0
LINE
  5
5E6
330
5C8
100
AcDbEntity
  8
AM_5 ( Bemassung)
100
AcDbLine
 10
151.4082043627252
 20
56.83491187883338
 30
0.0
 11
151.4082043627252
 21
47.54296099206666
 31
0.0
  0
LINE
  5
5E7
330
5C8
100
AcDbEntity
  8
AM_5 ( Bemassung)
100
AcDbLine
 10
151.4082043627252
 20
63.83491187883339
 30
0.0
 11
151.4082043627252
 21
60.83491187883338
 31
0.0
  0
SOLID
  5
5E8
330
5C8
100
AcDbEntity
  8
AM_5 ( Bemassung)
100
AcDbTrace
 10
150.7415376960586
 20
67.83491187883339
 30
0.0
 11
152.0748710293919
 21
67.83491187883339
 31
0.0
 12
151.4082043627252
 22
63.83491187883339
 32
0.0
 13
151.4082043627252
 23
63.83491187883339
 33
0.0
  0
SOLID
  5
5E9
330
5C8
100
AcDbEntity
  8
AM_5 ( Bemassung)
100
AcDbTrace
 10
150.7415376960585
 20
56.83491187883338
 30
0.0
 11
152.0748710293918
 21
56.83491187883338
 31
0.0
 12
151.4082043627252
 22
60.83491187883338
 32
0.0
 13
151.4082043627252
 23
60.83491187883338
 33
0.0
  0
MTEXT
  5
5EA
330
5C8
100
AcDbEntity
  8
AM_5 ( Bemassung)
 62
     2
100
AcDbMText
 10
148.120005181279
 20
50.18893643545006
 30
0.0
 40
3.5
 41
0.0
 71
     5
 72
     1
  1
3
 11
0.0000000000000001
 21
1.0
 31
0.0
 73
     1
 44
1.0
  0
POINT
  5
5EB
330
5C8
100
AcDbEntity
  8
Defpoints
 62
     0
100
AcDbPoint
 10
139.4082033627252
 20
63.8349118788334
 30
0.0
  0
POINT
  5
5EC
330
5C8
100
AcDbEntity
  8
Defpoints
 62
     0
100
AcDbPoint
 10
139.4082033627252
 20
60.83491187883339
 30
0.0
  0
POINT
  5
5ED
330
5C8
100
AcDbEntity
  8
Defpoints
 62
     0
100
AcDbPoint
 10
151.4082043627252
 20
60.83491187883338
 30
0.0
  0
ENDBLK
  5
5CA
330
5C8
100
AcDbEntity
  8
0
100
AcDbBlockEnd
  0
BLOCK
  5
5F0
330
5EF
100
AcDbEntity
  8
0
100
AcDbBlockBegin
  2
*D16
 70
     1
 10
0.0
 20
0.0
 30
0.0
  3
*D16
  1

  0
LINE
  5
606
330
5EF
100
AcDbEntity
  8
AM_5 ( Bemassung)
100
AcDbLine
 10
99.40820336272516
 20
63.8349118788334
 30
0.0
 11
46.40820236272516
 21
63.83491187883341
 31
0.0
  0
LINE
  5
607
330
5EF
100
AcDbEntity
  8
AM_5 ( Bemassung)
100
AcDbLine
 10
99.40820336272516
 20
18.4349118788334
 30
0.0
 11
46.40820236272516
 21
18.43491187883341
 31
0.0
  0
LINE
  5
608
330
5EF
100
AcDbEntity
  8
AM_5 ( Bemassung)
100
AcDbLine
 10
47.40820236272517
 20
59.83491187883341
 30
0.0
 11
47.40820236272516
 21
22.43491187883341
 31
0.0
  0
SOLID
  5
609
330
5EF
100
AcDbEntity
  8
AM_5 ( Bemassung)
100
AcDbTrace
 10
46.7415356960585
 20
59.83491187883341
 30
0.0
 11
48.07486902939183
 21
59.8349118788334
 31
0.0
 12
47.40820236272517
 22
63.83491187883341
 32
0.0
 13
47.40820236272517
 23
63.83491187883341
 33
0.0
  0
SOLID
  5
60A
330
5EF
100
AcDbEntity
  8
AM_5 ( Bemassung)
100
AcDbTrace
 10
46.7415356960585
 20
22.43491187883341
 30
0.0
 11
48.07486902939182
 21
22.43491187883341
 31
0.0
 12
47.40820236272516
 22
18.43491187883341
 32
0.0
 13
47.40820236272516
 23
18.43491187883341
 33
0.0
  0
MTEXT
  5
60B
330
5EF
100
AcDbEntity
  8
AM_5 ( Bemassung)
 62
     2
100
AcDbMText
 10
44.12835925222037
 20
41.13491187883342
 30
0.0
 40
3.5
 41
0.0
 71
     5
 72
     1
  1
45.4
 11
0.0000000000000001
 21
1.0
 31
0.0
 73
     1
 44
1.0
  0
POINT
  5
60C
330
5EF
100
AcDbEntity
  8
Defpoints
 62
     0
100
AcDbPoint
 10
99.40820336272516
 20
63.8349118788334
 30
0.0
  0
POINT
  5
60D
330
5EF
100
AcDbEntity
  8
Defpoints
 62
     0
100
AcDbPoint
 10
99.40820336272516
 20
18.4349118788334
 30
0.0
  0
POINT
  5
60E
330
5EF
100
AcDbEntity
  8
Defpoints
 62
     0
100
AcDbPoint
 10
47.40820236272516
 20
18.43491187883341
 30
0.0
  0
ENDBLK
  5
5F1
330
5EF
100
AcDbEntity
  8
0
100
AcDbBlockEnd
  0
ENDSEC
  0
SECTION
  2
ENTITIES
  0
LINE
  5
29
102
{ACAD_REACTORS
330
5D7
330
5FC
102
}
330
2
100
AcDbEntity
  8
AM_0 ( Kontur 0.5 )
100
AcDbLine
 10
59.40820336272516
 20
63.8349118788334
 30
0.0
 11
139.4082033627252
 21
63.8349118788334
 31
0.0
  0
LINE
  5
2B
102
{ACAD_REACTORS
330
5D7
102
}
330
2
100
AcDbEntity
  8
AM_0 ( Kontur 0.5 )
100
AcDbLine
 10
59.40820336272516
 20
60.83491187883339
 30
0.0
 11
139.4082033627252
 21
60.83491187883339
 31
0.0
  0
LINE
  5
35
330
2
100
AcDbEntity
  8
AM_3 ( Verdeckt )
  6
AM_ISO02W050x2
100
AcDbLine
 10
123.4082033627249
 20
60.83491187883339
 30
0.0
 11
123.4082033627249
 21
63.8349118788334
 31
0.0
  0
LINE
  5
39
330
2
100
AcDbEntity
  8
AM_3 ( Verdeckt )
  6
AM_ISO02W050x2
100
AcDbLine
 10
65.40820336272514
 20
60.83491187883339
 30
0.0
 11
65.40820336272514
 21
63.8349118788334
 31
0.0
  0
LINE
  5
3A
330
2
100
AcDbEntity
  8
AM_3 ( Verdeckt )
  6
AM_ISO02W050x2
100
AcDbLine
 10
75.40820336272514
 20
60.83491187883339
 30
0.0
 11
75.40820336272514
 21
63.8349118788334
 31
0.0
  0
LINE
  5
3B
330
2
100
AcDbEntity
  8
AM_7 (Mittellinie)
  6
AM_ISO08W050x2
100
AcDbLine
 10
70.40820336272514
 20
57.83491187883338
 30
0.0
 11
70.40820336272514
 21
66.8349118788334
 31
0.0
  0
LINE
  5
3C
102
{ACAD_REACTORS
330
5FC
102
}
330
2
100
AcDbEntity
  8
AM_7 (Mittellinie)
  6
AM_ISO08W050x2
100
AcDbLine
 10
99.40820336272516
 20
14.19831694350369
 30
0.0
 11
99.40820336272516
 21
67.87148809778767
 31
0.0
  0
LINE
  5
3D
330
2
100
AcDbEntity
  8
AM_0 ( Kontur 0.5 )
100
AcDbLine
 10
59.40820336272516
 20
60.83491187883339
 30
0.0
 11
59.40820336272516
 21
63.8349118788334
 31
0.0
  0
SPLINE
  5
3E
330
2
100
AcDbEntity
  8
AM_3 ( Verdeckt )
  6
AM_ISO02W050x2
100
AcDbSpline
210
0.0
220
0.0
230
1.0
 70
     8
 71
     3
 72
    15
 73
    11
 74
     9
 42
0.0000000001
 43
0.0000000001
 44
0.0000000001
 40
0.0
 40
0.0
 40
0.0
 40
0.0
 40
0.8021762939391537
 40
1.756999696710307
 40
3.126444356261651
 40
5.580195312097099
 40
7.208910872263576
 40
8.459714809462205
 40
9.213646727816014
 40
9.967578646169879
 40
9.967578646169879
 40
9.967578646169879
 40
9.967578646169879
 10
86.97546055032534
 20
49.9977517515872
 30
0.0
 10
86.89389794090843
 20
50.25303919991704
 30
0.0
 10
86.71525207329661
 20
50.8121930575895
 30
0.0
 10
86.87818507179727
 20
51.92569525383619
 30
0.0
 10
88.24753782535333
 20
52.903221806027
 30
0.0
 10
89.59322727863076
 20
54.07586115556267
 30
0.0
 10
91.11884543886992
 20
55.00217047798966
 30
0.0
 10
92.26488072794342
 20
55.467473386848
 30
0.0
 10
93.19292934617426
 20
55.46016115230935
 30
0.0
 10
93.69423853687926
 20
55.43945040880315
 30
0.0
 10
93.94489313223177
 20
55.42909503705004
 30
0.0
 11
86.97546055032534
 21
49.9977517515872
 31
0.0
 11
86.78709747126552
 21
50.77749924725811
 31
0.0
 11
86.94855134712952
 21
51.71857330196793
 31
0.0
 11
87.91727594562503
 21
52.68653576396912
 31
0.0
 11
89.85472379930502
 21
54.19225471767004
 31
0.0
 11
91.25399296231194
 21
55.02577747403984
 31
0.0
 11
92.43798849975247
 21
55.42909503705004
 31
0.0
 11
93.1914408159921
 21
55.45598266739954
 31
0.0
 11
93.94489313223177
 21
55.42909503705004
 31
0.0
  0
SPLINE
  5
3F
330
2
100
AcDbEntity
  8
AM_3 ( Verdeckt )
  6
AM_ISO02W050x2
100
AcDbSpline
210
0.0
220
0.0
230
1.0
 70
     8
 71
     3
 72
    20
 73
    16
 74
    14
 42
0.0000000001
 43
0.0000000001
 44
0.0000000001
 40
0.0
 40
0.0
 40
0.0
 40
0.0
 40
1.012208708012622
 40
2.090747027928629
 40
3.34171992803695
 40
4.333625269550999
 40
5.632102908005749
 40
6.644716974486811
 40
8.040014412992441
 40
9.465879186067169
 40
10.82988491630625
 40
11.99160738914559
 40
13.01450249340848
 40
13.79486401284397
 40
14.63594735550607
 40
14.63594735550607
 40
14.63594735550607
 40
14.63594735550607
 10
85.38782965156931
 20
49.40621922224671
 30
0.0
 10
85.26364182214285
 20
49.72397046078153
 30
0.0
 10
85.00712818693806
 20
50.38029504318084
 30
0.0
 10
85.11924195387353
 20
51.5296248227801
 30
0.0
 10
85.62377948355711
 20
52.5347911568739
 30
0.0
 10
86.40334342438972
 20
53.4328912223131
 30
0.0
 10
87.28957882321266
 20
54.09138745116136
 30
0.0
 10
88.21245165246063
 20
54.91661219521041
 30
0.0
 10
89.30553272113492
 20
55.5835423872433
 30
0.0
 10
90.45524051639416
 20
56.38557529653081
 30
0.0
 10
91.69427669089655
 20
56.8492273632621
 30
0.0
 10
92.84338215730533
 20
57.1749748390254
 30
0.0
 10
93.83759569118817
 20
57.13667134056071
 30
0.0
 10
94.72001871726488
 20
57.17715243897369
 30
0.0
 10
95.25501058611601
 20
57.08840221421206
 30
0.0
 10
95.53252403098779
 20
57.04236528909087
 30
0.0
 11
85.38782965156931
 21
49.40621922224671
 31
0.0
 11
85.09183110303707
 21
50.37418168424789
 31
0.0
 11
85.17255736931359
 21
51.44969466764711
 31
0.0
 11
85.71073740329756
 21
52.57898446562921
 31
0.0
 11
86.35655425006484
 21
53.33184355400874
 31
0.0
 11
87.35218670844529
 21
54.16536631037854
 31
0.0
 11
88.13254822788076
 21
54.81067487736003
 31
0.0
 11
89.28963456212523
 21
55.59042237303095
 31
0.0
 11
90.50054064607227
 21
56.34328146141037
 31
0.0
 11
91.76526379310008
 21
56.85415032276046
 31
0.0
 11
92.89544226745965
 21
57.12302895708126
 31
0.0
 11
93.91798392903593
 21
57.14991658743077
 31
0.0
 11
94.69834544847142
 21
57.14991658743077
 31
0.0
 11
95.53252403098779
 21
57.04236528909087
 31
0.0
  0
LINE
  5
40
330
2
100
AcDbEntity
  8
AM_3 ( Verdeckt )
  6
AM_ISO02W050x2
100
AcDbLine
 10
88.71414735098614
 20
46.41187306529888
 30
0.0
 11
86.24949502503318
 21
45.46578167849918
 31
0.0
  0
LINE
  5
41
330
2
100
AcDbEntity
  8
AM_3 ( Verdeckt )
  6
AM_ISO02W050x2
100
AcDbLine
 10
89.07251530053116
 20
45.47829263880127
 30
0.0
 11
86.60786297457915
 21
44.53220125200171
 31
0.0
  0
ARC
  5
42
330
2
100
AcDbEntity
  8
AM_3 ( Verdeckt )
  6
AM_ISO02W050x2
100
AcDbCircle
 10
85.31826463560918
 20
42.43045333957428
 30
0.0
 40
1.957142857142819
100
AcDbArc
 50
330.9662130438009
 51
71.03378695620188
  0
LINE
  5
43
330
2
100
AcDbEntity
  8
AM_3 ( Verdeckt )
  6
AM_ISO02W050x2
100
AcDbLine
 10
87.63904350234918
 20
49.21261434479049
 30
0.0
 11
85.17439117639716
 21
48.26652295799089
 31
0.0
  0
LINE
  5
44
330
2
100
AcDbEntity
  8
AM_3 ( Verdeckt )
  6
AM_ISO02W050x2
100
AcDbLine
 10
87.93418185135317
 20
50.39705233596899
 30
0.0
 11
84.16251692830417
 21
48.94924581980589
 31
0.0
  0
LINE
  5
45
330
2
100
AcDbEntity
  8
AM_7 (Mittellinie)
  6
AM_ISO08W050x2
100
AcDbLine
 10
85.77084259049115
 20
36.0835558441305
 30
0.0
 11
97.77084259049116
 21
36.0835558441305
 31
0.0
  0
ARC
  5
46
330
2
100
AcDbEntity
  8
AM_3 ( Verdeckt )
  6
AM_ISO02W050x2
100
AcDbCircle
 10
91.77229447481916
 20
36.0835558441307
 30
0.0
 40
3.499999999999879
100
AcDbArc
 50
89.99999999999962
 51
210.0000000000004
  0
LINE
  5
47
330
2
100
AcDbEntity
  8
AM_3 ( Verdeckt )
  6
AM_ISO02W050x2
100
AcDbLine
 10
87.99566333941317
 20
38.96355802085628
 30
0.0
 11
87.02946052466613
 21
41.48060240782899
 31
0.0
  0
LINE
  5
48
330
2
100
AcDbEntity
  8
AM_3 ( Verdeckt )
  6
AM_ISO02W050x2
100
AcDbLine
 10
91.1594933972602
 20
41.99482849749467
 30
0.0
 11
87.38782847421218
 21
40.5470219813315
 31
0.0
  0
CIRCLE
  5
49
330
2
100
AcDbEntity
  8
AM_0 ( Kontur 0.5 )
100
AcDbCircle
 10
99.40820336272516
 20
39.6349118788334
 30
0.0
 40
20.5
  0
CIRCLE
  5
4A
102
{ACAD_REACTORS
330
5FC
102
}
330
2
100
AcDbEntity
  8
AM_0 ( Kontur 0.5 )
100
AcDbCircle
 10
99.40820336272516
 20
39.6349118788334
 30
0.0
 40
21.2
  0
CIRCLE
  5
4B
330
2
100
AcDbEntity
  8
AM_3 ( Verdeckt )
  6
AM_ISO02W050x2
100
AcDbCircle
 10
99.40820336272516
 20
39.6349118788334
 30
0.0
 40
19.0
  0
LINE
  5
4C
330
2
100
AcDbEntity
  8
AM_7 (Mittellinie)
  6
AM_ISO08W050x2
100
AcDbLine
 10
74.40820336272515
 20
39.6349118788334
 30
0.0
 11
124.4082033627252
 21
39.6349118788334
 31
0.0
  0
ARC
  5
4D
330
2
100
AcDbEntity
  8
AM_3 ( Verdeckt )
  6
AM_ISO02W050x2
100
AcDbCircle
 10
83.88479283742816
 20
46.16477504556349
 30
0.0
 40
1.957142857142819
100
AcDbArc
 50
330.9662130438013
 51
71.03378695620243
  0
LINE
  5
4E
330
2
100
AcDbEntity
  8
AM_3 ( Verdeckt )
  6
AM_ISO02W050x2
100
AcDbLine
 10
84.52088487784914
 20
48.01566539330909
 30
0.0
 11
84.16251692830417
 21
48.94924581980589
 31
0.0
  0
LINE
  5
4F
330
2
100
AcDbEntity
  8
AM_3 ( Verdeckt )
  6
AM_ISO02W050x2
100
AcDbLine
 10
85.95435667603117
 20
44.28134368731988
 30
0.0
 11
85.59598872648516
 21
45.21492411381738
 31
0.0
  0
SPLINE
  5
50
330
2
100
AcDbEntity
  8
AM_3 ( Verdeckt )
  6
AM_ISO02W050x2
100
AcDbSpline
210
0.0
220
0.0
230
1.0
 70
     8
 71
     3
 72
    17
 73
    13
 74
    11
 42
0.0000000001
 43
0.0000000001
 44
0.0000000001
 40
0.0
 40
0.0
 40
0.0
 40
0.0
 40
1.118774358891198
 40
1.95727553342786
 40
2.954620299203959
 40
3.931970985317355
 40
5.096137985095621
 40
6.411637912298852
 40
7.566176439327118
 40
8.890494907503022
 40
9.779339076784378
 40
10.53722400245595
 40
10.53722400245595
 40
10.53722400245595
 40
10.53722400245595
 10
113.7417932327587
 20
49.3209879124837
 30
0.0
 10
113.8629196129027
 20
49.66718775003229
 30
0.0
 10
114.0748280271637
 20
50.27285811271575
 30
0.0
 10
114.3116169269175
 20
51.30508186218261
 30
0.0
 10
113.6162810636151
 20
52.06434562211437
 30
0.0
 10
112.9359331758668
 20
52.80841092560262
 30
0.0
 10
112.0954248062193
 20
53.6904740351616
 30
0.0
 10
110.8140463339096
 20
53.74072319166126
 30
0.0
 10
109.583851849007
 20
53.83161408181702
 30
0.0
 10
108.4103393825378
 20
53.96725496424792
 30
0.0
 10
107.5372384820976
 20
53.42244911643568
 30
0.0
 10
107.1424439404079
 20
53.04403928425649
 30
0.0
 10
106.9607450606097
 20
52.86988124671802
 30
0.0
 11
113.7417932327587
 21
49.3209879124837
 31
0.0
 11
114.0871866650129
 21
50.38511170371669
 31
0.0
 11
114.1735346872484
 21
51.21915501119861
 31
0.0
 11
113.626662088674
 21
52.05319754173854
 31
0.0
 11
112.9646583460146
 21
52.77220060734485
 31
0.0
 11
112.0723936584967
 21
53.51996295647814
 31
0.0
 11
110.7771706383378
 21
53.75004421717131
 31
0.0
 11
109.6258605408015
 21
53.83632439857795
 31
0.0
 11
108.301854398794
 21
53.80756433810905
 31
0.0
 11
107.524720855361
 21
53.37616265413373
 31
0.0
 11
106.9607450606097
 21
52.86988124671802
 31
0.0
  0
ARC
  5
51
330
2
100
AcDbEntity
  8
AM_3 ( Verdeckt )
  6
AM_ISO02W050x2
100
AcDbCircle
 10
99.40820336272516
 20
39.6349118788334
 30
0.0
 40
17.0
100
AcDbArc
 50
54.99999999999849
 51
64.99999999999976
  0
LINE
  5
52
330
2
100
AcDbEntity
  8
AM_7 (Mittellinie)
  6
AM_ISO08W050x2
100
AcDbLine
 10
91.40820336272517
 20
47.63491187883341
 30
0.0
 11
107.4082033627249
 21
47.63491187883341
 31
0.0
  0
LINE
  5
53
330
2
100
AcDbEntity
  8
AM_3 ( Verdeckt )
  6
AM_ISO02W050x2
100
AcDbLine
 10
102.6157581676861
 20
45.15835969323084
 30
0.0
 11
107.7693790872833
 21
51.04048348917422
 31
0.0
  0
LINE
  5
54
330
2
100
AcDbEntity
  8
AM_3 ( Verdeckt )
  6
AM_ISO02W050x2
100
AcDbLine
 10
105.025564134959
 20
32.5835558441305
 30
0.0
 11
109.0648381927949
 21
32.5835558441305
 31
0.0
  0
ARC
  5
55
330
2
100
AcDbEntity
  8
AM_3 ( Verdeckt )
  6
AM_ISO02W050x2
100
AcDbCircle
 10
-107.045564134959
 20
36.08104110670888
 30
0.0
 40
3.497485262578298
210
0.0
220
0.0
230
-1.0
100
AcDbArc
 50
210.0000000000004
 51
283.9501726248921
  0
CIRCLE
  5
56
330
2
100
AcDbEntity
  8
AM_3 ( Verdeckt )
  6
AM_ISO02W050x2
100
AcDbCircle
 10
-107.045564134959
 20
36.0835558441305
 30
0.0
 40
2.0
210
0.0
220
0.0
230
-1.0
  0
CIRCLE
  5
57
330
2
100
AcDbEntity
  8
AM_3 ( Verdeckt )
  6
AM_ISO02W050x2
100
AcDbCircle
 10
-107.045564134959
 20
36.0835558441305
 30
0.0
 40
2.0
210
0.0
220
0.0
230
-1.0
  0
ARC
  5
58
330
2
100
AcDbEntity
  8
AM_3 ( Verdeckt )
  6
AM_ISO02W050x2
100
AcDbCircle
 10
-107.045564134959
 20
36.0835558441305
 30
0.0
 40
1.5
210
0.0
220
0.0
230
-1.0
100
AcDbArc
 50
99.99999999999962
 51
350.0000000000003
  0
LINE
  5
59
330
2
100
AcDbEntity
  8
AM_0 ( Kontur 0.5 )
100
AcDbLine
 10
105.026290077122
 20
39.5835558441305
 30
0.0
 11
109.0648381927949
 21
39.5835558441305
 31
0.0
  0
LINE
  5
5A
330
2
100
AcDbEntity
  8
AM_3 ( Verdeckt )
  6
AM_ISO02W050x2
100
AcDbLine
 10
108.015281277735
 20
42.9284089239914
 30
0.0
 11
106.7313124778989
 21
39.5835558441305
 31
0.0
  0
ARC
  5
5B
330
2
100
AcDbEntity
  8
AM_3 ( Verdeckt )
  6
AM_ISO02W050x2
100
AcDbCircle
 10
-107.0441122506309
 20
36.0835558441307
 30
0.0
 40
3.499999999999879
210
0.0
220
0.0
230
-1.0
100
AcDbArc
 50
89.99999999999952
 51
210.0000000000004
  0
LINE
  5
5C
330
2
100
AcDbEntity
  8
AM_7 (Mittellinie)
  6
AM_ISO08W050x2
100
AcDbLine
 10
113.0455641349589
 20
36.0835558441305
 30
0.0
 11
101.0455641349589
 21
36.0835558441305
 31
0.0
  0
LINE
  5
5D
330
2
100
AcDbEntity
  8
AM_3 ( Verdeckt )
  6
AM_ISO02W050x2
100
AcDbLine
 10
89.75084259049117
 20
39.58229847541969
 30
0.0
 11
87.73084259049118
 21
36.0835558441305
 31
0.0
  0
CIRCLE
  5
5E
330
2
100
AcDbEntity
  8
AM_3 ( Verdeckt )
  6
AM_ISO02W050x2
100
AcDbCircle
 10
91.77084259049115
 20
36.0835558441305
 30
0.0
 40
2.0
  0
ARC
  5
5F
330
2
100
AcDbEntity
  8
AM_3 ( Verdeckt )
  6
AM_ISO02W050x2
100
AcDbCircle
 10
91.76939070616418
 20
36.08355584413038
 30
0.0
 40
3.5
100
AcDbArc
 50
330.0000000000013
 51
28.05826729209571
  0
CIRCLE
  5
60
330
2
100
AcDbEntity
  8
AM_3 ( Verdeckt )
  6
AM_ISO02W050x2
100
AcDbCircle
 10
91.77084259049115
 20
36.0835558441305
 30
0.0
 40
2.0
  0
LINE
  5
61
330
2
100
AcDbEntity
  8
AM_3 ( Verdeckt )
  6
AM_ISO02W050x2
100
AcDbLine
 10
95.81084259049118
 20
36.0835558441305
 30
0.0
 11
93.79084259049117
 21
39.58229847541969
 31
0.0
  0
ARC
  5
62
330
2
100
AcDbEntity
  8
AM_3 ( Verdeckt )
  6
AM_ISO02W050x2
100
AcDbCircle
 10
91.77084259049115
 20
36.0835558441305
 30
0.0
 40
1.5
100
AcDbArc
 50
100.0
 51
350.0000000000003
  0
ARC
  5
63
330
2
100
AcDbEntity
  8
AM_3 ( Verdeckt )
  6
AM_ISO02W050x2
100
AcDbCircle
 10
-107.0470160192861
 20
36.08355584413038
 30
0.0
 40
3.5
210
0.0
220
0.0
230
-1.0
100
AcDbArc
 50
330.0000000000013
 51
28.05826729209573
  0
LINE
  5
64
330
2
100
AcDbEntity
  8
AM_3 ( Verdeckt )
  6
AM_ISO02W050x2
100
AcDbLine
 10
103.0055641349589
 20
36.0835558441305
 30
0.0
 11
105.025564134959
 21
39.58229847541969
 31
0.0
  0
LINE
  5
65
330
2
100
AcDbEntity
  8
AM_7 (Mittellinie)
  6
AM_ISO08W050x2
100
AcDbLine
 10
91.77084259049115
 20
30.0835558441305
 30
0.0
 11
91.77084259049115
 21
42.0835558441305
 31
0.0
  0
LINE
  5
66
330
2
100
AcDbEntity
  8
AM_3 ( Verdeckt )
  6
AM_ISO02W050x2
100
AcDbLine
 10
107.045564134959
 20
30.0835558441305
 30
0.0
 11
107.045564134959
 21
42.0835558441305
 31
0.0
  0
ARC
  5
67
330
2
100
AcDbEntity
  8
AM_3 ( Verdeckt )
  6
AM_ISO02W050x2
100
AcDbCircle
 10
91.77084259049115
 20
36.08104110670888
 30
0.0
 40
3.497485262578298
100
AcDbArc
 50
210.0000000000004
 51
283.9501726248924
  0
LINE
  5
68
330
2
100
AcDbEntity
  8
AM_3 ( Verdeckt )
  6
AM_ISO02W050x2
100
AcDbLine
 10
93.79084259049117
 20
32.5835558441305
 30
0.0
 11
89.75156853265515
 21
32.5835558441305
 31
0.0
  0
ARC
  5
69
330
2
100
AcDbEntity
  8
AM_3 ( Verdeckt )
  6
AM_ISO02W050x2
100
AcDbCircle
 10
91.76939070616418
 20
36.0835558441305
 30
0.0
 40
3.5
100
AcDbArc
 50
270.0000000000006
 51
330.0000000000013
  0
LINE
  5
6A
330
2
100
AcDbEntity
  8
AM_3 ( Verdeckt )
  6
AM_ISO02W050x2
100
AcDbLine
 10
87.73084259049118
 20
36.0835558441305
 30
0.0
 11
89.75156853265515
 21
32.5835558441305
 31
0.0
  0
LINE
  5
6B
330
2
100
AcDbEntity
  8
AM_3 ( Verdeckt )
  6
AM_ISO02W050x2
100
AcDbLine
 10
93.79084259049117
 20
32.5835558441305
 30
0.0
 11
95.81084259049118
 21
36.0835558441305
 31
0.0
  0
ARC
  5
6C
330
2
100
AcDbEntity
  8
AM_3 ( Verdeckt )
  6
AM_ISO02W050x2
100
AcDbCircle
 10
-107.0470160192861
 20
36.0835558441305
 30
0.0
 40
3.5
210
0.0
220
0.0
230
-1.0
100
AcDbArc
 50
270.0000000000005
 51
330.0000000000013
  0
LINE
  5
6D
330
2
100
AcDbEntity
  8
AM_3 ( Verdeckt )
  6
AM_ISO02W050x2
100
AcDbLine
 10
105.025564134959
 20
32.5835558441305
 30
0.0
 11
103.0055641349589
 21
36.0835558441305
 31
0.0
  0
ARC
  5
6E
330
2
100
AcDbEntity
  8
AM_3 ( Verdeckt )
  6
AM_ISO02W050x2
100
AcDbCircle
 10
99.40820336272516
 20
47.63491187883341
 30
0.0
 40
5.5
100
AcDbArc
 50
97.26076482740086
 51
152.1818189275325
  0
ARC
  5
6F
330
2
100
AcDbEntity
  8
AM_3 ( Verdeckt )
  6
AM_ISO02W050x2
100
AcDbCircle
 10
99.40820336272516
 20
47.63491187883341
 30
0.0
 40
5.0
100
AcDbArc
 50
93.12894061204969
 51
159.0990722653535
  0
ARC
  5
70
330
2
100
AcDbEntity
  8
AM_3 ( Verdeckt )
  6
AM_ISO02W050x2
100
AcDbCircle
 10
98.38214293274816
 20
44.81583401647568
 30
0.0
 40
1.0
100
AcDbArc
 50
250.0000000000003
 51
80.00000000000056
  0
ARC
  5
71
330
2
100
AcDbEntity
  8
AM_3 ( Verdeckt )
  6
AM_ISO02W050x2
100
AcDbCircle
 10
100.053112520301
 20
51.1162233093653
 30
0.0
 40
7.51471315309866
100
AcDbArc
 50
82.26782150455672
 51
254.4622552123562
  0
ARC
  5
72
330
2
100
AcDbEntity
  8
AM_3 ( Verdeckt )
  6
AM_ISO02W050x2
100
AcDbCircle
 10
99.98138436749716
 20
51.12939407893861
 30
0.0
 40
5.516150588056318
100
AcDbArc
 50
80.5206495141288
 51
255.022490156384
  0
ARC
  5
73
330
2
100
AcDbEntity
  8
AM_3 ( Verdeckt )
  6
AM_ISO02W050x2
100
AcDbCircle
 10
99.40820336272516
 20
47.63491187883341
 30
0.0
 40
5.0
100
AcDbArc
 50
201.8366028021699
 51
354.7864460363317
  0
ARC
  5
74
330
2
100
AcDbEntity
  8
AM_3 ( Verdeckt )
  6
AM_ISO02W050x2
100
AcDbCircle
 10
99.40820336272516
 20
47.63491187883341
 30
0.0
 40
5.5
100
AcDbArc
 50
190.0777513968852
 51
1.437460067647911
  0
ARC
  5
75
330
2
100
AcDbEntity
  8
AM_3 ( Verdeckt )
  6
AM_ISO02W050x2
100
AcDbCircle
 10
94.32290974420016
 20
48.66646578307189
 30
0.0
 40
6.232851591820057
100
AcDbArc
 50
8.425925935348145
 51
76.32765976608968
  0
ARC
  5
76
330
2
100
AcDbEntity
  8
AM_3 ( Verdeckt )
  6
AM_ISO02W050x2
100
AcDbCircle
 10
90.00374568995516
 20
48.51362097772618
 30
0.0
 40
1.95714285714287
100
AcDbArc
 50
150.9662130438005
 51
251.0337869561996
  0
LINE
  5
77
330
2
100
AcDbEntity
  8
AM_0 ( Kontur 0.5 )
100
AcDbLine
 10
93.79011664832814
 20
39.5835558441305
 30
0.0
 11
89.75156853265515
 21
39.5835558441305
 31
0.0
  0
ARC
  5
78
330
2
100
AcDbEntity
  8
AM_3 ( Verdeckt )
  6
AM_ISO02W050x2
100
AcDbCircle
 10
91.76939070616418
 20
36.08355584413038
 30
0.0
 40
3.500000000000008
100
AcDbArc
 50
28.0582672920954
 51
89.99999999999962
  0
LINE
  5
79
330
2
100
AcDbEntity
  8
AM_3 ( Verdeckt )
  6
AM_ISO02W050x2
100
AcDbLine
 10
90.14761914916716
 20
42.67755135930968
 30
0.0
 11
87.68296682321517
 21
41.73145997251
 31
0.0
  0
LINE
  5
7A
330
2
100
AcDbEntity
  8
AM_3 ( Verdeckt )
  6
AM_ISO02W050x2
100
AcDbLine
 10
90.80112544771514
 20
42.9284089239914
 30
0.0
 11
92.08509424755121
 21
39.5835558441305
 31
0.0
  0
ARC
  5
7B
330
2
100
AcDbEntity
  8
AM_3 ( Verdeckt )
  6
AM_ISO02W050x2
100
AcDbCircle
 10
84.72568125709415
 20
37.71565420156099
 30
0.0
 40
3.5
100
AcDbArc
 50
345.0000000000002
 51
21.00000000000139
  0
ARC
  5
7C
330
2
100
AcDbEntity
  8
AM_3 ( Verdeckt )
  6
AM_ISO02W050x2
100
AcDbCircle
 10
91.43721748813616
 20
44.7792992717371
 30
0.0
 40
1.957142857142899
100
AcDbArc
 50
150.9662130438005
 51
251.0337869561996
  0
LINE
  5
7D
330
2
100
AcDbEntity
  8
AM_3 ( Verdeckt )
  6
AM_ISO02W050x2
100
AcDbLine
 10
89.36765364953414
 20
46.66273062998057
 30
0.0
 11
89.72602159907912
 21
45.7291502034831
 31
0.0
  0
LINE
  5
7E
330
2
100
AcDbEntity
  8
AM_3 ( Verdeckt )
  6
AM_ISO02W050x2
100
AcDbLine
 10
87.93418185135317
 20
50.39705233596899
 30
0.0
 11
88.29254980089718
 21
49.46347190947221
 31
0.0
  0
ARC
  5
7F
330
2
100
AcDbEntity
  8
AM_3 ( Verdeckt )
  6
AM_ISO02W050x2
100
AcDbCircle
 10
99.40820336272516
 20
47.63491187883341
 30
0.0
 40
5.5
100
AcDbArc
 50
151.305377558796
 51
152.1818189275331
  0
ARC
  5
80
330
2
100
AcDbEntity
  8
AM_3 ( Verdeckt )
  6
AM_ISO02W050x2
100
AcDbCircle
 10
101.4775683174931
 20
49.70651070698758
 30
0.0
 40
1.0
100
AcDbArc
 50
187.7906239450426
 51
0.0000000000002036
  0
LINE
  5
81
330
2
100
AcDbEntity
  8
AM_3 ( Verdeckt )
  6
AM_ISO02W050x2
100
AcDbLine
 10
100.9357008943511
 20
46.2639297567934
 30
0.0
 11
106.9607450606097
 21
52.86988124671802
 31
0.0
  0
ARC
  5
82
330
2
100
AcDbEntity
  8
AM_3 ( Verdeckt )
  6
AM_ISO02W050x2
100
AcDbCircle
 10
101.750784337801
 20
45.66017666545749
 30
0.0
 40
1.0
100
AcDbArc
 50
143.2819990869708
 51
329.8797171023295
  0
ARC
  5
83
330
2
100
AcDbEntity
  8
AM_3 ( Verdeckt )
  6
AM_ISO02W050x2
100
AcDbCircle
 10
-107.0470160192861
 20
36.08355584413038
 30
0.0
 40
3.500000000000008
210
0.0
220
0.0
230
-1.0
100
AcDbArc
 50
28.0582672920953
 51
89.99999999999952
  0
ARC
  5
84
330
2
100
AcDbEntity
  8
AM_0 ( Kontur 0.5 )
100
AcDbCircle
 10
99.40820336272516
 20
47.63491187883341
 30
0.0
 40
5.5
100
AcDbArc
 50
0.0
 51
1.437460067647911
  0
ARC
  5
85
330
2
100
AcDbEntity
  8
AM_3 ( Verdeckt )
  6
AM_ISO02W050x2
100
AcDbCircle
 10
99.40820336272516
 20
39.6349118788334
 30
0.0
 40
17.0
100
AcDbArc
 50
64.99999999999976
 51
84.99999999999998
  0
ARC
  5
86
330
2
100
AcDbEntity
  8
AM_3 ( Verdeckt )
  6
AM_ISO02W050x2
100
AcDbCircle
 10
94.32290974420016
 20
48.66646578307189
 30
0.0
 40
8.232851591820057
100
AcDbArc
 50
7.210053381597872
 51
65.58712630427507
  0
ARC
  5
87
330
2
100
AcDbEntity
  8
AM_3 ( Verdeckt )
  6
AM_ISO02W050x2
100
AcDbCircle
 10
99.40820336272516
 20
47.63491187883341
 30
0.0
 40
5.0
100
AcDbArc
 50
23.39752958327332
 51
60.74075474002279
  0
ARC
  5
88
330
2
100
AcDbEntity
  8
AM_3 ( Verdeckt )
  6
AM_ISO02W050x2
100
AcDbCircle
 10
99.40820336272516
 20
47.63491187883341
 30
0.0
 40
5.5
100
AcDbArc
 50
25.72173475923043
 51
67.82480019187096
  0
LINE
  5
89
330
2
100
AcDbEntity
  8
AM_3 ( Verdeckt )
  6
AM_ISO02W050x2
100
AcDbLine
 10
105.776515450796
 20
55.39703740646888
 30
0.0
 11
106.1511220442119
 21
56.32422126103569
 31
0.0
  0
LINE
  5
8A
330
2
100
AcDbEntity
  8
AM_3 ( Verdeckt )
  6
AM_ISO02W050x2
100
AcDbLine
 10
104.6614922670989
 20
55.80287265585099
 30
0.0
 11
104.9705092614739
 21
56.75392917214622
 31
0.0
  0
LINE
  5
8B
330
2
100
AcDbEntity
  8
AM_3 ( Verdeckt )
  6
AM_ISO02W050x2
100
AcDbLine
 10
103.808127129468
 20
56.05565092574761
 30
0.0
 11
104.325765219674
 21
57.9875025783259
 31
0.0
  0
LINE
  5
8C
330
2
100
AcDbEntity
  8
AM_3 ( Verdeckt )
  6
AM_ISO02W050x2
100
AcDbLine
 10
104.9705092614739
 20
56.75392917214622
 30
0.0
 11
106.1511220442119
 21
56.32422126103569
 31
0.0
  0
LINE
  5
8D
330
2
100
AcDbEntity
  8
AM_3 ( Verdeckt )
  6
AM_ISO02W050x2
100
AcDbLine
 10
109.065564134959
 20
39.58229847541969
 30
0.0
 11
111.0855641349589
 21
36.0835558441305
 31
0.0
  0
LINE
  5
8E
330
2
100
AcDbEntity
  8
AM_3 ( Verdeckt )
  6
AM_ISO02W050x2
100
AcDbLine
 10
111.0855641349589
 20
36.0835558441305
 30
0.0
 11
109.0648381927949
 21
32.5835558441305
 31
0.0
  0
LINE
  5
8F
330
2
100
AcDbEntity
  8
AM_3 ( Verdeckt )
  6
AM_ISO02W050x2
100
AcDbLine
 10
111.177363223101
 20
49.21261434479049
 30
0.0
 11
113.6420155490531
 21
48.26652295799089
 31
0.0
  0
LINE
  5
90
330
2
100
AcDbEntity
  8
AM_3 ( Verdeckt )
  6
AM_ISO02W050x2
100
AcDbLine
 10
110.8822248740971
 20
50.39705233596899
 30
0.0
 11
114.6538897971461
 21
48.94924581980589
 31
0.0
  0
ARC
  5
91
330
2
100
AcDbEntity
  8
AM_3 ( Verdeckt )
  6
AM_ISO02W050x2
100
AcDbCircle
 10
-108.812661035495
 20
48.51362097772618
 30
0.0
 40
1.95714285714287
210
0.0
220
0.0
230
-1.0
100
AcDbArc
 50
150.9662130438005
 51
251.0337869561996
  0
ARC
  5
92
330
2
100
AcDbEntity
  8
AM_3 ( Verdeckt )
  6
AM_ISO02W050x2
100
AcDbCircle
 10
-113.4981420898411
 20
42.43045333957428
 30
0.0
 40
1.957142857142819
210
0.0
220
0.0
230
-1.0
100
AcDbArc
 50
330.966213043801
 51
71.03378695620183
  0
LINE
  5
93
330
2
100
AcDbEntity
  8
AM_3 ( Verdeckt )
  6
AM_ISO02W050x2
100
AcDbLine
 10
110.102259374464
 20
46.41187306529888
 30
0.0
 11
112.5669117004171
 21
45.46578167849918
 31
0.0
  0
LINE
  5
94
330
2
100
AcDbEntity
  8
AM_3 ( Verdeckt )
  6
AM_ISO02W050x2
100
AcDbLine
 10
108.6687875762829
 20
42.67755135930968
 30
0.0
 11
111.133439902235
 21
41.73145997251
 31
0.0
  0
LINE
  5
95
330
2
100
AcDbEntity
  8
AM_3 ( Verdeckt )
  6
AM_ISO02W050x2
100
AcDbLine
 10
107.65691332819
 20
41.99482849749467
 30
0.0
 11
111.428578251238
 21
40.5470219813315
 31
0.0
  0
ARC
  5
96
330
2
100
AcDbEntity
  8
AM_3 ( Verdeckt )
  6
AM_ISO02W050x2
100
AcDbCircle
 10
-114.0907254683561
 20
37.71565420156099
 30
0.0
 40
3.5
210
0.0
220
0.0
230
-1.0
100
AcDbArc
 50
345.0000000000002
 51
21.00000000000141
  0
LINE
  5
97
330
2
100
AcDbEntity
  8
AM_3 ( Verdeckt )
  6
AM_ISO02W050x2
100
AcDbLine
 10
110.8207433860371
 20
38.96355802085628
 30
0.0
 11
111.7869462007839
 21
41.48060240782899
 31
0.0
  0
LINE
  5
98
330
2
100
AcDbEntity
  8
AM_3 ( Verdeckt )
  6
AM_ISO02W050x2
100
AcDbLine
 10
109.743891424919
 20
45.47829263880127
 30
0.0
 11
112.2085437508709
 21
44.53220125200171
 31
0.0
  0
ARC
  5
99
330
2
100
AcDbEntity
  8
AM_3 ( Verdeckt )
  6
AM_ISO02W050x2
100
AcDbCircle
 10
-107.3791892373139
 20
44.7792992717371
 30
0.0
 40
1.957142857142899
210
0.0
220
0.0
230
-1.0
100
AcDbArc
 50
150.9662130438005
 51
251.0337869562
  0
LINE
  5
9A
330
2
100
AcDbEntity
  8
AM_3 ( Verdeckt )
  6
AM_ISO02W050x2
100
AcDbLine
 10
109.4487530759161
 20
46.66273062998057
 30
0.0
 11
109.0903851263711
 21
45.7291502034831
 31
0.0
  0
LINE
  5
9B
330
2
100
AcDbEntity
  8
AM_3 ( Verdeckt )
  6
AM_ISO02W050x2
100
AcDbLine
 10
112.862050049419
 20
44.28134368731988
 30
0.0
 11
113.2204179989649
 21
45.21492411381738
 31
0.0
  0
ARC
  5
9C
330
2
100
AcDbEntity
  8
AM_3 ( Verdeckt )
  6
AM_ISO02W050x2
100
AcDbCircle
 10
-114.9316138880221
 20
46.16477504556349
 30
0.0
 40
1.957142857142819
210
0.0
220
0.0
230
-1.0
100
AcDbArc
 50
330.9662130438013
 51
71.0337869562027
  0
LINE
  5
9D
330
2
100
AcDbEntity
  8
AM_3 ( Verdeckt )
  6
AM_ISO02W050x2
100
AcDbLine
 10
114.2955218476011
 20
48.01566539330909
 30
0.0
 11
114.6538897971461
 21
48.94924581980589
 31
0.0
  0
LINE
  5
9E
330
2
100
AcDbEntity
  8
AM_3 ( Verdeckt )
  6
AM_ISO02W050x2
100
AcDbLine
 10
107.3892199300851
 20
54.64502095743521
 30
0.0
 11
107.8586914928709
 21
55.5279685502941
 31
0.0
  0
ARC
  5
9F
330
2
100
AcDbEntity
  8
AM_3 ( Verdeckt )
  6
AM_ISO02W050x2
100
AcDbCircle
 10
99.40820336272516
 20
39.6349118788334
 30
0.0
 40
18.0
100
AcDbArc
 50
57.99999999999994
 51
61.99999999999976
  0
SPLINE
  5
A0
330
2
100
AcDbEntity
  8
AM_3 ( Verdeckt )
  6
AM_ISO02W050x2
100
AcDbSpline
210
0.0
220
0.0
230
1.0
 70
     8
 71
     3
 72
    15
 73
    11
 74
     9
 42
0.0000000001
 43
0.0000000001
 44
0.0000000001
 40
0.0
 40
0.0
 40
0.0
 40
0.0
 40
0.5824024663313527
 40
1.335134605715513
 40
1.813907495318187
 40
2.445078463780641
 40
3.817294125186886
 40
5.009937024487848
 40
5.834497094485874
 40
6.561177313444559
 40
6.561177313444559
 40
6.561177313444559
 40
6.561177313444559
 10
112.0723936584967
 20
49.95371001974138
 30
0.0
 10
112.1417705709341
 20
50.13237355397869
 30
0.0
 10
112.3008143971327
 20
50.54195263567846
 30
0.0
 10
112.4693988474734
 20
51.17302650411842
 30
0.0
 10
112.0974287379381
 20
51.73838031657871
 30
0.0
 10
111.2810163530966
 20
51.99213643100566
 30
0.0
 10
110.2421383852952
 20
52.20667583771851
 30
0.0
 10
109.0894537224581
 20
52.06830258733553
 30
0.0
 10
108.2666815933394
 20
51.62023789558713
 30
0.0
 10
107.9280237338958
 20
51.22543114539421
 30
0.0
 10
107.7693790872833
 20
51.04048348917422
 30
0.0
 11
112.0723936584967
 21
49.95371001974138
 31
0.0
 11
112.2738728248172
 21
50.50015194559228
 31
0.0
 11
112.3602208470529
 21
51.24791507166754
 31
0.0
 11
112.1011767803455
 21
51.65055591823204
 31
0.0
 11
111.5255224032329
 21
51.90939723939414
 31
0.0
 11
110.1727331393764
 21
52.13947772314533
 31
0.0
 11
108.9926399199913
 21
51.96691736033187
 31
0.0
 11
108.2730712769452
 21
51.56427573682538
 31
0.0
 11
107.7693790872833
 21
51.04048348917422
 31
0.0
  0
LINE
  5
A1
330
2
100
AcDbEntity
  8
AM_3 ( Verdeckt )
  6
AM_ISO02W050x2
100
AcDbLine
 10
109.1590027806929
 20
53.560496631746
 30
0.0
 11
110.306155653395
 21
55.1988007203244
 31
0.0
  0
LINE
  5
A2
330
2
100
AcDbEntity
  8
AM_3 ( Verdeckt )
  6
AM_ISO02W050x2
100
AcDbLine
 10
108.41683085469
 20
54.05172951349277
 30
0.0
 11
108.9467501189229
 21
54.89977760964919
 31
0.0
  0
LINE
  5
A3
330
2
100
AcDbEntity
  8
AM_3 ( Verdeckt )
  6
AM_ISO02W050x2
100
AcDbLine
 10
110.8822248740971
 20
50.39705233596899
 30
0.0
 11
110.5238569245529
 21
49.46347190947221
 31
0.0
  0
LINE
  5
DC
102
{ACAD_REACTORS
330
5D7
102
}
330
2
100
AcDbEntity
  8
AM_0 ( Kontur 0.5 )
100
AcDbLine
 10
139.4082033627252
 20
60.83491187883339
 30
0.0
 11
139.4082033627252
 21
63.8349118788334
 31
0.0
  0
LINE
  5
DD
330
2
100
AcDbEntity
  8
AM_3 ( Verdeckt )
  6
AM_ISO02W050x2
100
AcDbLine
 10
133.4082033627252
 20
60.83491187883339
 30
0.0
 11
133.4082033627252
 21
63.8349118788334
 31
0.0
  0
LINE
  5
DE
330
2
100
AcDbEntity
  8
AM_7 (Mittellinie)
  6
AM_ISO08W050x2
100
AcDbLine
 10
128.4082033627252
 20
57.83491187883338
 30
0.0
 11
128.4082033627252
 21
66.8349118788334
 31
0.0
  0
ARC
  5
399
330
2
100
AcDbEntity
  8
AM_0 ( Kontur 0.5 )
100
AcDbCircle
 10
132.3800757248634
 20
132.9789726393689
 30
0.0
 40
34.89
100
AcDbArc
 50
180.0
 51
270.0
  0
ARC
  5
39A
330
2
100
AcDbEntity
  8
AM_0 ( Kontur 0.5 )
100
AcDbCircle
 10
132.3813173535385
 20
133.0260361036381
 30
0.0
 40
30.0
100
AcDbArc
 50
180.0
 51
270.0
  0
ARC
  5
39B
102
{ACAD_REACTORS
330
40D
102
}
330
2
100
AcDbEntity
  8
AM_0 ( Kontur 0.5 )
100
AcDbCircle
 10
128.9900757248636
 20
230.2210398005065
 30
0.0
 40
5.0
100
AcDbArc
 50
0.0
 51
180.0
  0
LINE
  5
39C
330
2
100
AcDbEntity
  8
AM_0 ( Kontur 0.5 )
100
AcDbLine
 10
121.1900757248634
 20
245.2210398005063
 30
0.0
 11
136.9900757248636
 21
245.2210398005063
 31
0.0
  0
LINE
  5
39D
330
2
100
AcDbEntity
  8
AM_7 (Mittellinie)
  6
AM_ISO08W050x2
100
AcDbLine
 10
122.5936333892474
 20
230.2210398005065
 30
0.0
 11
135.0610182662184
 21
230.2210398005065
 31
0.0
  0
LINE
  5
39E
330
2
100
AcDbEntity
  8
AM_7 (Mittellinie)
  6
AM_ISO08W050x2
100
AcDbLine
 10
122.5936333892474
 20
170.2210398005064
 30
0.0
 11
135.0610182662184
 21
170.2210398005064
 31
0.0
  0
LINE
  5
39F
330
2
100
AcDbEntity
  8
AM_0 ( Kontur 0.5 )
100
AcDbLine
 10
121.1900757248634
 20
155.2210398005064
 30
0.0
 11
136.9900757248636
 21
155.2210398005064
 31
0.0
  0
ARC
  5
3A0
330
2
100
AcDbEntity
  8
AM_0 ( Kontur 0.5 )
100
AcDbCircle
 10
128.9900757248636
 20
170.2210398005064
 30
0.0
 40
5.0
100
AcDbArc
 50
180.0
 51
0.0
  0
LINE
  5
3A1
330
2
100
AcDbEntity
  8
AM_0 ( Kontur 0.5 )
100
AcDbLine
 10
121.1900757248634
 20
141.4210398005064
 30
0.0
 11
121.1900757248634
 21
199.2210398005062
 31
0.0
  0
LINE
  5
3A2
330
2
100
AcDbEntity
  8
AM_0 ( Kontur 0.5 )
100
AcDbLine
 10
78.79007572486355
 20
141.4210398005064
 30
0.0
 11
78.79007572486355
 21
199.2210398005062
 31
0.0
  0
LINE
  5
3A3
330
2
100
AcDbEntity
  8
AM_0 ( Kontur 0.5 )
100
AcDbLine
 10
123.9900757248634
 20
170.2210398005064
 30
0.0
 11
123.9900757248634
 21
230.2210398005065
 31
0.0
  0
LINE
  5
3A4
330
2
100
AcDbEntity
  8
AM_0 ( Kontur 0.5 )
100
AcDbLine
 10
75.99007572486354
 20
170.2210398005064
 30
0.0
 11
75.99007572486354
 21
230.2210398005065
 31
0.0
  0
LINE
  5
3A5
330
2
100
AcDbEntity
  8
AM_0 ( Kontur 0.5 )
100
AcDbLine
 10
65.99007572486354
 20
170.2210398005064
 30
0.0
 11
65.99007572486354
 21
230.2210398005065
 31
0.0
  0
LINE
  5
3A6
102
{ACAD_REACTORS
330
482
102
}
330
2
100
AcDbEntity
  8
AM_7 (Mittellinie)
  6
AM_ISO08W050x2
100
AcDbLine
 10
70.99007572486354
 20
158.2210398005063
 30
0.0
 11
70.99007572486354
 21
242.2210398005062
 31
0.0
  0
LINE
  5
3A7
102
{ACAD_REACTORS
330
3EC
102
}
330
2
100
AcDbEntity
  8
AM_0 ( Kontur 0.5 )
100
AcDbLine
 10
59.99007572486354
 20
158.2210398005063
 30
0.0
 11
59.99007572486354
 21
242.2210398005062
 31
0.0
  0
LINE
  5
3A8
102
{ACAD_REACTORS
330
4C4
102
}
330
2
100
AcDbEntity
  8
AM_7 (Mittellinie)
  6
AM_ISO08W050x2
100
AcDbLine
 10
99.99007572486355
 20
137.8332870079754
 30
0.0
 11
99.99007572486355
 21
258.2210398005064
 31
0.0
  0
LINE
  5
3AC
102
{ACAD_REACTORS
330
461
102
}
330
2
100
AcDbEntity
  8
AM_0 ( Kontur 0.5 )
100
AcDbLine
 10
79.49007572486355
 20
140.7210398005064
 30
0.0
 11
120.4900757248634
 21
140.7210398005064
 31
0.0
  0
LINE
  5
3AD
330
2
100
AcDbEntity
  8
AM_0 ( Kontur 0.5 )
100
AcDbLine
 10
78.79007572486355
 20
141.4210398005064
 30
0.0
 11
121.1900757248634
 21
141.4210398005064
 31
0.0
  0
LINE
  5
3AE
102
{ACAD_REACTORS
330
482
330
5B0
102
}
330
2
100
AcDbEntity
  8
AM_7 (Mittellinie)
  6
AM_ISO08W050x2
100
AcDbLine
 10
64.60579675217108
 20
170.2210398005064
 30
0.0
 11
77.07318162914257
 21
170.2210398005064
 31
0.0
  0
LINE
  5
3AF
330
2
100
AcDbEntity
  8
AM_0 ( Kontur 0.5 )
100
AcDbLine
 10
62.99007572486353
 20
155.2210398005064
 30
0.0
 11
78.79007572486355
 21
155.2210398005064
 31
0.0
  0
ARC
  5
3B0
102
{ACAD_REACTORS
330
5B0
102
}
330
2
100
AcDbEntity
  8
AM_0 ( Kontur 0.5 )
100
AcDbCircle
 10
70.99007572486354
 20
170.2210398005064
 30
0.0
 40
5.0
100
AcDbArc
 50
180.0
 51
0.0000000000016284
  0
ARC
  5
3B1
330
2
100
AcDbEntity
  8
AM_0 ( Kontur 0.5 )
100
AcDbCircle
 10
62.99007572486353
 20
158.2210398005063
 30
0.0
 40
3.0
100
AcDbArc
 50
180.0
 51
270.0000000000008
  0
LINE
  5
3B3
102
{ACAD_REACTORS
330
461
102
}
330
2
100
AcDbEntity
  8
AM_0 ( Kontur 0.5 )
100
AcDbLine
 10
78.79007572486355
 20
141.4210398005064
 30
0.0
 11
79.49007572486355
 21
140.7210398005064
 31
0.0
  0
LINE
  5
3B6
330
2
100
AcDbEntity
  8
AM_0 ( Kontur 0.5 )
100
AcDbLine
 10
97.49007572486355
 20
132.9789726393689
 30
0.0
 11
97.49007572486355
 21
140.7210398005064
 31
0.0
  0
LINE
  5
3B7
330
2
100
AcDbEntity
  8
AM_0 ( Kontur 0.5 )
100
AcDbLine
 10
102.3813173535385
 20
133.0260361036381
 30
0.0
 11
102.3813173535385
 21
140.7210398005064
 31
0.0
  0
LINE
  5
3B9
330
2
100
AcDbEntity
  8
AM_0 ( Kontur 0.5 )
100
AcDbLine
 10
120.4900757248634
 20
140.7210398005064
 30
0.0
 11
121.1900757248634
 21
141.4210398005064
 31
0.0
  0
LINE
  5
3BC
102
{ACAD_REACTORS
330
461
330
4C4
102
}
330
2
100
AcDbEntity
  8
AM_0 ( Kontur 0.5 )
100
AcDbLine
 10
79.29007572486355
 20
255.2210398005062
 30
0.0
 11
120.6900757248634
 21
255.2210398005062
 31
0.0
  0
LINE
  5
3BD
102
{ACAD_REACTORS
330
4C4
102
}
330
2
100
AcDbEntity
  8
AM_0 ( Kontur 0.5 )
100
AcDbLine
 10
79.79007572486354
 20
200.2210398005062
 30
0.0
 11
120.1900757248633
 21
200.2210398005062
 31
0.0
  0
LINE
  5
3BE
330
2
100
AcDbEntity
  8
AM_0 ( Kontur 0.5 )
100
AcDbLine
 10
121.1900757248634
 20
201.2210398005062
 30
0.0
 11
78.79007572486355
 21
201.2210398005062
 31
0.0
  0
LINE
  5
3BF
330
2
100
AcDbEntity
  8
AM_0 ( Kontur 0.5 )
100
AcDbLine
 10
78.79007572486355
 20
199.2210398005062
 30
0.0
 11
121.1900757248634
 21
199.2210398005062
 31
0.0
  0
LINE
  5
3C0
330
2
100
AcDbEntity
  8
AM_0 ( Kontur 0.5 )
100
AcDbLine
 10
78.79007572486355
 20
254.7210398005062
 30
0.0
 11
121.1900757248634
 21
254.7210398005062
 31
0.0
  0
ARC
  5
3C1
102
{ACAD_REACTORS
330
40D
102
}
330
2
100
AcDbEntity
  8
AM_0 ( Kontur 0.5 )
100
AcDbCircle
 10
70.99007572486354
 20
230.2210398005065
 30
0.0
 40
5.0
100
AcDbArc
 50
0.0
 51
180.0
  0
LINE
  5
3C2
102
{ACAD_REACTORS
330
42E
102
}
330
2
100
AcDbEntity
  8
AM_0 ( Kontur 0.5 )
100
AcDbLine
 10
78.79007572486355
 20
201.2210398005062
 30
0.0
 11
78.79007572486355
 21
254.7210398005062
 31
0.0
  0
LINE
  5
3C3
330
2
100
AcDbEntity
  8
AM_7 (Mittellinie)
  6
AM_ISO08W050x2
100
AcDbLine
 10
64.60579675217108
 20
230.2210398005065
 30
0.0
 11
77.07318162914257
 21
230.2210398005065
 31
0.0
  0
LINE
  5
3C4
330
2
100
AcDbEntity
  8
AM_0 ( Kontur 0.5 )
100
AcDbLine
 10
78.79007572486354
 20
201.2210398005062
 30
0.0
 11
79.79007572486354
 21
200.2210398005062
 31
0.0
  0
LINE
  5
3C5
330
2
100
AcDbEntity
  8
AM_0 ( Kontur 0.5 )
100
AcDbLine
 10
79.79007572486354
 20
200.2210398005062
 30
0.0
 11
78.79007572486354
 21
199.2210398005062
 31
0.0
  0
LINE
  5
3C6
330
2
100
AcDbEntity
  8
AM_0 ( Kontur 0.5 )
100
AcDbLine
 10
62.99007572486353
 20
245.2210398005063
 30
0.0
 11
78.79007572486355
 21
245.2210398005063
 31
0.0
  0
ARC
  5
3C7
102
{ACAD_REACTORS
330
3EC
102
}
330
2
100
AcDbEntity
  8
AM_0 ( Kontur 0.5 )
100
AcDbCircle
 10
62.99007572486353
 20
242.2210398005062
 30
0.0
 40
3.0
100
AcDbArc
 50
90.0
 51
180.0
  0
LINE
  5
3C8
102
{ACAD_REACTORS
330
42E
330
461
102
}
330
2
100
AcDbEntity
  8
AM_0 ( Kontur 0.5 )
100
AcDbLine
 10
79.29007572486355
 20
255.2210398005062
 30
0.0
 11
78.79007572486355
 21
254.7210398005062
 31
0.0
  0
LINE
  5
3C9
102
{ACAD_REACTORS
330
42E
102
}
330
2
100
AcDbEntity
  8
AM_0 ( Kontur 0.5 )
100
AcDbLine
 10
121.1900757248634
 20
201.2210398005062
 30
0.0
 11
121.1900757248634
 21
254.7210398005062
 31
0.0
  0
LINE
  5
3CA
330
2
100
AcDbEntity
  8
AM_0 ( Kontur 0.5 )
100
AcDbLine
 10
121.1900757248633
 20
201.2210398005062
 30
0.0
 11
120.1900757248633
 21
200.2210398005062
 31
0.0
  0
LINE
  5
3CB
330
2
100
AcDbEntity
  8
AM_0 ( Kontur 0.5 )
100
AcDbLine
 10
120.1900757248633
 20
200.2210398005062
 30
0.0
 11
121.1900757248633
 21
199.2210398005062
 31
0.0
  0
LINE
  5
3CC
330
2
100
AcDbEntity
  8
AM_0 ( Kontur 0.5 )
100
AcDbLine
 10
123.9900757248634
 20
230.2210398005065
 30
0.0
 11
123.9900757248634
 21
208.1442533544785
 31
0.0
  0
LINE
  5
3CD
102
{ACAD_REACTORS
330
42E
102
}
330
2
100
AcDbEntity
  8
AM_0 ( Kontur 0.5 )
100
AcDbLine
 10
120.6900757248634
 20
255.2210398005062
 30
0.0
 11
121.1900757248634
 21
254.7210398005062
 31
0.0
  0
LINE
  5
3CE
330
2
100
AcDbEntity
  8
AM_0 ( Kontur 0.5 )
100
AcDbLine
 10
133.9900757248636
 20
170.2210398005064
 30
0.0
 11
133.9900757248636
 21
230.2210398005065
 31
0.0
  0
LINE
  5
3CF
102
{ACAD_REACTORS
330
3EC
102
}
330
2
100
AcDbEntity
  8
AM_0 ( Kontur 0.5 )
100
AcDbLine
 10
139.9900757248636
 20
158.2210398005063
 30
0.0
 11
139.9900757248636
 21
242.2210398005062
 31
0.0
  0
LINE
  5
3D0
330
2
100
AcDbEntity
  8
AM_7 (Mittellinie)
  6
AM_ISO08W050x2
100
AcDbLine
 10
128.9900757248636
 20
158.2210398005063
 30
0.0
 11
128.9900757248636
 21
220.8258173926604
 31
0.0
  0
ARC
  5
3D1
330
2
100
AcDbEntity
  8
AM_0 ( Kontur 0.5 )
100
AcDbCircle
 10
136.9900757248636
 20
158.2210398005063
 30
0.0
 40
3.0
100
AcDbArc
 50
270.0000000000008
 51
0.0
  0
LINE
  5
3D2
330
2
100
AcDbEntity
  8
AM_7 (Mittellinie)
  6
AM_ISO08W050x2
100
AcDbLine
 10
128.9900757248636
 20
220.8258173926604
 30
0.0
 11
128.9900757248636
 21
242.2210398005062
 31
0.0
  0
LINE
  5
3D3
330
2
100
AcDbEntity
  8
AM_0 ( Kontur 0.5 )
100
AcDbLine
 10
133.9900757248636
 20
230.2210398005065
 30
0.0
 11
133.9900757248636
 21
208.1442533544785
 31
0.0
  0
ARC
  5
3D4
102
{ACAD_REACTORS
330
3EC
102
}
330
2
100
AcDbEntity
  8
AM_0 ( Kontur 0.5 )
100
AcDbCircle
 10
136.9900757248636
 20
242.2210398005062
 30
0.0
 40
3.0
100
AcDbArc
 50
0.0
 51
90.0
  0
DIMENSION
  5
3DD
102
{ACAD_XDICTIONARY
360
3EB
102
}
102
{ACAD_REACTORS
330
3EC
102
}
330
2
100
AcDbEntity
  8
AM_5 ( Bemassung)
100
AcDbDimension
  2
*D4
 10
59.99007572486354
 20
295.754193173328
 30
0.0
 11
99.99007572486357
 21
295.754193173328
 31
0.0
 70
   160
 71
     5
 42
80.00000000000005
  3
AM_DIN$0
100
AcDbAlignedDimension
 13
139.9900757248636
 23
242.2210398005062
 33
0.0
 14
59.99007572486354
 24
242.2210398005062
 34
0.0
100
AcDbRotatedDimension
1001
ACAD_DSTYLE_DIMINSPECT
1070
   396
1000
100%
1070
   395
1000

1070
   394
1070
    33
1070
   393
1070
     0
  0
DIMENSION
  5
3FF
102
{ACAD_XDICTIONARY
360
40C
102
}
102
{ACAD_REACTORS
330
40D
102
}
330
2
100
AcDbEntity
  8
AM_5 ( Bemassung)
100
AcDbDimension
  2
*D5
 10
128.9900757248636
 20
283.5561675420564
 30
0.0
 11
99.99007572486357
 21
283.5561675420564
 31
0.0
 70
   160
 71
     5
 42
58.00000000000006
  3
AM_DIN$0
100
AcDbAlignedDimension
 13
70.99007572486354
 23
230.2210398005065
 33
0.0
 14
128.9900757248636
 24
230.2210398005065
 34
0.0
 50
0.0000000000000114
100
AcDbRotatedDimension
1001
ACAD_DSTYLE_DIMINSPECT
1070
   396
1000
100%
1070
   395
1000

1070
   394
1070
    33
1070
   393
1070
     0
  0
DIMENSION
  5
420
102
{ACAD_XDICTIONARY
360
42D
102
}
102
{ACAD_REACTORS
330
42E
102
}
330
2
100
AcDbEntity
  8
AM_5 ( Bemassung)
100
AcDbDimension
  2
*D6
 10
121.1900757248634
 20
267.2210408005062
 30
0.0
 11
99.99007572486348
 21
270.6059316599878
 31
0.0
 70
    32
  1
%%c <>
 71
     5
 42
42.39999999999983
  3
AM_DIN$0
100
AcDbAlignedDimension
 13
78.79007572486355
 23
254.7210398005062
 33
0.0
 14
121.1900757248634
 24
254.7210398005062
 34
0.0
100
AcDbRotatedDimension
1001
ACAD_DSTYLE_DIMINSPECT
1070
   396
1000
100%
1070
   395
1000

1070
   394
1070
    33
1070
   393
1070
     0
  0
DIMENSION
  5
453
102
{ACAD_XDICTIONARY
360
460
102
}
102
{ACAD_REACTORS
330
461
102
}
330
2
100
AcDbEntity
  8
AM_5 ( Bemassung)
100
AcDbDimension
  2
*D7
 10
15.48269844956726
 20
140.7210398005064
 30
0.0
 11
15.48269844956724
 21
195.8395740535953
 31
0.0
 70
   160
 71
     5
 42
114.4999999999998
  3
AM_DIN$0
100
AcDbAlignedDimension
 13
79.29007572486355
 23
255.2210398005062
 33
0.0
 14
79.49007572486355
 24
140.7210398005064
 34
0.0
 50
90.00000000000003
100
AcDbRotatedDimension
1001
ACAD_DSTYLE_DIMINSPECT
1070
   396
1000
100%
1070
   395
1000

1070
   394
1070
    33
1070
   393
1070
     0
  0
DIMENSION
  5
474
102
{ACAD_XDICTIONARY
360
481
102
}
102
{ACAD_REACTORS
330
482
102
}
330
2
100
AcDbEntity
  8
AM_5 ( Bemassung)
100
AcDbDimension
  2
*D8
 10
26.31523986035257
 20
170.2210398005065
 30
0.0
 11
23.02823440332661
 21
200.2210398005065
 31
0.0
 70
    32
 71
     5
 42
60.0
  3
AM_DIN$0
100
AcDbAlignedDimension
 13
70.99007572486354
 23
230.2210398005065
 33
0.0
 14
70.99007572486354
 24
170.2210398005064
 34
0.0
 50
90.00000000000003
100
AcDbRotatedDimension
1001
ACAD_DSTYLE_DIMINSPECT
1070
   396
1000
100%
1070
   395
1000

1070
   394
1070
    33
1070
   393
1070
     0
  0
DIMENSION
  5
495
330
2
100
AcDbEntity
  8
AM_5 ( Bemassung)
100
AcDbDimension
  2
*D9
 10
26.31979807138283
 20
255.2210398005063
 30
0.0
 11
23.03279261435686
 21
242.7210398005064
 31
0.0
 70
    32
 71
     5
 42
24.99999999999977
  3
AM_DIN$0
100
AcDbAlignedDimension
 13
70.99007572486354
 23
230.2210398005065
 33
0.0
 14
79.29007572486355
 24
255.2210398005062
 34
0.0
 50
90.00000000000003
100
AcDbRotatedDimension
1001
ACAD_DSTYLE_DIMINSPECT
1070
   396
1000
100%
1070
   395
1000

1070
   394
1070
    33
1070
   393
1070
     0
  0
DIMENSION
  5
4B6
102
{ACAD_XDICTIONARY
360
4C3
102
}
102
{ACAD_REACTORS
330
4C4
102
}
330
2
100
AcDbEntity
  8
AM_5 ( Bemassung)
100
AcDbDimension
  2
*D10
 10
154.4925158102198
 20
200.2210398005062
 30
0.0
 11
151.212672699715
 21
227.7210398005063
 31
0.0
 70
    32
 71
     5
 42
55.0
  3
AM_DIN$0
100
AcDbAlignedDimension
 13
99.99007572486355
 23
255.2210398005062
 33
0.0
 14
99.99007572486355
 24
200.2210398005062
 34
0.0
 50
90.00000000000003
100
AcDbRotatedDimension
1001
ACAD_DSTYLE_DIMINSPECT
1070
   396
1000
100%
1070
   395
1000

1070
   394
1070
    33
1070
   393
1070
     0
  0
DIMENSION
  5
54D
330
2
100
AcDbEntity
  8
AM_5 ( Bemassung)
100
AcDbDimension
  2
*D13
 10
43.77737032269476
 20
245.2210398005063
 30
0.0
 11
40.4903648656688
 21
250.2210398005063
 31
0.0
 70
    32
 71
     5
 42
10.0
  3
AM_DIN$0
100
AcDbAlignedDimension
 13
78.79007572486355
 23
255.2210398005062
 33
0.0
 14
70.99007572486354
 24
245.2210398005063
 34
0.0
 50
90.00000000000003
100
AcDbRotatedDimension
1001
ACAD_DSTYLE_DIMINSPECT
1070
   396
1000
100%
1070
   395
1000

1070
   394
1070
    33
1070
   393
1070
     0
  0
LINE
  5
57F
330
2
100
AcDbEntity
  8
AM_3 ( Verdeckt )
  6
AM_ISO02W050x2
100
AcDbLine
 10
89.74662524205291
 20
30.58556862231021
 30
0.0
 11
88.79001897460447
 21
28.12497835794673
 31
0.0
  0
LINE
  5
580
330
2
100
AcDbEntity
  8
AM_3 ( Verdeckt )
  6
AM_ISO02W050x2
100
AcDbLine
 10
90.67866700885723
 20
30.2232177634278
 30
0.0
 11
89.72206074140936
 21
27.76262749906515
 31
0.0
  0
ARC
  5
581
330
2
100
AcDbEntity
  8
AM_3 ( Verdeckt )
  6
AM_ISO02W050x2
100
AcDbCircle
 10
90.41095099637507
 20
25.39496232428208
 30
0.0
 40
1.957142857142819
100
AcDbArc
 50
18.72157235578724
 51
118.7891462681884
  0
LINE
  5
582
330
2
100
AcDbEntity
  8
AM_3 ( Verdeckt )
  6
AM_ISO02W050x2
100
AcDbLine
 10
86.95049994163952
 20
31.67262119895517
 30
0.0
 11
85.99389367419163
 21
29.21203093459245
 31
0.0
  0
LINE
  5
583
330
2
100
AcDbEntity
  8
AM_3 ( Verdeckt )
  6
AM_ISO02W050x2
100
AcDbLine
 10
86.27210377605377
 20
32.6874012946007
 30
0.0
 11
84.80820630617069
 21
28.92195255671135
 31
0.0
  0
ARC
  5
585
330
2
100
AcDbEntity
  8
AM_3 ( Verdeckt )
  6
AM_ISO02W050x2
100
AcDbCircle
 10
99.44846727513633
 20
25.90575435065547
 30
0.0
 40
3.499999999999879
100
AcDbArc
 50
137.755359311986
 51
257.755359311987
  0
LINE
  5
586
330
2
100
AcDbEntity
  8
AM_3 ( Verdeckt )
  6
AM_ISO02W050x2
100
AcDbLine
 10
94.77743641718399
 20
25.04620447140516
 30
0.0
 11
92.26454044060364
 21
26.02314568565616
 31
0.0
  0
LINE
  5
587
330
2
100
AcDbEntity
  8
AM_3 ( Verdeckt )
  6
AM_ISO02W050x2
100
AcDbLine
 10
94.66047967729096
 20
29.4262435646633
 30
0.0
 11
93.19658220740858
 21
25.66079482677462
 31
0.0
  0
ARC
  5
588
330
2
100
AcDbEntity
  8
AM_3 ( Verdeckt )
  6
AM_ISO02W050x2
100
AcDbCircle
 10
86.68278392915802
 20
26.84436575981016
 30
0.0
 40
1.957142857142819
100
AcDbArc
 50
18.72157235578814
 51
118.7891462681888
  0
LINE
  5
589
330
2
100
AcDbEntity
  8
AM_3 ( Verdeckt )
  6
AM_ISO02W050x2
100
AcDbLine
 10
85.74024807297439
 20
28.55960169782945
 30
0.0
 11
84.80820630617069
 21
28.92195255671135
 31
0.0
  0
LINE
  5
58A
330
2
100
AcDbEntity
  8
AM_3 ( Verdeckt )
  6
AM_ISO02W050x2
100
AcDbLine
 10
89.46841514019213
 20
27.11019826230212
 30
0.0
 11
88.53637337338721
 21
27.47254912118374
 31
0.0
  0
LINE
  5
58B
330
2
100
AcDbEntity
  8
AM_3 ( Verdeckt )
  6
AM_ISO02W050x2
100
AcDbLine
 10
95.49939734373966
 20
26.76150805213219
 30
0.0
 11
96.73140900923957
 21
22.91394424420481
 31
0.0
  0
CIRCLE
  5
58C
330
2
100
AcDbEntity
  8
AM_3 ( Verdeckt )
  6
AM_ISO02W050x2
100
AcDbCircle
 10
99.44749117683628
 20
25.9046795482501
 30
0.0
 40
2.0
  0
ARC
  5
58D
330
2
100
AcDbEntity
  8
AM_3 ( Verdeckt )
  6
AM_ISO02W050x2
100
AcDbCircle
 10
99.4465150785369
 20
25.90360474584556
 30
0.0
 40
3.5
100
AcDbArc
 50
17.75535931198753
 51
75.8136266040822
  0
CIRCLE
  5
58E
330
2
100
AcDbEntity
  8
AM_3 ( Verdeckt )
  6
AM_ISO02W050x2
100
AcDbCircle
 10
99.44749117683628
 20
25.9046795482501
 30
0.0
 40
2.0
  0
LINE
  5
58F
330
2
100
AcDbEntity
  8
AM_3 ( Verdeckt )
  6
AM_ISO02W050x2
100
AcDbLine
 10
102.163573344433
 20
28.89541485229545
 30
0.0
 11
98.2154795113364
 21
29.75224335617749
 31
0.0
  0
ARC
  5
590
330
2
100
AcDbEntity
  8
AM_3 ( Verdeckt )
  6
AM_ISO02W050x2
100
AcDbCircle
 10
99.44749117683628
 20
25.9046795482501
 30
0.0
 40
1.5
100
AcDbArc
 50
147.7553593119866
 51
37.75535931198648
  0
ARC
  5
592
330
2
100
AcDbEntity
  8
AM_3 ( Verdeckt )
  6
AM_ISO02W050x2
100
AcDbCircle
 10
99.44935278920937
 20
25.90298889640183
 30
0.0
 40
3.497485262578298
100
AcDbArc
 50
257.755359311987
 51
331.7055319368787
  0
LINE
  5
593
330
2
100
AcDbEntity
  8
AM_3 ( Verdeckt )
  6
AM_ISO02W050x2
100
AcDbLine
 10
103.3965158161194
 20
25.04700571844393
 30
0.0
 11
100.6809216976728
 21
22.05680781560122
 31
0.0
  0
ARC
  5
594
330
2
100
AcDbEntity
  8
AM_3 ( Verdeckt )
  6
AM_ISO02W050x2
100
AcDbCircle
 10
99.44651507853681
 20
25.90360474584564
 30
0.0
 40
3.5
100
AcDbArc
 50
317.7553593119872
 51
17.75535931198753
  0
LINE
  5
595
330
2
100
AcDbEntity
  8
AM_3 ( Verdeckt )
  6
AM_ISO02W050x2
100
AcDbLine
 10
96.73140900923957
 20
22.91394424420481
 30
0.0
 11
100.6809216976728
 21
22.05680781560122
 31
0.0
  0
LINE
  5
596
330
2
100
AcDbEntity
  8
AM_3 ( Verdeckt )
  6
AM_ISO02W050x2
100
AcDbLine
 10
103.3965158161194
 20
25.04700571844393
 30
0.0
 11
102.163573344433
 21
28.89541485229545
 31
0.0
  0
ARC
  5
597
330
2
100
AcDbEntity
  8
AM_3 ( Verdeckt )
  6
AM_ISO02W050x2
100
AcDbCircle
 10
89.0577349870866
 20
32.95323379709245
 30
0.0
 40
1.95714285714287
100
AcDbArc
 50
198.7215723557872
 51
298.7891462681863
  0
ARC
  5
598
330
2
100
AcDbEntity
  8
AM_3 ( Verdeckt )
  6
AM_ISO02W050x2
100
AcDbCircle
 10
99.4465150785369
 20
25.90360474584556
 30
0.0
 40
3.500000000000008
100
AcDbArc
 50
75.81362660408181
 51
137.755359311986
  0
LINE
  5
599
330
2
100
AcDbEntity
  8
AM_3 ( Verdeckt )
  6
AM_ISO02W050x2
100
AcDbLine
 10
93.47479230926996
 20
29.13616518678212
 30
0.0
 11
92.51818604182219
 21
26.6755749224194
 31
0.0
  0
LINE
  5
59A
330
2
100
AcDbEntity
  8
AM_3 ( Verdeckt )
  6
AM_ISO02W050x2
100
AcDbLine
 10
93.72843791048726
 20
29.78859442354507
 30
0.0
 11
97.06777824557883
 21
28.4903555660008
 31
0.0
  0
ARC
  5
59B
330
2
100
AcDbEntity
  8
AM_3 ( Verdeckt )
  6
AM_ISO02W050x2
100
AcDbCircle
 10
93.50283492863743
 20
21.78653611307573
 30
0.0
 40
3.5
100
AcDbArc
 50
32.75535931198631
 51
68.75535931198784
  0
ARC
  5
59C
330
2
100
AcDbEntity
  8
AM_3 ( Verdeckt )
  6
AM_ISO02W050x2
100
AcDbCircle
 10
92.78590205430356
 20
31.50383036156445
 30
0.0
 40
1.957142857142899
100
AcDbArc
 50
198.7215723557872
 51
298.7891462681863
  0
LINE
  5
59D
330
2
100
AcDbEntity
  8
AM_3 ( Verdeckt )
  6
AM_ISO02W050x2
100
AcDbLine
 10
90.00027084327021
 20
31.23799785907313
 30
0.0
 11
90.93231261007444
 21
30.8756470001908
 31
0.0
  0
LINE
  5
59E
330
2
100
AcDbEntity
  8
AM_3 ( Verdeckt )
  6
AM_ISO02W050x2
100
AcDbLine
 10
86.27210377605377
 20
32.6874012946007
 30
0.0
 11
87.20414554285682
 21
32.3250504357181
 31
0.0
  0
LINE
  5
59F
330
2
100
AcDbEntity
  8
AM_3 ( Verdeckt )
  6
AM_ISO02W050x2
100
AcDbLine
 10
98.2154795113364
 20
29.75224335617749
 30
0.0
 11
95.49939734373966
 21
26.76150805213219
 31
0.0
  0
DIMENSION
  5
5A0
102
{ACAD_XDICTIONARY
360
5AF
102
}
102
{ACAD_REACTORS
330
5B0
102
}
330
2
100
AcDbEntity
  8
AM_5 ( Bemassung)
100
AcDbDimension
  2
*D14
 10
75.99007572486354
 20
128.4454224485325
 30
0.0
 11
70.99007572486354
 21
131.7324279055585
 31
0.0
 70
    32
 71
     5
 42
10.0
  3
AM_DIN$0
100
AcDbAlignedDimension
 13
65.99007572486354
 23
170.2210398005064
 33
0.0
 14
75.99007572486354
 24
170.2210398005064
 34
0.0
 50
0.0000000000001132
100
AcDbRotatedDimension
1001
ACAD_DSTYLE_DIMINSPECT
1070
   396
1000
100%
1070
   395
1000

1070
   394
1070
    33
1070
   393
1070
     0
  0
DIMENSION
  5
5C7
102
{ACAD_XDICTIONARY
360
5D6
102
}
102
{ACAD_REACTORS
330
5D7
102
}
330
2
100
AcDbEntity
  8
AM_5 ( Bemassung)
100
AcDbDimension
  2
*D15
 10
151.4082043627252
 20
60.83491187883338
 30
0.0
 11
148.120005181279
 21
50.18893643545006
 31
0.0
 70
    32
 71
     5
 42
3.000000000000007
  3
AM_DIN$0
100
AcDbAlignedDimension
 13
139.4082033627252
 23
63.8349118788334
 33
0.0
 14
139.4082033627252
 24
60.83491187883339
 34
0.0
 50
90.0
100
AcDbRotatedDimension
1001
ACAD_DSTYLE_DIMINSPECT
1070
   396
1000
100%
1070
   395
1000

1070
   394
1070
    33
1070
   393
1070
     0
  0
DIMENSION
  5
5EE
102
{ACAD_XDICTIONARY
360
5FB
102
}
102
{ACAD_REACTORS
330
5FC
102
}
330
2
100
AcDbEntity
  8
AM_5 ( Bemassung)
100
AcDbDimension
  2
*D16
 10
47.40820236272516
 20
18.43491187883341
 30
0.0
 11
44.12835925222037
 21
41.13491187883342
 31
0.0
 70
    32
 71
     5
 42
45.39999999999999
  3
AM_DIN$0
100
AcDbAlignedDimension
 13
99.40820336272516
 23
63.8349118788334
 33
0.0
 14
99.40820336272516
 24
18.4349118788334
 34
0.0
 50
90.0
100
AcDbRotatedDimension
1001
ACAD_DSTYLE_DIMINSPECT
1070
   396
1000
100%
1070
   395
1000

1070
   394
1070
    33
1070
   393
1070
     0
  0
LINE
  5
65E
330
2
100
AcDbEntity
  8
AM_7 (Mittellinie)
  6
AM_ISO08W050x2
100
AcDbLine
 10
78.79007572486354
 20
200.2210398005062
 30
0.0
 11
121.1900757248633
 21
200.2210398005062
 31
0.0
1001
GENIUS_GENODEF_13
1002
{
1000
HIER
1070
     0
1002
}
1002
{
1000
MANEDIT
1070
     0
1002
}
1002
{
1000
NOSEL
1070
     0
1002
}
1002
{
1000
BEHIND
1070
     0
1002
}
1002
{
1000
OTHER
1070
     0
1002
}
1002
{
1000
REACTOR
1002
}
1001
GENIUS_GENOBJ-N-CEN_13
1002
{
1000
OWNER
1000
GEN
1002
}
1001
GENIUS_GENCEN_19
1002
{
1040
0.0
1002
}
  0
ENDSEC
  0
SECTION
  2
OBJECTS
  0
DICTIONARY
  5
1A
330
0
100
AcDbDictionary
281
     1
  3
ACAD_2007HEADERVARS_RT
350
8AE
  3
ACAD_COLOR
350
193
  3
ACAD_GROUP
350
18
  3
ACAD_LAYOUT
350
123
  3
ACAD_MATERIAL
350
192
  3
ACAD_MLEADERSTYLE
350
232
  3
ACAD_MLINESTYLE
350
19
  3
ACAD_PLOTSETTINGS
350
124
  3
ACAD_PLOTSTYLENAME
350
190
  3
ACAD_SCALELIST
350
210
  3
ACAD_TABLESTYLE
350
194
  3
ACAD_VISUALSTYLE
350
1FF
  3
ACDB_RECOMPOSE_DATA
350
8AD
  3
AcDbVariableDictionary
350
1DB
  3
AcmDictionary
350
292
  3
AMG
350
238
  3
AMGSNAPSETTINGS
350
385
1001
ACAD
1000
TREAT_AS_HARD
1070
     0
1000
TREAT_AS_HARD
1070
     0
  0
DICTIONARY
  5
390
330
A
100
AcDbDictionary
280
     1
281
     1
  3
AMLAYER_GROUPCOLORS
360
391
  0
DICTIONARY
  5
89F
330
4
100
AcDbDictionary
280
     1
281
     1
  3
ADSK_XREC_LAYER_RECONCILED
360
8A0
  0
DICTIONARY
  5
8A1
330
38F
100
AcDbDictionary
280
     1
281
     1
  3
ADSK_XREC_LAYER_RECONCILED
360
8A2
  0
DICTIONARY
  5
8A3
330
3D6
100
AcDbDictionary
280
     1
281
     1
  3
ADSK_XREC_LAYER_RECONCILED
360
8A4
  0
DICTIONARY
  5
8A5
330
3D8
100
AcDbDictionary
280
     1
281
     1
  3
ADSK_XREC_LAYER_RECONCILED
360
8A6
  0
DICTIONARY
  5
8A7
330
3DA
100
AcDbDictionary
280
     1
281
     1
  3
ADSK_XREC_LAYER_RECONCILED
360
8A8
  0
DICTIONARY
  5
17E
330
2
100
AcDbDictionary
281
     1
  3
ACAD_LAYOUTSELFREF
350
18C
  3
ACAD_SORTENTS
350
3D5
1001
ACAD
1000
TREAT_AS_HARD
1070
     0
  0
DICTIONARY
  5
180
330
7
100
AcDbDictionary
281
     1
  3
ACAD_LAYOUTSELFREF
350
18D
1001
ACAD
1000
TREAT_AS_HARD
1070
     0
  0
DICTIONARY
  5
3EB
330
3DD
100
AcDbDictionary
280
     1
281
     1
  3
ACAD_DIMASSOC
360
3EC
  0
DICTIONARY
  5
40C
330
3FF
100
AcDbDictionary
280
     1
281
     1
  3
ACAD_DIMASSOC
360
40D
  0
DICTIONARY
  5
42D
330
420
100
AcDbDictionary
280
     1
281
     1
  3
ACAD_DIMASSOC
360
42E
  0
DICTIONARY
  5
460
330
453
100
AcDbDictionary
280
     1
281
     1
  3
ACAD_DIMASSOC
360
461
  0
DICTIONARY
  5
481
330
474
100
AcDbDictionary
280
     1
281
     1
  3
ACAD_DIMASSOC
360
482
  0
DICTIONARY
  5
4C3
330
4B6
100
AcDbDictionary
280
     1
281
     1
  3
ACAD_DIMASSOC
360
4C4
  0
DICTIONARY
  5
5AF
330
5A0
100
AcDbDictionary
280
     1
281
     1
  3
ACAD_DIMASSOC
360
5B0
  0
DICTIONARY
  5
5D6
330
5C7
100
AcDbDictionary
280
     1
281
     1
  3
ACAD_DIMASSOC
360
5D7
  0
DICTIONARY
  5
5FB
330
5EE
100
AcDbDictionary
280
     1
281
     1
  3
ACAD_DIMASSOC
360
5FC
  0
DICTIONARY
  5
8AE
102
{ACAD_REACTORS
330
1A
102
}
330
1A
100
AcDbDictionary
281
     1
  3
DIMJOGANG
350
8AF
  0
DICTIONARY
  5
193
102
{ACAD_REACTORS
330
1A
102
}
330
1A
100
AcDbDictionary
281
     1
  0
DICTIONARY
  5
18
102
{ACAD_REACTORS
330
1A
102
}
330
1A
100
AcDbDictionary
281
     1
1001
ACAD
1000
TREAT_AS_HARD
1070
     0
1000
TREAT_AS_HARD
1070
     0
  0
DICTIONARY
  5
123
102
{ACAD_REACTORS
330
1A
102
}
330
1A
100
AcDbDictionary
281
     1
  3
Layout1
350
197
  3
Model
350
196
1001
ACAD
1000
TREAT_AS_HARD
1070
     0
1000
TREAT_AS_HARD
1070
     0
  0
DICTIONARY
  5
192
102
{ACAD_REACTORS
330
1A
102
}
330
1A
100
AcDbDictionary
281
     1
  3
ByBlock
350
1EF
  3
ByLayer
350
1E7
  3
Global
350
1F7
  0
DICTIONARY
  5
232
102
{ACAD_REACTORS
330
1A
102
}
330
1A
100
AcDbDictionary
281
     1
  3
Standard
350
233
  0
DICTIONARY
  5
19
102
{ACAD_REACTORS
330
1A
102
}
330
1A
100
AcDbDictionary
281
     1
  3
STANDARD
350
1D
1001
ACAD
1000
TREAT_AS_HARD
1070
     0
1000
TREAT_AS_HARD
1070
     0
  0
DICTIONARY
  5
124
102
{ACAD_REACTORS
330
1A
102
}
330
1A
100
AcDbDictionary
281
     1
1001
ACAD
1000
TREAT_AS_HARD
1070
     0
1000
TREAT_AS_HARD
1070
     0
  0
ACDBDICTIONARYWDFLT
  5
190
102
{ACAD_REACTORS
330
1A
102
}
330
1A
100
AcDbDictionary
281
     1
  3
Normal
350
191
100
AcDbDictionaryWithDefault
340
191
  0
DICTIONARY
  5
210
102
{ACAD_REACTORS
330
1A
102
}
330
1A
100
AcDbDictionary
281
     1
  3
A0
350
211
  3
A1
350
212
  3
A2
350
213
  3
A3
350
214
  3
A4
350
215
  3
A5
350
216
  3
A6
350
217
  3
A7
350
218
  3
A8
350
219
  3
A9
350
21A
  3
B0
350
21B
  3
B1
350
21C
  3
B2
350
21D
  3
B3
350
21E
  3
B4
350
21F
  3
B5
350
220
  3
B6
350
221
  3
B7
350
222
  3
B8
350
223
  3
B9
350
224
  3
C0
350
225
  3
C1
350
226
  3
C2
350
227
  3
C3
350
228
  3
C4
350
229
  3
C5
350
22A
  3
C6
350
22B
  3
C7
350
22C
  3
C8
350
22D
  3
C9
350
22E
  3
D0
350
22F
  3
D1
350
230
  3
D2
350
231
  0
DICTIONARY
  5
194
102
{ACAD_REACTORS
330
1A
102
}
330
1A
100
AcDbDictionary
281
     1
  3
Standard
350
195
  0
DICTIONARY
  5
1FF
102
{ACAD_REACTORS
330
1A
102
}
330
1A
100
AcDbDictionary
281
     1
  3
2dWireframe
350
205
  3
3D Hidden
350
207
  3
3dWireframe
350
206
  3
Basic
350
204
  3
Brighten
350
20B
  3
ColorChange
350
20F
  3
Conceptual
350
208
  3
Dim
350
20A
  3
Facepattern
350
20E
  3
Flat
350
200
  3
FlatWithEdges
350
201
  3
Gouraud
350
202
  3
GouraudWithEdges
350
203
  3
Linepattern
350
20D
  3
Realistic
350
209
  3
Thicken
350
20C
  0
XRECORD
  5
8AD
102
{ACAD_REACTORS
330
1A
102
}
330
1A
100
AcDbXrecord
280
     1
 90
        1
330
195
  0
DICTIONARY
  5
1DB
102
{ACAD_REACTORS
330
1A
102
}
330
1A
100
AcDbDictionary
281
     1
  3
CANNOSCALE
350
8AA
  3
CMLEADERSTYLE
350
8A9
  3
CTABLESTYLE
350
1DC
  3
DIMASSOC
350
1DD
  3
PROJECTNAME
350
1DE
  0
DICTIONARY
  5
292
102
{ACAD_REACTORS
330
1A
102
}
330
1A
100
AcDbDictionary
281
     1
  3
AcmStdDictionary
350
29F
  3
AMDTSECTSYM_ARROWCOLOR
350
2B4
  0
DICTIONARY
  5
238
102
{ACAD_REACTORS
330
1A
102
}
330
1A
100
AcDbDictionary
281
     1
  0
DICTIONARY
  5
385
102
{ACAD_REACTORS
330
1A
102
}
330
1A
100
AcDbDictionary
281
     1
  0
DICTIONARY
  5
391
102
{ACAD_REACTORS
330
390
102
}
330
390
100
AcDbDictionary
280
     1
281
     1
  0
XRECORD
  5
8A0
102
{ACAD_REACTORS
330
89F
102
}
330
89F
100
AcDbXrecord
280
     1
290
     1
  0
XRECORD
  5
8A2
102
{ACAD_REACTORS
330
8A1
102
}
330
8A1
100
AcDbXrecord
280
     1
290
     1
  0
XRECORD
  5
8A4
102
{ACAD_REACTORS
330
8A3
102
}
330
8A3
100
AcDbXrecord
280
     1
290
     1
  0
XRECORD
  5
8A6
102
{ACAD_REACTORS
330
8A5
102
}
330
8A5
100
AcDbXrecord
280
     1
290
     1
  0
XRECORD
  5
8A8
102
{ACAD_REACTORS
330
8A7
102
}
330
8A7
100
AcDbXrecord
280
     1
290
     1
  0
XRECORD
  5
18C
102
{ACAD_REACTORS
330
17E
102
}
330
17E
100
AcDbXrecord
280
     1
340
2
  0
SORTENTSTABLE
  5
3D5
102
{ACAD_REACTORS
330
17E
102
}
330
17E
100
AcDbSortentsTable
330
2
331
3B9
  5
3BA
331
3CA
  5
3CB
331
3A8
  5
3A7
331
A1
  5
A1
331
8E
  5
8E
331
6C
  5
6C
331
7D
  5
7D
331
5B
  5
5B
331
4A
  5
4A
331
495
  5
4D7
331
3C8
  5
3C9
331
3A6
  5
3A5
331
9F
  5
9F
331
8C
  5
8C
331
6A
  5
6A
331
7B
  5
7B
331
59
  5
59
331
48
  5
48
331
3F
  5
3F
331
3C6
  5
3C7
331
3A4
  5
3A3
331
9D
  5
9D
331
8A
  5
8A
331
68
  5
68
331
79
  5
79
331
57
  5
57
331
46
  5
46
331
DE
  5
DE
331
3D
  5
3D
331
3C4
  5
3C5
331
3A2
  5
3A1
331
9B
  5
9B
331
88
  5
88
331
66
  5
66
331
77
  5
77
331
55
  5
55
331
44
  5
44
331
DC
  5
DC
331
3B
  5
3B
331
3B1
  5
3B0
331
3D3
  5
3DD
331
453
  5
495
331
3C2
  5
3C3
331
3A0
  5
39F
331
99
  5
99
331
86
  5
86
331
64
  5
64
331
420
  5
474
331
97
  5
97
331
75
  5
75
331
53
  5
53
331
42
  5
42
331
39
  5
39
331
3D1
  5
3D2
331
3C0
  5
3C1
331
39E
  5
39D
331
84
  5
84
331
62
  5
62
331
3AF
  5
3AE
331
95
  5
95
331
73
  5
73
331
51
  5
51
331
40
  5
40
331
3BE
  5
3BF
331
39C
  5
39B
331
82
  5
82
331
60
  5
60
331
93
  5
93
331
71
  5
71
331
4F
  5
4F
331
3CF
  5
3D0
331
3AD
  5
3AC
331
35
  5
35
331
3BC
  5
3BD
331
39A
  5
399
331
80
  5
80
331
3CD
  5
3CE
331
91
  5
91
331
6F
  5
6F
331
5E
  5
5E
331
4D
  5
4D
331
3CB
  5
3CC
331
A2
  5
A2
331
8F
  5
8F
331
6D
  5
6D
331
7E
  5
7E
331
5C
  5
5C
331
4B
  5
4B
331
3C9
  5
3CA
331
3A7
  5
3A6
331
A0
  5
A0
331
8D
  5
8D
331
6B
  5
6B
331
7C
  5
7C
331
5A
  5
5A
331
49
  5
49
331
4B6
  5
502
331
3C7
  5
3C8
331
3A5
  5
3A4
331
9E
  5
9E
331
8B
  5
8B
331
69
  5
69
331
7A
  5
7A
331
58
  5
58
331
47
  5
47
331
3E
  5
3E
331
3C5
  5
3C6
331
3A3
  5
3A2
331
9C
  5
9C
331
89
  5
89
331
67
  5
67
331
78
  5
78
331
56
  5
56
331
45
  5
45
331
DD
  5
DD
331
3C
  5
3C
331
3D4
  5
3FF
331
9A
  5
9A
331
87
  5
87
331
65
  5
65
331
43
  5
43
331
3C3
  5
3C4
331
3A1
  5
3A0
331
76
  5
76
331
54
  5
54
331
3A
  5
3A
331
2B
  5
2B
331
3B0
  5
3AF
331
3D2
  5
3D3
331
98
  5
98
331
85
  5
85
331
63
  5
63
331
41
  5
41
331
474
  5
4B6
331
3C1
  5
3C2
331
39F
  5
39E
331
96
  5
96
331
74
  5
74
331
52
  5
52
331
29
  5
29
331
3D0
  5
3D1
331
3BF
  5
3C0
331
39D
  5
39C
331
83
  5
83
331
61
  5
61
331
3AE
  5
3AD
331
94
  5
94
331
72
  5
72
331
50
  5
50
331
3BD
  5
3BE
331
39B
  5
39A
331
81
  5
81
331
3CE
  5
3CF
331
3AC
  5
3AB
331
92
  5
92
331
70
  5
70
331
5F
  5
5F
331
4E
  5
4E
331
399
  5
398
331
3DD
  5
420
331
3FF
  5
453
331
3CC
  5
3CD
331
A3
  5
A3
331
90
  5
90
331
6E
  5
6E
331
7F
  5
7F
331
5D
  5
5D
331
4C
  5
4C
  0
XRECORD
  5
18D
102
{ACAD_REACTORS
330
180
102
}
330
180
100
AcDbXrecord
280
     1
340
7
  0
DIMASSOC
  5
3EC
102
{ACAD_REACTORS
330
3EB
102
}
330
3EB
100
AcDbDimAssoc
330
3DD
 90
        3
 70
     0
 71
     0
  1
AcDbOsnapPointRef
 72
    11
331
3CF
 73
     0
 91
        0
 40
1.0
 10
0.0
 20
0.0
 30
0.0
332
3D4
 74
     0
 92
        0
 75
     0
  1
AcDbOsnapPointRef
 72
    11
331
3A7
 73
     0
 91
        0
 40
1.0
 10
0.0
 20
0.0
 30
0.0
332
3C7
 74
     0
 92
        0
 75
     0
  0
DIMASSOC
  5
40D
102
{ACAD_REACTORS
330
40C
102
}
330
40C
100
AcDbDimAssoc
330
3FF
 90
        3
 70
     0
 71
     0
  1
AcDbOsnapPointRef
 72
     3
331
3C1
 73
     0
 91
        0
 40
0.0
 10
0.0
 20
0.0
 30
0.0
 75
     0
  1
AcDbOsnapPointRef
 72
     3
331
39B
 73
     0
 91
        0
 40
0.0
 10
0.0
 20
0.0
 30
0.0
 75
     0
  0
DIMASSOC
  5
42E
102
{ACAD_REACTORS
330
42D
102
}
330
42D
100
AcDbDimAssoc
330
420
 90
        3
 70
     0
 71
     0
  1
AcDbOsnapPointRef
 72
    11
331
3C2
 73
     0
 91
        0
 40
1.0
 10
0.0
 20
0.0
 30
0.0
332
3C8
 74
     0
 92
        0
 75
     0
  1
AcDbOsnapPointRef
 72
    11
331
3C9
 73
     0
 91
        0
 40
1.0
 10
0.0
 20
0.0
 30
0.0
332
3CD
 74
     0
 92
        0
 75
     0
  0
DIMASSOC
  5
461
102
{ACAD_REACTORS
330
460
102
}
330
460
100
AcDbDimAssoc
330
453
 90
        3
 70
     0
 71
     0
  1
AcDbOsnapPointRef
 72
    11
331
3BC
 73
     0
 91
        0
 40
0.0
 10
0.0
 20
0.0
 30
0.0
332
3C8
 74
     0
 92
        0
 75
     0
  1
AcDbOsnapPointRef
 72
    11
331
3AC
 73
     0
 91
        0
 40
0.0
 10
0.0
 20
0.0
 30
0.0
332
3B3
 74
     0
 92
        0
 75
     0
  0
DIMASSOC
  5
482
102
{ACAD_REACTORS
330
481
102
}
330
481
100
AcDbDimAssoc
330
474
 90
        2
 70
     0
 71
     0
  1
AcDbOsnapPointRef
 72
    11
331
3A6
 73
     0
 91
        0
 40
0.1428571428571452
 10
0.0
 20
0.0
 30
0.0
332
3AE
 74
     0
 92
        0
 75
     0
  0
DIMASSOC
  5
4C4
102
{ACAD_REACTORS
330
4C3
102
}
330
4C3
100
AcDbDimAssoc
330
4B6
 90
        3
 70
     0
 71
     0
  1
AcDbOsnapPointRef
 72
    11
331
3A8
 73
     0
 91
        0
 40
0.9750805216443389
 10
0.0
 20
0.0
 30
0.0
332
3BC
 74
     0
 92
        0
 75
     0
  1
AcDbOsnapPointRef
 72
    11
331
3A8
 73
     0
 91
        0
 40
0.5182234184572434
 10
0.0
 20
0.0
 30
0.0
332
3BD
 74
     0
 92
        0
 75
     0
  0
DIMASSOC
  5
5B0
102
{ACAD_REACTORS
330
5AF
102
}
330
5AF
100
AcDbDimAssoc
330
5A0
 90
        2
 70
     0
 71
     0
  1
AcDbOsnapPointRef
 72
    11
331
3B0
 73
     0
 91
        0
 40
6.283185307179586
 10
0.0
 20
0.0
 30
0.0
332
3AE
 74
     0
 92
        0
 75
     0
  0
DIMASSOC
  5
5D7
102
{ACAD_REACTORS
330
5D6
102
}
330
5D6
100
AcDbDimAssoc
330
5C7
 90
        3
 70
     0
 71
     0
  1
AcDbOsnapPointRef
 72
    11
331
29
 73
     0
 91
        0
 40
1.0
 10
0.0
 20
0.0
 30
0.0
332
DC
 74
     0
 92
        0
 75
     0
  1
AcDbOsnapPointRef
 72
    11
331
2B
 73
     0
 91
        0
 40
1.0
 10
0.0
 20
0.0
 30
0.0
332
DC
 74
     0
 92
        0
 75
     0
  0
DIMASSOC
  5
5FC
102
{ACAD_REACTORS
330
5FB
102
}
330
5FB
100
AcDbDimAssoc
330
5EE
 90
        3
 70
     0
 71
     0
  1
AcDbOsnapPointRef
 72
    11
331
29
 73
     0
 91
        0
 40
0.4999999999999998
 10
0.0
 20
0.0
 30
0.0
332
3C
 74
     0
 92
        0
 75
     0
  1
AcDbOsnapPointRef
 72
    11
331
3C
 73
     0
 91
        0
 40
0.0789331959379032
 10
0.0
 20
0.0
 30
0.0
332
4A
 74
     0
 92
        0
 75
     0
  0
XRECORD
  5
8AF
102
{ACAD_REACTORS
330
8AE
102
}
330
8AE
100
AcDbXrecord
280
     1
 40
1.570796326794896
  0
LAYOUT
  5
197
102
{ACAD_REACTORS
330
123
102
}
330
123
100
AcDbPlotSettings
  1

  2
\\OASE42\HP DesignJet 500 42+HPGL2 Card
  4

  6

 40
0.0
 41
0.0
 42
0.0
 43
0.0
 44
0.0
 45
0.0
 46
0.0
 47
0.0
 48
0.0
 49
0.0
140
0.0
141
0.0
142
1.0
143
1.0
 70
   688
 72
     0
 73
     0
 74
     5
  7
Kein
 75
    16
147
1.0
 76
     0
 77
     2
 78
   300
148
0.0
149
0.0
100
AcDbLayout
  1
Layout1
 70
     1
 71
     1
 10
0.0
 20
0.0
 11
420.0
 21
297.0
 12
0.0
 22
0.0
 32
0.0
 14
1.000000000000000E+20
 24
1.000000000000000E+20
 34
1.000000000000000E+20
 15
-1.000000000000000E+20
 25
-1.000000000000000E+20
 35
-1.000000000000000E+20
146
0.0
 13
0.0
 23
0.0
 33
0.0
 16
1.0
 26
0.0
 36
0.0
 17
0.0
 27
1.0
 37
0.0
 76
     0
330
7
  0
LAYOUT
  5
196
102
{ACAD_REACTORS
330
123
102
}
330
123
100
AcDbPlotSettings
  1

  2
\\OASE42\HP DesignJet 500 42+HPGL2 Card
  4

  6

 40
0.0
 41
0.0
 42
0.0
 43
0.0
 44
0.0
 45
0.0
 46
0.0
 47
0.0
 48
0.0
 49
0.0
140
0.0
141
0.0
142
1.0
143
1.0
 70
  1712
 72
     0
 73
     0
 74
     0
  7
Kein
 75
     0
147
1.0
 76
     0
 77
     2
 78
   300
148
0.0
149
0.0
100
AcDbLayout
  1
Model
 70
     1
 71
     0
 10
0.0
 20
0.0
 11
12.0
 21
9.0
 12
0.0
 22
0.0
 32
0.0
 14
0.0
 24
0.0
 34
0.0
 15
0.0
 25
0.0
 35
0.0
146
0.0
 13
0.0
 23
0.0
 33
0.0
 16
1.0
 26
0.0
 36
0.0
 17
0.0
 27
1.0
 37
0.0
 76
     0
330
2
331
1DF
  0
MATERIAL
  5
1EF
102
{ACAD_XDICTIONARY
360
1F0
102
}
102
{ACAD_REACTORS
330
192
102
}
330
192
100
AcDbMaterial
  1
ByBlock
 72
     0
 43
0.0208333333333333
 43
0.0
 43
0.0
 43
0.0
 43
0.0
 43
0.0208333333333333
 43
0.0
 43
0.0
 43
0.0
 43
0.0
 43
1.0
 43
0.0
 43
0.0
 43
0.0
 43
0.0
 43
1.0
 77
     0
 47
0.0208333333333333
 47
0.0
 47
0.0
 47
0.0
 47
0.0
 47
0.0208333333333333
 47
0.0
 47
0.0
 47
0.0
 47
0.0
 47
1.0
 47
0.0
 47
0.0
 47
0.0
 47
0.0
 47
1.0
171
     0
 49
0.0208333333333333
 49
0.0
 49
0.0
 49
0.0
 49
0.0
 49
0.0208333333333333
 49
0.0
 49
0.0
 49
0.0
 49
0.0
 49
1.0
 49
0.0
 49
0.0
 49
0.0
 49
0.0
 49
1.0
175
     0
142
0.0208333333333333
142
0.0
142
0.0
142
0.0
142
0.0
142
0.0208333333333333
142
0.0
142
0.0
142
0.0
142
0.0
142
1.0
142
0.0
142
0.0
142
0.0
142
0.0
142
1.0
179
     0
144
0.0208333333333333
144
0.0
144
0.0
144
0.0
144
0.0
144
0.0208333333333333
144
0.0
144
0.0
144
0.0
144
0.0
144
1.0
144
0.0
144
0.0
144
0.0
144
0.0
144
1.0
147
0.0208333333333333
147
0.0
147
0.0
147
0.0
147
0.0
147
0.0208333333333333
147
0.0
147
0.0
147
0.0
147
0.0
147
1.0
147
0.0
147
0.0
147
0.0
147
0.0
147
1.0
  0
MATERIAL
  5
1E7
102
{ACAD_XDICTIONARY
360
1E8
102
}
102
{ACAD_REACTORS
330
192
102
}
330
192
100
AcDbMaterial
  1
ByLayer
 72
     0
 43
0.0208333333333333
 43
0.0
 43
0.0
 43
0.0
 43
0.0
 43
0.0208333333333333
 43
0.0
 43
0.0
 43
0.0
 43
0.0
 43
1.0
 43
0.0
 43
0.0
 43
0.0
 43
0.0
 43
1.0
 77
     0
 47
0.0208333333333333
 47
0.0
 47
0.0
 47
0.0
 47
0.0
 47
0.0208333333333333
 47
0.0
 47
0.0
 47
0.0
 47
0.0
 47
1.0
 47
0.0
 47
0.0
 47
0.0
 47
0.0
 47
1.0
171
     0
 49
0.0208333333333333
 49
0.0
 49
0.0
 49
0.0
 49
0.0
 49
0.0208333333333333
 49
0.0
 49
0.0
 49
0.0
 49
0.0
 49
1.0
 49
0.0
 49
0.0
 49
0.0
 49
0.0
 49
1.0
175
     0
142
0.0208333333333333
142
0.0
142
0.0
142
0.0
142
0.0
142
0.0208333333333333
142
0.0
142
0.0
142
0.0
142
0.0
142
1.0
142
0.0
142
0.0
142
0.0
142
0.0
142
1.0
179
     0
144
0.0208333333333333
144
0.0
144
0.0
144
0.0
144
0.0
144
0.0208333333333333
144
0.0
144
0.0
144
0.0
144
0.0
144
1.0
144
0.0
144
0.0
144
0.0
144
0.0
144
1.0
147
0.0208333333333333
147
0.0
147
0.0
147
0.0
147
0.0
147
0.0208333333333333
147
0.0
147
0.0
147
0.0
147
0.0
147
1.0
147
0.0
147
0.0
147
0.0
147
0.0
147
1.0
  0
MATERIAL
  5
1F7
102
{ACAD_XDICTIONARY
360
1F8
102
}
102
{ACAD_REACTORS
330
192
102
}
330
192
100
AcDbMaterial
  1
Global
 72
     0
 43
0.0208333333333333
 43
0.0
 43
0.0
 43
0.0
 43
0.0
 43
0.0208333333333333
 43
0.0
 43
0.0
 43
0.0
 43
0.0
 43
1.0
 43
0.0
 43
0.0
 43
0.0
 43
0.0
 43
1.0
 77
     0
 47
0.0208333333333333
 47
0.0
 47
0.0
 47
0.0
 47
0.0
 47
0.0208333333333333
 47
0.0
 47
0.0
 47
0.0
 47
0.0
 47
1.0
 47
0.0
 47
0.0
 47
0.0
 47
0.0
 47
1.0
171
     0
 49
0.0208333333333333
 49
0.0
 49
0.0
 49
0.0
 49
0.0
 49
0.0208333333333333
 49
0.0
 49
0.0
 49
0.0
 49
0.0
 49
1.0
 49
0.0
 49
0.0
 49
0.0
 49
0.0
 49
1.0
175
     0
142
0.0208333333333333
142
0.0
142
0.0
142
0.0
142
0.0
142
0.0208333333333333
142
0.0
142
0.0
142
0.0
142
0.0
142
1.0
142
0.0
142
0.0
142
0.0
142
0.0
142
1.0
179
     0
144
0.0208333333333333
144
0.0
144
0.0
144
0.0
144
0.0
144
0.0208333333333333
144
0.0
144
0.0
144
0.0
144
0.0
144
1.0
144
0.0
144
0.0
144
0.0
144
0.0
144
1.0
147
0.0208333333333333
147
0.0
147
0.0
147
0.0
147
0.0
147
0.0208333333333333
147
0.0
147
0.0
147
0.0
147
0.0
147
1.0
147
0.0
147
0.0
147
0.0
147
0.0
147
1.0
  0
MLEADERSTYLE
  5
233
102
{ACAD_REACTORS
330
232
102
}
330
232
100
AcDbMLeaderStyle
170
     2
171
     1
172
     0
 90
        2
 40
0.0
 41
0.0
173
     1
 91
-1056964608
340
E
 92
       -2
290
     1
 42
0.09
291
     1
 43
0.36
  3
Standard
 44
0.18
300

342
C
174
     1
178
     6
175
     1
176
     0
 93
-1056964608
 45
0.18
292
     0
297
     0
 46
0.18
 94
-1056964608
 47
1.0
 49
1.0
140
1.0
293
     1
141
0.0
294
     1
177
     0
142
1.0
295
     0
296
     0
143
0.125
1001
ACAD_MLEADERVER
1070
     2
  0
MLINESTYLE
  5
1D
102
{ACAD_REACTORS
330
19
102
}
330
19
100
AcDbMlineStyle
  2
STANDARD
 70
     0
  3

 62
   256
 51
90.0
 52
90.0
 71
     2
 49
0.5
 62
   256
  6
BYLAYER
 49
-0.5
 62
   256
  6
BYLAYER
  0
ACDBPLACEHOLDER
  5
191
102
{ACAD_REACTORS
330
190
102
}
330
190
  0
SCALE
  5
211
102
{ACAD_REACTORS
330
210
102
}
330
210
100
AcDbScale
 70
     0
300
1:1
140
1.0
141
1.0
290
     1
  0
SCALE
  5
212
102
{ACAD_REACTORS
330
210
102
}
330
210
100
AcDbScale
 70
     0
300
1:2
140
1.0
141
2.0
290
     0
  0
SCALE
  5
213
102
{ACAD_REACTORS
330
210
102
}
330
210
100
AcDbScale
 70
     0
300
1:4
140
1.0
141
4.0
290
     0
  0
SCALE
  5
214
102
{ACAD_REACTORS
330
210
102
}
330
210
100
AcDbScale
 70
     0
300
1:5
140
1.0
141
5.0
290
     0
  0
SCALE
  5
215
102
{ACAD_REACTORS
330
210
102
}
330
210
100
AcDbScale
 70
     0
300
1:8
140
1.0
141
8.0
290
     0
  0
SCALE
  5
216
102
{ACAD_REACTORS
330
210
102
}
330
210
100
AcDbScale
 70
     0
300
1:10
140
1.0
141
10.0
290
     0
  0
SCALE
  5
217
102
{ACAD_REACTORS
330
210
102
}
330
210
100
AcDbScale
 70
     0
300
1:16
140
1.0
141
16.0
290
     0
  0
SCALE
  5
218
102
{ACAD_REACTORS
330
210
102
}
330
210
100
AcDbScale
 70
     0
300
1:20
140
1.0
141
20.0
290
     0
  0
SCALE
  5
219
102
{ACAD_REACTORS
330
210
102
}
330
210
100
AcDbScale
 70
     0
300
1:30
140
1.0
141
30.0
290
     0
  0
SCALE
  5
21A
102
{ACAD_REACTORS
330
210
102
}
330
210
100
AcDbScale
 70
     0
300
1:40
140
1.0
141
40.0
290
     0
  0
SCALE
  5
21B
102
{ACAD_REACTORS
330
210
102
}
330
210
100
AcDbScale
 70
     0
300
1:50
140
1.0
141
50.0
290
     0
  0
SCALE
  5
21C
102
{ACAD_REACTORS
330
210
102
}
330
210
100
AcDbScale
 70
     0
300
1:100
140
1.0
141
100.0
290
     0
  0
SCALE
  5
21D
102
{ACAD_REACTORS
330
210
102
}
330
210
100
AcDbScale
 70
     0
300
2:1
140
2.0
141
1.0
290
     0
  0
SCALE
  5
21E
102
{ACAD_REACTORS
330
210
102
}
330
210
100
AcDbScale
 70
     0
300
4:1
140
4.0
141
1.0
290
     0
  0
SCALE
  5
21F
102
{ACAD_REACTORS
330
210
102
}
330
210
100
AcDbScale
 70
     0
300
8:1
140
8.0
141
1.0
290
     0
  0
SCALE
  5
220
102
{ACAD_REACTORS
330
210
102
}
330
210
100
AcDbScale
 70
     0
300
10:1
140
10.0
141
1.0
290
     0
  0
SCALE
  5
221
102
{ACAD_REACTORS
330
210
102
}
330
210
100
AcDbScale
 70
     0
300
100:1
140
100.0
141
1.0
290
     0
  0
SCALE
  5
222
102
{ACAD_REACTORS
330
210
102
}
330
210
100
AcDbScale
 70
     0
300
1/128" = 1'-0"
140
0.0078125
141
12.0
290
     0
  0
SCALE
  5
223
102
{ACAD_REACTORS
330
210
102
}
330
210
100
AcDbScale
 70
     0
300
1/64" = 1'-0"
140
0.015625
141
12.0
290
     0
  0
SCALE
  5
224
102
{ACAD_REACTORS
330
210
102
}
330
210
100
AcDbScale
 70
     0
300
1/32" = 1'-0"
140
0.03125
141
12.0
290
     0
  0
SCALE
  5
225
102
{ACAD_REACTORS
330
210
102
}
330
210
100
AcDbScale
 70
     0
300
1/16" = 1'-0"
140
0.0625
141
12.0
290
     0
  0
SCALE
  5
226
102
{ACAD_REACTORS
330
210
102
}
330
210
100
AcDbScale
 70
     0
300
3/32" = 1'-0"
140
0.09375
141
12.0
290
     0
  0
SCALE
  5
227
102
{ACAD_REACTORS
330
210
102
}
330
210
100
AcDbScale
 70
     0
300
1/8" = 1'-0"
140
0.125
141
12.0
290
     0
  0
SCALE
  5
228
102
{ACAD_REACTORS
330
210
102
}
330
210
100
AcDbScale
 70
     0
300
3/16" = 1'-0"
140
0.1875
141
12.0
290
     0
  0
SCALE
  5
229
102
{ACAD_REACTORS
330
210
102
}
330
210
100
AcDbScale
 70
     0
300
1/4" = 1'-0"
140
0.25
141
12.0
290
     0
  0
SCALE
  5
22A
102
{ACAD_REACTORS
330
210
102
}
330
210
100
AcDbScale
 70
     0
300
3/8" = 1'-0"
140
0.375
141
12.0
290
     0
  0
SCALE
  5
22B
102
{ACAD_REACTORS
330
210
102
}
330
210
100
AcDbScale
 70
     0
300
1/2" = 1'-0"
140
0.5
141
12.0
290
     0
  0
SCALE
  5
22C
102
{ACAD_REACTORS
330
210
102
}
330
210
100
AcDbScale
 70
     0
300
3/4" = 1'-0"
140
0.75
141
12.0
290
     0
  0
SCALE
  5
22D
102
{ACAD_REACTORS
330
210
102
}
330
210
100
AcDbScale
 70
     0
300
1" = 1'-0"
140
1.0
141
12.0
290
     0
  0
SCALE
  5
22E
102
{ACAD_REACTORS
330
210
102
}
330
210
100
AcDbScale
 70
     0
300
1-1/2" = 1'-0"
140
1.5
141
12.0
290
     0
  0
SCALE
  5
22F
102
{ACAD_REACTORS
330
210
102
}
330
210
100
AcDbScale
 70
     0
300
3" = 1'-0"
140
3.0
141
12.0
290
     0
  0
SCALE
  5
230
102
{ACAD_REACTORS
330
210
102
}
330
210
100
AcDbScale
 70
     0
300
6" = 1'-0"
140
6.0
141
12.0
290
     0
  0
SCALE
  5
231
102
{ACAD_REACTORS
330
210
102
}
330
210
100
AcDbScale
 70
     0
300
1'-0" = 1'-0"
140
12.0
141
12.0
290
     0
  0
TABLESTYLE
  5
195
102
{ACAD_XDICTIONARY
360
8AB
102
}
102
{ACAD_REACTORS
330
194
102
}
330
194
100
AcDbTableStyle
  3
Standard
 70
     0
 71
     0
 40
0.06
 41
0.06
280
     0
281
     0
  7
STANDARD
140
0.18
170
     2
 62
     0
 63
     7
283
     0
274
    -2
284
     1
 64
     0
275
    -2
285
     1
 65
     0
276
    -2
286
     1
 66
     0
277
    -2
287
     1
 67
     0
278
    -2
288
     1
 68
     0
279
    -2
289
     1
 69
     0
  7
STANDARD
140
0.25
170
     5
 62
     0
 63
     7
283
     0
274
    -2
284
     1
 64
     0
275
    -2
285
     1
 65
     0
276
    -2
286
     1
 66
     0
277
    -2
287
     1
 67
     0
278
    -2
288
     1
 68
     0
279
    -2
289
     1
 69
     0
  7
STANDARD
140
0.18
170
     5
 62
     0
 63
     7
283
     0
274
    -2
284
     1
 64
     0
275
    -2
285
     1
 65
     0
276
    -2
286
     1
 66
     0
277
    -2
287
     1
 67
     0
278
    -2
288
     1
 68
     0
279
    -2
289
     1
 69
     0
  0
VISUALSTYLE
  5
205
102
{ACAD_REACTORS
330
1FF
102
}
330
1FF
100
AcDbVisualStyle
  2
2dWireframe
 70
     4
 71
     0
 72
     2
 73
     0
 90
        0
 40
-0.6
 41
-30.0
 62
     5
 63
     7
421
 16777215
 74
     1
 91
        4
 64
     7
 65
   257
 75
     1
175
     1
 42
1.0
 92
        0
 66
   257
 43
1.0
 76
     1
 77
     6
 78
     2
 67
     7
 79
     5
170
     0
171
     0
290
     0
174
     0
 93
        1
 44
0.0
173
     0
291
     0
 45
0.0
1001
ACAD
1000
AcDbSavedByObjectVersion
1070
     0
  0
VISUALSTYLE
  5
207
102
{ACAD_REACTORS
330
1FF
102
}
330
1FF
100
AcDbVisualStyle
  2
3D Hidden
 70
     6
 71
     1
 72
     2
 73
     2
 90
        0
 40
-0.6
 41
-30.0
 62
     5
 63
     7
421
 16777215
 74
     2
 91
        2
 64
     7
 65
   257
 75
     2
175
     1
 42
40.0
 92
        0
 66
   257
 43
1.0
 76
     1
 77
     6
 78
     2
 67
     7
 79
     3
170
     0
171
     0
290
     0
174
     0
 93
        1
 44
0.0
173
     0
291
     0
 45
0.0
1001
ACAD
1000
AcDbSavedByObjectVersion
1070
     0
  0
VISUALSTYLE
  5
206
102
{ACAD_REACTORS
330
1FF
102
}
330
1FF
100
AcDbVisualStyle
  2
3dWireframe
 70
     5
 71
     0
 72
     2
 73
     0
 90
        0
 40
-0.6
 41
-30.0
 62
     5
 63
     7
421
 16777215
 74
     1
 91
        4
 64
     7
 65
   257
 75
     1
175
     1
 42
1.0
 92
        0
 66
   257
 43
1.0
 76
     1
 77
     6
 78
     2
 67
     7
 79
     5
170
     0
171
     0
290
     0
174
     0
 93
        1
 44
0.0
173
     0
291
     0
 45
0.0
1001
ACAD
1000
AcDbSavedByObjectVersion
1070
     0
  0
VISUALSTYLE
  5
204
102
{ACAD_REACTORS
330
1FF
102
}
330
1FF
100
AcDbVisualStyle
  2
Basic
 70
     7
 71
     1
 72
     0
 73
     1
 90
        0
 40
-0.6
 41
-30.0
 62
     5
 63
     7
421
 16777215
 74
     0
 91
        4
 64
     7
 65
   257
 75
     1
175
     1
 42
1.0
 92
        8
 66
     7
 43
1.0
 76
     1
 77
     6
 78
     2
 67
     7
 79
     5
170
     0
171
     0
290
     0
174
     0
 93
        1
 44
0.0
173
     0
291
     1
 45
0.0
1001
ACAD
1000
AcDbSavedByObjectVersion
1070
     0
  0
VISUALSTYLE
  5
20B
102
{ACAD_REACTORS
330
1FF
102
}
330
1FF
100
AcDbVisualStyle
  2
Brighten
 70
    12
 71
     2
 72
     2
 73
     0
 90
        0
 40
-0.6
 41
-30.0
 62
     5
 63
     7
421
 16777215
 74
     1
 91
        4
 64
     7
 65
   257
 75
     1
175
     1
 42
1.0
 92
        8
 66
     7
 43
1.0
 76
     1
 77
     6
 78
     2
 67
     7
 79
     5
170
     0
171
     0
290
     0
174
     0
 93
        1
 44
50.0
173
     0
291
     1
 45
0.0
1001
ACAD
1000
AcDbSavedByObjectVersion
1070
     0
  0
VISUALSTYLE
  5
20F
102
{ACAD_REACTORS
330
1FF
102
}
330
1FF
100
AcDbVisualStyle
  2
ColorChange
 70
    16
 71
     2
 72
     2
 73
     3
 90
        0
 40
-0.6
 41
-30.0
 62
     5
 63
     8
421
  8421504
 74
     1
 91
        4
 64
     7
 65
   257
 75
     1
175
     1
 42
1.0
 92
        8
 66
     8
424
  8421504
 43
1.0
 76
     1
 77
     6
 78
     2
 67
     7
 79
     5
170
     0
171
     0
290
     0
174
     0
 93
        1
 44
0.0
173
     0
291
     1
 45
0.0
1001
ACAD
1000
AcDbSavedByObjectVersion
1070
     0
  0
VISUALSTYLE
  5
208
102
{ACAD_REACTORS
330
1FF
102
}
330
1FF
100
AcDbVisualStyle
  2
Conceptual
 70
     9
 71
     3
 72
     2
 73
     0
 90
        0
 40
-0.6
 41
-30.0
 62
     5
 63
     7
421
 16777215
 74
     2
 91
        2
 64
     7
 65
   257
 75
     1
175
     1
 42
40.0
 92
        8
 66
     7
 43
1.0
 76
     1
 77
     6
 78
     2
 67
     7
 79
     3
170
     0
171
     0
290
     0
174
     0
 93
        1
 44
0.0
173
     0
291
     0
 45
0.0
1001
ACAD
1000
AcDbSavedByObjectVersion
1070
     0
  0
VISUALSTYLE
  5
20A
102
{ACAD_REACTORS
330
1FF
102
}
330
1FF
100
AcDbVisualStyle
  2
Dim
 70
    11
 71
     2
 72
     2
 73
     0
 90
        0
 40
-0.6
 41
-30.0
 62
     5
 63
     7
421
 16777215
 74
     1
 91
        4
 64
     7
 65
   257
 75
     1
175
     1
 42
1.0
 92
        8
 66
     7
 43
1.0
 76
     1
 77
     6
 78
     2
 67
     7
 79
     5
170
     0
171
     0
290
     0
174
     0
 93
        1
 44
-50.0
173
     0
291
     1
 45
0.0
1001
ACAD
1000
AcDbSavedByObjectVersion
1070
     0
  0
VISUALSTYLE
  5
20E
102
{ACAD_REACTORS
330
1FF
102
}
330
1FF
100
AcDbVisualStyle
  2
Facepattern
 70
    15
 71
     2
 72
     2
 73
     0
 90
        0
 40
-0.6
 41
-30.0
 62
     5
 63
     7
421
 16777215
 74
     1
 91
        4
 64
     7
 65
   257
 75
     1
175
     1
 42
1.0
 92
        8
 66
     7
 43
1.0
 76
     1
 77
     6
 78
     2
 67
     7
 79
     5
170
     0
171
     0
290
     0
174
     0
 93
        1
 44
0.0
173
     0
291
     1
 45
0.0
1001
ACAD
1000
AcDbSavedByObjectVersion
1070
     0
  0
VISUALSTYLE
  5
200
102
{ACAD_REACTORS
330
1FF
102
}
330
1FF
100
AcDbVisualStyle
  2
Flat
 70
     0
 71
     2
 72
     1
 73
     1
 90
        2
 40
-0.6
 41
30.0
 62
     5
 63
     7
421
 16777215
 74
     0
 91
        4
 64
     7
 65
   257
 75
     1
175
     1
 42
1.0
 92
        8
 66
     7
 43
1.0
 76
     1
 77
     6
 78
     2
 67
     7
 79
     5
170
     0
171
     0
290
     0
174
     0
 93
       13
 44
0.0
173
     0
291
     1
 45
0.0
1001
ACAD
1000
AcDbSavedByObjectVersion
1070
     0
  0
VISUALSTYLE
  5
201
102
{ACAD_REACTORS
330
1FF
102
}
330
1FF
100
AcDbVisualStyle
  2
FlatWithEdges
 70
     1
 71
     2
 72
     1
 73
     1
 90
        2
 40
-0.6
 41
30.0
 62
     5
 63
     7
421
 16777215
 74
     1
 91
        4
 64
     7
 65
   257
 75
     1
175
     1
 42
1.0
 92
        0
 66
   257
 43
1.0
 76
     1
 77
     6
 78
     2
 67
     7
 79
     5
170
     0
171
     0
290
     0
174
     0
 93
       13
 44
0.0
173
     0
291
     1
 45
0.0
1001
ACAD
1000
AcDbSavedByObjectVersion
1070
     0
  0
VISUALSTYLE
  5
202
102
{ACAD_REACTORS
330
1FF
102
}
330
1FF
100
AcDbVisualStyle
  2
Gouraud
 70
     2
 71
     2
 72
     2
 73
     1
 90
        2
 40
-0.6
 41
30.0
 62
     5
 63
     7
421
 16777215
 74
     0
 91
        4
 64
     7
 65
   257
 75
     1
175
     1
 42
1.0
 92
        0
 66
     7
 43
1.0
 76
     1
 77
     6
 78
     2
 67
     7
 79
     5
170
     0
171
     0
290
     0
174
     0
 93
       13
 44
0.0
173
     0
291
     1
 45
0.0
1001
ACAD
1000
AcDbSavedByObjectVersion
1070
     0
  0
VISUALSTYLE
  5
203
102
{ACAD_REACTORS
330
1FF
102
}
330
1FF
100
AcDbVisualStyle
  2
GouraudWithEdges
 70
     3
 71
     2
 72
     2
 73
     1
 90
        2
 40
-0.6
 41
30.0
 62
     5
 63
     7
421
 16777215
 74
     1
 91
        4
 64
     7
 65
   257
 75
     1
175
     1
 42
1.0
 92
        0
 66
   257
 43
1.0
 76
     1
 77
     6
 78
     2
 67
     7
 79
     5
170
     0
171
     0
290
     0
174
     0
 93
       13
 44
0.0
173
     0
291
     1
 45
0.0
1001
ACAD
1000
AcDbSavedByObjectVersion
1070
     0
  0
VISUALSTYLE
  5
20D
102
{ACAD_REACTORS
330
1FF
102
}
330
1FF
100
AcDbVisualStyle
  2
Linepattern
 70
    14
 71
     2
 72
     2
 73
     0
 90
        0
 40
-0.6
 41
-30.0
 62
     5
 63
     7
421
 16777215
 74
     1
 91
        4
 64
     7
 65
   257
 75
     7
175
     7
 42
1.0
 92
        8
 66
     7
 43
1.0
 76
     1
 77
     6
 78
     2
 67
     7
 79
     5
170
     0
171
     0
290
     0
174
     0
 93
        1
 44
0.0
173
     0
291
     1
 45
0.0
1001
ACAD
1000
AcDbSavedByObjectVersion
1070
     0
  0
VISUALSTYLE
  5
209
102
{ACAD_REACTORS
330
1FF
102
}
330
1FF
100
AcDbVisualStyle
  2
Realistic
 70
     8
 71
     2
 72
     2
 73
     0
 90
        0
 40
-0.6
 41
-30.0
 62
     5
 63
     7
421
 16777215
 74
     1
 91
        0
 64
     7
 65
   257
 75
     1
175
     1
 42
1.0
 92
        8
 66
     8
424
  7895160
 43
1.0
 76
     1
 77
     6
 78
     2
 67
     7
 79
     5
170
     0
171
     0
290
     0
174
     0
 93
       13
 44
0.0
173
     0
291
     0
 45
0.0
1001
ACAD
1000
AcDbSavedByObjectVersion
1070
     0
  0
VISUALSTYLE
  5
20C
102
{ACAD_REACTORS
330
1FF
102
}
330
1FF
100
AcDbVisualStyle
  2
Thicken
 70
    13
 71
     2
 72
     2
 73
     0
 90
        0
 40
-0.6
 41
-30.0
 62
     5
 63
     7
421
 16777215
 74
     1
 91
        4
 64
     7
 65
   257
 75
     1
175
     1
 42
1.0
 92
       12
 66
     7
 43
1.0
 76
     1
 77
     6
 78
     2
 67
     7
 79
     5
170
     0
171
     0
290
     0
174
     0
 93
        1
 44
0.0
173
     0
291
     1
 45
0.0
1001
ACAD
1000
AcDbSavedByObjectVersion
1070
     0
  0
DICTIONARYVAR
  5
8AA
102
{ACAD_REACTORS
330
1DB
102
}
330
1DB
100
DictionaryVariables
280
     0
  1
1:1
  0
DICTIONARYVAR
  5
8A9
102
{ACAD_REACTORS
330
1DB
102
}
330
1DB
100
DictionaryVariables
280
     0
  1
STANDARD
  0
DICTIONARYVAR
  5
1DC
102
{ACAD_REACTORS
330
1DB
102
}
330
1DB
100
DictionaryVariables
280
     0
  1
STANDARD
  0
DICTIONARYVAR
  5
1DD
102
{ACAD_REACTORS
330
1DB
102
}
330
1DB
100
DictionaryVariables
280
     0
  1
1
  0
DICTIONARYVAR
  5
1DE
102
{ACAD_REACTORS
330
1DB
102
}
330
1DB
100
DictionaryVariables
280
     0
  1

  0
DICTIONARY
  5
29F
102
{ACAD_REACTORS
330
292
102
}
330
292
100
AcDbDictionary
281
     1
  0
XRECORD
  5
2B4
102
{ACAD_REACTORS
330
292
102
}
330
292
100
AcDbXrecord
280
     1
 90
-1023410169
  0
DICTIONARY
  5
1F0
330
1EF
100
AcDbDictionary
280
     1
281
     1
  3
ACAD_XREC_ROUNDTRIP
360
8B2
  3
BUMPTILE
360
1F2
  3
DIFFUSETILE
360
1F1
  3
OPACITYTILE
360
1F5
  3
REFLECTIONTILE
360
1F4
  3
REFRACTIONTILE
360
1F6
  3
SPECULARTILE
360
1F3
  0
DICTIONARY
  5
1E8
330
1E7
100
AcDbDictionary
280
     1
281
     1
  3
ACAD_XREC_ROUNDTRIP
360
8B1
  3
BUMPTILE
360
1EA
  3
DIFFUSETILE
360
1E9
  3
OPACITYTILE
360
1ED
  3
REFLECTIONTILE
360
1EC
  3
REFRACTIONTILE
360
1EE
  3
SPECULARTILE
360
1EB
  0
DICTIONARY
  5
1F8
330
1F7
100
AcDbDictionary
280
     1
281
     1
  3
ACAD_XREC_ROUNDTRIP
360
8B3
  3
BUMPTILE
360
1FA
  3
DIFFUSETILE
360
1F9
  3
OPACITYTILE
360
1FD
  3
REFLECTIONTILE
360
1FC
  3
REFRACTIONTILE
360
1FE
  3
SPECULARTILE
360
1FB
  0
DICTIONARY
  5
8AB
330
195
100
AcDbDictionary
280
     1
281
     1
  3
ACAD_ROUNDTRIP_2008_TABLESTYLE_CELLSTYLEMAP
360
8AC
  3
ACAD_XREC_ROUNDTRIP
360
8B0
  0
XRECORD
  5
8B2
102
{ACAD_REACTORS
330
1F0
102
}
330
1F0
100
AcDbXrecord
280
     1
102
MATERIAL
148
0.0
149
0.0
149
0.0
 93
        0
 94
      127
282
     0
 72
     0
 77
     0
171
     0
175
     0
179
     0
273
     0
  0
XRECORD
  5
1F2
102
{ACAD_REACTORS
330
1F0
102
}
330
1F0
100
AcDbXrecord
280
     1
270
     1
271
     1
  0
XRECORD
  5
1F1
102
{ACAD_REACTORS
330
1F0
102
}
330
1F0
100
AcDbXrecord
280
     1
270
     1
271
     1
  0
XRECORD
  5
1F5
102
{ACAD_REACTORS
330
1F0
102
}
330
1F0
100
AcDbXrecord
280
     1
270
     1
271
     1
  0
XRECORD
  5
1F4
102
{ACAD_REACTORS
330
1F0
102
}
330
1F0
100
AcDbXrecord
280
     1
270
     1
271
     1
  0
XRECORD
  5
1F6
102
{ACAD_REACTORS
330
1F0
102
}
330
1F0
100
AcDbXrecord
280
     1
270
     1
271
     1
  0
XRECORD
  5
1F3
102
{ACAD_REACTORS
330
1F0
102
}
330
1F0
100
AcDbXrecord
280
     1
270
     1
271
     1
  0
XRECORD
  5
8B1
102
{ACAD_REACTORS
330
1E8
102
}
330
1E8
100
AcDbXrecord
280
     1
102
MATERIAL
148
0.0
149
0.0
149
0.0
 93
        0
 94
      127
282
     0
 72
     0
 77
     0
171
     0
175
     0
179
     0
273
     0
  0
XRECORD
  5
1EA
102
{ACAD_REACTORS
330
1E8
102
}
330
1E8
100
AcDbXrecord
280
     1
270
     1
271
     1
  0
XRECORD
  5
1E9
102
{ACAD_REACTORS
330
1E8
102
}
330
1E8
100
AcDbXrecord
280
     1
270
     1
271
     1
  0
XRECORD
  5
1ED
102
{ACAD_REACTORS
330
1E8
102
}
330
1E8
100
AcDbXrecord
280
     1
270
     1
271
     1
  0
XRECORD
  5
1EC
102
{ACAD_REACTORS
330
1E8
102
}
330
1E8
100
AcDbXrecord
280
     1
270
     1
271
     1
  0
XRECORD
  5
1EE
102
{ACAD_REACTORS
330
1E8
102
}
330
1E8
100
AcDbXrecord
280
     1
270
     1
271
     1
  0
XRECORD
  5
1EB
102
{ACAD_REACTORS
330
1E8
102
}
330
1E8
100
AcDbXrecord
280
     1
270
     1
271
     1
  0
XRECORD
  5
8B3
102
{ACAD_REACTORS
330
1F8
102
}
330
1F8
100
AcDbXrecord
280
     1
102
MATERIAL
148
0.0
149
0.0
149
0.0
 93
        0
 94
      127
282
     0
 72
     0
 77
     0
171
     0
175
     0
179
     0
273
     0
  0
XRECORD
  5
1FA
102
{ACAD_REACTORS
330
1F8
102
}
330
1F8
100
AcDbXrecord
280
     1
270
     1
271
     1
  0
XRECORD
  5
1F9
102
{ACAD_REACTORS
330
1F8
102
}
330
1F8
100
AcDbXrecord
280
     1
270
     1
271
     1
  0
XRECORD
  5
1FD
102
{ACAD_REACTORS
330
1F8
102
}
330
1F8
100
AcDbXrecord
280
     1
270
     1
271
     1
  0
XRECORD
  5
1FC
102
{ACAD_REACTORS
330
1F8
102
}
330
1F8
100
AcDbXrecord
280
     1
270
     1
271
     1
  0
XRECORD
  5
1FE
102
{ACAD_REACTORS
330
1F8
102
}
330
1F8
100
AcDbXrecord
280
     1
270
     1
271
     1
  0
XRECORD
  5
1FB
102
{ACAD_REACTORS
330
1F8
102
}
330
1F8
100
AcDbXrecord
280
     1
270
     1
271
     1
  0
CELLSTYLEMAP
  5
8AC
102
{ACAD_REACTORS
330
8AB
102
}
330
8AB
100
AcDbCellStyleMap
 90
        3
300
CELLSTYLE
  1
TABLEFORMAT_BEGIN
 90
        5
170
     1
 91
        0
 92
    32768
 62
   257
 93
        1
300
CONTENTFORMAT
  1
CONTENTFORMAT_BEGIN
 90
        0
 91
        0
 92
        4
 93
        0
300

 40
0.0
140
1.0
 94
        5
 62
     0
340
C
144
0.25
309
CONTENTFORMAT_END
171
     0
 94
        6
 95
        1
302
GRIDFORMAT
  1
GRIDFORMAT_BEGIN
 90
        0
 91
        1
 62
     0
 92
       -2
340
0
 93
        0
 40
0.045
309
GRIDFORMAT_END
 95
        2
302
GRIDFORMAT
  1
GRIDFORMAT_BEGIN
 90
        0
 91
        1
 62
     0
 92
       -2
340
0
 93
        0
 40
0.045
309
GRIDFORMAT_END
 95
        4
302
GRIDFORMAT
  1
GRIDFORMAT_BEGIN
 90
        0
 91
        1
 62
     0
 92
       -2
340
0
 93
        0
 40
0.045
309
GRIDFORMAT_END
 95
        8
302
GRIDFORMAT
  1
GRIDFORMAT_BEGIN
 90
        0
 91
        1
 62
     0
 92
       -2
340
0
 93
        0
 40
0.045
309
GRIDFORMAT_END
 95
       16
302
GRIDFORMAT
  1
GRIDFORMAT_BEGIN
 90
        0
 91
        1
 62
     0
 92
       -2
340
0
 93
        0
 40
0.045
309
GRIDFORMAT_END
 95
       32
302
GRIDFORMAT
  1
GRIDFORMAT_BEGIN
 90
        0
 91
        1
 62
     0
 92
       -2
340
0
 93
        0
 40
0.045
309
GRIDFORMAT_END
309
TABLEFORMAT_END
  1
CELLSTYLE_BEGIN
 90
        1
 91
        1
300
_TITLE
309
CELLSTYLE_END
300
CELLSTYLE
  1
TABLEFORMAT_BEGIN
 90
        5
170
     1
 91
        0
 92
        0
 62
   257
 93
        1
300
CONTENTFORMAT
  1
CONTENTFORMAT_BEGIN
 90
        0
 91
        0
 92
        4
 93
        0
300

 40
0.0
140
1.0
 94
        5
 62
     0
340
C
144
0.18
309
CONTENTFORMAT_END
171
     0
 94
        6
 95
        1
302
GRIDFORMAT
  1
GRIDFORMAT_BEGIN
 90
        0
 91
        1
 62
     0
 92
       -2
340
0
 93
        0
 40
0.045
309
GRIDFORMAT_END
 95
        2
302
GRIDFORMAT
  1
GRIDFORMAT_BEGIN
 90
        0
 91
        1
 62
     0
 92
       -2
340
0
 93
        0
 40
0.045
309
GRIDFORMAT_END
 95
        4
302
GRIDFORMAT
  1
GRIDFORMAT_BEGIN
 90
        0
 91
        1
 62
     0
 92
       -2
340
0
 93
        0
 40
0.045
309
GRIDFORMAT_END
 95
        8
302
GRIDFORMAT
  1
GRIDFORMAT_BEGIN
 90
        0
 91
        1
 62
     0
 92
       -2
340
0
 93
        0
 40
0.045
309
GRIDFORMAT_END
 95
       16
302
GRIDFORMAT
  1
GRIDFORMAT_BEGIN
 90
        0
 91
        1
 62
     0
 92
       -2
340
0
 93
        0
 40
0.045
309
GRIDFORMAT_END
 95
       32
302
GRIDFORMAT
  1
GRIDFORMAT_BEGIN
 90
        0
 91
        1
 62
     0
 92
       -2
340
0
 93
        0
 40
0.045
309
GRIDFORMAT_END
309
TABLEFORMAT_END
  1
CELLSTYLE_BEGIN
 90
        2
 91
        1
300
_HEADER
309
CELLSTYLE_END
300
CELLSTYLE
  1
TABLEFORMAT_BEGIN
 90
        5
170
     1
 91
        0
 92
        0
 62
   257
 93
        1
300
CONTENTFORMAT
  1
CONTENTFORMAT_BEGIN
 90
        0
 91
        0
 92
        4
 93
        0
300

 40
0.0
140
1.0
 94
        2
 62
     0
340
C
144
0.18
309
CONTENTFORMAT_END
171
     0
 94
        6
 95
        1
302
GRIDFORMAT
  1
GRIDFORMAT_BEGIN
 90
        0
 91
        1
 62
     0
 92
       -2
340
0
 93
        0
 40
0.045
309
GRIDFORMAT_END
 95
        2
302
GRIDFORMAT
  1
GRIDFORMAT_BEGIN
 90
        0
 91
        1
 62
     0
 92
       -2
340
0
 93
        0
 40
0.045
309
GRIDFORMAT_END
 95
        4
302
GRIDFORMAT
  1
GRIDFORMAT_BEGIN
 90
        0
 91
        1
 62
     0
 92
       -2
340
0
 93
        0
 40
0.045
309
GRIDFORMAT_END
 95
        8
302
GRIDFORMAT
  1
GRIDFORMAT_BEGIN
 90
        0
 91
        1
 62
     0
 92
       -2
340
0
 93
        0
 40
0.045
309
GRIDFORMAT_END
 95
       16
302
GRIDFORMAT
  1
GRIDFORMAT_BEGIN
 90
        0
 91
        1
 62
     0
 92
       -2
340
0
 93
        0
 40
0.045
309
GRIDFORMAT_END
 95
       32
302
GRIDFORMAT
  1
GRIDFORMAT_BEGIN
 90
        0
 91
        1
 62
     0
 92
       -2
340
0
 93
        0
 40
0.045
309
GRIDFORMAT_END
309
TABLEFORMAT_END
  1
CELLSTYLE_BEGIN
 90
        3
 91
        2
300
_DATA
309
CELLSTYLE_END
  0
XRECORD
  5
8B0
102
{ACAD_REACTORS
330
8AB
102
}
330
8AB
100
AcDbXrecord
280
     1
102
ACAD_ROUNDTRIP_PRE2007_TABLESTYLE
 90
        4
 91
        0
  1

 92
        4
 93
        0
  2

 94
        4
 95
        0
  3

  0
ENDSEC
  0
EOF
