  0
SECTION
  2
HEADER
  9
$ACADVER
  1
AC1027
  9
$ACADMAINTVER
 70
   105
  9
$DWGCODEPAGE
  3
ANSI_1252
  9
$LASTSAVEDBY
  1
guzb562
  9
$REQUIREDVERSIONS
160
                 0
  9
$INSBASE
 10
0.0
 20
0.0
 30
0.0
  9
$EXTMIN
 10
4355.757953090821
 20
4003.243297795566
 30
0.0
  9
$EXTMAX
 10
4480.658743396054
 20
4361.109038357624
 30
0.0
  9
$LIMMIN
 10
0.0
 20
0.0
  9
$LIMMAX
 10
8400.0
 20
5940.0
  9
$ORTHOMODE
 70
     0
  9
$REGENMODE
 70
     1
  9
$FILLMODE
 70
     1
  9
$QTEXTMODE
 70
     0
  9
$MIRRTEXT
 70
     1
  9
$LTSCALE
 40
5.0
  9
$ATTMODE
 70
     1
  9
$TEXTSIZE
 40
3.5
  9
$TRACEWID
 40
1.0
  9
$TEXTSTYLE
  7
STANDARD
  9
$CLAYER
  8
AM_2 ( Kontur 0.25)
  9
$CELTYPE
  6
ByLayer
  9
$CECOLOR
 62
   256
  9
$CELTSCALE
 40
1.0
  9
$DISPSILH
 70
     0
  9
$DIMSCALE
 40
1.0
  9
$DIMASZ
 40
5.0
  9
$DIMEXO
 40
1.0
  9
$DIMDLI
 40
10.0
  9
$DIMRND
 40
0.0
  9
$DIMDLE
 40
0.0
  9
$DIMEXE
 40
1.0
  9
$DIMTP
 40
0.1
  9
$DIMTM
 40
0.1
  9
$DIMTXT
 40
5.0
  9
$DIMCEN
 40
0.0
  9
$DIMTSZ
 40
0.0
  9
$DIMTOL
 70
     0
  9
$DIMLIM
 70
     0
  9
$DIMTIH
 70
     0
  9
$DIMTOH
 70
     0
  9
$DIMSE1
 70
     0
  9
$DIMSE2
 70
     0
  9
$DIMTAD
 70
     1
  9
$DIMZIN
 70
     8
  9
$DIMBLK
  1

  9
$DIMASO
 70
     1
  9
$DIMSHO
 70
     1
  9
$DIMPOST
  1

  9
$DIMAPOST
  1
"
  9
$DIMALT
 70
     0
  9
$DIMALTD
 70
     2
  9
$DIMALTF
 40
0.0393701
  9
$DIMLFAC
 40
1.0
  9
$DIMTOFL
 70
     1
  9
$DIMTVP
 40
0.0
  9
$DIMTIX
 70
     0
  9
$DIMSOXD
 70
     0
  9
$DIMSAH
 70
     0
  9
$DIMBLK1
  1

  9
$DIMBLK2
  1

  9
$DIMSTYLE
  2
AM_DIN
  9
$DIMCLRD
 70
   256
  9
$DIMCLRE
 70
   256
  9
$DIMCLRT
 70
     2
  9
$DIMTFAC
 40
0.71
  9
$DIMGAP
 40
1.5
  9
$DIMJUST
 70
     0
  9
$DIMSD1
 70
     0
  9
$DIMSD2
 70
     0
  9
$DIMTOLJ
 70
     0
  9
$DIMTZIN
 70
     8
  9
$DIMALTZ
 70
     0
  9
$DIMALTTZ
 70
     0
  9
$DIMUPT
 70
     0
  9
$DIMDEC
 70
     2
  9
$DIMTDEC
 70
     2
  9
$DIMALTU
 70
     2
  9
$DIMALTTD
 70
     2
  9
$DIMTXSTY
  7
STANDARD
  9
$DIMAUNIT
 70
     0
  9
$DIMADEC
 70
     0
  9
$DIMALTRND
 40
0.0
  9
$DIMAZIN
 70
     2
  9
$DIMDSEP
 70
    46
  9
$DIMATFIT
 70
     3
  9
$DIMFRAC
 70
     0
  9
$DIMLDRBLK
  1

  9
$DIMLUNIT
 70
     2
  9
$DIMLWD
 70
    -1
  9
$DIMLWE
 70
    -1
  9
$DIMTMOVE
 70
     0
  9
$DIMFXL
 40
1.0
  9
$DIMFXLON
 70
     0
  9
$DIMJOGANG
 40
0.7853981633974483
  9
$DIMTFILL
 70
     0
  9
$DIMTFILLCLR
 70
     0
  9
$DIMARCSYM
 70
     1
  9
$DIMLTYPE
  6

  9
$DIMLTEX1
  6

  9
$DIMLTEX2
  6

  9
$DIMTXTDIRECTION
 70
     0
  9
$LUNITS
 70
     2
  9
$LUPREC
 70
     2
  9
$SKETCHINC
 40
1.0
  9
$FILLETRAD
 40
50.0
  9
$AUNITS
 70
     0
  9
$AUPREC
 70
     0
  9
$MENU
  1
ACAD
  9
$ELEVATION
 40
0.0
  9
$PELEVATION
 40
0.0
  9
$THICKNESS
 40
0.0
  9
$LIMCHECK
 70
     0
  9
$CHAMFERA
 40
50.0
  9
$CHAMFERB
 40
50.0
  9
$CHAMFERC
 40
0.0
  9
$CHAMFERD
 40
0.0
  9
$SKPOLY
 70
     0
  9
$TDCREATE
 40
2454727.416438472
  9
$TDUCREATE
 40
2454727.333105139
  9
$TDUPDATE
 40
2458015.375619781
  9
$TDUUPDATE
 40
2458015.292286447
  9
$TDINDWG
 40
0.0221861921
  9
$TDUSRTIMER
 40
0.0221852778
  9
$USRTIMER
 70
     1
  9
$ANGBASE
 50
0.0
  9
$ANGDIR
 70
     0
  9
$PDMODE
 70
     0
  9
$PDSIZE
 40
0.0
  9
$PLINEWID
 40
0.0
  9
$SPLFRAME
 70
     0
  9
$SPLINETYPE
 70
     6
  9
$SPLINESEGS
 70
    12
  9
$HANDSEED
  5
1AE9
  9
$SURFTAB1
 70
     6
  9
$SURFTAB2
 70
     6
  9
$SURFTYPE
 70
     6
  9
$SURFU
 70
     6
  9
$SURFV
 70
     6
  9
$UCSBASE
  2

  9
$UCSNAME
  2

  9
$UCSORG
 10
0.0
 20
0.0
 30
0.0
  9
$UCSXDIR
 10
1.0
 20
0.0
 30
0.0
  9
$UCSYDIR
 10
0.0
 20
1.0
 30
0.0
  9
$UCSORTHOREF
  2

  9
$UCSORTHOVIEW
 70
     0
  9
$UCSORGTOP
 10
0.0
 20
0.0
 30
0.0
  9
$UCSORGBOTTOM
 10
0.0
 20
0.0
 30
0.0
  9
$UCSORGLEFT
 10
0.0
 20
0.0
 30
0.0
  9
$UCSORGRIGHT
 10
0.0
 20
0.0
 30
0.0
  9
$UCSORGFRONT
 10
0.0
 20
0.0
 30
0.0
  9
$UCSORGBACK
 10
0.0
 20
0.0
 30
0.0
  9
$PUCSBASE
  2

  9
$PUCSNAME
  2

  9
$PUCSORG
 10
0.0
 20
0.0
 30
0.0
  9
$PUCSXDIR
 10
1.0
 20
0.0
 30
0.0
  9
$PUCSYDIR
 10
0.0
 20
1.0
 30
0.0
  9
$PUCSORTHOREF
  2

  9
$PUCSORTHOVIEW
 70
     0
  9
$PUCSORGTOP
 10
0.0
 20
0.0
 30
0.0
  9
$PUCSORGBOTTOM
 10
0.0
 20
0.0
 30
0.0
  9
$PUCSORGLEFT
 10
0.0
 20
0.0
 30
0.0
  9
$PUCSORGRIGHT
 10
0.0
 20
0.0
 30
0.0
  9
$PUCSORGFRONT
 10
0.0
 20
0.0
 30
0.0
  9
$PUCSORGBACK
 10
0.0
 20
0.0
 30
0.0
  9
$USERI1
 70
     0
  9
$USERI2
 70
     0
  9
$USERI3
 70
     0
  9
$USERI4
 70
     0
  9
$USERI5
 70
     0
  9
$USERR1
 40
0.0
  9
$USERR2
 40
0.0
  9
$USERR3
 40
0.0
  9
$USERR4
 40
0.0
  9
$USERR5
 40
0.0
  9
$WORLDVIEW
 70
     1
  9
$SHADEDGE
 70
     3
  9
$SHADEDIF
 70
    70
  9
$TILEMODE
 70
     1
  9
$MAXACTVP
 70
    64
  9
$PINSBASE
 10
0.0
 20
0.0
 30
0.0
  9
$PLIMCHECK
 70
     0
  9
$PEXTMIN
 10
1.000000000000000E+20
 20
1.000000000000000E+20
 30
1.000000000000000E+20
  9
$PEXTMAX
 10
-1.000000000000000E+20
 20
-1.000000000000000E+20
 30
-1.000000000000000E+20
  9
$PLIMMIN
 10
0.0
 20
0.0
  9
$PLIMMAX
 10
12.0
 20
9.0
  9
$UNITMODE
 70
     0
  9
$VISRETAIN
 70
     1
  9
$PLINEGEN
 70
     0
  9
$PSLTSCALE
 70
     1
  9
$TREEDEPTH
 70
  3020
  9
$CMLSTYLE
  2
Standard
  9
$CMLJUST
 70
     0
  9
$CMLSCALE
 40
1.0
  9
$PROXYGRAPHICS
 70
     1
  9
$MEASUREMENT
 70
     1
  9
$CELWEIGHT
370
    -1
  9
$ENDCAPS
280
     0
  9
$JOINSTYLE
280
     0
  9
$LWDISPLAY
290
     0
  9
$INSUNITS
 70
     4
  9
$HYPERLINKBASE
  1

  9
$STYLESHEET
  1

  9
$XEDIT
290
     1
  9
$CEPSNTYPE
380
     0
  9
$PSTYLEMODE
290
     1
  9
$FINGERPRINTGUID
  2
{814CE62B-63FB-43F3-9C4B-9E56B5061610}
  9
$VERSIONGUID
  2
{BCB16A03-F727-470E-B2DF-C0121823F0B8}
  9
$EXTNAMES
290
     1
  9
$PSVPSCALE
 40
0.0
  9
$OLESTARTUP
290
     0
  9
$SORTENTS
280
   127
  9
$INDEXCTL
280
     0
  9
$HIDETEXT
280
     0
  9
$XCLIPFRAME
280
     0
  9
$HALOGAP
280
     0
  9
$OBSCOLOR
 70
   257
  9
$OBSLTYPE
280
     0
  9
$INTERSECTIONDISPLAY
280
     0
  9
$INTERSECTIONCOLOR
 70
   257
  9
$DIMASSOC
280
     2
  9
$PROJECTNAME
  1

  9
$CAMERADISPLAY
290
     0
  9
$LENSLENGTH
 40
50.0
  9
$CAMERAHEIGHT
 40
0.0
  9
$STEPSPERSEC
 40
2.0
  9
$STEPSIZE
 40
6.0
  9
$3DDWFPREC
 40
2.0
  9
$PSOLWIDTH
 40
0.25
  9
$PSOLHEIGHT
 40
4.0
  9
$LOFTANG1
 40
1.570796326794896
  9
$LOFTANG2
 40
1.570796326794896
  9
$LOFTMAG1
 40
0.0
  9
$LOFTMAG2
 40
0.0
  9
$LOFTPARAM
 70
     7
  9
$LOFTNORMALS
280
     1
  9
$LATITUDE
 40
37.795
  9
$LONGITUDE
 40
-122.394
  9
$NORTHDIRECTION
 40
0.0
  9
$TIMEZONE
 70
 -8000
  9
$LIGHTGLYPHDISPLAY
280
     1
  9
$TILEMODELIGHTSYNCH
280
     1
  9
$CMATERIAL
347
11
  9
$SOLIDHIST
280
     1
  9
$SHOWHIST
280
     1
  9
$DWFFRAME
280
     2
  9
$DGNFRAME
280
     0
  9
$REALWORLDSCALE
290
     1
  9
$INTERFERECOLOR
 62
     1
  9
$INTERFEREOBJVS
345
33
  9
$INTERFEREVPVS
346
1A78
  9
$CSHADOW
280
     0
  9
$SHADOWPLANELOCATION
 40
0.0
  0
ENDSEC
  0
SECTION
  2
CLASSES
  0
CLASS
  1
ACDBDICTIONARYWDFLT
  2
AcDbDictionaryWithDefault
  3
ObjectDBX Classes
 90
        0
 91
        1
280
     0
281
     0
  0
CLASS
  1
MATERIAL
  2
AcDbMaterial
  3
ObjectDBX Classes
 90
     1153
 91
        3
280
     0
281
     0
  0
CLASS
  1
VISUALSTYLE
  2
AcDbVisualStyle
  3
ObjectDBX Classes
 90
     4095
 91
       26
280
     0
281
     0
  0
CLASS
  1
SCALE
  2
AcDbScale
  3
ObjectDBX Classes
 90
     1153
 91
       33
280
     0
281
     0
  0
CLASS
  1
TABLESTYLE
  2
AcDbTableStyle
  3
ObjectDBX Classes
 90
     4095
 91
        1
280
     0
281
     0
  0
CLASS
  1
MLEADERSTYLE
  2
AcDbMLeaderStyle
  3
ACDB_MLEADERSTYLE_CLASS
 90
     4095
 91
        1
280
     0
281
     0
  0
CLASS
  1
AMGSETTINGSOBJ
  2
AmgSettingsObj
  3
"AcadM|Product Description: AutoCAD Mechanical|Company: Autodesk, Inc."
 90
     1024
 91
        2
280
     0
281
     0
  0
CLASS
  1
ACME_DOCUMENT
  2
AcMeDbDoc
  3
AcMeServices
 90
     1024
 91
        1
280
     0
281
     0
  0
CLASS
  1
ACMESCOPE
  2
AcMeScope
  3
AcMeServices
 90
     1024
 91
        1
280
     0
281
     0
  0
CLASS
  1
ACMECOMMANDHISTORY
  2
AcMeCommandHistory
  3
AcMeServices
 90
     1024
 91
        1
280
     0
281
     0
  0
CLASS
  1
ACIMSYSVARMAN
  2
AcImSysVarManager
  3
AcMeServices
 90
     1024
 91
        5
280
     0
281
     0
  0
CLASS
  1
ACIMINTSYSVAR
  2
AcImIntSysVar
  3
AcMeServices
 90
     1024
 91
       27
280
     0
281
     0
  0
CLASS
  1
ACMEDRAWINGMAN
  2
AcMeDrawingMan
  3
AcMeServices
 90
     1024
 91
        2
280
     0
281
     0
  0
CLASS
  1
ACMEVIEW
  2
AcMeView
  3
AcMeServices
 90
     1024
 91
        2
280
     0
281
     0
  0
CLASS
  1
ACDBENTITYCACHE
  2
AcMeEntityCache
  3
AcMeServices
 90
     1024
 91
        1
280
     0
281
     0
  0
CLASS
  1
GSMANAGER
  2
AcMeGSManager
  3
AcMeServices
 90
     1024
 91
        0
280
     0
281
     0
  0
CLASS
  1
AMDTINTERNALREACTOR
  2
AmdtInternalReactor
  3
AcMeServices
 90
     1024
 91
        1
280
     0
281
     0
  0
CLASS
  1
ACMESTATEMGR
  2
AcMeStateMgr
  3
AcMeServices
 90
     1024
 91
        1
280
     0
281
     0
  0
CLASS
  1
ACGREFMASTER
  2
AcGrefMaster
  3
AcAttribServices
 90
     1024
 91
        1
280
     0
281
     0
  0
CLASS
  1
AM_DRAWING_MGR
  2
AcDmDwgMgr
  3
AcMechDwgViewMgmt
 90
     1024
 91
        1
280
     0
281
     0
  0
CLASS
  1
AM_DWG_DOCUMENT
  2
AcDmDwgDocument
  3
AcMechDwgViewMgmt
 90
     1024
 91
        1
280
     0
281
     0
  0
CLASS
  1
AM_DWG_SHEET
  2
AcDmSheet
  3
AcMechDwgViewMgmt
 90
     1024
 91
        1
280
     0
281
     0
  0
CLASS
  1
AM_VIEWDIMPARMAP
  2
AcDmViewDimParMap
  3
AcMechDwgViewMgmt
 90
     1024
 91
        1
280
     0
281
     0
  0
CLASS
  1
ACIMREALSYSVAR
  2
AcImRealSysVar
  3
AcMeServices
 90
     1024
 91
        1
280
     0
281
     0
  0
CLASS
  1
AM_DWGMGR_NAME
  2
AcDmDwgMgrName
  3
AcMechDwgViewMgmt
 90
     1024
 91
        1
280
     0
281
     0
  0
CLASS
  1
ACME_DATABASE
  2
AcMeDbDatabase
  3
AcMeServices
 90
     1024
 91
        1
280
     0
281
     0
  0
CLASS
  1
ACRFINSADJUSTERMGR
  2
AcRfInsAdjusterMgr
  3
AcMeServices
 90
     1024
 91
        1
280
     0
281
     0
  0
CLASS
  1
ACGREFACADMASTER
  2
AcGrefacadMaster
  3
AcGrefServices
 90
     1024
 91
        1
280
     0
281
     0
  0
CLASS
  1
AMDTMENUSTATEMGR
  2
AmdtMenuStateMgr
  3
McadcomServices
 90
     1024
 91
        1
280
     0
281
     0
  0
CLASS
  1
AMDTMCOMMENUSTATE
  2
AmdtMcomMenuState
  3
McadcomServices
 90
     1024
 91
        1
280
     0
281
     0
  0
CLASS
  1
AMIMASTER
  2
AmiMaster
  3
AmiServices
 90
     1024
 91
        1
280
     0
281
     0
  0
CLASS
  1
MAPIAMMOUDLE
  2
MApiAmModule
  3
MApiAmServices
 90
     1024
 91
        1
280
     0
281
     0
  0
CLASS
  1
ACIMSTRSYSVAR
  2
AcImStrSysVar
  3
AcMeServices
 90
     1024
 91
        5
280
     0
281
     0
  0
CLASS
  1
AMDTADMENUSTATE
  2
AmdtAdMenuState
  3
DesignerServices
 90
     1024
 91
        0
280
     0
281
     0
  0
CLASS
  1
ADAPPL
  2
AcAdAppl
  3
DesignerAssemblies
 90
     1024
 91
        2
280
     0
281
     0
  0
CLASS
  1
DEPMGR
  2
AcAdDepMgr
  3
DesignerAssemblies
 90
     1024
 91
        2
280
     0
281
     0
  0
CLASS
  1
PARAMMGR
  2
AcAdParamMgr
  3
DesignerAssemblies
 90
     1024
 91
        2
280
     0
281
     0
  0
CLASS
  1
PARAMSCOPE
  2
AcAdParamScope
  3
DesignerAssemblies
 90
     1024
 91
        2
280
     0
281
     0
  0
CLASS
  1
NAMEDAPPL
  2
AcAdNamedAppl
  3
DesignerAssemblies
 90
     1024
 91
        2
280
     0
281
     0
  0
CLASS
  1
AMDTDMMENUSTATE
  2
AmdtDmMenuState
  3
AcMechDwgViewMgmt
 90
     1024
 91
        0
280
     0
281
     0
  0
CLASS
  1
AMDTAMMENUSTATE
  2
AmdtAmMenuState
  3
DesignerAssemblies
 90
     1024
 91
        1
280
     0
281
     0
  0
CLASS
  1
ACAMPROJECT
  2
AcAmProject
  3
DesignerAssemblies
 90
     1024
 91
        1
280
     0
281
     0
  0
CLASS
  1
ACAMGRCOMPDEF
  2
AcAmGrCompDef
  3
DesignerAssemblies
 90
     1024
 91
        1
280
     0
281
     0
  0
CLASS
  1
ACCMCONTEXT
  2
AcCmContext
  3
DesignerAssemblies
 90
     1024
 91
        1
280
     0
281
     0
  0
CLASS
  1
ACAMCOMPDEF
  2
AcAmCompDef
  3
DesignerAssemblies
 90
     1024
 91
        1
280
     0
281
     0
  0
CLASS
  1
ACAMCOMPDEFMGR
  2
AcAmCompDefMgr
  3
DesignerAssemblies
 90
     1024
 91
        1
280
     0
281
     0
  0
CLASS
  1
AMCONTEXTMGR
  2
AcAmContextMgr
  3
DesignerAssemblies
 90
     1024
 91
        1
280
     0
281
     0
  0
CLASS
  1
ACAMCONTEXTMODELER
  2
AcAmContextModeler
  3
DesignerAssemblies
 90
     1024
 91
        1
280
     0
281
     0
  0
CLASS
  1
ACMDATADICTIONARY
  2
AcmDataDictionary
  3
"AcmSymBB|Product Description: AutoCAD Mechanical|Company: Autodesk, Inc."
 90
     1024
 91
        1
280
     0
281
     0
  0
CLASS
  1
CATALOGSTATE
  2
AcAmCatalogState
  3
DesignerAssemblies
 90
     1024
 91
        1
280
     0
281
     0
  0
CLASS
  1
ACAMGRCOMPDEFSET
  2
AcAmGrCompDefSet
  3
DesignerAssemblies
 90
     1024
 91
        1
280
     0
281
     0
  0
CLASS
  1
AMDTBROWSERDBTAB
  2
AmdtBrowserDbTab
  3
McadcomServices
 90
     1024
 91
        1
280
     0
281
     0
  0
CLASS
  1
CBROWSERAPPOBJECT
  2
CBrowserAppObject
  3
McadcomServices
 90
     1024
 91
        2
280
     0
281
     0
  0
CLASS
  1
DM_PLACEHOLDER
  2
AcDmSelsetPlaceholder
  3
McadcomServices
 90
     1024
 91
        1
280
     0
281
     0
  0
CLASS
  1
ACMSTANDARDANSI
  2
AcmStandardANSI
  3
"Amdt_StdImp|Product Description: AutoCAD Mechanical|Company: Autodesk, Inc."
 90
     1024
 91
        1
280
     0
281
     0
  0
CLASS
  1
AMGOBJPROPCFG
  2
AmgObjPropCfg
  3
"AmgLay|Product Description: AutoCAD Mechanical|Company: Autodesk, Inc."
 90
     1024
 91
        1
280
     0
281
     0
  0
CLASS
  1
ACMSURFSTANDARDANSI
  2
AcmSurfTextStdANSI
  3
"Amdt_StdImp|Product Description: AutoCAD Mechanical|Company: Autodesk, Inc."
 90
     1024
 91
        1
280
     0
281
     0
  0
CLASS
  1
ACMFCFSTANDARDANSI
  2
AcmFCFStdANSI
  3
"Amdt_StdImp|Product Description: AutoCAD Mechanical|Company: Autodesk, Inc."
 90
     1024
 91
        1
280
     0
281
     0
  0
CLASS
  1
ACMWELDSTANDARDANSI
  2
AcmWeldingStdANSI
  3
"Amdt_StdImp|Product Description: AutoCAD Mechanical|Company: Autodesk, Inc."
 90
     1024
 91
        1
280
     0
281
     0
  0
CLASS
  1
ACMIDSTANDARDANSI
  2
AcmIdStdANSI
  3
"Amdt_StdImp|Product Description: AutoCAD Mechanical|Company: Autodesk, Inc."
 90
     1024
 91
        1
280
     0
281
     0
  0
CLASS
  1
ACMDATUMSTANDARDANSI
  2
AcmDatumStdANSI
  3
"Amdt_StdImp|Product Description: AutoCAD Mechanical|Company: Autodesk, Inc."
 90
     1024
 91
        1
280
     0
281
     0
  0
CLASS
  1
ACMBOMSTANDARDANSI
  2
AcmBOMStdANSI
  3
"Amdt_StdImp|Product Description: AutoCAD Mechanical|Company: Autodesk, Inc."
 90
     1024
 91
        1
280
     0
281
     0
  0
CLASS
  1
ACMDETAILSTANDARDANSI
  2
AmdtDetailSymStdANSI
  3
"Amdt_StdImp|Product Description: AutoCAD Mechanical|Company: Autodesk, Inc."
 90
     1024
 91
        1
280
     0
281
     0
  0
CLASS
  1
ACMSECTIONSTANDARDANSI
  2
AmdtSectionSymStdANSI
  3
"Amdt_StdImp|Product Description: AutoCAD Mechanical|Company: Autodesk, Inc."
 90
     1024
 91
        1
280
     0
281
     0
  0
CLASS
  1
ACMCENTERLINESTANDARDANSI
  2
AmdtCenterLineStdANSI
  3
"Amdt_StdImp|Product Description: AutoCAD Mechanical|Company: Autodesk, Inc."
 90
     1024
 91
        1
280
     0
281
     0
  0
CLASS
  1
ACMTHREADLINESTANDARDANSI
  2
AmdtThreadLineStdANSI
  3
"Amdt_StdImp|Product Description: AutoCAD Mechanical|Company: Autodesk, Inc."
 90
     1024
 91
        1
280
     0
281
     0
  0
CLASS
  1
ACMNOTESTANDARDANSI
  2
AmdtNoteStdANSI
  3
"Amdt_StdImp|Product Description: AutoCAD Mechanical|Company: Autodesk, Inc."
 90
     1024
 91
        1
280
     0
281
     0
  0
CLASS
  1
ACMTAPERSTANDARDANSI
  2
AcmTaperStdANSI
  3
"Amdt_StdImp|Product Description: AutoCAD Mechanical|Company: Autodesk, Inc."
 90
     1024
 91
        1
280
     0
281
     0
  0
CLASS
  1
ACMANOOTATIONVIEWSTANDARDANSI
  2
AmdtAnViewStdANSI
  3
"Amdt_StdImp|Product Description: AutoCAD Mechanical|Company: Autodesk, Inc."
 90
     1024
 91
        1
280
     0
281
     0
  0
CLASS
  1
AMDTNOTETEMPLATEDB
  2
AmdtNoteTemplateDB
  3
AcmSymBB|Product Description: AutoCAD Mechanical|Company: Autodesk, Inc.
 90
     1024
 91
       18
280
     0
281
     0
  0
CLASS
  1
ACAMGLAYSTD
  2
AcAmgLayStd
  3
"AmgLay|Product Description: AutoCAD Mechanical|Company: Autodesk, Inc."
 90
     1024
 91
        3
280
     0
281
     0
  0
CLASS
  1
ACAMGDIMSTD
  2
AcAmgDimStd
  3
"AmgDim|Product Description: AutoCAD Mechanical|Company: Autodesk, Inc."
 90
     1024
 91
        3
280
     0
281
     0
  0
CLASS
  1
ACAMGHOLECHARTSTDANSI
  2
AcAmgHoleChartStdANSI
  3
AmgDim|Product Description: AutoCAD Mechanical|Company: Autodesk, Inc.
 90
     1024
 91
        1
280
     0
281
     0
  0
CLASS
  1
ACAMGTITLESTD
  2
AcAmgTitleStd
  3
"AmgTitle|Product Description: AutoCAD Mechanical|Company: Autodesk, Inc."
 90
     1024
 91
        3
280
     0
281
     0
  0
CLASS
  1
ACAMGFILTERDAT
  2
AcAmgFilterDat
  3
"AcadM|Product Description: AutoCAD Mechanical|Company: Autodesk, Inc."
 90
     1024
 91
        0
280
     0
281
     0
  0
CLASS
  1
CELLSTYLEMAP
  2
AcDbCellStyleMap
  3
ObjectDBX Classes
 90
     1152
 91
        2
280
     0
281
     0
  0
CLASS
  1
DICTIONARYVAR
  2
AcDbDictionaryVar
  3
ObjectDBX Classes
 90
        0
 91
       12
280
     0
281
     0
  0
CLASS
  1
ACMDATAENTRYPART
  2
AcmDataEntryPart
  3
AcmSymBB|Product Description: AutoCAD Mechanical|Company: Autodesk, Inc.
 90
     1024
 91
        0
280
     0
281
     0
  0
CLASS
  1
ACMPARTREF
  2
AcmPartRef
  3
"AcmSymBB|Product Description: AutoCAD Mechanical|Company: Autodesk, Inc."
 90
     1024
 91
        0
280
     0
281
     1
  0
CLASS
  1
ACDBLINERES
  2
AcDbLineRes
  3
AcGrefServices
 90
     1024
 91
        0
280
     0
281
     0
  0
CLASS
  1
ACMSTANDARDDIN
  2
AcmStandardDIN
  3
"Amdt_StdImp|Product Description: AutoCAD Mechanical|Company: Autodesk, Inc."
 90
     1024
 91
        1
280
     0
281
     0
  0
CLASS
  1
AMDTEDGESTANDARDDIN13715
  2
AmdtEdgeStdDIN13715
  3
"Amdt_StdImp|Product Description: AutoCAD Mechanical|Company: Autodesk, Inc."
 90
     1024
 91
        1
280
     0
281
     0
  0
CLASS
  1
ACMSURFSTANDARDDIN2002
  2
AcmSurfTextStdDIN2002
  3
"Amdt_StdImp|Product Description: AutoCAD Mechanical|Company: Autodesk, Inc."
 90
     1024
 91
        1
280
     0
281
     0
  0
CLASS
  1
ACMFCFSTANDARDDIN
  2
AcmFCFStdDIN
  3
"Amdt_StdImp|Product Description: AutoCAD Mechanical|Company: Autodesk, Inc."
 90
     1024
 91
        1
280
     0
281
     0
  0
CLASS
  1
ACMWELDSTANDARDDIN
  2
AcmWeldingStdDIN
  3
"Amdt_StdImp|Product Description: AutoCAD Mechanical|Company: Autodesk, Inc."
 90
     1024
 91
        1
280
     0
281
     0
  0
CLASS
  1
ACMIDSTANDARDDIN
  2
AcmIdStdDIN
  3
"Amdt_StdImp|Product Description: AutoCAD Mechanical|Company: Autodesk, Inc."
 90
     1024
 91
        1
280
     0
281
     0
  0
CLASS
  1
ACMDATUMSTANDARDDIN
  2
AcmDatumStdDIN
  3
"Amdt_StdImp|Product Description: AutoCAD Mechanical|Company: Autodesk, Inc."
 90
     1024
 91
        1
280
     0
281
     0
  0
CLASS
  1
ACMBOMSTANDARDDIN
  2
AcmBOMStdDIN
  3
"Amdt_StdImp|Product Description: AutoCAD Mechanical|Company: Autodesk, Inc."
 90
     1024
 91
        1
280
     0
281
     0
  0
CLASS
  1
ACMDETAILSTANDARDDIN
  2
AmdtDetailSymStdDIN
  3
"Amdt_StdImp|Product Description: AutoCAD Mechanical|Company: Autodesk, Inc."
 90
     1024
 91
        1
280
     0
281
     0
  0
CLASS
  1
ACMSECTIONSTANDARDDIN
  2
AmdtSectionSymStdDIN
  3
"Amdt_StdImp|Product Description: AutoCAD Mechanical|Company: Autodesk, Inc."
 90
     1024
 91
        1
280
     0
281
     0
  0
CLASS
  1
ACMCENTERLINESTANDARDDIN
  2
AmdtCenterLineStdDIN
  3
"Amdt_StdImp|Product Description: AutoCAD Mechanical|Company: Autodesk, Inc."
 90
     1024
 91
        1
280
     0
281
     0
  0
CLASS
  1
ACMTHREADLINESTANDARDDIN
  2
AmdtThreadLineStdDIN
  3
"Amdt_StdImp|Product Description: AutoCAD Mechanical|Company: Autodesk, Inc."
 90
     1024
 91
        1
280
     0
281
     0
  0
CLASS
  1
ACMNOTESTANDARDDIN
  2
AmdtNoteStdDIN
  3
"Amdt_StdImp|Product Description: AutoCAD Mechanical|Company: Autodesk, Inc."
 90
     1024
 91
        1
280
     0
281
     0
  0
CLASS
  1
ACMTAPERSTANDARDDIN
  2
AcmTaperStdDIN
  3
"Amdt_StdImp|Product Description: AutoCAD Mechanical|Company: Autodesk, Inc."
 90
     1024
 91
        1
280
     0
281
     0
  0
CLASS
  1
ACMANOOTATIONVIEWSTANDARDDIN
  2
AmdtAnViewStdDIN
  3
"Amdt_StdImp|Product Description: AutoCAD Mechanical|Company: Autodesk, Inc."
 90
     1024
 91
        1
280
     0
281
     0
  0
CLASS
  1
ACAMGHOLECHARTSTDDIN
  2
AcAmgHoleChartStdDIN
  3
AmgDim|Product Description: AutoCAD Mechanical|Company: Autodesk, Inc.
 90
     1024
 91
        1
280
     0
281
     0
  0
CLASS
  1
ACMDATAENTRYBLOCK
  2
AcmDataEntryBlock
  3
AcmSymBB|Product Description: AutoCAD Mechanical|Company: Autodesk, Inc.
 90
     1024
 91
        1
280
     0
281
     0
  0
CLASS
  1
ACMBOM
  2
AcmBom
  3
"AcmSymBB|Product Description: AutoCAD Mechanical|Company: Autodesk, Inc."
 90
     1024
 91
        1
280
     0
281
     0
  0
CLASS
  1
AMDTFORMULAUPDATEDISPATCHER
  2
AmdtFormulaUpdateDispatcher
  3
AcMeServices
 90
     1024
 91
        1
280
     0
281
     0
  0
CLASS
  1
ACMBOMROW
  2
AcmBomRow
  3
"AcmSymBB|Product Description: AutoCAD Mechanical|Company: Autodesk, Inc."
 90
     1024
 91
        0
280
     0
281
     0
  0
CLASS
  1
ACMPARTLIST
  2
AcmPartList
  3
"AcmSymBB|Product Description: AutoCAD Mechanical|Company: Autodesk, Inc."
 90
     1024
 91
        0
280
     0
281
     1
  0
CLASS
  1
CAMSSTRUCTBTNSTATE
  2
StructBtnState
  3
DesignerAssemblies
 90
     1024
 91
        1
280
     0
281
     0
  0
CLASS
  1
ACRFATTGENMGR
  2
AcRfAttGeneralMgr
  3
AcAttribServices
 90
     1024
 91
        1
280
     0
281
     0
  0
CLASS
  1
ACRFOBJATTMGR
  2
AcRfObjAttGroupMgr
  3
AcAttribServices
 90
     1024
 91
        1
280
     0
281
     0
  0
CLASS
  1
ACRFMCADAPIATTHOLDER
  2
AcRfMCADAPIAttHolder
  3
AcAttribServices
 90
     1024
 91
        1
280
     0
281
     0
  0
CLASS
  1
AMDTSYSATTR
  2
AmdtSystemAttribute
  3
AcAttribServices
 90
     1024
 91
        1
280
     0
281
     0
  0
CLASS
  1
SORTENTSTABLE
  2
AcDbSortentsTable
  3
ObjectDBX Classes
 90
        0
 91
        1
280
     0
281
     0
  0
CLASS
  1
ACMSTANDARDISO
  2
AcmStandardISO
  3
"Amdt_StdImp|Product Description: AutoCAD Mechanical|Company: Autodesk, Inc."
 90
     1024
 91
        1
280
     0
281
     0
  0
CLASS
  1
AMDTEDGESTANDARDISO
  2
AmdtEdgeStdISO
  3
"Amdt_StdImp|Product Description: AutoCAD Mechanical|Company: Autodesk, Inc."
 90
     1024
 91
        1
280
     0
281
     0
  0
CLASS
  1
ACMSURFSTANDARDISO2002
  2
AcmSurfTextStdISO2002
  3
"Amdt_StdImp|Product Description: AutoCAD Mechanical|Company: Autodesk, Inc."
 90
     1024
 91
        1
280
     0
281
     0
  0
CLASS
  1
ACMFCFSTANDARDISO
  2
AcmFCFStdISO
  3
"Amdt_StdImp|Product Description: AutoCAD Mechanical|Company: Autodesk, Inc."
 90
     1024
 91
        1
280
     0
281
     0
  0
CLASS
  1
ACMWELDSTANDARDISO
  2
AcmWeldingStdISO
  3
"Amdt_StdImp|Product Description: AutoCAD Mechanical|Company: Autodesk, Inc."
 90
     1024
 91
        1
280
     0
281
     0
  0
CLASS
  1
ACMIDSTANDARDISO
  2
AcmIdStdISO
  3
"Amdt_StdImp|Product Description: AutoCAD Mechanical|Company: Autodesk, Inc."
 90
     1024
 91
        1
280
     0
281
     0
  0
CLASS
  1
ACMDATUMSTANDARDISO
  2
AcmDatumStdISO
  3
"Amdt_StdImp|Product Description: AutoCAD Mechanical|Company: Autodesk, Inc."
 90
     1024
 91
        1
280
     0
281
     0
  0
CLASS
  1
ACMBOMSTANDARDISO
  2
AcmBOMStdISO
  3
"Amdt_StdImp|Product Description: AutoCAD Mechanical|Company: Autodesk, Inc."
 90
     1024
 91
        1
280
     0
281
     0
  0
CLASS
  1
ACMDETAILSTANDARDISO
  2
AmdtDetailSymStdISO
  3
"Amdt_StdImp|Product Description: AutoCAD Mechanical|Company: Autodesk, Inc."
 90
     1024
 91
        1
280
     0
281
     0
  0
CLASS
  1
ACMSECTIONSTANDARDISO2001
  2
AmdtSectionSymStdISO2001
  3
"Amdt_StdImp|Product Description: AutoCAD Mechanical|Company: Autodesk, Inc."
 90
     1024
 91
        1
280
     0
281
     0
  0
CLASS
  1
ACMCENTERLINESTANDARDISO
  2
AmdtCenterLineStdISO
  3
"Amdt_StdImp|Product Description: AutoCAD Mechanical|Company: Autodesk, Inc."
 90
     1024
 91
        1
280
     0
281
     0
  0
CLASS
  1
ACMNOTESTANDARDISO
  2
AmdtNoteStdISO
  3
"Amdt_StdImp|Product Description: AutoCAD Mechanical|Company: Autodesk, Inc."
 90
     1024
 91
        1
280
     0
281
     0
  0
CLASS
  1
ACAMGHOLECHARTSTDISO
  2
AcAmgHoleChartStdISO
  3
AmgDim|Product Description: AutoCAD Mechanical|Company: Autodesk, Inc.
 90
     1024
 91
        1
280
     0
281
     0
  0
CLASS
  1
ACMTHREADLINESTANDARDISO
  2
AmdtThreadLineStdISO
  3
"Amdt_StdImp|Product Description: AutoCAD Mechanical|Company: Autodesk, Inc."
 90
     1024
 91
        1
280
     0
281
     0
  0
CLASS
  1
ACMTAPERSTANDARDISO
  2
AcmTaperStdISO
  3
"Amdt_StdImp|Product Description: AutoCAD Mechanical|Company: Autodesk, Inc."
 90
     1024
 91
        1
280
     0
281
     0
  0
CLASS
  1
ACMANOOTATIONVIEWSTANDARDISO
  2
AmdtAnViewStdISO
  3
"Amdt_StdImp|Product Description: AutoCAD Mechanical|Company: Autodesk, Inc."
 90
     1024
 91
        1
280
     0
281
     0
  0
CLASS
  1
ACMSTANDARDGB
  2
AcmStandardGB
  3
"Amdt_StdImp|Product Description: AutoCAD Mechanical|Company: Autodesk, Inc."
 90
     1024
 91
        0
280
     0
281
     0
  0
CLASS
  1
ACMSURFSTANDARDGB
  2
AcmSurfTextStdGB
  3
"Amdt_StdImp|Product Description: AutoCAD Mechanical|Company: Autodesk, Inc."
 90
     1024
 91
        0
280
     0
281
     0
  0
CLASS
  1
ACMFCFSTANDARDGB
  2
AcmFCFStdGB
  3
"Amdt_StdImp|Product Description: AutoCAD Mechanical|Company: Autodesk, Inc."
 90
     1024
 91
        0
280
     0
281
     0
  0
CLASS
  1
ACMWELDSTANDARDGB
  2
AcmWeldingStdGB
  3
"Amdt_StdImp|Product Description: AutoCAD Mechanical|Company: Autodesk, Inc."
 90
     1024
 91
        0
280
     0
281
     0
  0
CLASS
  1
ACMIDSTANDARDGB
  2
AcmIdStdGB
  3
"Amdt_StdImp|Product Description: AutoCAD Mechanical|Company: Autodesk, Inc."
 90
     1024
 91
        0
280
     0
281
     0
  0
CLASS
  1
ACMDATUMSTANDARDGB
  2
AcmDatumStdGB
  3
"Amdt_StdImp|Product Description: AutoCAD Mechanical|Company: Autodesk, Inc."
 90
     1024
 91
        0
280
     0
281
     0
  0
CLASS
  1
ACMBOMSTANDARDGB
  2
AcmBOMStdGB
  3
"Amdt_StdImp|Product Description: AutoCAD Mechanical|Company: Autodesk, Inc."
 90
     1024
 91
        0
280
     0
281
     0
  0
CLASS
  1
ACMDETAILSTANDARDGB
  2
AmdtDetailSymStdGB
  3
"Amdt_StdImp|Product Description: AutoCAD Mechanical|Company: Autodesk, Inc."
 90
     1024
 91
        0
280
     0
281
     0
  0
CLASS
  1
ACMSECTIONSTANDARDGB1998
  2
AmdtSectionSymStdGB1998
  3
"Amdt_StdImp|Product Description: AutoCAD Mechanical|Company: Autodesk, Inc."
 90
     1024
 91
        0
280
     0
281
     0
  0
CLASS
  1
ACMCENTERLINESTANDARDGB
  2
AmdtCenterLineStdGB
  3
"Amdt_StdImp|Product Description: AutoCAD Mechanical|Company: Autodesk, Inc."
 90
     1024
 91
        0
280
     0
281
     0
  0
CLASS
  1
ACMTHREADLINESTANDARDGB
  2
AmdtThreadLineStdGB
  3
"Amdt_StdImp|Product Description: AutoCAD Mechanical|Company: Autodesk, Inc."
 90
     1024
 91
        0
280
     0
281
     0
  0
CLASS
  1
ACMNOTESTANDARDGB
  2
AmdtNoteStdGB
  3
"Amdt_StdImp|Product Description: AutoCAD Mechanical|Company: Autodesk, Inc."
 90
     1024
 91
        0
280
     0
281
     0
  0
CLASS
  1
ACMTAPERSTANDARDGB
  2
AcmTaperStdGB
  3
"Amdt_StdImp|Product Description: AutoCAD Mechanical|Company: Autodesk, Inc."
 90
     1024
 91
        0
280
     0
281
     0
  0
CLASS
  1
ACMANOOTATIONVIEWSTANDARDGB
  2
AmdtAnViewStdGB
  3
"Amdt_StdImp|Product Description: AutoCAD Mechanical|Company: Autodesk, Inc."
 90
     1024
 91
        0
280
     0
281
     0
  0
CLASS
  1
ACAMGHOLECHARTSTDGB
  2
AcAmgHoleChartStdGB
  3
AmgDim|Product Description: AutoCAD Mechanical|Company: Autodesk, Inc.
 90
     1024
 91
        0
280
     0
281
     0
  0
CLASS
  1
ACMSTANDARDCSN
  2
AcmStandardCSN
  3
"Amdt_StdImp|Product Description: AutoCAD Mechanical|Company: Autodesk, Inc."
 90
     1024
 91
        0
280
     0
281
     0
  0
CLASS
  1
ACMSURFSTANDARDCSN
  2
AcmSurfTextStdCSN
  3
"Amdt_StdImp|Product Description: AutoCAD Mechanical|Company: Autodesk, Inc."
 90
     1024
 91
        0
280
     0
281
     0
  0
CLASS
  1
ACMFCFSTANDARDCSN
  2
AcmFCFStdCSN
  3
"Amdt_StdImp|Product Description: AutoCAD Mechanical|Company: Autodesk, Inc."
 90
     1024
 91
        0
280
     0
281
     0
  0
CLASS
  1
ACMWELDSTANDARDCSN
  2
AcmWeldingStdCSN
  3
"Amdt_StdImp|Product Description: AutoCAD Mechanical|Company: Autodesk, Inc."
 90
     1024
 91
        0
280
     0
281
     0
  0
CLASS
  1
ACMIDSTANDARDCSN
  2
AcmIdStdCSN
  3
"Amdt_StdImp|Product Description: AutoCAD Mechanical|Company: Autodesk, Inc."
 90
     1024
 91
        0
280
     0
281
     0
  0
CLASS
  1
ACMDATUMSTANDARDCSN
  2
AcmDatumStdCSN
  3
"Amdt_StdImp|Product Description: AutoCAD Mechanical|Company: Autodesk, Inc."
 90
     1024
 91
        0
280
     0
281
     0
  0
CLASS
  1
ACMBOMSTANDARDCSN
  2
AcmBOMStdCSN
  3
"Amdt_StdImp|Product Description: AutoCAD Mechanical|Company: Autodesk, Inc."
 90
     1024
 91
        0
280
     0
281
     0
  0
CLASS
  1
ACMDETAILSTANDARDCSN
  2
AmdtDetailSymStdCSN
  3
"Amdt_StdImp|Product Description: AutoCAD Mechanical|Company: Autodesk, Inc."
 90
     1024
 91
        0
280
     0
281
     0
  0
CLASS
  1
ACMSECTIONSTANDARDCSN2002
  2
AmdtSectionSymStdCSN2002
  3
"Amdt_StdImp|Product Description: AutoCAD Mechanical|Company: Autodesk, Inc."
 90
     1024
 91
        0
280
     0
281
     0
  0
CLASS
  1
ACMCENTERLINESTANDARDCSN
  2
AmdtCenterLineStdCSN
  3
"Amdt_StdImp|Product Description: AutoCAD Mechanical|Company: Autodesk, Inc."
 90
     1024
 91
        0
280
     0
281
     0
  0
CLASS
  1
ACMTHREADLINESTANDARDCSN
  2
AmdtThreadLineStdCSN
  3
"Amdt_StdImp|Product Description: AutoCAD Mechanical|Company: Autodesk, Inc."
 90
     1024
 91
        0
280
     0
281
     0
  0
CLASS
  1
ACMNOTESTANDARDCSN
  2
AmdtNoteStdCSN
  3
"Amdt_StdImp|Product Description: AutoCAD Mechanical|Company: Autodesk, Inc."
 90
     1024
 91
        0
280
     0
281
     0
  0
CLASS
  1
ACMTAPERSTANDARDCSN
  2
AcmTaperStdCSN
  3
"Amdt_StdImp|Product Description: AutoCAD Mechanical|Company: Autodesk, Inc."
 90
     1024
 91
        0
280
     0
281
     0
  0
CLASS
  1
ACMANOOTATIONVIEWSTANDARDCSN
  2
AmdtAnViewStdCSN
  3
"Amdt_StdImp|Product Description: AutoCAD Mechanical|Company: Autodesk, Inc."
 90
     1024
 91
        0
280
     0
281
     0
  0
CLASS
  1
ACAMGHOLECHARTSTDCSN
  2
AcAmgHoleChartStdCSN
  3
AmgDim|Product Description: AutoCAD Mechanical|Company: Autodesk, Inc.
 90
     1024
 91
        0
280
     0
281
     0
  0
CLASS
  1
DIMASSOC
  2
AcDbDimAssoc
  3
"AcDbDimAssoc|Product Desc:     AcDim ARX App For Dimension|Company:          Autodesk, Inc.|WEB Address:      www.autodesk.com"
 90
        0
 91
        7
280
     0
281
     0
  0
CLASS
  1
ACDBCIRCARCRES
  2
AcDbCircArcRes
  3
AcGrefServices
 90
     1024
 91
        0
280
     0
281
     0
  0
CLASS
  1
ACDB_BLKREFOBJECTCONTEXTDATA_CLASS
  2
AcDbBlkRefObjectContextData
  3
ObjectDBX Classes
 90
     1153
 91
        0
280
     0
281
     0
  0
CLASS
  1
ACAD_EVALUATION_GRAPH
  2
AcDbEvalGraph
  3
ObjectDBX Classes
 90
     1153
 91
        0
280
     0
281
     0
  0
CLASS
  1
ACAECUSTOBJ
  2
AcAeEditorObj
  3
AcAeEditorObj
 90
     1024
 91
        0
280
     0
281
     0
  0
CLASS
  1
ACDB_DYNAMICBLOCKPURGEPREVENTER_VERSION
  2
AcDbDynamicBlockPurgePreventer
  3
ObjectDBX Classes
 90
     1153
 91
        0
280
     0
281
     0
  0
CLASS
  1
ACDBSECTIONVIEWSTYLE
  2
AcDbSectionViewStyle
  3
ObjectDBX Classes
 90
     1025
 91
        4
280
     0
281
     0
  0
CLASS
  1
ACDBDETAILVIEWSTYLE
  2
AcDbDetailViewStyle
  3
ObjectDBX Classes
 90
     1025
 91
        4
280
     0
281
     0
  0
CLASS
  1
ACMSECTIONSTANDARDCUSTOM
  2
AmdtSectionSymStdCustom
  3
"Amdt_StdImp|Product Description: AutoCAD Mechanical|Company: Autodesk, Inc."
 90
     1024
 91
        3
280
     0
281
     0
  0
CLASS
  1
ACMDETAILTANDARDCUSTOM
  2
AmdtDetailSymStdCustom
  3
"Amdt_StdImp|Product Description: AutoCAD Mechanical|Company: Autodesk, Inc."
 90
     1024
 91
        3
280
     0
281
     0
  0
CLASS
  1
FIELD
  2
AcDbField
  3
ObjectDBX Classes
 90
     1152
 91
       16
280
     0
281
     0
  0
CLASS
  1
FIELDLIST
  2
AcDbFieldList
  3
ObjectDBX Classes
 90
     1152
 91
        1
280
     0
281
     0
  0
CLASS
  1
EXACXREFPANELOBJECT
  2
ExAcXREFPanelObject
  3
EXAC_ESW
 90
     1025
 91
        1
280
     0
281
     0
  0
CLASS
  1
NPOCOLLECTION
  2
AcDbImpNonPersistentObjectsCollection
  3
ObjectDBX Classes
 90
     1153
 91
        1
280
     0
281
     0
  0
ENDSEC
  0
SECTION
  2
TABLES
  0
TABLE
  2
VPORT
  5
8
102
{ACAD_XDICTIONARY
360
1B6
102
}
330
0
100
AcDbSymbolTable
 70
     1
  0
VPORT
  5
82
330
8
100
AcDbSymbolTableRecord
100
AcDbViewportTableRecord
  2
*Active
 70
     0
 10
0.0
 20
0.0
 11
1.0
 21
1.0
 12
4618.934639674662
 22
4182.046066266535
 13
0.0
 23
0.0
 14
50.0
 24
50.0
 15
200.0
 25
200.0
 16
0.0
 26
0.0
 36
1.0
 17
0.0
 27
0.0
 37
0.0
 40
471.4550594344027
 41
2.569037656903765
 42
50.0
 43
0.0
 44
0.0
 50
0.0
 51
0.0
 71
    16
 72
 10000
 73
     1
 74
     1
 75
     0
 76
     0
 77
     0
 78
     0
281
     0
 65
     0
110
0.0
120
0.0
130
0.0
111
1.0
121
0.0
131
0.0
112
0.0
122
1.0
132
0.0
 79
     0
146
0.0
348
2F
 60
     3
 61
     5
292
     1
282
     1
141
0.0
142
0.0
 63
   250
421
  3355443
1001
ACAD_NAV_VCDISPLAY
1070
     3
  0
ENDTAB
  0
TABLE
  2
LTYPE
  5
5
330
0
100
AcDbSymbolTable
 70
    22
  0
LTYPE
  5
62
330
5
100
AcDbSymbolTableRecord
100
AcDbLinetypeTableRecord
  2
ByBlock
 70
     0
  3

 72
    65
 73
     0
 40
0.0
  0
LTYPE
  5
63
330
5
100
AcDbSymbolTableRecord
100
AcDbLinetypeTableRecord
  2
ByLayer
 70
     0
  3

 72
    65
 73
     0
 40
0.0
  0
LTYPE
  5
64
330
5
100
AcDbSymbolTableRecord
100
AcDbLinetypeTableRecord
  2
CONTINUOUS
 70
     0
  3
Solid line
 72
    65
 73
     0
 40
0.0
  0
LTYPE
  5
78
330
5
100
AcDbSymbolTableRecord
100
AcDbLinetypeTableRecord
  2
DASHED
 70
     0
  3
Dashed line
 72
    65
 73
     2
 40
0.75
 49
0.5
 74
     0
 49
-0.25
 74
     0
  0
LTYPE
  5
79
330
5
100
AcDbSymbolTableRecord
100
AcDbLinetypeTableRecord
  2
CENTER
 70
     0
  3
Center line
 72
    65
 73
     4
 40
2.0
 49
1.25
 74
     0
 49
-0.25
 74
     0
 49
0.25
 74
     0
 49
-0.25
 74
     0
  0
LTYPE
  5
13E
330
5
100
AcDbSymbolTableRecord
100
AcDbLinetypeTableRecord
  2
HIDDEN
 70
     0
  3
Verdeckt
 72
    65
 73
     2
 40
0.375
 49
0.25
 74
     0
 49
-0.125
 74
     0
  0
LTYPE
  5
13F
330
5
100
AcDbSymbolTableRecord
100
AcDbLinetypeTableRecord
  2
PHANTOM2
 70
     0
  3
Phantom (.5x) ___ _ _ ___ _ _ ___ _ _ ___ _ _
 72
    65
 73
     6
 40
1.25
 49
0.625
 74
     0
 49
-0.125
 74
     0
 49
0.125
 74
     0
 49
-0.125
 74
     0
 49
0.125
 74
     0
 49
-0.125
 74
     0
  0
LTYPE
  5
183
330
5
100
AcDbSymbolTableRecord
100
AcDbLinetypeTableRecord
  2
ACANSTGB
 70
     0
  3
__ . . __ . .
 72
    65
 73
     6
 40
0.35433070866
 49
0.15748031496
 74
     0
 49
-0.03937007874
 74
     0
 49
0.03937007874
 74
     0
 49
-0.03937007874
 74
     0
 49
0.03937007874
 74
     0
 49
-0.03937007874
 74
     0
  0
LTYPE
  5
184
330
5
100
AcDbSymbolTableRecord
100
AcDbLinetypeTableRecord
  2
ACANSTGL
 70
     0
  3
_ _ _ _ _
 72
    65
 73
     2
 40
0.11811023622
 49
0.07874015748
 74
     0
 49
-0.03937007874
 74
     0
  0
LTYPE
  5
26A
330
5
100
AcDbSymbolTableRecord
100
AcDbLinetypeTableRecord
  2
ACDINWELD
 70
     0
  3
_ _ _ _ _
 72
    65
 73
     2
 40
2.0
 49
2.0
 74
     0
 49
-1.0
 74
     0
  0
LTYPE
  5
26B
330
5
100
AcDbSymbolTableRecord
100
AcDbLinetypeTableRecord
  2
ACDINTGB
 70
     0
  3
__ . . __ . .
 72
    65
 73
     6
 40
9.0
 49
4.0
 74
     0
 49
-1.0
 74
     0
 49
1.0
 74
     0
 49
-1.0
 74
     0
 49
1.0
 74
     0
 49
-1.0
 74
     0
  0
LTYPE
  5
26C
330
5
100
AcDbSymbolTableRecord
100
AcDbLinetypeTableRecord
  2
ACDINTGL
 70
     0
  3
_ _ _ _ _
 72
    65
 73
     2
 40
3.0
 49
2.0
 74
     0
 49
-1.0
 74
     0
  0
LTYPE
  5
2A6
330
5
100
AcDbSymbolTableRecord
100
AcDbLinetypeTableRecord
  2
Amconstr
 70
     0
  3
_______________________
 72
    65
 73
     2
 40
9999.0
 49
9999.0
 74
     0
 49
0.0
 74
     0
  0
LTYPE
  5
2A7
330
5
100
AcDbSymbolTableRecord
100
AcDbLinetypeTableRecord
  2
Amzigzag
 70
     0
  3
/\/-/\/-/\/-/\/-/\/-/\/
 72
    65
 73
     2
 40
11.0001
 49
0.0001
 74
     4
 75
   136
340
2A8
 46
0.04
 50
0.0
 44
0.0
 45
0.0
 49
-11.0
 74
     0
  0
LTYPE
  5
38A
330
5
100
AcDbSymbolTableRecord
100
AcDbLinetypeTableRecord
  2
HIDDEN2
 70
     0
  3
Hidden (.5x) _ _ _ _ _ _ _ _ _ _ _ _ _ _ _ _ _
 72
    65
 73
     2
 40
0.1875
 49
0.125
 74
     0
 49
-0.0625
 74
     0
  0
LTYPE
  5
38B
330
5
100
AcDbSymbolTableRecord
100
AcDbLinetypeTableRecord
  2
CENTER2
 70
     0
  3
Center (.5x) ___ _ ___ _ ___ _ ___ _ ___ _ ___
 72
    65
 73
     4
 40
1.125
 49
0.75
 74
     0
 49
-0.125
 74
     0
 49
0.125
 74
     0
 49
-0.125
 74
     0
  0
LTYPE
  5
3C3
330
5
100
AcDbSymbolTableRecord
100
AcDbLinetypeTableRecord
  2
AM_ISO02W050
 70
     0
  3
__ __ __ __ __ __ __ __ __ __ __ __ __ __ __
 72
    65
 73
     2
 40
7.5
 49
6.0
 74
     0
 49
-1.5
 74
     0
  0
LTYPE
  5
3C4
330
5
100
AcDbSymbolTableRecord
100
AcDbLinetypeTableRecord
  2
AM_ISO08W050
 70
     0
  3
____ . ____ . ____ . ____ . ____ . ____ . ____
 72
    65
 73
     4
 40
18.0
 49
12.0
 74
     0
 49
-1.5
 74
     0
 49
3.0
 74
     0
 49
-1.5
 74
     0
  0
LTYPE
  5
3C5
330
5
100
AcDbSymbolTableRecord
100
AcDbLinetypeTableRecord
  2
AM_ISO09W050
 70
     0
  3
_____ . . _____ . . _____ . . ____ .. ____
 72
    65
 73
     6
 40
22.5
 49
12.0
 74
     0
 49
-1.5
 74
     0
 49
3.0
 74
     0
 49
-1.5
 74
     0
 49
3.0
 74
     0
 49
-1.5
 74
     0
  0
LTYPE
  5
3C6
330
5
100
AcDbSymbolTableRecord
100
AcDbLinetypeTableRecord
  2
AM_ISO08W050x2
 70
     0
  3
__ . __ . __ . __ . __ . __
 72
    65
 73
     4
 40
9.0
 49
6.0
 74
     0
 49
-0.75
 74
     0
 49
1.5
 74
     0
 49
-0.75
 74
     0
  0
LTYPE
  5
3C7
330
5
100
AcDbSymbolTableRecord
100
AcDbLinetypeTableRecord
  2
AM_ISO02W050x2
 70
     0
  3
 _ _ _ _ _ _ _ _ _ _ _ _
 72
    65
 73
     2
 40
3.75
 49
3.0
 74
     0
 49
-0.75
 74
     0
  0
LTYPE
  5
3C8
330
5
100
AcDbSymbolTableRecord
100
AcDbLinetypeTableRecord
  2
ACISOWELD
 70
     0
  3
_ _ _ _ _
 72
    65
 73
     2
 40
2.0
 49
2.0
 74
     0
 49
-1.0
 74
     0
  0
LTYPE
  5
3C9
330
5
100
AcDbSymbolTableRecord
100
AcDbLinetypeTableRecord
  2
ACISOTGB
 70
     0
  3
__ . . __ . .
 72
    65
 73
     6
 40
9.0
 49
4.0
 74
     0
 49
-1.0
 74
     0
 49
1.0
 74
     0
 49
-1.0
 74
     0
 49
1.0
 74
     0
 49
-1.0
 74
     0
  0
LTYPE
  5
3CA
330
5
100
AcDbSymbolTableRecord
100
AcDbLinetypeTableRecord
  2
ACISOTGL
 70
     0
  3
_ _ _ _ _
 72
    65
 73
     2
 40
3.0
 49
2.0
 74
     0
 49
-1.0
 74
     0
  0
ENDTAB
  0
TABLE
  2
LAYER
  5
2
102
{ACAD_XDICTIONARY
360
256
102
}
330
0
100
AcDbSymbolTable
 70
     7
  0
LAYER
  5
5C
102
{ACAD_XDICTIONARY
360
1A2
102
}
330
2
100
AcDbSymbolTableRecord
100
AcDbLayerTableRecord
  2
0
 70
     0
 62
     7
  6
CONTINUOUS
370
    -3
390
F
347
21
348
0
  0
LAYER
  5
27F
102
{ACAD_XDICTIONARY
360
2C7
102
}
330
2
100
AcDbSymbolTableRecord
100
AcDbLayerTableRecord
  2
Defpoints
 70
     0
 62
     7
  6
CONTINUOUS
290
     0
370
    -3
390
F
347
21
348
0
  0
LAYER
  5
2AE
102
{ACAD_XDICTIONARY
360
2CD
102
}
330
2
100
AcDbSymbolTableRecord
100
AcDbLayerTableRecord
  2
AM_2 ( Kontur 0.25)
 70
     0
 62
     5
  6
CONTINUOUS
370
    25
390
F
347
21
348
0
1001
AcAecLayerStandard
1000

1000

  0
LAYER
  5
1173
330
2
100
AcDbSymbolTableRecord
100
AcDbLayerTableRecord
  2
AM_0 ( Kontur 0.5 )
 70
     0
 62
     7
  6
CONTINUOUS
370
    50
390
F
347
21
348
0
1001
AcAecLayerStandard
1000

1000

  0
LAYER
  5
1174
330
2
100
AcDbSymbolTableRecord
100
AcDbLayerTableRecord
  2
AM_7 (Mittellinie)
 70
     0
 62
     4
  6
AM_ISO08W050
370
    25
390
F
347
21
348
0
1001
AcAecLayerStandard
1000

1000

  0
LAYER
  5
1175
330
2
100
AcDbSymbolTableRecord
100
AcDbLayerTableRecord
  2
AM_3 ( Verdeckt )
 70
     0
 62
     6
  6
AM_ISO02W050
370
    25
390
F
347
21
348
0
1001
AcAecLayerStandard
1000

1000

  0
LAYER
  5
16CD
330
2
100
AcDbSymbolTableRecord
100
AcDbLayerTableRecord
  2
AM_5 ( Bemassung)
 70
     0
 62
     3
  6
CONTINUOUS
370
    25
390
F
347
21
348
0
1001
AcAecLayerStandard
1000

1000

  0
ENDTAB
  0
TABLE
  2
STYLE
  5
3
330
0
100
AcDbSymbolTable
 70
     8
  0
STYLE
  5
5D
330
3
100
AcDbSymbolTableRecord
100
AcDbTextStyleTableRecord
  2
STANDARD
 70
     0
 40
0.0
 41
1.0
 50
0.0
 71
     0
 42
3.5
  3
ARIAL.TTF
  4

1001
ACAD
1000
Arial
1071
       34
  0
STYLE
  5
174
330
3
100
AcDbSymbolTableRecord
100
AcDbTextStyleTableRecord
  2
ACANSTS
 70
     0
 40
1.0
 41
1.0
 50
0.0
 71
     0
 42
3.5
  3
romans.shx
  4

  0
STYLE
  5
182
330
3
100
AcDbSymbolTableRecord
100
AcDbTextStyleTableRecord
  2
ACANSGDT
 70
     0
 40
0.0
 41
1.0
 50
0.0
 71
     0
 42
3.5
  3
amgdt.shx
  4

  0
STYLE
  5
25A
330
3
100
AcDbSymbolTableRecord
100
AcDbTextStyleTableRecord
  2
ACDINTS
 70
     0
 40
1.0
 41
1.0
 50
0.0
 71
     0
 42
3.5
  3
isocp.shx
  4

  0
STYLE
  5
269
330
3
100
AcDbSymbolTableRecord
100
AcDbTextStyleTableRecord
  2
ACDINGDT
 70
     0
 40
0.0
 41
1.0
 50
0.0
 71
     0
 42
3.5
  3
amgdt.shx
  4

  0
STYLE
  5
2A8
330
3
100
AcDbSymbolTableRecord
100
AcDbTextStyleTableRecord
  2

 70
     1
 40
0.0
 41
1.0
 50
0.0
 71
     0
 42
2.5
  3
genltshp.shx
  4

  0
STYLE
  5
3CB
330
3
100
AcDbSymbolTableRecord
100
AcDbTextStyleTableRecord
  2
ACISOTS
 70
     0
 40
1.0
 41
1.0
 50
0.0
 71
     0
 42
2.5
  3
ARIALN.TTF
  4

1001
ACAD
1000
Arial Narrow
1071
       34
  0
STYLE
  5
3CC
330
3
100
AcDbSymbolTableRecord
100
AcDbTextStyleTableRecord
  2
ACISOGDT
 70
     0
 40
0.0
 41
1.0
 50
0.0
 71
     0
 42
2.5
  3
amgdt.shx
  4

  0
ENDTAB
  0
TABLE
  2
VIEW
  5
6
330
0
100
AcDbSymbolTable
 70
     6
  0
VIEW
  5
51B
330
6
100
AcDbSymbolTableRecord
100
AcDbViewTableRecord
  2
AM_VIEW1
 70
     0
 40
2970.0
 10
5244.127408818744
 20
7963.547409082302
 41
4538.252933507171
 11
0.0
 21
0.0
 31
1.0
 12
0.0
 22
0.0
 32
0.0
 42
50.0
 43
0.0
 44
0.0
 50
0.0
 71
    16
281
     0
 72
     0
 73
     0
348
2F
  0
VIEW
  5
51C
330
6
100
AcDbSymbolTableRecord
100
AcDbViewTableRecord
  2
AM_VIEW2
 70
     0
 40
2970.0
 10
9105.874475311576
 20
7963.547409082302
 41
4538.252933507171
 11
0.0
 21
0.0
 31
1.0
 12
0.0
 22
0.0
 32
0.0
 42
50.0
 43
0.0
 44
0.0
 50
0.0
 71
    16
281
     0
 72
     0
 73
     0
348
2F
  0
VIEW
  5
51D
330
6
100
AcDbSymbolTableRecord
100
AcDbViewTableRecord
  2
AM_VIEW3
 70
     0
 40
2970.0
 10
5244.127408818744
 20
4993.547409082303
 41
4538.252933507171
 11
0.0
 21
0.0
 31
1.0
 12
0.0
 22
0.0
 32
0.0
 42
50.0
 43
0.0
 44
0.0
 50
0.0
 71
    16
281
     0
 72
     0
 73
     0
348
2F
  0
VIEW
  5
51E
330
6
100
AcDbSymbolTableRecord
100
AcDbViewTableRecord
  2
AM_VIEW4
 70
     0
 40
2970.0
 10
9105.874475311576
 20
4993.547409082303
 41
4538.252933507171
 11
0.0
 21
0.0
 31
1.0
 12
0.0
 22
0.0
 32
0.0
 42
50.0
 43
0.0
 44
0.0
 50
0.0
 71
    16
281
     0
 72
     0
 73
     0
348
2F
  0
VIEW
  5
51F
330
6
100
AcDbSymbolTableRecord
100
AcDbViewTableRecord
  2
AM_VIEW5
 70
     0
 40
2970.0
 10
7175.000942065159
 20
6478.547409082302
 41
4538.252933507172
 11
0.0
 21
0.0
 31
1.0
 12
0.0
 22
0.0
 32
0.0
 42
50.0
 43
0.0
 44
0.0
 50
0.0
 71
    16
281
     0
 72
     0
 73
     0
348
2F
  0
VIEW
  5
520
330
6
100
AcDbSymbolTableRecord
100
AcDbViewTableRecord
  2
AM_VIEW6
 70
     0
 40
5939.940599999999
 10
7175.000942065159
 20
6478.547409082302
 41
9076.415101955673
 11
0.0
 21
0.0
 31
1.0
 12
0.0
 22
0.0
 32
0.0
 42
50.0
 43
0.0
 44
0.0
 50
0.0
 71
    16
281
     0
 72
     0
 73
     0
348
2F
  0
ENDTAB
  0
TABLE
  2
UCS
  5
7
330
0
100
AcDbSymbolTable
 70
     0
  0
ENDTAB
  0
TABLE
  2
APPID
  5
9
330
0
100
AcDbSymbolTable
 70
    68
  0
APPID
  5
5E
330
9
100
AcDbSymbolTableRecord
100
AcDbRegAppTableRecord
  2
ACAD
 70
     0
  0
APPID
  5
65
330
9
100
AcDbSymbolTableRecord
100
AcDbRegAppTableRecord
  2
AcadAnnotative
 70
     0
  0
APPID
  5
6F
330
9
100
AcDbSymbolTableRecord
100
AcDbRegAppTableRecord
  2
ACAD_MLEADERVER
 70
     0
  0
APPID
  5
111
330
9
100
AcDbSymbolTableRecord
100
AcDbRegAppTableRecord
  2
MCAD_NO_VIS
 70
     0
  0
APPID
  5
112
330
9
100
AcDbSymbolTableRecord
100
AcDbRegAppTableRecord
  2
ACAD_TEMP_GRAPHIC
 70
     0
  0
APPID
  5
141
330
9
100
AcDbSymbolTableRecord
100
AcDbRegAppTableRecord
  2
AD_DRAW
 70
     0
  0
APPID
  5
144
330
9
100
AcDbSymbolTableRecord
100
AcDbRegAppTableRecord
  2
ACATTRIBSERVICES
 70
     0
  0
APPID
  5
165
330
9
100
AcDbSymbolTableRecord
100
AcDbRegAppTableRecord
  2
DESIGNERASSEMBLIES
 70
     0
  0
APPID
  5
16B
330
9
100
AcDbSymbolTableRecord
100
AcDbRegAppTableRecord
  2
ACADM_DIM_EDIT
 70
     0
  0
APPID
  5
16C
330
9
100
AcDbSymbolTableRecord
100
AcDbRegAppTableRecord
  2
AMDT_DM_ADJ
 70
     0
  0
APPID
  5
1C8
330
9
100
AcDbSymbolTableRecord
100
AcDbRegAppTableRecord
  2
ACAD_DSTYLE_DIMARC_LENGTH_SYMBOL
 70
     0
  0
APPID
  5
24A
330
9
100
AcDbSymbolTableRecord
100
AcDbRegAppTableRecord
  2
AcAecLayerStandard
 70
     0
  0
APPID
  5
280
330
9
100
AcDbSymbolTableRecord
100
AcDbRegAppTableRecord
  2
ACAD_DSTYLE_DIMJOGGED_JOGANGLE_SYMBOL
 70
     0
  0
APPID
  5
281
330
9
100
AcDbSymbolTableRecord
100
AcDbRegAppTableRecord
  2
AcadAnnoPO
 70
     0
  0
APPID
  5
282
330
9
100
AcDbSymbolTableRecord
100
AcDbRegAppTableRecord
  2
ACAD_EXEMPT_FROM_CAD_STANDARDS
 70
     0
  0
APPID
  5
283
330
9
100
AcDbSymbolTableRecord
100
AcDbRegAppTableRecord
  2
GENIUS_GENODEF_13
 70
     0
  0
APPID
  5
284
330
9
100
AcDbSymbolTableRecord
100
AcDbRegAppTableRecord
  2
GENIUS_GENOBJ-N-CRS_13
 70
     0
  0
APPID
  5
285
330
9
100
AcDbSymbolTableRecord
100
AcDbRegAppTableRecord
  2
GENIUS_GENOENT_13
 70
     0
  0
APPID
  5
286
330
9
100
AcDbSymbolTableRecord
100
AcDbRegAppTableRecord
  2
GENIUS_GENOLIS_13
 70
     0
  0
APPID
  5
287
330
9
100
AcDbSymbolTableRecord
100
AcDbRegAppTableRecord
  2
GENIUS_GENOREF_13
 70
     0
  0
APPID
  5
288
330
9
100
AcDbSymbolTableRecord
100
AcDbRegAppTableRecord
  2
GEVID1190879659
 70
     0
  0
APPID
  5
289
330
9
100
AcDbSymbolTableRecord
100
AcDbRegAppTableRecord
  2
GEVDC
 70
     0
  0
APPID
  5
28A
330
9
100
AcDbSymbolTableRecord
100
AcDbRegAppTableRecord
  2
GENIUS_GENBH_13
 70
     0
  0
APPID
  5
28B
330
9
100
AcDbSymbolTableRecord
100
AcDbRegAppTableRecord
  2
GENIUS_GENOBJ-NBEHI-BHF_13
 70
     0
  0
APPID
  5
28C
330
9
100
AcDbSymbolTableRecord
100
AcDbRegAppTableRecord
  2
GENIUS_GENOBJ-NBEHI-BHB_13
 70
     0
  0
APPID
  5
28D
330
9
100
AcDbSymbolTableRecord
100
AcDbRegAppTableRecord
  2
GEVID1190879660
 70
     0
  0
APPID
  5
28E
330
9
100
AcDbSymbolTableRecord
100
AcDbRegAppTableRecord
  2
GEVID1190879661
 70
     0
  0
APPID
  5
28F
330
9
100
AcDbSymbolTableRecord
100
AcDbRegAppTableRecord
  2
ACAD_DSTYLE_DIMRADIAL_EXTENSION
 70
     0
  0
APPID
  5
290
330
9
100
AcDbSymbolTableRecord
100
AcDbRegAppTableRecord
  2
GEVID1190879662
 70
     0
  0
APPID
  5
291
330
9
100
AcDbSymbolTableRecord
100
AcDbRegAppTableRecord
  2
GEVID1190879663
 70
     0
  0
APPID
  5
292
330
9
100
AcDbSymbolTableRecord
100
AcDbRegAppTableRecord
  2
GEVID1190879664
 70
     0
  0
APPID
  5
293
330
9
100
AcDbSymbolTableRecord
100
AcDbRegAppTableRecord
  2
GEVID1190879665
 70
     0
  0
APPID
  5
294
330
9
100
AcDbSymbolTableRecord
100
AcDbRegAppTableRecord
  2
GEVID1190879666
 70
     0
  0
APPID
  5
295
330
9
100
AcDbSymbolTableRecord
100
AcDbRegAppTableRecord
  2
GENIUS_GENOBJ-N-CEN_13
 70
     0
  0
APPID
  5
296
330
9
100
AcDbSymbolTableRecord
100
AcDbRegAppTableRecord
  2
GENIUS_GENCEN_19
 70
     0
  0
APPID
  5
297
330
9
100
AcDbSymbolTableRecord
100
AcDbRegAppTableRecord
  2
GEVID1190879667
 70
     0
  0
APPID
  5
298
330
9
100
AcDbSymbolTableRecord
100
AcDbRegAppTableRecord
  2
GENIUS_GENOBJ-N-CRC_13
 70
     0
  0
APPID
  5
299
330
9
100
AcDbSymbolTableRecord
100
AcDbRegAppTableRecord
  2
GENIUS_GENCRC_14
 70
     0
  0
APPID
  5
29A
330
9
100
AcDbSymbolTableRecord
100
AcDbRegAppTableRecord
  2
ACAD_PSEXT
 70
     0
  0
APPID
  5
29B
330
9
100
AcDbSymbolTableRecord
100
AcDbRegAppTableRecord
  2
GEVID1190888456
 70
     0
  0
APPID
  5
29C
330
9
100
AcDbSymbolTableRecord
100
AcDbRegAppTableRecord
  2
GEVID1190888457
 70
     0
  0
APPID
  5
29D
330
9
100
AcDbSymbolTableRecord
100
AcDbRegAppTableRecord
  2
GEVID1190888458
 70
     0
  0
APPID
  5
29E
330
9
100
AcDbSymbolTableRecord
100
AcDbRegAppTableRecord
  2
GEVID1190888459
 70
     0
  0
APPID
  5
29F
330
9
100
AcDbSymbolTableRecord
100
AcDbRegAppTableRecord
  2
GEVID1190888460
 70
     0
  0
APPID
  5
2A0
330
9
100
AcDbSymbolTableRecord
100
AcDbRegAppTableRecord
  2
GEVID1190888461
 70
     0
  0
APPID
  5
2A1
330
9
100
AcDbSymbolTableRecord
100
AcDbRegAppTableRecord
  2
GEVID1190888462
 70
     0
  0
APPID
  5
2A2
330
9
100
AcDbSymbolTableRecord
100
AcDbRegAppTableRecord
  2
ACAD_DSTYLE_DIMJAG
 70
     0
  0
APPID
  5
2A3
330
9
100
AcDbSymbolTableRecord
100
AcDbRegAppTableRecord
  2
ACAD_DSTYLE_DIMTALN
 70
     0
  0
APPID
  5
390
330
9
100
AcDbSymbolTableRecord
100
AcDbRegAppTableRecord
  2
GENIUS_GENBLLY_14
 70
     0
  0
APPID
  5
3D5
330
9
100
AcDbSymbolTableRecord
100
AcDbRegAppTableRecord
  2
DCO15
 70
     0
  0
APPID
  5
3D6
330
9
100
AcDbSymbolTableRecord
100
AcDbRegAppTableRecord
  2
GENIUS_GENREC_14
 70
     0
  0
APPID
  5
3D7
330
9
100
AcDbSymbolTableRecord
100
AcDbRegAppTableRecord
  2
GENIUS_GENOBJ-N-REC_13
 70
     0
  0
APPID
  5
519
330
9
100
AcDbSymbolTableRecord
100
AcDbRegAppTableRecord
  2
GENIUS_GENOBJ-N-TIT_13
 70
     0
  0
APPID
  5
51A
330
9
100
AcDbSymbolTableRecord
100
AcDbRegAppTableRecord
  2
GENIUS_GENTITLE_13
 70
     0
  0
APPID
  5
521
330
9
100
AcDbSymbolTableRecord
100
AcDbRegAppTableRecord
  2
GENIUS_GENSCREG_15
 70
     0
  0
APPID
  5
522
330
9
100
AcDbSymbolTableRecord
100
AcDbRegAppTableRecord
  2
GENIUS_GENOBJ-N-SDF_13
 70
     0
  0
APPID
  5
5BA
330
9
100
AcDbSymbolTableRecord
100
AcDbRegAppTableRecord
  2
ACAD_DSTYLE_DIMINSPECT
 70
     0
  0
APPID
  5
986
330
9
100
AcDbSymbolTableRecord
100
AcDbRegAppTableRecord
  2
GENIUS_GENDIMSH_14
 70
     0
  0
APPID
  5
AFA
330
9
100
AcDbSymbolTableRecord
100
AcDbRegAppTableRecord
  2
GENIUS_GENOBJ-N-HTC_13
 70
     0
  0
APPID
  5
AFB
330
9
100
AcDbSymbolTableRecord
100
AcDbRegAppTableRecord
  2
GENIUS_GENHATCH_13
 70
     0
  0
APPID
  5
B3E
330
9
100
AcDbSymbolTableRecord
100
AcDbRegAppTableRecord
  2
ACAUTHENVIRON
 70
     0
  0
APPID
  5
B42
330
9
100
AcDbSymbolTableRecord
100
AcDbRegAppTableRecord
  2
AcDbDynamicBlockTrueName
 70
     0
  0
APPID
  5
B43
330
9
100
AcDbSymbolTableRecord
100
AcDbRegAppTableRecord
  2
AcDbDynamicBlockGUID
 70
     0
  0
APPID
  5
B45
330
9
100
AcDbSymbolTableRecord
100
AcDbRegAppTableRecord
  2
ACDBBLOCKREPETAG
 70
     0
  0
APPID
  5
16F9
330
9
100
AcDbSymbolTableRecord
100
AcDbRegAppTableRecord
  2
GENIUS_GENDTOL_13
 70
     0
  0
APPID
  5
1994
330
9
100
AcDbSymbolTableRecord
100
AcDbRegAppTableRecord
  2
EAR3_SAP_ACAD
 70
     0
  0
APPID
  5
1995
330
9
100
AcDbSymbolTableRecord
100
AcDbRegAppTableRecord
  2
CADDESKTOPMDT
 70
     0
  0
APPID
  5
1AD7
330
9
100
AcDbSymbolTableRecord
100
AcDbRegAppTableRecord
  2
ACAD_NAV_VCDISPLAY
 70
     0
  0
ENDTAB
  0
TABLE
  2
DIMSTYLE
  5
A
330
0
100
AcDbSymbolTable
 70
    23
100
AcDbDimStyleTable
 71
     5
340
276
340
27B
340
5F
340
27C
340
3CE
  0
DIMSTYLE
105
5F
330
A
100
AcDbSymbolTableRecord
100
AcDbDimStyleTableRecord
  2
STANDARD
 70
     0
 41
2.68
140
3.5
178
     6
340
5D
  0
DIMSTYLE
105
18F
330
A
100
AcDbSymbolTableRecord
100
AcDbDimStyleTableRecord
  2
AM_ANSI
 70
     0
  4
mm
 41
0.1
 42
0.05
 43
0.5
 44
0.1
 47
0.1
 48
0.1
 78
     7
 79
     2
 90
     1
140
0.12
141
0.0
146
0.71
147
0.06
176
   256
177
   256
178
     2
274
     4
284
     7
340
5D
371
    -1
372
    -1
  0
DIMSTYLE
105
190
330
A
100
AcDbSymbolTableRecord
100
AcDbDimStyleTableRecord
  2
AM_ANSI$3
 70
     0
  4
mm
 41
0.1
 42
0.05
 43
0.5
 44
0.1
 47
0.1
 48
0.1
 78
     7
 79
     2
 90
     1
140
0.12
141
0.0
146
0.71
147
0.06
176
   256
177
   256
178
     2
274
     4
284
     7
288
     1
289
     0
340
5D
371
    -1
372
    -1
  0
DIMSTYLE
105
191
330
A
100
AcDbSymbolTableRecord
100
AcDbDimStyleTableRecord
  2
AM_ANSI$4
 70
     0
  4
mm
 41
0.1
 42
0.05
 43
0.5
 44
0.1
 47
0.1
 48
0.1
 78
     7
 79
     2
 90
     1
140
0.12
141
0.0
146
0.71
147
0.06
176
   256
177
   256
178
     2
274
     4
284
     7
288
     1
289
     0
340
5D
371
    -1
372
    -1
  0
DIMSTYLE
105
192
330
A
100
AcDbSymbolTableRecord
100
AcDbDimStyleTableRecord
  2
AM_ANSI$7
 70
     0
  4
mm
 41
0.1
 42
0.05
 43
0.5
 44
0.1
 47
0.1
 48
0.1
 78
     7
 79
     2
 90
     1
140
0.24
141
0.0
146
0.71
147
0.06
176
   256
177
   256
178
     2
274
     4
284
     7
340
5D
371
    -1
372
    -1
  0
DIMSTYLE
105
193
330
A
100
AcDbSymbolTableRecord
100
AcDbDimStyleTableRecord
  2
AM_ANSI$SF
 70
     0
  4
mm
 41
0.1
 42
0.05
 43
0.5
 44
0.1
 47
0.1
 48
0.1
 75
     1
 76
     1
 78
     7
 79
     2
 90
     1
140
0.12
141
0.0
146
0.71
147
0.06
176
   256
177
   256
178
     2
274
     4
284
     7
340
5D
371
    -1
372
    -1
  0
DIMSTYLE
105
198
330
A
100
AcDbSymbolTableRecord
100
AcDbDimStyleTableRecord
  2
AM_ANSI$SH
 70
     0
  4
mm
 41
0.1
 42
0.05
 43
0.5
 44
0.1
 47
0.1
 48
0.1
 75
     1
 76
     1
 78
     7
 79
     2
 90
     1
140
0.12
141
0.0
146
0.71
147
0.06
173
     1
176
   256
177
   256
178
     2
274
     4
284
     7
340
5D
343
194
371
    -1
372
    -1
  0
DIMSTYLE
105
276
330
A
100
AcDbSymbolTableRecord
100
AcDbDimStyleTableRecord
  2
AM_DIN
 70
     0
  4
"
 41
5.0
 42
1.0
 43
10.0
 44
1.0
 47
0.1
 48
0.1
 50
90.0
 73
     0
 74
     0
 77
     1
 78
     8
 79
     2
140
5.0
141
0.0
143
0.0393701
146
0.71
147
1.5
172
     1
176
   256
177
   256
178
     2
271
     2
272
     2
283
     0
284
     8
340
5D
371
    -1
372
    -1
1001
ACAD_DSTYLE_DIMJOGGED_JOGANGLE_SYMBOL
1070
   384
1040
1.570796326794896
  0
DIMSTYLE
105
277
102
{ACAD_REACTORS
330
18F0
330
190D
330
192D
102
}
330
A
100
AcDbSymbolTableRecord
100
AcDbDimStyleTableRecord
  2
AM_DIN$3
 70
     0
  4
"
 41
3.5
 42
1.0
 43
10.0
 44
1.0
 47
0.1
 48
0.1
 50
90.0
 73
     0
 77
     1
 78
     8
 79
     2
140
3.5
141
0.0
143
0.0393701
146
0.71
147
1.5
176
   256
177
   256
178
     2
271
     2
272
     2
283
     0
284
     8
288
     1
289
     0
340
5D
371
    -1
372
    -1
1001
ACAD_DSTYLE_DIMJOGGED_JOGANGLE_SYMBOL
1070
   384
1040
1.570796326794896
  0
DIMSTYLE
105
278
330
A
100
AcDbSymbolTableRecord
100
AcDbDimStyleTableRecord
  2
AM_DIN$4
 70
     0
  4
"
 41
4.0
 42
1.0
 43
10.0
 44
1.0
 47
0.1
 48
0.1
 50
90.0
 73
     0
 77
     1
 78
     8
 79
     2
140
3.5
141
0.0
143
0.0393701
146
0.71
147
1.5
176
   256
177
   256
178
     2
271
     2
272
     2
283
     0
284
     8
288
     1
289
     0
340
5D
371
    -1
372
    -1
1001
ACAD_DSTYLE_DIMJOGGED_JOGANGLE_SYMBOL
1070
   384
1040
1.570796326794896
  0
DIMSTYLE
105
279
330
A
100
AcDbSymbolTableRecord
100
AcDbDimStyleTableRecord
  2
AM_DIN$6
 70
     0
  4
"
 41
4.0
 42
0.0
 43
10.0
 44
1.0
 47
0.1
 48
0.1
 50
90.0
 73
     0
 74
     0
 78
     8
 79
     2
140
3.5
141
0.0
143
0.0393701
146
0.71
147
1.5
172
     1
176
   256
177
   256
178
     2
271
     2
272
     2
283
     0
284
     8
340
5D
371
    -1
372
    -1
1001
ACAD_DSTYLE_DIMJOGGED_JOGANGLE_SYMBOL
1070
   384
1040
1.570796326794896
  0
DIMSTYLE
105
27A
330
A
100
AcDbSymbolTableRecord
100
AcDbDimStyleTableRecord
  2
AM_DIN$7
 70
     0
  4
"
 41
4.0
 42
1.0
 43
10.0
 44
1.0
 47
0.1
 48
0.1
 50
90.0
 73
     0
 74
     0
 77
     1
 78
     8
 79
     2
140
5.0
141
0.0
143
0.0393701
146
0.71
147
1.5
172
     1
176
   256
177
   256
178
     2
271
     2
272
     2
283
     0
284
     8
340
5D
371
    -1
372
    -1
1001
ACAD_DSTYLE_DIMJOGGED_JOGANGLE_SYMBOL
1070
   384
1040
1.570796326794896
  0
DIMSTYLE
105
27B
330
A
100
AcDbSymbolTableRecord
100
AcDbDimStyleTableRecord
  2
AM_DIN$SF
 70
     0
  4
"
 41
4.0
 42
1.0
 43
10.0
 44
1.0
 47
0.1
 48
0.1
 50
90.0
 73
     0
 74
     0
 75
     1
 76
     1
 77
     1
 78
     8
 79
     2
140
3.5
141
0.0
143
0.0393701
146
0.71
147
1.5
172
     1
176
   256
177
   256
178
     2
271
     2
272
     2
283
     0
284
     8
340
5D
371
    -1
372
    -1
1001
ACAD_DSTYLE_DIMJOGGED_JOGANGLE_SYMBOL
1070
   384
1040
1.570796326794896
  0
DIMSTYLE
105
27C
330
A
100
AcDbSymbolTableRecord
100
AcDbDimStyleTableRecord
  2
AM_DIN$SH
 70
     0
  4
"
 41
4.0
 42
1.0
 43
10.0
 44
1.0
 47
0.1
 48
0.1
 50
90.0
 73
     0
 74
     0
 75
     1
 76
     1
 77
     1
 78
     8
 79
     2
140
3.5
141
0.0
143
0.0393701
144
2.0
146
0.71
147
1.5
172
     1
173
     1
176
   256
177
   256
178
     2
271
     2
272
     2
283
     0
284
     8
340
5D
343
194
371
    -1
372
    -1
1001
ACAD_DSTYLE_DIMJOGGED_JOGANGLE_SYMBOL
1070
   384
1040
1.570796326794896
  0
DIMSTYLE
105
32F
102
{ACAD_REACTORS
330
16CE
330
1703
330
1881
330
18B4
102
}
330
A
100
AcDbSymbolTableRecord
100
AcDbDimStyleTableRecord
  2
AM_DIN$0
 70
     0
  4
"
 41
4.0
 42
0.0
 43
10.0
 44
1.0
 47
0.1
 48
0.1
 50
90.0
 73
     0
 74
     0
 77
     1
 78
     8
 79
     2
140
3.5
141
0.0
143
0.0393701
146
0.71
147
1.5
172
     1
176
   256
177
   256
178
     2
271
     2
272
     2
283
     0
284
     8
340
5D
371
    -1
372
    -1
1001
ACAD_DSTYLE_DIMJOGGED_JOGANGLE_SYMBOL
1070
   384
1040
1.570796326794896
  0
DIMSTYLE
105
330
330
A
100
AcDbSymbolTableRecord
100
AcDbDimStyleTableRecord
  2
AM_DIN$2
 70
     0
  4
"
 41
4.0
 42
0.0
 43
10.0
 44
1.0
 47
0.1
 48
0.1
 50
90.0
 73
     0
 74
     0
 77
     1
 78
     8
 79
     2
140
3.5
141
0.0
143
0.0393701
146
0.71
147
1.5
172
     1
176
   256
177
   256
178
     2
271
     2
272
     2
283
     0
284
     8
340
5D
371
    -1
372
    -1
1001
ACAD_DSTYLE_DIMJOGGED_JOGANGLE_SYMBOL
1070
   384
1040
1.570796326794896
  0
DIMSTYLE
105
3CE
330
A
100
AcDbSymbolTableRecord
100
AcDbDimStyleTableRecord
  2
AM_ISO
 70
     0
  4
"
 41
2.5
 42
1.0
 43
10.0
 44
1.0
 47
0.1
 48
0.1
 73
     0
 74
     0
 77
     1
 78
     8
 79
     2
 90
     1
140
3.5
141
0.0
143
0.0393701
146
0.71
147
1.5
172
     1
176
   256
177
   256
178
     2
271
     2
272
     3
274
     4
283
     0
284
     8
340
5D
371
    -1
372
    -1
1001
ACAD_DSTYLE_DIMJOGGED_JOGANGLE_SYMBOL
1070
   384
1040
0.7853981633974483
  0
DIMSTYLE
105
3CF
330
A
100
AcDbSymbolTableRecord
100
AcDbDimStyleTableRecord
  2
AM_ISO$3
 70
     0
  4
"
 41
2.5
 42
1.0
 43
10.0
 44
1.0
 47
0.1
 48
0.1
 73
     0
 77
     1
 78
     8
 79
     2
 90
     1
140
3.5
141
0.0
143
0.0393701
146
0.71
147
1.5
176
   256
177
   256
178
     2
271
     2
272
     3
274
     4
283
     0
284
     8
288
     1
289
     0
340
5D
371
    -1
372
    -1
1001
ACAD_DSTYLE_DIMJOGGED_JOGANGLE_SYMBOL
1070
   384
1040
0.7853981633974483
  0
DIMSTYLE
105
3D0
330
A
100
AcDbSymbolTableRecord
100
AcDbDimStyleTableRecord
  2
AM_ISO$4
 70
     0
  4
"
 41
2.5
 42
1.0
 43
10.0
 44
1.0
 47
0.1
 48
0.1
 73
     0
 77
     1
 78
     8
 79
     2
 90
     1
140
3.5
141
0.0
143
0.0393701
146
0.71
147
1.5
176
   256
177
   256
178
     2
271
     2
272
     3
274
     4
283
     0
284
     8
288
     1
289
     0
340
5D
371
    -1
372
    -1
1001
ACAD_DSTYLE_DIMJOGGED_JOGANGLE_SYMBOL
1070
   384
1040
0.7853981633974483
  0
DIMSTYLE
105
3D1
330
A
100
AcDbSymbolTableRecord
100
AcDbDimStyleTableRecord
  2
AM_ISO$6
 70
     0
  4
"
 41
2.5
 42
1.0
 43
10.0
 44
1.0
 47
0.1
 48
0.1
 73
     0
 74
     0
 78
     8
 79
     2
 90
     1
140
3.5
141
0.0
143
0.0393701
146
0.71
147
1.5
172
     1
176
   256
177
   256
178
     2
271
     2
272
     3
274
     4
283
     0
284
     8
340
5D
371
    -1
372
    -1
1001
ACAD_DSTYLE_DIMJOGGED_JOGANGLE_SYMBOL
1070
   384
1040
0.7853981633974483
  0
DIMSTYLE
105
3D2
330
A
100
AcDbSymbolTableRecord
100
AcDbDimStyleTableRecord
  2
AM_ISO$7
 70
     0
  4
"
 41
2.5
 42
1.0
 43
10.0
 44
1.0
 47
0.1
 48
0.1
 73
     0
 74
     0
 77
     1
 78
     8
 79
     2
 90
     1
140
5.0
141
0.0
143
0.0393701
146
0.71
147
1.5
172
     1
176
   256
177
   256
178
     2
271
     2
272
     3
274
     4
283
     0
284
     8
340
5D
371
    -1
372
    -1
1001
ACAD_DSTYLE_DIMJOGGED_JOGANGLE_SYMBOL
1070
   384
1040
0.7853981633974483
  0
DIMSTYLE
105
3D3
330
A
100
AcDbSymbolTableRecord
100
AcDbDimStyleTableRecord
  2
AM_ISO$SF
 70
     0
  4
"
 41
2.5
 42
1.0
 43
10.0
 44
1.0
 47
0.1
 48
0.1
 73
     0
 74
     0
 75
     1
 76
     1
 77
     1
 78
     8
 79
     2
 90
     1
140
3.5
141
0.0
143
0.0393701
146
0.71
147
1.5
172
     1
176
   256
177
   256
178
     2
271
     2
272
     3
274
     4
283
     0
284
     8
340
5D
371
    -1
372
    -1
1001
ACAD_DSTYLE_DIMJOGGED_JOGANGLE_SYMBOL
1070
   384
1040
0.7853981633974483
  0
DIMSTYLE
105
3D4
330
A
100
AcDbSymbolTableRecord
100
AcDbDimStyleTableRecord
  2
AM_ISO$SH
 70
     0
  4
"
 41
2.5
 42
1.0
 43
10.0
 44
1.0
 47
0.1
 48
0.1
 73
     0
 74
     0
 75
     1
 76
     1
 77
     1
 78
     8
 79
     2
 90
     1
140
3.5
141
0.0
143
0.0393701
144
2.0
146
0.71
147
1.5
172
     1
173
     1
176
   256
177
   256
178
     2
271
     2
272
     3
274
     4
283
     0
284
     8
340
5D
343
194
371
    -1
372
    -1
1001
ACAD_DSTYLE_DIMJOGGED_JOGANGLE_SYMBOL
1070
   384
1040
0.7853981633974483
  0
ENDTAB
  0
TABLE
  2
BLOCK_RECORD
  5
1
330
0
100
AcDbSymbolTable
 70
    15
  0
BLOCK_RECORD
  5
74
102
{ACAD_XDICTIONARY
360
A88
102
}
330
1
100
AcDbSymbolTableRecord
100
AcDbBlockTableRecord
  2
*Model_Space
340
77
 70
     0
280
     1
281
     0
  0
BLOCK_RECORD
  5
70
330
1
100
AcDbSymbolTableRecord
100
AcDbBlockTableRecord
  2
*Paper_Space
340
73
 70
     0
280
     1
281
     0
  0
BLOCK_RECORD
  5
194
330
1
100
AcDbSymbolTableRecord
100
AcDbBlockTableRecord
  2
GENAXEH
340
0
 70
     0
280
     1
281
     0
  0
BLOCK_RECORD
  5
1505
330
1
100
AcDbSymbolTableRecord
100
AcDbBlockTableRecord
  2
A$C00ED218C
340
0
 70
     4
280
     1
281
     0
  0
BLOCK_RECORD
  5
16D0
330
1
100
AcDbSymbolTableRecord
100
AcDbBlockTableRecord
  2
*D2
340
0
 70
     0
280
     1
281
     0
  0
BLOCK_RECORD
  5
1704
330
1
100
AcDbSymbolTableRecord
100
AcDbBlockTableRecord
  2
*D3
340
0
 70
     0
280
     1
281
     0
  0
BLOCK_RECORD
  5
1882
330
1
100
AcDbSymbolTableRecord
100
AcDbBlockTableRecord
  2
*D6
340
0
 70
     0
280
     1
281
     0
  0
BLOCK_RECORD
  5
18B5
330
1
100
AcDbSymbolTableRecord
100
AcDbBlockTableRecord
  2
*D7
340
0
 70
     0
280
     1
281
     0
  0
BLOCK_RECORD
  5
18F1
330
1
100
AcDbSymbolTableRecord
100
AcDbBlockTableRecord
  2
*D8
340
0
 70
     0
280
     1
281
     0
  0
BLOCK_RECORD
  5
190E
330
1
100
AcDbSymbolTableRecord
100
AcDbBlockTableRecord
  2
*D9
340
0
 70
     0
280
     1
281
     0
  0
BLOCK_RECORD
  5
192E
330
1
100
AcDbSymbolTableRecord
100
AcDbBlockTableRecord
  2
*D10
340
0
 70
     0
280
     1
281
     0
  0
BLOCK_RECORD
  5
1A61
330
1
100
AcDbSymbolTableRecord
100
AcDbBlockTableRecord
  2
*U11
340
0
 70
     0
280
     1
281
     0
  0
BLOCK_RECORD
  5
1AA3
330
1
100
AcDbSymbolTableRecord
100
AcDbBlockTableRecord
  2
_ACMFILLED
340
0
 70
     0
280
     1
281
     0
  0
BLOCK_RECORD
  5
1AAE
330
1
100
AcDbSymbolTableRecord
100
AcDbBlockTableRecord
  2
_ACMFILLEDHALF
340
0
 70
     0
280
     1
281
     0
  0
BLOCK_RECORD
  5
1ABA
330
1
100
AcDbSymbolTableRecord
100
AcDbBlockTableRecord
  2
_ACMFILLED15
340
0
 70
     0
280
     1
281
     0
  0
ENDTAB
  0
ENDSEC
  0
SECTION
  2
BLOCKS
  0
BLOCK
  5
75
330
74
100
AcDbEntity
  8
0
100
AcDbBlockBegin
  2
*Model_Space
 70
     0
 10
0.0
 20
0.0
 30
0.0
  3
*Model_Space
  1

  0
ENDBLK
  5
76
330
74
100
AcDbEntity
  8
0
100
AcDbBlockEnd
  0
BLOCK
  5
71
330
70
100
AcDbEntity
 67
     1
  8
0
100
AcDbBlockBegin
  2
*Paper_Space
 70
     0
 10
0.0
 20
0.0
 30
0.0
  3
*Paper_Space
  1

  0
ENDBLK
  5
72
330
70
100
AcDbEntity
 67
     1
  8
0
100
AcDbBlockEnd
  0
BLOCK
  5
19FB
330
194
100
AcDbEntity
  8
0
100
AcDbBlockBegin
  2
GENAXEH
 70
     0
 10
0.0
 20
0.0
 30
0.0
  3
GENAXEH
  1

  0
LINE
  5
19FC
330
194
100
AcDbEntity
  8
0
100
AcDbLine
 10
-1.0
 20
0.0
 30
0.0
 11
1.0
 21
0.0
 31
0.0
  0
ENDBLK
  5
19FD
330
194
100
AcDbEntity
  8
0
100
AcDbBlockEnd
  0
BLOCK
  5
16CB
330
1505
100
AcDbEntity
  8
0
100
AcDbBlockBegin
  2
A$C00ED218C
 70
     0
 10
0.0
 20
0.0
 30
0.0
  3
A$C00ED218C
  1

  0
LINE
  5
1506
330
1505
100
AcDbEntity
  8
AM_3 ( Verdeckt )
100
AcDbLine
 10
57.34998957778589
 20
187.4414148825325
 30
0.0
 11
57.34998957778589
 21
212.4414148796327
 31
0.0
  0
LINE
  5
1507
330
1505
100
AcDbEntity
  8
AM_3 ( Verdeckt )
100
AcDbLine
 10
23.64998958168508
 20
187.4414148825325
 30
0.0
 11
23.64998958168508
 21
212.4414148796327
 31
0.0
  0
LINE
  5
1508
330
1505
100
AcDbEntity
  8
AM_0 ( Kontur 0.5 )
100
AcDbLine
 10
22.60283548728512
 20
273.9307045962328
 30
0.0
 11
22.21365081118529
 21
273.7280179036325
 31
0.0
  0
LINE
  5
1509
330
1505
100
AcDbEntity
  8
AM_0 ( Kontur 0.5 )
100
AcDbLine
 10
22.21365081118529
 20
273.7280179036325
 30
0.0
 11
22.02908198448495
 21
273.3278120775326
 31
0.0
  0
LINE
  5
150A
330
1505
100
AcDbEntity
  8
AM_0 ( Kontur 0.5 )
100
AcDbLine
 10
22.02908198448495
 20
273.3278120775326
 30
0.0
 11
22.06425737198515
 21
272.8885804750325
 31
0.0
  0
LINE
  5
150B
330
1505
100
AcDbEntity
  8
AM_0 ( Kontur 0.5 )
100
AcDbLine
 10
22.06425737198515
 20
272.8885804750325
 30
0.0
 11
22.34810356778508
 21
272.5461538950326
 31
0.0
  0
LINE
  5
150C
330
1505
100
AcDbEntity
  8
AM_0 ( Kontur 0.5 )
100
AcDbLine
 10
22.34810356778508
 20
272.5461538950326
 30
0.0
 11
22.76750809518489
 21
272.4205362893326
 31
0.0
  0
LINE
  5
150D
330
1505
100
AcDbEntity
  8
AM_0 ( Kontur 0.5 )
100
AcDbLine
 10
24.1028355258859
 20
273.9307045960327
 30
0.0
 11
23.71365084398531
 21
273.7280179004324
 31
0.0
  0
LINE
  5
150E
330
1505
100
AcDbEntity
  8
AM_0 ( Kontur 0.5 )
100
AcDbLine
 10
23.71365084398531
 20
273.7280179004324
 30
0.0
 11
23.52908201458558
 21
273.3278120683326
 31
0.0
  0
LINE
  5
150F
330
1505
100
AcDbEntity
  8
AM_0 ( Kontur 0.5 )
100
AcDbLine
 10
23.52908201458558
 20
273.3278120683326
 30
0.0
 11
23.56425740258601
 21
272.8885804594324
 31
0.0
  0
LINE
  5
1510
330
1505
100
AcDbEntity
  8
AM_0 ( Kontur 0.5 )
100
AcDbLine
 10
23.56425740258601
 20
272.8885804594324
 30
0.0
 11
23.84810360258598
 21
272.5461538742325
 31
0.0
  0
LINE
  5
1511
330
1505
100
AcDbEntity
  8
AM_0 ( Kontur 0.5 )
100
AcDbLine
 10
23.84810360258598
 20
272.5461538742325
 30
0.0
 11
24.26750813628496
 21
272.4205362666325
 31
0.0
  0
LINE
  5
1512
330
1505
100
AcDbEntity
  8
AM_0 ( Kontur 0.5 )
100
AcDbLine
 10
25.60283556448486
 20
273.9307045959326
 30
0.0
 11
25.21365087678532
 21
273.7280178972323
 31
0.0
  0
LINE
  5
1513
330
1505
100
AcDbEntity
  8
AM_0 ( Kontur 0.5 )
100
AcDbLine
 10
25.21365087678532
 20
273.7280178972323
 30
0.0
 11
25.02908204468622
 21
273.3278120592327
 31
0.0
  0
LINE
  5
1514
330
1505
100
AcDbEntity
  8
AM_0 ( Kontur 0.5 )
100
AcDbLine
 10
25.02908204468622
 20
273.3278120592327
 30
0.0
 11
25.06425743318505
 21
272.8885804437327
 31
0.0
  0
LINE
  5
1515
330
1505
100
AcDbEntity
  8
AM_0 ( Kontur 0.5 )
100
AcDbLine
 10
25.06425743318505
 20
272.8885804437327
 30
0.0
 11
25.34810363748511
 21
272.5461538535328
 31
0.0
  0
LINE
  5
1516
330
1505
100
AcDbEntity
  8
AM_0 ( Kontur 0.5 )
100
AcDbLine
 10
25.34810363748511
 20
272.5461538535328
 30
0.0
 11
25.76750817728498
 21
272.4205362440325
 31
0.0
  0
LINE
  5
1517
330
1505
100
AcDbEntity
  8
AM_0 ( Kontur 0.5 )
100
AcDbLine
 10
27.10283560308563
 20
273.9307045957326
 30
0.0
 11
26.71365090958534
 21
273.7280178940328
 31
0.0
  0
LINE
  5
1518
330
1505
100
AcDbEntity
  8
AM_0 ( Kontur 0.5 )
100
AcDbLine
 10
26.71365090958534
 20
273.7280178940328
 30
0.0
 11
26.52908207468499
 21
273.3278120501327
 31
0.0
  0
LINE
  5
1519
330
1505
100
AcDbEntity
  8
AM_0 ( Kontur 0.5 )
100
AcDbLine
 10
26.52908207468499
 20
273.3278120501327
 30
0.0
 11
26.56425746368586
 21
272.8885804280326
 31
0.0
  0
LINE
  5
151A
330
1505
100
AcDbEntity
  8
AM_0 ( Kontur 0.5 )
100
AcDbLine
 10
26.56425746368586
 20
272.8885804280326
 30
0.0
 11
26.84810367228602
 21
272.5461538327327
 31
0.0
  0
LINE
  5
151B
330
1505
100
AcDbEntity
  8
AM_0 ( Kontur 0.5 )
100
AcDbLine
 10
26.84810367228602
 20
272.5461538327327
 30
0.0
 11
27.26750821838506
 21
272.4205362213325
 31
0.0
  0
LINE
  5
151C
330
1505
100
AcDbEntity
  8
AM_0 ( Kontur 0.5 )
100
AcDbLine
 10
28.60283564168458
 20
273.9307045955325
 30
0.0
 11
28.21365094238536
 21
273.7280178908327
 31
0.0
  0
LINE
  5
151D
330
1505
100
AcDbEntity
  8
AM_0 ( Kontur 0.5 )
100
AcDbLine
 10
28.21365094238536
 20
273.7280178908327
 30
0.0
 11
28.02908210478563
 21
273.3278120409327
 31
0.0
  0
LINE
  5
151E
330
1505
100
AcDbEntity
  8
AM_0 ( Kontur 0.5 )
100
AcDbLine
 10
28.02908210478563
 20
273.3278120409327
 30
0.0
 11
28.0642574942849
 21
272.8885804123324
 31
0.0
  0
LINE
  5
151F
330
1505
100
AcDbEntity
  8
AM_0 ( Kontur 0.5 )
100
AcDbLine
 10
28.0642574942849
 20
272.8885804123324
 30
0.0
 11
28.3481037070851
 21
272.5461538119325
 31
0.0
  0
LINE
  5
1520
330
1505
100
AcDbEntity
  8
AM_0 ( Kontur 0.5 )
100
AcDbLine
 10
28.3481037070851
 20
272.5461538119325
 30
0.0
 11
28.76750825948511
 21
272.4205361987324
 31
0.0
  0
LINE
  5
1521
330
1505
100
AcDbEntity
  8
AM_0 ( Kontur 0.5 )
100
AcDbLine
 10
30.10283568028536
 20
273.9307045954324
 30
0.0
 11
29.71365097518538
 21
273.7280178877327
 31
0.0
  0
LINE
  5
1522
330
1505
100
AcDbEntity
  8
AM_0 ( Kontur 0.5 )
100
AcDbLine
 10
29.71365097518538
 20
273.7280178877327
 30
0.0
 11
29.52908213478441
 21
273.3278120318328
 31
0.0
  0
LINE
  5
1523
330
1505
100
AcDbEntity
  8
AM_0 ( Kontur 0.5 )
100
AcDbLine
 10
29.52908213478441
 20
273.3278120318328
 30
0.0
 11
29.56425752488576
 21
272.8885803966327
 31
0.0
  0
LINE
  5
1524
330
1505
100
AcDbEntity
  8
AM_0 ( Kontur 0.5 )
100
AcDbLine
 10
29.56425752488576
 20
272.8885803966327
 30
0.0
 11
29.84810374188601
 21
272.5461537911324
 31
0.0
  0
LINE
  5
1525
330
1505
100
AcDbEntity
  8
AM_0 ( Kontur 0.5 )
100
AcDbLine
 10
29.84810374188601
 20
272.5461537911324
 30
0.0
 11
30.26750830048513
 21
272.4205361760328
 31
0.0
  0
LINE
  5
1526
330
1505
100
AcDbEntity
  8
AM_0 ( Kontur 0.5 )
100
AcDbLine
 10
31.60283571888613
 20
273.9307045952328
 30
0.0
 11
31.21365100798539
 21
273.7280178845326
 31
0.0
  0
LINE
  5
1527
330
1505
100
AcDbEntity
  8
AM_0 ( Kontur 0.5 )
100
AcDbLine
 10
31.21365100798539
 20
273.7280178845326
 30
0.0
 11
31.02908216488504
 21
273.3278120226328
 31
0.0
  0
LINE
  5
1528
330
1505
100
AcDbEntity
  8
AM_0 ( Kontur 0.5 )
100
AcDbLine
 10
31.02908216488504
 20
273.3278120226328
 30
0.0
 11
31.0642575554848
 21
272.8885803809326
 31
0.0
  0
LINE
  5
1529
330
1505
100
AcDbEntity
  8
AM_0 ( Kontur 0.5 )
100
AcDbLine
 10
31.0642575554848
 20
272.8885803809326
 30
0.0
 11
31.3481037766851
 21
272.5461537703327
 31
0.0
  0
LINE
  5
152A
330
1505
100
AcDbEntity
  8
AM_0 ( Kontur 0.5 )
100
AcDbLine
 10
31.3481037766851
 20
272.5461537703327
 30
0.0
 11
31.7675083415852
 21
272.4205361533326
 31
0.0
  0
LINE
  5
152B
330
1505
100
AcDbEntity
  8
AM_0 ( Kontur 0.5 )
100
AcDbLine
 10
33.10283575748508
 20
273.9307045951327
 30
0.0
 11
32.71365104078541
 21
273.7280178813326
 31
0.0
  0
LINE
  5
152C
330
1505
100
AcDbEntity
  8
AM_0 ( Kontur 0.5 )
100
AcDbLine
 10
32.71365104078541
 20
273.7280178813326
 30
0.0
 11
32.52908219498568
 21
273.3278120135328
 31
0.0
  0
LINE
  5
152D
330
1505
100
AcDbEntity
  8
AM_0 ( Kontur 0.5 )
100
AcDbLine
 10
32.52908219498568
 20
273.3278120135328
 30
0.0
 11
32.56425758608566
 21
272.8885803652324
 31
0.0
  0
LINE
  5
152E
330
1505
100
AcDbEntity
  8
AM_0 ( Kontur 0.5 )
100
AcDbLine
 10
32.56425758608566
 20
272.8885803652324
 30
0.0
 11
32.848103811486
 21
272.5461537495326
 31
0.0
  0
LINE
  5
152F
330
1505
100
AcDbEntity
  8
AM_0 ( Kontur 0.5 )
100
AcDbLine
 10
32.848103811486
 20
272.5461537495326
 30
0.0
 11
33.26750838268527
 21
272.4205361307327
 31
0.0
  0
LINE
  5
1530
330
1505
100
AcDbEntity
  8
AM_0 ( Kontur 0.5 )
100
AcDbLine
 10
34.6028357961859
 20
273.9307045949327
 30
0.0
 11
34.21365107358543
 21
273.7280178781325
 31
0.0
  0
LINE
  5
1531
330
1505
100
AcDbEntity
  8
AM_0 ( Kontur 0.5 )
100
AcDbLine
 10
34.21365107358543
 20
273.7280178781325
 30
0.0
 11
34.02908222498445
 21
273.3278120043324
 31
0.0
  0
LINE
  5
1532
330
1505
100
AcDbEntity
  8
AM_0 ( Kontur 0.5 )
100
AcDbLine
 10
34.02908222498445
 20
273.3278120043324
 30
0.0
 11
34.0642576166847
 21
272.8885803495327
 31
0.0
  0
LINE
  5
1533
330
1505
100
AcDbEntity
  8
AM_0 ( Kontur 0.5 )
100
AcDbLine
 10
34.0642576166847
 20
272.8885803495327
 30
0.0
 11
34.34810384628509
 21
272.5461537287324
 31
0.0
  0
LINE
  5
1534
330
1505
100
AcDbEntity
  8
AM_0 ( Kontur 0.5 )
100
AcDbLine
 10
34.34810384628509
 20
272.5461537287324
 30
0.0
 11
34.76750842368529
 21
272.4205361080326
 31
0.0
  0
LINE
  5
1535
330
1505
100
AcDbEntity
  8
AM_0 ( Kontur 0.5 )
100
AcDbLine
 10
36.10283583478486
 20
273.9307045947326
 30
0.0
 11
35.71365110638544
 21
273.7280178749324
 31
0.0
  0
LINE
  5
1536
330
1505
100
AcDbEntity
  8
AM_0 ( Kontur 0.5 )
100
AcDbLine
 10
35.71365110638544
 20
273.7280178749324
 30
0.0
 11
35.5290822550851
 21
273.3278119952323
 31
0.0
  0
LINE
  5
1537
330
1505
100
AcDbEntity
  8
AM_0 ( Kontur 0.5 )
100
AcDbLine
 10
35.5290822550851
 20
273.3278119952323
 30
0.0
 11
35.56425764718551
 21
272.8885803339326
 31
0.0
  0
LINE
  5
1538
330
1505
100
AcDbEntity
  8
AM_0 ( Kontur 0.5 )
100
AcDbLine
 10
35.56425764718551
 20
272.8885803339326
 30
0.0
 11
35.84810388108599
 21
272.5461537079327
 31
0.0
  0
LINE
  5
1539
330
1505
100
AcDbEntity
  8
AM_0 ( Kontur 0.5 )
100
AcDbLine
 10
35.84810388108599
 20
272.5461537079327
 30
0.0
 11
36.26750846478535
 21
272.4205360853325
 31
0.0
  0
LINE
  5
153A
330
1505
100
AcDbEntity
  8
AM_0 ( Kontur 0.5 )
100
AcDbLine
 10
37.60283587338564
 20
273.9307045946325
 30
0.0
 11
37.21365113928551
 21
273.7280178718324
 31
0.0
  0
LINE
  5
153B
330
1505
100
AcDbEntity
  8
AM_0 ( Kontur 0.5 )
100
AcDbLine
 10
37.21365113928551
 20
273.7280178718324
 30
0.0
 11
37.02908228508568
 21
273.3278119861325
 31
0.0
  0
LINE
  5
153C
330
1505
100
AcDbEntity
  8
AM_0 ( Kontur 0.5 )
100
AcDbLine
 10
37.02908228508568
 20
273.3278119861325
 30
0.0
 11
37.06425767778455
 21
272.8885803182325
 31
0.0
  0
LINE
  5
153D
330
1505
100
AcDbEntity
  8
AM_0 ( Kontur 0.5 )
100
AcDbLine
 10
37.06425767778455
 20
272.8885803182325
 30
0.0
 11
37.34810391598511
 21
272.5461536871326
 31
0.0
  0
LINE
  5
153E
330
1505
100
AcDbEntity
  8
AM_0 ( Kontur 0.5 )
100
AcDbLine
 10
37.34810391598511
 20
272.5461536871326
 30
0.0
 11
37.76750850578537
 21
272.4205360627325
 31
0.0
  0
LINE
  5
153F
330
1505
100
AcDbEntity
  8
AM_0 ( Kontur 0.5 )
100
AcDbLine
 10
39.10283591198459
 20
273.9307045944324
 30
0.0
 11
38.71365117208553
 21
273.7280178686324
 31
0.0
  0
LINE
  5
1540
330
1505
100
AcDbEntity
  8
AM_0 ( Kontur 0.5 )
100
AcDbLine
 10
38.71365117208553
 20
273.7280178686324
 30
0.0
 11
38.5290823151845
 21
273.3278119769325
 31
0.0
  0
LINE
  5
1541
330
1505
100
AcDbEntity
  8
AM_0 ( Kontur 0.5 )
100
AcDbLine
 10
38.5290823151845
 20
273.3278119769325
 30
0.0
 11
38.56425770838541
 21
272.8885803025328
 31
0.0
  0
LINE
  5
1542
330
1505
100
AcDbEntity
  8
AM_0 ( Kontur 0.5 )
100
AcDbLine
 10
38.56425770838541
 20
272.8885803025328
 30
0.0
 11
38.84810395078602
 21
272.5461536663324
 31
0.0
  0
LINE
  5
1543
330
1505
100
AcDbEntity
  8
AM_0 ( Kontur 0.5 )
100
AcDbLine
 10
38.84810395078602
 20
272.5461536663324
 30
0.0
 11
39.26750854688544
 21
272.4205360400324
 31
0.0
  0
LINE
  5
1544
330
1505
100
AcDbEntity
  8
AM_0 ( Kontur 0.5 )
100
AcDbLine
 10
40.60283595058534
 20
273.9307045943324
 30
0.0
 11
40.21365120488552
 21
273.7280178654328
 31
0.0
  0
LINE
  5
1545
330
1505
100
AcDbEntity
  8
AM_0 ( Kontur 0.5 )
100
AcDbLine
 10
40.21365120488552
 20
273.7280178654328
 30
0.0
 11
40.02908234528513
 21
273.3278119678325
 31
0.0
  0
LINE
  5
1546
330
1505
100
AcDbEntity
  8
AM_0 ( Kontur 0.5 )
100
AcDbLine
 10
40.02908234528513
 20
273.3278119678325
 30
0.0
 11
40.06425773898445
 21
272.8885802868326
 31
0.0
  0
LINE
  5
1547
330
1505
100
AcDbEntity
  8
AM_0 ( Kontur 0.5 )
100
AcDbLine
 10
40.06425773898445
 20
272.8885802868326
 30
0.0
 11
40.3481039855851
 21
272.5461536455327
 31
0.0
  0
LINE
  5
1548
330
1505
100
AcDbEntity
  8
AM_0 ( Kontur 0.5 )
100
AcDbLine
 10
40.3481039855851
 20
272.5461536455327
 30
0.0
 11
40.7675085879855
 21
272.4205360174328
 31
0.0
  0
LINE
  5
1549
330
1505
100
AcDbEntity
  8
AM_0 ( Kontur 0.5 )
100
AcDbLine
 10
42.10283598918613
 20
273.9307045941327
 30
0.0
 11
41.71365123768555
 21
273.7280178622327
 31
0.0
  0
LINE
  5
154A
330
1505
100
AcDbEntity
  8
AM_0 ( Kontur 0.5 )
100
AcDbLine
 10
41.71365123768555
 20
273.7280178622327
 30
0.0
 11
41.52908237528571
 21
273.3278119586326
 31
0.0
  0
LINE
  5
154B
330
1505
100
AcDbEntity
  8
AM_0 ( Kontur 0.5 )
100
AcDbLine
 10
41.52908237528571
 20
273.3278119586326
 30
0.0
 11
41.56425776958529
 21
272.8885802711324
 31
0.0
  0
LINE
  5
154C
330
1505
100
AcDbEntity
  8
AM_0 ( Kontur 0.5 )
100
AcDbLine
 10
41.56425776958529
 20
272.8885802711324
 30
0.0
 11
41.84810402038602
 21
272.5461536248326
 31
0.0
  0
LINE
  5
154D
330
1505
100
AcDbEntity
  8
AM_0 ( Kontur 0.5 )
100
AcDbLine
 10
41.84810402038602
 20
272.5461536248326
 30
0.0
 11
42.26750862898552
 21
272.4205359947327
 31
0.0
  0
LINE
  5
154E
330
1505
100
AcDbEntity
  8
AM_0 ( Kontur 0.5 )
100
AcDbLine
 10
43.60283602778507
 20
273.9307045939327
 30
0.0
 11
43.21365127048557
 21
273.7280178590327
 31
0.0
  0
LINE
  5
154F
330
1505
100
AcDbEntity
  8
AM_0 ( Kontur 0.5 )
100
AcDbLine
 10
43.21365127048557
 20
273.7280178590327
 30
0.0
 11
43.02908240538454
 21
273.3278119495326
 31
0.0
  0
LINE
  5
1550
330
1505
100
AcDbEntity
  8
AM_0 ( Kontur 0.5 )
100
AcDbLine
 10
43.02908240538454
 20
273.3278119495326
 30
0.0
 11
43.06425780018614
 21
272.8885802554328
 31
0.0
  0
LINE
  5
1551
330
1505
100
AcDbEntity
  8
AM_0 ( Kontur 0.5 )
100
AcDbLine
 10
43.06425780018614
 20
272.8885802554328
 30
0.0
 11
43.34810405518509
 21
272.5461536040325
 31
0.0
  0
LINE
  5
1552
330
1505
100
AcDbEntity
  8
AM_0 ( Kontur 0.5 )
100
AcDbLine
 10
43.34810405518509
 20
272.5461536040325
 30
0.0
 11
43.76750867008559
 21
272.4205359720327
 31
0.0
  0
LINE
  5
1553
330
1505
100
AcDbEntity
  8
AM_0 ( Kontur 0.5 )
100
AcDbLine
 10
45.10283606638586
 20
273.9307045938326
 30
0.0
 11
44.71365130328559
 21
273.7280178559327
 31
0.0
  0
LINE
  5
1554
330
1505
100
AcDbEntity
  8
AM_0 ( Kontur 0.5 )
100
AcDbLine
 10
44.71365130328559
 20
273.7280178559327
 30
0.0
 11
44.52908243538513
 21
273.3278119403326
 31
0.0
  0
LINE
  5
1555
330
1505
100
AcDbEntity
  8
AM_0 ( Kontur 0.5 )
100
AcDbLine
 10
44.52908243538513
 20
273.3278119403326
 30
0.0
 11
44.56425783078521
 21
272.8885802397325
 31
0.0
  0
LINE
  5
1556
330
1505
100
AcDbEntity
  8
AM_0 ( Kontur 0.5 )
100
AcDbLine
 10
44.56425783078521
 20
272.8885802397325
 30
0.0
 11
44.848104089986
 21
272.5461535832328
 31
0.0
  0
LINE
  5
1557
330
1505
100
AcDbEntity
  8
AM_0 ( Kontur 0.5 )
100
AcDbLine
 10
44.848104089986
 20
272.5461535832328
 30
0.0
 11
45.26750871118563
 21
272.4205359494326
 31
0.0
  0
LINE
  5
1558
330
1505
100
AcDbEntity
  8
AM_0 ( Kontur 0.5 )
100
AcDbLine
 10
46.60283610498479
 20
273.9307045936325
 30
0.0
 11
46.2136513360856
 21
273.7280178527326
 31
0.0
  0
LINE
  5
1559
330
1505
100
AcDbEntity
  8
AM_0 ( Kontur 0.5 )
100
AcDbLine
 10
46.2136513360856
 20
273.7280178527326
 30
0.0
 11
46.02908246548577
 21
273.3278119312327
 31
0.0
  0
LINE
  5
155A
330
1505
100
AcDbEntity
  8
AM_0 ( Kontur 0.5 )
100
AcDbLine
 10
46.02908246548577
 20
273.3278119312327
 30
0.0
 11
46.06425786128602
 21
272.8885802240325
 31
0.0
  0
LINE
  5
155B
330
1505
100
AcDbEntity
  8
AM_0 ( Kontur 0.5 )
100
AcDbLine
 10
46.06425786128602
 20
272.8885802240325
 30
0.0
 11
46.34810412478509
 21
272.5461535624327
 31
0.0
  0
LINE
  5
155C
330
1505
100
AcDbEntity
  8
AM_0 ( Kontur 0.5 )
100
AcDbLine
 10
46.34810412478509
 20
272.5461535624327
 30
0.0
 11
46.76750875218568
 21
272.4205359267326
 31
0.0
  0
LINE
  5
155D
330
1505
100
AcDbEntity
  8
AM_0 ( Kontur 0.5 )
100
AcDbLine
 10
48.1028361435856
 20
273.9307045935325
 30
0.0
 11
47.71365136888561
 21
273.7280178495325
 31
0.0
  0
LINE
  5
155E
330
1505
100
AcDbEntity
  8
AM_0 ( Kontur 0.5 )
100
AcDbLine
 10
47.71365136888561
 20
273.7280178495325
 30
0.0
 11
47.52908249558458
 21
273.3278119220326
 31
0.0
  0
LINE
  5
155F
330
1505
100
AcDbEntity
  8
AM_0 ( Kontur 0.5 )
100
AcDbLine
 10
47.52908249558458
 20
273.3278119220326
 30
0.0
 11
47.56425789188506
 21
272.8885802083328
 31
0.0
  0
LINE
  5
1560
330
1505
100
AcDbEntity
  8
AM_0 ( Kontur 0.5 )
100
AcDbLine
 10
47.56425789188506
 20
272.8885802083328
 30
0.0
 11
47.84810415968602
 21
272.5461535416325
 31
0.0
  0
LINE
  5
1561
330
1505
100
AcDbEntity
  8
AM_0 ( Kontur 0.5 )
100
AcDbLine
 10
47.84810415968602
 20
272.5461535416325
 30
0.0
 11
48.26750879328574
 21
272.4205359040325
 31
0.0
  0
LINE
  5
1562
330
1505
100
AcDbEntity
  8
AM_0 ( Kontur 0.5 )
100
AcDbLine
 10
49.60283618218454
 20
273.9307045933324
 30
0.0
 11
49.21365140168564
 21
273.7280178463326
 31
0.0
  0
LINE
  5
1563
330
1505
100
AcDbEntity
  8
AM_0 ( Kontur 0.5 )
100
AcDbLine
 10
49.21365140168564
 20
273.7280178463326
 30
0.0
 11
49.02908252558518
 21
273.3278119129327
 31
0.0
  0
LINE
  5
1564
330
1505
100
AcDbEntity
  8
AM_0 ( Kontur 0.5 )
100
AcDbLine
 10
49.02908252558518
 20
273.3278119129327
 30
0.0
 11
49.06425792248592
 21
272.8885801927327
 31
0.0
  0
LINE
  5
1565
330
1505
100
AcDbEntity
  8
AM_0 ( Kontur 0.5 )
100
AcDbLine
 10
49.06425792248592
 20
272.8885801927327
 30
0.0
 11
49.34810419448513
 21
272.5461535208324
 31
0.0
  0
LINE
  5
1566
330
1505
100
AcDbEntity
  8
AM_0 ( Kontur 0.5 )
100
AcDbLine
 10
49.34810419448513
 20
272.5461535208324
 30
0.0
 11
49.76750883428574
 21
272.4205358814324
 31
0.0
  0
LINE
  5
1567
330
1505
100
AcDbEntity
  8
AM_0 ( Kontur 0.5 )
100
AcDbLine
 10
51.10283622088537
 20
273.9307045931328
 30
0.0
 11
50.71365143448566
 21
273.7280178431324
 31
0.0
  0
LINE
  5
1568
330
1505
100
AcDbEntity
  8
AM_0 ( Kontur 0.5 )
100
AcDbLine
 10
50.71365143448566
 20
273.7280178431324
 30
0.0
 11
50.52908255568581
 21
273.3278119038327
 31
0.0
  0
LINE
  5
1569
330
1505
100
AcDbEntity
  8
AM_0 ( Kontur 0.5 )
100
AcDbLine
 10
50.52908255568581
 20
273.3278119038327
 30
0.0
 11
50.56425795308496
 21
272.8885801770325
 31
0.0
  0
LINE
  5
156A
330
1505
100
AcDbEntity
  8
AM_0 ( Kontur 0.5 )
100
AcDbLine
 10
50.56425795308496
 20
272.8885801770325
 30
0.0
 11
50.84810422928605
 21
272.5461535000327
 31
0.0
  0
LINE
  5
156B
330
1505
100
AcDbEntity
  8
AM_0 ( Kontur 0.5 )
100
AcDbLine
 10
50.84810422928605
 20
272.5461535000327
 30
0.0
 11
51.26750887538583
 21
272.4205358587324
 31
0.0
  0
LINE
  5
156C
330
1505
100
AcDbEntity
  8
AM_0 ( Kontur 0.5 )
100
AcDbLine
 10
52.60283625948614
 20
273.9307045930327
 30
0.0
 11
52.21365146738571
 21
273.7280178400324
 31
0.0
  0
LINE
  5
156D
330
1505
100
AcDbEntity
  8
AM_0 ( Kontur 0.5 )
100
AcDbLine
 10
52.21365146738571
 20
273.7280178400324
 30
0.0
 11
52.02908258568459
 21
273.3278118946328
 31
0.0
  0
LINE
  5
156E
330
1505
100
AcDbEntity
  8
AM_0 ( Kontur 0.5 )
100
AcDbLine
 10
52.02908258568459
 20
273.3278118946328
 30
0.0
 11
52.06425798368582
 21
272.8885801613324
 31
0.0
  0
LINE
  5
156F
330
1505
100
AcDbEntity
  8
AM_0 ( Kontur 0.5 )
100
AcDbLine
 10
52.06425798368582
 20
272.8885801613324
 30
0.0
 11
52.34810426408512
 21
272.5461534792326
 31
0.0
  0
LINE
  5
1570
330
1505
100
AcDbEntity
  8
AM_0 ( Kontur 0.5 )
100
AcDbLine
 10
52.34810426408512
 20
272.5461534792326
 30
0.0
 11
52.76750891648589
 21
272.4205358360328
 31
0.0
  0
LINE
  5
1571
330
1505
100
AcDbEntity
  8
AM_0 ( Kontur 0.5 )
100
AcDbLine
 10
54.1028362980851
 20
273.9307045928326
 30
0.0
 11
53.71365150018572
 21
273.7280178368328
 31
0.0
  0
LINE
  5
1572
330
1505
100
AcDbEntity
  8
AM_0 ( Kontur 0.5 )
100
AcDbLine
 10
53.71365150018572
 20
273.7280178368328
 30
0.0
 11
53.52908261578523
 21
273.3278118855324
 31
0.0
  0
LINE
  5
1573
330
1505
100
AcDbEntity
  8
AM_0 ( Kontur 0.5 )
100
AcDbLine
 10
53.52908261578523
 20
273.3278118855324
 30
0.0
 11
53.56425801428486
 21
272.8885801456327
 31
0.0
  0
LINE
  5
1574
330
1505
100
AcDbEntity
  8
AM_0 ( Kontur 0.5 )
100
AcDbLine
 10
53.56425801428486
 20
272.8885801456327
 30
0.0
 11
53.84810429888602
 21
272.5461534584324
 31
0.0
  0
LINE
  5
1575
330
1505
100
AcDbEntity
  8
AM_0 ( Kontur 0.5 )
100
AcDbLine
 10
53.84810429888602
 20
272.5461534584324
 30
0.0
 11
54.2675089574859
 21
272.4205358134327
 31
0.0
  0
LINE
  5
1576
330
1505
100
AcDbEntity
  8
AM_0 ( Kontur 0.5 )
100
AcDbLine
 10
55.60283633668587
 20
273.9307045927326
 30
0.0
 11
55.21365153298575
 21
273.7280178336328
 31
0.0
  0
LINE
  5
1577
330
1505
100
AcDbEntity
  8
AM_0 ( Kontur 0.5 )
100
AcDbLine
 10
55.21365153298575
 20
273.7280178336328
 30
0.0
 11
55.02908264588587
 21
273.3278118763328
 31
0.0
  0
LINE
  5
1578
330
1505
100
AcDbEntity
  8
AM_0 ( Kontur 0.5 )
100
AcDbLine
 10
55.02908264588587
 20
273.3278118763328
 30
0.0
 11
55.06425804478567
 21
272.8885801299325
 31
0.0
  0
LINE
  5
1579
330
1505
100
AcDbEntity
  8
AM_0 ( Kontur 0.5 )
100
AcDbLine
 10
55.06425804478567
 20
272.8885801299325
 30
0.0
 11
55.34810433368511
 21
272.5461534376326
 31
0.0
  0
LINE
  5
157A
330
1505
100
AcDbEntity
  8
AM_0 ( Kontur 0.5 )
100
AcDbLine
 10
55.34810433368511
 20
272.5461534376326
 30
0.0
 11
55.76750899858597
 21
272.4205357907326
 31
0.0
  0
LINE
  5
157B
330
1505
100
AcDbEntity
  8
AM_0 ( Kontur 0.5 )
100
AcDbLine
 10
57.10283637528482
 20
273.9307045925325
 30
0.0
 11
56.71365156578577
 21
273.7280178304327
 31
0.0
  0
LINE
  5
157C
330
1505
100
AcDbEntity
  8
AM_0 ( Kontur 0.5 )
100
AcDbLine
 10
56.71365156578577
 20
273.7280178304327
 30
0.0
 11
56.52908267588464
 21
273.3278118672324
 31
0.0
  0
LINE
  5
157D
330
1505
100
AcDbEntity
  8
AM_0 ( Kontur 0.5 )
100
AcDbLine
 10
56.52908267588464
 20
273.3278118672324
 30
0.0
 11
56.56425807538472
 21
272.8885801142324
 31
0.0
  0
LINE
  5
157E
330
1505
100
AcDbEntity
  8
AM_0 ( Kontur 0.5 )
100
AcDbLine
 10
56.56425807538472
 20
272.8885801142324
 30
0.0
 11
56.84810436848602
 21
272.5461534168326
 31
0.0
  0
LINE
  5
157F
330
1505
100
AcDbEntity
  8
AM_0 ( Kontur 0.5 )
100
AcDbLine
 10
56.84810436848602
 20
272.5461534168326
 30
0.0
 11
57.26750903968603
 21
272.4205357681326
 31
0.0
  0
LINE
  5
1580
330
1505
100
AcDbEntity
  8
AM_0 ( Kontur 0.5 )
100
AcDbLine
 10
58.60283641388559
 20
273.9307045923324
 30
0.0
 11
58.21365159858578
 21
273.7280178272326
 31
0.0
  0
LINE
  5
1581
330
1505
100
AcDbEntity
  8
AM_0 ( Kontur 0.5 )
100
AcDbLine
 10
58.21365159858578
 20
273.7280178272326
 30
0.0
 11
58.02908270598527
 21
273.3278118580324
 31
0.0
  0
LINE
  5
1582
330
1505
100
AcDbEntity
  8
AM_0 ( Kontur 0.5 )
100
AcDbLine
 10
58.02908270598527
 20
273.3278118580324
 30
0.0
 11
58.06425810598558
 21
272.8885800985326
 31
0.0
  0
LINE
  5
1583
330
1505
100
AcDbEntity
  8
AM_0 ( Kontur 0.5 )
100
AcDbLine
 10
58.06425810598558
 20
272.8885800985326
 30
0.0
 11
58.34810440338515
 21
272.5461533961325
 31
0.0
  0
LINE
  5
1584
330
1505
100
AcDbEntity
  8
AM_0 ( Kontur 0.5 )
100
AcDbLine
 10
58.34810440338515
 20
272.5461533961325
 30
0.0
 11
58.76750908068608
 21
272.4205357454325
 31
0.0
  0
LINE
  5
1585
330
1505
100
AcDbEntity
  8
AM_0 ( Kontur 0.5 )
100
AcDbLine
 10
21.49998958198557
 20
354.9414148995325
 30
0.0
 11
18.99998961948586
 21
357.4414148620326
 31
0.0
  0
LINE
  5
1586
330
1505
100
AcDbEntity
  8
AM_0 ( Kontur 0.5 )
100
AcDbLine
 10
21.49998958198557
 20
357.4414148620326
 30
0.0
 11
18.99998961948586
 21
357.4414148620326
 31
0.0
  0
LINE
  5
1587
330
1505
100
AcDbEntity
  8
AM_0 ( Kontur 0.5 )
100
AcDbLine
 10
21.49998958198557
 20
357.4414148620326
 30
0.0
 11
21.49998958198557
 21
354.9414148995325
 31
0.0
  0
LINE
  5
1588
330
1505
100
AcDbEntity
  8
AM_0 ( Kontur 0.5 )
100
AcDbLine
 10
59.49998957748539
 20
357.4414148620326
 30
0.0
 11
61.99998953998512
 21
357.4414148620326
 31
0.0
  0
LINE
  5
1589
330
1505
100
AcDbEntity
  8
AM_0 ( Kontur 0.5 )
100
AcDbLine
 10
61.99998953998512
 20
357.4414148620326
 30
0.0
 11
59.49998957748539
 21
354.9414148995325
 31
0.0
  0
LINE
  5
158A
330
1505
100
AcDbEntity
  8
AM_0 ( Kontur 0.5 )
100
AcDbLine
 10
59.49998957748539
 20
357.4414148620326
 30
0.0
 11
59.49998957748539
 21
354.9414148995325
 31
0.0
  0
LINE
  5
158B
330
1505
100
AcDbEntity
  8
AM_0 ( Kontur 0.5 )
100
AcDbLine
 10
58.60283641388559
 20
357.4307045921328
 30
0.0
 11
58.21365159858578
 21
357.2280178270326
 31
0.0
  0
LINE
  5
158C
330
1505
100
AcDbEntity
  8
AM_0 ( Kontur 0.5 )
100
AcDbLine
 10
58.21365159858578
 20
357.2280178270326
 30
0.0
 11
58.02908270598527
 21
356.8278118578328
 31
0.0
  0
LINE
  5
158D
330
1505
100
AcDbEntity
  8
AM_0 ( Kontur 0.5 )
100
AcDbLine
 10
58.02908270598527
 20
356.8278118578328
 30
0.0
 11
58.06425810598558
 21
356.3885800983326
 31
0.0
  0
LINE
  5
158E
330
1505
100
AcDbEntity
  8
AM_0 ( Kontur 0.5 )
100
AcDbLine
 10
58.06425810598558
 20
356.3885800983326
 30
0.0
 11
58.34810440338515
 21
356.0461533958328
 31
0.0
  0
LINE
  5
158F
330
1505
100
AcDbEntity
  8
AM_0 ( Kontur 0.5 )
100
AcDbLine
 10
58.34810440338515
 20
356.0461533958328
 30
0.0
 11
58.76750908068608
 21
355.9205357452324
 31
0.0
  0
LINE
  5
1590
330
1505
100
AcDbEntity
  8
AM_0 ( Kontur 0.5 )
100
AcDbLine
 10
57.10283637528482
 20
357.4307045923324
 30
0.0
 11
56.71365156578577
 21
357.2280178302326
 31
0.0
  0
LINE
  5
1591
330
1505
100
AcDbEntity
  8
AM_0 ( Kontur 0.5 )
100
AcDbLine
 10
56.71365156578577
 20
357.2280178302326
 30
0.0
 11
56.52908267588464
 21
356.8278118670328
 31
0.0
  0
LINE
  5
1592
330
1505
100
AcDbEntity
  8
AM_0 ( Kontur 0.5 )
100
AcDbLine
 10
56.52908267588464
 20
356.8278118670328
 30
0.0
 11
56.56425807538472
 21
356.3885801140326
 31
0.0
  0
LINE
  5
1593
330
1505
100
AcDbEntity
  8
AM_0 ( Kontur 0.5 )
100
AcDbLine
 10
56.56425807538472
 20
356.3885801140326
 30
0.0
 11
56.84810436848602
 21
356.0461534166325
 31
0.0
  0
LINE
  5
1594
330
1505
100
AcDbEntity
  8
AM_0 ( Kontur 0.5 )
100
AcDbLine
 10
56.84810436848602
 20
356.0461534166325
 30
0.0
 11
57.26750903968603
 21
355.9205357678325
 31
0.0
  0
LINE
  5
1595
330
1505
100
AcDbEntity
  8
AM_0 ( Kontur 0.5 )
100
AcDbLine
 10
55.60283633668587
 20
357.4307045924324
 30
0.0
 11
55.21365153298575
 21
357.2280178334326
 31
0.0
  0
LINE
  5
1596
330
1505
100
AcDbEntity
  8
AM_0 ( Kontur 0.5 )
100
AcDbLine
 10
55.21365153298575
 20
357.2280178334326
 30
0.0
 11
55.02908264588587
 21
356.8278118761327
 31
0.0
  0
LINE
  5
1597
330
1505
100
AcDbEntity
  8
AM_0 ( Kontur 0.5 )
100
AcDbLine
 10
55.02908264588587
 20
356.8278118761327
 30
0.0
 11
55.06425804478567
 21
356.3885801297324
 31
0.0
  0
LINE
  5
1598
330
1505
100
AcDbEntity
  8
AM_0 ( Kontur 0.5 )
100
AcDbLine
 10
55.06425804478567
 20
356.3885801297324
 30
0.0
 11
55.34810433368511
 21
356.0461534374326
 31
0.0
  0
LINE
  5
1599
330
1505
100
AcDbEntity
  8
AM_0 ( Kontur 0.5 )
100
AcDbLine
 10
55.34810433368511
 20
356.0461534374326
 30
0.0
 11
55.76750899858597
 21
355.9205357905325
 31
0.0
  0
LINE
  5
159A
330
1505
100
AcDbEntity
  8
AM_0 ( Kontur 0.5 )
100
AcDbLine
 10
54.1028362980851
 20
357.4307045926325
 30
0.0
 11
53.71365150018572
 21
357.2280178365327
 31
0.0
  0
LINE
  5
159B
330
1505
100
AcDbEntity
  8
AM_0 ( Kontur 0.5 )
100
AcDbLine
 10
53.71365150018572
 20
357.2280178365327
 30
0.0
 11
53.52908261578523
 21
356.8278118852327
 31
0.0
  0
LINE
  5
159C
330
1505
100
AcDbEntity
  8
AM_0 ( Kontur 0.5 )
100
AcDbLine
 10
53.52908261578523
 20
356.8278118852327
 30
0.0
 11
53.56425801428486
 21
356.3885801454327
 31
0.0
  0
LINE
  5
159D
330
1505
100
AcDbEntity
  8
AM_0 ( Kontur 0.5 )
100
AcDbLine
 10
53.56425801428486
 20
356.3885801454327
 30
0.0
 11
53.84810429888602
 21
356.0461534582328
 31
0.0
  0
LINE
  5
159E
330
1505
100
AcDbEntity
  8
AM_0 ( Kontur 0.5 )
100
AcDbLine
 10
53.84810429888602
 20
356.0461534582328
 30
0.0
 11
54.2675089574859
 21
355.9205358132327
 31
0.0
  0
LINE
  5
159F
330
1505
100
AcDbEntity
  8
AM_0 ( Kontur 0.5 )
100
AcDbLine
 10
52.60283625948614
 20
357.4307045928326
 30
0.0
 11
52.21365146738571
 21
357.2280178397327
 31
0.0
  0
LINE
  5
15A0
330
1505
100
AcDbEntity
  8
AM_0 ( Kontur 0.5 )
100
AcDbLine
 10
52.21365146738571
 20
357.2280178397327
 30
0.0
 11
52.02908258568459
 21
356.8278118944327
 31
0.0
  0
LINE
  5
15A1
330
1505
100
AcDbEntity
  8
AM_0 ( Kontur 0.5 )
100
AcDbLine
 10
52.02908258568459
 20
356.8278118944327
 30
0.0
 11
52.06425798368582
 21
356.3885801610327
 31
0.0
  0
LINE
  5
15A2
330
1505
100
AcDbEntity
  8
AM_0 ( Kontur 0.5 )
100
AcDbLine
 10
52.06425798368582
 20
356.3885801610327
 30
0.0
 11
52.34810426408512
 21
356.0461534790325
 31
0.0
  0
LINE
  5
15A3
330
1505
100
AcDbEntity
  8
AM_0 ( Kontur 0.5 )
100
AcDbLine
 10
52.34810426408512
 20
356.0461534790325
 30
0.0
 11
52.76750891648589
 21
355.9205358358326
 31
0.0
  0
LINE
  5
15A4
330
1505
100
AcDbEntity
  8
AM_0 ( Kontur 0.5 )
100
AcDbLine
 10
51.10283622088537
 20
357.4307045929327
 30
0.0
 11
50.71365143448566
 21
357.2280178429328
 31
0.0
  0
LINE
  5
15A5
330
1505
100
AcDbEntity
  8
AM_0 ( Kontur 0.5 )
100
AcDbLine
 10
50.71365143448566
 20
357.2280178429328
 30
0.0
 11
50.52908255568581
 21
356.8278119035326
 31
0.0
  0
LINE
  5
15A6
330
1505
100
AcDbEntity
  8
AM_0 ( Kontur 0.5 )
100
AcDbLine
 10
50.52908255568581
 20
356.8278119035326
 30
0.0
 11
50.56425795308496
 21
356.3885801767328
 31
0.0
  0
LINE
  5
15A7
330
1505
100
AcDbEntity
  8
AM_0 ( Kontur 0.5 )
100
AcDbLine
 10
50.56425795308496
 20
356.3885801767328
 30
0.0
 11
50.84810422928605
 21
356.0461534998326
 31
0.0
  0
LINE
  5
15A8
330
1505
100
AcDbEntity
  8
AM_0 ( Kontur 0.5 )
100
AcDbLine
 10
50.84810422928605
 20
356.0461534998326
 30
0.0
 11
51.26750887538583
 21
355.9205358585327
 31
0.0
  0
LINE
  5
15A9
330
1505
100
AcDbEntity
  8
AM_0 ( Kontur 0.5 )
100
AcDbLine
 10
49.60283618218454
 20
357.4307045931328
 30
0.0
 11
49.21365140168564
 21
357.2280178461323
 31
0.0
  0
LINE
  5
15AA
330
1505
100
AcDbEntity
  8
AM_0 ( Kontur 0.5 )
100
AcDbLine
 10
49.21365140168564
 20
357.2280178461323
 30
0.0
 11
49.02908252558518
 21
356.8278119127326
 31
0.0
  0
LINE
  5
15AB
330
1505
100
AcDbEntity
  8
AM_0 ( Kontur 0.5 )
100
AcDbLine
 10
49.02908252558518
 20
356.8278119127326
 30
0.0
 11
49.06425792248592
 21
356.3885801924325
 31
0.0
  0
LINE
  5
15AC
330
1505
100
AcDbEntity
  8
AM_0 ( Kontur 0.5 )
100
AcDbLine
 10
49.06425792248592
 20
356.3885801924325
 30
0.0
 11
49.34810419448513
 21
356.0461535206327
 31
0.0
  0
LINE
  5
15AD
330
1505
100
AcDbEntity
  8
AM_0 ( Kontur 0.5 )
100
AcDbLine
 10
49.34810419448513
 20
356.0461535206327
 30
0.0
 11
49.76750883428574
 21
355.9205358811328
 31
0.0
  0
LINE
  5
15AE
330
1505
100
AcDbEntity
  8
AM_0 ( Kontur 0.5 )
100
AcDbLine
 10
48.1028361435856
 20
357.4307045932328
 30
0.0
 11
47.71365136888561
 21
357.2280178493325
 31
0.0
  0
LINE
  5
15AF
330
1505
100
AcDbEntity
  8
AM_0 ( Kontur 0.5 )
100
AcDbLine
 10
47.71365136888561
 20
357.2280178493325
 30
0.0
 11
47.52908249558458
 21
356.8278119218327
 31
0.0
  0
LINE
  5
15B0
330
1505
100
AcDbEntity
  8
AM_0 ( Kontur 0.5 )
100
AcDbLine
 10
47.52908249558458
 20
356.8278119218327
 30
0.0
 11
47.56425789188506
 21
356.3885802081327
 31
0.0
  0
LINE
  5
15B1
330
1505
100
AcDbEntity
  8
AM_0 ( Kontur 0.5 )
100
AcDbLine
 10
47.56425789188506
 20
356.3885802081327
 30
0.0
 11
47.84810415968602
 21
356.0461535414323
 31
0.0
  0
LINE
  5
15B2
330
1505
100
AcDbEntity
  8
AM_0 ( Kontur 0.5 )
100
AcDbLine
 10
47.84810415968602
 20
356.0461535414323
 30
0.0
 11
48.26750879328574
 21
355.9205359038324
 31
0.0
  0
LINE
  5
15B3
330
1505
100
AcDbEntity
  8
AM_0 ( Kontur 0.5 )
100
AcDbLine
 10
46.60283610498479
 20
357.4307045934324
 30
0.0
 11
46.2136513360856
 21
357.2280178524325
 31
0.0
  0
LINE
  5
15B4
330
1505
100
AcDbEntity
  8
AM_0 ( Kontur 0.5 )
100
AcDbLine
 10
46.2136513360856
 20
357.2280178524325
 30
0.0
 11
46.02908246548577
 21
356.8278119310325
 31
0.0
  0
LINE
  5
15B5
330
1505
100
AcDbEntity
  8
AM_0 ( Kontur 0.5 )
100
AcDbLine
 10
46.02908246548577
 20
356.8278119310325
 30
0.0
 11
46.06425786128602
 21
356.3885802238328
 31
0.0
  0
LINE
  5
15B6
330
1505
100
AcDbEntity
  8
AM_0 ( Kontur 0.5 )
100
AcDbLine
 10
46.06425786128602
 20
356.3885802238328
 30
0.0
 11
46.34810412478509
 21
356.0461535621325
 31
0.0
  0
LINE
  5
15B7
330
1505
100
AcDbEntity
  8
AM_0 ( Kontur 0.5 )
100
AcDbLine
 10
46.34810412478509
 20
356.0461535621325
 30
0.0
 11
46.76750875218568
 21
355.9205359265324
 31
0.0
  0
LINE
  5
15B8
330
1505
100
AcDbEntity
  8
AM_0 ( Kontur 0.5 )
100
AcDbLine
 10
45.10283606638586
 20
357.4307045936325
 30
0.0
 11
44.71365130328559
 21
357.2280178556324
 31
0.0
  0
LINE
  5
15B9
330
1505
100
AcDbEntity
  8
AM_0 ( Kontur 0.5 )
100
AcDbLine
 10
44.71365130328559
 20
357.2280178556324
 30
0.0
 11
44.52908243538513
 21
356.8278119401325
 31
0.0
  0
LINE
  5
15BA
330
1505
100
AcDbEntity
  8
AM_0 ( Kontur 0.5 )
100
AcDbLine
 10
44.52908243538513
 20
356.8278119401325
 30
0.0
 11
44.56425783078521
 21
356.3885802395325
 31
0.0
  0
LINE
  5
15BB
330
1505
100
AcDbEntity
  8
AM_0 ( Kontur 0.5 )
100
AcDbLine
 10
44.56425783078521
 20
356.3885802395325
 30
0.0
 11
44.848104089986
 21
356.0461535829327
 31
0.0
  0
LINE
  5
15BC
330
1505
100
AcDbEntity
  8
AM_0 ( Kontur 0.5 )
100
AcDbLine
 10
44.848104089986
 20
356.0461535829327
 30
0.0
 11
45.26750871118563
 21
355.9205359491325
 31
0.0
  0
LINE
  5
15BD
330
1505
100
AcDbEntity
  8
AM_0 ( Kontur 0.5 )
100
AcDbLine
 10
43.60283602778507
 20
357.4307045937326
 30
0.0
 11
43.21365127048557
 21
357.2280178588326
 31
0.0
  0
LINE
  5
15BE
330
1505
100
AcDbEntity
  8
AM_0 ( Kontur 0.5 )
100
AcDbLine
 10
43.21365127048557
 20
357.2280178588326
 30
0.0
 11
43.02908240538454
 21
356.8278119492325
 31
0.0
  0
LINE
  5
15BF
330
1505
100
AcDbEntity
  8
AM_0 ( Kontur 0.5 )
100
AcDbLine
 10
43.02908240538454
 20
356.8278119492325
 30
0.0
 11
43.06425780018614
 21
356.3885802552327
 31
0.0
  0
LINE
  5
15C0
330
1505
100
AcDbEntity
  8
AM_0 ( Kontur 0.5 )
100
AcDbLine
 10
43.06425780018614
 20
356.3885802552327
 30
0.0
 11
43.34810405518509
 21
356.0461536037328
 31
0.0
  0
LINE
  5
15C1
330
1505
100
AcDbEntity
  8
AM_0 ( Kontur 0.5 )
100
AcDbLine
 10
43.34810405518509
 20
356.0461536037328
 30
0.0
 11
43.76750867008559
 21
355.9205359718327
 31
0.0
  0
LINE
  5
15C2
330
1505
100
AcDbEntity
  8
AM_0 ( Kontur 0.5 )
100
AcDbLine
 10
42.10283598918613
 20
357.4307045939327
 30
0.0
 11
41.71365123768555
 21
357.2280178620326
 31
0.0
  0
LINE
  5
15C3
330
1505
100
AcDbEntity
  8
AM_0 ( Kontur 0.5 )
100
AcDbLine
 10
41.71365123768555
 20
357.2280178620326
 30
0.0
 11
41.52908237528571
 21
356.8278119584324
 31
0.0
  0
LINE
  5
15C4
330
1505
100
AcDbEntity
  8
AM_0 ( Kontur 0.5 )
100
AcDbLine
 10
41.52908237528571
 20
356.8278119584324
 30
0.0
 11
41.56425776958529
 21
356.3885802709328
 31
0.0
  0
LINE
  5
15C5
330
1505
100
AcDbEntity
  8
AM_0 ( Kontur 0.5 )
100
AcDbLine
 10
41.56425776958529
 20
356.3885802709328
 30
0.0
 11
41.84810402038602
 21
356.0461536245325
 31
0.0
  0
LINE
  5
15C6
330
1505
100
AcDbEntity
  8
AM_0 ( Kontur 0.5 )
100
AcDbLine
 10
41.84810402038602
 20
356.0461536245325
 30
0.0
 11
42.26750862898552
 21
355.9205359945327
 31
0.0
  0
LINE
  5
15C7
330
1505
100
AcDbEntity
  8
AM_0 ( Kontur 0.5 )
100
AcDbLine
 10
40.60283595058534
 20
357.4307045940326
 30
0.0
 11
40.21365120488552
 21
357.2280178652327
 31
0.0
  0
LINE
  5
15C8
330
1505
100
AcDbEntity
  8
AM_0 ( Kontur 0.5 )
100
AcDbLine
 10
40.21365120488552
 20
357.2280178652327
 30
0.0
 11
40.02908234528513
 21
356.8278119675323
 31
0.0
  0
LINE
  5
15C9
330
1505
100
AcDbEntity
  8
AM_0 ( Kontur 0.5 )
100
AcDbLine
 10
40.02908234528513
 20
356.8278119675323
 30
0.0
 11
40.06425773898445
 21
356.3885802866325
 31
0.0
  0
LINE
  5
15CA
330
1505
100
AcDbEntity
  8
AM_0 ( Kontur 0.5 )
100
AcDbLine
 10
40.06425773898445
 20
356.3885802866325
 30
0.0
 11
40.3481039855851
 21
356.0461536453327
 31
0.0
  0
LINE
  5
15CB
330
1505
100
AcDbEntity
  8
AM_0 ( Kontur 0.5 )
100
AcDbLine
 10
40.3481039855851
 20
356.0461536453327
 30
0.0
 11
40.7675085879855
 21
355.9205360171327
 31
0.0
  0
LINE
  5
15CC
330
1505
100
AcDbEntity
  8
AM_0 ( Kontur 0.5 )
100
AcDbLine
 10
39.10283591198459
 20
357.4307045942323
 30
0.0
 11
38.71365117208553
 21
357.2280178683327
 31
0.0
  0
LINE
  5
15CD
330
1505
100
AcDbEntity
  8
AM_0 ( Kontur 0.5 )
100
AcDbLine
 10
38.71365117208553
 20
357.2280178683327
 30
0.0
 11
38.5290823151845
 21
356.8278119767328
 31
0.0
  0
LINE
  5
15CE
330
1505
100
AcDbEntity
  8
AM_0 ( Kontur 0.5 )
100
AcDbLine
 10
38.5290823151845
 20
356.8278119767328
 30
0.0
 11
38.56425770838541
 21
356.3885803022326
 31
0.0
  0
LINE
  5
15CF
330
1505
100
AcDbEntity
  8
AM_0 ( Kontur 0.5 )
100
AcDbLine
 10
38.56425770838541
 20
356.3885803022326
 30
0.0
 11
38.84810395078602
 21
356.0461536661323
 31
0.0
  0
LINE
  5
15D0
330
1505
100
AcDbEntity
  8
AM_0 ( Kontur 0.5 )
100
AcDbLine
 10
38.84810395078602
 20
356.0461536661323
 30
0.0
 11
39.26750854688544
 21
355.9205360398328
 31
0.0
  0
LINE
  5
15D1
330
1505
100
AcDbEntity
  8
AM_0 ( Kontur 0.5 )
100
AcDbLine
 10
37.60283587338564
 20
357.4307045943323
 30
0.0
 11
37.21365113928551
 21
357.2280178715327
 31
0.0
  0
LINE
  5
15D2
330
1505
100
AcDbEntity
  8
AM_0 ( Kontur 0.5 )
100
AcDbLine
 10
37.21365113928551
 20
357.2280178715327
 30
0.0
 11
37.02908228508568
 21
356.8278119858323
 31
0.0
  0
LINE
  5
15D3
330
1505
100
AcDbEntity
  8
AM_0 ( Kontur 0.5 )
100
AcDbLine
 10
37.02908228508568
 20
356.8278119858323
 30
0.0
 11
37.06425767778455
 21
356.3885803179328
 31
0.0
  0
LINE
  5
15D4
330
1505
100
AcDbEntity
  8
AM_0 ( Kontur 0.5 )
100
AcDbLine
 10
37.06425767778455
 20
356.3885803179328
 30
0.0
 11
37.34810391598511
 21
356.0461536869325
 31
0.0
  0
LINE
  5
15D5
330
1505
100
AcDbEntity
  8
AM_0 ( Kontur 0.5 )
100
AcDbLine
 10
37.34810391598511
 20
356.0461536869325
 30
0.0
 11
37.76750850578537
 21
355.9205360624328
 31
0.0
  0
LINE
  5
15D6
330
1505
100
AcDbEntity
  8
AM_0 ( Kontur 0.5 )
100
AcDbLine
 10
36.10283583478486
 20
357.4307045945325
 30
0.0
 11
35.71365110638544
 21
357.2280178747324
 31
0.0
  0
LINE
  5
15D7
330
1505
100
AcDbEntity
  8
AM_0 ( Kontur 0.5 )
100
AcDbLine
 10
35.71365110638544
 20
357.2280178747324
 30
0.0
 11
35.5290822550851
 21
356.8278119950328
 31
0.0
  0
LINE
  5
15D8
330
1505
100
AcDbEntity
  8
AM_0 ( Kontur 0.5 )
100
AcDbLine
 10
35.5290822550851
 20
356.8278119950328
 30
0.0
 11
35.56425764718551
 21
356.3885803336325
 31
0.0
  0
LINE
  5
15D9
330
1505
100
AcDbEntity
  8
AM_0 ( Kontur 0.5 )
100
AcDbLine
 10
35.56425764718551
 20
356.3885803336325
 30
0.0
 11
35.84810388108599
 21
356.0461537077326
 31
0.0
  0
LINE
  5
15DA
330
1505
100
AcDbEntity
  8
AM_0 ( Kontur 0.5 )
100
AcDbLine
 10
35.84810388108599
 20
356.0461537077326
 30
0.0
 11
36.26750846478535
 21
355.9205360851324
 31
0.0
  0
LINE
  5
15DB
330
1505
100
AcDbEntity
  8
AM_0 ( Kontur 0.5 )
100
AcDbLine
 10
34.6028357961859
 20
357.4307045947326
 30
0.0
 11
34.21365107358543
 21
357.2280178779323
 31
0.0
  0
LINE
  5
15DC
330
1505
100
AcDbEntity
  8
AM_0 ( Kontur 0.5 )
100
AcDbLine
 10
34.21365107358543
 20
357.2280178779323
 30
0.0
 11
34.02908222498445
 21
356.8278120041327
 31
0.0
  0
LINE
  5
15DD
330
1505
100
AcDbEntity
  8
AM_0 ( Kontur 0.5 )
100
AcDbLine
 10
34.02908222498445
 20
356.8278120041327
 30
0.0
 11
34.0642576166847
 21
356.3885803493326
 31
0.0
  0
LINE
  5
15DE
330
1505
100
AcDbEntity
  8
AM_0 ( Kontur 0.5 )
100
AcDbLine
 10
34.0642576166847
 20
356.3885803493326
 30
0.0
 11
34.34810384628509
 21
356.0461537285328
 31
0.0
  0
LINE
  5
15DF
330
1505
100
AcDbEntity
  8
AM_0 ( Kontur 0.5 )
100
AcDbLine
 10
34.34810384628509
 20
356.0461537285328
 30
0.0
 11
34.76750842368529
 21
355.9205361078325
 31
0.0
  0
LINE
  5
15E0
330
1505
100
AcDbEntity
  8
AM_0 ( Kontur 0.5 )
100
AcDbLine
 10
33.10283575748508
 20
357.4307045948326
 30
0.0
 11
32.71365104078541
 21
357.2280178811325
 31
0.0
  0
LINE
  5
15E1
330
1505
100
AcDbEntity
  8
AM_0 ( Kontur 0.5 )
100
AcDbLine
 10
32.71365104078541
 20
357.2280178811325
 30
0.0
 11
32.52908219498568
 21
356.8278120132327
 31
0.0
  0
LINE
  5
15E2
330
1505
100
AcDbEntity
  8
AM_0 ( Kontur 0.5 )
100
AcDbLine
 10
32.52908219498568
 20
356.8278120132327
 30
0.0
 11
32.56425758608566
 21
356.3885803650328
 31
0.0
  0
LINE
  5
15E3
330
1505
100
AcDbEntity
  8
AM_0 ( Kontur 0.5 )
100
AcDbLine
 10
32.56425758608566
 20
356.3885803650328
 30
0.0
 11
32.848103811486
 21
356.0461537493325
 31
0.0
  0
LINE
  5
15E4
330
1505
100
AcDbEntity
  8
AM_0 ( Kontur 0.5 )
100
AcDbLine
 10
32.848103811486
 20
356.0461537493325
 30
0.0
 11
33.26750838268527
 21
355.9205361304325
 31
0.0
  0
LINE
  5
15E5
330
1505
100
AcDbEntity
  8
AM_0 ( Kontur 0.5 )
100
AcDbLine
 10
31.60283571888613
 20
357.4307045950326
 30
0.0
 11
31.21365100798539
 21
357.2280178842325
 31
0.0
  0
LINE
  5
15E6
330
1505
100
AcDbEntity
  8
AM_0 ( Kontur 0.5 )
100
AcDbLine
 10
31.21365100798539
 20
357.2280178842325
 30
0.0
 11
31.02908216488504
 21
356.8278120224327
 31
0.0
  0
LINE
  5
15E7
330
1505
100
AcDbEntity
  8
AM_0 ( Kontur 0.5 )
100
AcDbLine
 10
31.02908216488504
 20
356.8278120224327
 30
0.0
 11
31.0642575554848
 21
356.3885803807325
 31
0.0
  0
LINE
  5
15E8
330
1505
100
AcDbEntity
  8
AM_0 ( Kontur 0.5 )
100
AcDbLine
 10
31.0642575554848
 20
356.3885803807325
 30
0.0
 11
31.3481037766851
 21
356.0461537701326
 31
0.0
  0
LINE
  5
15E9
330
1505
100
AcDbEntity
  8
AM_0 ( Kontur 0.5 )
100
AcDbLine
 10
31.3481037766851
 20
356.0461537701326
 30
0.0
 11
31.7675083415852
 21
355.9205361531326
 31
0.0
  0
LINE
  5
15EA
330
1505
100
AcDbEntity
  8
AM_0 ( Kontur 0.5 )
100
AcDbLine
 10
30.10283568028536
 20
357.4307045951327
 30
0.0
 11
29.71365097518538
 21
357.2280178874327
 31
0.0
  0
LINE
  5
15EB
330
1505
100
AcDbEntity
  8
AM_0 ( Kontur 0.5 )
100
AcDbLine
 10
29.71365097518538
 20
357.2280178874327
 30
0.0
 11
29.52908213478441
 21
356.8278120315326
 31
0.0
  0
LINE
  5
15EC
330
1505
100
AcDbEntity
  8
AM_0 ( Kontur 0.5 )
100
AcDbLine
 10
29.52908213478441
 20
356.8278120315326
 30
0.0
 11
29.56425752488576
 21
356.3885803964327
 31
0.0
  0
LINE
  5
15ED
330
1505
100
AcDbEntity
  8
AM_0 ( Kontur 0.5 )
100
AcDbLine
 10
29.56425752488576
 20
356.3885803964327
 30
0.0
 11
29.84810374188601
 21
356.0461537909327
 31
0.0
  0
LINE
  5
15EE
330
1505
100
AcDbEntity
  8
AM_0 ( Kontur 0.5 )
100
AcDbLine
 10
29.84810374188601
 20
356.0461537909327
 30
0.0
 11
30.26750830048513
 21
355.9205361758327
 31
0.0
  0
LINE
  5
15EF
330
1505
100
AcDbEntity
  8
AM_0 ( Kontur 0.5 )
100
AcDbLine
 10
28.60283564168458
 20
357.4307045953328
 30
0.0
 11
28.21365094238536
 21
357.2280178906327
 31
0.0
  0
LINE
  5
15F0
330
1505
100
AcDbEntity
  8
AM_0 ( Kontur 0.5 )
100
AcDbLine
 10
28.21365094238536
 20
357.2280178906327
 30
0.0
 11
28.02908210478563
 21
356.8278120407326
 31
0.0
  0
LINE
  5
15F1
330
1505
100
AcDbEntity
  8
AM_0 ( Kontur 0.5 )
100
AcDbLine
 10
28.02908210478563
 20
356.8278120407326
 30
0.0
 11
28.0642574942849
 21
356.3885804121328
 31
0.0
  0
LINE
  5
15F2
330
1505
100
AcDbEntity
  8
AM_0 ( Kontur 0.5 )
100
AcDbLine
 10
28.0642574942849
 20
356.3885804121328
 30
0.0
 11
28.3481037070851
 21
356.0461538116324
 31
0.0
  0
LINE
  5
15F3
330
1505
100
AcDbEntity
  8
AM_0 ( Kontur 0.5 )
100
AcDbLine
 10
28.3481037070851
 20
356.0461538116324
 30
0.0
 11
28.76750825948511
 21
355.9205361984327
 31
0.0
  0
LINE
  5
15F4
330
1505
100
AcDbEntity
  8
AM_0 ( Kontur 0.5 )
100
AcDbLine
 10
25.60283556448486
 20
357.4307045956325
 30
0.0
 11
25.21365087678532
 21
357.2280178970327
 31
0.0
  0
LINE
  5
15F5
330
1505
100
AcDbEntity
  8
AM_0 ( Kontur 0.5 )
100
AcDbLine
 10
25.21365087678532
 20
357.2280178970327
 30
0.0
 11
25.02908204468622
 21
356.8278120590326
 31
0.0
  0
LINE
  5
15F6
330
1505
100
AcDbEntity
  8
AM_0 ( Kontur 0.5 )
100
AcDbLine
 10
25.02908204468622
 20
356.8278120590326
 30
0.0
 11
25.06425743318505
 21
356.3885804434326
 31
0.0
  0
LINE
  5
15F7
330
1505
100
AcDbEntity
  8
AM_0 ( Kontur 0.5 )
100
AcDbLine
 10
25.06425743318505
 20
356.3885804434326
 30
0.0
 11
25.34810363748511
 21
356.0461538532326
 31
0.0
  0
LINE
  5
15F8
330
1505
100
AcDbEntity
  8
AM_0 ( Kontur 0.5 )
100
AcDbLine
 10
25.34810363748511
 20
356.0461538532326
 30
0.0
 11
25.76750817728498
 21
355.9205362437324
 31
0.0
  0
LINE
  5
15F9
330
1505
100
AcDbEntity
  8
AM_0 ( Kontur 0.5 )
100
AcDbLine
 10
27.10283560308563
 20
357.4307045955325
 30
0.0
 11
26.71365090958534
 21
357.2280178938326
 31
0.0
  0
LINE
  5
15FA
330
1505
100
AcDbEntity
  8
AM_0 ( Kontur 0.5 )
100
AcDbLine
 10
26.71365090958534
 20
357.2280178938326
 30
0.0
 11
26.52908207468499
 21
356.8278120498326
 31
0.0
  0
LINE
  5
15FB
330
1505
100
AcDbEntity
  8
AM_0 ( Kontur 0.5 )
100
AcDbLine
 10
26.52908207468499
 20
356.8278120498326
 30
0.0
 11
26.56425746368586
 21
356.3885804277325
 31
0.0
  0
LINE
  5
15FC
330
1505
100
AcDbEntity
  8
AM_0 ( Kontur 0.5 )
100
AcDbLine
 10
26.56425746368586
 20
356.3885804277325
 30
0.0
 11
26.84810367228602
 21
356.0461538324326
 31
0.0
  0
LINE
  5
15FD
330
1505
100
AcDbEntity
  8
AM_0 ( Kontur 0.5 )
100
AcDbLine
 10
26.84810367228602
 20
356.0461538324326
 30
0.0
 11
27.26750821838506
 21
355.9205362211323
 31
0.0
  0
LINE
  5
15FE
330
1505
100
AcDbEntity
  8
AM_0 ( Kontur 0.5 )
100
AcDbLine
 10
24.1028355258859
 20
357.4307045958326
 30
0.0
 11
23.71365084398531
 21
357.2280179001327
 31
0.0
  0
LINE
  5
15FF
330
1505
100
AcDbEntity
  8
AM_0 ( Kontur 0.5 )
100
AcDbLine
 10
23.71365084398531
 20
357.2280179001327
 30
0.0
 11
23.52908201458558
 21
356.8278120681325
 31
0.0
  0
LINE
  5
1600
330
1505
100
AcDbEntity
  8
AM_0 ( Kontur 0.5 )
100
AcDbLine
 10
23.52908201458558
 20
356.8278120681325
 30
0.0
 11
23.56425740258601
 21
356.3885804591329
 31
0.0
  0
LINE
  5
1601
330
1505
100
AcDbEntity
  8
AM_0 ( Kontur 0.5 )
100
AcDbLine
 10
23.56425740258601
 20
356.3885804591329
 30
0.0
 11
23.84810360258598
 21
356.0461538740328
 31
0.0
  0
LINE
  5
1602
330
1505
100
AcDbEntity
  8
AM_0 ( Kontur 0.5 )
100
AcDbLine
 10
23.84810360258598
 20
356.0461538740328
 30
0.0
 11
24.26750813628496
 21
355.9205362664325
 31
0.0
  0
LINE
  5
1603
330
1505
100
AcDbEntity
  8
AM_0 ( Kontur 0.5 )
100
AcDbLine
 10
22.60283548728512
 20
357.4307045959326
 30
0.0
 11
22.21365081118529
 21
357.2280179033328
 31
0.0
  0
LINE
  5
1604
330
1505
100
AcDbEntity
  8
AM_0 ( Kontur 0.5 )
100
AcDbLine
 10
22.21365081118529
 20
357.2280179033328
 30
0.0
 11
22.02908198448495
 21
356.8278120773325
 31
0.0
  0
LINE
  5
1605
330
1505
100
AcDbEntity
  8
AM_0 ( Kontur 0.5 )
100
AcDbLine
 10
22.02908198448495
 20
356.8278120773325
 30
0.0
 11
22.06425737198515
 21
356.3885804748324
 31
0.0
  0
LINE
  5
1606
330
1505
100
AcDbEntity
  8
AM_0 ( Kontur 0.5 )
100
AcDbLine
 10
22.06425737198515
 20
356.3885804748324
 30
0.0
 11
22.34810356778508
 21
356.0461538948325
 31
0.0
  0
LINE
  5
1607
330
1505
100
AcDbEntity
  8
AM_0 ( Kontur 0.5 )
100
AcDbLine
 10
22.34810356778508
 20
356.0461538948325
 30
0.0
 11
22.76750809518489
 21
355.9205362891325
 31
0.0
  0
LINE
  5
1608
330
1505
100
AcDbEntity
  8
AM_0 ( Kontur 0.5 )
100
AcDbLine
 10
20.05735938138605
 20
273.8840450629327
 30
0.0
 11
20.11472918068466
 21
273.9414148622327
 31
0.0
  0
LINE
  5
1609
330
1505
100
AcDbEntity
  8
AM_0 ( Kontur 0.5 )
100
AcDbLine
 10
20.25615053698493
 20
273.9414148622327
 30
0.0
 11
20.1280700595853
 21
273.8133343848326
 31
0.0
  0
LINE
  5
160A
330
1505
100
AcDbEntity
  8
AM_0 ( Kontur 0.5 )
100
AcDbLine
 10
20.1987807376845
 20
273.7426237067325
 30
0.0
 11
20.39757189318516
 21
273.9414148622327
 31
0.0
  0
LINE
  5
160B
330
1505
100
AcDbEntity
  8
AM_0 ( Kontur 0.5 )
100
AcDbLine
 10
20.53899324938539
 20
273.9414148622327
 30
0.0
 11
20.26949141578552
 21
273.6719130285329
 31
0.0
  0
LINE
  5
160C
330
1505
100
AcDbEntity
  8
AM_0 ( Kontur 0.5 )
100
AcDbLine
 10
20.34020209388473
 20
273.6012023504327
 30
0.0
 11
20.68041460568565
 21
273.9414148622327
 31
0.0
  0
LINE
  5
160D
330
1505
100
AcDbEntity
  8
AM_0 ( Kontur 0.5 )
100
AcDbLine
 10
20.82183596188588
 20
273.9414148622327
 30
0.0
 11
20.41091277198575
 21
273.5304916723326
 31
0.0
  0
LINE
  5
160E
330
1505
100
AcDbEntity
  8
AM_0 ( Kontur 0.5 )
100
AcDbLine
 10
20.481623450185
 20
273.4597809942325
 30
0.0
 11
20.96325731818615
 21
273.9414148622327
 31
0.0
  0
LINE
  5
160F
330
1505
100
AcDbEntity
  8
AM_0 ( Kontur 0.5 )
100
AcDbLine
 10
21.10467867438456
 20
273.9414148622327
 30
0.0
 11
20.55233412828602
 21
273.3890703161323
 31
0.0
  0
LINE
  5
1610
330
1505
100
AcDbEntity
  8
AM_0 ( Kontur 0.5 )
100
AcDbLine
 10
20.62304480638522
 20
273.3183596380327
 30
0.0
 11
21.24610003058478
 21
273.9414148622327
 31
0.0
  0
LINE
  5
1611
330
1505
100
AcDbEntity
  8
AM_0 ( Kontur 0.5 )
100
AcDbLine
 10
21.38752138688506
 20
273.9414148622327
 30
0.0
 11
20.69375548448443
 21
273.2476489598326
 31
0.0
  0
LINE
  5
1612
330
1505
100
AcDbEntity
  8
AM_0 ( Kontur 0.5 )
100
AcDbLine
 10
20.76446616258545
 20
273.1769382817324
 30
0.0
 11
21.49998958198557
 21
273.9124617011325
 31
0.0
  0
LINE
  5
1613
330
1505
100
AcDbEntity
  8
AM_0 ( Kontur 0.5 )
100
AcDbLine
 10
21.49998958198557
 20
273.7710403448327
 30
0.0
 11
20.8351768407847
 21
273.1062276036328
 31
0.0
  0
LINE
  5
1614
330
1505
100
AcDbEntity
  8
AM_0 ( Kontur 0.5 )
100
AcDbLine
 10
20.90588751888572
 20
273.0355169255326
 30
0.0
 11
21.49998958198557
 21
273.6296189886325
 31
0.0
  0
LINE
  5
1615
330
1505
100
AcDbEntity
  8
AM_0 ( Kontur 0.5 )
100
AcDbLine
 10
21.49998958198557
 20
273.4881976324327
 30
0.0
 11
20.97659819698492
 21
272.9648062474325
 31
0.0
  0
LINE
  5
1616
330
1505
100
AcDbEntity
  8
AM_0 ( Kontur 0.5 )
100
AcDbLine
 10
21.04730887508595
 20
272.8940955692324
 30
0.0
 11
21.49998958198557
 21
273.3467762761325
 31
0.0
  0
LINE
  5
1617
330
1505
100
AcDbEntity
  8
AM_0 ( Kontur 0.5 )
100
AcDbLine
 10
21.49998958198557
 20
273.2053549199327
 30
0.0
 11
21.11801955318515
 21
272.8233848911327
 31
0.0
  0
LINE
  5
1618
330
1505
100
AcDbEntity
  8
AM_0 ( Kontur 0.5 )
100
AcDbLine
 10
21.18873023128617
 20
272.7526742130326
 30
0.0
 11
21.49998958198557
 21
273.0639335636324
 31
0.0
  0
LINE
  5
1619
330
1505
100
AcDbEntity
  8
AM_0 ( Kontur 0.5 )
100
AcDbLine
 10
21.49998958198557
 20
272.9225122074327
 30
0.0
 11
21.25944090948542
 21
272.6819635349325
 31
0.0
  0
LINE
  5
161A
330
1505
100
AcDbEntity
  8
AM_0 ( Kontur 0.5 )
100
AcDbLine
 10
21.33015158758462
 20
272.6112528568328
 30
0.0
 11
21.49998958198557
 21
272.7810908512324
 31
0.0
  0
LINE
  5
161B
330
1505
100
AcDbEntity
  8
AM_0 ( Kontur 0.5 )
100
AcDbLine
 10
21.49998958198557
 20
272.6396694949326
 30
0.0
 11
21.40086226568564
 21
272.5405421786327
 31
0.0
  0
LINE
  5
161C
330
1505
100
AcDbEntity
  8
AM_0 ( Kontur 0.5 )
100
AcDbLine
 10
21.47157294378486
 20
272.4698315005326
 30
0.0
 11
21.49998958198557
 21
272.4982481387324
 31
0.0
  0
LINE
  5
161D
330
1505
100
AcDbEntity
  8
AM_0 ( Kontur 0.5 )
100
AcDbLine
 10
59.49998957748539
 20
273.8701168688326
 30
0.0
 11
59.57128757088502
 21
273.9414148622327
 31
0.0
  0
LINE
  5
161E
330
1505
100
AcDbEntity
  8
AM_0 ( Kontur 0.5 )
100
AcDbLine
 10
59.71270892718528
 20
273.9414148622327
 30
0.0
 11
59.49998957748539
 21
273.7286955125328
 31
0.0
  0
LINE
  5
161F
330
1505
100
AcDbEntity
  8
AM_0 ( Kontur 0.5 )
100
AcDbLine
 10
59.49998957748539
 20
273.5872741563326
 30
0.0
 11
59.85413028338554
 21
273.9414148622327
 31
0.0
  0
LINE
  5
1620
330
1505
100
AcDbEntity
  8
AM_0 ( Kontur 0.5 )
100
AcDbLine
 10
59.9955516396858
 20
273.9414148622327
 30
0.0
 11
59.49998957748539
 21
273.4458528001324
 31
0.0
  0
LINE
  5
1621
330
1505
100
AcDbEntity
  8
AM_0 ( Kontur 0.5 )
100
AcDbLine
 10
59.49998957748539
 20
273.3044314438325
 30
0.0
 11
60.13697299588603
 21
273.9414148622327
 31
0.0
  0
LINE
  5
1622
330
1505
100
AcDbEntity
  8
AM_0 ( Kontur 0.5 )
100
AcDbLine
 10
60.27839435208441
 20
273.9414148622327
 30
0.0
 11
59.49998957748539
 21
273.1630100876328
 31
0.0
  0
LINE
  5
1623
330
1505
100
AcDbEntity
  8
AM_0 ( Kontur 0.5 )
100
AcDbLine
 10
59.49998957748539
 20
273.0215887313325
 30
0.0
 11
60.4198157083847
 21
273.9414148622327
 31
0.0
  0
LINE
  5
1624
330
1505
100
AcDbEntity
  8
AM_0 ( Kontur 0.5 )
100
AcDbLine
 10
60.56123706458492
 20
273.9414148622327
 30
0.0
 11
59.49998957748539
 21
272.8801673751326
 31
0.0
  0
LINE
  5
1625
330
1505
100
AcDbEntity
  8
AM_0 ( Kontur 0.5 )
100
AcDbLine
 10
59.49998957748539
 20
272.7387460189325
 30
0.0
 11
60.70265842078516
 21
273.9414148622327
 31
0.0
  0
LINE
  5
1626
330
1505
100
AcDbEntity
  8
AM_0 ( Kontur 0.5 )
100
AcDbLine
 10
60.84407977708543
 20
273.9414148622327
 30
0.0
 11
59.49998957748539
 21
272.5973246626327
 31
0.0
  0
LINE
  5
1627
330
1505
100
AcDbEntity
  8
AM_0 ( Kontur 0.5 )
100
AcDbLine
 10
59.49998957748539
 20
272.4559033064324
 30
0.0
 11
60.98550113328563
 21
273.9414148622327
 31
0.0
  0
LINE
  5
1628
330
1505
100
AcDbEntity
  8
AM_0 ( Kontur 0.5 )
100
AcDbLine
 10
21.49829853498522
 20
355.0891172105326
 30
0.0
 11
21.42532998188471
 21
355.0161486575325
 31
0.0
  0
LINE
  5
1629
330
1505
100
AcDbEntity
  8
AM_0 ( Kontur 0.5 )
100
AcDbLine
 10
21.24581621368452
 20
355.1958451287329
 30
0.0
 11
21.49855723348446
 21
355.4485861485328
 31
0.0
  0
LINE
  5
162A
330
1505
100
AcDbEntity
  8
AM_0 ( Kontur 0.5 )
100
AcDbLine
 10
21.49881593198552
 20
355.8080550865325
 30
0.0
 11
21.0663024453861
 21
355.3755415998326
 31
0.0
  0
LINE
  5
162B
330
1505
100
AcDbEntity
  8
AM_0 ( Kontur 0.5 )
100
AcDbLine
 10
20.88678867708586
 20
355.5552380710324
 30
0.0
 11
21.49907463058481
 21
356.1675240245327
 31
0.0
  0
LINE
  5
162C
330
1505
100
AcDbEntity
  8
AM_0 ( Kontur 0.5 )
100
AcDbLine
 10
21.49933332908586
 20
356.5269929625324
 30
0.0
 11
20.70727490878562
 21
355.7349345422326
 31
0.0
  0
LINE
  5
162D
330
1505
100
AcDbEntity
  8
AM_0 ( Kontur 0.5 )
100
AcDbLine
 10
20.52776114048538
 20
355.9146310133328
 30
0.0
 11
21.49959202768514
 21
356.8864619005326
 31
0.0
  0
LINE
  5
162E
330
1505
100
AcDbEntity
  8
AM_0 ( Kontur 0.5 )
100
AcDbLine
 10
21.4998507261862
 20
357.2459308385328
 30
0.0
 11
20.34824737218514
 21
356.0943274845326
 31
0.0
  0
LINE
  5
162F
330
1505
100
AcDbEntity
  8
AM_0 ( Kontur 0.5 )
100
AcDbLine
 10
20.1687336038849
 20
356.2740239556324
 30
0.0
 11
21.33375357778459
 21
357.4390439295326
 31
0.0
  0
LINE
  5
1630
330
1505
100
AcDbEntity
  8
AM_0 ( Kontur 0.5 )
100
AcDbLine
 10
20.9749082959861
 20
357.4394088871327
 30
0.0
 11
19.98921983558466
 21
356.4537204268327
 31
0.0
  0
LINE
  5
1631
330
1505
100
AcDbEntity
  8
AM_0 ( Kontur 0.5 )
100
AcDbLine
 10
19.80970606738447
 20
356.6334168980325
 30
0.0
 11
20.61606301408574
 21
357.4397738448324
 31
0.0
  0
LINE
  5
1632
330
1505
100
AcDbEntity
  8
AM_0 ( Kontur 0.5 )
100
AcDbLine
 10
20.25721773228543
 20
357.4401388024325
 30
0.0
 11
19.63019229908605
 21
356.8131133691327
 31
0.0
  0
LINE
  5
1633
330
1505
100
AcDbEntity
  8
AM_0 ( Kontur 0.5 )
100
AcDbLine
 10
19.45067853078581
 20
356.9928098403325
 30
0.0
 11
19.89837245048511
 21
357.4405037600326
 31
0.0
  0
LINE
  5
1634
330
1505
100
AcDbEntity
  8
AM_0 ( Kontur 0.5 )
100
AcDbLine
 10
19.53952716858475
 20
357.4408687176328
 30
0.0
 11
19.27116476248557
 21
357.1725063114327
 31
0.0
  0
LINE
  5
1635
330
1505
100
AcDbEntity
  8
AM_0 ( Kontur 0.5 )
100
AcDbLine
 10
19.09165099418533
 20
357.3522027826325
 30
0.0
 11
19.18068188678444
 21
357.4412336752325
 31
0.0
  0
LINE
  5
1636
330
1505
100
AcDbEntity
  8
AM_0 ( Kontur 0.5 )
100
AcDbLine
 10
61.852287228985
 20
357.4397238149327
 30
0.0
 11
61.92525578198546
 21
357.3667552619327
 31
0.0
  0
LINE
  5
1637
330
1505
100
AcDbEntity
  8
AM_0 ( Kontur 0.5 )
100
AcDbLine
 10
61.74555931078611
 20
357.1872414936324
 30
0.0
 11
61.49281829098618
 21
357.4399825135324
 31
0.0
  0
LINE
  5
1638
330
1505
100
AcDbEntity
  8
AM_0 ( Kontur 0.5 )
100
AcDbLine
 10
61.13334935298553
 20
357.4402412120325
 30
0.0
 11
61.56586283958495
 21
357.0077277253326
 31
0.0
  0
LINE
  5
1639
330
1505
100
AcDbEntity
  8
AM_0 ( Kontur 0.5 )
100
AcDbLine
 10
61.38616636848563
 20
356.8282139571325
 30
0.0
 11
60.77388041498489
 21
357.4404999106328
 31
0.0
  0
LINE
  5
163A
330
1505
100
AcDbEntity
  8
AM_0 ( Kontur 0.5 )
100
AcDbLine
 10
60.41441147698606
 20
357.4407586091326
 30
0.0
 11
61.20646989728448
 21
356.6487001888327
 31
0.0
  0
LINE
  5
163B
330
1505
100
AcDbEntity
  8
AM_0 ( Kontur 0.5 )
100
AcDbLine
 10
61.02677342618516
 20
356.4691864205324
 30
0.0
 11
60.0549425389854
 21
357.4410173076326
 31
0.0
  0
LINE
  5
163C
330
1505
100
AcDbEntity
  8
AM_0 ( Kontur 0.5 )
100
AcDbLine
 10
59.69547360098477
 20
357.4412760062328
 30
0.0
 11
60.84707695498583
 21
356.2896726522327
 31
0.0
  0
LINE
  5
163D
330
1505
100
AcDbEntity
  8
AM_0 ( Kontur 0.5 )
100
AcDbLine
 10
60.66738048378464
 20
356.1101588839323
 30
0.0
 11
59.50236050988497
 21
357.2751788578325
 31
0.0
  0
LINE
  5
163E
330
1505
100
AcDbEntity
  8
AM_0 ( Kontur 0.5 )
100
AcDbLine
 10
59.50199555228572
 20
356.9163335760328
 30
0.0
 11
60.48768401268535
 21
355.9306451156326
 31
0.0
  0
LINE
  5
163F
330
1505
100
AcDbEntity
  8
AM_0 ( Kontur 0.5 )
100
AcDbLine
 10
60.30798754148599
 20
355.7511313473324
 30
0.0
 11
59.50163059468469
 21
356.5574882941328
 31
0.0
  0
LINE
  5
1640
330
1505
100
AcDbEntity
  8
AM_0 ( Kontur 0.5 )
100
AcDbLine
 10
59.50126563708546
 20
356.1986430123325
 30
0.0
 11
60.12829107038488
 21
355.5716175790326
 31
0.0
  0
LINE
  5
1641
330
1505
100
AcDbEntity
  8
AM_0 ( Kontur 0.5 )
100
AcDbLine
 10
59.94859459918552
 20
355.3921038108323
 30
0.0
 11
59.50090067948622
 21
355.8397977304327
 31
0.0
  0
LINE
  5
1642
330
1505
100
AcDbEntity
  8
AM_0 ( Kontur 0.5 )
100
AcDbLine
 10
59.50053572188518
 20
355.4809524486326
 30
0.0
 11
59.76889812798617
 21
355.2125900425327
 31
0.0
  0
LINE
  5
1643
330
1505
100
AcDbEntity
  8
AM_0 ( Kontur 0.5 )
100
AcDbLine
 10
59.58920165688504
 20
355.0330762742324
 30
0.0
 11
59.50017076428594
 21
355.1221071667324
 31
0.0
  0
LINE
  5
1644
330
1505
100
AcDbEntity
  8
AM_0 ( Kontur 0.5 )
100
AcDbLine
 10
40.49998957978459
 20
349.6255518434328
 30
0.0
 11
40.49998957978459
 21
368.9781340532326
 31
0.0
  0
LINE
  5
1645
330
1505
100
AcDbEntity
  8
AM_0 ( Kontur 0.5 )
100
AcDbLine
 10
21.49998958198557
 20
275.9414148620326
 30
0.0
 11
21.49998958198557
 21
273.9414148622327
 31
0.0
  0
LINE
  5
1646
330
1505
100
AcDbEntity
  8
AM_3 ( Verdeckt )
100
AcDbLine
 10
23.64998958168508
 20
212.4414148796327
 30
0.0
 11
57.34998957778589
 21
212.4414148796327
 31
0.0
  0
LINE
  5
1647
330
1505
100
AcDbEntity
  8
AM_3 ( Verdeckt )
100
AcDbLine
 10
55.74998957798563
 20
189.0414148823324
 30
0.0
 11
55.74998957798563
 21
212.4414148796327
 31
0.0
  0
LINE
  5
1648
330
1505
100
AcDbEntity
  8
AM_3 ( Verdeckt )
100
AcDbLine
 10
55.74998957798563
 20
189.0414148823324
 30
0.0
 11
57.34998957778589
 21
187.4414148825325
 31
0.0
  0
ARC
  5
1649
330
1505
100
AcDbEntity
  8
AM_0 ( Kontur 0.5 )
100
AcDbCircle
 10
60.49998957738535
 20
274.9414148621327
 30
0.0
 40
0.9999999998999999
100
AcDbArc
 50
90.0
 51
180.0
  0
LINE
  5
164A
330
1505
100
AcDbEntity
  8
AM_3 ( Verdeckt )
100
AcDbLine
 10
25.24998958148535
 20
189.0414148823324
 30
0.0
 11
55.74998957798563
 21
189.0414148823324
 31
0.0
  0
LINE
  5
164B
330
1505
100
AcDbEntity
  8
AM_3 ( Verdeckt )
100
AcDbLine
 10
25.24998958148535
 20
189.0414148823324
 30
0.0
 11
23.64998958168508
 21
187.4414148825325
 31
0.0
  0
ARC
  5
164C
330
1505
100
AcDbEntity
  8
AM_0 ( Kontur 0.5 )
100
AcDbCircle
 10
20.49998958208562
 20
274.9414148621327
 30
0.0
 40
0.9999999998999999
100
AcDbArc
 50
0.0
 51
90.0
  0
LINE
  5
164D
330
1505
100
AcDbEntity
  8
AM_3 ( Verdeckt )
100
AcDbLine
 10
25.24998958148535
 20
189.0414148823324
 30
0.0
 11
25.24998958148535
 21
212.4414148796327
 31
0.0
  0
LINE
  5
164E
330
1505
100
AcDbEntity
  8
AM_3 ( Verdeckt )
100
AcDbLine
 10
55.4999895779856
 20
357.4414148620326
 30
0.0
 11
55.4999895779856
 21
212.4414148796327
 31
0.0
  0
LINE
  5
164F
330
1505
100
AcDbEntity
  8
AM_3 ( Verdeckt )
100
AcDbLine
 10
25.49998958148535
 20
212.4414148796327
 30
0.0
 11
25.49998958148535
 21
357.4414148620326
 31
0.0
  0
LINE
  5
1650
330
1505
100
AcDbEntity
  8
AM_0 ( Kontur 0.5 )
100
AcDbLine
 10
59.49998957748539
 20
275.9414148620326
 30
0.0
 11
59.49998957748539
 21
273.9414148622327
 31
0.0
  0
LINE
  5
1651
330
1505
100
AcDbEntity
  8
AM_7 (Mittellinie)
100
AcDbLine
 10
66.42723189738536
 20
70.50001010393271
 30
0.0
 11
74.53421838738541
 21
70.50001010393271
 31
0.0
  0
LINE
  5
1652
330
1505
100
AcDbEntity
  8
AM_7 (Mittellinie)
100
AcDbLine
 10
70.49998912918455
 20
66.53082017123279
 30
0.0
 11
70.49998912918455
 21
74.5079464657324
 31
0.0
  0
LINE
  5
1653
330
1505
100
AcDbEntity
  8
AM_0 ( Kontur 0.5 )
100
AcDbLine
 10
10.4999907753845
 20
270.1593185055326
 30
0.0
 11
10.4999907753845
 21
280.7412810611327
 31
0.0
  0
LINE
  5
1654
330
1505
100
AcDbEntity
  8
AM_7 (Mittellinie)
100
AcDbLine
 10
16.24721645908539
 20
70.50001010393271
 30
0.0
 11
4.507034393385762
 21
70.50001010393271
 31
0.0
  0
LINE
  5
1655
330
1505
100
AcDbEntity
  8
AM_7 (Mittellinie)
100
AcDbLine
 10
64.34027274038453
 20
10.50001100503255
 30
0.0
 11
76.3802041353847
 21
10.50001100503255
 31
0.0
  0
LINE
  5
1656
330
1505
100
AcDbEntity
  8
AM_7 (Mittellinie)
100
AcDbLine
 10
70.49998912918455
 20
16.60267088593264
 30
0.0
 11
70.49998912918455
 21
4.213031940032577
 31
0.0
  0
LINE
  5
1657
330
1505
100
AcDbEntity
  8
AM_7 (Mittellinie)
100
AcDbLine
 10
10.4999900302846
 20
64.12907126443268
 30
0.0
 11
10.4999900302846
 21
77.17809297993245
 31
0.0
  0
LINE
  5
1658
330
1505
100
AcDbEntity
  8
AM_0 ( Kontur 0.5 )
100
AcDbLine
 10
14.9999907753845
 20
274.4414148621327
 30
0.0
 11
14.9999907753845
 21
275.9414148620326
 31
0.0
  0
LINE
  5
1659
330
1505
100
AcDbEntity
  8
AM_0 ( Kontur 0.5 )
100
AcDbLine
 10
5.999990775384502
 20
274.4414148621327
 30
0.0
 11
5.999990775384502
 21
275.9414148620326
 31
0.0
  0
LINE
  5
165A
330
1505
100
AcDbEntity
  8
AM_0 ( Kontur 0.5 )
100
AcDbLine
 10
65.99998838408464
 20
274.4414148621327
 30
0.0
 11
65.99998838408464
 21
275.9414148620326
 31
0.0
  0
LINE
  5
165B
330
1505
100
AcDbEntity
  8
AM_0 ( Kontur 0.5 )
100
AcDbLine
 10
70.49998838408464
 20
270.1593185055326
 30
0.0
 11
70.49998838408464
 21
280.7412810611327
 31
0.0
  0
LINE
  5
165C
330
1505
100
AcDbEntity
  8
AM_0 ( Kontur 0.5 )
100
AcDbLine
 10
74.99998838408465
 20
274.4414148621327
 30
0.0
 11
74.99998838408465
 21
275.9414148620326
 31
0.0
  0
LINE
  5
165D
330
1505
100
AcDbEntity
  8
AM_0 ( Kontur 0.5 )
100
AcDbLine
 10
73.49998838408464
 20
274.4414148621327
 30
0.0
 11
73.49998838408464
 21
275.9414148620326
 31
0.0
  0
LINE
  5
165E
330
1505
100
AcDbEntity
  8
AM_0 ( Kontur 0.5 )
100
AcDbLine
 10
67.49998838408465
 20
274.4414148621327
 30
0.0
 11
67.49998838408465
 21
275.9414148620326
 31
0.0
  0
LINE
  5
165F
330
1505
100
AcDbEntity
  8
AM_3 ( Verdeckt )
100
AcDbLine
 10
30.29998957978569
 20
362.4414148620326
 30
0.0
 11
30.29998957978569
 21
357.4414148620326
 31
0.0
  0
LINE
  5
1660
330
1505
100
AcDbEntity
  8
AM_3 ( Verdeckt )
100
AcDbLine
 10
30.96998957978576
 20
357.4414148620326
 30
0.0
 11
30.96998957978576
 21
362.4414148620326
 31
0.0
  0
LINE
  5
1661
330
1505
100
AcDbEntity
  8
AM_3 ( Verdeckt )
100
AcDbLine
 10
50.02998957978525
 20
357.4414148620326
 30
0.0
 11
50.02998957978525
 21
362.4414148620326
 31
0.0
  0
LINE
  5
1662
330
1505
100
AcDbEntity
  8
AM_3 ( Verdeckt )
100
AcDbLine
 10
50.69998957978532
 20
362.4414148620326
 30
0.0
 11
50.69998957978532
 21
357.4414148620326
 31
0.0
  0
LINE
  5
1663
330
1505
100
AcDbEntity
  8
AM_0 ( Kontur 0.5 )
100
AcDbLine
 10
80.49998897898513
 20
274.4414148621327
 30
0.0
 11
80.49998897898513
 21
275.9414148620326
 31
0.0
  0
LINE
  5
1664
330
1505
100
AcDbEntity
  8
AM_0 ( Kontur 0.5 )
100
AcDbLine
 10
0.4999901804858382
 20
274.4414148621327
 30
0.0
 11
0.4999901804858382
 21
275.9414148620326
 31
0.0
  0
LINE
  5
1665
330
1505
100
AcDbEntity
  8
AM_0 ( Kontur 0.5 )
100
AcDbLine
 10
80.49998897898513
 20
275.9414148620326
 30
0.0
 11
0.4999901804858382
 21
275.9414148620326
 31
0.0
  0
LINE
  5
1666
330
1505
100
AcDbEntity
  8
AM_0 ( Kontur 0.5 )
100
AcDbLine
 10
80.49998897898513
 20
274.4414148621327
 30
0.0
 11
0.4999901804858382
 21
274.4414148621327
 31
0.0
  0
LINE
  5
1667
330
1505
100
AcDbEntity
  8
AM_0 ( Kontur 0.5 )
100
AcDbLine
 10
21.49998958198557
 20
357.4414148620326
 30
0.0
 11
21.49998958198557
 21
275.9414148620326
 31
0.0
  0
LINE
  5
1668
330
1505
100
AcDbEntity
  8
AM_0 ( Kontur 0.5 )
100
AcDbLine
 10
58.49998957758543
 20
187.4414148825325
 30
0.0
 11
59.49998957748539
 21
188.4414148824325
 31
0.0
  0
LINE
  5
1669
330
1505
100
AcDbEntity
  8
AM_0 ( Kontur 0.5 )
100
AcDbLine
 10
19.99998958218566
 20
273.9414148622327
 30
0.0
 11
60.99998957738534
 21
273.9414148622327
 31
0.0
  0
ARC
  5
166A
330
1505
100
AcDbEntity
  8
AM_0 ( Kontur 0.5 )
100
AcDbCircle
 10
61.49998957728531
 20
273.9414148622327
 30
0.0
 40
0.4999999999000001
100
AcDbArc
 50
90.0
 51
180.0
  0
LINE
  5
166B
330
1505
100
AcDbEntity
  8
AM_0 ( Kontur 0.5 )
100
AcDbLine
 10
17.99998957978459
 20
362.4414148620326
 30
0.0
 11
62.99998957978459
 21
362.4414148620326
 31
0.0
  0
LINE
  5
166C
330
1505
100
AcDbEntity
  8
AM_0 ( Kontur 0.5 )
100
AcDbLine
 10
22.49998958188553
 20
187.4414148825325
 30
0.0
 11
21.49998958198557
 21
188.4414148824325
 31
0.0
  0
ARC
  5
166D
330
1505
100
AcDbEntity
  8
AM_0 ( Kontur 0.5 )
100
AcDbCircle
 10
19.49998958218566
 20
273.9414148622327
 30
0.0
 40
0.4999999999000001
100
AcDbArc
 50
0.0
 51
90.0
  0
LINE
  5
166E
330
1505
100
AcDbEntity
  8
AM_0 ( Kontur 0.5 )
100
AcDbLine
 10
22.49998958188553
 20
187.4414148825325
 30
0.0
 11
58.49998957758543
 21
187.4414148825325
 31
0.0
  0
LINE
  5
166F
330
1505
100
AcDbEntity
  8
AM_0 ( Kontur 0.5 )
100
AcDbLine
 10
59.49998957748539
 20
212.5333655299328
 30
0.0
 11
59.49998957748539
 21
220.4480820403323
 31
0.0
  0
LINE
  5
1670
330
1505
100
AcDbEntity
  8
AM_0 ( Kontur 0.5 )
100
AcDbLine
 10
21.49998958198557
 20
273.9414148622327
 30
0.0
 11
21.49998958198557
 21
188.4414148824325
 31
0.0
  0
LINE
  5
1671
330
1505
100
AcDbEntity
  8
AM_0 ( Kontur 0.5 )
100
AcDbLine
 10
59.49998957748539
 20
357.4414148620326
 30
0.0
 11
59.49998957748539
 21
275.9414148620326
 31
0.0
  0
LINE
  5
1672
330
1505
100
AcDbEntity
  8
AM_0 ( Kontur 0.5 )
100
AcDbLine
 10
59.49998957748539
 20
273.9414148622327
 30
0.0
 11
59.49998957748539
 21
188.4414148824325
 31
0.0
  0
LINE
  5
1673
330
1505
100
AcDbEntity
  8
AM_0 ( Kontur 0.5 )
100
AcDbLine
 10
75.49998897898513
 20
80.50000995373236
 30
0.0
 11
5.499990180485837
 21
80.50000995373236
 31
0.0
  0
LINE
  5
1674
330
1505
100
AcDbEntity
  8
AM_0 ( Kontur 0.5 )
100
AcDbLine
 10
80.49998897898513
 20
5.500011155132596
 30
0.0
 11
80.49998897898513
 21
75.50000995373237
 31
0.0
  0
CIRCLE
  5
1675
330
1505
100
AcDbEntity
  8
AM_0 ( Kontur 0.5 )
100
AcDbCircle
 10
70.49998912918455
 20
70.50001010393271
 30
0.0
 40
2.999999954899998
  0
LINE
  5
1676
330
1505
100
AcDbEntity
  8
AM_0 ( Kontur 0.5 )
100
AcDbLine
 10
0.4999901804858382
 20
75.50000995373237
 30
0.0
 11
0.4999901804858382
 21
5.500011155132596
 31
0.0
  0
LINE
  5
1677
330
1505
100
AcDbEntity
  8
AM_0 ( Kontur 0.5 )
100
AcDbLine
 10
75.49998897898513
 20
0.5000111551325972
 30
0.0
 11
5.499990180485837
 21
0.5000111551325972
 31
0.0
  0
ARC
  5
1678
330
1505
100
AcDbEntity
  8
AM_0 ( Kontur 0.5 )
100
AcDbCircle
 10
5.499990180485837
 20
5.500011155132596
 30
0.0
 40
5.0
100
AcDbArc
 50
180.0
 51
270.0
  0
ARC
  5
1679
330
1505
100
AcDbEntity
  8
AM_0 ( Kontur 0.5 )
100
AcDbCircle
 10
5.499990180485837
 20
75.50000995373237
 30
0.0
 40
5.0
100
AcDbArc
 50
90.0
 51
180.0
  0
ARC
  5
167A
330
1505
100
AcDbEntity
  8
AM_0 ( Kontur 0.5 )
100
AcDbCircle
 10
75.49998897898513
 20
5.500011155132596
 30
0.0
 40
5.0
100
AcDbArc
 50
270.0
 51
0.0
  0
ARC
  5
167B
330
1505
100
AcDbEntity
  8
AM_0 ( Kontur 0.5 )
100
AcDbCircle
 10
75.49998897898513
 20
75.50000995373237
 30
0.0
 40
5.0
100
AcDbArc
 50
0.0
 51
90.0
  0
LINE
  5
167C
330
1505
100
AcDbEntity
  8
AM_0 ( Kontur 0.5 )
100
AcDbLine
 10
19.99998958218566
 20
273.9414148622327
 30
0.0
 11
21.49998958198557
 21
272.4414148624329
 31
0.0
  0
LINE
  5
167D
330
1505
100
AcDbEntity
  8
AM_0 ( Kontur 0.5 )
100
AcDbLine
 10
60.99998957738534
 20
273.9414148622327
 30
0.0
 11
59.49998957748539
 21
272.4414148624329
 31
0.0
  0
LINE
  5
167E
330
1505
100
AcDbEntity
  8
AM_0 ( Kontur 0.5 )
100
AcDbLine
 10
21.49998958198557
 20
188.4414148824325
 30
0.0
 11
59.49998957748539
 21
188.4414148824325
 31
0.0
  0
CIRCLE
  5
167F
330
1505
100
AcDbEntity
  8
AM_0 ( Kontur 0.5 )
100
AcDbCircle
 10
10.4999900302846
 20
70.50001010393271
 30
0.0
 40
4.5
  0
CIRCLE
  5
1680
330
1505
100
AcDbEntity
  8
AM_0 ( Kontur 0.5 )
100
AcDbCircle
 10
70.49998912918455
 20
10.50001100503255
 30
0.0
 40
4.5
  0
LINE
  5
1681
330
1505
100
AcDbEntity
  8
AM_0 ( Kontur 0.5 )
100
AcDbLine
 10
62.99998957978459
 20
357.4414148620326
 30
0.0
 11
62.99998957978459
 21
362.4414148620326
 31
0.0
  0
LINE
  5
1682
330
1505
100
AcDbEntity
  8
AM_0 ( Kontur 0.5 )
100
AcDbLine
 10
17.99998957978459
 20
357.4414148620326
 30
0.0
 11
17.99998957978459
 21
362.4414148620326
 31
0.0
  0
LINE
  5
1683
330
1505
100
AcDbEntity
  8
AM_0 ( Kontur 0.5 )
100
AcDbLine
 10
17.99998957978459
 20
357.4414148620326
 30
0.0
 11
62.99998957978459
 21
357.4414148620326
 31
0.0
  0
CIRCLE
  5
1684
330
1505
100
AcDbEntity
  8
AM_0 ( Kontur 0.5 )
100
AcDbCircle
 10
40.49998957978459
 20
40.50001055443249
 30
0.0
 40
22.5
  0
LINE
  5
1685
330
1505
100
AcDbEntity
  8
AM_7 (Mittellinie)
100
AcDbLine
 10
40.49998957978459
 20
387.3069348620325
 30
0.0
 11
40.49998957978459
 21
205.8542188620327
 31
0.0
  0
ARC
  5
1686
330
1505
100
AcDbEntity
  8
AM_0 ( Kontur 0.5 )
100
AcDbCircle
 10
40.49999257978378
 20
387.8912488620327
 30
0.0
 40
16.190733
100
AcDbArc
 50
269.9999760000184
 51
291.1052929999542
  0
LINE
  5
1687
330
1505
100
AcDbEntity
  8
AM_3 ( Verdeckt )
100
AcDbLine
 10
50.69998957978349
 20
356.6114148620327
 30
0.0
 11
40.49998957978459
 21
356.6114148620327
 31
0.0
  0
LINE
  5
1688
330
1505
100
AcDbEntity
  8
AM_3 ( Verdeckt )
100
AcDbLine
 10
40.49998957978459
 20
355.9414148620326
 30
0.0
 11
50.02998957978525
 21
355.9414148620326
 31
0.0
  0
LINE
  5
1689
330
1505
100
AcDbEntity
  8
AM_0 ( Kontur 0.5 )
100
AcDbLine
 10
50.79999257978489
 20
369.2069588620325
 30
0.0
 11
40.19999057978384
 21
369.2069588620325
 31
0.0
  0
ARC
  5
168A
330
1505
100
AcDbEntity
  8
AM_0 ( Kontur 0.5 )
100
AcDbCircle
 10
40.49999257978378
 20
379.4912248620326
 30
0.0
 40
16.190733
100
AcDbArc
 50
269.9999760000184
 51
291.1052929999542
  0
ARC
  5
168B
330
1505
100
AcDbEntity
  8
AM_0 ( Kontur 0.5 )
100
AcDbCircle
 10
40.49998257978404
 20
351.1226338620327
 30
0.0
 40
16.190746
100
AcDbArc
 50
68.89468800003189
 51
89.99999500002553
  0
LINE
  5
168C
330
1505
100
AcDbEntity
  8
AM_0 ( Kontur 0.5 )
100
AcDbLine
 10
40.49998557978506
 20
367.4069098620325
 30
0.0
 11
50.19998657978431
 21
367.4069098620325
 31
0.0
  0
LINE
  5
168D
330
1505
100
AcDbEntity
  8
AM_0 ( Kontur 0.5 )
100
AcDbLine
 10
51.39998357978402
 20
371.6069218620328
 30
0.0
 11
40.49998557978506
 21
371.6069218620328
 31
0.0
  0
ARC
  5
168E
330
1505
100
AcDbEntity
  8
AM_0 ( Kontur 0.5 )
100
AcDbCircle
 10
40.49999057978491
 20
369.1087618620327
 30
0.0
 40
16.190746
100
AcDbArc
 50
68.89468800003189
 51
89.99999500002553
  0
ARC
  5
168F
330
1505
100
AcDbEntity
  8
AM_0 ( Kontur 0.5 )
100
AcDbCircle
 10
40.49999057978491
 20
361.9226198620327
 30
0.0
 40
16.190746
100
AcDbArc
 50
68.89468800003189
 51
89.99999500002553
  0
LINE
  5
1690
330
1505
100
AcDbEntity
  8
AM_0 ( Kontur 0.5 )
100
AcDbLine
 10
40.49999157978527
 20
378.2069588620325
 30
0.0
 11
49.49497757978496
 21
378.2069588620325
 31
0.0
  0
LINE
  5
1691
330
1505
100
AcDbEntity
  8
AM_0 ( Kontur 0.5 )
100
AcDbLine
 10
48.99998957978461
 20
384.2069588620325
 30
0.0
 11
40.49998957978459
 21
384.2069588620325
 31
0.0
  0
LINE
  5
1692
330
1505
100
AcDbEntity
  8
AM_0 ( Kontur 0.5 )
100
AcDbLine
 10
40.49998957978459
 20
360.6651368620328
 30
0.0
 11
40.49998957978459
 21
373.4167898620326
 31
0.0
  0
LINE
  5
1693
330
1505
100
AcDbEntity
  8
AM_0 ( Kontur 0.5 )
100
AcDbLine
 10
30.79999257978489
 20
367.3552903044829
 30
0.0
 11
30.79999257978489
 21
369.2069588620325
 31
0.0
  0
ARC
  5
1694
330
1505
100
AcDbEntity
  8
AM_0 ( Kontur 0.5 )
100
AcDbCircle
 10
31.50497957978405
 20
362.5712778620327
 30
0.0
 40
4.835677999999997
100
AcDbArc
 50
49.11747599998485
 51
130.8825169999746
  0
ARC
  5
1695
330
1505
100
AcDbEntity
  8
AM_0 ( Kontur 0.5 )
100
AcDbCircle
 10
31.50497957978405
 20
368.0425908620327
 30
0.0
 40
4.835677999999997
100
AcDbArc
 50
229.1174839999925
 51
310.8825119999643
  0
LINE
  5
1696
330
1505
100
AcDbEntity
  8
AM_0 ( Kontur 0.5 )
100
AcDbLine
 10
30.94034957978511
 20
363.2069588620325
 30
0.0
 11
30.29998957978387
 21
362.5665988620326
 31
0.0
  0
LINE
  5
1697
330
1505
100
AcDbEntity
  8
AM_3 ( Verdeckt )
100
AcDbLine
 10
30.29998957978387
 20
356.6114148620327
 30
0.0
 11
40.49998957978459
 21
356.6114148620327
 31
0.0
  0
LINE
  5
1698
330
1505
100
AcDbEntity
  8
AM_3 ( Verdeckt )
100
AcDbLine
 10
30.96998957978394
 20
355.9414148620326
 30
0.0
 11
30.29998957978387
 21
356.6114148620327
 31
0.0
  0
LINE
  5
1699
330
1505
100
AcDbEntity
  8
AM_0 ( Kontur 0.5 )
100
AcDbLine
 10
28.33998657978373
 20
364.3865618620325
 30
0.0
 11
28.33998657978373
 21
366.2273078620328
 31
0.0
  0
LINE
  5
169A
330
1505
100
AcDbEntity
  8
AM_3 ( Verdeckt )
100
AcDbLine
 10
30.29998957978387
 20
362.5665988620326
 30
0.0
 11
30.29998957978387
 21
356.6114148620327
 31
0.0
  0
LINE
  5
169B
330
1505
100
AcDbEntity
  8
AM_3 ( Verdeckt )
100
AcDbLine
 10
30.96998957978394
 20
355.9414148620326
 30
0.0
 11
30.96998957978394
 21
363.2356808620325
 31
0.0
  0
LINE
  5
169C
330
1505
100
AcDbEntity
  8
AM_3 ( Verdeckt )
100
AcDbLine
 10
40.49998957978459
 20
355.9414148620326
 30
0.0
 11
30.96998957978394
 21
355.9414148620326
 31
0.0
  0
ARC
  5
169D
330
1505
100
AcDbEntity
  8
AM_0 ( Kontur 0.5 )
100
AcDbCircle
 10
40.49998657978358
 20
379.4912248620326
 30
0.0
 40
16.190733
100
AcDbArc
 50
248.8947070000457
 51
270.0000239999816
  0
ARC
  5
169E
330
1505
100
AcDbEntity
  8
AM_0 ( Kontur 0.5 )
100
AcDbCircle
 10
40.49999757978365
 20
351.1226338620327
 30
0.0
 40
16.190746
100
AcDbArc
 50
90.00000499997446
 51
111.1053119999681
  0
LINE
  5
169F
330
1505
100
AcDbEntity
  8
AM_0 ( Kontur 0.5 )
100
AcDbLine
 10
40.49999357978413
 20
367.4069098620325
 30
0.0
 11
30.79999257978489
 21
367.4069098620325
 31
0.0
  0
LINE
  5
16A0
330
1505
100
AcDbEntity
  8
AM_0 ( Kontur 0.5 )
100
AcDbLine
 10
34.66998057978526
 20
364.3865618620325
 30
0.0
 11
34.66998057978526
 21
366.2273068620325
 31
0.0
  0
ARC
  5
16A1
330
1505
100
AcDbEntity
  8
AM_0 ( Kontur 0.5 )
100
AcDbCircle
 10
31.50497957978405
 20
376.4426158620326
 30
0.0
 40
4.835677999999997
100
AcDbArc
 50
229.1174839999925
 51
310.8825119999643
  0
LINE
  5
16A2
330
1505
100
AcDbEntity
  8
AM_0 ( Kontur 0.5 )
100
AcDbLine
 10
30.19998657978431
 20
369.2069588620325
 30
0.0
 11
40.79998857978353
 21
369.2069588620325
 31
0.0
  0
ARC
  5
16A3
330
1505
100
AcDbEntity
  8
AM_0 ( Kontur 0.5 )
100
AcDbCircle
 10
31.50497957978405
 20
373.3712658620325
 30
0.0
 40
4.835677999999997
100
AcDbArc
 50
49.11747599998485
 51
130.8825169999746
  0
ARC
  5
16A4
330
1505
100
AcDbEntity
  8
AM_0 ( Kontur 0.5 )
100
AcDbCircle
 10
31.9999895797846
 20
381.8069348620324
 30
0.0
 40
2.399999999999999
100
AcDbArc
 50
90.0
 51
180.0000029999976
  0
LINE
  5
16A5
330
1505
100
AcDbEntity
  8
AM_0 ( Kontur 0.5 )
100
AcDbLine
 10
29.59999557978517
 20
371.6069218620328
 30
0.0
 11
29.59999557978517
 21
372.0155528620326
 31
0.0
  0
LINE
  5
16A6
330
1505
100
AcDbEntity
  8
AM_0 ( Kontur 0.5 )
100
AcDbLine
 10
30.19998657978431
 20
369.2069588620325
 30
0.0
 11
29.59999557978517
 21
369.2069588620325
 31
0.0
  0
LINE
  5
16A7
330
1505
100
AcDbEntity
  8
AM_0 ( Kontur 0.5 )
100
AcDbLine
 10
29.59999557978517
 20
369.2069588620325
 30
0.0
 11
29.59999557978517
 21
371.6069218620328
 31
0.0
  0
LINE
  5
16A8
330
1505
100
AcDbEntity
  8
AM_0 ( Kontur 0.5 )
100
AcDbLine
 10
28.33998657978373
 20
372.7865858620325
 30
0.0
 11
28.33998657978373
 21
377.0272948620327
 31
0.0
  0
LINE
  5
16A9
330
1505
100
AcDbEntity
  8
AM_0 ( Kontur 0.5 )
100
AcDbLine
 10
29.59999557978517
 20
377.8870128620324
 30
0.0
 11
29.59999557978517
 21
381.8069348620324
 31
0.0
  0
ARC
  5
16AA
330
1505
100
AcDbEntity
  8
AM_0 ( Kontur 0.5 )
100
AcDbCircle
 10
40.49998957978459
 20
361.9226198620327
 30
0.0
 40
16.190746
100
AcDbArc
 50
90.00000499997446
 51
111.1053119999681
  0
ARC
  5
16AB
330
1505
100
AcDbEntity
  8
AM_0 ( Kontur 0.5 )
100
AcDbCircle
 10
40.49998657978358
 20
387.8912488620327
 30
0.0
 40
16.190733
100
AcDbArc
 50
248.8947070000457
 51
270.0000239999816
  0
LINE
  5
16AC
330
1505
100
AcDbEntity
  8
AM_0 ( Kontur 0.5 )
100
AcDbLine
 10
29.59999557978517
 20
371.6069218620328
 30
0.0
 11
40.49999357978413
 21
371.6069218620328
 31
0.0
  0
LINE
  5
16AD
330
1505
100
AcDbEntity
  8
AM_0 ( Kontur 0.5 )
100
AcDbLine
 10
34.66998057978526
 20
372.7865858620325
 30
0.0
 11
34.66998057978526
 21
377.0272948620327
 31
0.0
  0
ARC
  5
16AE
330
1505
100
AcDbEntity
  8
AM_0 ( Kontur 0.5 )
100
AcDbCircle
 10
40.49998957978459
 20
369.1087618620327
 30
0.0
 40
16.190746
100
AcDbArc
 50
90.00000499997446
 51
111.1053119999681
  0
LINE
  5
16AF
330
1505
100
AcDbEntity
  8
AM_0 ( Kontur 0.5 )
100
AcDbLine
 10
40.49998757978392
 20
378.2069588620325
 30
0.0
 11
31.50500257978456
 21
378.2069588620325
 31
0.0
  0
LINE
  5
16B0
330
1505
100
AcDbEntity
  8
AM_0 ( Kontur 0.5 )
100
AcDbLine
 10
31.9999895797846
 20
384.2069588620325
 30
0.0
 11
40.49998957978459
 21
384.2069588620325
 31
0.0
  0
LINE
  5
16B1
330
1505
100
AcDbEntity
  8
AM_0 ( Kontur 0.5 )
100
AcDbLine
 10
50.19998657978431
 20
367.3552904518533
 30
0.0
 11
50.19998657978431
 21
369.2069588620325
 31
0.0
  0
LINE
  5
16B2
330
1505
100
AcDbEntity
  8
AM_3 ( Verdeckt )
100
AcDbLine
 10
50.02998957978525
 20
355.9414148620326
 30
0.0
 11
50.02998957978525
 21
363.2356808620325
 31
0.0
  0
LINE
  5
16B3
330
1505
100
AcDbEntity
  8
AM_3 ( Verdeckt )
100
AcDbLine
 10
50.02998957978525
 20
355.9414148620326
 30
0.0
 11
50.69998957978349
 21
356.6114148620327
 31
0.0
  0
LINE
  5
16B4
330
1505
100
AcDbEntity
  8
AM_3 ( Verdeckt )
100
AcDbLine
 10
50.69998957978349
 20
362.5665988620326
 30
0.0
 11
50.69998957978349
 21
356.6114148620327
 31
0.0
  0
LINE
  5
16B5
330
1505
100
AcDbEntity
  8
AM_0 ( Kontur 0.5 )
100
AcDbLine
 10
46.32999957978427
 20
364.3865618620325
 30
0.0
 11
46.32999957978427
 21
366.2273068620325
 31
0.0
  0
LINE
  5
16B6
330
1505
100
AcDbEntity
  8
AM_0 ( Kontur 0.5 )
100
AcDbLine
 10
52.65999357978397
 20
364.3865618620325
 30
0.0
 11
52.65999357978397
 21
366.2273078620328
 31
0.0
  0
ARC
  5
16B7
330
1505
100
AcDbEntity
  8
AM_0 ( Kontur 0.5 )
100
AcDbCircle
 10
49.49500057978365
 20
362.5712778620327
 30
0.0
 40
4.835677999999997
100
AcDbArc
 50
49.11748300002535
 51
130.882524000015
  0
ARC
  5
16B8
330
1505
100
AcDbEntity
  8
AM_0 ( Kontur 0.5 )
100
AcDbCircle
 10
49.49500057978365
 20
368.0425908620327
 30
0.0
 40
4.835677999999997
100
AcDbArc
 50
229.1174880000357
 51
310.8825160000075
  0
ARC
  5
16B9
330
1505
100
AcDbEntity
  8
AM_0 ( Kontur 0.5 )
100
AcDbCircle
 10
49.49500057978365
 20
373.3712658620325
 30
0.0
 40
4.835677999999997
100
AcDbArc
 50
49.11748300002535
 51
130.882524000015
  0
ARC
  5
16BA
330
1505
100
AcDbEntity
  8
AM_0 ( Kontur 0.5 )
100
AcDbCircle
 10
49.49500057978365
 20
376.4426158620326
 30
0.0
 40
4.835677999999997
100
AcDbArc
 50
229.1174880000357
 51
310.8825160000075
  0
LINE
  5
16BB
330
1505
100
AcDbEntity
  8
AM_0 ( Kontur 0.5 )
100
AcDbLine
 10
51.39998357978402
 20
371.6069218620328
 30
0.0
 11
51.39998357978402
 21
372.0155528620326
 31
0.0
  0
LINE
  5
16BC
330
1505
100
AcDbEntity
  8
AM_0 ( Kontur 0.5 )
100
AcDbLine
 10
50.79999257978489
 20
369.2069588620325
 30
0.0
 11
51.39998357978402
 21
369.2069588620325
 31
0.0
  0
LINE
  5
16BD
330
1505
100
AcDbEntity
  8
AM_0 ( Kontur 0.5 )
100
AcDbLine
 10
51.39998357978402
 20
369.2069588620325
 30
0.0
 11
51.39998357978402
 21
371.6069218620328
 31
0.0
  0
LINE
  5
16BE
330
1505
100
AcDbEntity
  8
AM_0 ( Kontur 0.5 )
100
AcDbLine
 10
46.32999957978427
 20
372.7865858620325
 30
0.0
 11
46.32999957978427
 21
377.0272948620327
 31
0.0
  0
LINE
  5
16BF
330
1505
100
AcDbEntity
  8
AM_0 ( Kontur 0.5 )
100
AcDbLine
 10
52.65999357978397
 20
372.7865858620325
 30
0.0
 11
52.65999357978397
 21
377.0272948620327
 31
0.0
  0
LINE
  5
16C0
330
1505
100
AcDbEntity
  8
AM_0 ( Kontur 0.5 )
100
AcDbLine
 10
51.39998357978402
 20
377.8870128620324
 30
0.0
 11
51.39998357978402
 21
381.8069348620324
 31
0.0
  0
ARC
  5
16C1
330
1505
100
AcDbEntity
  8
AM_0 ( Kontur 0.5 )
100
AcDbCircle
 10
48.99998957978461
 20
381.8069348620324
 30
0.0
 40
2.399999999999999
100
AcDbArc
 50
359.9999970000023
 51
90.0
  0
LINE
  5
16C2
330
1505
100
AcDbEntity
  8
AM_7 (Mittellinie)
100
AcDbLine
 10
6.761079058485847
 20
40.50001055443249
 30
0.0
 11
73.4408810127843
 21
40.50001055443249
 31
0.0
  0
CIRCLE
  5
16C3
330
1505
100
AcDbEntity
  8
AM_0 ( Kontur 0.5 )
100
AcDbCircle
 10
40.49998957978459
 20
40.50001055443249
 30
0.0
 40
8.99999986483356
  0
LINE
  5
16C4
330
1505
100
AcDbEntity
  8
AM_7 (Mittellinie)
100
AcDbLine
 10
40.49998957978459
 20
11.77094694649236
 30
0.0
 11
40.49998957978459
 21
67.45567517422205
 31
0.0
  0
LINE
  5
16C5
330
1505
100
AcDbEntity
  8
AM_0 ( Kontur 0.5 )
100
AcDbLine
 10
52.49998939958641
 20
40.50001055443249
 30
0.0
 11
46.49998948968459
 21
50.8923152437628
 31
0.0
  0
LINE
  5
16C6
330
1505
100
AcDbEntity
  8
AM_0 ( Kontur 0.5 )
100
AcDbLine
 10
46.49998948968459
 20
50.8923152437628
 30
0.0
 11
34.4999896698846
 21
50.8923152437628
 31
0.0
  0
LINE
  5
16C7
330
1505
100
AcDbEntity
  8
AM_0 ( Kontur 0.5 )
100
AcDbLine
 10
34.4999896698846
 20
50.8923152437628
 30
0.0
 11
28.4999897599846
 21
40.50001055443249
 31
0.0
  0
LINE
  5
16C8
330
1505
100
AcDbEntity
  8
AM_0 ( Kontur 0.5 )
100
AcDbLine
 10
28.4999897599846
 20
40.50001055443249
 30
0.0
 11
34.4999896698846
 21
30.10770586509238
 31
0.0
  0
LINE
  5
16C9
330
1505
100
AcDbEntity
  8
AM_0 ( Kontur 0.5 )
100
AcDbLine
 10
34.4999896698846
 20
30.10770586509238
 30
0.0
 11
46.49998948968459
 21
30.10770586509238
 31
0.0
  0
LINE
  5
16CA
330
1505
100
AcDbEntity
  8
AM_0 ( Kontur 0.5 )
100
AcDbLine
 10
46.49998948968459
 20
30.10770586509238
 30
0.0
 11
52.49998939958641
 21
40.50001055443249
 31
0.0
  0
ENDBLK
  5
16CC
330
1505
100
AcDbEntity
  8
0
100
AcDbBlockEnd
  0
BLOCK
  5
16D1
330
16D0
100
AcDbEntity
  8
0
100
AcDbBlockBegin
  2
*D2
 70
     1
 10
0.0
 20
0.0
 30
0.0
  3
*D2
  1

  0
LINE
  5
182F
330
16D0
100
AcDbEntity
  8
AM_5 ( Bemassung)
440
 16777216
100
AcDbLine
 10
4390.870096220782
 20
4162.243518378025
 30
0.0
 11
4390.870096220782
 21
4136.243518378026
 31
0.0
  0
LINE
  5
1830
330
16D0
100
AcDbEntity
  8
AM_5 ( Bemassung)
440
 16777216
100
AcDbLine
 10
4424.570096216885
 20
4162.243518378025
 30
0.0
 11
4424.570096216885
 21
4136.243518378026
 31
0.0
  0
LINE
  5
1831
330
16D0
100
AcDbEntity
  8
AM_5 ( Bemassung)
440
 16777216
100
AcDbLine
 10
4398.870096220782
 20
4138.243518378025
 30
0.0
 11
4416.570096216885
 21
4138.243518378025
 31
0.0
  0
SOLID
  5
1832
330
16D0
100
AcDbEntity
  8
AM_5 ( Bemassung)
440
 16777216
100
AcDbTrace
 10
4398.870096220782
 20
4139.57685171136
 30
0.0
 11
4398.870096220782
 21
4136.910185044691
 31
0.0
 12
4390.870096220782
 22
4138.243518378025
 32
0.0
 13
4390.870096220782
 23
4138.243518378025
 33
0.0
  0
SOLID
  5
1833
330
16D0
100
AcDbEntity
  8
AM_5 ( Bemassung)
440
 16777216
100
AcDbTrace
 10
4416.570096216885
 20
4139.57685171136
 30
0.0
 11
4416.570096216885
 21
4136.910185044691
 31
0.0
 12
4424.570096216885
 22
4138.243518378025
 32
0.0
 13
4424.570096216885
 23
4138.243518378025
 33
0.0
  0
MTEXT
  5
1834
330
16D0
100
AcDbEntity
  8
AM_5 ( Bemassung)
 62
     2
440
 16777216
100
AcDbMText
 10
4407.720096218834
 20
4144.862890820045
 30
0.0
 40
7.0
 41
0.0
 46
0.0
 71
     5
 72
     1
  1
G 1
 73
     1
 44
1.0
  0
POINT
  5
1835
330
16D0
100
AcDbEntity
  8
Defpoints
 62
     0
440
 16777216
100
AcDbPoint
 10
4390.870096220782
 20
4162.243518378025
 30
0.0
  0
POINT
  5
1836
330
16D0
100
AcDbEntity
  8
Defpoints
 62
     0
440
 16777216
100
AcDbPoint
 10
4424.570096216885
 20
4162.243518378025
 30
0.0
  0
POINT
  5
1837
330
16D0
100
AcDbEntity
  8
Defpoints
 62
     0
440
 16777216
100
AcDbPoint
 10
4424.570096216885
 20
4138.243518378025
 30
0.0
  0
ENDBLK
  5
16D2
330
16D0
100
AcDbEntity
  8
0
100
AcDbBlockEnd
  0
BLOCK
  5
1705
330
1704
100
AcDbEntity
  8
0
100
AcDbBlockBegin
  2
*D3
 70
     1
 10
0.0
 20
0.0
 30
0.0
  3
*D3
  1

  0
LINE
  5
195F
330
1704
100
AcDbEntity
  8
AM_5 ( Bemassung)
440
 16777216
100
AcDbLine
 10
4407.720096218882
 20
4161.243518378125
 30
0.0
 11
4480.658743396054
 21
4161.243518378125
 31
0.0
  0
LINE
  5
1960
330
1704
100
AcDbEntity
  8
AM_5 ( Bemassung)
440
 16777216
100
AcDbLine
 10
4407.720096218882
 20
4336.243518357625
 30
0.0
 11
4480.658743396054
 21
4336.243518357625
 31
0.0
  0
LINE
  5
1961
330
1704
100
AcDbEntity
  8
AM_5 ( Bemassung)
440
 16777216
100
AcDbLine
 10
4478.658743396054
 20
4169.243518378126
 30
0.0
 11
4478.658743396054
 21
4328.243518357625
 31
0.0
  0
SOLID
  5
1962
330
1704
100
AcDbEntity
  8
AM_5 ( Bemassung)
440
 16777216
100
AcDbTrace
 10
4477.325410062721
 20
4169.243518378126
 30
0.0
 11
4479.992076729387
 21
4169.243518378126
 31
0.0
 12
4478.658743396054
 22
4161.243518378125
 32
0.0
 13
4478.658743396054
 23
4161.243518378125
 33
0.0
  0
SOLID
  5
1963
330
1704
100
AcDbEntity
  8
AM_5 ( Bemassung)
440
 16777216
100
AcDbTrace
 10
4477.325410062721
 20
4328.243518357625
 30
0.0
 11
4479.992076729387
 21
4328.243518357625
 31
0.0
 12
4478.658743396054
 22
4336.243518357625
 32
0.0
 13
4478.658743396054
 23
4336.243518357625
 33
0.0
  0
MTEXT
  5
1964
330
1704
100
AcDbEntity
  8
AM_5 ( Bemassung)
 62
     2
440
 16777216
100
AcDbMText
 10
4472.084732482001
 20
4248.743518367876
 30
0.0
 40
7.0
 41
0.0
 46
0.0
 71
     5
 72
     1
  1
175
 11
0.0000000000000001
 21
1.0
 31
0.0
 73
     1
 44
1.0
  0
POINT
  5
1965
330
1704
100
AcDbEntity
  8
Defpoints
 62
     0
440
 16777216
100
AcDbPoint
 10
4407.720096218882
 20
4161.243518378125
 30
0.0
  0
POINT
  5
1966
330
1704
100
AcDbEntity
  8
Defpoints
 62
     0
440
 16777216
100
AcDbPoint
 10
4407.720096218882
 20
4336.243518357625
 30
0.0
  0
POINT
  5
1967
330
1704
100
AcDbEntity
  8
Defpoints
 62
     0
440
 16777216
100
AcDbPoint
 10
4478.658743396054
 20
4336.243518357625
 30
0.0
  0
ENDBLK
  5
1706
330
1704
100
AcDbEntity
  8
0
100
AcDbBlockEnd
  0
BLOCK
  5
1883
330
1882
100
AcDbEntity
  8
0
100
AcDbBlockBegin
  2
*D6
 70
     1
 10
0.0
 20
0.0
 30
0.0
  3
*D6
  1

  0
LINE
  5
1956
330
1882
100
AcDbEntity
  8
AM_5 ( Bemassung)
440
 16777216
100
AcDbLine
 10
4407.720096218882
 20
4336.243518357625
 30
0.0
 11
4459.9531685995
 21
4336.243518357625
 31
0.0
  0
LINE
  5
1957
330
1882
100
AcDbEntity
  8
AM_5 ( Bemassung)
440
 16777216
100
AcDbLine
 10
4407.720096218882
 20
4250.243518357625
 30
0.0
 11
4459.9531685995
 21
4250.243518357625
 31
0.0
  0
LINE
  5
1958
330
1882
100
AcDbEntity
  8
AM_5 ( Bemassung)
440
 16777216
100
AcDbLine
 10
4457.9531685995
 20
4328.243518357625
 30
0.0
 11
4457.9531685995
 21
4258.243518357625
 31
0.0
  0
SOLID
  5
1959
330
1882
100
AcDbEntity
  8
AM_5 ( Bemassung)
440
 16777216
100
AcDbTrace
 10
4456.619835266166
 20
4328.243518357625
 30
0.0
 11
4459.286501932832
 21
4328.243518357625
 31
0.0
 12
4457.9531685995
 22
4336.243518357625
 32
0.0
 13
4457.9531685995
 23
4336.243518357625
 33
0.0
  0
SOLID
  5
195A
330
1882
100
AcDbEntity
  8
AM_5 ( Bemassung)
440
 16777216
100
AcDbTrace
 10
4456.619835266166
 20
4258.243518357625
 30
0.0
 11
4459.286501932832
 21
4258.243518357625
 31
0.0
 12
4457.9531685995
 22
4250.243518357625
 32
0.0
 13
4457.9531685995
 23
4250.243518357625
 33
0.0
  0
MTEXT
  5
195B
330
1882
100
AcDbEntity
  8
AM_5 ( Bemassung)
 62
     2
440
 16777216
100
AcDbMText
 10
4451.379157685447
 20
4289.173660887061
 30
0.0
 40
7.0
 41
0.0
 46
0.0
 71
     5
 72
     1
  1
86
 11
0.0000000000000001
 21
1.0
 31
0.0
 73
     1
 44
1.0
  0
POINT
  5
195C
330
1882
100
AcDbEntity
  8
Defpoints
 62
     0
440
 16777216
100
AcDbPoint
 10
4407.720096218882
 20
4336.243518357625
 30
0.0
  0
POINT
  5
195D
330
1882
100
AcDbEntity
  8
Defpoints
 62
     0
440
 16777216
100
AcDbPoint
 10
4407.720096218882
 20
4250.243518357625
 30
0.0
  0
POINT
  5
195E
330
1882
100
AcDbEntity
  8
Defpoints
 62
     0
440
 16777216
100
AcDbPoint
 10
4457.9531685995
 20
4250.243518357625
 30
0.0
  0
ENDBLK
  5
1884
330
1882
100
AcDbEntity
  8
0
100
AcDbBlockEnd
  0
BLOCK
  5
18B6
330
18B5
100
AcDbEntity
  8
0
100
AcDbBlockBegin
  2
*D7
 70
     1
 10
0.0
 20
0.0
 30
0.0
  3
*D7
  1

  0
LINE
  5
1968
330
18B5
100
AcDbEntity
  8
AM_5 ( Bemassung)
440
 16777216
100
AcDbLine
 10
4407.720096218882
 20
4105.019198416726
 30
0.0
 11
4480.658743396054
 21
4105.019198416726
 31
0.0
  0
LINE
  5
1969
330
18B5
100
AcDbEntity
  8
AM_5 ( Bemassung)
440
 16777216
100
AcDbLine
 10
4407.720096218882
 20
4025.019199618126
 30
0.0
 11
4480.658743396054
 21
4025.019199618126
 31
0.0
  0
LINE
  5
196A
330
18B5
100
AcDbEntity
  8
AM_5 ( Bemassung)
440
 16777216
100
AcDbLine
 10
4478.658743396054
 20
4097.019198416726
 30
0.0
 11
4478.658743396054
 21
4033.019199618126
 31
0.0
  0
SOLID
  5
196B
330
18B5
100
AcDbEntity
  8
AM_5 ( Bemassung)
440
 16777216
100
AcDbTrace
 10
4477.325410062721
 20
4097.019198416726
 30
0.0
 11
4479.992076729387
 21
4097.019198416726
 31
0.0
 12
4478.658743396054
 22
4105.019198416726
 32
0.0
 13
4478.658743396054
 23
4105.019198416726
 33
0.0
  0
SOLID
  5
196C
330
18B5
100
AcDbEntity
  8
AM_5 ( Bemassung)
440
 16777216
100
AcDbTrace
 10
4477.325410062721
 20
4033.019199618126
 30
0.0
 11
4479.992076729387
 21
4033.019199618126
 31
0.0
 12
4478.658743396054
 22
4025.019199618126
 32
0.0
 13
4478.658743396054
 23
4025.019199618126
 33
0.0
  0
MTEXT
  5
196D
330
18B5
100
AcDbEntity
  8
AM_5 ( Bemassung)
 62
     2
440
 16777216
100
AcDbMText
 10
4472.084732482001
 20
4065.019199017426
 30
0.0
 40
7.0
 41
0.0
 46
0.0
 71
     5
 72
     1
  1
{\Famgdt;o} 80
 11
0.0000000000000001
 21
1.0
 31
0.0
 73
     1
 44
1.0
  0
POINT
  5
196E
330
18B5
100
AcDbEntity
  8
Defpoints
 62
     0
440
 16777216
100
AcDbPoint
 10
4407.720096218882
 20
4105.019198416726
 30
0.0
  0
POINT
  5
196F
330
18B5
100
AcDbEntity
  8
Defpoints
 62
     0
440
 16777216
100
AcDbPoint
 10
4407.720096218882
 20
4025.019199618126
 30
0.0
  0
POINT
  5
1970
330
18B5
100
AcDbEntity
  8
Defpoints
 62
     0
440
 16777216
100
AcDbPoint
 10
4478.658743396054
 20
4025.019199618126
 30
0.0
  0
ENDBLK
  5
18B7
330
18B5
100
AcDbEntity
  8
0
100
AcDbBlockEnd
  0
BLOCK
  5
18F2
330
18F1
100
AcDbEntity
  8
0
100
AcDbBlockBegin
  2
*D8
 70
     1
 10
0.0
 20
0.0
 30
0.0
  3
*D8
  1

  0
LINE
  5
1907
330
18F1
100
AcDbEntity
  8
AM_5 ( Bemassung)
440
 16777216
100
AcDbLine
 10
4441.811609121715
 20
4104.143863907455
 30
0.0
 11
4447.933975367051
 21
4117.797624326934
 31
0.0
  0
LINE
  5
1908
330
18F1
100
AcDbEntity
  8
AM_5 ( Bemassung)
440
 16777216
100
AcDbLine
 10
4447.933975367051
 20
4117.797624326934
 30
0.0
 11
4463.133838941403
 21
4117.797624326934
 31
0.0
  0
SOLID
  5
1909
330
18F1
100
AcDbEntity
  8
AM_5 ( Bemassung)
440
 16777216
100
AcDbTrace
 10
4440.747064827184
 20
4104.621207134176
 30
0.0
 11
4442.876153416245
 21
4103.666520680735
 31
0.0
 12
4438.947549761396
 22
4097.756598140278
 32
0.0
 13
4438.947549761396
 23
4097.756598140278
 33
0.0
  0
MTEXT
  5
190A
330
18F1
100
AcDbEntity
  8
AM_5 ( Bemassung)
 62
     2
440
 16777216
100
AcDbMText
 10
4457.033907154224
 20
4124.567406045898
 30
0.0
 40
7.0
 41
0.0
 46
0.0
 71
     5
 72
     1
  1
∅6
 73
     1
 44
1.0
  0
POINT
  5
190B
330
18F1
100
AcDbEntity
  8
Defpoints
 62
     0
440
 16777216
100
AcDbPoint
 10
4438.947549761396
 20
4097.756598140278
 30
0.0
  0
POINT
  5
190C
330
18F1
100
AcDbEntity
  8
Defpoints
 62
     0
440
 16777216
100
AcDbPoint
 10
4436.492641775172
 20
4092.281798993574
 30
0.0
  0
ENDBLK
  5
18F3
330
18F1
100
AcDbEntity
  8
0
100
AcDbBlockEnd
  0
BLOCK
  5
190F
330
190E
100
AcDbEntity
  8
0
100
AcDbBlockBegin
  2
*D9
 70
     1
 10
0.0
 20
0.0
 30
0.0
  3
*D9
  1

  0
LINE
  5
1927
330
190E
100
AcDbEntity
  8
AM_5 ( Bemassung)
440
 16777216
100
AcDbLine
 10
4383.61629527323
 20
4104.892639812205
 30
0.0
 11
4391.669084883102
 21
4118.377386581381
 31
0.0
  0
LINE
  5
1928
330
190E
100
AcDbEntity
  8
AM_5 ( Bemassung)
440
 16777216
100
AcDbLine
 10
4391.669084883102
 20
4118.377386581381
 30
0.0
 11
4406.888048048176
 21
4118.377386581381
 31
0.0
  0
SOLID
  5
1929
330
190E
100
AcDbEntity
  8
AM_5 ( Bemassung)
440
 16777216
100
AcDbTrace
 10
4382.614641813565
 20
4105.490804887958
 30
0.0
 11
4384.617948732898
 21
4104.294474736454
 31
0.0
 12
4380.027304818716
 22
4098.882719054208
 32
0.0
 13
4380.027304818716
 23
4098.882719054208
 33
0.0
  0
MTEXT
  5
192A
330
190E
100
AcDbEntity
  8
AM_5 ( Bemassung)
 62
     2
440
 16777216
100
AcDbMText
 10
4400.778566465639
 20
4125.147168300344
 30
0.0
 40
7.0
 41
0.0
 46
0.0
 71
     5
 72
     1
  1
∅9
 73
     1
 44
1.0
  0
POINT
  5
192B
330
190E
100
AcDbEntity
  8
Defpoints
 62
     0
440
 16777216
100
AcDbPoint
 10
4380.027304818716
 20
4098.882719054208
 30
0.0
  0
POINT
  5
192C
330
190E
100
AcDbEntity
  8
Defpoints
 62
     0
440
 16777216
100
AcDbPoint
 10
4375.412888520052
 20
4091.155678079643
 30
0.0
  0
ENDBLK
  5
1910
330
190E
100
AcDbEntity
  8
0
100
AcDbBlockEnd
  0
BLOCK
  5
192F
330
192E
100
AcDbEntity
  8
0
100
AcDbBlockBegin
  2
*D10
 70
     1
 10
0.0
 20
0.0
 30
0.0
  3
*D10
  1

  0
LINE
  5
1947
330
192E
100
AcDbEntity
  8
AM_5 ( Bemassung)
440
 16777216
100
AcDbLine
 10
4440.003695250146
 20
4023.74821133892
 30
0.0
 11
4444.158167724686
 21
4003.243297795566
 31
0.0
  0
LINE
  5
1948
330
192E
100
AcDbEntity
  8
AM_5 ( Bemassung)
440
 16777216
100
AcDbLine
 10
4444.158167724686
 20
4003.243297795566
 30
0.0
 11
4459.377130889762
 21
4003.243297795566
 31
0.0
  0
SOLID
  5
1949
330
192E
100
AcDbEntity
  8
AM_5 ( Bemassung)
440
 16777216
100
AcDbTrace
 10
4441.147128828462
 20
4023.979880851572
 30
0.0
 11
4438.86026167183
 21
4023.516541826267
 31
0.0
 12
4438.61367817423
 22
4030.60881280881
 32
0.0
 13
4438.61367817423
 23
4030.60881280881
 33
0.0
  0
MTEXT
  5
194A
330
192E
100
AcDbEntity
  8
AM_5 ( Bemassung)
 62
     2
440
 16777216
100
AcDbMText
 10
4453.267649307225
 20
4010.013079514529
 30
0.0
 40
7.0
 41
0.0
 46
0.0
 71
     5
 72
     1
  1
∅9
 73
     1
 44
1.0
  0
POINT
  5
194B
330
192E
100
AcDbEntity
  8
Defpoints
 62
     0
440
 16777216
100
AcDbPoint
 10
4438.61367817423
 20
4030.60881280881
 30
0.0
  0
POINT
  5
194C
330
192E
100
AcDbEntity
  8
Defpoints
 62
     0
440
 16777216
100
AcDbPoint
 10
4436.826513362337
 20
4039.429586127241
 30
0.0
  0
ENDBLK
  5
1930
330
192E
100
AcDbEntity
  8
0
100
AcDbBlockEnd
  0
BLOCK
  5
1A62
330
1A61
100
AcDbEntity
  8
0
100
AcDbBlockBegin
  2
*U11
 70
     1
 10
0.0
 20
0.0
 30
0.0
  3
*U11
  1

  0
ENDBLK
  5
1A63
330
1A61
100
AcDbEntity
  8
0
100
AcDbBlockEnd
  0
BLOCK
  5
1AA4
330
1AA3
100
AcDbEntity
  8
0
100
AcDbBlockBegin
  2
_ACMFILLED
 70
     0
 10
0.0
 20
0.0
 30
0.0
  3
_ACMFILLED
  1

  0
TRACE
  5
1AA6
330
1AA3
100
AcDbEntity
  8
AM_2 ( Kontur 0.25)
 62
     0
100
AcDbTrace
 10
-1.0
 20
-0.166666666
 30
0.0
 11
-1.0
 21
0.166666666
 31
0.0
 12
0.0
 22
0.0
 32
0.0
 13
0.0
 23
0.0
 33
0.0
  0
ENDBLK
  5
1AA5
330
1AA3
100
AcDbEntity
  8
0
100
AcDbBlockEnd
  0
BLOCK
  5
1AAF
330
1AAE
100
AcDbEntity
  8
0
100
AcDbBlockBegin
  2
_ACMFILLEDHALF
 70
     0
 10
0.0
 20
0.0
 30
0.0
  3
_ACMFILLEDHALF
  1

  0
TRACE
  5
1AB1
330
1AAE
100
AcDbEntity
  8
AM_2 ( Kontur 0.25)
 62
     0
100
AcDbTrace
 10
-0.8
 20
0.0
 30
0.0
 11
-1.0
 21
0.166666666
 31
0.0
 12
0.0
 22
0.0
 32
0.0
 13
0.0
 23
0.0
 33
0.0
  0
LINE
  5
1AB2
330
1AAE
100
AcDbEntity
  8
AM_2 ( Kontur 0.25)
 62
     0
100
AcDbLine
 10
-1.0
 20
0.0
 30
0.0
 11
-0.8
 21
0.0
 31
0.0
  0
ENDBLK
  5
1AB0
330
1AAE
100
AcDbEntity
  8
0
100
AcDbBlockEnd
  0
BLOCK
  5
1ABB
330
1ABA
100
AcDbEntity
  8
0
100
AcDbBlockBegin
  2
_ACMFILLED15
 70
     0
 10
0.0
 20
0.0
 30
0.0
  3
_ACMFILLED15
  1

  0
TRACE
  5
1ABD
330
1ABA
100
AcDbEntity
  8
AM_2 ( Kontur 0.25)
 62
     0
100
AcDbTrace
 10
-1.0
 20
-0.131652497
 30
0.0
 11
-1.0
 21
0.131652497
 31
0.0
 12
0.0
 22
0.0
 32
0.0
 13
0.0
 23
0.0
 33
0.0
  0
ENDBLK
  5
1ABC
330
1ABA
100
AcDbEntity
  8
0
100
AcDbBlockEnd
  0
ENDSEC
  0
SECTION
  2
ENTITIES
  0
LINE
  5
133F
102
{ACAD_REACTORS
330
16DD
102
}
330
74
100
AcDbEntity
  8
AM_3 ( Verdeckt )
100
AcDbLine
 10
4424.570096216885
 20
4161.243518378125
 30
0.0
 11
4424.570096216885
 21
4186.243518375226
 31
0.0
  0
LINE
  5
1340
102
{ACAD_REACTORS
330
16DD
102
}
330
74
100
AcDbEntity
  8
AM_3 ( Verdeckt )
100
AcDbLine
 10
4390.870096220782
 20
4161.243518378125
 30
0.0
 11
4390.870096220782
 21
4186.243518375226
 31
0.0
  0
LINE
  5
1341
330
74
100
AcDbEntity
  8
AM_0 ( Kontur 0.5 )
100
AcDbLine
 10
4389.822942126384
 20
4248.232808091824
 30
0.0
 11
4389.433757450284
 21
4248.030121399225
 31
0.0
  0
LINE
  5
1342
330
74
100
AcDbEntity
  8
AM_0 ( Kontur 0.5 )
100
AcDbLine
 10
4389.433757450284
 20
4248.030121399225
 30
0.0
 11
4389.249188623582
 21
4247.629915573123
 31
0.0
  0
LINE
  5
1343
330
74
100
AcDbEntity
  8
AM_0 ( Kontur 0.5 )
100
AcDbLine
 10
4389.249188623582
 20
4247.629915573123
 30
0.0
 11
4389.284364011084
 21
4247.190683970625
 31
0.0
  0
LINE
  5
1344
330
74
100
AcDbEntity
  8
AM_0 ( Kontur 0.5 )
100
AcDbLine
 10
4389.284364011084
 20
4247.190683970625
 30
0.0
 11
4389.568210206884
 21
4246.848257390626
 31
0.0
  0
LINE
  5
1345
330
74
100
AcDbEntity
  8
AM_0 ( Kontur 0.5 )
100
AcDbLine
 10
4389.568210206884
 20
4246.848257390626
 30
0.0
 11
4389.987614734283
 21
4246.722639784925
 31
0.0
  0
LINE
  5
1346
330
74
100
AcDbEntity
  8
AM_0 ( Kontur 0.5 )
100
AcDbLine
 10
4391.322942164985
 20
4248.232808091625
 30
0.0
 11
4390.933757483084
 21
4248.030121396023
 31
0.0
  0
LINE
  5
1347
330
74
100
AcDbEntity
  8
AM_0 ( Kontur 0.5 )
100
AcDbLine
 10
4390.933757483084
 20
4248.030121396023
 30
0.0
 11
4390.749188653685
 21
4247.629915563925
 31
0.0
  0
LINE
  5
1348
330
74
100
AcDbEntity
  8
AM_0 ( Kontur 0.5 )
100
AcDbLine
 10
4390.749188653685
 20
4247.629915563925
 30
0.0
 11
4390.784364041684
 21
4247.190683955023
 31
0.0
  0
LINE
  5
1349
330
74
100
AcDbEntity
  8
AM_0 ( Kontur 0.5 )
100
AcDbLine
 10
4390.784364041684
 20
4247.190683955023
 30
0.0
 11
4391.068210241685
 21
4246.848257369824
 31
0.0
  0
LINE
  5
134A
330
74
100
AcDbEntity
  8
AM_0 ( Kontur 0.5 )
100
AcDbLine
 10
4391.068210241685
 20
4246.848257369824
 30
0.0
 11
4391.487614775384
 21
4246.722639762224
 31
0.0
  0
LINE
  5
134B
330
74
100
AcDbEntity
  8
AM_0 ( Kontur 0.5 )
100
AcDbLine
 10
4392.822942203584
 20
4248.232808091525
 30
0.0
 11
4392.433757515884
 21
4248.030121392825
 31
0.0
  0
LINE
  5
134C
330
74
100
AcDbEntity
  8
AM_0 ( Kontur 0.5 )
100
AcDbLine
 10
4392.433757515884
 20
4248.030121392825
 30
0.0
 11
4392.249188683785
 21
4247.629915554823
 31
0.0
  0
LINE
  5
134D
330
74
100
AcDbEntity
  8
AM_0 ( Kontur 0.5 )
100
AcDbLine
 10
4392.249188683785
 20
4247.629915554823
 30
0.0
 11
4392.284364072284
 21
4247.190683939325
 31
0.0
  0
LINE
  5
134E
330
74
100
AcDbEntity
  8
AM_0 ( Kontur 0.5 )
100
AcDbLine
 10
4392.284364072284
 20
4247.190683939325
 30
0.0
 11
4392.568210276584
 21
4246.848257349125
 31
0.0
  0
LINE
  5
134F
330
74
100
AcDbEntity
  8
AM_0 ( Kontur 0.5 )
100
AcDbLine
 10
4392.568210276584
 20
4246.848257349125
 30
0.0
 11
4392.987614816384
 21
4246.722639739625
 31
0.0
  0
LINE
  5
1350
330
74
100
AcDbEntity
  8
AM_0 ( Kontur 0.5 )
100
AcDbLine
 10
4394.322942242183
 20
4248.232808091324
 30
0.0
 11
4393.933757548684
 21
4248.030121389625
 31
0.0
  0
LINE
  5
1351
330
74
100
AcDbEntity
  8
AM_0 ( Kontur 0.5 )
100
AcDbLine
 10
4393.933757548684
 20
4248.030121389625
 30
0.0
 11
4393.749188713782
 21
4247.629915545725
 31
0.0
  0
LINE
  5
1352
330
74
100
AcDbEntity
  8
AM_0 ( Kontur 0.5 )
100
AcDbLine
 10
4393.749188713782
 20
4247.629915545725
 30
0.0
 11
4393.784364102784
 21
4247.190683923625
 31
0.0
  0
LINE
  5
1353
330
74
100
AcDbEntity
  8
AM_0 ( Kontur 0.5 )
100
AcDbLine
 10
4393.784364102784
 20
4247.190683923625
 30
0.0
 11
4394.068210311385
 21
4246.848257328325
 31
0.0
  0
LINE
  5
1354
330
74
100
AcDbEntity
  8
AM_0 ( Kontur 0.5 )
100
AcDbLine
 10
4394.068210311385
 20
4246.848257328325
 30
0.0
 11
4394.487614857484
 21
4246.722639716925
 31
0.0
  0
LINE
  5
1355
330
74
100
AcDbEntity
  8
AM_0 ( Kontur 0.5 )
100
AcDbLine
 10
4395.822942280783
 20
4248.232808091123
 30
0.0
 11
4395.433757581485
 21
4248.030121386426
 31
0.0
  0
LINE
  5
1356
330
74
100
AcDbEntity
  8
AM_0 ( Kontur 0.5 )
100
AcDbLine
 10
4395.433757581485
 20
4248.030121386426
 30
0.0
 11
4395.249188743885
 21
4247.629915536523
 31
0.0
  0
LINE
  5
1357
330
74
100
AcDbEntity
  8
AM_0 ( Kontur 0.5 )
100
AcDbLine
 10
4395.249188743885
 20
4247.629915536523
 30
0.0
 11
4395.284364133384
 21
4247.190683907923
 31
0.0
  0
LINE
  5
1358
330
74
100
AcDbEntity
  8
AM_0 ( Kontur 0.5 )
100
AcDbLine
 10
4395.284364133384
 20
4247.190683907923
 30
0.0
 11
4395.568210346183
 21
4246.848257307525
 31
0.0
  0
LINE
  5
1359
330
74
100
AcDbEntity
  8
AM_0 ( Kontur 0.5 )
100
AcDbLine
 10
4395.568210346183
 20
4246.848257307525
 30
0.0
 11
4395.987614898584
 21
4246.722639694325
 31
0.0
  0
LINE
  5
135A
330
74
100
AcDbEntity
  8
AM_0 ( Kontur 0.5 )
100
AcDbLine
 10
4397.322942319384
 20
4248.232808091024
 30
0.0
 11
4396.933757614283
 21
4248.030121383325
 31
0.0
  0
LINE
  5
135B
330
74
100
AcDbEntity
  8
AM_0 ( Kontur 0.5 )
100
AcDbLine
 10
4396.933757614283
 20
4248.030121383325
 30
0.0
 11
4396.749188773884
 21
4247.629915527426
 31
0.0
  0
LINE
  5
135C
330
74
100
AcDbEntity
  8
AM_0 ( Kontur 0.5 )
100
AcDbLine
 10
4396.749188773884
 20
4247.629915527426
 30
0.0
 11
4396.784364163983
 21
4247.190683892226
 31
0.0
  0
LINE
  5
135D
330
74
100
AcDbEntity
  8
AM_0 ( Kontur 0.5 )
100
AcDbLine
 10
4396.784364163983
 20
4247.190683892226
 30
0.0
 11
4397.068210380985
 21
4246.848257286725
 31
0.0
  0
LINE
  5
135E
330
74
100
AcDbEntity
  8
AM_0 ( Kontur 0.5 )
100
AcDbLine
 10
4397.068210380985
 20
4246.848257286725
 30
0.0
 11
4397.487614939584
 21
4246.722639671625
 31
0.0
  0
LINE
  5
135F
330
74
100
AcDbEntity
  8
AM_0 ( Kontur 0.5 )
100
AcDbLine
 10
4398.822942357985
 20
4248.232808090825
 30
0.0
 11
4398.433757647083
 21
4248.030121380124
 31
0.0
  0
LINE
  5
1360
330
74
100
AcDbEntity
  8
AM_0 ( Kontur 0.5 )
100
AcDbLine
 10
4398.433757647083
 20
4248.030121380124
 30
0.0
 11
4398.249188803982
 21
4247.629915518225
 31
0.0
  0
LINE
  5
1361
330
74
100
AcDbEntity
  8
AM_0 ( Kontur 0.5 )
100
AcDbLine
 10
4398.249188803982
 20
4247.629915518225
 30
0.0
 11
4398.284364194584
 21
4247.190683876525
 31
0.0
  0
LINE
  5
1362
330
74
100
AcDbEntity
  8
AM_0 ( Kontur 0.5 )
100
AcDbLine
 10
4398.284364194584
 20
4247.190683876525
 30
0.0
 11
4398.568210415784
 21
4246.848257265924
 31
0.0
  0
LINE
  5
1363
330
74
100
AcDbEntity
  8
AM_0 ( Kontur 0.5 )
100
AcDbLine
 10
4398.568210415784
 20
4246.848257265924
 30
0.0
 11
4398.987614980684
 21
4246.722639648925
 31
0.0
  0
LINE
  5
1364
330
74
100
AcDbEntity
  8
AM_0 ( Kontur 0.5 )
100
AcDbLine
 10
4400.322942396583
 20
4248.232808090725
 30
0.0
 11
4399.933757679884
 21
4248.030121376925
 31
0.0
  0
LINE
  5
1365
330
74
100
AcDbEntity
  8
AM_0 ( Kontur 0.5 )
100
AcDbLine
 10
4399.933757679884
 20
4248.030121376925
 30
0.0
 11
4399.749188834085
 21
4247.629915509125
 31
0.0
  0
LINE
  5
1366
330
74
100
AcDbEntity
  8
AM_0 ( Kontur 0.5 )
100
AcDbLine
 10
4399.749188834085
 20
4247.629915509125
 30
0.0
 11
4399.784364225182
 21
4247.190683860824
 31
0.0
  0
LINE
  5
1367
330
74
100
AcDbEntity
  8
AM_0 ( Kontur 0.5 )
100
AcDbLine
 10
4399.784364225182
 20
4247.190683860824
 30
0.0
 11
4400.068210450585
 21
4246.848257245124
 31
0.0
  0
LINE
  5
1368
330
74
100
AcDbEntity
  8
AM_0 ( Kontur 0.5 )
100
AcDbLine
 10
4400.068210450585
 20
4246.848257245124
 30
0.0
 11
4400.487615021784
 21
4246.722639626324
 31
0.0
  0
LINE
  5
1369
330
74
100
AcDbEntity
  8
AM_0 ( Kontur 0.5 )
100
AcDbLine
 10
4401.822942435283
 20
4248.232808090524
 30
0.0
 11
4401.433757712683
 21
4248.030121373727
 31
0.0
  0
LINE
  5
136A
330
74
100
AcDbEntity
  8
AM_0 ( Kontur 0.5 )
100
AcDbLine
 10
4401.433757712683
 20
4248.030121373727
 30
0.0
 11
4401.249188864084
 21
4247.629915499923
 31
0.0
  0
LINE
  5
136B
330
74
100
AcDbEntity
  8
AM_0 ( Kontur 0.5 )
100
AcDbLine
 10
4401.249188864084
 20
4247.629915499923
 30
0.0
 11
4401.284364255785
 21
4247.190683845125
 31
0.0
  0
LINE
  5
136C
330
74
100
AcDbEntity
  8
AM_0 ( Kontur 0.5 )
100
AcDbLine
 10
4401.284364255785
 20
4247.190683845125
 30
0.0
 11
4401.568210485384
 21
4246.848257224324
 31
0.0
  0
LINE
  5
136D
330
74
100
AcDbEntity
  8
AM_0 ( Kontur 0.5 )
100
AcDbLine
 10
4401.568210485384
 20
4246.848257224324
 30
0.0
 11
4401.987615062784
 21
4246.722639603625
 31
0.0
  0
LINE
  5
136E
330
74
100
AcDbEntity
  8
AM_0 ( Kontur 0.5 )
100
AcDbLine
 10
4403.322942473884
 20
4248.232808090324
 30
0.0
 11
4402.933757745485
 21
4248.030121370525
 31
0.0
  0
LINE
  5
136F
330
74
100
AcDbEntity
  8
AM_0 ( Kontur 0.5 )
100
AcDbLine
 10
4402.933757745485
 20
4248.030121370525
 30
0.0
 11
4402.749188894182
 21
4247.629915490824
 31
0.0
  0
LINE
  5
1370
330
74
100
AcDbEntity
  8
AM_0 ( Kontur 0.5 )
100
AcDbLine
 10
4402.749188894182
 20
4247.629915490824
 30
0.0
 11
4402.784364286285
 21
4247.190683829525
 31
0.0
  0
LINE
  5
1371
330
74
100
AcDbEntity
  8
AM_0 ( Kontur 0.5 )
100
AcDbLine
 10
4402.784364286285
 20
4247.190683829525
 30
0.0
 11
4403.068210520184
 21
4246.848257203525
 31
0.0
  0
LINE
  5
1372
330
74
100
AcDbEntity
  8
AM_0 ( Kontur 0.5 )
100
AcDbLine
 10
4403.068210520184
 20
4246.848257203525
 30
0.0
 11
4403.487615103884
 21
4246.722639580924
 31
0.0
  0
LINE
  5
1373
330
74
100
AcDbEntity
  8
AM_0 ( Kontur 0.5 )
100
AcDbLine
 10
4404.822942512484
 20
4248.232808090225
 30
0.0
 11
4404.433757778384
 21
4248.030121367423
 31
0.0
  0
LINE
  5
1374
330
74
100
AcDbEntity
  8
AM_0 ( Kontur 0.5 )
100
AcDbLine
 10
4404.433757778384
 20
4248.030121367423
 30
0.0
 11
4404.249188924183
 21
4247.629915481725
 31
0.0
  0
LINE
  5
1375
330
74
100
AcDbEntity
  8
AM_0 ( Kontur 0.5 )
100
AcDbLine
 10
4404.249188924183
 20
4247.629915481725
 30
0.0
 11
4404.284364316882
 21
4247.190683813826
 31
0.0
  0
LINE
  5
1376
330
74
100
AcDbEntity
  8
AM_0 ( Kontur 0.5 )
100
AcDbLine
 10
4404.284364316882
 20
4247.190683813826
 30
0.0
 11
4404.568210555082
 21
4246.848257182726
 31
0.0
  0
LINE
  5
1377
330
74
100
AcDbEntity
  8
AM_0 ( Kontur 0.5 )
100
AcDbLine
 10
4404.568210555082
 20
4246.848257182726
 30
0.0
 11
4404.987615144884
 21
4246.722639558323
 31
0.0
  0
LINE
  5
1378
330
74
100
AcDbEntity
  8
AM_0 ( Kontur 0.5 )
100
AcDbLine
 10
4406.322942551081
 20
4248.232808090025
 30
0.0
 11
4405.933757811184
 21
4248.030121364225
 31
0.0
  0
LINE
  5
1379
330
74
100
AcDbEntity
  8
AM_0 ( Kontur 0.5 )
100
AcDbLine
 10
4405.933757811184
 20
4248.030121364225
 30
0.0
 11
4405.749188954284
 21
4247.629915472526
 31
0.0
  0
LINE
  5
137A
330
74
100
AcDbEntity
  8
AM_0 ( Kontur 0.5 )
100
AcDbLine
 10
4405.749188954284
 20
4247.629915472526
 30
0.0
 11
4405.784364347485
 21
4247.190683798126
 31
0.0
  0
LINE
  5
137B
330
74
100
AcDbEntity
  8
AM_0 ( Kontur 0.5 )
100
AcDbLine
 10
4405.784364347485
 20
4247.190683798126
 30
0.0
 11
4406.068210589885
 21
4246.848257161925
 31
0.0
  0
LINE
  5
137C
330
74
100
AcDbEntity
  8
AM_0 ( Kontur 0.5 )
100
AcDbLine
 10
4406.068210589885
 20
4246.848257161925
 30
0.0
 11
4406.487615185983
 21
4246.722639535624
 31
0.0
  0
LINE
  5
137D
330
74
100
AcDbEntity
  8
AM_0 ( Kontur 0.5 )
100
AcDbLine
 10
4407.822942589683
 20
4248.232808089925
 30
0.0
 11
4407.433757843985
 21
4248.030121361026
 31
0.0
  0
LINE
  5
137E
330
74
100
AcDbEntity
  8
AM_0 ( Kontur 0.5 )
100
AcDbLine
 10
4407.433757843985
 20
4248.030121361026
 30
0.0
 11
4407.249188984383
 21
4247.629915463425
 31
0.0
  0
LINE
  5
137F
330
74
100
AcDbEntity
  8
AM_0 ( Kontur 0.5 )
100
AcDbLine
 10
4407.249188984383
 20
4247.629915463425
 30
0.0
 11
4407.284364378083
 21
4247.190683782426
 31
0.0
  0
LINE
  5
1380
330
74
100
AcDbEntity
  8
AM_0 ( Kontur 0.5 )
100
AcDbLine
 10
4407.284364378083
 20
4247.190683782426
 30
0.0
 11
4407.568210624684
 21
4246.848257141126
 31
0.0
  0
LINE
  5
1381
330
74
100
AcDbEntity
  8
AM_0 ( Kontur 0.5 )
100
AcDbLine
 10
4407.568210624684
 20
4246.848257141126
 30
0.0
 11
4407.987615227083
 21
4246.722639513026
 31
0.0
  0
LINE
  5
1382
330
74
100
AcDbEntity
  8
AM_0 ( Kontur 0.5 )
100
AcDbLine
 10
4409.322942628285
 20
4248.232808089725
 30
0.0
 11
4408.933757876784
 21
4248.030121357825
 31
0.0
  0
LINE
  5
1383
330
74
100
AcDbEntity
  8
AM_0 ( Kontur 0.5 )
100
AcDbLine
 10
4408.933757876784
 20
4248.030121357825
 30
0.0
 11
4408.749189014383
 21
4247.629915454225
 31
0.0
  0
LINE
  5
1384
330
74
100
AcDbEntity
  8
AM_0 ( Kontur 0.5 )
100
AcDbLine
 10
4408.749189014383
 20
4247.629915454225
 30
0.0
 11
4408.784364408684
 21
4247.190683766723
 31
0.0
  0
LINE
  5
1385
330
74
100
AcDbEntity
  8
AM_0 ( Kontur 0.5 )
100
AcDbLine
 10
4408.784364408684
 20
4247.190683766723
 30
0.0
 11
4409.068210659484
 21
4246.848257120426
 31
0.0
  0
LINE
  5
1386
330
74
100
AcDbEntity
  8
AM_0 ( Kontur 0.5 )
100
AcDbLine
 10
4409.068210659484
 20
4246.848257120426
 30
0.0
 11
4409.487615268084
 21
4246.722639490323
 31
0.0
  0
LINE
  5
1387
330
74
100
AcDbEntity
  8
AM_0 ( Kontur 0.5 )
100
AcDbLine
 10
4410.822942666884
 20
4248.232808089524
 30
0.0
 11
4410.433757909585
 21
4248.030121354625
 31
0.0
  0
LINE
  5
1388
330
74
100
AcDbEntity
  8
AM_0 ( Kontur 0.5 )
100
AcDbLine
 10
4410.433757909585
 20
4248.030121354625
 30
0.0
 11
4410.249189044484
 21
4247.629915445125
 31
0.0
  0
LINE
  5
1389
330
74
100
AcDbEntity
  8
AM_0 ( Kontur 0.5 )
100
AcDbLine
 10
4410.249189044484
 20
4247.629915445125
 30
0.0
 11
4410.284364439285
 21
4247.190683751025
 31
0.0
  0
LINE
  5
138A
330
74
100
AcDbEntity
  8
AM_0 ( Kontur 0.5 )
100
AcDbLine
 10
4410.284364439285
 20
4247.190683751025
 30
0.0
 11
4410.568210694284
 21
4246.848257099625
 31
0.0
  0
LINE
  5
138B
330
74
100
AcDbEntity
  8
AM_0 ( Kontur 0.5 )
100
AcDbLine
 10
4410.568210694284
 20
4246.848257099625
 30
0.0
 11
4410.987615309184
 21
4246.722639467625
 31
0.0
  0
LINE
  5
138C
330
74
100
AcDbEntity
  8
AM_0 ( Kontur 0.5 )
100
AcDbLine
 10
4412.322942705485
 20
4248.232808089425
 30
0.0
 11
4411.933757942382
 21
4248.030121351525
 31
0.0
  0
LINE
  5
138D
330
74
100
AcDbEntity
  8
AM_0 ( Kontur 0.5 )
100
AcDbLine
 10
4411.933757942382
 20
4248.030121351525
 30
0.0
 11
4411.749189074484
 21
4247.629915435926
 31
0.0
  0
LINE
  5
138E
330
74
100
AcDbEntity
  8
AM_0 ( Kontur 0.5 )
100
AcDbLine
 10
4411.749189074484
 20
4247.629915435926
 30
0.0
 11
4411.784364469884
 21
4247.190683735326
 31
0.0
  0
LINE
  5
138F
330
74
100
AcDbEntity
  8
AM_0 ( Kontur 0.5 )
100
AcDbLine
 10
4411.784364469884
 20
4247.190683735326
 30
0.0
 11
4412.068210729085
 21
4246.848257078826
 31
0.0
  0
LINE
  5
1390
330
74
100
AcDbEntity
  8
AM_0 ( Kontur 0.5 )
100
AcDbLine
 10
4412.068210729085
 20
4246.848257078826
 30
0.0
 11
4412.487615350284
 21
4246.722639445025
 31
0.0
  0
LINE
  5
1391
330
74
100
AcDbEntity
  8
AM_0 ( Kontur 0.5 )
100
AcDbLine
 10
4413.822942744084
 20
4248.232808089225
 30
0.0
 11
4413.433757975183
 21
4248.030121348325
 31
0.0
  0
LINE
  5
1392
330
74
100
AcDbEntity
  8
AM_0 ( Kontur 0.5 )
100
AcDbLine
 10
4413.433757975183
 20
4248.030121348325
 30
0.0
 11
4413.249189104583
 21
4247.629915426825
 31
0.0
  0
LINE
  5
1393
330
74
100
AcDbEntity
  8
AM_0 ( Kontur 0.5 )
100
AcDbLine
 10
4413.249189104583
 20
4247.629915426825
 30
0.0
 11
4413.284364500385
 21
4247.190683719625
 31
0.0
  0
LINE
  5
1394
330
74
100
AcDbEntity
  8
AM_0 ( Kontur 0.5 )
100
AcDbLine
 10
4413.284364500385
 20
4247.190683719625
 30
0.0
 11
4413.568210763884
 21
4246.848257058024
 31
0.0
  0
LINE
  5
1395
330
74
100
AcDbEntity
  8
AM_0 ( Kontur 0.5 )
100
AcDbLine
 10
4413.568210763884
 20
4246.848257058024
 30
0.0
 11
4413.987615391284
 21
4246.722639422324
 31
0.0
  0
LINE
  5
1396
330
74
100
AcDbEntity
  8
AM_0 ( Kontur 0.5 )
100
AcDbLine
 10
4415.322942782682
 20
4248.232808089125
 30
0.0
 11
4414.933758007983
 21
4248.030121345125
 31
0.0
  0
LINE
  5
1397
330
74
100
AcDbEntity
  8
AM_0 ( Kontur 0.5 )
100
AcDbLine
 10
4414.933758007983
 20
4248.030121345125
 30
0.0
 11
4414.749189134684
 21
4247.629915417625
 31
0.0
  0
LINE
  5
1398
330
74
100
AcDbEntity
  8
AM_0 ( Kontur 0.5 )
100
AcDbLine
 10
4414.749189134684
 20
4247.629915417625
 30
0.0
 11
4414.784364530984
 21
4247.190683703926
 31
0.0
  0
LINE
  5
1399
330
74
100
AcDbEntity
  8
AM_0 ( Kontur 0.5 )
100
AcDbLine
 10
4414.784364530984
 20
4247.190683703926
 30
0.0
 11
4415.068210798785
 21
4246.848257037224
 31
0.0
  0
LINE
  5
139A
330
74
100
AcDbEntity
  8
AM_0 ( Kontur 0.5 )
100
AcDbLine
 10
4415.068210798785
 20
4246.848257037224
 30
0.0
 11
4415.487615432385
 21
4246.722639399625
 31
0.0
  0
LINE
  5
139B
330
74
100
AcDbEntity
  8
AM_0 ( Kontur 0.5 )
100
AcDbLine
 10
4416.822942821283
 20
4248.232808088925
 30
0.0
 11
4416.433758040784
 21
4248.030121341925
 31
0.0
  0
LINE
  5
139C
330
74
100
AcDbEntity
  8
AM_0 ( Kontur 0.5 )
100
AcDbLine
 10
4416.433758040784
 20
4248.030121341925
 30
0.0
 11
4416.249189164684
 21
4247.629915408526
 31
0.0
  0
LINE
  5
139D
330
74
100
AcDbEntity
  8
AM_0 ( Kontur 0.5 )
100
AcDbLine
 10
4416.249189164684
 20
4247.629915408526
 30
0.0
 11
4416.284364561585
 21
4247.190683688326
 31
0.0
  0
LINE
  5
139E
330
74
100
AcDbEntity
  8
AM_0 ( Kontur 0.5 )
100
AcDbLine
 10
4416.284364561585
 20
4247.190683688326
 30
0.0
 11
4416.568210833584
 21
4246.848257016425
 31
0.0
  0
LINE
  5
139F
330
74
100
AcDbEntity
  8
AM_0 ( Kontur 0.5 )
100
AcDbLine
 10
4416.568210833584
 20
4246.848257016425
 30
0.0
 11
4416.987615473384
 21
4246.722639377025
 31
0.0
  0
LINE
  5
13A0
330
74
100
AcDbEntity
  8
AM_0 ( Kontur 0.5 )
100
AcDbLine
 10
4418.322942859984
 20
4248.232808088725
 30
0.0
 11
4417.933758073584
 21
4248.030121338723
 31
0.0
  0
LINE
  5
13A1
330
74
100
AcDbEntity
  8
AM_0 ( Kontur 0.5 )
100
AcDbLine
 10
4417.933758073584
 20
4248.030121338723
 30
0.0
 11
4417.749189194783
 21
4247.629915399425
 31
0.0
  0
LINE
  5
13A2
330
74
100
AcDbEntity
  8
AM_0 ( Kontur 0.5 )
100
AcDbLine
 10
4417.749189194783
 20
4247.629915399425
 30
0.0
 11
4417.784364592184
 21
4247.190683672624
 31
0.0
  0
LINE
  5
13A3
330
74
100
AcDbEntity
  8
AM_0 ( Kontur 0.5 )
100
AcDbLine
 10
4417.784364592184
 20
4247.190683672624
 30
0.0
 11
4418.068210868385
 21
4246.848256995625
 31
0.0
  0
LINE
  5
13A4
330
74
100
AcDbEntity
  8
AM_0 ( Kontur 0.5 )
100
AcDbLine
 10
4418.068210868385
 20
4246.848256995625
 30
0.0
 11
4418.487615514485
 21
4246.722639354325
 31
0.0
  0
LINE
  5
13A5
330
74
100
AcDbEntity
  8
AM_0 ( Kontur 0.5 )
100
AcDbLine
 10
4419.822942898585
 20
4248.232808088625
 30
0.0
 11
4419.433758106483
 21
4248.030121335625
 31
0.0
  0
LINE
  5
13A6
330
74
100
AcDbEntity
  8
AM_0 ( Kontur 0.5 )
100
AcDbLine
 10
4419.433758106483
 20
4248.030121335625
 30
0.0
 11
4419.249189224784
 21
4247.629915390225
 31
0.0
  0
LINE
  5
13A7
330
74
100
AcDbEntity
  8
AM_0 ( Kontur 0.5 )
100
AcDbLine
 10
4419.249189224784
 20
4247.629915390225
 30
0.0
 11
4419.284364622785
 21
4247.190683656923
 31
0.0
  0
LINE
  5
13A8
330
74
100
AcDbEntity
  8
AM_0 ( Kontur 0.5 )
100
AcDbLine
 10
4419.284364622785
 20
4247.190683656923
 30
0.0
 11
4419.568210903184
 21
4246.848256974824
 31
0.0
  0
LINE
  5
13A9
330
74
100
AcDbEntity
  8
AM_0 ( Kontur 0.5 )
100
AcDbLine
 10
4419.568210903184
 20
4246.848256974824
 30
0.0
 11
4419.987615555585
 21
4246.722639331625
 31
0.0
  0
LINE
  5
13AA
330
74
100
AcDbEntity
  8
AM_0 ( Kontur 0.5 )
100
AcDbLine
 10
4421.322942937184
 20
4248.232808088425
 30
0.0
 11
4420.933758139283
 21
4248.030121332426
 31
0.0
  0
LINE
  5
13AB
330
74
100
AcDbEntity
  8
AM_0 ( Kontur 0.5 )
100
AcDbLine
 10
4420.933758139283
 20
4248.030121332426
 30
0.0
 11
4420.749189254884
 21
4247.629915381125
 31
0.0
  0
LINE
  5
13AC
330
74
100
AcDbEntity
  8
AM_0 ( Kontur 0.5 )
100
AcDbLine
 10
4420.749189254884
 20
4247.629915381125
 30
0.0
 11
4420.784364653384
 21
4247.190683641225
 31
0.0
  0
LINE
  5
13AD
330
74
100
AcDbEntity
  8
AM_0 ( Kontur 0.5 )
100
AcDbLine
 10
4420.784364653384
 20
4247.190683641225
 30
0.0
 11
4421.068210937985
 21
4246.848256954023
 31
0.0
  0
LINE
  5
13AE
330
74
100
AcDbEntity
  8
AM_0 ( Kontur 0.5 )
100
AcDbLine
 10
4421.068210937985
 20
4246.848256954023
 30
0.0
 11
4421.487615596585
 21
4246.722639309026
 31
0.0
  0
LINE
  5
13AF
330
74
100
AcDbEntity
  8
AM_0 ( Kontur 0.5 )
100
AcDbLine
 10
4422.822942975783
 20
4248.232808088325
 30
0.0
 11
4422.433758172084
 21
4248.030121329224
 31
0.0
  0
LINE
  5
13B0
330
74
100
AcDbEntity
  8
AM_0 ( Kontur 0.5 )
100
AcDbLine
 10
4422.433758172084
 20
4248.030121329224
 30
0.0
 11
4422.249189284985
 21
4247.629915371923
 31
0.0
  0
LINE
  5
13B1
330
74
100
AcDbEntity
  8
AM_0 ( Kontur 0.5 )
100
AcDbLine
 10
4422.249189284985
 20
4247.629915371923
 30
0.0
 11
4422.284364683885
 21
4247.190683625524
 31
0.0
  0
LINE
  5
13B2
330
74
100
AcDbEntity
  8
AM_0 ( Kontur 0.5 )
100
AcDbLine
 10
4422.284364683885
 20
4247.190683625524
 30
0.0
 11
4422.568210972784
 21
4246.848256933225
 31
0.0
  0
LINE
  5
13B3
330
74
100
AcDbEntity
  8
AM_0 ( Kontur 0.5 )
100
AcDbLine
 10
4422.568210972784
 20
4246.848256933225
 30
0.0
 11
4422.987615637685
 21
4246.722639286325
 31
0.0
  0
LINE
  5
13B4
330
74
100
AcDbEntity
  8
AM_0 ( Kontur 0.5 )
100
AcDbLine
 10
4424.322943014384
 20
4248.232808088125
 30
0.0
 11
4423.933758204884
 21
4248.030121326024
 31
0.0
  0
LINE
  5
13B5
330
74
100
AcDbEntity
  8
AM_0 ( Kontur 0.5 )
100
AcDbLine
 10
4423.933758204884
 20
4248.030121326024
 30
0.0
 11
4423.749189314984
 21
4247.629915362825
 31
0.0
  0
LINE
  5
13B6
330
74
100
AcDbEntity
  8
AM_0 ( Kontur 0.5 )
100
AcDbLine
 10
4423.749189314984
 20
4247.629915362825
 30
0.0
 11
4423.784364714482
 21
4247.190683609825
 31
0.0
  0
LINE
  5
13B7
330
74
100
AcDbEntity
  8
AM_0 ( Kontur 0.5 )
100
AcDbLine
 10
4423.784364714482
 20
4247.190683609825
 30
0.0
 11
4424.068211007585
 21
4246.848256912425
 31
0.0
  0
LINE
  5
13B8
330
74
100
AcDbEntity
  8
AM_0 ( Kontur 0.5 )
100
AcDbLine
 10
4424.068211007585
 20
4246.848256912425
 30
0.0
 11
4424.487615678785
 21
4246.722639263725
 31
0.0
  0
LINE
  5
13B9
330
74
100
AcDbEntity
  8
AM_0 ( Kontur 0.5 )
100
AcDbLine
 10
4425.822943052984
 20
4248.232808087925
 30
0.0
 11
4425.433758237685
 21
4248.030121322822
 31
0.0
  0
LINE
  5
13BA
330
74
100
AcDbEntity
  8
AM_0 ( Kontur 0.5 )
100
AcDbLine
 10
4425.433758237685
 20
4248.030121322822
 30
0.0
 11
4425.249189345084
 21
4247.629915353624
 31
0.0
  0
LINE
  5
13BB
330
74
100
AcDbEntity
  8
AM_0 ( Kontur 0.5 )
100
AcDbLine
 10
4425.249189345084
 20
4247.629915353624
 30
0.0
 11
4425.284364745084
 21
4247.190683594125
 31
0.0
  0
LINE
  5
13BC
330
74
100
AcDbEntity
  8
AM_0 ( Kontur 0.5 )
100
AcDbLine
 10
4425.284364745084
 20
4247.190683594125
 30
0.0
 11
4425.568211042484
 21
4246.848256891725
 31
0.0
  0
LINE
  5
13BD
330
74
100
AcDbEntity
  8
AM_0 ( Kontur 0.5 )
100
AcDbLine
 10
4425.568211042484
 20
4246.848256891725
 30
0.0
 11
4425.987615719785
 21
4246.722639241023
 31
0.0
  0
LINE
  5
13BE
330
74
100
AcDbEntity
  8
AM_0 ( Kontur 0.5 )
100
AcDbLine
 10
4388.720096221082
 20
4328.743518395126
 30
0.0
 11
4386.220096258585
 21
4331.243518357625
 31
0.0
  0
LINE
  5
13BF
330
74
100
AcDbEntity
  8
AM_0 ( Kontur 0.5 )
100
AcDbLine
 10
4388.720096221082
 20
4331.243518357625
 30
0.0
 11
4386.220096258585
 21
4331.243518357625
 31
0.0
  0
LINE
  5
13C0
330
74
100
AcDbEntity
  8
AM_0 ( Kontur 0.5 )
100
AcDbLine
 10
4388.720096221082
 20
4331.243518357625
 30
0.0
 11
4388.720096221082
 21
4328.743518395126
 31
0.0
  0
LINE
  5
13C1
330
74
100
AcDbEntity
  8
AM_0 ( Kontur 0.5 )
100
AcDbLine
 10
4426.720096216583
 20
4331.243518357625
 30
0.0
 11
4429.220096179084
 21
4331.243518357625
 31
0.0
  0
LINE
  5
13C2
330
74
100
AcDbEntity
  8
AM_0 ( Kontur 0.5 )
100
AcDbLine
 10
4429.220096179084
 20
4331.243518357625
 30
0.0
 11
4426.720096216583
 21
4328.743518395126
 31
0.0
  0
LINE
  5
13C3
330
74
100
AcDbEntity
  8
AM_0 ( Kontur 0.5 )
100
AcDbLine
 10
4426.720096216583
 20
4331.243518357625
 30
0.0
 11
4426.720096216583
 21
4328.743518395126
 31
0.0
  0
LINE
  5
13C4
330
74
100
AcDbEntity
  8
AM_0 ( Kontur 0.5 )
100
AcDbLine
 10
4425.822943052984
 20
4331.232808087725
 30
0.0
 11
4425.433758237685
 21
4331.030121322624
 31
0.0
  0
LINE
  5
13C5
330
74
100
AcDbEntity
  8
AM_0 ( Kontur 0.5 )
100
AcDbLine
 10
4425.433758237685
 20
4331.030121322624
 30
0.0
 11
4425.249189345084
 21
4330.629915353426
 31
0.0
  0
LINE
  5
13C6
330
74
100
AcDbEntity
  8
AM_0 ( Kontur 0.5 )
100
AcDbLine
 10
4425.249189345084
 20
4330.629915353426
 30
0.0
 11
4425.284364745084
 21
4330.190683593925
 31
0.0
  0
LINE
  5
13C7
330
74
100
AcDbEntity
  8
AM_0 ( Kontur 0.5 )
100
AcDbLine
 10
4425.284364745084
 20
4330.190683593925
 30
0.0
 11
4425.568211042484
 21
4329.848256891426
 31
0.0
  0
LINE
  5
13C8
330
74
100
AcDbEntity
  8
AM_0 ( Kontur 0.5 )
100
AcDbLine
 10
4425.568211042484
 20
4329.848256891426
 30
0.0
 11
4425.987615719785
 21
4329.722639240825
 31
0.0
  0
LINE
  5
13C9
330
74
100
AcDbEntity
  8
AM_0 ( Kontur 0.5 )
100
AcDbLine
 10
4424.322943014384
 20
4331.232808087925
 30
0.0
 11
4423.933758204884
 21
4331.030121325825
 31
0.0
  0
LINE
  5
13CA
330
74
100
AcDbEntity
  8
AM_0 ( Kontur 0.5 )
100
AcDbLine
 10
4423.933758204884
 20
4331.030121325825
 30
0.0
 11
4423.749189314984
 21
4330.629915362626
 31
0.0
  0
LINE
  5
13CB
330
74
100
AcDbEntity
  8
AM_0 ( Kontur 0.5 )
100
AcDbLine
 10
4423.749189314984
 20
4330.629915362626
 30
0.0
 11
4423.784364714482
 21
4330.190683609624
 31
0.0
  0
LINE
  5
13CC
330
74
100
AcDbEntity
  8
AM_0 ( Kontur 0.5 )
100
AcDbLine
 10
4423.784364714482
 20
4330.190683609624
 30
0.0
 11
4424.068211007585
 21
4329.848256912224
 31
0.0
  0
LINE
  5
13CD
330
74
100
AcDbEntity
  8
AM_0 ( Kontur 0.5 )
100
AcDbLine
 10
4424.068211007585
 20
4329.848256912224
 30
0.0
 11
4424.487615678785
 21
4329.722639263425
 31
0.0
  0
LINE
  5
13CE
330
74
100
AcDbEntity
  8
AM_0 ( Kontur 0.5 )
100
AcDbLine
 10
4422.822942975783
 20
4331.232808088025
 30
0.0
 11
4422.433758172084
 21
4331.030121329026
 31
0.0
  0
LINE
  5
13CF
330
74
100
AcDbEntity
  8
AM_0 ( Kontur 0.5 )
100
AcDbLine
 10
4422.433758172084
 20
4331.030121329026
 30
0.0
 11
4422.249189284985
 21
4330.629915371726
 31
0.0
  0
LINE
  5
13D0
330
74
100
AcDbEntity
  8
AM_0 ( Kontur 0.5 )
100
AcDbLine
 10
4422.249189284985
 20
4330.629915371726
 30
0.0
 11
4422.284364683885
 21
4330.190683625326
 31
0.0
  0
LINE
  5
13D1
330
74
100
AcDbEntity
  8
AM_0 ( Kontur 0.5 )
100
AcDbLine
 10
4422.284364683885
 20
4330.190683625326
 30
0.0
 11
4422.568210972784
 21
4329.848256933025
 31
0.0
  0
LINE
  5
13D2
330
74
100
AcDbEntity
  8
AM_0 ( Kontur 0.5 )
100
AcDbLine
 10
4422.568210972784
 20
4329.848256933025
 30
0.0
 11
4422.987615637685
 21
4329.722639286123
 31
0.0
  0
LINE
  5
13D3
330
74
100
AcDbEntity
  8
AM_0 ( Kontur 0.5 )
100
AcDbLine
 10
4421.322942937184
 20
4331.232808088225
 30
0.0
 11
4420.933758139283
 21
4331.030121332125
 31
0.0
  0
LINE
  5
13D4
330
74
100
AcDbEntity
  8
AM_0 ( Kontur 0.5 )
100
AcDbLine
 10
4420.933758139283
 20
4331.030121332125
 30
0.0
 11
4420.749189254884
 21
4330.629915380824
 31
0.0
  0
LINE
  5
13D5
330
74
100
AcDbEntity
  8
AM_0 ( Kontur 0.5 )
100
AcDbLine
 10
4420.749189254884
 20
4330.629915380824
 30
0.0
 11
4420.784364653384
 21
4330.190683641024
 31
0.0
  0
LINE
  5
13D6
330
74
100
AcDbEntity
  8
AM_0 ( Kontur 0.5 )
100
AcDbLine
 10
4420.784364653384
 20
4330.190683641024
 30
0.0
 11
4421.068210937985
 21
4329.848256953826
 31
0.0
  0
LINE
  5
13D7
330
74
100
AcDbEntity
  8
AM_0 ( Kontur 0.5 )
100
AcDbLine
 10
4421.068210937985
 20
4329.848256953826
 30
0.0
 11
4421.487615596585
 21
4329.722639308825
 31
0.0
  0
LINE
  5
13D8
330
74
100
AcDbEntity
  8
AM_0 ( Kontur 0.5 )
100
AcDbLine
 10
4419.822942898585
 20
4331.232808088425
 30
0.0
 11
4419.433758106483
 21
4331.030121335325
 31
0.0
  0
LINE
  5
13D9
330
74
100
AcDbEntity
  8
AM_0 ( Kontur 0.5 )
100
AcDbLine
 10
4419.433758106483
 20
4331.030121335325
 30
0.0
 11
4419.249189224784
 21
4330.629915390026
 31
0.0
  0
LINE
  5
13DA
330
74
100
AcDbEntity
  8
AM_0 ( Kontur 0.5 )
100
AcDbLine
 10
4419.249189224784
 20
4330.629915390026
 30
0.0
 11
4419.284364622785
 21
4330.190683656625
 31
0.0
  0
LINE
  5
13DB
330
74
100
AcDbEntity
  8
AM_0 ( Kontur 0.5 )
100
AcDbLine
 10
4419.284364622785
 20
4330.190683656625
 30
0.0
 11
4419.568210903184
 21
4329.848256974623
 31
0.0
  0
LINE
  5
13DC
330
74
100
AcDbEntity
  8
AM_0 ( Kontur 0.5 )
100
AcDbLine
 10
4419.568210903184
 20
4329.848256974623
 30
0.0
 11
4419.987615555585
 21
4329.722639331424
 31
0.0
  0
LINE
  5
13DD
330
74
100
AcDbEntity
  8
AM_0 ( Kontur 0.5 )
100
AcDbLine
 10
4418.322942859984
 20
4331.232808088524
 30
0.0
 11
4417.933758073584
 21
4331.030121338526
 31
0.0
  0
LINE
  5
13DE
330
74
100
AcDbEntity
  8
AM_0 ( Kontur 0.5 )
100
AcDbLine
 10
4417.933758073584
 20
4331.030121338526
 30
0.0
 11
4417.749189194783
 21
4330.629915399126
 31
0.0
  0
LINE
  5
13DF
330
74
100
AcDbEntity
  8
AM_0 ( Kontur 0.5 )
100
AcDbLine
 10
4417.749189194783
 20
4330.629915399126
 30
0.0
 11
4417.784364592184
 21
4330.190683672324
 31
0.0
  0
LINE
  5
13E0
330
74
100
AcDbEntity
  8
AM_0 ( Kontur 0.5 )
100
AcDbLine
 10
4417.784364592184
 20
4330.190683672324
 30
0.0
 11
4418.068210868385
 21
4329.848256995425
 31
0.0
  0
LINE
  5
13E1
330
74
100
AcDbEntity
  8
AM_0 ( Kontur 0.5 )
100
AcDbLine
 10
4418.068210868385
 20
4329.848256995425
 30
0.0
 11
4418.487615514485
 21
4329.722639354126
 31
0.0
  0
LINE
  5
13E2
330
74
100
AcDbEntity
  8
AM_0 ( Kontur 0.5 )
100
AcDbLine
 10
4416.822942821283
 20
4331.232808088723
 30
0.0
 11
4416.433758040784
 21
4331.030121341725
 31
0.0
  0
LINE
  5
13E3
330
74
100
AcDbEntity
  8
AM_0 ( Kontur 0.5 )
100
AcDbLine
 10
4416.433758040784
 20
4331.030121341725
 30
0.0
 11
4416.249189164684
 21
4330.629915408326
 31
0.0
  0
LINE
  5
13E4
330
74
100
AcDbEntity
  8
AM_0 ( Kontur 0.5 )
100
AcDbLine
 10
4416.249189164684
 20
4330.629915408326
 30
0.0
 11
4416.284364561585
 21
4330.190683688026
 31
0.0
  0
LINE
  5
13E5
330
74
100
AcDbEntity
  8
AM_0 ( Kontur 0.5 )
100
AcDbLine
 10
4416.284364561585
 20
4330.190683688026
 30
0.0
 11
4416.568210833584
 21
4329.848257016225
 31
0.0
  0
LINE
  5
13E6
330
74
100
AcDbEntity
  8
AM_0 ( Kontur 0.5 )
100
AcDbLine
 10
4416.568210833584
 20
4329.848257016225
 30
0.0
 11
4416.987615473384
 21
4329.722639376725
 31
0.0
  0
LINE
  5
13E7
330
74
100
AcDbEntity
  8
AM_0 ( Kontur 0.5 )
100
AcDbLine
 10
4415.322942782682
 20
4331.232808088826
 30
0.0
 11
4414.933758007983
 21
4331.030121344926
 31
0.0
  0
LINE
  5
13E8
330
74
100
AcDbEntity
  8
AM_0 ( Kontur 0.5 )
100
AcDbLine
 10
4414.933758007983
 20
4331.030121344926
 30
0.0
 11
4414.749189134684
 21
4330.629915417424
 31
0.0
  0
LINE
  5
13E9
330
74
100
AcDbEntity
  8
AM_0 ( Kontur 0.5 )
100
AcDbLine
 10
4414.749189134684
 20
4330.629915417424
 30
0.0
 11
4414.784364530984
 21
4330.190683703725
 31
0.0
  0
LINE
  5
13EA
330
74
100
AcDbEntity
  8
AM_0 ( Kontur 0.5 )
100
AcDbLine
 10
4414.784364530984
 20
4330.190683703725
 30
0.0
 11
4415.068210798785
 21
4329.848257037025
 31
0.0
  0
LINE
  5
13EB
330
74
100
AcDbEntity
  8
AM_0 ( Kontur 0.5 )
100
AcDbLine
 10
4415.068210798785
 20
4329.848257037025
 30
0.0
 11
4415.487615432385
 21
4329.722639399425
 31
0.0
  0
LINE
  5
13EC
330
74
100
AcDbEntity
  8
AM_0 ( Kontur 0.5 )
100
AcDbLine
 10
4413.822942744084
 20
4331.232808089025
 30
0.0
 11
4413.433757975183
 21
4331.030121348025
 31
0.0
  0
LINE
  5
13ED
330
74
100
AcDbEntity
  8
AM_0 ( Kontur 0.5 )
100
AcDbLine
 10
4413.433757975183
 20
4331.030121348025
 30
0.0
 11
4413.249189104583
 21
4330.629915426626
 31
0.0
  0
LINE
  5
13EE
330
74
100
AcDbEntity
  8
AM_0 ( Kontur 0.5 )
100
AcDbLine
 10
4413.249189104583
 20
4330.629915426626
 30
0.0
 11
4413.284364500385
 21
4330.190683719425
 31
0.0
  0
LINE
  5
13EF
330
74
100
AcDbEntity
  8
AM_0 ( Kontur 0.5 )
100
AcDbLine
 10
4413.284364500385
 20
4330.190683719425
 30
0.0
 11
4413.568210763884
 21
4329.848257057725
 31
0.0
  0
LINE
  5
13F0
330
74
100
AcDbEntity
  8
AM_0 ( Kontur 0.5 )
100
AcDbLine
 10
4413.568210763884
 20
4329.848257057725
 30
0.0
 11
4413.987615391284
 21
4329.722639422125
 31
0.0
  0
LINE
  5
13F1
330
74
100
AcDbEntity
  8
AM_0 ( Kontur 0.5 )
100
AcDbLine
 10
4412.322942705485
 20
4331.232808089224
 30
0.0
 11
4411.933757942382
 21
4331.030121351225
 31
0.0
  0
LINE
  5
13F2
330
74
100
AcDbEntity
  8
AM_0 ( Kontur 0.5 )
100
AcDbLine
 10
4411.933757942382
 20
4331.030121351225
 30
0.0
 11
4411.749189074484
 21
4330.629915435724
 31
0.0
  0
LINE
  5
13F3
330
74
100
AcDbEntity
  8
AM_0 ( Kontur 0.5 )
100
AcDbLine
 10
4411.749189074484
 20
4330.629915435724
 30
0.0
 11
4411.784364469884
 21
4330.190683735125
 31
0.0
  0
LINE
  5
13F4
330
74
100
AcDbEntity
  8
AM_0 ( Kontur 0.5 )
100
AcDbLine
 10
4411.784364469884
 20
4330.190683735125
 30
0.0
 11
4412.068210729085
 21
4329.848257078524
 31
0.0
  0
LINE
  5
13F5
330
74
100
AcDbEntity
  8
AM_0 ( Kontur 0.5 )
100
AcDbLine
 10
4412.068210729085
 20
4329.848257078524
 30
0.0
 11
4412.487615350284
 21
4329.722639444724
 31
0.0
  0
LINE
  5
13F6
330
74
100
AcDbEntity
  8
AM_0 ( Kontur 0.5 )
100
AcDbLine
 10
4410.822942666884
 20
4331.232808089326
 30
0.0
 11
4410.433757909585
 21
4331.030121354426
 31
0.0
  0
LINE
  5
13F7
330
74
100
AcDbEntity
  8
AM_0 ( Kontur 0.5 )
100
AcDbLine
 10
4410.433757909585
 20
4331.030121354426
 30
0.0
 11
4410.249189044484
 21
4330.629915444825
 31
0.0
  0
LINE
  5
13F8
330
74
100
AcDbEntity
  8
AM_0 ( Kontur 0.5 )
100
AcDbLine
 10
4410.249189044484
 20
4330.629915444825
 30
0.0
 11
4410.284364439285
 21
4330.190683750823
 31
0.0
  0
LINE
  5
13F9
330
74
100
AcDbEntity
  8
AM_0 ( Kontur 0.5 )
100
AcDbLine
 10
4410.284364439285
 20
4330.190683750823
 30
0.0
 11
4410.568210694284
 21
4329.848257099325
 31
0.0
  0
LINE
  5
13FA
330
74
100
AcDbEntity
  8
AM_0 ( Kontur 0.5 )
100
AcDbLine
 10
4410.568210694284
 20
4329.848257099325
 30
0.0
 11
4410.987615309184
 21
4329.722639467425
 31
0.0
  0
LINE
  5
13FB
330
74
100
AcDbEntity
  8
AM_0 ( Kontur 0.5 )
100
AcDbLine
 10
4409.322942628285
 20
4331.232808089526
 30
0.0
 11
4408.933757876784
 21
4331.030121357626
 31
0.0
  0
LINE
  5
13FC
330
74
100
AcDbEntity
  8
AM_0 ( Kontur 0.5 )
100
AcDbLine
 10
4408.933757876784
 20
4331.030121357626
 30
0.0
 11
4408.749189014383
 21
4330.629915454024
 31
0.0
  0
LINE
  5
13FD
330
74
100
AcDbEntity
  8
AM_0 ( Kontur 0.5 )
100
AcDbLine
 10
4408.749189014383
 20
4330.629915454024
 30
0.0
 11
4408.784364408684
 21
4330.190683766526
 31
0.0
  0
LINE
  5
13FE
330
74
100
AcDbEntity
  8
AM_0 ( Kontur 0.5 )
100
AcDbLine
 10
4408.784364408684
 20
4330.190683766526
 30
0.0
 11
4409.068210659484
 21
4329.848257120125
 31
0.0
  0
LINE
  5
13FF
330
74
100
AcDbEntity
  8
AM_0 ( Kontur 0.5 )
100
AcDbLine
 10
4409.068210659484
 20
4329.848257120125
 30
0.0
 11
4409.487615268084
 21
4329.722639490125
 31
0.0
  0
LINE
  5
1400
330
74
100
AcDbEntity
  8
AM_0 ( Kontur 0.5 )
100
AcDbLine
 10
4407.822942589683
 20
4331.232808089626
 30
0.0
 11
4407.433757843985
 21
4331.030121360825
 31
0.0
  0
LINE
  5
1401
330
74
100
AcDbEntity
  8
AM_0 ( Kontur 0.5 )
100
AcDbLine
 10
4407.433757843985
 20
4331.030121360825
 30
0.0
 11
4407.249188984383
 21
4330.629915463125
 31
0.0
  0
LINE
  5
1402
330
74
100
AcDbEntity
  8
AM_0 ( Kontur 0.5 )
100
AcDbLine
 10
4407.249188984383
 20
4330.629915463125
 30
0.0
 11
4407.284364378083
 21
4330.190683782224
 31
0.0
  0
LINE
  5
1403
330
74
100
AcDbEntity
  8
AM_0 ( Kontur 0.5 )
100
AcDbLine
 10
4407.284364378083
 20
4330.190683782224
 30
0.0
 11
4407.568210624684
 21
4329.848257140926
 31
0.0
  0
LINE
  5
1404
330
74
100
AcDbEntity
  8
AM_0 ( Kontur 0.5 )
100
AcDbLine
 10
4407.568210624684
 20
4329.848257140926
 30
0.0
 11
4407.987615227083
 21
4329.722639512725
 31
0.0
  0
LINE
  5
1405
330
74
100
AcDbEntity
  8
AM_0 ( Kontur 0.5 )
100
AcDbLine
 10
4406.322942551081
 20
4331.232808089825
 30
0.0
 11
4405.933757811184
 21
4331.030121363925
 31
0.0
  0
LINE
  5
1406
330
74
100
AcDbEntity
  8
AM_0 ( Kontur 0.5 )
100
AcDbLine
 10
4405.933757811184
 20
4331.030121363925
 30
0.0
 11
4405.749188954284
 21
4330.629915472324
 31
0.0
  0
LINE
  5
1407
330
74
100
AcDbEntity
  8
AM_0 ( Kontur 0.5 )
100
AcDbLine
 10
4405.749188954284
 20
4330.629915472324
 30
0.0
 11
4405.784364347485
 21
4330.190683797826
 31
0.0
  0
LINE
  5
1408
330
74
100
AcDbEntity
  8
AM_0 ( Kontur 0.5 )
100
AcDbLine
 10
4405.784364347485
 20
4330.190683797826
 30
0.0
 11
4406.068210589885
 21
4329.848257161724
 31
0.0
  0
LINE
  5
1409
330
74
100
AcDbEntity
  8
AM_0 ( Kontur 0.5 )
100
AcDbLine
 10
4406.068210589885
 20
4329.848257161724
 30
0.0
 11
4406.487615185983
 21
4329.722639535424
 31
0.0
  0
LINE
  5
140A
330
74
100
AcDbEntity
  8
AM_0 ( Kontur 0.5 )
100
AcDbLine
 10
4404.822942512484
 20
4331.232808089923
 30
0.0
 11
4404.433757778384
 21
4331.030121367126
 31
0.0
  0
LINE
  5
140B
330
74
100
AcDbEntity
  8
AM_0 ( Kontur 0.5 )
100
AcDbLine
 10
4404.433757778384
 20
4331.030121367126
 30
0.0
 11
4404.249188924183
 21
4330.629915481425
 31
0.0
  0
LINE
  5
140C
330
74
100
AcDbEntity
  8
AM_0 ( Kontur 0.5 )
100
AcDbLine
 10
4404.249188924183
 20
4330.629915481425
 30
0.0
 11
4404.284364316882
 21
4330.190683813524
 31
0.0
  0
LINE
  5
140D
330
74
100
AcDbEntity
  8
AM_0 ( Kontur 0.5 )
100
AcDbLine
 10
4404.284364316882
 20
4330.190683813524
 30
0.0
 11
4404.568210555082
 21
4329.848257182525
 31
0.0
  0
LINE
  5
140E
330
74
100
AcDbEntity
  8
AM_0 ( Kontur 0.5 )
100
AcDbLine
 10
4404.568210555082
 20
4329.848257182525
 30
0.0
 11
4404.987615144884
 21
4329.722639558024
 31
0.0
  0
LINE
  5
140F
330
74
100
AcDbEntity
  8
AM_0 ( Kontur 0.5 )
100
AcDbLine
 10
4403.322942473884
 20
4331.232808090125
 30
0.0
 11
4402.933757745485
 21
4331.030121370325
 31
0.0
  0
LINE
  5
1410
330
74
100
AcDbEntity
  8
AM_0 ( Kontur 0.5 )
100
AcDbLine
 10
4402.933757745485
 20
4331.030121370325
 30
0.0
 11
4402.749188894182
 21
4330.629915490623
 31
0.0
  0
LINE
  5
1411
330
74
100
AcDbEntity
  8
AM_0 ( Kontur 0.5 )
100
AcDbLine
 10
4402.749188894182
 20
4330.629915490623
 30
0.0
 11
4402.784364286285
 21
4330.190683829225
 31
0.0
  0
LINE
  5
1412
330
74
100
AcDbEntity
  8
AM_0 ( Kontur 0.5 )
100
AcDbLine
 10
4402.784364286285
 20
4330.190683829225
 30
0.0
 11
4403.068210520184
 21
4329.848257203326
 31
0.0
  0
LINE
  5
1413
330
74
100
AcDbEntity
  8
AM_0 ( Kontur 0.5 )
100
AcDbLine
 10
4403.068210520184
 20
4329.848257203326
 30
0.0
 11
4403.487615103884
 21
4329.722639580725
 31
0.0
  0
LINE
  5
1414
330
74
100
AcDbEntity
  8
AM_0 ( Kontur 0.5 )
100
AcDbLine
 10
4401.822942435283
 20
4331.232808090326
 30
0.0
 11
4401.433757712683
 21
4331.030121373525
 31
0.0
  0
LINE
  5
1415
330
74
100
AcDbEntity
  8
AM_0 ( Kontur 0.5 )
100
AcDbLine
 10
4401.433757712683
 20
4331.030121373525
 30
0.0
 11
4401.249188864084
 21
4330.629915499724
 31
0.0
  0
LINE
  5
1416
330
74
100
AcDbEntity
  8
AM_0 ( Kontur 0.5 )
100
AcDbLine
 10
4401.249188864084
 20
4330.629915499724
 30
0.0
 11
4401.284364255785
 21
4330.190683844924
 31
0.0
  0
LINE
  5
1417
330
74
100
AcDbEntity
  8
AM_0 ( Kontur 0.5 )
100
AcDbLine
 10
4401.284364255785
 20
4330.190683844924
 30
0.0
 11
4401.568210485384
 21
4329.848257224123
 31
0.0
  0
LINE
  5
1418
330
74
100
AcDbEntity
  8
AM_0 ( Kontur 0.5 )
100
AcDbLine
 10
4401.568210485384
 20
4329.848257224123
 30
0.0
 11
4401.987615062784
 21
4329.722639603425
 31
0.0
  0
LINE
  5
1419
330
74
100
AcDbEntity
  8
AM_0 ( Kontur 0.5 )
100
AcDbLine
 10
4400.322942396583
 20
4331.232808090424
 30
0.0
 11
4399.933757679884
 21
4331.030121376725
 31
0.0
  0
LINE
  5
141A
330
74
100
AcDbEntity
  8
AM_0 ( Kontur 0.5 )
100
AcDbLine
 10
4399.933757679884
 20
4331.030121376725
 30
0.0
 11
4399.749188834085
 21
4330.629915508825
 31
0.0
  0
LINE
  5
141B
330
74
100
AcDbEntity
  8
AM_0 ( Kontur 0.5 )
100
AcDbLine
 10
4399.749188834085
 20
4330.629915508825
 30
0.0
 11
4399.784364225182
 21
4330.190683860625
 31
0.0
  0
LINE
  5
141C
330
74
100
AcDbEntity
  8
AM_0 ( Kontur 0.5 )
100
AcDbLine
 10
4399.784364225182
 20
4330.190683860625
 30
0.0
 11
4400.068210450585
 21
4329.848257244925
 31
0.0
  0
LINE
  5
141D
330
74
100
AcDbEntity
  8
AM_0 ( Kontur 0.5 )
100
AcDbLine
 10
4400.068210450585
 20
4329.848257244925
 30
0.0
 11
4400.487615021784
 21
4329.722639626025
 31
0.0
  0
LINE
  5
141E
330
74
100
AcDbEntity
  8
AM_0 ( Kontur 0.5 )
100
AcDbLine
 10
4398.822942357985
 20
4331.232808090625
 30
0.0
 11
4398.433757647083
 21
4331.030121379824
 31
0.0
  0
LINE
  5
141F
330
74
100
AcDbEntity
  8
AM_0 ( Kontur 0.5 )
100
AcDbLine
 10
4398.433757647083
 20
4331.030121379824
 30
0.0
 11
4398.249188803982
 21
4330.629915518026
 31
0.0
  0
LINE
  5
1420
330
74
100
AcDbEntity
  8
AM_0 ( Kontur 0.5 )
100
AcDbLine
 10
4398.249188803982
 20
4330.629915518026
 30
0.0
 11
4398.284364194584
 21
4330.190683876325
 31
0.0
  0
LINE
  5
1421
330
74
100
AcDbEntity
  8
AM_0 ( Kontur 0.5 )
100
AcDbLine
 10
4398.284364194584
 20
4330.190683876325
 30
0.0
 11
4398.568210415784
 21
4329.848257265725
 31
0.0
  0
LINE
  5
1422
330
74
100
AcDbEntity
  8
AM_0 ( Kontur 0.5 )
100
AcDbLine
 10
4398.568210415784
 20
4329.848257265725
 30
0.0
 11
4398.987614980684
 21
4329.722639648726
 31
0.0
  0
LINE
  5
1423
330
74
100
AcDbEntity
  8
AM_0 ( Kontur 0.5 )
100
AcDbLine
 10
4397.322942319384
 20
4331.232808090725
 30
0.0
 11
4396.933757614283
 21
4331.030121383025
 31
0.0
  0
LINE
  5
1424
330
74
100
AcDbEntity
  8
AM_0 ( Kontur 0.5 )
100
AcDbLine
 10
4396.933757614283
 20
4331.030121383025
 30
0.0
 11
4396.749188773884
 21
4330.629915527125
 31
0.0
  0
LINE
  5
1425
330
74
100
AcDbEntity
  8
AM_0 ( Kontur 0.5 )
100
AcDbLine
 10
4396.749188773884
 20
4330.629915527125
 30
0.0
 11
4396.784364163983
 21
4330.190683892026
 31
0.0
  0
LINE
  5
1426
330
74
100
AcDbEntity
  8
AM_0 ( Kontur 0.5 )
100
AcDbLine
 10
4396.784364163983
 20
4330.190683892026
 30
0.0
 11
4397.068210380985
 21
4329.848257286525
 31
0.0
  0
LINE
  5
1427
330
74
100
AcDbEntity
  8
AM_0 ( Kontur 0.5 )
100
AcDbLine
 10
4397.068210380985
 20
4329.848257286525
 30
0.0
 11
4397.487614939584
 21
4329.722639671425
 31
0.0
  0
LINE
  5
1428
330
74
100
AcDbEntity
  8
AM_0 ( Kontur 0.5 )
100
AcDbLine
 10
4395.822942280783
 20
4331.232808090925
 30
0.0
 11
4395.433757581485
 21
4331.030121386226
 31
0.0
  0
LINE
  5
1429
330
74
100
AcDbEntity
  8
AM_0 ( Kontur 0.5 )
100
AcDbLine
 10
4395.433757581485
 20
4331.030121386226
 30
0.0
 11
4395.249188743885
 21
4330.629915536325
 31
0.0
  0
LINE
  5
142A
330
74
100
AcDbEntity
  8
AM_0 ( Kontur 0.5 )
100
AcDbLine
 10
4395.249188743885
 20
4330.629915536325
 30
0.0
 11
4395.284364133384
 21
4330.190683907725
 31
0.0
  0
LINE
  5
142B
330
74
100
AcDbEntity
  8
AM_0 ( Kontur 0.5 )
100
AcDbLine
 10
4395.284364133384
 20
4330.190683907725
 30
0.0
 11
4395.568210346183
 21
4329.848257307225
 31
0.0
  0
LINE
  5
142C
330
74
100
AcDbEntity
  8
AM_0 ( Kontur 0.5 )
100
AcDbLine
 10
4395.568210346183
 20
4329.848257307225
 30
0.0
 11
4395.987614898584
 21
4329.722639694026
 31
0.0
  0
LINE
  5
142D
330
74
100
AcDbEntity
  8
AM_0 ( Kontur 0.5 )
100
AcDbLine
 10
4392.822942203584
 20
4331.232808091225
 30
0.0
 11
4392.433757515884
 21
4331.030121392624
 31
0.0
  0
LINE
  5
142E
330
74
100
AcDbEntity
  8
AM_0 ( Kontur 0.5 )
100
AcDbLine
 10
4392.433757515884
 20
4331.030121392624
 30
0.0
 11
4392.249188683785
 21
4330.629915554625
 31
0.0
  0
LINE
  5
142F
330
74
100
AcDbEntity
  8
AM_0 ( Kontur 0.5 )
100
AcDbLine
 10
4392.249188683785
 20
4330.629915554625
 30
0.0
 11
4392.284364072284
 21
4330.190683939025
 31
0.0
  0
LINE
  5
1430
330
74
100
AcDbEntity
  8
AM_0 ( Kontur 0.5 )
100
AcDbLine
 10
4392.284364072284
 20
4330.190683939025
 30
0.0
 11
4392.568210276584
 21
4329.848257348825
 31
0.0
  0
LINE
  5
1431
330
74
100
AcDbEntity
  8
AM_0 ( Kontur 0.5 )
100
AcDbLine
 10
4392.568210276584
 20
4329.848257348825
 30
0.0
 11
4392.987614816384
 21
4329.722639739325
 31
0.0
  0
LINE
  5
1432
330
74
100
AcDbEntity
  8
AM_0 ( Kontur 0.5 )
100
AcDbLine
 10
4394.322942242183
 20
4331.232808091125
 30
0.0
 11
4393.933757548684
 21
4331.030121389425
 31
0.0
  0
LINE
  5
1433
330
74
100
AcDbEntity
  8
AM_0 ( Kontur 0.5 )
100
AcDbLine
 10
4393.933757548684
 20
4331.030121389425
 30
0.0
 11
4393.749188713782
 21
4330.629915545425
 31
0.0
  0
LINE
  5
1434
330
74
100
AcDbEntity
  8
AM_0 ( Kontur 0.5 )
100
AcDbLine
 10
4393.749188713782
 20
4330.629915545425
 30
0.0
 11
4393.784364102784
 21
4330.190683923325
 31
0.0
  0
LINE
  5
1435
330
74
100
AcDbEntity
  8
AM_0 ( Kontur 0.5 )
100
AcDbLine
 10
4393.784364102784
 20
4330.190683923325
 30
0.0
 11
4394.068210311385
 21
4329.848257328025
 31
0.0
  0
LINE
  5
1436
330
74
100
AcDbEntity
  8
AM_0 ( Kontur 0.5 )
100
AcDbLine
 10
4394.068210311385
 20
4329.848257328025
 30
0.0
 11
4394.487614857484
 21
4329.722639716725
 31
0.0
  0
LINE
  5
1437
330
74
100
AcDbEntity
  8
AM_0 ( Kontur 0.5 )
100
AcDbLine
 10
4391.322942164985
 20
4331.232808091423
 30
0.0
 11
4390.933757483084
 21
4331.030121395725
 31
0.0
  0
LINE
  5
1438
330
74
100
AcDbEntity
  8
AM_0 ( Kontur 0.5 )
100
AcDbLine
 10
4390.933757483084
 20
4331.030121395725
 30
0.0
 11
4390.749188653685
 21
4330.629915563725
 31
0.0
  0
LINE
  5
1439
330
74
100
AcDbEntity
  8
AM_0 ( Kontur 0.5 )
100
AcDbLine
 10
4390.749188653685
 20
4330.629915563725
 30
0.0
 11
4390.784364041684
 21
4330.190683954723
 31
0.0
  0
LINE
  5
143A
330
74
100
AcDbEntity
  8
AM_0 ( Kontur 0.5 )
100
AcDbLine
 10
4390.784364041684
 20
4330.190683954723
 30
0.0
 11
4391.068210241685
 21
4329.848257369625
 31
0.0
  0
LINE
  5
143B
330
74
100
AcDbEntity
  8
AM_0 ( Kontur 0.5 )
100
AcDbLine
 10
4391.068210241685
 20
4329.848257369625
 30
0.0
 11
4391.487614775384
 21
4329.722639762024
 31
0.0
  0
LINE
  5
143C
330
74
100
AcDbEntity
  8
AM_0 ( Kontur 0.5 )
100
AcDbLine
 10
4389.822942126384
 20
4331.232808091525
 30
0.0
 11
4389.433757450284
 21
4331.030121398926
 31
0.0
  0
LINE
  5
143D
330
74
100
AcDbEntity
  8
AM_0 ( Kontur 0.5 )
100
AcDbLine
 10
4389.433757450284
 20
4331.030121398926
 30
0.0
 11
4389.249188623582
 21
4330.629915572925
 31
0.0
  0
LINE
  5
143E
330
74
100
AcDbEntity
  8
AM_0 ( Kontur 0.5 )
100
AcDbLine
 10
4389.249188623582
 20
4330.629915572925
 30
0.0
 11
4389.284364011084
 21
4330.190683970425
 31
0.0
  0
LINE
  5
143F
330
74
100
AcDbEntity
  8
AM_0 ( Kontur 0.5 )
100
AcDbLine
 10
4389.284364011084
 20
4330.190683970425
 30
0.0
 11
4389.568210206884
 21
4329.848257390426
 31
0.0
  0
LINE
  5
1440
330
74
100
AcDbEntity
  8
AM_0 ( Kontur 0.5 )
100
AcDbLine
 10
4389.568210206884
 20
4329.848257390426
 30
0.0
 11
4389.987614734283
 21
4329.722639784725
 31
0.0
  0
LINE
  5
1441
330
74
100
AcDbEntity
  8
AM_0 ( Kontur 0.5 )
100
AcDbLine
 10
4387.277466020485
 20
4248.186148558525
 30
0.0
 11
4387.334835819784
 21
4248.243518357824
 31
0.0
  0
LINE
  5
1442
330
74
100
AcDbEntity
  8
AM_0 ( Kontur 0.5 )
100
AcDbLine
 10
4387.476257176084
 20
4248.243518357824
 30
0.0
 11
4387.348176698684
 21
4248.115437880424
 31
0.0
  0
LINE
  5
1443
330
74
100
AcDbEntity
  8
AM_0 ( Kontur 0.5 )
100
AcDbLine
 10
4387.418887376782
 20
4248.044727202324
 30
0.0
 11
4387.617678532284
 21
4248.243518357824
 31
0.0
  0
LINE
  5
1444
330
74
100
AcDbEntity
  8
AM_0 ( Kontur 0.5 )
100
AcDbLine
 10
4387.759099888483
 20
4248.243518357824
 30
0.0
 11
4387.489598054884
 21
4247.974016524124
 31
0.0
  0
LINE
  5
1445
330
74
100
AcDbEntity
  8
AM_0 ( Kontur 0.5 )
100
AcDbLine
 10
4387.560308732981
 20
4247.903305846026
 30
0.0
 11
4387.900521244783
 21
4248.243518357824
 31
0.0
  0
LINE
  5
1446
330
74
100
AcDbEntity
  8
AM_0 ( Kontur 0.5 )
100
AcDbLine
 10
4388.041942600985
 20
4248.243518357824
 30
0.0
 11
4387.631019411085
 21
4247.832595167924
 31
0.0
  0
LINE
  5
1447
330
74
100
AcDbEntity
  8
AM_0 ( Kontur 0.5 )
100
AcDbLine
 10
4387.701730089283
 20
4247.761884489825
 30
0.0
 11
4388.183363957285
 21
4248.243518357824
 31
0.0
  0
LINE
  5
1448
330
74
100
AcDbEntity
  8
AM_0 ( Kontur 0.5 )
100
AcDbLine
 10
4388.324785313483
 20
4248.243518357824
 30
0.0
 11
4387.772440767385
 21
4247.691173811724
 31
0.0
  0
LINE
  5
1449
330
74
100
AcDbEntity
  8
AM_0 ( Kontur 0.5 )
100
AcDbLine
 10
4387.843151445484
 20
4247.620463133625
 30
0.0
 11
4388.466206669684
 21
4248.243518357824
 31
0.0
  0
LINE
  5
144A
330
74
100
AcDbEntity
  8
AM_0 ( Kontur 0.5 )
100
AcDbLine
 10
4388.607628025984
 20
4248.243518357824
 30
0.0
 11
4387.913862123582
 21
4247.549752455424
 31
0.0
  0
LINE
  5
144B
330
74
100
AcDbEntity
  8
AM_0 ( Kontur 0.5 )
100
AcDbLine
 10
4387.984572801684
 20
4247.479041777324
 30
0.0
 11
4388.720096221082
 21
4248.214565196724
 31
0.0
  0
LINE
  5
144C
330
74
100
AcDbEntity
  8
AM_0 ( Kontur 0.5 )
100
AcDbLine
 10
4388.720096221082
 20
4248.073143840424
 30
0.0
 11
4388.055283479881
 21
4247.408331099225
 31
0.0
  0
LINE
  5
144D
330
74
100
AcDbEntity
  8
AM_0 ( Kontur 0.5 )
100
AcDbLine
 10
4388.125994157983
 20
4247.337620421125
 30
0.0
 11
4388.720096221082
 21
4247.931722484225
 31
0.0
  0
LINE
  5
144E
330
74
100
AcDbEntity
  8
AM_0 ( Kontur 0.5 )
100
AcDbLine
 10
4388.720096221082
 20
4247.790301128025
 30
0.0
 11
4388.196704836084
 21
4247.266909743025
 31
0.0
  0
LINE
  5
144F
330
74
100
AcDbEntity
  8
AM_0 ( Kontur 0.5 )
100
AcDbLine
 10
4388.267415514184
 20
4247.196199064825
 30
0.0
 11
4388.720096221082
 21
4247.648879771722
 31
0.0
  0
LINE
  5
1450
330
74
100
AcDbEntity
  8
AM_0 ( Kontur 0.5 )
100
AcDbLine
 10
4388.720096221082
 20
4247.507458415524
 30
0.0
 11
4388.338126192284
 21
4247.125488386725
 31
0.0
  0
LINE
  5
1451
330
74
100
AcDbEntity
  8
AM_0 ( Kontur 0.5 )
100
AcDbLine
 10
4388.408836870385
 20
4247.054777708625
 30
0.0
 11
4388.720096221082
 21
4247.366037059225
 31
0.0
  0
LINE
  5
1452
330
74
100
AcDbEntity
  8
AM_0 ( Kontur 0.5 )
100
AcDbLine
 10
4388.720096221082
 20
4247.224615703024
 30
0.0
 11
4388.479547548584
 21
4246.984067030523
 31
0.0
  0
LINE
  5
1453
330
74
100
AcDbEntity
  8
AM_0 ( Kontur 0.5 )
100
AcDbLine
 10
4388.550258226683
 20
4246.913356352426
 30
0.0
 11
4388.720096221082
 21
4247.083194346823
 31
0.0
  0
LINE
  5
1454
330
74
100
AcDbEntity
  8
AM_0 ( Kontur 0.5 )
100
AcDbLine
 10
4388.720096221082
 20
4246.941772990525
 30
0.0
 11
4388.620968904784
 21
4246.842645674224
 31
0.0
  0
LINE
  5
1455
330
74
100
AcDbEntity
  8
AM_0 ( Kontur 0.5 )
100
AcDbLine
 10
4388.691679582882
 20
4246.771934996125
 30
0.0
 11
4388.720096221082
 21
4246.800351634322
 31
0.0
  0
LINE
  5
1456
330
74
100
AcDbEntity
  8
AM_0 ( Kontur 0.5 )
100
AcDbLine
 10
4426.720096216583
 20
4248.172220364425
 30
0.0
 11
4426.791394209984
 21
4248.243518357824
 31
0.0
  0
LINE
  5
1457
330
74
100
AcDbEntity
  8
AM_0 ( Kontur 0.5 )
100
AcDbLine
 10
4426.932815566284
 20
4248.243518357824
 30
0.0
 11
4426.720096216583
 21
4248.030799008125
 31
0.0
  0
LINE
  5
1458
330
74
100
AcDbEntity
  8
AM_0 ( Kontur 0.5 )
100
AcDbLine
 10
4426.720096216583
 20
4247.889377651925
 30
0.0
 11
4427.074236922485
 21
4248.243518357824
 31
0.0
  0
LINE
  5
1459
330
74
100
AcDbEntity
  8
AM_0 ( Kontur 0.5 )
100
AcDbLine
 10
4427.215658278785
 20
4248.243518357824
 30
0.0
 11
4426.720096216583
 21
4247.747956295724
 31
0.0
  0
LINE
  5
145A
330
74
100
AcDbEntity
  8
AM_0 ( Kontur 0.5 )
100
AcDbLine
 10
4426.720096216583
 20
4247.606534939424
 30
0.0
 11
4427.357079634985
 21
4248.243518357824
 31
0.0
  0
LINE
  5
145B
330
74
100
AcDbEntity
  8
AM_0 ( Kontur 0.5 )
100
AcDbLine
 10
4427.498500991182
 20
4248.243518357824
 30
0.0
 11
4426.720096216583
 21
4247.465113583225
 31
0.0
  0
LINE
  5
145C
330
74
100
AcDbEntity
  8
AM_0 ( Kontur 0.5 )
100
AcDbLine
 10
4426.720096216583
 20
4247.323692226925
 30
0.0
 11
4427.639922347482
 21
4248.243518357824
 31
0.0
  0
LINE
  5
145D
330
74
100
AcDbEntity
  8
AM_0 ( Kontur 0.5 )
100
AcDbLine
 10
4427.781343703684
 20
4248.243518357824
 30
0.0
 11
4426.720096216583
 21
4247.182270870726
 31
0.0
  0
LINE
  5
145E
330
74
100
AcDbEntity
  8
AM_0 ( Kontur 0.5 )
100
AcDbLine
 10
4426.720096216583
 20
4247.040849514525
 30
0.0
 11
4427.922765059884
 21
4248.243518357824
 31
0.0
  0
LINE
  5
145F
330
74
100
AcDbEntity
  8
AM_0 ( Kontur 0.5 )
100
AcDbLine
 10
4428.064186416184
 20
4248.243518357824
 30
0.0
 11
4426.720096216583
 21
4246.899428158225
 31
0.0
  0
LINE
  5
1460
330
74
100
AcDbEntity
  8
AM_0 ( Kontur 0.5 )
100
AcDbLine
 10
4426.720096216583
 20
4246.758006802025
 30
0.0
 11
4428.205607772382
 21
4248.243518357824
 31
0.0
  0
LINE
  5
1461
330
74
100
AcDbEntity
  8
AM_0 ( Kontur 0.5 )
100
AcDbLine
 10
4388.718405174084
 20
4328.891220706124
 30
0.0
 11
4388.645436620984
 21
4328.818252153125
 31
0.0
  0
LINE
  5
1462
330
74
100
AcDbEntity
  8
AM_0 ( Kontur 0.5 )
100
AcDbLine
 10
4388.465922852783
 20
4328.997948624325
 30
0.0
 11
4388.718663872583
 21
4329.250689644124
 31
0.0
  0
LINE
  5
1463
330
74
100
AcDbEntity
  8
AM_0 ( Kontur 0.5 )
100
AcDbLine
 10
4388.718922571086
 20
4329.610158582125
 30
0.0
 11
4388.286409084485
 21
4329.177645095426
 31
0.0
  0
LINE
  5
1464
330
74
100
AcDbEntity
  8
AM_0 ( Kontur 0.5 )
100
AcDbLine
 10
4388.106895316186
 20
4329.357341566625
 30
0.0
 11
4388.719181269684
 21
4329.969627520124
 31
0.0
  0
LINE
  5
1465
330
74
100
AcDbEntity
  8
AM_0 ( Kontur 0.5 )
100
AcDbLine
 10
4388.719439968183
 20
4330.329096458124
 30
0.0
 11
4387.927381547885
 21
4329.537038037824
 31
0.0
  0
LINE
  5
1466
330
74
100
AcDbEntity
  8
AM_0 ( Kontur 0.5 )
100
AcDbLine
 10
4387.747867779583
 20
4329.716734508926
 30
0.0
 11
4388.719698666784
 21
4330.688565396124
 31
0.0
  0
LINE
  5
1467
330
74
100
AcDbEntity
  8
AM_0 ( Kontur 0.5 )
100
AcDbLine
 10
4388.719957365284
 20
4331.048034334126
 30
0.0
 11
4387.568354011284
 21
4329.896430980125
 31
0.0
  0
LINE
  5
1468
330
74
100
AcDbEntity
  8
AM_0 ( Kontur 0.5 )
100
AcDbLine
 10
4387.388840242984
 20
4330.076127451225
 30
0.0
 11
4388.553860216883
 21
4331.241147425124
 31
0.0
  0
LINE
  5
1469
330
74
100
AcDbEntity
  8
AM_0 ( Kontur 0.5 )
100
AcDbLine
 10
4388.195014935084
 20
4331.241512382725
 30
0.0
 11
4387.209326474684
 21
4330.255823922423
 31
0.0
  0
LINE
  5
146A
330
74
100
AcDbEntity
  8
AM_0 ( Kontur 0.5 )
100
AcDbLine
 10
4387.029812706483
 20
4330.435520393623
 30
0.0
 11
4387.836169653184
 21
4331.241877340425
 31
0.0
  0
LINE
  5
146B
330
74
100
AcDbEntity
  8
AM_0 ( Kontur 0.5 )
100
AcDbLine
 10
4387.477324371384
 20
4331.242242298025
 30
0.0
 11
4386.850298938185
 21
4330.615216864726
 31
0.0
  0
LINE
  5
146C
330
74
100
AcDbEntity
  8
AM_0 ( Kontur 0.5 )
100
AcDbLine
 10
4386.670785169886
 20
4330.794913335925
 30
0.0
 11
4387.118479089584
 21
4331.242607255625
 31
0.0
  0
LINE
  5
146D
330
74
100
AcDbEntity
  8
AM_0 ( Kontur 0.5 )
100
AcDbLine
 10
4386.759633807684
 20
4331.242972213225
 30
0.0
 11
4386.491271401584
 21
4330.974609807025
 31
0.0
  0
LINE
  5
146E
330
74
100
AcDbEntity
  8
AM_0 ( Kontur 0.5 )
100
AcDbLine
 10
4386.311757633285
 20
4331.154306278224
 30
0.0
 11
4386.400788525883
 21
4331.243337170825
 31
0.0
  0
LINE
  5
146F
330
74
100
AcDbEntity
  8
AM_0 ( Kontur 0.5 )
100
AcDbLine
 10
4429.072393868084
 20
4331.241827310525
 30
0.0
 11
4429.145362421084
 21
4331.168858757525
 31
0.0
  0
LINE
  5
1470
330
74
100
AcDbEntity
  8
AM_0 ( Kontur 0.5 )
100
AcDbLine
 10
4428.965665949885
 20
4330.989344989225
 30
0.0
 11
4428.712924930085
 21
4331.242086009125
 31
0.0
  0
LINE
  5
1471
330
74
100
AcDbEntity
  8
AM_0 ( Kontur 0.5 )
100
AcDbLine
 10
4428.353455992083
 20
4331.242344707625
 30
0.0
 11
4428.785969478684
 21
4330.809831220926
 31
0.0
  0
LINE
  5
1472
330
74
100
AcDbEntity
  8
AM_0 ( Kontur 0.5 )
100
AcDbLine
 10
4428.606273007584
 20
4330.630317452725
 30
0.0
 11
4427.993987054082
 21
4331.242603406225
 31
0.0
  0
LINE
  5
1473
330
74
100
AcDbEntity
  8
AM_0 ( Kontur 0.5 )
100
AcDbLine
 10
4427.634518116085
 20
4331.242862104724
 30
0.0
 11
4428.426576536383
 21
4330.450803684425
 31
0.0
  0
LINE
  5
1474
330
74
100
AcDbEntity
  8
AM_0 ( Kontur 0.5 )
100
AcDbLine
 10
4428.246880065284
 20
4330.271289916125
 30
0.0
 11
4427.275049178084
 21
4331.243120803224
 31
0.0
  0
LINE
  5
1475
330
74
100
AcDbEntity
  8
AM_0 ( Kontur 0.5 )
100
AcDbLine
 10
4426.915580240083
 20
4331.243379501826
 30
0.0
 11
4428.067183594085
 21
4330.091776147825
 31
0.0
  0
LINE
  5
1476
330
74
100
AcDbEntity
  8
AM_0 ( Kontur 0.5 )
100
AcDbLine
 10
4427.887487122883
 20
4329.912262379525
 30
0.0
 11
4426.722467148984
 21
4331.077282353425
 31
0.0
  0
LINE
  5
1477
330
74
100
AcDbEntity
  8
AM_0 ( Kontur 0.5 )
100
AcDbLine
 10
4426.722102191384
 20
4330.718437071626
 30
0.0
 11
4427.707790651784
 21
4329.732748611225
 31
0.0
  0
LINE
  5
1478
330
74
100
AcDbEntity
  8
AM_0 ( Kontur 0.5 )
100
AcDbLine
 10
4427.528094180585
 20
4329.553234842925
 30
0.0
 11
4426.721737233783
 21
4330.359591789725
 31
0.0
  0
LINE
  5
1479
330
74
100
AcDbEntity
  8
AM_0 ( Kontur 0.5 )
100
AcDbLine
 10
4426.721372276184
 20
4330.000746507925
 30
0.0
 11
4427.348397709484
 21
4329.373721074626
 31
0.0
  0
LINE
  5
147A
330
74
100
AcDbEntity
  8
AM_0 ( Kontur 0.5 )
100
AcDbLine
 10
4427.168701238285
 20
4329.194207306425
 30
0.0
 11
4426.721007318585
 21
4329.641901226024
 31
0.0
  0
LINE
  5
147B
330
74
100
AcDbEntity
  8
AM_0 ( Kontur 0.5 )
100
AcDbLine
 10
4426.720642360984
 20
4329.283055944226
 30
0.0
 11
4426.989004767085
 21
4329.014693538125
 31
0.0
  0
LINE
  5
147C
330
74
100
AcDbEntity
  8
AM_0 ( Kontur 0.5 )
100
AcDbLine
 10
4426.809308295984
 20
4328.835179769825
 30
0.0
 11
4426.720277403385
 21
4328.924210662324
 31
0.0
  0
LINE
  5
147D
330
74
100
AcDbEntity
  8
AM_0 ( Kontur 0.5 )
100
AcDbLine
 10
4407.720096218882
 20
4323.427655339025
 30
0.0
 11
4407.720096218882
 21
4342.780237548825
 31
0.0
  0
LINE
  5
147E
330
74
100
AcDbEntity
  8
AM_0 ( Kontur 0.5 )
100
AcDbLine
 10
4388.720096221082
 20
4250.243518357625
 30
0.0
 11
4388.720096221082
 21
4248.243518357824
 31
0.0
  0
LINE
  5
147F
330
74
100
AcDbEntity
  8
AM_3 ( Verdeckt )
100
AcDbLine
 10
4390.870096220782
 20
4186.243518375226
 30
0.0
 11
4424.570096216885
 21
4186.243518375226
 31
0.0
  0
LINE
  5
1480
330
74
100
AcDbEntity
  8
AM_3 ( Verdeckt )
100
AcDbLine
 10
4422.970096217084
 20
4162.843518377925
 30
0.0
 11
4422.970096217084
 21
4186.243518375226
 31
0.0
  0
LINE
  5
1481
330
74
100
AcDbEntity
  8
AM_3 ( Verdeckt )
100
AcDbLine
 10
4422.970096217084
 20
4162.843518377925
 30
0.0
 11
4424.570096216885
 21
4161.243518378125
 31
0.0
  0
ARC
  5
1482
330
74
100
AcDbEntity
  8
AM_0 ( Kontur 0.5 )
100
AcDbCircle
 10
4427.720096216483
 20
4249.243518357725
 30
0.0
 40
0.9999999998999999
100
AcDbArc
 50
90.0
 51
180.0
  0
LINE
  5
1483
330
74
100
AcDbEntity
  8
AM_3 ( Verdeckt )
100
AcDbLine
 10
4392.470096220584
 20
4162.843518377925
 30
0.0
 11
4422.970096217084
 21
4162.843518377925
 31
0.0
  0
LINE
  5
1484
330
74
100
AcDbEntity
  8
AM_3 ( Verdeckt )
100
AcDbLine
 10
4392.470096220584
 20
4162.843518377925
 30
0.0
 11
4390.870096220782
 21
4161.243518378125
 31
0.0
  0
ARC
  5
1485
330
74
100
AcDbEntity
  8
AM_0 ( Kontur 0.5 )
100
AcDbCircle
 10
4387.720096221182
 20
4249.243518357725
 30
0.0
 40
0.9999999998999999
100
AcDbArc
 50
0.0
 51
90.0
  0
LINE
  5
1486
330
74
100
AcDbEntity
  8
AM_3 ( Verdeckt )
100
AcDbLine
 10
4392.470096220584
 20
4162.843518377925
 30
0.0
 11
4392.470096220584
 21
4186.243518375226
 31
0.0
  0
LINE
  5
1487
330
74
100
AcDbEntity
  8
AM_3 ( Verdeckt )
100
AcDbLine
 10
4422.720096217084
 20
4331.243518357625
 30
0.0
 11
4422.720096217084
 21
4186.243518375226
 31
0.0
  0
LINE
  5
1488
330
74
100
AcDbEntity
  8
AM_3 ( Verdeckt )
100
AcDbLine
 10
4392.720096220585
 20
4186.243518375226
 30
0.0
 11
4392.720096220585
 21
4331.243518357625
 31
0.0
  0
LINE
  5
1489
330
74
100
AcDbEntity
  8
AM_0 ( Kontur 0.5 )
100
AcDbLine
 10
4426.720096216583
 20
4250.243518357625
 30
0.0
 11
4426.720096216583
 21
4248.243518357824
 31
0.0
  0
LINE
  5
148A
330
74
100
AcDbEntity
  8
AM_7 (Mittellinie)
100
AcDbLine
 10
4433.647338536483
 20
4095.019198566926
 30
0.0
 11
4441.754325026483
 21
4095.019198566926
 31
0.0
  0
LINE
  5
148B
330
74
100
AcDbEntity
  8
AM_7 (Mittellinie)
100
AcDbLine
 10
4437.720095768283
 20
4091.050008634225
 30
0.0
 11
4437.720095768283
 21
4099.027134928726
 31
0.0
  0
LINE
  5
148C
330
74
100
AcDbEntity
  8
AM_0 ( Kontur 0.5 )
100
AcDbLine
 10
4377.720097414483
 20
4244.461422001124
 30
0.0
 11
4377.720097414483
 21
4255.043384556723
 31
0.0
  0
LINE
  5
148D
330
74
100
AcDbEntity
  8
AM_7 (Mittellinie)
100
AcDbLine
 10
4383.467323098184
 20
4095.019198566926
 30
0.0
 11
4371.727141032485
 21
4095.019198566926
 31
0.0
  0
LINE
  5
148E
330
74
100
AcDbEntity
  8
AM_7 (Mittellinie)
100
AcDbLine
 10
4431.560379379481
 20
4035.019199468027
 30
0.0
 11
4443.600310774484
 21
4035.019199468027
 31
0.0
  0
LINE
  5
148F
330
74
100
AcDbEntity
  8
AM_7 (Mittellinie)
100
AcDbLine
 10
4437.720095768283
 20
4041.121859348925
 30
0.0
 11
4437.720095768283
 21
4028.732220403027
 31
0.0
  0
LINE
  5
1490
330
74
100
AcDbEntity
  8
AM_7 (Mittellinie)
100
AcDbLine
 10
4377.720096669381
 20
4088.648259727426
 30
0.0
 11
4377.720096669381
 21
4101.697281442926
 31
0.0
  0
LINE
  5
1491
330
74
100
AcDbEntity
  8
AM_0 ( Kontur 0.5 )
100
AcDbLine
 10
4382.220097414483
 20
4248.743518357725
 30
0.0
 11
4382.220097414483
 21
4250.243518357625
 31
0.0
  0
LINE
  5
1492
330
74
100
AcDbEntity
  8
AM_0 ( Kontur 0.5 )
100
AcDbLine
 10
4373.220097414484
 20
4248.743518357725
 30
0.0
 11
4373.220097414484
 21
4250.243518357625
 31
0.0
  0
LINE
  5
1493
330
74
100
AcDbEntity
  8
AM_0 ( Kontur 0.5 )
100
AcDbLine
 10
4433.220095023183
 20
4248.743518357725
 30
0.0
 11
4433.220095023183
 21
4250.243518357625
 31
0.0
  0
LINE
  5
1494
330
74
100
AcDbEntity
  8
AM_0 ( Kontur 0.5 )
100
AcDbLine
 10
4437.720095023183
 20
4244.461422001124
 30
0.0
 11
4437.720095023183
 21
4255.043384556723
 31
0.0
  0
LINE
  5
1495
330
74
100
AcDbEntity
  8
AM_0 ( Kontur 0.5 )
100
AcDbLine
 10
4442.220095023182
 20
4248.743518357725
 30
0.0
 11
4442.220095023182
 21
4250.243518357625
 31
0.0
  0
LINE
  5
1496
330
74
100
AcDbEntity
  8
AM_0 ( Kontur 0.5 )
100
AcDbLine
 10
4440.720095023181
 20
4248.743518357725
 30
0.0
 11
4440.720095023181
 21
4250.243518357625
 31
0.0
  0
LINE
  5
1497
330
74
100
AcDbEntity
  8
AM_0 ( Kontur 0.5 )
100
AcDbLine
 10
4434.720095023183
 20
4248.743518357725
 30
0.0
 11
4434.720095023183
 21
4250.243518357625
 31
0.0
  0
LINE
  5
1498
330
74
100
AcDbEntity
  8
AM_3 ( Verdeckt )
100
AcDbLine
 10
4397.520096218885
 20
4336.243518357625
 30
0.0
 11
4397.520096218885
 21
4331.243518357625
 31
0.0
  0
LINE
  5
1499
330
74
100
AcDbEntity
  8
AM_3 ( Verdeckt )
100
AcDbLine
 10
4398.190096218884
 20
4331.243518357625
 30
0.0
 11
4398.190096218884
 21
4336.243518357625
 31
0.0
  0
LINE
  5
149A
330
74
100
AcDbEntity
  8
AM_3 ( Verdeckt )
100
AcDbLine
 10
4417.250096218884
 20
4331.243518357625
 30
0.0
 11
4417.250096218884
 21
4336.243518357625
 31
0.0
  0
LINE
  5
149B
330
74
100
AcDbEntity
  8
AM_3 ( Verdeckt )
100
AcDbLine
 10
4417.920096218884
 20
4336.243518357625
 30
0.0
 11
4417.920096218884
 21
4331.243518357625
 31
0.0
  0
LINE
  5
149C
330
74
100
AcDbEntity
  8
AM_0 ( Kontur 0.5 )
100
AcDbLine
 10
4447.720095618084
 20
4248.743518357725
 30
0.0
 11
4447.720095618084
 21
4250.243518357625
 31
0.0
  0
LINE
  5
149D
330
74
100
AcDbEntity
  8
AM_0 ( Kontur 0.5 )
100
AcDbLine
 10
4367.720096819584
 20
4248.743518357725
 30
0.0
 11
4367.720096819584
 21
4250.243518357625
 31
0.0
  0
LINE
  5
149E
102
{ACAD_REACTORS
330
188F
102
}
330
74
100
AcDbEntity
  8
AM_0 ( Kontur 0.5 )
100
AcDbLine
 10
4447.720095618084
 20
4250.243518357625
 30
0.0
 11
4367.720096819584
 21
4250.243518357625
 31
0.0
  0
LINE
  5
149F
330
74
100
AcDbEntity
  8
AM_0 ( Kontur 0.5 )
100
AcDbLine
 10
4447.720095618084
 20
4248.743518357725
 30
0.0
 11
4367.720096819584
 21
4248.743518357725
 31
0.0
  0
LINE
  5
14A0
330
74
100
AcDbEntity
  8
AM_0 ( Kontur 0.5 )
100
AcDbLine
 10
4388.720096221082
 20
4331.243518357625
 30
0.0
 11
4388.720096221082
 21
4249.743518357625
 31
0.0
  0
LINE
  5
14A1
330
74
100
AcDbEntity
  8
AM_0 ( Kontur 0.5 )
100
AcDbLine
 10
4425.720096216684
 20
4161.243518378125
 30
0.0
 11
4426.720096216583
 21
4162.243518378025
 31
0.0
  0
LINE
  5
14A2
330
74
100
AcDbEntity
  8
AM_0 ( Kontur 0.5 )
100
AcDbLine
 10
4387.220096221284
 20
4248.243518357824
 30
0.0
 11
4428.220096216484
 21
4248.243518357824
 31
0.0
  0
ARC
  5
14A3
330
74
100
AcDbEntity
  8
AM_0 ( Kontur 0.5 )
100
AcDbCircle
 10
4428.720096216384
 20
4248.243518357824
 30
0.0
 40
0.4999999999000001
100
AcDbArc
 50
90.0
 51
180.0
  0
LINE
  5
14A4
330
74
100
AcDbEntity
  8
AM_0 ( Kontur 0.5 )
100
AcDbLine
 10
4385.220096218882
 20
4336.243518357625
 30
0.0
 11
4430.220096218882
 21
4336.243518357625
 31
0.0
  0
LINE
  5
14A5
330
74
100
AcDbEntity
  8
AM_0 ( Kontur 0.5 )
100
AcDbLine
 10
4389.720096220983
 20
4161.243518378125
 30
0.0
 11
4388.720096221082
 21
4162.243518378025
 31
0.0
  0
ARC
  5
14A6
330
74
100
AcDbEntity
  8
AM_0 ( Kontur 0.5 )
100
AcDbCircle
 10
4386.720096221284
 20
4248.243518357824
 30
0.0
 40
0.4999999999000001
100
AcDbArc
 50
0.0
 51
90.0
  0
LINE
  5
14A7
102
{ACAD_REACTORS
330
1711
102
}
330
74
100
AcDbEntity
  8
AM_0 ( Kontur 0.5 )
100
AcDbLine
 10
4389.720096220983
 20
4161.243518378125
 30
0.0
 11
4425.720096216684
 21
4161.243518378125
 31
0.0
  0
LINE
  5
14A8
330
74
100
AcDbEntity
  8
AM_0 ( Kontur 0.5 )
100
AcDbLine
 10
4426.720096216583
 20
4186.335469025524
 30
0.0
 11
4426.720096216583
 21
4194.250185535925
 31
0.0
  0
LINE
  5
14A9
330
74
100
AcDbEntity
  8
AM_0 ( Kontur 0.5 )
100
AcDbLine
 10
4388.720096221082
 20
4247.743518357824
 30
0.0
 11
4388.720096221082
 21
4162.243518378025
 31
0.0
  0
LINE
  5
14AA
330
74
100
AcDbEntity
  8
AM_0 ( Kontur 0.5 )
100
AcDbLine
 10
4426.720096216583
 20
4331.243518357625
 30
0.0
 11
4426.720096216583
 21
4249.743518357625
 31
0.0
  0
LINE
  5
14AB
330
74
100
AcDbEntity
  8
AM_0 ( Kontur 0.5 )
100
AcDbLine
 10
4426.720096216583
 20
4247.743518357824
 30
0.0
 11
4426.720096216583
 21
4162.243518378025
 31
0.0
  0
LINE
  5
14AC
102
{ACAD_REACTORS
330
18C2
102
}
330
74
100
AcDbEntity
  8
AM_0 ( Kontur 0.5 )
100
AcDbLine
 10
4442.720095618084
 20
4105.019198416726
 30
0.0
 11
4372.720096819585
 21
4105.019198416726
 31
0.0
  0
LINE
  5
14AD
330
74
100
AcDbEntity
  8
AM_0 ( Kontur 0.5 )
100
AcDbLine
 10
4447.720095618084
 20
4030.019199618126
 30
0.0
 11
4447.720095618084
 21
4100.019198416726
 31
0.0
  0
CIRCLE
  5
14AE
102
{ACAD_REACTORS
330
18FA
102
}
330
74
100
AcDbEntity
  8
AM_0 ( Kontur 0.5 )
100
AcDbCircle
 10
4437.720095768283
 20
4095.019198566926
 30
0.0
 40
2.999999954899998
  0
LINE
  5
14AF
330
74
100
AcDbEntity
  8
AM_0 ( Kontur 0.5 )
100
AcDbLine
 10
4367.720096819584
 20
4100.019198416726
 30
0.0
 11
4367.720096819584
 21
4030.019199618126
 31
0.0
  0
LINE
  5
14B0
102
{ACAD_REACTORS
330
18C2
102
}
330
74
100
AcDbEntity
  8
AM_0 ( Kontur 0.5 )
100
AcDbLine
 10
4442.720095618084
 20
4025.019199618126
 30
0.0
 11
4372.720096819585
 21
4025.019199618126
 31
0.0
  0
ARC
  5
14B1
330
74
100
AcDbEntity
  8
AM_0 ( Kontur 0.5 )
100
AcDbCircle
 10
4372.720096819585
 20
4030.019199618126
 30
0.0
 40
5.0
100
AcDbArc
 50
180.0
 51
270.0
  0
ARC
  5
14B2
330
74
100
AcDbEntity
  8
AM_0 ( Kontur 0.5 )
100
AcDbCircle
 10
4372.720096819585
 20
4100.019198416726
 30
0.0
 40
5.0
100
AcDbArc
 50
90.0
 51
180.0
  0
ARC
  5
14B3
330
74
100
AcDbEntity
  8
AM_0 ( Kontur 0.5 )
100
AcDbCircle
 10
4442.720095618084
 20
4030.019199618126
 30
0.0
 40
5.0
100
AcDbArc
 50
270.0
 51
0.0
  0
ARC
  5
14B4
330
74
100
AcDbEntity
  8
AM_0 ( Kontur 0.5 )
100
AcDbCircle
 10
4442.720095618084
 20
4100.019198416726
 30
0.0
 40
5.0
100
AcDbArc
 50
0.0
 51
90.0
  0
LINE
  5
14B5
330
74
100
AcDbEntity
  8
AM_0 ( Kontur 0.5 )
100
AcDbLine
 10
4387.220096221284
 20
4248.243518357824
 30
0.0
 11
4388.720096221082
 21
4246.743518358025
 31
0.0
  0
LINE
  5
14B6
330
74
100
AcDbEntity
  8
AM_0 ( Kontur 0.5 )
100
AcDbLine
 10
4428.220096216484
 20
4248.243518357824
 30
0.0
 11
4426.720096216583
 21
4246.743518358025
 31
0.0
  0
LINE
  5
14B7
102
{ACAD_REACTORS
330
16DD
102
}
330
74
100
AcDbEntity
  8
AM_0 ( Kontur 0.5 )
100
AcDbLine
 10
4388.720096221082
 20
4162.243518378025
 30
0.0
 11
4426.720096216583
 21
4162.243518378025
 31
0.0
  0
CIRCLE
  5
14B8
102
{ACAD_REACTORS
330
191A
102
}
330
74
100
AcDbEntity
  8
AM_0 ( Kontur 0.5 )
100
AcDbCircle
 10
4377.720096669381
 20
4095.019198566926
 30
0.0
 40
4.5
  0
CIRCLE
  5
14B9
102
{ACAD_REACTORS
330
193A
102
}
330
74
100
AcDbEntity
  8
AM_0 ( Kontur 0.5 )
100
AcDbCircle
 10
4437.720095768283
 20
4035.019199468027
 30
0.0
 40
4.5
  0
LINE
  5
14BA
330
74
100
AcDbEntity
  8
AM_0 ( Kontur 0.5 )
100
AcDbLine
 10
4430.220096218882
 20
4331.243518357625
 30
0.0
 11
4430.220096218882
 21
4336.243518357625
 31
0.0
  0
LINE
  5
14BB
330
74
100
AcDbEntity
  8
AM_0 ( Kontur 0.5 )
100
AcDbLine
 10
4385.220096218882
 20
4331.243518357625
 30
0.0
 11
4385.220096218882
 21
4336.243518357625
 31
0.0
  0
LINE
  5
14BC
330
74
100
AcDbEntity
  8
AM_0 ( Kontur 0.5 )
100
AcDbLine
 10
4385.220096218882
 20
4331.243518357625
 30
0.0
 11
4430.220096218882
 21
4331.243518357625
 31
0.0
  0
CIRCLE
  5
14BD
330
74
100
AcDbEntity
  8
AM_0 ( Kontur 0.5 )
100
AcDbCircle
 10
4407.720096218882
 20
4065.019199017426
 30
0.0
 40
22.5
  0
LINE
  5
14BE
102
{ACAD_REACTORS
330
1711
330
188F
102
}
330
74
100
AcDbEntity
  8
AM_7 (Mittellinie)
100
AcDbLine
 10
4407.720096218882
 20
4361.109038357624
 30
0.0
 11
4407.720096218882
 21
4156.59083407031
 31
0.0
  0
ARC
  5
14BF
330
74
100
AcDbEntity
  8
AM_0 ( Kontur 0.5 )
100
AcDbCircle
 10
4407.720099218883
 20
4361.693352357625
 30
0.0
 40
16.190733
100
AcDbArc
 50
269.9999760000184
 51
291.1052929999542
  0
LINE
  5
14C0
330
74
100
AcDbEntity
  8
AM_3 ( Verdeckt )
100
AcDbLine
 10
4417.920096218881
 20
4330.413518357626
 30
0.0
 11
4407.720096218882
 21
4330.413518357626
 31
0.0
  0
LINE
  5
14C1
330
74
100
AcDbEntity
  8
AM_3 ( Verdeckt )
100
AcDbLine
 10
4407.720096218882
 20
4329.743518357625
 30
0.0
 11
4417.250096218884
 21
4329.743518357625
 31
0.0
  0
LINE
  5
14C2
330
74
100
AcDbEntity
  8
AM_0 ( Kontur 0.5 )
100
AcDbLine
 10
4418.020099218884
 20
4343.009062357626
 30
0.0
 11
4407.420097218881
 21
4343.009062357626
 31
0.0
  0
ARC
  5
14C3
330
74
100
AcDbEntity
  8
AM_0 ( Kontur 0.5 )
100
AcDbCircle
 10
4407.720099218883
 20
4353.293328357625
 30
0.0
 40
16.190733
100
AcDbArc
 50
269.9999760000184
 51
291.1052929999542
  0
ARC
  5
14C4
330
74
100
AcDbEntity
  8
AM_0 ( Kontur 0.5 )
100
AcDbCircle
 10
4407.720089218883
 20
4324.924737357625
 30
0.0
 40
16.190746
100
AcDbArc
 50
68.89468800003659
 51
89.99999500002553
  0
LINE
  5
14C5
330
74
100
AcDbEntity
  8
AM_0 ( Kontur 0.5 )
100
AcDbLine
 10
4407.720092218884
 20
4341.209013357626
 30
0.0
 11
4417.420093218883
 21
4341.209013357626
 31
0.0
  0
LINE
  5
14C6
330
74
100
AcDbEntity
  8
AM_0 ( Kontur 0.5 )
100
AcDbLine
 10
4418.620090218882
 20
4345.409025357625
 30
0.0
 11
4407.720092218884
 21
4345.409025357625
 31
0.0
  0
ARC
  5
14C7
330
74
100
AcDbEntity
  8
AM_0 ( Kontur 0.5 )
100
AcDbCircle
 10
4407.720097218883
 20
4342.910865357626
 30
0.0
 40
16.190746
100
AcDbArc
 50
68.89468800003659
 51
89.99999500002553
  0
ARC
  5
14C8
330
74
100
AcDbEntity
  8
AM_0 ( Kontur 0.5 )
100
AcDbCircle
 10
4407.720097218883
 20
4335.724723357625
 30
0.0
 40
16.190746
100
AcDbArc
 50
68.89468800003659
 51
89.99999500002553
  0
LINE
  5
14C9
330
74
100
AcDbEntity
  8
AM_0 ( Kontur 0.5 )
100
AcDbLine
 10
4407.720098218883
 20
4352.009062357625
 30
0.0
 11
4416.715084218884
 21
4352.009062357625
 31
0.0
  0
LINE
  5
14CA
330
74
100
AcDbEntity
  8
AM_0 ( Kontur 0.5 )
100
AcDbLine
 10
4416.220096218881
 20
4358.009062357625
 30
0.0
 11
4407.720096218882
 21
4358.009062357625
 31
0.0
  0
LINE
  5
14CC
330
74
100
AcDbEntity
  8
AM_0 ( Kontur 0.5 )
100
AcDbLine
 10
4398.020099218884
 20
4341.157393800076
 30
0.0
 11
4398.020099218884
 21
4343.009062357626
 31
0.0
  0
ARC
  5
14CD
330
74
100
AcDbEntity
  8
AM_0 ( Kontur 0.5 )
100
AcDbCircle
 10
4398.725086218883
 20
4336.373381357625
 30
0.0
 40
4.835677999999997
100
AcDbArc
 50
49.11747599998485
 51
130.8825169999746
  0
ARC
  5
14CE
330
74
100
AcDbEntity
  8
AM_0 ( Kontur 0.5 )
100
AcDbCircle
 10
4398.725086218883
 20
4341.844694357625
 30
0.0
 40
4.835677999999997
100
AcDbArc
 50
229.1174839999925
 51
310.8825119999472
  0
LINE
  5
14CF
330
74
100
AcDbEntity
  8
AM_0 ( Kontur 0.5 )
100
AcDbLine
 10
4398.160456218884
 20
4337.009062357625
 30
0.0
 11
4397.520096218882
 21
4336.368702357626
 31
0.0
  0
LINE
  5
14D0
330
74
100
AcDbEntity
  8
AM_3 ( Verdeckt )
100
AcDbLine
 10
4397.520096218882
 20
4330.413518357626
 30
0.0
 11
4407.720096218882
 21
4330.413518357626
 31
0.0
  0
LINE
  5
14D1
330
74
100
AcDbEntity
  8
AM_3 ( Verdeckt )
100
AcDbLine
 10
4398.190096218883
 20
4329.743518357625
 30
0.0
 11
4397.520096218882
 21
4330.413518357626
 31
0.0
  0
LINE
  5
14D2
330
74
100
AcDbEntity
  8
AM_0 ( Kontur 0.5 )
100
AcDbLine
 10
4395.560093218882
 20
4338.188665357626
 30
0.0
 11
4395.560093218882
 21
4340.029411357625
 31
0.0
  0
LINE
  5
14D3
330
74
100
AcDbEntity
  8
AM_3 ( Verdeckt )
100
AcDbLine
 10
4397.520096218882
 20
4336.368702357626
 30
0.0
 11
4397.520096218882
 21
4330.413518357626
 31
0.0
  0
LINE
  5
14D4
330
74
100
AcDbEntity
  8
AM_3 ( Verdeckt )
100
AcDbLine
 10
4398.190096218883
 20
4329.743518357625
 30
0.0
 11
4398.190096218883
 21
4337.037784357625
 31
0.0
  0
LINE
  5
14D5
330
74
100
AcDbEntity
  8
AM_3 ( Verdeckt )
100
AcDbLine
 10
4407.720096218882
 20
4329.743518357625
 30
0.0
 11
4398.190096218883
 21
4329.743518357625
 31
0.0
  0
ARC
  5
14D6
330
74
100
AcDbEntity
  8
AM_0 ( Kontur 0.5 )
100
AcDbCircle
 10
4407.720093218881
 20
4353.293328357625
 30
0.0
 40
16.190733
100
AcDbArc
 50
248.8947070000457
 51
270.0000239999816
  0
ARC
  5
14D7
330
74
100
AcDbEntity
  8
AM_0 ( Kontur 0.5 )
100
AcDbCircle
 10
4407.72010421888
 20
4324.924737357625
 30
0.0
 40
16.190746
100
AcDbArc
 50
90.00000499997446
 51
111.1053119999634
  0
LINE
  5
14D8
330
74
100
AcDbEntity
  8
AM_0 ( Kontur 0.5 )
100
AcDbLine
 10
4407.720100218883
 20
4341.209013357626
 30
0.0
 11
4398.020099218884
 21
4341.209013357626
 31
0.0
  0
LINE
  5
14D9
330
74
100
AcDbEntity
  8
AM_0 ( Kontur 0.5 )
100
AcDbLine
 10
4401.890087218884
 20
4338.188665357626
 30
0.0
 11
4401.890087218884
 21
4340.029410357625
 31
0.0
  0
ARC
  5
14DA
330
74
100
AcDbEntity
  8
AM_0 ( Kontur 0.5 )
100
AcDbCircle
 10
4398.725086218883
 20
4350.244719357625
 30
0.0
 40
4.835677999999997
100
AcDbArc
 50
229.1174839999925
 51
310.8825119999472
  0
LINE
  5
14DB
330
74
100
AcDbEntity
  8
AM_0 ( Kontur 0.5 )
100
AcDbLine
 10
4397.420093218883
 20
4343.009062357626
 30
0.0
 11
4408.020095218883
 21
4343.009062357626
 31
0.0
  0
ARC
  5
14DC
330
74
100
AcDbEntity
  8
AM_0 ( Kontur 0.5 )
100
AcDbCircle
 10
4398.725086218883
 20
4347.173369357625
 30
0.0
 40
4.835677999999997
100
AcDbArc
 50
49.11747599998485
 51
130.8825169999746
  0
ARC
  5
14DD
330
74
100
AcDbEntity
  8
AM_0 ( Kontur 0.5 )
100
AcDbCircle
 10
4399.220096218884
 20
4355.609038357624
 30
0.0
 40
2.399999999999999
100
AcDbArc
 50
90.0
 51
180.0000029999847
  0
LINE
  5
14DE
330
74
100
AcDbEntity
  8
AM_0 ( Kontur 0.5 )
100
AcDbLine
 10
4396.820102218884
 20
4345.409025357625
 30
0.0
 11
4396.820102218884
 21
4345.817656357625
 31
0.0
  0
LINE
  5
14DF
330
74
100
AcDbEntity
  8
AM_0 ( Kontur 0.5 )
100
AcDbLine
 10
4397.420093218883
 20
4343.009062357626
 30
0.0
 11
4396.820102218884
 21
4343.009062357626
 31
0.0
  0
LINE
  5
14E0
330
74
100
AcDbEntity
  8
AM_0 ( Kontur 0.5 )
100
AcDbLine
 10
4396.820102218884
 20
4343.009062357626
 30
0.0
 11
4396.820102218884
 21
4345.409025357625
 31
0.0
  0
LINE
  5
14E1
330
74
100
AcDbEntity
  8
AM_0 ( Kontur 0.5 )
100
AcDbLine
 10
4395.560093218882
 20
4346.588689357625
 30
0.0
 11
4395.560093218882
 21
4350.829398357626
 31
0.0
  0
LINE
  5
14E2
330
74
100
AcDbEntity
  8
AM_0 ( Kontur 0.5 )
100
AcDbLine
 10
4396.820102218884
 20
4351.689116357625
 30
0.0
 11
4396.820102218884
 21
4355.609038357624
 31
0.0
  0
ARC
  5
14E3
330
74
100
AcDbEntity
  8
AM_0 ( Kontur 0.5 )
100
AcDbCircle
 10
4407.720096218882
 20
4335.724723357625
 30
0.0
 40
16.190746
100
AcDbArc
 50
90.00000499997446
 51
111.1053119999634
  0
ARC
  5
14E4
330
74
100
AcDbEntity
  8
AM_0 ( Kontur 0.5 )
100
AcDbCircle
 10
4407.720093218881
 20
4361.693352357625
 30
0.0
 40
16.190733
100
AcDbArc
 50
248.8947070000457
 51
270.0000239999816
  0
LINE
  5
14E5
330
74
100
AcDbEntity
  8
AM_0 ( Kontur 0.5 )
100
AcDbLine
 10
4396.820102218884
 20
4345.409025357625
 30
0.0
 11
4407.720100218883
 21
4345.409025357625
 31
0.0
  0
LINE
  5
14E6
330
74
100
AcDbEntity
  8
AM_0 ( Kontur 0.5 )
100
AcDbLine
 10
4401.890087218884
 20
4346.588689357625
 30
0.0
 11
4401.890087218884
 21
4350.829398357626
 31
0.0
  0
ARC
  5
14E7
330
74
100
AcDbEntity
  8
AM_0 ( Kontur 0.5 )
100
AcDbCircle
 10
4407.720096218882
 20
4342.910865357626
 30
0.0
 40
16.190746
100
AcDbArc
 50
90.00000499997446
 51
111.1053119999634
  0
LINE
  5
14E8
330
74
100
AcDbEntity
  8
AM_0 ( Kontur 0.5 )
100
AcDbLine
 10
4407.720094218883
 20
4352.009062357625
 30
0.0
 11
4398.725109218882
 21
4352.009062357625
 31
0.0
  0
LINE
  5
14E9
330
74
100
AcDbEntity
  8
AM_0 ( Kontur 0.5 )
100
AcDbLine
 10
4399.220096218884
 20
4358.009062357625
 30
0.0
 11
4407.720096218882
 21
4358.009062357625
 31
0.0
  0
LINE
  5
14EA
330
74
100
AcDbEntity
  8
AM_0 ( Kontur 0.5 )
100
AcDbLine
 10
4417.420093218883
 20
4341.157393947447
 30
0.0
 11
4417.420093218883
 21
4343.009062357626
 31
0.0
  0
LINE
  5
14EB
330
74
100
AcDbEntity
  8
AM_3 ( Verdeckt )
100
AcDbLine
 10
4417.250096218884
 20
4329.743518357625
 30
0.0
 11
4417.250096218884
 21
4337.037784357625
 31
0.0
  0
LINE
  5
14EC
330
74
100
AcDbEntity
  8
AM_3 ( Verdeckt )
100
AcDbLine
 10
4417.250096218884
 20
4329.743518357625
 30
0.0
 11
4417.920096218881
 21
4330.413518357626
 31
0.0
  0
LINE
  5
14ED
330
74
100
AcDbEntity
  8
AM_3 ( Verdeckt )
100
AcDbLine
 10
4417.920096218881
 20
4336.368702357626
 30
0.0
 11
4417.920096218881
 21
4330.413518357626
 31
0.0
  0
LINE
  5
14EE
330
74
100
AcDbEntity
  8
AM_0 ( Kontur 0.5 )
100
AcDbLine
 10
4413.550106218883
 20
4338.188665357626
 30
0.0
 11
4413.550106218883
 21
4340.029410357625
 31
0.0
  0
LINE
  5
14EF
330
74
100
AcDbEntity
  8
AM_0 ( Kontur 0.5 )
100
AcDbLine
 10
4419.880100218883
 20
4338.188665357626
 30
0.0
 11
4419.880100218883
 21
4340.029411357625
 31
0.0
  0
ARC
  5
14F0
330
74
100
AcDbEntity
  8
AM_0 ( Kontur 0.5 )
100
AcDbCircle
 10
4416.715107218883
 20
4336.373381357625
 30
0.0
 40
4.835677999999997
100
AcDbArc
 50
49.11748300002535
 51
130.882524000015
  0
ARC
  5
14F1
330
74
100
AcDbEntity
  8
AM_0 ( Kontur 0.5 )
100
AcDbCircle
 10
4416.715107218883
 20
4341.844694357625
 30
0.0
 40
4.835677999999997
100
AcDbArc
 50
229.1174880000528
 51
310.8825160000075
  0
ARC
  5
14F2
330
74
100
AcDbEntity
  8
AM_0 ( Kontur 0.5 )
100
AcDbCircle
 10
4416.715107218883
 20
4347.173369357625
 30
0.0
 40
4.835677999999997
100
AcDbArc
 50
49.11748300002535
 51
130.882524000015
  0
ARC
  5
14F3
330
74
100
AcDbEntity
  8
AM_0 ( Kontur 0.5 )
100
AcDbCircle
 10
4416.715107218883
 20
4350.244719357625
 30
0.0
 40
4.835677999999997
100
AcDbArc
 50
229.1174880000528
 51
310.8825160000075
  0
LINE
  5
14F4
330
74
100
AcDbEntity
  8
AM_0 ( Kontur 0.5 )
100
AcDbLine
 10
4418.620090218882
 20
4345.409025357625
 30
0.0
 11
4418.620090218882
 21
4345.817656357625
 31
0.0
  0
LINE
  5
14F5
330
74
100
AcDbEntity
  8
AM_0 ( Kontur 0.5 )
100
AcDbLine
 10
4418.020099218884
 20
4343.009062357626
 30
0.0
 11
4418.620090218882
 21
4343.009062357626
 31
0.0
  0
LINE
  5
14F6
330
74
100
AcDbEntity
  8
AM_0 ( Kontur 0.5 )
100
AcDbLine
 10
4418.620090218882
 20
4343.009062357626
 30
0.0
 11
4418.620090218882
 21
4345.409025357625
 31
0.0
  0
LINE
  5
14F7
330
74
100
AcDbEntity
  8
AM_0 ( Kontur 0.5 )
100
AcDbLine
 10
4413.550106218883
 20
4346.588689357625
 30
0.0
 11
4413.550106218883
 21
4350.829398357626
 31
0.0
  0
LINE
  5
14F8
330
74
100
AcDbEntity
  8
AM_0 ( Kontur 0.5 )
100
AcDbLine
 10
4419.880100218883
 20
4346.588689357625
 30
0.0
 11
4419.880100218883
 21
4350.829398357626
 31
0.0
  0
LINE
  5
14F9
330
74
100
AcDbEntity
  8
AM_0 ( Kontur 0.5 )
100
AcDbLine
 10
4418.620090218882
 20
4351.689116357625
 30
0.0
 11
4418.620090218882
 21
4355.609038357624
 31
0.0
  0
ARC
  5
14FA
330
74
100
AcDbEntity
  8
AM_0 ( Kontur 0.5 )
100
AcDbCircle
 10
4416.220096218881
 20
4355.609038357624
 30
0.0
 40
2.399999999999999
100
AcDbArc
 50
359.9999969999893
 51
90.0
  0
LINE
  5
14FB
330
74
100
AcDbEntity
  8
AM_7 (Mittellinie)
100
AcDbLine
 10
4355.757953090821
 20
4065.019199017426
 30
0.0
 11
4456.998950450551
 21
4065.019199017426
 31
0.0
  0
CIRCLE
  5
14FC
330
74
100
AcDbEntity
  8
AM_0 ( Kontur 0.5 )
100
AcDbCircle
 10
4407.720096218882
 20
4065.019199017426
 30
0.0
 40
8.99999986483356
  0
LINE
  5
14FD
102
{ACAD_REACTORS
330
18C2
102
}
330
74
100
AcDbEntity
  8
AM_7 (Mittellinie)
100
AcDbLine
 10
4407.720096218882
 20
4019.347845359135
 30
0.0
 11
4407.720096218882
 21
4110.916862189684
 31
0.0
  0
LINE
  5
14FE
330
74
100
AcDbEntity
  8
AM_0 ( Kontur 0.5 )
100
AcDbLine
 10
4419.720096038685
 20
4065.019199017426
 30
0.0
 11
4413.720096128781
 21
4075.411503706757
 31
0.0
  0
LINE
  5
14FF
330
74
100
AcDbEntity
  8
AM_0 ( Kontur 0.5 )
100
AcDbLine
 10
4413.720096128781
 20
4075.411503706757
 30
0.0
 11
4401.720096308983
 21
4075.411503706757
 31
0.0
  0
LINE
  5
1500
330
74
100
AcDbEntity
  8
AM_0 ( Kontur 0.5 )
100
AcDbLine
 10
4401.720096308983
 20
4075.411503706757
 30
0.0
 11
4395.720096399084
 21
4065.019199017426
 31
0.0
  0
LINE
  5
1501
330
74
100
AcDbEntity
  8
AM_0 ( Kontur 0.5 )
100
AcDbLine
 10
4395.720096399084
 20
4065.019199017426
 30
0.0
 11
4401.720096308983
 21
4054.626894328086
 31
0.0
  0
LINE
  5
1502
330
74
100
AcDbEntity
  8
AM_0 ( Kontur 0.5 )
100
AcDbLine
 10
4401.720096308983
 20
4054.626894328086
 30
0.0
 11
4413.720096128781
 21
4054.626894328086
 31
0.0
  0
LINE
  5
1503
330
74
100
AcDbEntity
  8
AM_0 ( Kontur 0.5 )
100
AcDbLine
 10
4413.720096128781
 20
4054.626894328086
 30
0.0
 11
4419.720096038685
 21
4065.019199017426
 31
0.0
  0
DIMENSION
  5
16CE
102
{ACAD_XDICTIONARY
360
16DC
102
}
102
{ACAD_REACTORS
330
16DD
102
}
330
74
100
AcDbEntity
  8
AM_5 ( Bemassung)
100
AcDbDimension
280
     0
  2
*D2
 10
4424.570096216885
 20
4138.243518378025
 30
0.0
 11
4407.720096218834
 21
4144.862890820045
 31
0.0
 70
    32
  1
G 1
 71
     5
 42
33.69999999610172
 73
     0
 74
     0
 75
     0
  3
AM_DIN$0
100
AcDbAlignedDimension
 13
4390.870096220782
 23
4162.243518378025
 33
0.0
 14
4424.570096216885
 24
4162.243518378025
 34
0.0
 50
0.0000000000001132
100
AcDbRotatedDimension
1001
ACAD
1000
DSTYLE
1002
{
1070
    40
1040
2.0
1002
}
1001
ACAD_DSTYLE_DIMINSPECT
1070
   396
1000
100%
1070
   395
1000

1070
   394
1070
    33
1070
   393
1070
     0
  0
DIMENSION
  5
1703
102
{ACAD_XDICTIONARY
360
1710
102
}
102
{ACAD_REACTORS
330
1711
102
}
330
74
100
AcDbEntity
  8
AM_5 ( Bemassung)
100
AcDbDimension
280
     0
  2
*D3
 10
4478.658743396054
 20
4336.243518357625
 30
0.0
 11
4478.658743396053
 21
4248.743518367876
 31
0.0
 70
   160
 71
     5
 42
174.9999999795
 73
     0
 74
     0
 75
     0
  3
AM_DIN$0
100
AcDbAlignedDimension
 13
4407.720096218882
 23
4161.243518378125
 33
0.0
 14
4407.720096218882
 24
4336.243518357625
 34
0.0
 50
90.0
100
AcDbRotatedDimension
1001
ACAD
1000
DSTYLE
1002
{
1070
    40
1040
2.0
1002
}
1001
ACAD_DSTYLE_DIMINSPECT
1070
   396
1000
100%
1070
   395
1000

1070
   394
1070
    33
1070
   393
1070
     0
  0
DIMENSION
  5
1881
102
{ACAD_XDICTIONARY
360
188E
102
}
102
{ACAD_REACTORS
330
188F
102
}
330
74
100
AcDbEntity
  8
AM_5 ( Bemassung)
100
AcDbDimension
280
     0
  2
*D6
 10
4457.9531685995
 20
4250.243518357625
 30
0.0
 11
4457.953168599497
 21
4289.173660887061
 31
0.0
 70
   160
 71
     5
 42
86.0
 73
     0
 74
     0
 75
     0
  3
AM_DIN$0
100
AcDbAlignedDimension
 13
4407.720096218882
 23
4336.243518357625
 33
0.0
 14
4407.720096218882
 24
4250.243518357625
 34
0.0
 50
90.0
100
AcDbRotatedDimension
1001
ACAD
1000
DSTYLE
1002
{
1070
    40
1040
2.0
1002
}
1001
ACAD_DSTYLE_DIMINSPECT
1070
   396
1000
100%
1070
   395
1000

1070
   394
1070
    33
1070
   393
1070
     0
  0
DIMENSION
  5
18B4
102
{ACAD_XDICTIONARY
360
18C1
102
}
102
{ACAD_REACTORS
330
18C2
102
}
330
74
100
AcDbEntity
  8
AM_5 ( Bemassung)
100
AcDbDimension
280
     0
  2
*D7
 10
4478.658743396054
 20
4025.019199618126
 30
0.0
 11
4472.084732482001
 21
4065.019199017426
 31
0.0
 70
    32
  1
{\Famgdt;o} <>
 71
     5
 42
79.99999879859934
 73
     0
 74
     0
 75
     0
  3
AM_DIN$0
100
AcDbAlignedDimension
 13
4407.720096218882
 23
4105.019198416726
 33
0.0
 14
4407.720096218882
 24
4025.019199618126
 34
0.0
 50
90.0
100
AcDbRotatedDimension
1001
ACAD
1000
DSTYLE
1002
{
1070
    40
1040
2.0
1002
}
1001
ACAD_DSTYLE_DIMINSPECT
1070
   396
1000
100%
1070
   395
1000

1070
   394
1070
    33
1070
   393
1070
     0
  0
DIMENSION
  5
18F0
102
{ACAD_XDICTIONARY
360
18F9
102
}
102
{ACAD_REACTORS
330
18FA
102
}
330
74
100
AcDbEntity
  8
AM_5 ( Bemassung)
100
AcDbDimension
280
     0
  2
*D8
 10
4436.492641775172
 20
4092.281798993574
 30
0.0
 11
4457.033907154224
 21
4117.797624326936
 31
0.0
 70
   163
 71
     5
 42
5.999999909798133
 73
     0
 74
     0
 75
     0
  3
AM_DIN$3
100
AcDbDiametricDimension
 15
4438.947549761396
 25
4097.756598140278
 35
0.0
 40
0.0
1001
ACAD
1000
DSTYLE
1002
{
1070
    40
1040
2.0
1002
}
1001
ACAD_DSTYLE_DIMINSPECT
1070
   396
1000
100%
1070
   395
1000

1070
   394
1070
    33
1070
   393
1070
     0
1001
ACAD_DSTYLE_DIMRADIAL_EXTENSION
1070
   387
1070
     1
1070
   388
1040
0.0
1070
   390
1040
0.0
  0
DIMENSION
  5
190D
102
{ACAD_XDICTIONARY
360
1919
102
}
102
{ACAD_REACTORS
330
191A
102
}
330
74
100
AcDbEntity
  8
AM_5 ( Bemassung)
100
AcDbDimension
280
     0
  2
*D9
 10
4375.412888520052
 20
4091.155678079643
 30
0.0
 11
4400.778566465639
 21
4118.377386581381
 31
0.0
 70
   163
 71
     5
 42
9.000000000000907
 73
     0
 74
     0
 75
     0
  3
AM_DIN$3
100
AcDbDiametricDimension
 15
4380.027304818716
 25
4098.882719054208
 35
0.0
 40
0.0
1001
ACAD
1000
DSTYLE
1002
{
1070
    40
1040
2.0
1002
}
1001
ACAD_DSTYLE_DIMINSPECT
1070
   396
1000
100%
1070
   395
1000

1070
   394
1070
    33
1070
   393
1070
     0
1001
ACAD_DSTYLE_DIMRADIAL_EXTENSION
1070
   387
1070
     1
1070
   388
1040
0.0
1070
   390
1040
0.0
  0
DIMENSION
  5
192D
102
{ACAD_XDICTIONARY
360
1939
102
}
102
{ACAD_REACTORS
330
193A
102
}
330
74
100
AcDbEntity
  8
AM_5 ( Bemassung)
100
AcDbDimension
280
     0
  2
*D10
 10
4436.826513362337
 20
4039.429586127241
 30
0.0
 11
4453.267649307225
 21
4003.243297795566
 31
0.0
 70
   163
 71
     5
 42
9.0
 73
     0
 74
     0
 75
     0
  3
AM_DIN$3
100
AcDbDiametricDimension
 15
4438.61367817423
 25
4030.60881280881
 35
0.0
 40
0.0
1001
ACAD
1000
DSTYLE
1002
{
1070
    40
1040
2.0
1002
}
1001
ACAD_DSTYLE_DIMINSPECT
1070
   396
1000
100%
1070
   395
1000

1070
   394
1070
    33
1070
   393
1070
     0
1001
ACAD_DSTYLE_DIMRADIAL_EXTENSION
1070
   387
1070
     1
1070
   388
1040
0.0
1070
   390
1040
0.0
  0
ENDSEC
  0
SECTION
  2
OBJECTS
  0
DICTIONARY
  5
C
330
0
100
AcDbDictionary
281
     1
  3
ACAD_CIP_PREVIOUS_PRODUCT_INFO
350
1A8F
  3
ACAD_COLOR
350
6A
  3
ACAD_DETAILVIEWSTYLE
350
1A84
  3
ACAD_FIELDLIST
350
1AAB
  3
ACAD_GROUP
350
D
  3
ACAD_LAYOUT
350
69
  3
ACAD_MATERIAL
350
10
  3
ACAD_MLEADERSTYLE
350
6D
  3
ACAD_MLINESTYLE
350
66
  3
ACAD_PLOTSETTINGS
350
68
  3
ACAD_PLOTSTYLENAME
350
E
  3
ACAD_SCALELIST
350
3A
  3
ACAD_SECTIONVIEWSTYLE
350
1A82
  3
ACAD_TABLESTYLE
350
6B
  3
ACAD_VISUALSTYLE
350
29
  3
AcAmCatalogState
350
1A6B
  3
ACDB_RECOMPOSE_DATA
350
1AE8
  3
AcDbVariableDictionary
350
1C9
  3
ACDMSYSVARMGR
350
19AB
  3
ACGREF_MASTER
350
199B
  3
ACGREFACAD_MASTER
350
19C9
  3
AcmDictionary
350
166
  3
ACME_COMMAND_HISTORY
350
199D
  3
ACME_SCOPE_NAME
350
1999
  3
ACMESTATEMGR
350
19A5
  3
AcmeSysVarManager
350
199E
  3
AcmSystemVariableManager
350
19CE
  3
ADSYSVARMGR
350
1A56
  3
AmdtNamedDwgMgr
350
19C6
  3
AMG
350
10C
  3
AMGSNAPSETTINGS
350
19B
  3
AMI_MASTER
350
19CC
  3
ASE_INDEX_DICTIONARY
350
1971
  3
AUTOCAD_ASSEMBLIES_PROJECT
350
1A60
  3
Designer_Assemblies_SysVars
350
1A5A
  3
GREFAM_MODULE
350
19CD
  3
StructToggleButtonState
350
1A75
  0
DICTIONARY
  5
1B6
330
8
100
AcDbDictionary
280
     1
281
     1
  0
DICTIONARY
  5
256
330
2
100
AcDbDictionary
280
     1
281
     1
  3
AMLAYER_GROUPCOLORS
360
257
  0
DICTIONARY
  5
1A2
330
5C
100
AcDbDictionary
280
     1
281
     1
  3
ADSK_XREC_LAYER_RECONCILED
360
D41
  0
DICTIONARY
  5
2C7
330
27F
100
AcDbDictionary
280
     1
281
     1
  3
ADSK_XREC_LAYER_RECONCILED
360
D4D
  0
DICTIONARY
  5
2CD
330
2AE
100
AcDbDictionary
280
     1
281
     1
  3
ADSK_XREC_LAYER_RECONCILED
360
D50
  0
DICTIONARY
  5
A88
330
74
100
AcDbDictionary
280
     1
281
     1
  3
ACAD_SORTENTS
360
A89
  0
DICTIONARY
  5
16DC
330
16CE
100
AcDbDictionary
280
     1
281
     1
  3
ACAD_DIMASSOC
360
16DD
  0
DICTIONARY
  5
1710
330
1703
100
AcDbDictionary
280
     1
281
     1
  3
ACAD_DIMASSOC
360
1711
  0
DICTIONARY
  5
188E
330
1881
100
AcDbDictionary
280
     1
281
     1
  3
ACAD_DIMASSOC
360
188F
  0
DICTIONARY
  5
18C1
330
18B4
100
AcDbDictionary
280
     1
281
     1
  3
ACAD_DIMASSOC
360
18C2
  0
DICTIONARY
  5
18F9
330
18F0
100
AcDbDictionary
280
     1
281
     1
  3
ACAD_DIMASSOC
360
18FA
  0
DICTIONARY
  5
1919
330
190D
100
AcDbDictionary
280
     1
281
     1
  3
ACAD_DIMASSOC
360
191A
  0
DICTIONARY
  5
1939
330
192D
100
AcDbDictionary
280
     1
281
     1
  3
ACAD_DIMASSOC
360
193A
  0
XRECORD
  5
1A8F
102
{ACAD_REACTORS
330
C
102
}
330
C
100
AcDbXrecord
280
     1
300
AMECH_PP
300
2016
300
PDSU_F_S
  0
DICTIONARY
  5
6A
102
{ACAD_REACTORS
330
C
102
}
330
C
100
AcDbDictionary
281
     1
  0
DICTIONARY
  5
1A84
102
{ACAD_REACTORS
330
C
102
}
330
C
100
AcDbDictionary
281
     1
  3
ASME Y14.35 - 1987
350
1AA2
  3
DIN 6
350
1AB9
  3
ISO 128-34_2001
350
1AC9
  3
Metric50
350
1A85
  0
FIELDLIST
  5
1AAB
102
{ACAD_REACTORS
330
C
102
}
330
C
100
AcDbIdSet
 90
       16
330
1AA9
330
1AAA
330
1AAC
330
1AAD
330
1AB6
330
1AB7
330
1AB8
330
1AC0
330
1AC1
330
1AC2
330
1AC6
330
1AC7
330
1AC8
330
1ACD
330
1ACE
330
1ACF
100
AcDbFieldList
  0
DICTIONARY
  5
D
102
{ACAD_REACTORS
330
C
102
}
330
C
100
AcDbDictionary
281
     1
  0
DICTIONARY
  5
69
102
{ACAD_REACTORS
330
C
102
}
330
C
100
AcDbDictionary
281
     1
  3
Layout1
350
73
  3
Model
350
77
  0
DICTIONARY
  5
10
102
{ACAD_REACTORS
330
C
102
}
330
C
100
AcDbDictionary
281
     1
  3
ByBlock
350
19
  3
ByLayer
350
11
  3
Global
350
21
  0
DICTIONARY
  5
6D
102
{ACAD_REACTORS
330
C
102
}
330
C
100
AcDbDictionary
281
     1
  3
Standard
350
6E
  0
DICTIONARY
  5
66
102
{ACAD_REACTORS
330
C
102
}
330
C
100
AcDbDictionary
281
     1
  3
Standard
350
67
  0
DICTIONARY
  5
68
102
{ACAD_REACTORS
330
C
102
}
330
C
100
AcDbDictionary
281
     1
  0
ACDBDICTIONARYWDFLT
  5
E
102
{ACAD_REACTORS
330
C
102
}
330
C
100
AcDbDictionary
281
     1
  3
Normal
350
F
100
AcDbDictionaryWithDefault
340
F
  0
DICTIONARY
  5
3A
102
{ACAD_REACTORS
330
C
102
}
330
C
100
AcDbDictionary
281
     1
  3
A0
350
3B
  3
A1
350
3C
  3
A2
350
3D
  3
A3
350
3E
  3
A4
350
3F
  3
A5
350
40
  3
A6
350
41
  3
A7
350
42
  3
A8
350
43
  3
A9
350
44
  3
B0
350
45
  3
B1
350
46
  3
B2
350
47
  3
B3
350
48
  3
B4
350
49
  3
B5
350
4A
  3
B6
350
4B
  3
B7
350
4C
  3
B8
350
4D
  3
B9
350
4E
  3
C0
350
4F
  3
C1
350
50
  3
C2
350
51
  3
C3
350
52
  3
C4
350
53
  3
C5
350
54
  3
C6
350
55
  3
C7
350
56
  3
C8
350
57
  3
C9
350
58
  3
D0
350
59
  3
D1
350
5A
  3
D2
350
5B
  0
DICTIONARY
  5
1A82
102
{ACAD_REACTORS
330
C
102
}
330
C
100
AcDbDictionary
281
     1
  3
ASME Y14.3 - 2003
350
1AB3
  3
DIN ISO 128-40_2002-05
350
1AC3
  3
ISO 128-40_2001(E)
350
1ACA
  3
Metric50
350
1A83
  0
DICTIONARY
  5
6B
102
{ACAD_REACTORS
330
C
102
}
330
C
100
AcDbDictionary
281
     1
  3
Standard
350
6C
  0
DICTIONARY
  5
29
102
{ACAD_REACTORS
330
C
102
}
330
C
100
AcDbDictionary
281
     1
  3
2dWireframe
350
2F
  3
3D Hidden
350
31
  3
3dWireframe
350
30
  3
Basic
350
2E
  3
Brighten
350
35
  3
ColorChange
350
39
  3
Conceptual
350
32
  3
Dim
350
34
  3
EdgeColorOff
350
1A81
  3
Facepattern
350
38
  3
Flat
350
2A
  3
FlatWithEdges
350
2B
  3
Gouraud
350
2C
  3
GouraudWithEdges
350
2D
  3
Hidden
350
1A79
  3
JitterOff
350
1A7F
  3
Linepattern
350
37
  3
OverhangOff
350
1A80
  3
Realistic
350
33
  3
Shaded
350
1A7E
  3
Shaded with edges
350
1A7D
  3
Shades of Gray
350
1A7A
  3
Sketchy
350
1A7B
  3
Thicken
350
36
  3
Wireframe
350
1A78
  3
X-Ray
350
1A7C
  0
XRECORD
  5
1AE8
102
{ACAD_REACTORS
330
C
102
}
330
C
100
AcDbXrecord
280
     1
 90
        1
330
6C
330
1A83
330
1A85
330
1AA2
330
1AB3
330
1AB9
330
1AC3
330
1AC9
330
1ACA
  0
DICTIONARY
  5
1C9
102
{ACAD_REACTORS
330
C
102
}
330
C
100
AcDbDictionary
281
     1
  3
CANNOSCALE
350
1CC
  3
CMLEADERSTYLE
350
1CB
  3
CTABLESTYLE
350
1CA
  3
CVIEWDETAILSTYLE
350
1AD8
  3
CVIEWSECTIONSTYLE
350
1AD9
  3
DIMASSOC
350
1CF
  3
INDEXCTL
350
1CE
  3
LAYEREVAL
350
1ADA
  3
LAYERNOTIFY
350
1ADB
  3
LIGHTINGUNITS
350
2D3
  3
MSLTSCALE
350
2D2
  3
SORTENTS
350
1CD
  0
DICTIONARY
  5
166
102
{ACAD_REACTORS
330
C
102
}
330
C
100
AcDbDictionary
281
     1
  3
AcmBOM
350
2B6
  3
AcmBOMDATA
350
1A6A
  3
AcmStdDictionary
350
171
  3
AMDTSECTSYM_ARROWCOLOR
350
186
  0
DICTIONARY
  5
10C
102
{ACAD_REACTORS
330
C
102
}
330
C
100
AcDbDictionary
281
     1
  3
AcMgSettings
350
1993
  3
AMGLAYCFG
350
1997
  0
DICTIONARY
  5
19B
102
{ACAD_REACTORS
330
C
102
}
330
C
100
AcDbDictionary
281
     1
  0
DICTIONARY
  5
1971
102
{ACAD_REACTORS
330
C
102
}
330
C
100
AcDbDictionary
281
     1
  3
ASEBlockHierarchyIndexRecord
350
1972
1001
DCO15
1040
1635054334.081
  0
CAMSSTRUCTBTNSTATE
  5
1A75
102
{ACAD_REACTORS
330
C
102
}
330
C
  0
DICTIONARY
  5
257
102
{ACAD_REACTORS
330
256
102
}
330
256
100
AcDbDictionary
280
     1
281
     1
  0
XRECORD
  5
D41
102
{ACAD_REACTORS
330
1A2
102
}
330
1A2
100
AcDbXrecord
280
     1
290
     1
  0
XRECORD
  5
D4D
102
{ACAD_REACTORS
330
2C7
102
}
330
2C7
100
AcDbXrecord
280
     1
290
     1
  0
XRECORD
  5
D50
102
{ACAD_REACTORS
330
2CD
102
}
330
2CD
100
AcDbXrecord
280
     1
290
     1
  0
SORTENTSTABLE
  5
A89
102
{ACAD_REACTORS
330
A88
102
}
330
A88
100
AcDbSortentsTable
330
74
  0
DIMASSOC
  5
16DD
102
{ACAD_REACTORS
330
16DC
102
}
330
16DC
100
AcDbDimAssoc
330
16CE
 90
        3
 70
     0
 71
     0
  1
AcDbOsnapPointRef
 72
     6
331
1340
 73
     0
 91
        0
 40
0.0400000000006374
 10
0.0
 20
0.0
 30
0.0
332
14B7
 74
     0
 92
        0
 75
     0
  1
AcDbOsnapPointRef
 72
     6
331
133F
 73
     0
 91
        0
 40
0.0400000000006374
 10
0.0
 20
0.0
 30
0.0
332
14B7
 74
     0
 92
        0
 75
     0
  0
DIMASSOC
  5
1711
102
{ACAD_REACTORS
330
1710
102
}
330
1710
100
AcDbDimAssoc
330
1703
 90
        1
 70
     0
 71
     0
  1
AcDbOsnapPointRef
 72
     6
331
14A7
 73
     0
 91
        0
 40
0.5000000000013644
 10
0.0
 20
0.0
 30
0.0
332
14BE
 74
     0
 92
        0
 75
     0
  0
DIMASSOC
  5
188F
102
{ACAD_REACTORS
330
188E
102
}
330
188E
100
AcDbDimAssoc
330
1881
 90
        2
 70
     0
 71
     0
  1
AcDbOsnapPointRef
 72
     6
331
149E
 73
     0
 91
        0
 40
0.4999999999993918
 10
0.0
 20
0.0
 30
0.0
332
14BE
 74
     0
 92
        0
 75
     0
  0
DIMASSOC
  5
18C2
102
{ACAD_REACTORS
330
18C1
102
}
330
18C1
100
AcDbDimAssoc
330
18B4
 90
        3
 70
     0
 71
     0
  1
AcDbOsnapPointRef
 72
     6
331
14AC
 73
     0
 91
        0
 40
0.4999999999993114
 10
0.0
 20
0.0
 30
0.0
332
14FD
 74
     0
 92
        0
 75
     0
  1
AcDbOsnapPointRef
 72
     6
331
14B0
 73
     0
 91
        0
 40
0.4999999999993114
 10
0.0
 20
0.0
 30
0.0
332
14FD
 74
     0
 92
        0
 75
     0
  0
DIMASSOC
  5
18FA
102
{ACAD_REACTORS
330
18F9
102
}
330
18F9
100
AcDbDimAssoc
330
18F0
 90
        2
 70
     0
 71
     0
  1
AcDbOsnapPointRef
 72
     3
331
14AE
 73
     2
 91
        0
 40
0.0
 10
0.0
 20
0.0
 30
0.0
 75
     0
  0
DIMASSOC
  5
191A
102
{ACAD_REACTORS
330
1919
102
}
330
1919
100
AcDbDimAssoc
330
190D
 90
        2
 70
     0
 71
     0
  1
AcDbOsnapPointRef
 72
     3
331
14B8
 73
     2
 91
        0
 40
0.0
 10
0.0
 20
0.0
 30
0.0
 75
     0
  0
DIMASSOC
  5
193A
102
{ACAD_REACTORS
330
1939
102
}
330
1939
100
AcDbDimAssoc
330
192D
 90
        2
 70
     0
 71
     0
  1
AcDbOsnapPointRef
 72
     3
331
14B9
 73
     2
 91
        0
 40
0.0
 10
0.0
 20
0.0
 30
0.0
 75
     0
  0
ACDBDETAILVIEWSTYLE
  5
1AA2
102
{ACAD_XDICTIONARY
360
1AA7
102
}
102
{ACAD_REACTORS
330
19DA
330
1A84
102
}
330
1A84
100
AcDbModelDocViewStyle
 70
     0
  3

290
     0
100
AcDbDetailViewStyle
 70
     0
 71
     0
 90
        3
 71
     1
340
174
 62
    30
 40
0.24
340
1AAE
 62
     3
 40
0.24
300

 40
0.0
280
     2
 71
     2
340
13F
 90
       25
 62
   256
 71
     3
340
174
 62
    30
 40
0.24
 90
        1
 40
0.0
 90
        1
300
%<\AcVar ViewType \f "%tc1">% %<\AcVar ViewDetailId>%\PSCALE %<\AcVar ViewScale \f "%sn">%
 71
     4
340
64
 90
       25
 62
   256
340
13F
 90
       25
 62
   256
280
     0
  0
ACDBDETAILVIEWSTYLE
  5
1AB9
102
{ACAD_XDICTIONARY
360
1ABE
102
}
102
{ACAD_REACTORS
330
1A0C
330
1A84
102
}
330
1A84
100
AcDbModelDocViewStyle
 70
     0
  3

290
     0
100
AcDbDetailViewStyle
 70
     0
 71
     0
 90
        3
 71
     1
340
25A
 62
     7
 40
5.0
340
1ABA
 62
     3
 40
5.0
300

 40
0.0
280
     0
 71
     2
340
64
 90
       25
 62
   256
 71
     3
340
25A
 62
     7
 40
5.0
 90
        0
 40
0.0
 90
        1
300
%<\AcVar ViewDetailId>% %<\AcVar ViewScale \f "%sn">%
 71
     4
340
64
 90
       25
 62
   256
340
64
 90
       25
 62
   256
280
     2
  0
ACDBDETAILVIEWSTYLE
  5
1AC9
102
{ACAD_XDICTIONARY
360
1AE5
102
}
102
{ACAD_REACTORS
330
1A38
330
1A84
102
}
330
1A84
100
AcDbModelDocViewStyle
 70
     0
  3

290
     0
100
AcDbDetailViewStyle
 70
     0
 71
     0
 90
        3
 71
     1
340
3CB
 62
     7
 40
5.0
340
1ABA
 62
   256
 40
5.0
300

 40
0.0
280
     0
 71
     2
340
64
 90
       25
 62
   256
 71
     3
340
3CB
 62
     7
 40
5.0
 90
        0
 40
0.0
 90
        1
300
%<\AcVar ViewDetailId>% (%<\AcVar ViewScale \f "%sn">%)
 71
     4
340
64
 90
       25
 62
   256
340
64
 90
       25
 62
   256
280
     0
  0
ACDBDETAILVIEWSTYLE
  5
1A85
102
{ACAD_XDICTIONARY
360
1ADF
102
}
102
{ACAD_REACTORS
330
1A84
330
1A9D
330
1A9F
330
1AA1
102
}
330
1A84
100
AcDbModelDocViewStyle
 70
     0
  3
Metric50
290
     0
100
AcDbDetailViewStyle
 70
     0
 71
     0
 90
        3
 71
     1
340
5D
 62
   256
 40
5.0
340
0
 62
   256
 40
5.0
300

 40
0.0
280
     1
 71
     2
340
64
 90
       25
 62
   256
 71
     3
340
5D
 62
   256
 40
5.0
 90
        0
 40
15.0
 90
        1
300
%<\AcVar ViewDetailId>% (%<\AcVar ViewScale \f "%sn">%)
 71
     4
340
64
 90
       25
 62
   256
340
64
 90
       25
 62
   256
280
     0
  0
LAYOUT
  5
73
102
{ACAD_REACTORS
330
69
102
}
330
69
100
AcDbPlotSettings
  1

  2
\\OASE42\HP DesignJet 500 42+HPGL2 Card
  4

  6

 40
0.0
 41
0.0
 42
0.0
 43
0.0
 44
0.0
 45
0.0
 46
0.0
 47
0.0
 48
0.0
 49
0.0
140
0.0
141
0.0
142
1.0
143
1.0
 70
   688
 72
     0
 73
     0
 74
     5
  7
C:\Dokumente und Einstellungen\guzb562\Anwendungsdaten\Autodesk\Autodesk Mechanical Desktop 2008\R17.1\deu\Plot Styles\OASE.ctb
 75
    16
147
1.0
 76
     0
 77
     2
 78
   300
148
0.0
149
0.0
100
AcDbLayout
  1
Layout1
 70
     1
 71
     1
 10
0.0
 20
0.0
 11
12.0
 21
9.0
 12
0.0
 22
0.0
 32
0.0
 14
1.000000000000000E+20
 24
1.000000000000000E+20
 34
1.000000000000000E+20
 15
-1.000000000000000E+20
 25
-1.000000000000000E+20
 35
-1.000000000000000E+20
146
0.0
 13
0.0
 23
0.0
 33
0.0
 16
1.0
 26
0.0
 36
0.0
 17
0.0
 27
1.0
 37
0.0
 76
     0
330
70
  0
LAYOUT
  5
77
102
{ACAD_REACTORS
330
69
102
}
330
69
100
AcDbPlotSettings
  1

  2
HP DesignJet 500 42+HPGL2 Card.pc3
  4
User622
  6

 40
0.0
 41
0.0845947265625
 42
0.084716796875
 43
0.0
 44
841.0786743164063
 45
1189.05859375
 46
0.0
 47
0.0
 48
0.0
 49
0.0
140
0.0
141
0.0
142
1.0
143
8.825566186707652
 70
 11952
 72
     1
 73
     1
 74
     0
  7
C:\Dokumente und Einstellungen\guzb562\Anwendungsdaten\Autodesk\Autodesk Mechanical Desktop 2008\R17.1\deu\Plot Styles\OASE.ctb
 75
     0
147
0.1133071781282563
 76
     0
 77
     2
 78
   300
148
375.8176034259132
149
23.23337679269889
100
AcDbLayout
  1
Model
 70
     1
 71
     0
 10
0.0
 20
0.0
 11
12.0
 21
9.0
 12
0.0
 22
0.0
 32
0.0
 14
0.0
 24
0.0
 34
0.0
 15
0.0
 25
0.0
 35
0.0
146
0.0
 13
0.0
 23
0.0
 33
0.0
 16
1.0
 26
0.0
 36
0.0
 17
0.0
 27
1.0
 37
0.0
 76
     0
330
74
331
82
1001
ACAD_PSEXT
1000
HP DesignJet 500 42+HPGL2 Card.pc3
1000
HP DesignJet 500 42+HPGL2 Card
1000
\\oase42
1000

1070
     0
  0
MATERIAL
  5
19
102
{ACAD_XDICTIONARY
360
1A
102
}
102
{ACAD_REACTORS
330
10
102
}
330
10
100
AcDbMaterial
  1
ByBlock
 72
     0
 43
0.0208333333333333
 43
0.0
 43
0.0
 43
0.0
 43
0.0
 43
0.0208333333333333
 43
0.0
 43
0.0
 43
0.0
 43
0.0
 43
1.0
 43
0.0
 43
0.0
 43
0.0
 43
0.0
 43
1.0
 77
     0
 47
0.0208333333333333
 47
0.0
 47
0.0
 47
0.0
 47
0.0
 47
0.0208333333333333
 47
0.0
 47
0.0
 47
0.0
 47
0.0
 47
1.0
 47
0.0
 47
0.0
 47
0.0
 47
0.0
 47
1.0
171
     0
 49
0.0208333333333333
 49
0.0
 49
0.0
 49
0.0
 49
0.0
 49
0.0208333333333333
 49
0.0
 49
0.0
 49
0.0
 49
0.0
 49
1.0
 49
0.0
 49
0.0
 49
0.0
 49
0.0
 49
1.0
175
     0
142
0.0208333333333333
142
0.0
142
0.0
142
0.0
142
0.0
142
0.0208333333333333
142
0.0
142
0.0
142
0.0
142
0.0
142
1.0
142
0.0
142
0.0
142
0.0
142
0.0
142
1.0
179
     0
144
0.0208333333333333
144
0.0
144
0.0
144
0.0
144
0.0
144
0.0208333333333333
144
0.0
144
0.0
144
0.0
144
0.0
144
1.0
144
0.0
144
0.0
144
0.0
144
0.0
144
1.0
147
0.0208333333333333
147
0.0
147
0.0
147
0.0
147
0.0
147
0.0208333333333333
147
0.0
147
0.0
147
0.0
147
0.0
147
1.0
147
0.0
147
0.0
147
0.0
147
0.0
147
1.0
  0
MATERIAL
  5
11
102
{ACAD_XDICTIONARY
360
12
102
}
102
{ACAD_REACTORS
330
10
102
}
330
10
100
AcDbMaterial
  1
ByLayer
 72
     0
 43
0.0208333333333333
 43
0.0
 43
0.0
 43
0.0
 43
0.0
 43
0.0208333333333333
 43
0.0
 43
0.0
 43
0.0
 43
0.0
 43
1.0
 43
0.0
 43
0.0
 43
0.0
 43
0.0
 43
1.0
 77
     0
 47
0.0208333333333333
 47
0.0
 47
0.0
 47
0.0
 47
0.0
 47
0.0208333333333333
 47
0.0
 47
0.0
 47
0.0
 47
0.0
 47
1.0
 47
0.0
 47
0.0
 47
0.0
 47
0.0
 47
1.0
171
     0
 49
0.0208333333333333
 49
0.0
 49
0.0
 49
0.0
 49
0.0
 49
0.0208333333333333
 49
0.0
 49
0.0
 49
0.0
 49
0.0
 49
1.0
 49
0.0
 49
0.0
 49
0.0
 49
0.0
 49
1.0
175
     0
142
0.0208333333333333
142
0.0
142
0.0
142
0.0
142
0.0
142
0.0208333333333333
142
0.0
142
0.0
142
0.0
142
0.0
142
1.0
142
0.0
142
0.0
142
0.0
142
0.0
142
1.0
179
     0
144
0.0208333333333333
144
0.0
144
0.0
144
0.0
144
0.0
144
0.0208333333333333
144
0.0
144
0.0
144
0.0
144
0.0
144
1.0
144
0.0
144
0.0
144
0.0
144
0.0
144
1.0
147
0.0208333333333333
147
0.0
147
0.0
147
0.0
147
0.0
147
0.0208333333333333
147
0.0
147
0.0
147
0.0
147
0.0
147
1.0
147
0.0
147
0.0
147
0.0
147
0.0
147
1.0
  0
MATERIAL
  5
21
102
{ACAD_XDICTIONARY
360
22
102
}
102
{ACAD_REACTORS
330
10
102
}
330
10
100
AcDbMaterial
  1
Global
 72
     0
 43
0.0208333333333333
 43
0.0
 43
0.0
 43
0.0
 43
0.0
 43
0.0208333333333333
 43
0.0
 43
0.0
 43
0.0
 43
0.0
 43
1.0
 43
0.0
 43
0.0
 43
0.0
 43
0.0
 43
1.0
 77
     0
 47
0.0208333333333333
 47
0.0
 47
0.0
 47
0.0
 47
0.0
 47
0.0208333333333333
 47
0.0
 47
0.0
 47
0.0
 47
0.0
 47
1.0
 47
0.0
 47
0.0
 47
0.0
 47
0.0
 47
1.0
171
     0
 49
0.0208333333333333
 49
0.0
 49
0.0
 49
0.0
 49
0.0
 49
0.0208333333333333
 49
0.0
 49
0.0
 49
0.0
 49
0.0
 49
1.0
 49
0.0
 49
0.0
 49
0.0
 49
0.0
 49
1.0
175
     0
142
0.0208333333333333
142
0.0
142
0.0
142
0.0
142
0.0
142
0.0208333333333333
142
0.0
142
0.0
142
0.0
142
0.0
142
1.0
142
0.0
142
0.0
142
0.0
142
0.0
142
1.0
179
     0
144
0.0208333333333333
144
0.0
144
0.0
144
0.0
144
0.0
144
0.0208333333333333
144
0.0
144
0.0
144
0.0
144
0.0
144
1.0
144
0.0
144
0.0
144
0.0
144
0.0
144
1.0
147
0.0208333333333333
147
0.0
147
0.0
147
0.0
147
0.0
147
0.0208333333333333
147
0.0
147
0.0
147
0.0
147
0.0
147
1.0
147
0.0
147
0.0
147
0.0
147
0.0
147
1.0
  0
MLEADERSTYLE
  5
6E
102
{ACAD_REACTORS
330
6D
102
}
330
6D
100
AcDbMLeaderStyle
179
     2
170
     2
171
     1
172
     0
 90
        2
 40
0.0
 41
0.0
173
     1
 91
-1056964608
340
62
 92
       -2
290
     1
 42
0.09
291
     1
 43
0.36
  3
Standard
 44
0.18
300

342
5D
174
     1
178
     6
175
     1
176
     0
 93
-1056964608
 45
0.18
292
     0
297
     0
 46
0.18
 94
-1056964608
 47
1.0
 49
1.0
140
1.0
293
     1
141
0.0
294
     1
177
     0
142
1.0
295
     0
296
     0
143
0.125
271
     0
272
     9
273
     9
298
     0
  0
MLINESTYLE
  5
67
102
{ACAD_REACTORS
330
66
102
}
330
66
100
AcDbMlineStyle
  2
STANDARD
 70
     0
  3

 62
   256
 51
90.0
 52
90.0
 71
     2
 49
0.5
 62
   256
  6
BYLAYER
 49
-0.5
 62
   256
  6
BYLAYER
  0
ACDBPLACEHOLDER
  5
F
102
{ACAD_REACTORS
330
E
102
}
330
E
  0
SCALE
  5
3B
102
{ACAD_REACTORS
330
3A
102
}
330
3A
100
AcDbScale
 70
     0
300
1:1
140
1.0
141
1.0
290
     1
  0
SCALE
  5
3C
102
{ACAD_REACTORS
330
3A
102
}
330
3A
100
AcDbScale
 70
     0
300
1:2
140
1.0
141
2.0
290
     0
  0
SCALE
  5
3D
102
{ACAD_REACTORS
330
3A
102
}
330
3A
100
AcDbScale
 70
     0
300
1:4
140
1.0
141
4.0
290
     0
  0
SCALE
  5
3E
102
{ACAD_REACTORS
330
3A
102
}
330
3A
100
AcDbScale
 70
     0
300
1:5
140
1.0
141
5.0
290
     0
  0
SCALE
  5
3F
102
{ACAD_REACTORS
330
3A
102
}
330
3A
100
AcDbScale
 70
     0
300
1:8
140
1.0
141
8.0
290
     0
  0
SCALE
  5
40
102
{ACAD_REACTORS
330
3A
102
}
330
3A
100
AcDbScale
 70
     0
300
1:10
140
1.0
141
10.0
290
     0
  0
SCALE
  5
41
102
{ACAD_REACTORS
330
3A
102
}
330
3A
100
AcDbScale
 70
     0
300
1:16
140
1.0
141
16.0
290
     0
  0
SCALE
  5
42
102
{ACAD_REACTORS
330
3A
102
}
330
3A
100
AcDbScale
 70
     0
300
1:20
140
1.0
141
20.0
290
     0
  0
SCALE
  5
43
102
{ACAD_REACTORS
330
3A
102
}
330
3A
100
AcDbScale
 70
     0
300
1:30
140
1.0
141
30.0
290
     0
  0
SCALE
  5
44
102
{ACAD_REACTORS
330
3A
102
}
330
3A
100
AcDbScale
 70
     0
300
1:40
140
1.0
141
40.0
290
     0
  0
SCALE
  5
45
102
{ACAD_REACTORS
330
3A
102
}
330
3A
100
AcDbScale
 70
     0
300
1:50
140
1.0
141
50.0
290
     0
  0
SCALE
  5
46
102
{ACAD_REACTORS
330
3A
102
}
330
3A
100
AcDbScale
 70
     0
300
1:100
140
1.0
141
100.0
290
     0
  0
SCALE
  5
47
102
{ACAD_REACTORS
330
3A
102
}
330
3A
100
AcDbScale
 70
     0
300
2:1
140
2.0
141
1.0
290
     0
  0
SCALE
  5
48
102
{ACAD_REACTORS
330
3A
102
}
330
3A
100
AcDbScale
 70
     0
300
4:1
140
4.0
141
1.0
290
     0
  0
SCALE
  5
49
102
{ACAD_REACTORS
330
3A
102
}
330
3A
100
AcDbScale
 70
     0
300
8:1
140
8.0
141
1.0
290
     0
  0
SCALE
  5
4A
102
{ACAD_REACTORS
330
3A
102
}
330
3A
100
AcDbScale
 70
     0
300
10:1
140
10.0
141
1.0
290
     0
  0
SCALE
  5
4B
102
{ACAD_REACTORS
330
3A
102
}
330
3A
100
AcDbScale
 70
     0
300
100:1
140
100.0
141
1.0
290
     0
  0
SCALE
  5
4C
102
{ACAD_REACTORS
330
3A
102
}
330
3A
100
AcDbScale
 70
     0
300
1/128" = 1'-0"
140
0.0078125
141
12.0
290
     0
  0
SCALE
  5
4D
102
{ACAD_REACTORS
330
3A
102
}
330
3A
100
AcDbScale
 70
     0
300
1/64" = 1'-0"
140
0.015625
141
12.0
290
     0
  0
SCALE
  5
4E
102
{ACAD_REACTORS
330
3A
102
}
330
3A
100
AcDbScale
 70
     0
300
1/32" = 1'-0"
140
0.03125
141
12.0
290
     0
  0
SCALE
  5
4F
102
{ACAD_REACTORS
330
3A
102
}
330
3A
100
AcDbScale
 70
     0
300
1/16" = 1'-0"
140
0.0625
141
12.0
290
     0
  0
SCALE
  5
50
102
{ACAD_REACTORS
330
3A
102
}
330
3A
100
AcDbScale
 70
     0
300
3/32" = 1'-0"
140
0.09375
141
12.0
290
     0
  0
SCALE
  5
51
102
{ACAD_REACTORS
330
3A
102
}
330
3A
100
AcDbScale
 70
     0
300
1/8" = 1'-0"
140
0.125
141
12.0
290
     0
  0
SCALE
  5
52
102
{ACAD_REACTORS
330
3A
102
}
330
3A
100
AcDbScale
 70
     0
300
3/16" = 1'-0"
140
0.1875
141
12.0
290
     0
  0
SCALE
  5
53
102
{ACAD_REACTORS
330
3A
102
}
330
3A
100
AcDbScale
 70
     0
300
1/4" = 1'-0"
140
0.25
141
12.0
290
     0
  0
SCALE
  5
54
102
{ACAD_REACTORS
330
3A
102
}
330
3A
100
AcDbScale
 70
     0
300
3/8" = 1'-0"
140
0.375
141
12.0
290
     0
  0
SCALE
  5
55
102
{ACAD_REACTORS
330
3A
102
}
330
3A
100
AcDbScale
 70
     0
300
1/2" = 1'-0"
140
0.5
141
12.0
290
     0
  0
SCALE
  5
56
102
{ACAD_REACTORS
330
3A
102
}
330
3A
100
AcDbScale
 70
     0
300
3/4" = 1'-0"
140
0.75
141
12.0
290
     0
  0
SCALE
  5
57
102
{ACAD_REACTORS
330
3A
102
}
330
3A
100
AcDbScale
 70
     0
300
1" = 1'-0"
140
1.0
141
12.0
290
     0
  0
SCALE
  5
58
102
{ACAD_REACTORS
330
3A
102
}
330
3A
100
AcDbScale
 70
     0
300
1-1/2" = 1'-0"
140
1.5
141
12.0
290
     0
  0
SCALE
  5
59
102
{ACAD_REACTORS
330
3A
102
}
330
3A
100
AcDbScale
 70
     0
300
3" = 1'-0"
140
3.0
141
12.0
290
     0
  0
SCALE
  5
5A
102
{ACAD_REACTORS
330
3A
102
}
330
3A
100
AcDbScale
 70
     0
300
6" = 1'-0"
140
6.0
141
12.0
290
     0
  0
SCALE
  5
5B
102
{ACAD_REACTORS
330
3A
102
}
330
3A
100
AcDbScale
 70
     0
300
1'-0" = 1'-0"
140
12.0
141
12.0
290
     0
  0
ACDBSECTIONVIEWSTYLE
  5
1AB3
102
{ACAD_XDICTIONARY
360
1AB4
102
}
102
{ACAD_REACTORS
330
19DC
330
1A82
102
}
330
1A82
100
AcDbModelDocViewStyle
 70
     0
  3

290
     0
100
AcDbSectionViewStyle
 70
     0
 71
     0
 90
       78
 71
     1
340
174
 62
    30
 40
0.24
340
1AA3
340
1AA3
 62
     7
 40
0.24
300
I,O,Q,S,X,Z
 40
0.4
 90
        3
 40
0.12
 90
        1
 71
     2
340
13F
 90
       -1
 62
     7
340
13F
 90
       -1
 62
     7
 40
0.4
 40
0.0
 40
0.4
 71
     3
340
174
 62
    30
 40
0.24
 90
        0
 40
0.18
 90
        1
300
SECTION %<\AcVar ViewSectionStartId>%-%<\AcVar ViewSectionEndId>%
 71
     4
 62
   256
 62
   257
300
ANSI31
 40
1.0
 90
        0
290
     0
290
     0
 90
        6
 40
0.0
 40
1.570796326794896
 40
0.2617993877991494
 40
1.308996938995747
 40
-0.2617993877991494
 40
1.832595714594046
  0
ACDBSECTIONVIEWSTYLE
  5
1AC3
102
{ACAD_XDICTIONARY
360
1AC4
102
}
102
{ACAD_REACTORS
330
1A0E
330
1A82
102
}
330
1A82
100
AcDbModelDocViewStyle
 70
     0
  3

290
     0
100
AcDbSectionViewStyle
 70
     0
 71
     0
 90
      102
 71
     1
340
25A
 62
     7
 40
5.0
340
0
340
0
 62
     7
 40
5.0
300
I,O,Q,S,X,Z
 40
10.0
 90
        0
 40
2.5
 90
        0
 71
     2
340
64
 90
       -1
 62
     1
340
64
 90
       -1
 62
     7
 40
10.0
 40
5.0
 40
25.0
 71
     3
340
25A
 62
     7
 40
5.0
 90
        0
 40
0.27
 90
        1
300
%<\AcVar ViewSectionStartId>%-%<\AcVar ViewSectionEndId>%
 71
     4
 62
   256
 62
   257
300
ANSI31
 40
1.0
 90
        0
290
     0
290
     0
 90
        6
 40
0.0
 40
1.570796326794896
 40
0.2617993877991494
 40
1.308996938995747
 40
-0.2617993877991494
 40
1.832595714594046
  0
ACDBSECTIONVIEWSTYLE
  5
1ACA
102
{ACAD_XDICTIONARY
360
1ACB
102
}
102
{ACAD_REACTORS
330
1A39
330
1A82
102
}
330
1A82
100
AcDbModelDocViewStyle
 70
     0
  3

290
     0
100
AcDbSectionViewStyle
 70
     0
 71
     0
 90
      102
 71
     1
340
3CB
 62
     7
 40
5.0
340
1ABA
340
1ABA
 62
     7
 40
5.0
300
I,O,Q,S,X,Z
 40
10.0
 90
        0
 40
2.5
 90
        0
 71
     2
340
3C4
 90
       -1
 62
   256
340
3C4
 90
       -1
 62
     7
 40
10.0
 40
5.0
 40
10.0
 71
     3
340
3CB
 62
     7
 40
5.0
 90
        0
 40
5.25
 90
        1
300
%<\AcVar ViewSectionStartId>%-%<\AcVar ViewSectionEndId>%
 71
     4
 62
   256
 62
   257
300
ANSI31
 40
1.0
 90
        0
290
     0
290
     0
 90
        6
 40
0.0
 40
1.570796326794896
 40
0.2617993877991494
 40
1.308996938995747
 40
-0.2617993877991494
 40
1.832595714594046
  0
ACDBSECTIONVIEWSTYLE
  5
1A83
102
{ACAD_XDICTIONARY
360
1ADD
102
}
102
{ACAD_REACTORS
330
1A82
330
1A9C
330
1A9E
330
1AA0
102
}
330
1A82
100
AcDbModelDocViewStyle
 70
     0
  3
Metric50
290
     0
100
AcDbSectionViewStyle
 70
     0
 71
     0
 90
      102
 71
     1
340
5D
 62
   256
 40
5.0
340
0
340
0
 62
   256
 40
5.0
300
I, O, Q, S, X, Z
 40
10.0
 90
        0
 40
2.5
 90
        0
 71
     2
340
64
 90
       25
 62
   256
340
64
 90
       50
 62
   256
 40
5.0
 40
2.5
 40
5.0
 71
     3
340
5D
 62
   256
 40
5.0
 90
        0
 40
15.0
 90
        1
300
%<\AcVar ViewSectionStartId>%-%<\AcVar ViewSectionEndId>% (%<\AcVar ViewScale \f "%sn">%)
 71
     4
 62
   256
 62
   257
300
ANSI31
 40
1.0
 90
        0
290
     0
290
     0
 90
        6
 40
0.0
 40
1.570796326794896
 40
0.2617993877991494
 40
1.308996938995747
 40
-0.2617993877991494
 40
1.832595714594046
  0
TABLESTYLE
  5
6C
102
{ACAD_XDICTIONARY
360
1B2
102
}
102
{ACAD_REACTORS
330
6B
102
}
330
6B
100
AcDbTableStyle
280
     0
  3
Standard
 70
     0
 71
     0
 40
0.06
 41
0.06
280
     0
281
     0
  7
STANDARD
140
0.18
170
     2
 62
     0
 63
     7
283
     0
 90
      512
 91
        0
  1

274
    -2
284
     1
 64
     0
275
    -2
285
     1
 65
     0
276
    -2
286
     1
 66
     0
277
    -2
287
     1
 67
     0
278
    -2
288
     1
 68
     0
279
    -2
289
     1
 69
     0
  7
STANDARD
140
0.25
170
     5
 62
     0
 63
     7
283
     0
 90
      512
 91
        0
  1

274
    -2
284
     1
 64
     0
275
    -2
285
     1
 65
     0
276
    -2
286
     1
 66
     0
277
    -2
287
     1
 67
     0
278
    -2
288
     1
 68
     0
279
    -2
289
     1
 69
     0
  7
STANDARD
140
0.18
170
     5
 62
     0
 63
     7
283
     0
 90
      512
 91
        0
  1

274
    -2
284
     1
 64
     0
275
    -2
285
     1
 65
     0
276
    -2
286
     1
 66
     0
277
    -2
287
     1
 67
     0
278
    -2
288
     1
 68
     0
279
    -2
289
     1
 69
     0
  0
VISUALSTYLE
  5
2F
102
{ACAD_REACTORS
330
29
102
}
330
29
100
AcDbVisualStyle
  2
2dWireframe
 70
     4
177
     3
291
     0
 70
    58
 90
        0
176
     1
 90
        2
176
     1
 90
        0
176
     1
 90
        0
176
     1
 40
0.6
176
     1
 40
30.0
176
     1
 62
     7
176
     1
 90
        1
176
     1
 90
        4
176
     1
 62
     7
176
     1
 62
   257
176
     1
 90
        1
176
     1
 90
        1
176
     1
 40
1.0
176
     1
 90
        0
176
     1
 62
   257
176
     1
 40
1.0
176
     1
 90
        1
176
     1
 90
        6
176
     1
 90
        2
176
     1
 62
     7
176
     1
 90
        5
176
     1
 90
        0
176
     1
 90
        0
176
     1
290
     0
176
     1
 90
        1
176
     1
 40
0.0
176
     1
 90
        0
176
     1
290
     1
176
     1
290
     1
176
     1
290
     0
176
     1
290
     0
176
     1
290
     0
176
     1
290
     0
176
     1
290
     0
176
     1
290
     0
176
     1
290
     0
176
     1
 90
       50
176
     1
 40
0.0
176
     1
 40
1.0
176
     1
 90
        0
176
     1
 62
    18
420
        0
176
     1
 90
       50
176
     1
 90
        3
176
     1
 62
     5
420
      255
176
     1
290
     0
176
     1
 90
       50
176
     1
 90
       50
176
     1
 90
       50
176
     1
290
     0
176
     1
 90
       50
176
     1
 62
   256
176
     0
 40
1.0
176
     0
 90
        2
176
     1
  1
strokes_ogs.tif
176
     1
290
     0
176
     1
 40
1.0
176
     1
 40
1.0
176
     1
1001
ACAD
1000
AcDbSavedByObjectVersion
1070
     0
  0
VISUALSTYLE
  5
31
102
{ACAD_REACTORS
330
29
102
}
330
29
100
AcDbVisualStyle
  2
3D Hidden
 70
     6
177
     3
291
     0
 70
    58
 90
        1
176
     1
 90
        2
176
     1
 90
        2
176
     1
 90
        0
176
     1
 40
0.6
176
     1
 40
30.0
176
     1
 62
     7
176
     1
 90
        2
176
     1
 90
        2
176
     1
 62
     7
176
     1
 62
   257
176
     1
 90
        2
176
     1
 90
        1
176
     1
 40
40.0
176
     1
 90
        0
176
     1
 62
   257
176
     1
 40
1.0
176
     1
 90
        1
176
     1
 90
        6
176
     1
 90
        2
176
     1
 62
     7
176
     1
 90
        3
176
     1
 90
        0
176
     1
 90
        0
176
     1
290
     0
176
     1
 90
        1
176
     1
 40
0.0
176
     1
 90
        0
176
     1
290
     0
176
     1
290
     1
176
     1
290
     1
176
     1
290
     0
176
     1
290
     0
176
     1
290
     0
176
     1
290
     0
176
     1
290
     0
176
     1
290
     0
176
     1
 90
       50
176
     1
 40
0.0
176
     1
 40
1.0
176
     1
 90
        0
176
     1
 62
    18
420
        0
176
     1
 90
       50
176
     1
 90
        3
176
     1
 62
     5
420
      255
176
     1
290
     0
176
     1
 90
       50
176
     1
 90
       50
176
     1
 90
       50
176
     1
290
     0
176
     1
 90
       50
176
     1
 62
   256
176
     0
 40
1.0
176
     0
 90
        2
176
     1
  1
strokes_ogs.tif
176
     1
290
     0
176
     1
 40
1.0
176
     1
 40
1.0
176
     1
1001
ACAD
1000
AcDbSavedByObjectVersion
1070
     0
  0
VISUALSTYLE
  5
30
102
{ACAD_REACTORS
330
29
102
}
330
29
100
AcDbVisualStyle
  2
3dWireframe
 70
     5
177
     3
291
     0
 70
    58
 90
        0
176
     1
 90
        2
176
     1
 90
        0
176
     1
 90
        0
176
     1
 40
0.6
176
     1
 40
30.0
176
     1
 62
     7
176
     1
 90
        1
176
     1
 90
        4
176
     1
 62
     7
176
     1
 62
   257
176
     1
 90
        1
176
     1
 90
        1
176
     1
 40
1.0
176
     1
 90
        0
176
     1
 62
   257
176
     1
 40
1.0
176
     1
 90
        1
176
     1
 90
        6
176
     1
 90
        2
176
     1
 62
     7
176
     1
 90
        5
176
     1
 90
        0
176
     1
 90
        0
176
     1
290
     0
176
     1
 90
        1
176
     1
 40
0.0
176
     1
 90
        0
176
     1
290
     0
176
     1
290
     1
176
     1
290
     1
176
     1
290
     0
176
     1
290
     0
176
     1
290
     0
176
     1
290
     0
176
     1
290
     0
176
     1
290
     0
176
     1
 90
       50
176
     1
 40
0.0
176
     1
 40
1.0
176
     1
 90
        0
176
     1
 62
    18
420
        0
176
     1
 90
       50
176
     1
 90
        3
176
     1
 62
     5
420
      255
176
     1
290
     0
176
     1
 90
       50
176
     1
 90
       50
176
     1
 90
       50
176
     1
290
     0
176
     1
 90
       50
176
     1
 62
   256
176
     0
 40
1.0
176
     0
 90
        2
176
     1
  1
strokes_ogs.tif
176
     1
290
     0
176
     1
 40
1.0
176
     1
 40
1.0
176
     1
1001
ACAD
1000
AcDbSavedByObjectVersion
1070
     0
  0
VISUALSTYLE
  5
2E
102
{ACAD_REACTORS
330
29
102
}
330
29
100
AcDbVisualStyle
  2
Basic
 70
     7
177
     3
291
     1
 70
    58
 90
        1
176
     1
 90
        0
176
     1
 90
        1
176
     1
 90
        0
176
     1
 40
0.6
176
     1
 40
30.0
176
     1
 62
     7
176
     1
 90
        0
176
     1
 90
        4
176
     1
 62
     7
176
     1
 62
   257
176
     1
 90
        1
176
     1
 90
        1
176
     1
 40
1.0
176
     1
 90
        8
176
     1
 62
     7
176
     1
 40
1.0
176
     1
 90
        1
176
     1
 90
        6
176
     1
 90
        2
176
     1
 62
     7
176
     1
 90
        5
176
     1
 90
        0
176
     1
 90
        0
176
     1
290
     0
176
     1
 90
        1
176
     1
 40
0.0
176
     1
 90
        0
176
     1
290
     0
176
     1
290
     1
176
     1
290
     1
176
     1
290
     0
176
     1
290
     0
176
     1
290
     0
176
     1
290
     0
176
     1
290
     0
176
     1
290
     0
176
     1
 90
       50
176
     1
 40
0.0
176
     1
 40
1.0
176
     1
 90
        0
176
     1
 62
    18
420
        0
176
     1
 90
       50
176
     1
 90
        3
176
     1
 62
     5
420
      255
176
     1
290
     0
176
     1
 90
       50
176
     1
 90
       50
176
     1
 90
       50
176
     1
290
     0
176
     1
 90
       50
176
     1
 62
   256
176
     0
 40
1.0
176
     0
 90
        2
176
     1
  1
strokes_ogs.tif
176
     1
290
     0
176
     1
 40
1.0
176
     1
 40
1.0
176
     1
1001
ACAD
1000
AcDbSavedByObjectVersion
1070
     0
  0
VISUALSTYLE
  5
35
102
{ACAD_REACTORS
330
29
102
}
330
29
100
AcDbVisualStyle
  2
Brighten
 70
    12
177
     3
291
     1
 70
    58
 90
        2
176
     1
 90
        2
176
     1
 90
        0
176
     1
 90
        0
176
     1
 40
0.6
176
     1
 40
30.0
176
     1
 62
     7
176
     1
 90
        1
176
     1
 90
        4
176
     1
 62
     7
176
     1
 62
   257
176
     1
 90
        1
176
     1
 90
        1
176
     1
 40
1.0
176
     1
 90
        8
176
     1
 62
     7
176
     1
 40
1.0
176
     1
 90
        1
176
     1
 90
        6
176
     1
 90
        2
176
     1
 62
     7
176
     1
 90
        5
176
     1
 90
        0
176
     1
 90
        0
176
     1
290
     0
176
     1
 90
        1
176
     1
 40
50.0
176
     1
 90
        0
176
     1
290
     0
176
     1
290
     1
176
     1
290
     1
176
     1
290
     0
176
     1
290
     0
176
     1
290
     0
176
     1
290
     0
176
     1
290
     0
176
     1
290
     0
176
     1
 90
       50
176
     1
 40
0.0
176
     1
 40
1.0
176
     1
 90
        0
176
     1
 62
    18
420
        0
176
     1
 90
       50
176
     1
 90
        3
176
     1
 62
     5
420
      255
176
     1
290
     0
176
     1
 90
       50
176
     1
 90
       50
176
     1
 90
       50
176
     1
290
     0
176
     1
 90
       50
176
     1
 62
   256
176
     0
 40
1.0
176
     0
 90
        2
176
     1
  1
strokes_ogs.tif
176
     1
290
     0
176
     1
 40
1.0
176
     1
 40
1.0
176
     1
1001
ACAD
1000
AcDbSavedByObjectVersion
1070
     0
  0
VISUALSTYLE
  5
39
102
{ACAD_REACTORS
330
29
102
}
330
29
100
AcDbVisualStyle
  2
ColorChange
 70
    16
177
     3
291
     1
 70
    58
 90
        2
176
     1
 90
        2
176
     1
 90
        3
176
     1
 90
        0
176
     1
 40
0.6
176
     1
 40
30.0
176
     1
 62
     8
176
     1
 90
        1
176
     1
 90
        4
176
     1
 62
     7
176
     1
 62
   257
176
     1
 90
        1
176
     1
 90
        1
176
     1
 40
1.0
176
     1
 90
        8
176
     1
 62
     8
176
     1
 40
1.0
176
     1
 90
        1
176
     1
 90
        6
176
     1
 90
        2
176
     1
 62
     7
176
     1
 90
        5
176
     1
 90
        0
176
     1
 90
        0
176
     1
290
     0
176
     1
 90
        1
176
     1
 40
0.0
176
     1
 90
        0
176
     1
290
     0
176
     1
290
     1
176
     1
290
     1
176
     1
290
     0
176
     1
290
     0
176
     1
290
     0
176
     1
290
     0
176
     1
290
     0
176
     1
290
     0
176
     1
 90
       50
176
     1
 40
0.0
176
     1
 40
1.0
176
     1
 90
        0
176
     1
 62
    18
420
        0
176
     1
 90
       50
176
     1
 90
        3
176
     1
 62
     5
420
      255
176
     1
290
     0
176
     1
 90
       50
176
     1
 90
       50
176
     1
 90
       50
176
     1
290
     0
176
     1
 90
       50
176
     1
 62
   256
176
     0
 40
1.0
176
     0
 90
        2
176
     1
  1
strokes_ogs.tif
176
     1
290
     0
176
     1
 40
1.0
176
     1
 40
1.0
176
     1
1001
ACAD
1000
AcDbSavedByObjectVersion
1070
     0
  0
VISUALSTYLE
  5
32
102
{ACAD_REACTORS
330
29
102
}
330
29
100
AcDbVisualStyle
  2
Conceptual
 70
     9
177
     3
291
     0
 70
    58
 90
        3
176
     1
 90
        2
176
     1
 90
        0
176
     1
 90
        0
176
     1
 40
0.6
176
     1
 40
30.0
176
     1
 62
     7
176
     1
 90
        2
176
     1
 90
        2
176
     1
 62
     7
176
     1
 62
   257
176
     1
 90
        1
176
     1
 90
        1
176
     1
 40
40.0
176
     1
 90
        8
176
     1
 62
     7
176
     1
 40
1.0
176
     1
 90
        1
176
     1
 90
        6
176
     1
 90
        2
176
     1
 62
     7
176
     1
 90
        3
176
     1
 90
        0
176
     1
 90
        0
176
     1
290
     0
176
     1
 90
        1
176
     1
 40
0.0
176
     1
 90
        0
176
     1
290
     0
176
     1
290
     1
176
     1
290
     1
176
     1
290
     0
176
     1
290
     0
176
     1
290
     0
176
     1
290
     0
176
     1
290
     0
176
     1
290
     0
176
     1
 90
       50
176
     1
 40
0.0
176
     1
 40
1.0
176
     1
 90
        0
176
     1
 62
    18
420
        0
176
     1
 90
       50
176
     1
 90
        3
176
     1
 62
     5
420
      255
176
     1
290
     0
176
     1
 90
       50
176
     1
 90
       50
176
     1
 90
       50
176
     1
290
     0
176
     1
 90
       50
176
     1
 62
   256
176
     0
 40
1.0
176
     0
 90
        2
176
     1
  1
strokes_ogs.tif
176
     1
290
     0
176
     1
 40
1.0
176
     1
 40
1.0
176
     1
1001
ACAD
1000
AcDbSavedByObjectVersion
1070
     0
  0
VISUALSTYLE
  5
34
102
{ACAD_REACTORS
330
29
102
}
330
29
100
AcDbVisualStyle
  2
Dim
 70
    11
177
     3
291
     1
 70
    58
 90
        2
176
     1
 90
        2
176
     1
 90
        0
176
     1
 90
        0
176
     1
 40
0.6
176
     1
 40
30.0
176
     1
 62
     7
176
     1
 90
        1
176
     1
 90
        4
176
     1
 62
     7
176
     1
 62
   257
176
     1
 90
        1
176
     1
 90
        1
176
     1
 40
1.0
176
     1
 90
        8
176
     1
 62
     7
176
     1
 40
1.0
176
     1
 90
        1
176
     1
 90
        6
176
     1
 90
        2
176
     1
 62
     7
176
     1
 90
        5
176
     1
 90
        0
176
     1
 90
        0
176
     1
290
     0
176
     1
 90
        1
176
     1
 40
-50.0
176
     1
 90
        0
176
     1
290
     0
176
     1
290
     1
176
     1
290
     1
176
     1
290
     0
176
     1
290
     0
176
     1
290
     0
176
     1
290
     0
176
     1
290
     0
176
     1
290
     0
176
     1
 90
       50
176
     1
 40
0.0
176
     1
 40
1.0
176
     1
 90
        0
176
     1
 62
    18
420
        0
176
     1
 90
       50
176
     1
 90
        3
176
     1
 62
     5
420
      255
176
     1
290
     0
176
     1
 90
       50
176
     1
 90
       50
176
     1
 90
       50
176
     1
290
     0
176
     1
 90
       50
176
     1
 62
   256
176
     0
 40
1.0
176
     0
 90
        2
176
     1
  1
strokes_ogs.tif
176
     1
290
     0
176
     1
 40
1.0
176
     1
 40
1.0
176
     1
1001
ACAD
1000
AcDbSavedByObjectVersion
1070
     0
  0
VISUALSTYLE
  5
1A81
102
{ACAD_REACTORS
330
29
102
}
330
29
100
AcDbVisualStyle
  2
EdgeColorOff
 70
    22
177
     3
291
     1
 70
    58
 90
        2
176
     0
 90
        2
176
     0
 90
        0
176
     0
 90
        0
176
     0
 40
0.6
176
     0
 40
30.0
176
     0
 62
     7
420
 16777215
176
     0
 90
        1
176
     0
 90
        4
176
     0
 62
     7
176
     0
 62
   257
176
     0
 90
        1
176
     0
 90
        1
176
     0
 40
1.0
176
     0
 90
        8
176
     2
 62
     7
176
     0
 40
1.0
176
     0
 90
        1
176
     0
 90
        6
176
     0
 90
        2
176
     0
 62
     7
176
     0
 90
        5
176
     0
 90
        0
176
     0
 90
        0
176
     0
290
     0
176
     0
 90
        1
176
     0
 40
0.0
176
     0
 90
        0
176
     0
290
     0
176
     0
290
     1
176
     0
290
     1
176
     0
290
     0
176
     0
290
     0
176
     0
290
     0
176
     0
290
     0
176
     0
290
     0
176
     0
290
     0
176
     0
 90
       50
176
     0
 40
0.0
176
     0
 40
1.0
176
     0
 90
        0
176
     0
 62
    18
420
        0
176
     0
 90
       50
176
     0
 90
        3
176
     0
 62
     5
420
      255
176
     0
290
     0
176
     0
 90
       50
176
     0
 90
       50
176
     0
 90
       50
176
     0
290
     0
176
     0
 90
       50
176
     0
 62
   256
176
     0
 40
1.0
176
     0
 90
        2
176
     0
  1
strokes_ogs.tif
176
     0
290
     0
176
     0
 40
1.0
176
     0
 40
1.0
176
     0
  0
VISUALSTYLE
  5
38
102
{ACAD_REACTORS
330
29
102
}
330
29
100
AcDbVisualStyle
  2
Facepattern
 70
    15
177
     3
291
     1
 70
    58
 90
        2
176
     1
 90
        2
176
     1
 90
        0
176
     1
 90
        0
176
     1
 40
0.6
176
     1
 40
30.0
176
     1
 62
     7
176
     1
 90
        1
176
     1
 90
        4
176
     1
 62
     7
176
     1
 62
   257
176
     1
 90
        1
176
     1
 90
        1
176
     1
 40
1.0
176
     1
 90
        8
176
     1
 62
     7
176
     1
 40
1.0
176
     1
 90
        1
176
     1
 90
        6
176
     1
 90
        2
176
     1
 62
     7
176
     1
 90
        5
176
     1
 90
        0
176
     1
 90
        0
176
     1
290
     0
176
     1
 90
        1
176
     1
 40
0.0
176
     1
 90
        0
176
     1
290
     0
176
     1
290
     1
176
     1
290
     1
176
     1
290
     0
176
     1
290
     0
176
     1
290
     0
176
     1
290
     0
176
     1
290
     0
176
     1
290
     0
176
     1
 90
       50
176
     1
 40
0.0
176
     1
 40
1.0
176
     1
 90
        0
176
     1
 62
    18
420
        0
176
     1
 90
       50
176
     1
 90
        3
176
     1
 62
     5
420
      255
176
     1
290
     0
176
     1
 90
       50
176
     1
 90
       50
176
     1
 90
       50
176
     1
290
     0
176
     1
 90
       50
176
     1
 62
   256
176
     0
 40
1.0
176
     0
 90
        2
176
     1
  1
strokes_ogs.tif
176
     1
290
     0
176
     1
 40
1.0
176
     1
 40
1.0
176
     1
1001
ACAD
1000
AcDbSavedByObjectVersion
1070
     0
  0
VISUALSTYLE
  5
2A
102
{ACAD_REACTORS
330
29
102
}
330
29
100
AcDbVisualStyle
  2
Flat
 70
     0
177
     3
291
     1
 70
    58
 90
        2
176
     1
 90
        1
176
     1
 90
        1
176
     1
 90
        2
176
     1
 40
0.6
176
     1
 40
30.0
176
     1
 62
     7
176
     1
 90
        0
176
     1
 90
        4
176
     1
 62
     7
176
     1
 62
   257
176
     1
 90
        1
176
     1
 90
        1
176
     1
 40
1.0
176
     1
 90
        8
176
     1
 62
     7
176
     1
 40
1.0
176
     1
 90
        1
176
     1
 90
        6
176
     1
 90
        2
176
     1
 62
     7
176
     1
 90
        5
176
     1
 90
        0
176
     1
 90
        0
176
     1
290
     0
176
     1
 90
       13
176
     1
 40
0.0
176
     1
 90
        0
176
     1
290
     0
176
     1
290
     1
176
     1
290
     1
176
     1
290
     0
176
     1
290
     0
176
     1
290
     0
176
     1
290
     0
176
     1
290
     0
176
     1
290
     0
176
     1
 90
       50
176
     1
 40
0.0
176
     1
 40
1.0
176
     1
 90
        0
176
     1
 62
    18
420
        0
176
     1
 90
       50
176
     1
 90
        3
176
     1
 62
     5
420
      255
176
     1
290
     0
176
     1
 90
       50
176
     1
 90
       50
176
     1
 90
       50
176
     1
290
     0
176
     1
 90
       50
176
     1
 62
   256
176
     0
 40
1.0
176
     0
 90
        2
176
     1
  1
strokes_ogs.tif
176
     1
290
     0
176
     1
 40
1.0
176
     1
 40
1.0
176
     1
1001
ACAD
1000
AcDbSavedByObjectVersion
1070
     0
  0
VISUALSTYLE
  5
2B
102
{ACAD_REACTORS
330
29
102
}
330
29
100
AcDbVisualStyle
  2
FlatWithEdges
 70
     1
177
     3
291
     1
 70
    58
 90
        2
176
     1
 90
        1
176
     1
 90
        1
176
     1
 90
        2
176
     1
 40
0.6
176
     1
 40
30.0
176
     1
 62
     7
176
     1
 90
        1
176
     1
 90
        4
176
     1
 62
     7
176
     1
 62
   257
176
     1
 90
        1
176
     1
 90
        1
176
     1
 40
1.0
176
     1
 90
        0
176
     1
 62
   257
176
     1
 40
1.0
176
     1
 90
        1
176
     1
 90
        6
176
     1
 90
        2
176
     1
 62
     7
176
     1
 90
        5
176
     1
 90
        0
176
     1
 90
        0
176
     1
290
     0
176
     1
 90
       13
176
     1
 40
0.0
176
     1
 90
        0
176
     1
290
     0
176
     1
290
     1
176
     1
290
     1
176
     1
290
     0
176
     1
290
     0
176
     1
290
     0
176
     1
290
     0
176
     1
290
     0
176
     1
290
     0
176
     1
 90
       50
176
     1
 40
0.0
176
     1
 40
1.0
176
     1
 90
        0
176
     1
 62
    18
420
        0
176
     1
 90
       50
176
     1
 90
        3
176
     1
 62
     5
420
      255
176
     1
290
     0
176
     1
 90
       50
176
     1
 90
       50
176
     1
 90
       50
176
     1
290
     0
176
     1
 90
       50
176
     1
 62
   256
176
     0
 40
1.0
176
     0
 90
        2
176
     1
  1
strokes_ogs.tif
176
     1
290
     0
176
     1
 40
1.0
176
     1
 40
1.0
176
     1
1001
ACAD
1000
AcDbSavedByObjectVersion
1070
     0
  0
VISUALSTYLE
  5
2C
102
{ACAD_REACTORS
330
29
102
}
330
29
100
AcDbVisualStyle
  2
Gouraud
 70
     2
177
     3
291
     1
 70
    58
 90
        2
176
     1
 90
        2
176
     1
 90
        1
176
     1
 90
        2
176
     1
 40
0.6
176
     1
 40
30.0
176
     1
 62
     7
176
     1
 90
        0
176
     1
 90
        4
176
     1
 62
     7
176
     1
 62
   257
176
     1
 90
        1
176
     1
 90
        1
176
     1
 40
1.0
176
     1
 90
        0
176
     1
 62
     7
176
     1
 40
1.0
176
     1
 90
        1
176
     1
 90
        6
176
     1
 90
        2
176
     1
 62
     7
176
     1
 90
        5
176
     1
 90
        0
176
     1
 90
        0
176
     1
290
     0
176
     1
 90
       13
176
     1
 40
0.0
176
     1
 90
        0
176
     1
290
     0
176
     1
290
     1
176
     1
290
     1
176
     1
290
     0
176
     1
290
     0
176
     1
290
     0
176
     1
290
     0
176
     1
290
     0
176
     1
290
     0
176
     1
 90
       50
176
     1
 40
0.0
176
     1
 40
1.0
176
     1
 90
        0
176
     1
 62
    18
420
        0
176
     1
 90
       50
176
     1
 90
        3
176
     1
 62
     5
420
      255
176
     1
290
     0
176
     1
 90
       50
176
     1
 90
       50
176
     1
 90
       50
176
     1
290
     0
176
     1
 90
       50
176
     1
 62
   256
176
     0
 40
1.0
176
     0
 90
        2
176
     1
  1
strokes_ogs.tif
176
     1
290
     0
176
     1
 40
1.0
176
     1
 40
1.0
176
     1
1001
ACAD
1000
AcDbSavedByObjectVersion
1070
     0
  0
VISUALSTYLE
  5
2D
102
{ACAD_REACTORS
330
29
102
}
330
29
100
AcDbVisualStyle
  2
GouraudWithEdges
 70
     3
177
     3
291
     1
 70
    58
 90
        2
176
     1
 90
        2
176
     1
 90
        1
176
     1
 90
        2
176
     1
 40
0.6
176
     1
 40
30.0
176
     1
 62
     7
176
     1
 90
        1
176
     1
 90
        4
176
     1
 62
     7
176
     1
 62
   257
176
     1
 90
        1
176
     1
 90
        1
176
     1
 40
1.0
176
     1
 90
        0
176
     1
 62
   257
176
     1
 40
1.0
176
     1
 90
        1
176
     1
 90
        6
176
     1
 90
        2
176
     1
 62
     7
176
     1
 90
        5
176
     1
 90
        0
176
     1
 90
        0
176
     1
290
     0
176
     1
 90
       13
176
     1
 40
0.0
176
     1
 90
        0
176
     1
290
     0
176
     1
290
     1
176
     1
290
     1
176
     1
290
     0
176
     1
290
     0
176
     1
290
     0
176
     1
290
     0
176
     1
290
     0
176
     1
290
     0
176
     1
 90
       50
176
     1
 40
0.0
176
     1
 40
1.0
176
     1
 90
        0
176
     1
 62
    18
420
        0
176
     1
 90
       50
176
     1
 90
        3
176
     1
 62
     5
420
      255
176
     1
290
     0
176
     1
 90
       50
176
     1
 90
       50
176
     1
 90
       50
176
     1
290
     0
176
     1
 90
       50
176
     1
 62
   256
176
     0
 40
1.0
176
     0
 90
        2
176
     1
  1
strokes_ogs.tif
176
     1
290
     0
176
     1
 40
1.0
176
     1
 40
1.0
176
     1
1001
ACAD
1000
AcDbSavedByObjectVersion
1070
     0
  0
VISUALSTYLE
  5
1A79
102
{ACAD_REACTORS
330
29
102
}
330
29
100
AcDbVisualStyle
  2
Hidden
 70
     6
177
     3
291
     0
 70
    58
 90
        1
176
     1
 90
        2
176
     1
 90
        2
176
     1
 90
        0
176
     1
 40
0.6
176
     1
 40
30.0
176
     1
 62
     7
420
 16777215
176
     1
 90
        2
176
     1
 90
        2
176
     1
 62
     7
176
     1
 62
   257
176
     1
 90
        2
176
     1
 90
        1
176
     1
 40
40.0
176
     1
 90
        0
176
     1
 62
   257
176
     1
 40
1.0
176
     1
 90
        1
176
     1
 90
        6
176
     1
 90
        2
176
     1
 62
     7
176
     1
 90
        3
176
     1
 90
        0
176
     1
 90
        0
176
     1
290
     0
176
     1
 90
        1
176
     1
 40
0.0
176
     1
 90
        0
176
     1
290
     0
176
     1
290
     1
176
     1
290
     1
176
     1
290
     0
176
     1
290
     0
176
     1
290
     0
176
     1
290
     0
176
     1
290
     0
176
     1
290
     0
176
     1
 90
       50
176
     1
 40
0.0
176
     1
 40
1.0
176
     1
 90
        0
176
     1
 62
    18
420
        0
176
     1
 90
       50
176
     1
 90
        3
176
     1
 62
     5
420
      255
176
     1
290
     0
176
     1
 90
       50
176
     1
 90
       50
176
     1
 90
       50
176
     1
290
     0
176
     1
 90
       50
176
     1
 62
   256
176
     0
 40
1.0
176
     0
 90
        2
176
     1
  1
strokes_ogs.tif
176
     1
290
     0
176
     1
 40
1.0
176
     1
 40
1.0
176
     1
  0
VISUALSTYLE
  5
1A7F
102
{ACAD_REACTORS
330
29
102
}
330
29
100
AcDbVisualStyle
  2
JitterOff
 70
    20
177
     3
291
     1
 70
    58
 90
        2
176
     0
 90
        2
176
     0
 90
        0
176
     0
 90
        0
176
     0
 40
0.6
176
     0
 40
30.0
176
     0
 62
     7
420
 16777215
176
     0
 90
        1
176
     0
 90
        4
176
     0
 62
     7
176
     0
 62
   257
176
     0
 90
        1
176
     0
 90
        1
176
     0
 40
1.0
176
     0
 90
       10
176
     2
 62
     7
176
     0
 40
1.0
176
     0
 90
        1
176
     0
 90
        6
176
     0
 90
        2
176
     0
 62
     7
176
     0
 90
        5
176
     0
 90
        0
176
     0
 90
        0
176
     0
290
     0
176
     0
 90
        1
176
     0
 40
0.0
176
     0
 90
        0
176
     0
290
     0
176
     0
290
     1
176
     0
290
     1
176
     0
290
     0
176
     0
290
     0
176
     0
290
     0
176
     0
290
     0
176
     0
290
     0
176
     0
290
     0
176
     0
 90
       50
176
     0
 40
0.0
176
     0
 40
1.0
176
     0
 90
        0
176
     0
 62
    18
420
        0
176
     0
 90
       50
176
     0
 90
        3
176
     0
 62
     5
420
      255
176
     0
290
     0
176
     0
 90
       50
176
     0
 90
       50
176
     0
 90
       50
176
     0
290
     0
176
     0
 90
       50
176
     0
 62
   256
176
     0
 40
1.0
176
     0
 90
        2
176
     0
  1
strokes_ogs.tif
176
     0
290
     0
176
     0
 40
1.0
176
     0
 40
1.0
176
     0
  0
VISUALSTYLE
  5
37
102
{ACAD_REACTORS
330
29
102
}
330
29
100
AcDbVisualStyle
  2
Linepattern
 70
    14
177
     3
291
     1
 70
    58
 90
        2
176
     1
 90
        2
176
     1
 90
        0
176
     1
 90
        0
176
     1
 40
0.6
176
     1
 40
30.0
176
     1
 62
     7
176
     1
 90
        1
176
     1
 90
        4
176
     1
 62
     7
176
     1
 62
   257
176
     1
 90
        7
176
     1
 90
        7
176
     1
 40
1.0
176
     1
 90
        8
176
     1
 62
     7
176
     1
 40
1.0
176
     1
 90
        1
176
     1
 90
        6
176
     1
 90
        2
176
     1
 62
     7
176
     1
 90
        5
176
     1
 90
        0
176
     1
 90
        0
176
     1
290
     0
176
     1
 90
        1
176
     1
 40
0.0
176
     1
 90
        0
176
     1
290
     0
176
     1
290
     1
176
     1
290
     1
176
     1
290
     0
176
     1
290
     0
176
     1
290
     0
176
     1
290
     0
176
     1
290
     0
176
     1
290
     0
176
     1
 90
       50
176
     1
 40
0.0
176
     1
 40
1.0
176
     1
 90
        0
176
     1
 62
    18
420
        0
176
     1
 90
       50
176
     1
 90
        3
176
     1
 62
     5
420
      255
176
     1
290
     0
176
     1
 90
       50
176
     1
 90
       50
176
     1
 90
       50
176
     1
290
     0
176
     1
 90
       50
176
     1
 62
   256
176
     0
 40
1.0
176
     0
 90
        2
176
     1
  1
strokes_ogs.tif
176
     1
290
     0
176
     1
 40
1.0
176
     1
 40
1.0
176
     1
1001
ACAD
1000
AcDbSavedByObjectVersion
1070
     0
  0
VISUALSTYLE
  5
1A80
102
{ACAD_REACTORS
330
29
102
}
330
29
100
AcDbVisualStyle
  2
OverhangOff
 70
    21
177
     3
291
     1
 70
    58
 90
        2
176
     0
 90
        2
176
     0
 90
        0
176
     0
 90
        0
176
     0
 40
0.6
176
     0
 40
30.0
176
     0
 62
     7
420
 16777215
176
     0
 90
        1
176
     0
 90
        4
176
     0
 62
     7
176
     0
 62
   257
176
     0
 90
        1
176
     0
 90
        1
176
     0
 40
1.0
176
     0
 90
        9
176
     2
 62
     7
176
     0
 40
1.0
176
     0
 90
        1
176
     0
 90
        6
176
     0
 90
        2
176
     0
 62
     7
176
     0
 90
        5
176
     0
 90
        0
176
     0
 90
        0
176
     0
290
     0
176
     0
 90
        1
176
     0
 40
0.0
176
     0
 90
        0
176
     0
290
     0
176
     0
290
     1
176
     0
290
     1
176
     0
290
     0
176
     0
290
     0
176
     0
290
     0
176
     0
290
     0
176
     0
290
     0
176
     0
290
     0
176
     0
 90
       50
176
     0
 40
0.0
176
     0
 40
1.0
176
     0
 90
        0
176
     0
 62
    18
420
        0
176
     0
 90
       50
176
     0
 90
        3
176
     0
 62
     5
420
      255
176
     0
290
     0
176
     0
 90
       50
176
     0
 90
       50
176
     0
 90
       50
176
     0
290
     0
176
     0
 90
       50
176
     0
 62
   256
176
     0
 40
1.0
176
     0
 90
        2
176
     0
  1
strokes_ogs.tif
176
     0
290
     0
176
     0
 40
1.0
176
     0
 40
1.0
176
     0
  0
VISUALSTYLE
  5
33
102
{ACAD_REACTORS
330
29
102
}
330
29
100
AcDbVisualStyle
  2
Realistic
 70
     8
177
     3
291
     0
 70
    58
 90
        2
176
     1
 90
        2
176
     1
 90
        0
176
     1
 90
        0
176
     1
 40
0.6
176
     1
 40
30.0
176
     1
 62
     7
176
     1
 90
        1
176
     1
 90
        0
176
     1
 62
     7
176
     1
 62
   257
176
     1
 90
        1
176
     1
 90
        1
176
     1
 40
1.0
176
     1
 90
        8
176
     1
 62
     8
176
     1
 40
1.0
176
     1
 90
        1
176
     1
 90
        6
176
     1
 90
        2
176
     1
 62
     7
176
     1
 90
        5
176
     1
 90
        0
176
     1
 90
        0
176
     1
290
     0
176
     1
 90
       13
176
     1
 40
0.0
176
     1
 90
        0
176
     1
290
     0
176
     1
290
     1
176
     1
290
     1
176
     1
290
     0
176
     1
290
     0
176
     1
290
     0
176
     1
290
     0
176
     1
290
     0
176
     1
290
     0
176
     1
 90
       50
176
     1
 40
0.0
176
     1
 40
1.0
176
     1
 90
        0
176
     1
 62
    18
420
        0
176
     1
 90
       50
176
     1
 90
        3
176
     1
 62
     5
420
      255
176
     1
290
     0
176
     1
 90
       50
176
     1
 90
       50
176
     1
 90
       50
176
     1
290
     0
176
     1
 90
       50
176
     1
 62
   256
176
     0
 40
1.0
176
     0
 90
        2
176
     1
  1
strokes_ogs.tif
176
     1
290
     0
176
     1
 40
1.0
176
     1
 40
1.0
176
     1
1001
ACAD
1000
AcDbSavedByObjectVersion
1070
     0
  0
VISUALSTYLE
  5
1A7E
102
{ACAD_REACTORS
330
29
102
}
330
29
100
AcDbVisualStyle
  2
Shaded
 70
    27
177
     3
291
     0
 70
    58
 90
        2
176
     1
 90
        2
176
     1
 90
        1
176
     1
 90
        2
176
     1
 40
0.6
176
     1
 40
30.0
176
     1
 62
     7
420
 16777215
176
     1
 90
        0
176
     1
 90
        4
176
     1
 62
     7
176
     1
 62
   257
176
     1
 90
        1
176
     1
 90
        1
176
     1
 40
1.0
176
     1
 90
        8
176
     1
 62
   257
176
     1
 40
1.0
176
     1
 90
        1
176
     1
 90
        6
176
     1
 90
        2
176
     1
 62
     8
420
  7895160
176
     1
 90
        3
176
     1
 90
        0
176
     1
 90
        0
176
     1
290
     0
176
     1
 90
        5
176
     1
 40
0.0
176
     1
 90
        0
176
     1
290
     0
176
     1
290
     1
176
     1
290
     1
176
     1
290
     0
176
     1
290
     0
176
     1
290
     0
176
     1
290
     0
176
     1
290
     0
176
     1
290
     0
176
     1
 90
       50
176
     1
 40
0.0
176
     1
 40
1.0
176
     1
 90
        0
176
     1
 62
    18
420
        0
176
     1
 90
       50
176
     1
 90
        3
176
     1
 62
     5
420
      255
176
     1
290
     0
176
     1
 90
       50
176
     1
 90
       50
176
     1
 90
       50
176
     1
290
     0
176
     1
 90
       50
176
     1
 62
   256
176
     0
 40
1.0
176
     0
 90
        2
176
     1
  1
strokes_ogs.tif
176
     1
290
     0
176
     1
 40
1.0
176
     1
 40
1.0
176
     1
  0
VISUALSTYLE
  5
1A7D
102
{ACAD_REACTORS
330
29
102
}
330
29
100
AcDbVisualStyle
  2
Shaded with edges
 70
    26
177
     3
291
     0
 70
    58
 90
        2
176
     1
 90
        2
176
     1
 90
        1
176
     1
 90
        2
176
     1
 40
0.6
176
     1
 40
30.0
176
     1
 62
     7
420
 16777215
176
     1
 90
        1
176
     1
 90
       10
176
     1
 62
     7
176
     1
 62
   257
176
     1
 90
        2
176
     1
 90
        1
176
     1
 40
1.0
176
     1
 90
        8
176
     1
 62
   257
176
     1
 40
1.0
176
     1
 90
        1
176
     1
 90
        6
176
     1
 90
        2
176
     1
 62
     7
176
     1
 90
        3
176
     1
 90
        0
176
     1
 90
        0
176
     1
290
     0
176
     1
 90
        5
176
     1
 40
0.0
176
     1
 90
        0
176
     1
290
     0
176
     1
290
     1
176
     1
290
     1
176
     1
290
     0
176
     1
290
     0
176
     1
290
     0
176
     1
290
     0
176
     1
290
     0
176
     1
290
     0
176
     1
 90
       50
176
     1
 40
0.0
176
     1
 40
1.0
176
     1
 90
        0
176
     1
 62
    18
420
        0
176
     1
 90
       50
176
     1
 90
        3
176
     1
 62
     5
420
      255
176
     1
290
     0
176
     1
 90
       50
176
     1
 90
       50
176
     1
 90
       50
176
     1
290
     0
176
     1
 90
       50
176
     1
 62
   256
176
     0
 40
1.0
176
     0
 90
        2
176
     1
  1
strokes_ogs.tif
176
     1
290
     0
176
     1
 40
1.0
176
     1
 40
1.0
176
     1
  0
VISUALSTYLE
  5
1A7A
102
{ACAD_REACTORS
330
29
102
}
330
29
100
AcDbVisualStyle
  2
Shades of Gray
 70
    23
177
     3
291
     0
 70
    58
 90
        2
176
     1
 90
        2
176
     1
 90
        3
176
     1
 90
        0
176
     1
 40
0.6
176
     1
 40
30.0
176
     1
 62
     7
420
 16777215
176
     1
 90
        2
176
     1
 90
        2
176
     1
 62
     7
176
     1
 62
     7
176
     1
 90
        1
176
     1
 90
        1
176
     1
 40
40.0
176
     1
 90
        8
176
     1
 62
     7
176
     1
 40
1.0
176
     1
 90
        1
176
     1
 90
        6
176
     1
 90
        2
176
     1
 62
     7
176
     1
 90
        3
176
     1
 90
        0
176
     1
 90
        0
176
     1
290
     0
176
     1
 90
        1
176
     1
 40
0.0
176
     1
 90
        0
176
     1
290
     0
176
     1
290
     1
176
     1
290
     1
176
     1
290
     0
176
     1
290
     0
176
     1
290
     0
176
     1
290
     0
176
     1
290
     0
176
     1
290
     0
176
     1
 90
       50
176
     1
 40
0.0
176
     1
 40
1.0
176
     1
 90
        0
176
     1
 62
    18
420
        0
176
     1
 90
       50
176
     1
 90
        3
176
     1
 62
     5
420
      255
176
     1
290
     0
176
     1
 90
       50
176
     1
 90
       50
176
     1
 90
       50
176
     1
290
     0
176
     1
 90
       50
176
     1
 62
   256
176
     0
 40
1.0
176
     0
 90
        2
176
     1
  1
strokes_ogs.tif
176
     1
290
     0
176
     1
 40
1.0
176
     1
 40
1.0
176
     1
  0
VISUALSTYLE
  5
1A7B
102
{ACAD_REACTORS
330
29
102
}
330
29
100
AcDbVisualStyle
  2
Sketchy
 70
    24
177
     3
291
     0
 70
    58
 90
        1
176
     1
 90
        2
176
     1
 90
        2
176
     1
 90
        0
176
     1
 40
0.6
176
     1
 40
30.0
176
     1
 62
     7
420
 16777215
176
     1
 90
        2
176
     1
 90
        2
176
     1
 62
     7
176
     1
 62
     7
176
     1
 90
        1
176
     1
 90
        1
176
     1
 40
40.0
176
     1
 90
       11
176
     1
 62
     7
176
     1
 40
1.0
176
     1
 90
        1
176
     1
 90
        6
176
     1
 90
        2
176
     1
 62
     7
176
     1
 90
        6
176
     1
 90
        0
176
     1
 90
        0
176
     1
290
     0
176
     1
 90
        1
176
     1
 40
0.0
176
     1
 90
        0
176
     1
290
     0
176
     1
290
     1
176
     1
290
     1
176
     1
290
     0
176
     1
290
     0
176
     1
290
     0
176
     1
290
     0
176
     1
290
     0
176
     1
290
     0
176
     1
 90
       50
176
     1
 40
0.0
176
     1
 40
1.0
176
     1
 90
        0
176
     1
 62
    18
420
        0
176
     1
 90
       50
176
     1
 90
        3
176
     1
 62
     5
420
      255
176
     1
290
     0
176
     1
 90
       50
176
     1
 90
       50
176
     1
 90
       50
176
     1
290
     0
176
     1
 90
       50
176
     1
 62
   256
176
     0
 40
1.0
176
     0
 90
        2
176
     1
  1
strokes_ogs.tif
176
     1
290
     0
176
     1
 40
1.0
176
     1
 40
1.0
176
     1
  0
VISUALSTYLE
  5
36
102
{ACAD_REACTORS
330
29
102
}
330
29
100
AcDbVisualStyle
  2
Thicken
 70
    13
177
     3
291
     1
 70
    58
 90
        2
176
     1
 90
        2
176
     1
 90
        0
176
     1
 90
        0
176
     1
 40
0.6
176
     1
 40
30.0
176
     1
 62
     7
176
     1
 90
        1
176
     1
 90
        4
176
     1
 62
     7
176
     1
 62
   257
176
     1
 90
        1
176
     1
 90
        1
176
     1
 40
1.0
176
     1
 90
       12
176
     1
 62
     7
176
     1
 40
1.0
176
     1
 90
        1
176
     1
 90
        6
176
     1
 90
        2
176
     1
 62
     7
176
     1
 90
        5
176
     1
 90
        0
176
     1
 90
        0
176
     1
290
     0
176
     1
 90
        1
176
     1
 40
0.0
176
     1
 90
        0
176
     1
290
     0
176
     1
290
     1
176
     1
290
     1
176
     1
290
     0
176
     1
290
     0
176
     1
290
     0
176
     1
290
     0
176
     1
290
     0
176
     1
290
     0
176
     1
 90
       50
176
     1
 40
0.0
176
     1
 40
1.0
176
     1
 90
        0
176
     1
 62
    18
420
        0
176
     1
 90
       50
176
     1
 90
        3
176
     1
 62
     5
420
      255
176
     1
290
     0
176
     1
 90
       50
176
     1
 90
       50
176
     1
 90
       50
176
     1
290
     0
176
     1
 90
       50
176
     1
 62
   256
176
     0
 40
1.0
176
     0
 90
        2
176
     1
  1
strokes_ogs.tif
176
     1
290
     0
176
     1
 40
1.0
176
     1
 40
1.0
176
     1
1001
ACAD
1000
AcDbSavedByObjectVersion
1070
     0
  0
VISUALSTYLE
  5
1A78
102
{ACAD_REACTORS
330
29
102
}
330
29
100
AcDbVisualStyle
  2
Wireframe
 70
     5
177
     3
291
     0
 70
    58
 90
        0
176
     1
 90
        2
176
     1
 90
        0
176
     1
 90
        0
176
     1
 40
0.6
176
     1
 40
30.0
176
     1
 62
     7
420
 16777215
176
     1
 90
        1
176
     1
 90
        4
176
     1
 62
     7
176
     1
 62
   257
176
     1
 90
        1
176
     1
 90
        1
176
     1
 40
1.0
176
     1
 90
        0
176
     1
 62
   257
176
     1
 40
1.0
176
     1
 90
        1
176
     1
 90
        6
176
     1
 90
        2
176
     1
 62
     7
176
     1
 90
        3
176
     1
 90
        0
176
     1
 90
        0
176
     1
290
     0
176
     1
 90
        1
176
     1
 40
0.0
176
     1
 90
        0
176
     1
290
     0
176
     1
290
     1
176
     1
290
     1
176
     1
290
     0
176
     1
290
     0
176
     1
290
     0
176
     1
290
     0
176
     1
290
     0
176
     1
290
     0
176
     1
 90
       50
176
     1
 40
0.0
176
     1
 40
1.0
176
     1
 90
        0
176
     1
 62
    18
420
        0
176
     1
 90
       50
176
     1
 90
        3
176
     1
 62
     5
420
      255
176
     1
290
     0
176
     1
 90
       50
176
     1
 90
       50
176
     1
 90
       50
176
     1
290
     0
176
     1
 90
       50
176
     1
 62
   256
176
     0
 40
1.0
176
     0
 90
        2
176
     1
  1
strokes_ogs.tif
176
     1
290
     0
176
     1
 40
1.0
176
     1
 40
1.0
176
     1
  0
VISUALSTYLE
  5
1A7C
102
{ACAD_REACTORS
330
29
102
}
330
29
100
AcDbVisualStyle
  2
X-Ray
 70
    25
177
     3
291
     0
 70
    58
 90
        2
176
     1
 90
        2
176
     1
 90
        1
176
     1
 90
        1
176
     1
 40
0.5
176
     1
 40
30.0
176
     1
 62
     7
420
 16777215
176
     1
 90
        1
176
     1
 90
        0
176
     1
 62
     7
176
     1
 62
   257
176
     1
 90
        1
176
     1
 90
        1
176
     1
 40
1.0
176
     1
 90
        8
176
     1
 62
     7
176
     1
 40
1.0
176
     1
 90
        1
176
     1
 90
        6
176
     1
 90
        2
176
     1
 62
     7
176
     1
 90
        3
176
     1
 90
        0
176
     1
 90
        0
176
     1
290
     0
176
     1
 90
       13
176
     1
 40
0.0
176
     1
 90
        0
176
     1
290
     0
176
     1
290
     1
176
     1
290
     1
176
     1
290
     0
176
     1
290
     0
176
     1
290
     0
176
     1
290
     0
176
     1
290
     0
176
     1
290
     0
176
     1
 90
       50
176
     1
 40
0.0
176
     1
 40
1.0
176
     1
 90
        0
176
     1
 62
    18
420
        0
176
     1
 90
       50
176
     1
 90
        3
176
     1
 62
     5
420
      255
176
     1
290
     0
176
     1
 90
       50
176
     1
 90
       50
176
     1
 90
       50
176
     1
290
     0
176
     1
 90
       50
176
     1
 62
   256
176
     0
 40
1.0
176
     0
 90
        2
176
     1
  1
strokes_ogs.tif
176
     1
290
     0
176
     1
 40
1.0
176
     1
 40
1.0
176
     1
  0
DICTIONARYVAR
  5
1CC
102
{ACAD_REACTORS
330
1C9
102
}
330
1C9
100
DictionaryVariables
280
     0
  1
1:2
  0
DICTIONARYVAR
  5
1CB
102
{ACAD_REACTORS
330
1C9
102
}
330
1C9
100
DictionaryVariables
280
     0
  1
STANDARD
  0
DICTIONARYVAR
  5
1CA
102
{ACAD_REACTORS
330
1C9
102
}
330
1C9
100
DictionaryVariables
280
     0
  1
STANDARD
  0
DICTIONARYVAR
  5
1AD8
102
{ACAD_REACTORS
330
1C9
102
}
330
1C9
100
DictionaryVariables
280
     0
  1
DIN 6
  0
DICTIONARYVAR
  5
1AD9
102
{ACAD_REACTORS
330
1C9
102
}
330
1C9
100
DictionaryVariables
280
     0
  1
DIN ISO 128-40_2002-05
  0
DICTIONARYVAR
  5
1CF
102
{ACAD_REACTORS
330
1C9
102
}
330
1C9
100
DictionaryVariables
280
     0
  1
1
  0
DICTIONARYVAR
  5
1CE
102
{ACAD_REACTORS
330
1C9
102
}
330
1C9
100
DictionaryVariables
280
     0
  1
0
  0
DICTIONARYVAR
  5
1ADA
102
{ACAD_REACTORS
330
1C9
102
}
330
1C9
100
DictionaryVariables
280
     0
  1
1
  0
DICTIONARYVAR
  5
1ADB
102
{ACAD_REACTORS
330
1C9
102
}
330
1C9
100
DictionaryVariables
280
     0
  1
15
  0
DICTIONARYVAR
  5
2D3
102
{ACAD_REACTORS
330
1C9
102
}
330
1C9
100
DictionaryVariables
280
     0
  1
0
  0
DICTIONARYVAR
  5
2D2
102
{ACAD_REACTORS
330
1C9
102
}
330
1C9
100
DictionaryVariables
280
     0
  1
0
  0
DICTIONARYVAR
  5
1CD
102
{ACAD_REACTORS
330
1C9
102
}
330
1C9
100
DictionaryVariables
280
     0
  1
127
  0
DICTIONARY
  5
2B6
102
{ACAD_REACTORS
330
166
102
}
330
166
100
AcDbDictionary
281
     1
  3
*A1
350
1A73
  0
ACMDATADICTIONARY
  5
1A6A
102
{ACAD_REACTORS
330
166
102
}
330
166
100
AcDbDictionary
281
     1
  3
*A1
350
1A72
100
AcmDataDictionary
  0
DICTIONARY
  5
171
102
{ACAD_REACTORS
330
166
102
}
330
166
100
AcDbDictionary
281
     1
  3
ANSI
350
19CF
  3
DIN
350
1A00
  3
ISO
350
1A2B
  0
XRECORD
  5
186
102
{ACAD_REACTORS
330
166
102
}
330
166
100
AcDbXrecord
280
     1
 90
-1023410169
  0
DICTIONARY
  5
1993
102
{ACAD_REACTORS
330
10C
102
}
330
10C
100
AcDbDictionary
281
     1
  3
DWGSETTINGS
350
1996
  3
TRANSSETTINGS
350
199A
  0
XRECORD
  5
1972
102
{ACAD_REACTORS
330
1971
102
}
330
1971
100
AcDbXrecord
280
     1
  0
DICTIONARY
  5
1AA7
330
1AA2
100
AcDbDictionary
280
     1
281
     1
  3
ACAD_FIELD
360
1AA8
  3
ACAD_XREC_ROUNDTRIP
360
1AE1
  0
DICTIONARY
  5
1ABE
330
1AB9
100
AcDbDictionary
280
     1
281
     1
  3
ACAD_FIELD
360
1ABF
  3
ACAD_XREC_ROUNDTRIP
360
1AE3
  0
DICTIONARY
  5
1AE5
330
1AC9
100
AcDbDictionary
280
     1
281
     1
  3
ACAD_XREC_ROUNDTRIP
360
1AE6
  0
DICTIONARY
  5
1ADF
330
1A85
100
AcDbDictionary
280
     1
281
     1
  3
ACAD_XREC_ROUNDTRIP
360
1AE0
  0
DICTIONARY
  5
1A
330
19
100
AcDbDictionary
280
     1
281
     1
  3
ACAD_XREC_ROUNDTRIP
360
1731
  3
BUMPTILE
360
1C
  3
DIFFUSETILE
360
1B
  3
OPACITYTILE
360
1F
  3
REFLECTIONTILE
360
1E
  3
REFRACTIONTILE
360
20
  3
SPECULARTILE
360
1D
  0
DICTIONARY
  5
12
330
11
100
AcDbDictionary
280
     1
281
     1
  3
ACAD_XREC_ROUNDTRIP
360
1730
  3
BUMPTILE
360
14
  3
DIFFUSETILE
360
13
  3
OPACITYTILE
360
17
  3
REFLECTIONTILE
360
16
  3
REFRACTIONTILE
360
18
  3
SPECULARTILE
360
15
  0
DICTIONARY
  5
22
330
21
100
AcDbDictionary
280
     1
281
     1
  3
ACAD_XREC_ROUNDTRIP
360
1732
  3
BUMPTILE
360
24
  3
DIFFUSETILE
360
23
  3
OPACITYTILE
360
27
  3
REFLECTIONTILE
360
26
  3
REFRACTIONTILE
360
28
  3
SPECULARTILE
360
25
  0
DICTIONARY
  5
1AB4
330
1AB3
100
AcDbDictionary
280
     1
281
     1
  3
ACAD_FIELD
360
1AB5
  3
ACAD_XREC_ROUNDTRIP
360
1AE2
  0
DICTIONARY
  5
1AC4
330
1AC3
100
AcDbDictionary
280
     1
281
     1
  3
ACAD_FIELD
360
1AC5
  3
ACAD_XREC_ROUNDTRIP
360
1AE4
  0
DICTIONARY
  5
1ACB
330
1ACA
100
AcDbDictionary
280
     1
281
     1
  3
ACAD_FIELD
360
1ACC
  3
ACAD_XREC_ROUNDTRIP
360
1AE7
  0
DICTIONARY
  5
1ADD
330
1A83
100
AcDbDictionary
280
     1
281
     1
  3
ACAD_XREC_ROUNDTRIP
360
1ADE
  0
DICTIONARY
  5
1B2
330
6C
100
AcDbDictionary
280
     1
281
     1
  3
ACAD_ROUNDTRIP_2008_TABLESTYLE_CELLSTYLEMAP
360
1ADC
  0
ACMDATAENTRYBLOCK
  5
1A72
102
{ACAD_REACTORS
330
1A6A
102
}
330
1A6A
100
AcmDataEntry
100
AcmDataEntryBlock
  0
DICTIONARY
  5
1AA8
102
{ACAD_REACTORS
330
1AA7
102
}
330
1AA7
100
AcDbDictionary
280
     1
281
     1
  3
TEXT
360
1AA9
  0
XRECORD
  5
1AE1
102
{ACAD_REACTORS
330
1AA7
102
}
330
1AA7
100
AcDbXrecord
280
     1
102
DISPLAYNAME
  1
ASME Y14.35 - 1987
102
FLAGS
 90
        1
  0
DICTIONARY
  5
1ABF
102
{ACAD_REACTORS
330
1ABE
102
}
330
1ABE
100
AcDbDictionary
280
     1
281
     1
  3
TEXT
360
1AC0
  0
XRECORD
  5
1AE3
102
{ACAD_REACTORS
330
1ABE
102
}
330
1ABE
100
AcDbXrecord
280
     1
102
DISPLAYNAME
  1
DIN 6
102
FLAGS
 90
        1
  0
XRECORD
  5
1AE6
102
{ACAD_REACTORS
330
1AE5
102
}
330
1AE5
100
AcDbXrecord
280
     1
102
DISPLAYNAME
  1
ISO 128-34:2001
102
FLAGS
 90
        1
  0
XRECORD
  5
1AE0
102
{ACAD_REACTORS
330
1ADF
102
}
330
1ADF
100
AcDbXrecord
280
     1
102
DISPLAYNAME
  1
Metric50
102
FLAGS
 90
        0
  0
XRECORD
  5
1731
102
{ACAD_REACTORS
330
1A
102
}
330
1A
100
AcDbXrecord
280
     1
102
MATERIAL
148
0.0
149
0.0
149
0.0
 93
        0
 94
      127
282
     0
 72
     0
 77
     0
171
     0
175
     0
179
     0
273
     0
  0
XRECORD
  5
1C
102
{ACAD_REACTORS
330
1A
102
}
330
1A
100
AcDbXrecord
280
     1
270
     1
271
     1
  0
XRECORD
  5
1B
102
{ACAD_REACTORS
330
1A
102
}
330
1A
100
AcDbXrecord
280
     1
270
     1
271
     1
  0
XRECORD
  5
1F
102
{ACAD_REACTORS
330
1A
102
}
330
1A
100
AcDbXrecord
280
     1
270
     1
271
     1
  0
XRECORD
  5
1E
102
{ACAD_REACTORS
330
1A
102
}
330
1A
100
AcDbXrecord
280
     1
270
     1
271
     1
  0
XRECORD
  5
20
102
{ACAD_REACTORS
330
1A
102
}
330
1A
100
AcDbXrecord
280
     1
270
     1
271
     1
  0
XRECORD
  5
1D
102
{ACAD_REACTORS
330
1A
102
}
330
1A
100
AcDbXrecord
280
     1
270
     1
271
     1
  0
XRECORD
  5
1730
102
{ACAD_REACTORS
330
12
102
}
330
12
100
AcDbXrecord
280
     1
102
MATERIAL
148
0.0
149
0.0
149
0.0
 93
        0
 94
      127
282
     0
 72
     0
 77
     0
171
     0
175
     0
179
     0
273
     0
  0
XRECORD
  5
14
102
{ACAD_REACTORS
330
12
102
}
330
12
100
AcDbXrecord
280
     1
270
     1
271
     1
  0
XRECORD
  5
13
102
{ACAD_REACTORS
330
12
102
}
330
12
100
AcDbXrecord
280
     1
270
     1
271
     1
  0
XRECORD
  5
17
102
{ACAD_REACTORS
330
12
102
}
330
12
100
AcDbXrecord
280
     1
270
     1
271
     1
  0
XRECORD
  5
16
102
{ACAD_REACTORS
330
12
102
}
330
12
100
AcDbXrecord
280
     1
270
     1
271
     1
  0
XRECORD
  5
18
102
{ACAD_REACTORS
330
12
102
}
330
12
100
AcDbXrecord
280
     1
270
     1
271
     1
  0
XRECORD
  5
15
102
{ACAD_REACTORS
330
12
102
}
330
12
100
AcDbXrecord
280
     1
270
     1
271
     1
  0
XRECORD
  5
1732
102
{ACAD_REACTORS
330
22
102
}
330
22
100
AcDbXrecord
280
     1
102
MATERIAL
148
0.0
149
0.0
149
0.0
 93
        0
 94
      127
282
     0
 72
     0
 77
     0
171
     0
175
     0
179
     0
273
     0
  0
XRECORD
  5
24
102
{ACAD_REACTORS
330
22
102
}
330
22
100
AcDbXrecord
280
     1
270
     1
271
     1
  0
XRECORD
  5
23
102
{ACAD_REACTORS
330
22
102
}
330
22
100
AcDbXrecord
280
     1
270
     1
271
     1
  0
XRECORD
  5
27
102
{ACAD_REACTORS
330
22
102
}
330
22
100
AcDbXrecord
280
     1
270
     1
271
     1
  0
XRECORD
  5
26
102
{ACAD_REACTORS
330
22
102
}
330
22
100
AcDbXrecord
280
     1
270
     1
271
     1
  0
XRECORD
  5
28
102
{ACAD_REACTORS
330
22
102
}
330
22
100
AcDbXrecord
280
     1
270
     1
271
     1
  0
XRECORD
  5
25
102
{ACAD_REACTORS
330
22
102
}
330
22
100
AcDbXrecord
280
     1
270
     1
271
     1
  0
DICTIONARY
  5
1AB5
102
{ACAD_REACTORS
330
1AB4
102
}
330
1AB4
100
AcDbDictionary
280
     1
281
     1
  3
TEXT
360
1AB6
  0
XRECORD
  5
1AE2
102
{ACAD_REACTORS
330
1AB4
102
}
330
1AB4
100
AcDbXrecord
280
     1
102
DISPLAYNAME
  1
ASME Y14.3 - 2003
102
FLAGS
 90
        1
  0
DICTIONARY
  5
1AC5
102
{ACAD_REACTORS
330
1AC4
102
}
330
1AC4
100
AcDbDictionary
280
     1
281
     1
  3
TEXT
360
1AC6
  0
XRECORD
  5
1AE4
102
{ACAD_REACTORS
330
1AC4
102
}
330
1AC4
100
AcDbXrecord
280
     1
102
DISPLAYNAME
  1
DIN ISO 128-40:2002-05
102
FLAGS
 90
        1
  0
DICTIONARY
  5
1ACC
102
{ACAD_REACTORS
330
1ACB
102
}
330
1ACB
100
AcDbDictionary
280
     1
281
     1
  3
TEXT
360
1ACD
  0
XRECORD
  5
1AE7
102
{ACAD_REACTORS
330
1ACB
102
}
330
1ACB
100
AcDbXrecord
280
     1
102
DISPLAYNAME
  1
ISO 128-40:2001(E)
102
FLAGS
 90
        1
  0
XRECORD
  5
1ADE
102
{ACAD_REACTORS
330
1ADD
102
}
330
1ADD
100
AcDbXrecord
280
     1
102
DISPLAYNAME
  1
Metric50
102
FLAGS
 90
        0
  0
CELLSTYLEMAP
  5
1ADC
102
{ACAD_REACTORS
330
1B2
102
}
330
1B2
100
AcDbCellStyleMap
 90
        3
300
CELLSTYLE
  1
TABLEFORMAT_BEGIN
 90
        5
170
     1
 91
        0
 92
    32768
 62
   257
 93
        1
300
CONTENTFORMAT
  1
CONTENTFORMAT_BEGIN
 90
        0
 91
        0
 92
      512
 93
        0
300

 40
0.0
140
1.0
 94
        5
 62
     0
340
5D
144
0.25
309
CONTENTFORMAT_END
171
     1
301
MARGIN
  1
CELLMARGIN_BEGIN
 40
0.06
 40
0.06
 40
0.06
 40
0.06
 40
0.18
 40
0.18
309
CELLMARGIN_END
 94
        6
 95
        1
302
GRIDFORMAT
  1
GRIDFORMAT_BEGIN
 90
        0
 91
        1
 62
     0
 92
       -2
340
0
 93
        0
 40
0.045
309
GRIDFORMAT_END
 95
        2
302
GRIDFORMAT
  1
GRIDFORMAT_BEGIN
 90
        0
 91
        1
 62
     0
 92
       -2
340
0
 93
        0
 40
0.045
309
GRIDFORMAT_END
 95
        4
302
GRIDFORMAT
  1
GRIDFORMAT_BEGIN
 90
        0
 91
        1
 62
     0
 92
       -2
340
0
 93
        0
 40
0.045
309
GRIDFORMAT_END
 95
        8
302
GRIDFORMAT
  1
GRIDFORMAT_BEGIN
 90
        0
 91
        1
 62
     0
 92
       -2
340
0
 93
        0
 40
0.045
309
GRIDFORMAT_END
 95
       16
302
GRIDFORMAT
  1
GRIDFORMAT_BEGIN
 90
        0
 91
        1
 62
     0
 92
       -2
340
0
 93
        0
 40
0.045
309
GRIDFORMAT_END
 95
       32
302
GRIDFORMAT
  1
GRIDFORMAT_BEGIN
 90
        0
 91
        1
 62
     0
 92
       -2
340
0
 93
        0
 40
0.045
309
GRIDFORMAT_END
309
TABLEFORMAT_END
  1
CELLSTYLE_BEGIN
 90
        1
 91
        1
300
_TITLE
309
CELLSTYLE_END
300
CELLSTYLE
  1
TABLEFORMAT_BEGIN
 90
        5
170
     1
 91
        0
 92
        0
 62
   257
 93
        1
300
CONTENTFORMAT
  1
CONTENTFORMAT_BEGIN
 90
        0
 91
        0
 92
      512
 93
        0
300

 40
0.0
140
1.0
 94
        5
 62
     0
340
5D
144
0.18
309
CONTENTFORMAT_END
171
     1
301
MARGIN
  1
CELLMARGIN_BEGIN
 40
0.06
 40
0.06
 40
0.06
 40
0.06
 40
0.18
 40
0.18
309
CELLMARGIN_END
 94
        6
 95
        1
302
GRIDFORMAT
  1
GRIDFORMAT_BEGIN
 90
        0
 91
        1
 62
     0
 92
       -2
340
0
 93
        0
 40
0.045
309
GRIDFORMAT_END
 95
        2
302
GRIDFORMAT
  1
GRIDFORMAT_BEGIN
 90
        0
 91
        1
 62
     0
 92
       -2
340
0
 93
        0
 40
0.045
309
GRIDFORMAT_END
 95
        4
302
GRIDFORMAT
  1
GRIDFORMAT_BEGIN
 90
        0
 91
        1
 62
     0
 92
       -2
340
0
 93
        0
 40
0.045
309
GRIDFORMAT_END
 95
        8
302
GRIDFORMAT
  1
GRIDFORMAT_BEGIN
 90
        0
 91
        1
 62
     0
 92
       -2
340
0
 93
        0
 40
0.045
309
GRIDFORMAT_END
 95
       16
302
GRIDFORMAT
  1
GRIDFORMAT_BEGIN
 90
        0
 91
        1
 62
     0
 92
       -2
340
0
 93
        0
 40
0.045
309
GRIDFORMAT_END
 95
       32
302
GRIDFORMAT
  1
GRIDFORMAT_BEGIN
 90
        0
 91
        1
 62
     0
 92
       -2
340
0
 93
        0
 40
0.045
309
GRIDFORMAT_END
309
TABLEFORMAT_END
  1
CELLSTYLE_BEGIN
 90
        2
 91
        1
300
_HEADER
309
CELLSTYLE_END
300
CELLSTYLE
  1
TABLEFORMAT_BEGIN
 90
        5
170
     1
 91
        0
 92
        0
 62
   257
 93
        1
300
CONTENTFORMAT
  1
CONTENTFORMAT_BEGIN
 90
        0
 91
        0
 92
      512
 93
        0
300

 40
0.0
140
1.0
 94
        2
 62
     0
340
5D
144
0.18
309
CONTENTFORMAT_END
171
     1
301
MARGIN
  1
CELLMARGIN_BEGIN
 40
0.06
 40
0.06
 40
0.06
 40
0.06
 40
0.18
 40
0.18
309
CELLMARGIN_END
 94
        6
 95
        1
302
GRIDFORMAT
  1
GRIDFORMAT_BEGIN
 90
        0
 91
        1
 62
     0
 92
       -2
340
0
 93
        0
 40
0.045
309
GRIDFORMAT_END
 95
        2
302
GRIDFORMAT
  1
GRIDFORMAT_BEGIN
 90
        0
 91
        1
 62
     0
 92
       -2
340
0
 93
        0
 40
0.045
309
GRIDFORMAT_END
 95
        4
302
GRIDFORMAT
  1
GRIDFORMAT_BEGIN
 90
        0
 91
        1
 62
     0
 92
       -2
340
0
 93
        0
 40
0.045
309
GRIDFORMAT_END
 95
        8
302
GRIDFORMAT
  1
GRIDFORMAT_BEGIN
 90
        0
 91
        1
 62
     0
 92
       -2
340
0
 93
        0
 40
0.045
309
GRIDFORMAT_END
 95
       16
302
GRIDFORMAT
  1
GRIDFORMAT_BEGIN
 90
        0
 91
        1
 62
     0
 92
       -2
340
0
 93
        0
 40
0.045
309
GRIDFORMAT_END
 95
       32
302
GRIDFORMAT
  1
GRIDFORMAT_BEGIN
 90
        0
 91
        1
 62
     0
 92
       -2
340
0
 93
        0
 40
0.045
309
GRIDFORMAT_END
309
TABLEFORMAT_END
  1
CELLSTYLE_BEGIN
 90
        3
 91
        2
300
_DATA
309
CELLSTYLE_END
  0
FIELD
  5
1AA9
102
{ACAD_REACTORS
330
1AA8
102
}
330
1AA8
100
AcDbField
  1
_text
  2
%<\_FldIdx 0>% %<\_FldIdx 1>%\PSCALE %<\_FldIdx 2>%
 90
        3
360
1AAA
360
1AAC
360
1AAD
 97
        0
 91
       63
 92
        0
 94
        9
 95
        2
 96
        0
300

 93
        0
  7
ACFD_FIELD_VALUE
 93
        3
 90
        0
 94
        0
300

302

304
ACVALUE_END
301

 98
        0
  0
FIELD
  5
1AC0
102
{ACAD_REACTORS
330
1ABF
102
}
330
1ABF
100
AcDbField
  1
_text
  2
%<\_FldIdx 0>% %<\_FldIdx 1>%
 90
        2
360
1AC1
360
1AC2
 97
        0
 91
       63
 92
        0
 94
        9
 95
        2
 96
        0
300

 93
        0
  7
ACFD_FIELD_VALUE
 93
        3
 90
        0
 94
        0
300

302

304
ACVALUE_END
301

 98
        0
  0
FIELD
  5
1AB6
102
{ACAD_REACTORS
330
1AB5
102
}
330
1AB5
100
AcDbField
  1
_text
  2
SECTION %<\_FldIdx 0>%-%<\_FldIdx 1>%
 90
        2
360
1AB7
360
1AB8
 97
        0
 91
       63
 92
        0
 94
        9
 95
        2
 96
        0
300

 93
        0
  7
ACFD_FIELD_VALUE
 93
        3
 90
        0
 94
        0
300

302

304
ACVALUE_END
301

 98
        0
  0
FIELD
  5
1AC6
102
{ACAD_REACTORS
330
1AC5
102
}
330
1AC5
100
AcDbField
  1
_text
  2
%<\_FldIdx 0>%-%<\_FldIdx 1>%
 90
        2
360
1AC7
360
1AC8
 97
        0
 91
       63
 92
        0
 94
        9
 95
        2
 96
        0
300

 93
        0
  7
ACFD_FIELD_VALUE
 93
        3
 90
        0
 94
        0
300

302

304
ACVALUE_END
301

 98
        0
  0
FIELD
  5
1ACD
102
{ACAD_REACTORS
330
1ACC
102
}
330
1ACC
100
AcDbField
  1
_text
  2
%<\_FldIdx 0>%-%<\_FldIdx 1>%
 90
        2
360
1ACE
360
1ACF
 97
        0
 91
       63
 92
        0
 94
        9
 95
        2
 96
        0
300

 93
        0
  7
ACFD_FIELD_VALUE
 93
        3
 90
        0
 94
        0
300

302

304
ACVALUE_END
301

 98
        0
  0
FIELD
  5
1AAA
330
1AA9
100
AcDbField
  1
AcVar
  2
\AcVar ViewType \f "%tc1"
 90
        0
 97
        0
 91
       63
 92
        0
 94
       43
 95
        2
 96
        0
300

 93
        1
  6
Variable
 93
        2
 90
        4
  1
ViewType
 94
        0
300

302

304
ACVALUE_END
  7
ACFD_FIELD_VALUE
 93
        1
 90
        0
 94
        0
300
%tc1
302

304
ACVALUE_END
301
----
 98
        4
  0
FIELD
  5
1AAC
330
1AA9
100
AcDbField
  1
AcVar
  2
\AcVar ViewDetailId
 90
        0
 97
        0
 91
       63
 92
        0
 94
       43
 95
        2
 96
        0
300

 93
        1
  6
Variable
 93
        2
 90
        4
  1
ViewDetailId
 94
        0
300

302

304
ACVALUE_END
  7
ACFD_FIELD_VALUE
 93
        1
 90
        0
 94
        0
300

302

304
ACVALUE_END
301
----
 98
        4
  0
FIELD
  5
1AAD
330
1AA9
100
AcDbField
  1
AcVar
  2
\AcVar ViewScale \f "%sn"
 90
        0
 97
        0
 91
       63
 92
        0
 94
       43
 95
        2
 96
        0
300

 93
        1
  6
Variable
 93
        2
 90
        4
  1
ViewScale
 94
        0
300

302

304
ACVALUE_END
  7
ACFD_FIELD_VALUE
 93
        1
 90
        0
 94
        0
300
%sn
302

304
ACVALUE_END
301
----
 98
        4
  0
FIELD
  5
1AC1
330
1AC0
100
AcDbField
  1
AcVar
  2
\AcVar ViewDetailId
 90
        0
 97
        0
 91
       63
 92
        0
 94
       43
 95
        2
 96
        0
300

 93
        1
  6
Variable
 93
        2
 90
        4
  1
ViewDetailId
 94
        0
300

302

304
ACVALUE_END
  7
ACFD_FIELD_VALUE
 93
        1
 90
        0
 94
        0
300

302

304
ACVALUE_END
301
----
 98
        4
  0
FIELD
  5
1AC2
330
1AC0
100
AcDbField
  1
AcVar
  2
\AcVar ViewScale \f "%sn"
 90
        0
 97
        0
 91
       63
 92
        0
 94
       43
 95
        2
 96
        0
300

 93
        1
  6
Variable
 93
        2
 90
        4
  1
ViewScale
 94
        0
300

302

304
ACVALUE_END
  7
ACFD_FIELD_VALUE
 93
        1
 90
        0
 94
        0
300
%sn
302

304
ACVALUE_END
301
----
 98
        4
  0
FIELD
  5
1AB7
330
1AB6
100
AcDbField
  1
AcVar
  2
\AcVar ViewSectionStartId
 90
        0
 97
        0
 91
       63
 92
        0
 94
       43
 95
        2
 96
        0
300

 93
        1
  6
Variable
 93
        2
 90
        4
  1
ViewSectionStartId
 94
        0
300

302

304
ACVALUE_END
  7
ACFD_FIELD_VALUE
 93
        1
 90
        0
 94
        0
300

302

304
ACVALUE_END
301
----
 98
        4
  0
FIELD
  5
1AB8
330
1AB6
100
AcDbField
  1
AcVar
  2
\AcVar ViewSectionEndId
 90
        0
 97
        0
 91
       63
 92
        0
 94
       43
 95
        2
 96
        0
300

 93
        1
  6
Variable
 93
        2
 90
        4
  1
ViewSectionEndId
 94
        0
300

302

304
ACVALUE_END
  7
ACFD_FIELD_VALUE
 93
        1
 90
        0
 94
        0
300

302

304
ACVALUE_END
301
----
 98
        4
  0
FIELD
  5
1AC7
330
1AC6
100
AcDbField
  1
AcVar
  2
\AcVar ViewSectionStartId
 90
        0
 97
        0
 91
       63
 92
        0
 94
       43
 95
        2
 96
        0
300

 93
        1
  6
Variable
 93
        2
 90
        4
  1
ViewSectionStartId
 94
        0
300

302

304
ACVALUE_END
  7
ACFD_FIELD_VALUE
 93
        1
 90
        0
 94
        0
300

302

304
ACVALUE_END
301
----
 98
        4
  0
FIELD
  5
1AC8
330
1AC6
100
AcDbField
  1
AcVar
  2
\AcVar ViewSectionEndId
 90
        0
 97
        0
 91
       63
 92
        0
 94
       43
 95
        2
 96
        0
300

 93
        1
  6
Variable
 93
        2
 90
        4
  1
ViewSectionEndId
 94
        0
300

302

304
ACVALUE_END
  7
ACFD_FIELD_VALUE
 93
        1
 90
        0
 94
        0
300

302

304
ACVALUE_END
301
----
 98
        4
  0
FIELD
  5
1ACE
330
1ACD
100
AcDbField
  1
AcVar
  2
\AcVar ViewSectionStartId
 90
        0
 97
        0
 91
       63
 92
        0
 94
       43
 95
        2
 96
        0
300

 93
        1
  6
Variable
 93
        2
 90
        4
  1
ViewSectionStartId
 94
        0
300

302

304
ACVALUE_END
  7
ACFD_FIELD_VALUE
 93
        1
 90
        0
 94
        0
300

302

304
ACVALUE_END
301
----
 98
        4
  0
FIELD
  5
1ACF
330
1ACD
100
AcDbField
  1
AcVar
  2
\AcVar ViewSectionEndId
 90
        0
 97
        0
 91
       63
 92
        0
 94
       43
 95
        2
 96
        0
300

 93
        1
  6
Variable
 93
        2
 90
        4
  1
ViewSectionEndId
 94
        0
300

302

304
ACVALUE_END
  7
ACFD_FIELD_VALUE
 93
        1
 90
        0
 94
        0
300

302

304
ACVALUE_END
301
----
 98
        4
  0
ENDSEC
  0
EOF
