  0
SECTION
  2
HEADER
  9
$ACADVER
  1
AC1018
  9
$ACADMAINTVER
 70
   104
  9
$DWGCODEPAGE
  3
ANSI_1252
  9
$LASTSAVEDBY
  1
guzb562
  9
$INSBASE
 10
0.0
 20
0.0
 30
0.0
  9
$EXTMIN
 10
614.4456049878608
 20
3554.156817284129
 30
-0.0000000000000153
  9
$EXTMAX
 10
1048.209407869097
 20
4311.430675996734
 30
0.0
  9
$LIMMIN
 10
0.0
 20
0.0
  9
$LIMMAX
 10
8400.0
 20
5940.0
  9
$ORTHOMODE
 70
     1
  9
$REGENMODE
 70
     1
  9
$FILLMODE
 70
     1
  9
$QTEXTMODE
 70
     0
  9
$MIRRTEXT
 70
     1
  9
$LTSCALE
 40
20.0
  9
$ATTMODE
 70
     1
  9
$TEXTSIZE
 40
3.5
  9
$TRACEWID
 40
1.0
  9
$TEXTSTYLE
  7
STANDARD
  9
$CLAYER
  8
AM_2 ( Kontur 0.25)
  9
$CELTYPE
  6
ByLayer
  9
$CECOLOR
 62
   256
  9
$CELTSCALE
 40
1.0
  9
$DISPSILH
 70
     0
  9
$DIMSCALE
 40
1.0
  9
$DIMASZ
 40
5.0
  9
$DIMEXO
 40
1.0
  9
$DIMDLI
 40
10.0
  9
$DIMRND
 40
0.0
  9
$DIMDLE
 40
0.0
  9
$DIMEXE
 40
1.0
  9
$DIMTP
 40
0.1
  9
$DIMTM
 40
0.1
  9
$DIMTXT
 40
5.0
  9
$DIMCEN
 40
0.0
  9
$DIMTSZ
 40
0.0
  9
$DIMTOL
 70
     0
  9
$DIMLIM
 70
     0
  9
$DIMTIH
 70
     0
  9
$DIMTOH
 70
     0
  9
$DIMSE1
 70
     0
  9
$DIMSE2
 70
     0
  9
$DIMTAD
 70
     1
  9
$DIMZIN
 70
     8
  9
$DIMBLK
  1

  9
$DIMASO
 70
     1
  9
$DIMSHO
 70
     1
  9
$DIMPOST
  1

  9
$DIMAPOST
  1
"
  9
$DIMALT
 70
     0
  9
$DIMALTD
 70
     2
  9
$DIMALTF
 40
0.0393701
  9
$DIMLFAC
 40
1.0
  9
$DIMTOFL
 70
     1
  9
$DIMTVP
 40
0.0
  9
$DIMTIX
 70
     0
  9
$DIMSOXD
 70
     0
  9
$DIMSAH
 70
     0
  9
$DIMBLK1
  1

  9
$DIMBLK2
  1

  9
$DIMSTYLE
  2
AM_DIN
  9
$DIMCLRD
 70
   256
  9
$DIMCLRE
 70
   256
  9
$DIMCLRT
 70
     2
  9
$DIMTFAC
 40
0.71
  9
$DIMGAP
 40
1.5
  9
$DIMJUST
 70
     0
  9
$DIMSD1
 70
     0
  9
$DIMSD2
 70
     0
  9
$DIMTOLJ
 70
     0
  9
$DIMTZIN
 70
     8
  9
$DIMALTZ
 70
     0
  9
$DIMALTTZ
 70
     0
  9
$DIMUPT
 70
     0
  9
$DIMDEC
 70
     2
  9
$DIMTDEC
 70
     2
  9
$DIMALTU
 70
     2
  9
$DIMALTTD
 70
     2
  9
$DIMTXSTY
  7
STANDARD
  9
$DIMAUNIT
 70
     0
  9
$DIMADEC
 70
     0
  9
$DIMALTRND
 40
0.0
  9
$DIMAZIN
 70
     2
  9
$DIMDSEP
 70
    46
  9
$DIMATFIT
 70
     3
  9
$DIMFRAC
 70
     0
  9
$DIMLDRBLK
  1

  9
$DIMLUNIT
 70
     2
  9
$DIMLWD
 70
    -1
  9
$DIMLWE
 70
    -1
  9
$DIMTMOVE
 70
     0
  9
$LUNITS
 70
     2
  9
$LUPREC
 70
     2
  9
$SKETCHINC
 40
1.0
  9
$FILLETRAD
 40
50.0
  9
$AUNITS
 70
     0
  9
$AUPREC
 70
     0
  9
$MENU
  1
ACAD
  9
$ELEVATION
 40
0.0
  9
$PELEVATION
 40
0.0
  9
$THICKNESS
 40
0.0
  9
$LIMCHECK
 70
     0
  9
$CHAMFERA
 40
50.0
  9
$CHAMFERB
 40
50.0
  9
$CHAMFERC
 40
0.0
  9
$CHAMFERD
 40
0.0
  9
$SKPOLY
 70
     0
  9
$TDCREATE
 40
2454721.555362628
  9
$TDUCREATE
 40
2454721.472029294
  9
$TDUPDATE
 40
2454722.476976910
  9
$TDUUPDATE
 40
2454722.393643576
  9
$TDINDWG
 40
0.0417413426
  9
$TDUSRTIMER
 40
0.0417398958
  9
$USRTIMER
 70
     1
  9
$ANGBASE
 50
0.0
  9
$ANGDIR
 70
     0
  9
$PDMODE
 70
     0
  9
$PDSIZE
 40
0.0
  9
$PLINEWID
 40
0.0
  9
$SPLFRAME
 70
     0
  9
$SPLINETYPE
 70
     6
  9
$SPLINESEGS
 70
    12
  9
$HANDSEED
  5
3207
  9
$SURFTAB1
 70
     6
  9
$SURFTAB2
 70
     6
  9
$SURFTYPE
 70
     6
  9
$SURFU
 70
     6
  9
$SURFV
 70
     6
  9
$UCSBASE
  2

  9
$UCSNAME
  2

  9
$UCSORG
 10
0.0
 20
0.0
 30
0.0
  9
$UCSXDIR
 10
1.0
 20
0.0
 30
0.0
  9
$UCSYDIR
 10
0.0
 20
1.0
 30
0.0
  9
$UCSORTHOREF
  2

  9
$UCSORTHOVIEW
 70
     0
  9
$UCSORGTOP
 10
0.0
 20
0.0
 30
0.0
  9
$UCSORGBOTTOM
 10
0.0
 20
0.0
 30
0.0
  9
$UCSORGLEFT
 10
0.0
 20
0.0
 30
0.0
  9
$UCSORGRIGHT
 10
0.0
 20
0.0
 30
0.0
  9
$UCSORGFRONT
 10
0.0
 20
0.0
 30
0.0
  9
$UCSORGBACK
 10
0.0
 20
0.0
 30
0.0
  9
$PUCSBASE
  2

  9
$PUCSNAME
  2

  9
$PUCSORG
 10
0.0
 20
0.0
 30
0.0
  9
$PUCSXDIR
 10
1.0
 20
0.0
 30
0.0
  9
$PUCSYDIR
 10
0.0
 20
1.0
 30
0.0
  9
$PUCSORTHOREF
  2

  9
$PUCSORTHOVIEW
 70
     0
  9
$PUCSORGTOP
 10
0.0
 20
0.0
 30
0.0
  9
$PUCSORGBOTTOM
 10
0.0
 20
0.0
 30
0.0
  9
$PUCSORGLEFT
 10
0.0
 20
0.0
 30
0.0
  9
$PUCSORGRIGHT
 10
0.0
 20
0.0
 30
0.0
  9
$PUCSORGFRONT
 10
0.0
 20
0.0
 30
0.0
  9
$PUCSORGBACK
 10
0.0
 20
0.0
 30
0.0
  9
$USERI1
 70
     0
  9
$USERI2
 70
     0
  9
$USERI3
 70
     0
  9
$USERI4
 70
     0
  9
$USERI5
 70
     0
  9
$USERR1
 40
0.0
  9
$USERR2
 40
0.0
  9
$USERR3
 40
0.0
  9
$USERR4
 40
0.0
  9
$USERR5
 40
0.0
  9
$WORLDVIEW
 70
     1
  9
$SHADEDGE
 70
     3
  9
$SHADEDIF
 70
    70
  9
$TILEMODE
 70
     1
  9
$MAXACTVP
 70
    64
  9
$PINSBASE
 10
0.0
 20
0.0
 30
0.0
  9
$PLIMCHECK
 70
     0
  9
$PEXTMIN
 10
1.000000000000000E+20
 20
1.000000000000000E+20
 30
1.000000000000000E+20
  9
$PEXTMAX
 10
-1.000000000000000E+20
 20
-1.000000000000000E+20
 30
-1.000000000000000E+20
  9
$PLIMMIN
 10
0.0
 20
0.0
  9
$PLIMMAX
 10
12.0
 20
9.0
  9
$UNITMODE
 70
     0
  9
$VISRETAIN
 70
     1
  9
$PLINEGEN
 70
     0
  9
$PSLTSCALE
 70
     1
  9
$TREEDEPTH
 70
  3020
  9
$CMLSTYLE
  2
Standard
  9
$CMLJUST
 70
     0
  9
$CMLSCALE
 40
1.0
  9
$PROXYGRAPHICS
 70
     1
  9
$MEASUREMENT
 70
     1
  9
$CELWEIGHT
370
    -1
  9
$ENDCAPS
280
     0
  9
$JOINSTYLE
280
     0
  9
$LWDISPLAY
290
     0
  9
$INSUNITS
 70
     4
  9
$HYPERLINKBASE
  1

  9
$STYLESHEET
  1

  9
$XEDIT
290
     1
  9
$CEPSNTYPE
380
     0
  9
$PSTYLEMODE
290
     1
  9
$FINGERPRINTGUID
  2
{4C071292-662D-4442-88CE-2D75C0717A93}
  9
$VERSIONGUID
  2
{78BE6FE3-4011-454D-8043-157E8A434D1A}
  9
$EXTNAMES
290
     1
  9
$PSVPSCALE
 40
0.0
  9
$OLESTARTUP
290
     0
  9
$SORTENTS
280
   127
  9
$INDEXCTL
280
     0
  9
$HIDETEXT
280
     0
  9
$XCLIPFRAME
290
     0
  9
$HALOGAP
280
     0
  9
$OBSCOLOR
 70
   257
  9
$OBSLTYPE
280
     0
  9
$INTERSECTIONDISPLAY
280
     0
  9
$INTERSECTIONCOLOR
 70
   257
  9
$DIMASSOC
280
     2
  9
$PROJECTNAME
  1

  0
ENDSEC
  0
SECTION
  2
CLASSES
  0
CLASS
  1
ACDBDICTIONARYWDFLT
  2
AcDbDictionaryWithDefault
  3
ObjectDBX Classes
 90
        0
 91
        1
280
     0
281
     0
  0
CLASS
  1
MATERIAL
  2
AcDbMaterial
  3
ObjectDBX Classes
 90
     1153
 91
        3
280
     0
281
     0
  0
CLASS
  1
VISUALSTYLE
  2
AcDbVisualStyle
  3
ObjectDBX Classes
 90
     4095
 91
       16
280
     0
281
     0
  0
CLASS
  1
SCALE
  2
AcDbScale
  3
ObjectDBX Classes
 90
     1153
 91
       34
280
     0
281
     0
  0
CLASS
  1
TABLESTYLE
  2
AcDbTableStyle
  3
ObjectDBX Classes
 90
     4095
 91
        1
280
     0
281
     0
  0
CLASS
  1
MLEADERSTYLE
  2
AcDbMLeaderStyle
  3
ACDB_MLEADERSTYLE_CLASS
 90
     4095
 91
        1
280
     0
281
     0
  0
CLASS
  1
AMGSETTINGSOBJ
  2
AmgSettingsObj
  3
"AcadM|Product Description: AutoCAD Mechanical|Company: Autodesk, Inc."
 90
     1024
 91
        2
280
     0
281
     0
  0
CLASS
  1
ACME_DOCUMENT
  2
AcMeDbDoc
  3
AcMeServices
 90
     1024
 91
        1
280
     0
281
     0
  0
CLASS
  1
ACMESCOPE
  2
AcMeScope
  3
AcMeServices
 90
     1024
 91
        1
280
     0
281
     0
  0
CLASS
  1
ACMECOMMANDHISTORY
  2
AcMeCommandHistory
  3
AcMeServices
 90
     1024
 91
        1
280
     0
281
     0
  0
CLASS
  1
ACIMSYSVARMAN
  2
AcImSysVarManager
  3
AcMeServices
 90
     1024
 91
        5
280
     0
281
     0
  0
CLASS
  1
ACIMINTSYSVAR
  2
AcImIntSysVar
  3
AcMeServices
 90
     1024
 91
       27
280
     0
281
     0
  0
CLASS
  1
ACMEDRAWINGMAN
  2
AcMeDrawingMan
  3
AcMeServices
 90
     1024
 91
        1
280
     0
281
     0
  0
CLASS
  1
ACMEVIEW
  2
AcMeView
  3
AcMeServices
 90
     1024
 91
        1
280
     0
281
     0
  0
CLASS
  1
ACDBENTITYCACHE
  2
AcMeEntityCache
  3
AcMeServices
 90
     1024
 91
        1
280
     0
281
     0
  0
CLASS
  1
GSMANAGER
  2
AcMeGSManager
  3
AcMeServices
 90
     1024
 91
        1
280
     0
281
     0
  0
CLASS
  1
AMDTINTERNALREACTOR
  2
AmdtInternalReactor
  3
AcMeServices
 90
     1024
 91
        2
280
     0
281
     0
  0
CLASS
  1
ACMESTATEMGR
  2
AcMeStateMgr
  3
AcMeServices
 90
     1024
 91
        1
280
     0
281
     0
  0
CLASS
  1
ACGREFMASTER
  2
AcGrefMaster
  3
AcAttribServices
 90
     1024
 91
        1
280
     0
281
     0
  0
CLASS
  1
AM_DRAWING_MGR
  2
AcDmDwgMgr
  3
AcMechDwgViewMgmt
 90
     1024
 91
        1
280
     0
281
     0
  0
CLASS
  1
AM_DWG_DOCUMENT
  2
AcDmDwgDocument
  3
AcMechDwgViewMgmt
 90
     1024
 91
        1
280
     0
281
     0
  0
CLASS
  1
AM_DWG_SHEET
  2
AcDmSheet
  3
AcMechDwgViewMgmt
 90
     1024
 91
        1
280
     0
281
     0
  0
CLASS
  1
AM_VIEWDIMPARMAP
  2
AcDmViewDimParMap
  3
AcMechDwgViewMgmt
 90
     1024
 91
        1
280
     0
281
     0
  0
CLASS
  1
ACIMREALSYSVAR
  2
AcImRealSysVar
  3
AcMeServices
 90
     1024
 91
        1
280
     0
281
     0
  0
CLASS
  1
AM_DWGMGR_NAME
  2
AcDmDwgMgrName
  3
AcMechDwgViewMgmt
 90
     1024
 91
        1
280
     0
281
     0
  0
CLASS
  1
ACME_DATABASE
  2
AcMeDbDatabase
  3
AcMeServices
 90
     1024
 91
        1
280
     0
281
     0
  0
CLASS
  1
ACRFINSADJUSTERMGR
  2
AcRfInsAdjusterMgr
  3
AcMeServices
 90
     1024
 91
        1
280
     0
281
     0
  0
CLASS
  1
ACGREFACADMASTER
  2
AcGrefacadMaster
  3
AcGrefServices
 90
     1024
 91
        1
280
     0
281
     0
  0
CLASS
  1
AMDTMENUSTATEMGR
  2
AmdtMenuStateMgr
  3
McadcomServices
 90
     1024
 91
        1
280
     0
281
     0
  0
CLASS
  1
AMDTMCOMMENUSTATE
  2
AmdtMcomMenuState
  3
McadcomServices
 90
     1024
 91
        1
280
     0
281
     0
  0
CLASS
  1
AMIMASTER
  2
AmiMaster
  3
AmiServices
 90
     1024
 91
        1
280
     0
281
     0
  0
CLASS
  1
MAPIAMMOUDLE
  2
MApiAmModule
  3
MApiAmServices
 90
     1024
 91
        1
280
     0
281
     0
  0
CLASS
  1
ACIMSTRSYSVAR
  2
AcImStrSysVar
  3
AcMeServices
 90
     1024
 91
        5
280
     0
281
     0
  0
CLASS
  1
AMDTADMENUSTATE
  2
AmdtAdMenuState
  3
DesignerServices
 90
     1024
 91
        1
280
     0
281
     0
  0
CLASS
  1
ADAPPL
  2
AcAdAppl
  3
DesignerServices
 90
     1024
 91
        1
280
     0
281
     0
  0
CLASS
  1
DEPMGR
  2
AcAdDepMgr
  3
DesignerServices
 90
     1024
 91
        1
280
     0
281
     0
  0
CLASS
  1
PARAMMGR
  2
AcAdParamMgr
  3
DesignerServices
 90
     1024
 91
        1
280
     0
281
     0
  0
CLASS
  1
PARAMSCOPE
  2
AcAdParamScope
  3
DesignerServices
 90
     1024
 91
        1
280
     0
281
     0
  0
CLASS
  1
NAMEDAPPL
  2
AcAdNamedAppl
  3
DesignerServices
 90
     1024
 91
        1
280
     0
281
     0
  0
CLASS
  1
AMDTDMMENUSTATE
  2
AmdtDmMenuState
  3
AcMechDwgViewMgmt
 90
     1024
 91
        1
280
     0
281
     0
  0
CLASS
  1
AMDTAMMENUSTATE
  2
AmdtAmMenuState
  3
DesignerAssemblies
 90
     1024
 91
        1
280
     0
281
     0
  0
CLASS
  1
ACAMPROJECT
  2
AcAmProject
  3
DesignerAssemblies
 90
     1024
 91
        1
280
     0
281
     0
  0
CLASS
  1
ACAMGRCOMPDEF
  2
AcAmGrCompDef
  3
DesignerAssemblies
 90
     1024
 91
        1
280
     0
281
     0
  0
CLASS
  1
ACCMCONTEXT
  2
AcCmContext
  3
DesignerAssemblies
 90
     1024
 91
        1
280
     0
281
     0
  0
CLASS
  1
ACAMCOMPDEF
  2
AcAmCompDef
  3
DesignerAssemblies
 90
     1024
 91
        1
280
     0
281
     0
  0
CLASS
  1
ACAMCOMPDEFMGR
  2
AcAmCompDefMgr
  3
DesignerAssemblies
 90
     1024
 91
        1
280
     0
281
     0
  0
CLASS
  1
AMCONTEXTMGR
  2
AcAmContextMgr
  3
DesignerAssemblies
 90
     1024
 91
        1
280
     0
281
     0
  0
CLASS
  1
ACAMCONTEXTMODELER
  2
AcAmContextModeler
  3
DesignerAssemblies
 90
     1024
 91
        1
280
     0
281
     0
  0
CLASS
  1
ACMDATADICTIONARY
  2
AcmDataDictionary
  3
"AcmSymBB|Product Description: AutoCAD Mechanical|Company: Autodesk, Inc."
 90
     1024
 91
        1
280
     0
281
     0
  0
CLASS
  1
CATALOGSTATE
  2
AcAmCatalogState
  3
DesignerAssemblies
 90
     1024
 91
        1
280
     0
281
     0
  0
CLASS
  1
ACAMGRCOMPDEFSET
  2
AcAmGrCompDefSet
  3
DesignerAssemblies
 90
     1024
 91
        1
280
     0
281
     0
  0
CLASS
  1
AMDTBROWSERDBTAB
  2
AmdtBrowserDbTab
  3
McadcomServices
 90
     1024
 91
        1
280
     0
281
     0
  0
CLASS
  1
CBROWSERAPPOBJECT
  2
CBrowserAppObject
  3
McadcomServices
 90
     1024
 91
        3
280
     0
281
     0
  0
CLASS
  1
DM_PLACEHOLDER
  2
AcDmSelsetPlaceholder
  3
AcMechDwgViewMgmt
 90
     1024
 91
        1
280
     0
281
     0
  0
CLASS
  1
ACMSTANDARDANSI
  2
AcmStandardANSI
  3
"Amdt_StdImp|Product Description: AutoCAD Mechanical|Company: Autodesk, Inc."
 90
     1024
 91
        1
280
     0
281
     0
  0
CLASS
  1
AMGOBJPROPCFG
  2
AmgObjPropCfg
  3
"AmgLay|Product Description: AutoCAD Mechanical|Company: Autodesk, Inc."
 90
     1025
 91
        2
280
     0
281
     0
  0
CLASS
  1
ACMSURFSTANDARDANSI
  2
AcmSurfTextStdANSI
  3
"Amdt_StdImp|Product Description: AutoCAD Mechanical|Company: Autodesk, Inc."
 90
     1024
 91
        1
280
     0
281
     0
  0
CLASS
  1
ACMFCFSTANDARDANSI
  2
AcmFCFStdANSI
  3
"Amdt_StdImp|Product Description: AutoCAD Mechanical|Company: Autodesk, Inc."
 90
     1024
 91
        1
280
     0
281
     0
  0
CLASS
  1
ACMWELDSTANDARDANSI
  2
AcmWeldingStdANSI
  3
"Amdt_StdImp|Product Description: AutoCAD Mechanical|Company: Autodesk, Inc."
 90
     1024
 91
        1
280
     0
281
     0
  0
CLASS
  1
ACMIDSTANDARDANSI
  2
AcmIdStdANSI
  3
"Amdt_StdImp|Product Description: AutoCAD Mechanical|Company: Autodesk, Inc."
 90
     1024
 91
        1
280
     0
281
     0
  0
CLASS
  1
ACMDATUMSTANDARDANSI
  2
AcmDatumStdANSI
  3
"Amdt_StdImp|Product Description: AutoCAD Mechanical|Company: Autodesk, Inc."
 90
     1024
 91
        1
280
     0
281
     0
  0
CLASS
  1
ACMBOMSTANDARDANSI
  2
AcmBOMStdANSI
  3
"Amdt_StdImp|Product Description: AutoCAD Mechanical|Company: Autodesk, Inc."
 90
     1024
 91
        1
280
     0
281
     0
  0
CLASS
  1
ACMDETAILSTANDARDANSI
  2
AmdtDetailSymStdANSI
  3
"Amdt_StdImp|Product Description: AutoCAD Mechanical|Company: Autodesk, Inc."
 90
     1024
 91
        1
280
     0
281
     0
  0
CLASS
  1
ACMSECTIONSTANDARDANSI
  2
AmdtSectionSymStdANSI
  3
"Amdt_StdImp|Product Description: AutoCAD Mechanical|Company: Autodesk, Inc."
 90
     1024
 91
        1
280
     0
281
     0
  0
CLASS
  1
ACMCENTERLINESTANDARDANSI
  2
AmdtCenterLineStdANSI
  3
"Amdt_StdImp|Product Description: AutoCAD Mechanical|Company: Autodesk, Inc."
 90
     1024
 91
        1
280
     0
281
     0
  0
CLASS
  1
ACMTHREADLINESTANDARDANSI
  2
AmdtThreadLineStdANSI
  3
"Amdt_StdImp|Product Description: AutoCAD Mechanical|Company: Autodesk, Inc."
 90
     1024
 91
        1
280
     0
281
     0
  0
CLASS
  1
ACMNOTESTANDARDANSI
  2
AmdtNoteStdANSI
  3
"Amdt_StdImp|Product Description: AutoCAD Mechanical|Company: Autodesk, Inc."
 90
     1024
 91
        1
280
     0
281
     0
  0
CLASS
  1
ACMTAPERSTANDARDANSI
  2
AcmTaperStdANSI
  3
"Amdt_StdImp|Product Description: AutoCAD Mechanical|Company: Autodesk, Inc."
 90
     1024
 91
        1
280
     0
281
     0
  0
CLASS
  1
ACMANOOTATIONVIEWSTANDARDANSI
  2
AmdtAnViewStdANSI
  3
"Amdt_StdImp|Product Description: AutoCAD Mechanical|Company: Autodesk, Inc."
 90
     1024
 91
        1
280
     0
281
     0
  0
CLASS
  1
AMDTNOTETEMPLATEDB
  2
AmdtNoteTemplateDB
  3
AcmSymBB|Product Description: AutoCAD Mechanical|Company: Autodesk, Inc.
 90
     1024
 91
       18
280
     0
281
     0
  0
CLASS
  1
ACAMGLAYSTD
  2
AcAmgLayStd
  3
"AmgLay|Product Description: AutoCAD Mechanical|Company: Autodesk, Inc."
 90
     1024
 91
        3
280
     0
281
     0
  0
CLASS
  1
ACAMGDIMSTD
  2
AcAmgDimStd
  3
"AmgDim|Product Description: AutoCAD Mechanical|Company: Autodesk, Inc."
 90
     1024
 91
        3
280
     0
281
     0
  0
CLASS
  1
ACAMGHOLECHARTSTDANSI
  2
AcAmgHoleChartStdANSI
  3
AmgDim|Product Description: AutoCAD Mechanical|Company: Autodesk, Inc.
 90
     1024
 91
        1
280
     0
281
     0
  0
CLASS
  1
ACAMGTITLESTD
  2
AcAmgTitleStd
  3
"AmgTitle|Product Description: AutoCAD Mechanical|Company: Autodesk, Inc."
 90
     4095
 91
        3
280
     0
281
     0
  0
CLASS
  1
ACAMGFILTERDAT
  2
AcAmgFilterDat
  3
"AcadM|Product Description: AutoCAD Mechanical|Company: Autodesk, Inc."
 90
     1024
 91
        0
280
     0
281
     0
  0
CLASS
  1
CELLSTYLEMAP
  2
AcDbCellStyleMap
  3
ObjectDBX Classes
 90
     1152
 91
        2
280
     0
281
     0
  0
CLASS
  1
DICTIONARYVAR
  2
AcDbDictionaryVar
  3
ObjectDBX Classes
 90
        0
 91
        8
280
     0
281
     0
  0
CLASS
  1
ACMDATAENTRYPART
  2
AcmDataEntryPart
  3
AcmSymBB|Product Description: AutoCAD Mechanical|Company: Autodesk, Inc.
 90
     1024
 91
        0
280
     0
281
     0
  0
CLASS
  1
ACMPARTREF
  2
AcmPartRef
  3
"AcmSymBB|Product Description: AutoCAD Mechanical|Company: Autodesk, Inc."
 90
     4095
 91
        0
280
     0
281
     1
  0
CLASS
  1
ACDBLINERES
  2
AcDbLineRes
  3
AcGrefServices
 90
     1024
 91
        0
280
     0
281
     0
  0
CLASS
  1
ACMSTANDARDDIN
  2
AcmStandardDIN
  3
"Amdt_StdImp|Product Description: AutoCAD Mechanical|Company: Autodesk, Inc."
 90
     1024
 91
        1
280
     0
281
     0
  0
CLASS
  1
AMDTEDGESTANDARDDIN13715
  2
AmdtEdgeStdDIN13715
  3
"Amdt_StdImp|Product Description: AutoCAD Mechanical|Company: Autodesk, Inc."
 90
     1024
 91
        1
280
     0
281
     0
  0
CLASS
  1
ACMSURFSTANDARDDIN2002
  2
AcmSurfTextStdDIN2002
  3
"Amdt_StdImp|Product Description: AutoCAD Mechanical|Company: Autodesk, Inc."
 90
     1024
 91
        1
280
     0
281
     0
  0
CLASS
  1
ACMFCFSTANDARDDIN
  2
AcmFCFStdDIN
  3
"Amdt_StdImp|Product Description: AutoCAD Mechanical|Company: Autodesk, Inc."
 90
     1024
 91
        1
280
     0
281
     0
  0
CLASS
  1
ACMWELDSTANDARDDIN
  2
AcmWeldingStdDIN
  3
"Amdt_StdImp|Product Description: AutoCAD Mechanical|Company: Autodesk, Inc."
 90
     1024
 91
        1
280
     0
281
     0
  0
CLASS
  1
ACMIDSTANDARDDIN
  2
AcmIdStdDIN
  3
"Amdt_StdImp|Product Description: AutoCAD Mechanical|Company: Autodesk, Inc."
 90
     1024
 91
        1
280
     0
281
     0
  0
CLASS
  1
ACMDATUMSTANDARDDIN
  2
AcmDatumStdDIN
  3
"Amdt_StdImp|Product Description: AutoCAD Mechanical|Company: Autodesk, Inc."
 90
     1024
 91
        1
280
     0
281
     0
  0
CLASS
  1
ACMBOMSTANDARDDIN
  2
AcmBOMStdDIN
  3
"Amdt_StdImp|Product Description: AutoCAD Mechanical|Company: Autodesk, Inc."
 90
     1024
 91
        1
280
     0
281
     0
  0
CLASS
  1
ACMDETAILSTANDARDDIN
  2
AmdtDetailSymStdDIN
  3
"Amdt_StdImp|Product Description: AutoCAD Mechanical|Company: Autodesk, Inc."
 90
     1024
 91
        1
280
     0
281
     0
  0
CLASS
  1
ACMSECTIONSTANDARDDIN
  2
AmdtSectionSymStdDIN
  3
"Amdt_StdImp|Product Description: AutoCAD Mechanical|Company: Autodesk, Inc."
 90
     1024
 91
        1
280
     0
281
     0
  0
CLASS
  1
ACMCENTERLINESTANDARDDIN
  2
AmdtCenterLineStdDIN
  3
"Amdt_StdImp|Product Description: AutoCAD Mechanical|Company: Autodesk, Inc."
 90
     1024
 91
        1
280
     0
281
     0
  0
CLASS
  1
ACMTHREADLINESTANDARDDIN
  2
AmdtThreadLineStdDIN
  3
"Amdt_StdImp|Product Description: AutoCAD Mechanical|Company: Autodesk, Inc."
 90
     1024
 91
        1
280
     0
281
     0
  0
CLASS
  1
ACMNOTESTANDARDDIN
  2
AmdtNoteStdDIN
  3
"Amdt_StdImp|Product Description: AutoCAD Mechanical|Company: Autodesk, Inc."
 90
     1024
 91
        1
280
     0
281
     0
  0
CLASS
  1
ACMTAPERSTANDARDDIN
  2
AcmTaperStdDIN
  3
"Amdt_StdImp|Product Description: AutoCAD Mechanical|Company: Autodesk, Inc."
 90
     1024
 91
        1
280
     0
281
     0
  0
CLASS
  1
ACMANOOTATIONVIEWSTANDARDDIN
  2
AmdtAnViewStdDIN
  3
"Amdt_StdImp|Product Description: AutoCAD Mechanical|Company: Autodesk, Inc."
 90
     1024
 91
        1
280
     0
281
     0
  0
CLASS
  1
ACAMGHOLECHARTSTDDIN
  2
AcAmgHoleChartStdDIN
  3
AmgDim|Product Description: AutoCAD Mechanical|Company: Autodesk, Inc.
 90
     1024
 91
        1
280
     0
281
     0
  0
CLASS
  1
ACMDATAENTRYBLOCK
  2
AcmDataEntryBlock
  3
AcmSymBB|Product Description: AutoCAD Mechanical|Company: Autodesk, Inc.
 90
     1024
 91
        0
280
     0
281
     0
  0
CLASS
  1
ACMBOM
  2
AcmBom
  3
"AcmSymBB|Product Description: AutoCAD Mechanical|Company: Autodesk, Inc."
 90
     1024
 91
        0
280
     0
281
     0
  0
CLASS
  1
AMDTFORMULAUPDATEDISPATCHER
  2
AmdtFormulaUpdateDispatcher
  3
AcMeServices
 90
     1024
 91
        0
280
     0
281
     0
  0
CLASS
  1
ACMBOMROW
  2
AcmBomRow
  3
"AcmSymBB|Product Description: AutoCAD Mechanical|Company: Autodesk, Inc."
 90
     1024
 91
        0
280
     0
281
     0
  0
CLASS
  1
ACMPARTLIST
  2
AcmPartList
  3
"AcmSymBB|Product Description: AutoCAD Mechanical|Company: Autodesk, Inc."
 90
     4095
 91
        0
280
     0
281
     1
  0
CLASS
  1
CAMSSTRUCTBTNSTATE
  2
StructBtnState
  3
DesignerAssemblies
 90
     1024
 91
        0
280
     0
281
     0
  0
CLASS
  1
ACRFATTGENMGR
  2
AcRfAttGeneralMgr
  3
AcAttribServices
 90
     1024
 91
        0
280
     0
281
     0
  0
CLASS
  1
ACRFOBJATTMGR
  2
AcRfObjAttGroupMgr
  3
AcAttribServices
 90
     1024
 91
        0
280
     0
281
     0
  0
CLASS
  1
ACRFMCADAPIATTHOLDER
  2
AcRfMCADAPIAttHolder
  3
AcAttribServices
 90
     1024
 91
        0
280
     0
281
     0
  0
CLASS
  1
AMDTSYSATTR
  2
AmdtSystemAttribute
  3
AcAttribServices
 90
     1024
 91
        0
280
     0
281
     0
  0
CLASS
  1
SORTENTSTABLE
  2
AcDbSortentsTable
  3
ObjectDBX Classes
 90
        0
 91
        3
280
     0
281
     0
  0
CLASS
  1
ACMSTANDARDISO
  2
AcmStandardISO
  3
"Amdt_StdImp|Product Description: AutoCAD Mechanical|Company: Autodesk, Inc."
 90
     1024
 91
        1
280
     0
281
     0
  0
CLASS
  1
AMDTEDGESTANDARDISO
  2
AmdtEdgeStdISO
  3
"Amdt_StdImp|Product Description: AutoCAD Mechanical|Company: Autodesk, Inc."
 90
     1024
 91
        1
280
     0
281
     0
  0
CLASS
  1
ACMSURFSTANDARDISO2002
  2
AcmSurfTextStdISO2002
  3
"Amdt_StdImp|Product Description: AutoCAD Mechanical|Company: Autodesk, Inc."
 90
     1024
 91
        1
280
     0
281
     0
  0
CLASS
  1
ACMFCFSTANDARDISO
  2
AcmFCFStdISO
  3
"Amdt_StdImp|Product Description: AutoCAD Mechanical|Company: Autodesk, Inc."
 90
     1024
 91
        1
280
     0
281
     0
  0
CLASS
  1
ACMWELDSTANDARDISO
  2
AcmWeldingStdISO
  3
"Amdt_StdImp|Product Description: AutoCAD Mechanical|Company: Autodesk, Inc."
 90
     1024
 91
        1
280
     0
281
     0
  0
CLASS
  1
ACMIDSTANDARDISO
  2
AcmIdStdISO
  3
"Amdt_StdImp|Product Description: AutoCAD Mechanical|Company: Autodesk, Inc."
 90
     1024
 91
        1
280
     0
281
     0
  0
CLASS
  1
ACMDATUMSTANDARDISO
  2
AcmDatumStdISO
  3
"Amdt_StdImp|Product Description: AutoCAD Mechanical|Company: Autodesk, Inc."
 90
     1024
 91
        1
280
     0
281
     0
  0
CLASS
  1
ACMBOMSTANDARDISO
  2
AcmBOMStdISO
  3
"Amdt_StdImp|Product Description: AutoCAD Mechanical|Company: Autodesk, Inc."
 90
     1024
 91
        1
280
     0
281
     0
  0
CLASS
  1
ACMDETAILSTANDARDISO
  2
AmdtDetailSymStdISO
  3
"Amdt_StdImp|Product Description: AutoCAD Mechanical|Company: Autodesk, Inc."
 90
     1024
 91
        1
280
     0
281
     0
  0
CLASS
  1
ACMSECTIONSTANDARDISO2001
  2
AmdtSectionSymStdISO2001
  3
"Amdt_StdImp|Product Description: AutoCAD Mechanical|Company: Autodesk, Inc."
 90
     1024
 91
        1
280
     0
281
     0
  0
CLASS
  1
ACMCENTERLINESTANDARDISO
  2
AmdtCenterLineStdISO
  3
"Amdt_StdImp|Product Description: AutoCAD Mechanical|Company: Autodesk, Inc."
 90
     1024
 91
        1
280
     0
281
     0
  0
CLASS
  1
ACMNOTESTANDARDISO
  2
AmdtNoteStdISO
  3
"Amdt_StdImp|Product Description: AutoCAD Mechanical|Company: Autodesk, Inc."
 90
     1024
 91
        1
280
     0
281
     0
  0
CLASS
  1
ACAMGHOLECHARTSTDISO
  2
AcAmgHoleChartStdISO
  3
AmgDim|Product Description: AutoCAD Mechanical|Company: Autodesk, Inc.
 90
     1024
 91
        1
280
     0
281
     0
  0
CLASS
  1
ACMTHREADLINESTANDARDISO
  2
AmdtThreadLineStdISO
  3
"Amdt_StdImp|Product Description: AutoCAD Mechanical|Company: Autodesk, Inc."
 90
     1024
 91
        1
280
     0
281
     0
  0
CLASS
  1
ACMTAPERSTANDARDISO
  2
AcmTaperStdISO
  3
"Amdt_StdImp|Product Description: AutoCAD Mechanical|Company: Autodesk, Inc."
 90
     1024
 91
        1
280
     0
281
     0
  0
CLASS
  1
ACMANOOTATIONVIEWSTANDARDISO
  2
AmdtAnViewStdISO
  3
"Amdt_StdImp|Product Description: AutoCAD Mechanical|Company: Autodesk, Inc."
 90
     1024
 91
        1
280
     0
281
     0
  0
CLASS
  1
ACMSTANDARDGB
  2
AcmStandardGB
  3
"Amdt_StdImp|Product Description: AutoCAD Mechanical|Company: Autodesk, Inc."
 90
     1024
 91
        0
280
     0
281
     0
  0
CLASS
  1
ACMSURFSTANDARDGB
  2
AcmSurfTextStdGB
  3
"Amdt_StdImp|Product Description: AutoCAD Mechanical|Company: Autodesk, Inc."
 90
     1024
 91
        0
280
     0
281
     0
  0
CLASS
  1
ACMFCFSTANDARDGB
  2
AcmFCFStdGB
  3
"Amdt_StdImp|Product Description: AutoCAD Mechanical|Company: Autodesk, Inc."
 90
     1024
 91
        0
280
     0
281
     0
  0
CLASS
  1
ACMWELDSTANDARDGB
  2
AcmWeldingStdGB
  3
"Amdt_StdImp|Product Description: AutoCAD Mechanical|Company: Autodesk, Inc."
 90
     1024
 91
        0
280
     0
281
     0
  0
CLASS
  1
ACMIDSTANDARDGB
  2
AcmIdStdGB
  3
"Amdt_StdImp|Product Description: AutoCAD Mechanical|Company: Autodesk, Inc."
 90
     1024
 91
        0
280
     0
281
     0
  0
CLASS
  1
ACMDATUMSTANDARDGB
  2
AcmDatumStdGB
  3
"Amdt_StdImp|Product Description: AutoCAD Mechanical|Company: Autodesk, Inc."
 90
     1024
 91
        0
280
     0
281
     0
  0
CLASS
  1
ACMBOMSTANDARDGB
  2
AcmBOMStdGB
  3
"Amdt_StdImp|Product Description: AutoCAD Mechanical|Company: Autodesk, Inc."
 90
     1024
 91
        0
280
     0
281
     0
  0
CLASS
  1
ACMDETAILSTANDARDGB
  2
AmdtDetailSymStdGB
  3
"Amdt_StdImp|Product Description: AutoCAD Mechanical|Company: Autodesk, Inc."
 90
     1024
 91
        0
280
     0
281
     0
  0
CLASS
  1
ACMSECTIONSTANDARDGB1998
  2
AmdtSectionSymStdGB1998
  3
"Amdt_StdImp|Product Description: AutoCAD Mechanical|Company: Autodesk, Inc."
 90
     1024
 91
        0
280
     0
281
     0
  0
CLASS
  1
ACMCENTERLINESTANDARDGB
  2
AmdtCenterLineStdGB
  3
"Amdt_StdImp|Product Description: AutoCAD Mechanical|Company: Autodesk, Inc."
 90
     1024
 91
        0
280
     0
281
     0
  0
CLASS
  1
ACMTHREADLINESTANDARDGB
  2
AmdtThreadLineStdGB
  3
"Amdt_StdImp|Product Description: AutoCAD Mechanical|Company: Autodesk, Inc."
 90
     1024
 91
        0
280
     0
281
     0
  0
CLASS
  1
ACMNOTESTANDARDGB
  2
AmdtNoteStdGB
  3
"Amdt_StdImp|Product Description: AutoCAD Mechanical|Company: Autodesk, Inc."
 90
     1024
 91
        0
280
     0
281
     0
  0
CLASS
  1
ACMTAPERSTANDARDGB
  2
AcmTaperStdGB
  3
"Amdt_StdImp|Product Description: AutoCAD Mechanical|Company: Autodesk, Inc."
 90
     1024
 91
        0
280
     0
281
     0
  0
CLASS
  1
ACMANOOTATIONVIEWSTANDARDGB
  2
AmdtAnViewStdGB
  3
"Amdt_StdImp|Product Description: AutoCAD Mechanical|Company: Autodesk, Inc."
 90
     1024
 91
        0
280
     0
281
     0
  0
CLASS
  1
ACAMGHOLECHARTSTDGB
  2
AcAmgHoleChartStdGB
  3
AmgDim|Product Description: AutoCAD Mechanical|Company: Autodesk, Inc.
 90
     1024
 91
        0
280
     0
281
     0
  0
CLASS
  1
ACMSTANDARDCSN
  2
AcmStandardCSN
  3
"Amdt_StdImp|Product Description: AutoCAD Mechanical|Company: Autodesk, Inc."
 90
     1024
 91
        0
280
     0
281
     0
  0
CLASS
  1
ACMSURFSTANDARDCSN
  2
AcmSurfTextStdCSN
  3
"Amdt_StdImp|Product Description: AutoCAD Mechanical|Company: Autodesk, Inc."
 90
     1024
 91
        0
280
     0
281
     0
  0
CLASS
  1
ACMFCFSTANDARDCSN
  2
AcmFCFStdCSN
  3
"Amdt_StdImp|Product Description: AutoCAD Mechanical|Company: Autodesk, Inc."
 90
     1024
 91
        0
280
     0
281
     0
  0
CLASS
  1
ACMWELDSTANDARDCSN
  2
AcmWeldingStdCSN
  3
"Amdt_StdImp|Product Description: AutoCAD Mechanical|Company: Autodesk, Inc."
 90
     1024
 91
        0
280
     0
281
     0
  0
CLASS
  1
ACMIDSTANDARDCSN
  2
AcmIdStdCSN
  3
"Amdt_StdImp|Product Description: AutoCAD Mechanical|Company: Autodesk, Inc."
 90
     1024
 91
        0
280
     0
281
     0
  0
CLASS
  1
ACMDATUMSTANDARDCSN
  2
AcmDatumStdCSN
  3
"Amdt_StdImp|Product Description: AutoCAD Mechanical|Company: Autodesk, Inc."
 90
     1024
 91
        0
280
     0
281
     0
  0
CLASS
  1
ACMBOMSTANDARDCSN
  2
AcmBOMStdCSN
  3
"Amdt_StdImp|Product Description: AutoCAD Mechanical|Company: Autodesk, Inc."
 90
     1024
 91
        0
280
     0
281
     0
  0
CLASS
  1
ACMDETAILSTANDARDCSN
  2
AmdtDetailSymStdCSN
  3
"Amdt_StdImp|Product Description: AutoCAD Mechanical|Company: Autodesk, Inc."
 90
     1024
 91
        0
280
     0
281
     0
  0
CLASS
  1
ACMSECTIONSTANDARDCSN2002
  2
AmdtSectionSymStdCSN2002
  3
"Amdt_StdImp|Product Description: AutoCAD Mechanical|Company: Autodesk, Inc."
 90
     1024
 91
        0
280
     0
281
     0
  0
CLASS
  1
ACMCENTERLINESTANDARDCSN
  2
AmdtCenterLineStdCSN
  3
"Amdt_StdImp|Product Description: AutoCAD Mechanical|Company: Autodesk, Inc."
 90
     1024
 91
        0
280
     0
281
     0
  0
CLASS
  1
ACMTHREADLINESTANDARDCSN
  2
AmdtThreadLineStdCSN
  3
"Amdt_StdImp|Product Description: AutoCAD Mechanical|Company: Autodesk, Inc."
 90
     1024
 91
        0
280
     0
281
     0
  0
CLASS
  1
ACMNOTESTANDARDCSN
  2
AmdtNoteStdCSN
  3
"Amdt_StdImp|Product Description: AutoCAD Mechanical|Company: Autodesk, Inc."
 90
     1024
 91
        0
280
     0
281
     0
  0
CLASS
  1
ACMTAPERSTANDARDCSN
  2
AcmTaperStdCSN
  3
"Amdt_StdImp|Product Description: AutoCAD Mechanical|Company: Autodesk, Inc."
 90
     1024
 91
        0
280
     0
281
     0
  0
CLASS
  1
ACMANOOTATIONVIEWSTANDARDCSN
  2
AmdtAnViewStdCSN
  3
"Amdt_StdImp|Product Description: AutoCAD Mechanical|Company: Autodesk, Inc."
 90
     1024
 91
        0
280
     0
281
     0
  0
CLASS
  1
ACAMGHOLECHARTSTDCSN
  2
AcAmgHoleChartStdCSN
  3
AmgDim|Product Description: AutoCAD Mechanical|Company: Autodesk, Inc.
 90
     1024
 91
        0
280
     0
281
     0
  0
CLASS
  1
DIMASSOC
  2
AcDbDimAssoc
  3
"AcDbDimAssoc|Product Desc:     AcDim ARX App For Dimension|Company:          Autodesk, Inc.|WEB Address:      www.autodesk.com"
 90
        0
 91
       27
280
     0
281
     0
  0
CLASS
  1
ACDBCIRCARCRES
  2
AcDbCircArcRes
  3
AcGrefServices
 90
     1024
 91
        0
280
     0
281
     0
  0
CLASS
  1
ACDB_BLKREFOBJECTCONTEXTDATA_CLASS
  2
AcDbBlkRefObjectContextData
  3
ObjectDBX Classes
 90
     1153
 91
        0
280
     0
281
     0
  0
CLASS
  1
ACAD_EVALUATION_GRAPH
  2
AcDbEvalGraph
  3
ObjectDBX Classes
 90
     1153
 91
        0
280
     0
281
     0
  0
CLASS
  1
ACAECUSTOBJ
  2
AcAeEditorObj
  3
AcAeEditorObj
 90
     1024
 91
        0
280
     0
281
     0
  0
CLASS
  1
ACDB_DYNAMICBLOCKPURGEPREVENTER_VERSION
  2
AcDbDynamicBlockPurgePreventer
  3
ObjectDBX Classes
 90
     1153
 91
        0
280
     0
281
     0
  0
ENDSEC
  0
SECTION
  2
TABLES
  0
TABLE
  2
VPORT
  5
8
102
{ACAD_XDICTIONARY
360
1B6
102
}
330
0
100
AcDbSymbolTable
 70
     1
  0
VPORT
  5
82
330
8
100
AcDbSymbolTableRecord
100
AcDbViewportTableRecord
  2
*Active
 70
     0
 10
0.0
 20
0.0
 11
1.0
 21
1.0
 12
831.3275064284789
 22
3932.793746640432
 13
0.0
 23
0.0
 14
50.0
 24
50.0
 15
200.0
 25
200.0
 16
0.0
 26
0.0
 36
1.0
 17
0.0
 27
0.0
 37
0.0
 40
762.7481275707691
 41
1.443908323281061
 42
50.0
 43
0.0
 44
0.0
 50
0.0
 51
0.0
 71
    16
 72
 10000
 73
     1
 74
     1
 75
     0
 76
     0
 77
     0
 78
     0
281
     0
 65
     1
110
0.0
120
0.0
130
0.0
111
1.0
121
0.0
131
0.0
112
0.0
122
1.0
132
0.0
 79
     0
146
0.0
  0
ENDTAB
  0
TABLE
  2
LTYPE
  5
5
330
0
100
AcDbSymbolTable
 70
    23
  0
LTYPE
  5
62
330
5
100
AcDbSymbolTableRecord
100
AcDbLinetypeTableRecord
  2
ByBlock
 70
     0
  3

 72
    65
 73
     0
 40
0.0
  0
LTYPE
  5
63
330
5
100
AcDbSymbolTableRecord
100
AcDbLinetypeTableRecord
  2
ByLayer
 70
     0
  3

 72
    65
 73
     0
 40
0.0
  0
LTYPE
  5
64
330
5
100
AcDbSymbolTableRecord
100
AcDbLinetypeTableRecord
  2
CONTINUOUS
 70
     0
  3
Solid line
 72
    65
 73
     0
 40
0.0
  0
LTYPE
  5
78
330
5
100
AcDbSymbolTableRecord
100
AcDbLinetypeTableRecord
  2
DASHED
 70
     0
  3
Dashed line
 72
    65
 73
     2
 40
0.75
 49
0.5
 74
     0
 49
-0.25
 74
     0
  0
LTYPE
  5
79
330
5
100
AcDbSymbolTableRecord
100
AcDbLinetypeTableRecord
  2
CENTER
 70
     0
  3
Center line
 72
    65
 73
     4
 40
2.0
 49
1.25
 74
     0
 49
-0.25
 74
     0
 49
0.25
 74
     0
 49
-0.25
 74
     0
  0
LTYPE
  5
13E
330
5
100
AcDbSymbolTableRecord
100
AcDbLinetypeTableRecord
  2
HIDDEN
 70
     0
  3
Verdeckt
 72
    65
 73
     2
 40
0.375
 49
0.25
 74
     0
 49
-0.125
 74
     0
  0
LTYPE
  5
13F
330
5
100
AcDbSymbolTableRecord
100
AcDbLinetypeTableRecord
  2
PHANTOM2
 70
     0
  3
Phantom (.5x) ___ _ _ ___ _ _ ___ _ _ ___ _ _
 72
    65
 73
     6
 40
1.25
 49
0.625
 74
     0
 49
-0.125
 74
     0
 49
0.125
 74
     0
 49
-0.125
 74
     0
 49
0.125
 74
     0
 49
-0.125
 74
     0
  0
LTYPE
  5
183
330
5
100
AcDbSymbolTableRecord
100
AcDbLinetypeTableRecord
  2
ACANSTGB
 70
     0
  3
__ . . __ . .
 72
    65
 73
     6
 40
0.35433070866
 49
0.15748031496
 74
     0
 49
-0.03937007874
 74
     0
 49
0.03937007874
 74
     0
 49
-0.03937007874
 74
     0
 49
0.03937007874
 74
     0
 49
-0.03937007874
 74
     0
  0
LTYPE
  5
184
330
5
100
AcDbSymbolTableRecord
100
AcDbLinetypeTableRecord
  2
ACANSTGL
 70
     0
  3
_ _ _ _ _
 72
    65
 73
     2
 40
0.11811023622
 49
0.07874015748
 74
     0
 49
-0.03937007874
 74
     0
  0
LTYPE
  5
26A
330
5
100
AcDbSymbolTableRecord
100
AcDbLinetypeTableRecord
  2
ACDINWELD
 70
     0
  3
_ _ _ _ _
 72
    65
 73
     2
 40
2.0
 49
2.0
 74
     0
 49
-1.0
 74
     0
  0
LTYPE
  5
26B
330
5
100
AcDbSymbolTableRecord
100
AcDbLinetypeTableRecord
  2
ACDINTGB
 70
     0
  3
__ . . __ . .
 72
    65
 73
     6
 40
9.0
 49
4.0
 74
     0
 49
-1.0
 74
     0
 49
1.0
 74
     0
 49
-1.0
 74
     0
 49
1.0
 74
     0
 49
-1.0
 74
     0
  0
LTYPE
  5
26C
330
5
100
AcDbSymbolTableRecord
100
AcDbLinetypeTableRecord
  2
ACDINTGL
 70
     0
  3
_ _ _ _ _
 72
    65
 73
     2
 40
3.0
 49
2.0
 74
     0
 49
-1.0
 74
     0
  0
LTYPE
  5
2A6
330
5
100
AcDbSymbolTableRecord
100
AcDbLinetypeTableRecord
  2
Amconstr
 70
     0
  3
_______________________
 72
    65
 73
     2
 40
9999.0
 49
9999.0
 74
     0
 49
0.0
 74
     0
  0
LTYPE
  5
2A7
330
5
100
AcDbSymbolTableRecord
100
AcDbLinetypeTableRecord
  2
Amzigzag
 70
     0
  3
/\/-/\/-/\/-/\/-/\/-/\/
 72
    65
 73
     2
 40
11.0001
 49
0.0001
 74
     4
 75
   136
340
2A8
 46
0.04
 50
0.0
 44
0.0
 45
0.0
 49
-11.0
 74
     0
  0
LTYPE
  5
38A
330
5
100
AcDbSymbolTableRecord
100
AcDbLinetypeTableRecord
  2
HIDDEN2
 70
     0
  3
Hidden (.5x) _ _ _ _ _ _ _ _ _ _ _ _ _ _ _ _ _
 72
    65
 73
     2
 40
0.1875
 49
0.125
 74
     0
 49
-0.0625
 74
     0
  0
LTYPE
  5
38B
330
5
100
AcDbSymbolTableRecord
100
AcDbLinetypeTableRecord
  2
CENTER2
 70
     0
  3
Center (.5x) ___ _ ___ _ ___ _ ___ _ ___ _ ___
 72
    65
 73
     4
 40
1.125
 49
0.75
 74
     0
 49
-0.125
 74
     0
 49
0.125
 74
     0
 49
-0.125
 74
     0
  0
LTYPE
  5
3C3
330
5
100
AcDbSymbolTableRecord
100
AcDbLinetypeTableRecord
  2
AM_ISO02W050
 70
     0
  3
__ __ __ __ __ __ __ __ __ __ __ __ __ __ __
 72
    65
 73
     2
 40
7.5
 49
6.0
 74
     0
 49
-1.5
 74
     0
  0
LTYPE
  5
3C4
330
5
100
AcDbSymbolTableRecord
100
AcDbLinetypeTableRecord
  2
AM_ISO08W050
 70
     0
  3
____ . ____ . ____ . ____ . ____ . ____ . ____
 72
    65
 73
     4
 40
18.0
 49
12.0
 74
     0
 49
-1.5
 74
     0
 49
3.0
 74
     0
 49
-1.5
 74
     0
  0
LTYPE
  5
3C5
330
5
100
AcDbSymbolTableRecord
100
AcDbLinetypeTableRecord
  2
AM_ISO09W050
 70
     0
  3
_____ . . _____ . . _____ . . ____ .. ____
 72
    65
 73
     6
 40
22.5
 49
12.0
 74
     0
 49
-1.5
 74
     0
 49
3.0
 74
     0
 49
-1.5
 74
     0
 49
3.0
 74
     0
 49
-1.5
 74
     0
  0
LTYPE
  5
3C6
330
5
100
AcDbSymbolTableRecord
100
AcDbLinetypeTableRecord
  2
AM_ISO08W050x2
 70
     0
  3
__ . __ . __ . __ . __ . __
 72
    65
 73
     4
 40
9.0
 49
6.0
 74
     0
 49
-0.75
 74
     0
 49
1.5
 74
     0
 49
-0.75
 74
     0
  0
LTYPE
  5
3C7
330
5
100
AcDbSymbolTableRecord
100
AcDbLinetypeTableRecord
  2
AM_ISO02W050x2
 70
     0
  3
 _ _ _ _ _ _ _ _ _ _ _ _
 72
    65
 73
     2
 40
3.75
 49
3.0
 74
     0
 49
-0.75
 74
     0
  0
LTYPE
  5
3C8
330
5
100
AcDbSymbolTableRecord
100
AcDbLinetypeTableRecord
  2
ACISOWELD
 70
     0
  3
_ _ _ _ _
 72
    65
 73
     2
 40
2.0
 49
2.0
 74
     0
 49
-1.0
 74
     0
  0
LTYPE
  5
3C9
330
5
100
AcDbSymbolTableRecord
100
AcDbLinetypeTableRecord
  2
ACISOTGB
 70
     0
  3
__ . . __ . .
 72
    65
 73
     6
 40
9.0
 49
4.0
 74
     0
 49
-1.0
 74
     0
 49
1.0
 74
     0
 49
-1.0
 74
     0
 49
1.0
 74
     0
 49
-1.0
 74
     0
  0
LTYPE
  5
3CA
330
5
100
AcDbSymbolTableRecord
100
AcDbLinetypeTableRecord
  2
ACISOTGL
 70
     0
  3
_ _ _ _ _
 72
    65
 73
     2
 40
3.0
 49
2.0
 74
     0
 49
-1.0
 74
     0
  0
ENDTAB
  0
TABLE
  2
LAYER
  5
2
102
{ACAD_XDICTIONARY
360
256
102
}
330
0
100
AcDbSymbolTable
 70
    24
  0
LAYER
  5
5C
102
{ACAD_XDICTIONARY
360
1A2
102
}
330
2
100
AcDbSymbolTableRecord
100
AcDbLayerTableRecord
  2
0
 70
     0
 62
     7
  6
CONTINUOUS
370
    -3
390
F
  0
LAYER
  5
27F
102
{ACAD_XDICTIONARY
360
2C7
102
}
330
2
100
AcDbSymbolTableRecord
100
AcDbLayerTableRecord
  2
Defpoints
 70
     0
 62
     7
  6
CONTINUOUS
290
     0
370
    -3
390
F
  0
LAYER
  5
2AA
102
{ACAD_XDICTIONARY
360
2C9
102
}
330
2
100
AcDbSymbolTableRecord
100
AcDbLayerTableRecord
  2
AM_3 ( Verdeckt )
 70
     0
 62
     6
  6
AM_ISO02W050
370
    25
390
F
1001
AcAecLayerStandard
1000

1000

  0
LAYER
  5
2AC
102
{ACAD_XDICTIONARY
360
2CB
102
}
330
2
100
AcDbSymbolTableRecord
100
AcDbLayerTableRecord
  2
AM_7 (Mittellinie)
 70
     0
 62
     4
  6
AM_ISO08W050
370
    25
390
F
1001
AcAecLayerStandard
1000

1000

  0
LAYER
  5
2AE
102
{ACAD_XDICTIONARY
360
2CD
102
}
330
2
100
AcDbSymbolTableRecord
100
AcDbLayerTableRecord
  2
AM_2 ( Kontur 0.25)
 70
     0
 62
     5
  6
CONTINUOUS
370
    25
390
F
1001
AcAecLayerStandard
1000

1000

  0
LAYER
  5
2B1
102
{ACAD_XDICTIONARY
360
2CF
102
}
330
2
100
AcDbSymbolTableRecord
100
AcDbLayerTableRecord
  2
AM_5 ( Bemassung)
 70
     0
 62
     3
  6
CONTINUOUS
370
    25
390
F
1001
AcAecLayerStandard
1000

1000

  0
LAYER
  5
9FC
102
{ACAD_XDICTIONARY
360
A1F
102
}
330
2
100
AcDbSymbolTableRecord
100
AcDbLayerTableRecord
  2
AM_0 ( Kontur 0.5 )
 70
     0
 62
     7
  6
CONTINUOUS
370
    50
390
F
1001
AcAecLayerStandard
1000

1000

  0
ENDTAB
  0
TABLE
  2
STYLE
  5
3
330
0
100
AcDbSymbolTable
 70
    13
  0
STYLE
  5
5D
330
3
100
AcDbSymbolTableRecord
100
AcDbTextStyleTableRecord
  2
STANDARD
 70
     0
 40
0.0
 41
1.0
 50
0.0
 71
     0
 42
3.5
  3
ARIAL.TTF
  4

1001
ACAD
1000
Arial
1071
       34
  0
STYLE
  5
174
330
3
100
AcDbSymbolTableRecord
100
AcDbTextStyleTableRecord
  2
ACANSTS
 70
     0
 40
1.0
 41
1.0
 50
0.0
 71
     0
 42
3.5
  3
romans.shx
  4

  0
STYLE
  5
182
330
3
100
AcDbSymbolTableRecord
100
AcDbTextStyleTableRecord
  2
ACANSGDT
 70
     0
 40
0.0
 41
1.0
 50
0.0
 71
     0
 42
3.5
  3
amgdt.shx
  4

  0
STYLE
  5
25A
330
3
100
AcDbSymbolTableRecord
100
AcDbTextStyleTableRecord
  2
ACDINTS
 70
     0
 40
1.0
 41
1.0
 50
0.0
 71
     0
 42
3.5
  3
isocp.shx
  4

  0
STYLE
  5
269
330
3
100
AcDbSymbolTableRecord
100
AcDbTextStyleTableRecord
  2
ACDINGDT
 70
     0
 40
0.0
 41
1.0
 50
0.0
 71
     0
 42
3.5
  3
amgdt.shx
  4

  0
STYLE
  5
2A8
330
3
100
AcDbSymbolTableRecord
100
AcDbTextStyleTableRecord
  2

 70
     1
 40
0.0
 41
1.0
 50
0.0
 71
     0
 42
2.5
  3
genltshp.shx
  4

  0
STYLE
  5
3CB
330
3
100
AcDbSymbolTableRecord
100
AcDbTextStyleTableRecord
  2
ACISOTS
 70
     0
 40
1.0
 41
1.0
 50
0.0
 71
     0
 42
2.5
  3
ARIALN.TTF
  4

1001
ACAD
1000
Arial Narrow
1071
       34
  0
STYLE
  5
3CC
330
3
100
AcDbSymbolTableRecord
100
AcDbTextStyleTableRecord
  2
ACISOGDT
 70
     0
 40
0.0
 41
1.0
 50
0.0
 71
     0
 42
2.5
  3
amgdt.shx
  4

  0
ENDTAB
  0
TABLE
  2
VIEW
  5
6
330
0
100
AcDbSymbolTable
 70
     6
  0
VIEW
  5
51B
330
6
100
AcDbSymbolTableRecord
100
AcDbViewTableRecord
  2
AM_VIEW1
 70
     0
 40
2970.0
 10
5244.127408818744
 20
7963.547409082302
 41
4538.252933507171
 11
0.0
 21
0.0
 31
1.0
 12
0.0
 22
0.0
 32
0.0
 42
50.0
 43
0.0
 44
0.0
 50
0.0
 71
    16
281
     0
 72
     0
  0
VIEW
  5
51C
330
6
100
AcDbSymbolTableRecord
100
AcDbViewTableRecord
  2
AM_VIEW2
 70
     0
 40
2970.0
 10
9105.874475311576
 20
7963.547409082302
 41
4538.252933507171
 11
0.0
 21
0.0
 31
1.0
 12
0.0
 22
0.0
 32
0.0
 42
50.0
 43
0.0
 44
0.0
 50
0.0
 71
    16
281
     0
 72
     0
  0
VIEW
  5
51D
330
6
100
AcDbSymbolTableRecord
100
AcDbViewTableRecord
  2
AM_VIEW3
 70
     0
 40
2970.0
 10
5244.127408818744
 20
4993.547409082303
 41
4538.252933507171
 11
0.0
 21
0.0
 31
1.0
 12
0.0
 22
0.0
 32
0.0
 42
50.0
 43
0.0
 44
0.0
 50
0.0
 71
    16
281
     0
 72
     0
  0
VIEW
  5
51E
330
6
100
AcDbSymbolTableRecord
100
AcDbViewTableRecord
  2
AM_VIEW4
 70
     0
 40
2970.0
 10
9105.874475311576
 20
4993.547409082303
 41
4538.252933507171
 11
0.0
 21
0.0
 31
1.0
 12
0.0
 22
0.0
 32
0.0
 42
50.0
 43
0.0
 44
0.0
 50
0.0
 71
    16
281
     0
 72
     0
  0
VIEW
  5
51F
330
6
100
AcDbSymbolTableRecord
100
AcDbViewTableRecord
  2
AM_VIEW5
 70
     0
 40
2970.0
 10
7175.000942065159
 20
6478.547409082302
 41
4538.252933507172
 11
0.0
 21
0.0
 31
1.0
 12
0.0
 22
0.0
 32
0.0
 42
50.0
 43
0.0
 44
0.0
 50
0.0
 71
    16
281
     0
 72
     0
  0
VIEW
  5
520
330
6
100
AcDbSymbolTableRecord
100
AcDbViewTableRecord
  2
AM_VIEW6
 70
     0
 40
5939.940599999999
 10
7175.000942065159
 20
6478.547409082302
 41
9076.415101955673
 11
0.0
 21
0.0
 31
1.0
 12
0.0
 22
0.0
 32
0.0
 42
50.0
 43
0.0
 44
0.0
 50
0.0
 71
    16
281
     0
 72
     0
  0
ENDTAB
  0
TABLE
  2
UCS
  5
7
330
0
100
AcDbSymbolTable
 70
     0
  0
ENDTAB
  0
TABLE
  2
APPID
  5
9
330
0
100
AcDbSymbolTable
 70
    66
  0
APPID
  5
5E
330
9
100
AcDbSymbolTableRecord
100
AcDbRegAppTableRecord
  2
ACAD
 70
     0
  0
APPID
  5
65
330
9
100
AcDbSymbolTableRecord
100
AcDbRegAppTableRecord
  2
AcadAnnotative
 70
     0
  0
APPID
  5
6F
330
9
100
AcDbSymbolTableRecord
100
AcDbRegAppTableRecord
  2
ACAD_MLEADERVER
 70
     0
  0
APPID
  5
111
330
9
100
AcDbSymbolTableRecord
100
AcDbRegAppTableRecord
  2
MCAD_NO_VIS
 70
     0
  0
APPID
  5
112
330
9
100
AcDbSymbolTableRecord
100
AcDbRegAppTableRecord
  2
ACAD_TEMP_GRAPHIC
 70
     0
  0
APPID
  5
141
330
9
100
AcDbSymbolTableRecord
100
AcDbRegAppTableRecord
  2
AD_DRAW
 70
     0
  0
APPID
  5
144
330
9
100
AcDbSymbolTableRecord
100
AcDbRegAppTableRecord
  2
ACATTRIBSERVICES
 70
     0
  0
APPID
  5
165
330
9
100
AcDbSymbolTableRecord
100
AcDbRegAppTableRecord
  2
DESIGNERASSEMBLIES
 70
     0
  0
APPID
  5
16B
330
9
100
AcDbSymbolTableRecord
100
AcDbRegAppTableRecord
  2
ACADM_DIM_EDIT
 70
     0
  0
APPID
  5
16C
330
9
100
AcDbSymbolTableRecord
100
AcDbRegAppTableRecord
  2
AMDT_DM_ADJ
 70
     0
  0
APPID
  5
1C8
330
9
100
AcDbSymbolTableRecord
100
AcDbRegAppTableRecord
  2
ACAD_DSTYLE_DIMARC_LENGTH_SYMBOL
 70
     0
  0
APPID
  5
24A
330
9
100
AcDbSymbolTableRecord
100
AcDbRegAppTableRecord
  2
AcAecLayerStandard
 70
     0
  0
APPID
  5
280
330
9
100
AcDbSymbolTableRecord
100
AcDbRegAppTableRecord
  2
ACAD_DSTYLE_DIMJOGGED_JOGANGLE_SYMBOL
 70
     0
  0
APPID
  5
281
330
9
100
AcDbSymbolTableRecord
100
AcDbRegAppTableRecord
  2
AcadAnnoPO
 70
     0
  0
APPID
  5
282
330
9
100
AcDbSymbolTableRecord
100
AcDbRegAppTableRecord
  2
ACAD_EXEMPT_FROM_CAD_STANDARDS
 70
     0
  0
APPID
  5
283
330
9
100
AcDbSymbolTableRecord
100
AcDbRegAppTableRecord
  2
GENIUS_GENODEF_13
 70
     0
  0
APPID
  5
284
330
9
100
AcDbSymbolTableRecord
100
AcDbRegAppTableRecord
  2
GENIUS_GENOBJ-N-CRS_13
 70
     0
  0
APPID
  5
285
330
9
100
AcDbSymbolTableRecord
100
AcDbRegAppTableRecord
  2
GENIUS_GENOENT_13
 70
     0
  0
APPID
  5
286
330
9
100
AcDbSymbolTableRecord
100
AcDbRegAppTableRecord
  2
GENIUS_GENOLIS_13
 70
     0
  0
APPID
  5
287
330
9
100
AcDbSymbolTableRecord
100
AcDbRegAppTableRecord
  2
GENIUS_GENOREF_13
 70
     0
  0
APPID
  5
288
330
9
100
AcDbSymbolTableRecord
100
AcDbRegAppTableRecord
  2
GEVID1190879659
 70
     0
  0
APPID
  5
289
330
9
100
AcDbSymbolTableRecord
100
AcDbRegAppTableRecord
  2
GEVDC
 70
     0
  0
APPID
  5
28A
330
9
100
AcDbSymbolTableRecord
100
AcDbRegAppTableRecord
  2
GENIUS_GENBH_13
 70
     0
  0
APPID
  5
28B
330
9
100
AcDbSymbolTableRecord
100
AcDbRegAppTableRecord
  2
GENIUS_GENOBJ-NBEHI-BHF_13
 70
     0
  0
APPID
  5
28C
330
9
100
AcDbSymbolTableRecord
100
AcDbRegAppTableRecord
  2
GENIUS_GENOBJ-NBEHI-BHB_13
 70
     0
  0
APPID
  5
28D
330
9
100
AcDbSymbolTableRecord
100
AcDbRegAppTableRecord
  2
GEVID1190879660
 70
     0
  0
APPID
  5
28E
330
9
100
AcDbSymbolTableRecord
100
AcDbRegAppTableRecord
  2
GEVID1190879661
 70
     0
  0
APPID
  5
28F
330
9
100
AcDbSymbolTableRecord
100
AcDbRegAppTableRecord
  2
ACAD_DSTYLE_DIMRADIAL_EXTENSION
 70
     0
  0
APPID
  5
290
330
9
100
AcDbSymbolTableRecord
100
AcDbRegAppTableRecord
  2
GEVID1190879662
 70
     0
  0
APPID
  5
291
330
9
100
AcDbSymbolTableRecord
100
AcDbRegAppTableRecord
  2
GEVID1190879663
 70
     0
  0
APPID
  5
292
330
9
100
AcDbSymbolTableRecord
100
AcDbRegAppTableRecord
  2
GEVID1190879664
 70
     0
  0
APPID
  5
293
330
9
100
AcDbSymbolTableRecord
100
AcDbRegAppTableRecord
  2
GEVID1190879665
 70
     0
  0
APPID
  5
294
330
9
100
AcDbSymbolTableRecord
100
AcDbRegAppTableRecord
  2
GEVID1190879666
 70
     0
  0
APPID
  5
295
330
9
100
AcDbSymbolTableRecord
100
AcDbRegAppTableRecord
  2
GENIUS_GENOBJ-N-CEN_13
 70
     0
  0
APPID
  5
296
330
9
100
AcDbSymbolTableRecord
100
AcDbRegAppTableRecord
  2
GENIUS_GENCEN_19
 70
     0
  0
APPID
  5
297
330
9
100
AcDbSymbolTableRecord
100
AcDbRegAppTableRecord
  2
GEVID1190879667
 70
     0
  0
APPID
  5
298
330
9
100
AcDbSymbolTableRecord
100
AcDbRegAppTableRecord
  2
GENIUS_GENOBJ-N-CRC_13
 70
     0
  0
APPID
  5
299
330
9
100
AcDbSymbolTableRecord
100
AcDbRegAppTableRecord
  2
GENIUS_GENCRC_14
 70
     0
  0
APPID
  5
29A
330
9
100
AcDbSymbolTableRecord
100
AcDbRegAppTableRecord
  2
ACAD_PSEXT
 70
     0
  0
APPID
  5
29B
330
9
100
AcDbSymbolTableRecord
100
AcDbRegAppTableRecord
  2
GEVID1190888456
 70
     0
  0
APPID
  5
29C
330
9
100
AcDbSymbolTableRecord
100
AcDbRegAppTableRecord
  2
GEVID1190888457
 70
     0
  0
APPID
  5
29D
330
9
100
AcDbSymbolTableRecord
100
AcDbRegAppTableRecord
  2
GEVID1190888458
 70
     0
  0
APPID
  5
29E
330
9
100
AcDbSymbolTableRecord
100
AcDbRegAppTableRecord
  2
GEVID1190888459
 70
     0
  0
APPID
  5
29F
330
9
100
AcDbSymbolTableRecord
100
AcDbRegAppTableRecord
  2
GEVID1190888460
 70
     0
  0
APPID
  5
2A0
330
9
100
AcDbSymbolTableRecord
100
AcDbRegAppTableRecord
  2
GEVID1190888461
 70
     0
  0
APPID
  5
2A1
330
9
100
AcDbSymbolTableRecord
100
AcDbRegAppTableRecord
  2
GEVID1190888462
 70
     0
  0
APPID
  5
2A2
330
9
100
AcDbSymbolTableRecord
100
AcDbRegAppTableRecord
  2
ACAD_DSTYLE_DIMJAG
 70
     0
  0
APPID
  5
2A3
330
9
100
AcDbSymbolTableRecord
100
AcDbRegAppTableRecord
  2
ACAD_DSTYLE_DIMTALN
 70
     0
  0
APPID
  5
390
330
9
100
AcDbSymbolTableRecord
100
AcDbRegAppTableRecord
  2
GENIUS_GENBLLY_14
 70
     0
  0
APPID
  5
3D5
330
9
100
AcDbSymbolTableRecord
100
AcDbRegAppTableRecord
  2
DCO15
 70
     0
  0
APPID
  5
3D6
330
9
100
AcDbSymbolTableRecord
100
AcDbRegAppTableRecord
  2
GENIUS_GENREC_14
 70
     0
  0
APPID
  5
3D7
330
9
100
AcDbSymbolTableRecord
100
AcDbRegAppTableRecord
  2
GENIUS_GENOBJ-N-REC_13
 70
     0
  0
APPID
  5
519
330
9
100
AcDbSymbolTableRecord
100
AcDbRegAppTableRecord
  2
GENIUS_GENOBJ-N-TIT_13
 70
     0
  0
APPID
  5
51A
330
9
100
AcDbSymbolTableRecord
100
AcDbRegAppTableRecord
  2
GENIUS_GENTITLE_13
 70
     0
  0
APPID
  5
521
330
9
100
AcDbSymbolTableRecord
100
AcDbRegAppTableRecord
  2
GENIUS_GENSCREG_15
 70
     0
  0
APPID
  5
522
330
9
100
AcDbSymbolTableRecord
100
AcDbRegAppTableRecord
  2
GENIUS_GENOBJ-N-SDF_13
 70
     0
  0
APPID
  5
5BA
330
9
100
AcDbSymbolTableRecord
100
AcDbRegAppTableRecord
  2
ACAD_DSTYLE_DIMINSPECT
 70
     0
  0
APPID
  5
986
330
9
100
AcDbSymbolTableRecord
100
AcDbRegAppTableRecord
  2
GENIUS_GENDIMSH_14
 70
     0
  0
APPID
  5
AFA
330
9
100
AcDbSymbolTableRecord
100
AcDbRegAppTableRecord
  2
GENIUS_GENOBJ-N-HTC_13
 70
     0
  0
APPID
  5
AFB
330
9
100
AcDbSymbolTableRecord
100
AcDbRegAppTableRecord
  2
GENIUS_GENHATCH_13
 70
     0
  0
APPID
  5
B3E
330
9
100
AcDbSymbolTableRecord
100
AcDbRegAppTableRecord
  2
ACAUTHENVIRON
 70
     0
  0
APPID
  5
B42
330
9
100
AcDbSymbolTableRecord
100
AcDbRegAppTableRecord
  2
AcDbDynamicBlockTrueName
 70
     0
  0
APPID
  5
B43
330
9
100
AcDbSymbolTableRecord
100
AcDbRegAppTableRecord
  2
AcDbDynamicBlockGUID
 70
     0
  0
APPID
  5
B45
330
9
100
AcDbSymbolTableRecord
100
AcDbRegAppTableRecord
  2
ACDBBLOCKREPETAG
 70
     0
  0
APPID
  5
2F23
330
9
100
AcDbSymbolTableRecord
100
AcDbRegAppTableRecord
  2
GENIUS_GENDTOL_13
 70
     0
  0
APPID
  5
30BE
330
9
100
AcDbSymbolTableRecord
100
AcDbRegAppTableRecord
  2
AcDbAttr
 70
     0
  0
ENDTAB
  0
TABLE
  2
DIMSTYLE
  5
A
330
0
100
AcDbSymbolTable
 70
    25
100
AcDbDimStyleTable
 71
     5
340
276
340
27B
340
5F
340
27C
340
3CE
  0
DIMSTYLE
105
5F
330
A
100
AcDbSymbolTableRecord
100
AcDbDimStyleTableRecord
  2
Standard
 70
     0
340
5D
  0
DIMSTYLE
105
18F
330
A
100
AcDbSymbolTableRecord
100
AcDbDimStyleTableRecord
  2
AM_ANSI
 70
     0
  4
mm
 41
0.1
 42
0.05
 43
0.5
 44
0.1
 47
0.1
 48
0.1
 78
     7
 79
     2
140
0.12
141
0.0
146
0.71
147
0.06
176
   256
177
   256
178
     2
274
     4
284
     7
340
5D
371
    -1
372
    -1
1001
ACAD_DSTYLE_DIMARC_LENGTH_SYMBOL
1070
   379
1070
     1
  0
DIMSTYLE
105
190
330
A
100
AcDbSymbolTableRecord
100
AcDbDimStyleTableRecord
  2
AM_ANSI$3
 70
     0
  4
mm
 41
0.1
 42
0.05
 43
0.5
 44
0.1
 47
0.1
 48
0.1
 78
     7
 79
     2
140
0.12
141
0.0
146
0.71
147
0.06
176
   256
177
   256
178
     2
274
     4
284
     7
288
     1
289
     0
340
5D
371
    -1
372
    -1
1001
ACAD_DSTYLE_DIMARC_LENGTH_SYMBOL
1070
   379
1070
     1
  0
DIMSTYLE
105
191
330
A
100
AcDbSymbolTableRecord
100
AcDbDimStyleTableRecord
  2
AM_ANSI$4
 70
     0
  4
mm
 41
0.1
 42
0.05
 43
0.5
 44
0.1
 47
0.1
 48
0.1
 78
     7
 79
     2
140
0.12
141
0.0
146
0.71
147
0.06
176
   256
177
   256
178
     2
274
     4
284
     7
288
     1
289
     0
340
5D
371
    -1
372
    -1
1001
ACAD_DSTYLE_DIMARC_LENGTH_SYMBOL
1070
   379
1070
     1
  0
DIMSTYLE
105
192
330
A
100
AcDbSymbolTableRecord
100
AcDbDimStyleTableRecord
  2
AM_ANSI$7
 70
     0
  4
mm
 41
0.1
 42
0.05
 43
0.5
 44
0.1
 47
0.1
 48
0.1
 78
     7
 79
     2
140
0.24
141
0.0
146
0.71
147
0.06
176
   256
177
   256
178
     2
274
     4
284
     7
340
5D
371
    -1
372
    -1
1001
ACAD_DSTYLE_DIMARC_LENGTH_SYMBOL
1070
   379
1070
     1
  0
DIMSTYLE
105
193
330
A
100
AcDbSymbolTableRecord
100
AcDbDimStyleTableRecord
  2
AM_ANSI$SF
 70
     0
  4
mm
 41
0.1
 42
0.05
 43
0.5
 44
0.1
 47
0.1
 48
0.1
 75
     1
 76
     1
 78
     7
 79
     2
140
0.12
141
0.0
146
0.71
147
0.06
176
   256
177
   256
178
     2
274
     4
284
     7
340
5D
371
    -1
372
    -1
1001
ACAD_DSTYLE_DIMARC_LENGTH_SYMBOL
1070
   379
1070
     1
  0
DIMSTYLE
105
198
330
A
100
AcDbSymbolTableRecord
100
AcDbDimStyleTableRecord
  2
AM_ANSI$SH
 70
     0
  4
mm
 41
0.1
 42
0.05
 43
0.5
 44
0.1
 47
0.1
 48
0.1
 75
     1
 76
     1
 78
     7
 79
     2
140
0.12
141
0.0
146
0.71
147
0.06
173
     1
176
   256
177
   256
178
     2
274
     4
284
     7
340
5D
343
194
371
    -1
372
    -1
1001
ACAD_DSTYLE_DIMARC_LENGTH_SYMBOL
1070
   379
1070
     1
  0
DIMSTYLE
105
276
330
A
100
AcDbSymbolTableRecord
100
AcDbDimStyleTableRecord
  2
AM_DIN
 70
     0
  4
"
 41
5.0
 42
1.0
 43
10.0
 44
1.0
 47
0.1
 48
0.1
 73
     0
 74
     0
 77
     1
 78
     8
 79
     2
140
5.0
141
0.0
143
0.0393701
146
0.71
147
1.5
172
     1
176
   256
177
   256
178
     2
271
     2
272
     2
283
     0
284
     8
340
5D
371
    -1
372
    -1
1001
ACAD_DSTYLE_DIMJOGGED_JOGANGLE_SYMBOL
1070
   384
1040
1.570796326794896
  0
DIMSTYLE
105
277
330
A
100
AcDbSymbolTableRecord
100
AcDbDimStyleTableRecord
  2
AM_DIN$3
 70
     0
  4
"
 41
3.5
 42
1.0
 43
10.0
 44
1.0
 47
0.1
 48
0.1
 73
     0
 77
     1
 78
     8
 79
     2
140
3.5
141
0.0
143
0.0393701
146
0.71
147
1.5
176
   256
177
   256
178
     2
271
     2
272
     2
283
     0
284
     8
288
     1
289
     0
340
5D
371
    -1
372
    -1
1001
ACAD_DSTYLE_DIMJOGGED_JOGANGLE_SYMBOL
1070
   384
1040
1.570796326794896
  0
DIMSTYLE
105
278
330
A
100
AcDbSymbolTableRecord
100
AcDbDimStyleTableRecord
  2
AM_DIN$4
 70
     0
  4
"
 41
4.0
 42
1.0
 43
10.0
 44
1.0
 47
0.1
 48
0.1
 73
     0
 77
     1
 78
     8
 79
     2
140
3.5
141
0.0
143
0.0393701
146
0.71
147
1.5
176
   256
177
   256
178
     2
271
     2
272
     2
283
     0
284
     8
288
     1
289
     0
340
5D
371
    -1
372
    -1
1001
ACAD_DSTYLE_DIMJOGGED_JOGANGLE_SYMBOL
1070
   384
1040
1.570796326794896
  0
DIMSTYLE
105
279
330
A
100
AcDbSymbolTableRecord
100
AcDbDimStyleTableRecord
  2
AM_DIN$6
 70
     0
  4
"
 41
4.0
 42
0.0
 43
10.0
 44
1.0
 47
0.1
 48
0.1
 73
     0
 74
     0
 78
     8
 79
     2
140
3.5
141
0.0
143
0.0393701
146
0.71
147
1.5
172
     1
176
   256
177
   256
178
     2
271
     2
272
     2
283
     0
284
     8
340
5D
371
    -1
372
    -1
1001
ACAD_DSTYLE_DIMJOGGED_JOGANGLE_SYMBOL
1070
   384
1040
1.570796326794896
  0
DIMSTYLE
105
27A
330
A
100
AcDbSymbolTableRecord
100
AcDbDimStyleTableRecord
  2
AM_DIN$7
 70
     0
  4
"
 41
5.0
 42
1.0
 43
10.0
 44
1.0
 47
0.1
 48
0.1
 73
     0
 74
     0
 77
     1
 78
     8
 79
     2
140
5.0
141
0.0
143
0.0393701
146
0.71
147
1.5
172
     1
176
   256
177
   256
178
     2
271
     2
272
     2
283
     0
284
     8
340
5D
371
    -1
372
    -1
1001
ACAD_DSTYLE_DIMJOGGED_JOGANGLE_SYMBOL
1070
   384
1040
1.570796326794896
  0
DIMSTYLE
105
27B
330
A
100
AcDbSymbolTableRecord
100
AcDbDimStyleTableRecord
  2
AM_DIN$SF
 70
     0
  4
"
 41
4.0
 42
1.0
 43
10.0
 44
1.0
 47
0.1
 48
0.1
 73
     0
 74
     0
 75
     1
 76
     1
 77
     1
 78
     8
 79
     2
140
3.5
141
0.0
143
0.0393701
146
0.71
147
1.5
172
     1
176
   256
177
   256
178
     2
271
     2
272
     2
283
     0
284
     8
340
5D
371
    -1
372
    -1
1001
ACAD_DSTYLE_DIMJOGGED_JOGANGLE_SYMBOL
1070
   384
1040
1.570796326794896
  0
DIMSTYLE
105
27C
330
A
100
AcDbSymbolTableRecord
100
AcDbDimStyleTableRecord
  2
AM_DIN$SH
 70
     0
  4
"
 41
4.0
 42
1.0
 43
10.0
 44
1.0
 47
0.1
 48
0.1
 73
     0
 74
     0
 75
     1
 76
     1
 77
     1
 78
     8
 79
     2
140
3.5
141
0.0
143
0.0393701
144
2.0
146
0.71
147
1.5
172
     1
173
     1
176
   256
177
   256
178
     2
271
     2
272
     2
283
     0
284
     8
340
5D
343
194
371
    -1
372
    -1
1001
ACAD_DSTYLE_DIMJOGGED_JOGANGLE_SYMBOL
1070
   384
1040
1.570796326794896
  0
DIMSTYLE
105
32F
102
{ACAD_REACTORS
330
298F
330
29B0
330
2AF7
102
}
330
A
100
AcDbSymbolTableRecord
100
AcDbDimStyleTableRecord
  2
AM_DIN$0
 70
     0
  4
"
 41
4.0
 42
0.0
 43
10.0
 44
1.0
 47
0.1
 48
0.1
 73
     0
 74
     0
 77
     1
 78
     8
 79
     2
140
3.5
141
0.0
143
0.0393701
146
0.71
147
1.5
172
     1
176
   256
177
   256
178
     2
271
     2
272
     2
283
     0
284
     8
340
5D
371
    -1
372
    -1
1001
ACAD_DSTYLE_DIMJOGGED_JOGANGLE_SYMBOL
1070
   384
1040
1.570796326794896
  0
DIMSTYLE
105
330
330
A
100
AcDbSymbolTableRecord
100
AcDbDimStyleTableRecord
  2
AM_DIN$2
 70
     0
  4
"
 41
4.0
 42
0.0
 43
10.0
 44
1.0
 47
0.1
 48
0.1
 73
     0
 74
     0
 77
     1
 78
     8
 79
     2
140
3.5
141
0.0
143
0.0393701
146
0.71
147
1.5
172
     1
176
   256
177
   256
178
     2
271
     2
272
     2
283
     0
284
     8
340
5D
371
    -1
372
    -1
1001
ACAD_DSTYLE_DIMJOGGED_JOGANGLE_SYMBOL
1070
   384
1040
1.570796326794896
  0
DIMSTYLE
105
3CE
330
A
100
AcDbSymbolTableRecord
100
AcDbDimStyleTableRecord
  2
AM_ISO
 70
     0
  4
"
 41
2.5
 42
1.0
 43
10.0
 44
1.0
 47
0.1
 48
0.1
 73
     0
 74
     0
 77
     1
 78
     8
 79
     2
140
3.5
141
0.0
143
0.0393701
146
0.71
147
1.5
172
     1
176
   256
177
   256
178
     2
271
     2
272
     3
274
     4
283
     0
284
     8
340
5D
371
    -1
372
    -1
1001
ACAD_DSTYLE_DIMJOGGED_JOGANGLE_SYMBOL
1070
   384
1040
0.7853981633974483
1001
ACAD_DSTYLE_DIMARC_LENGTH_SYMBOL
1070
   379
1070
     1
  0
DIMSTYLE
105
3CF
330
A
100
AcDbSymbolTableRecord
100
AcDbDimStyleTableRecord
  2
AM_ISO$3
 70
     0
  4
"
 41
2.5
 42
1.0
 43
10.0
 44
1.0
 47
0.1
 48
0.1
 73
     0
 77
     1
 78
     8
 79
     2
140
3.5
141
0.0
143
0.0393701
146
0.71
147
1.5
176
   256
177
   256
178
     2
271
     2
272
     3
274
     4
283
     0
284
     8
288
     1
289
     0
340
5D
371
    -1
372
    -1
1001
ACAD_DSTYLE_DIMJOGGED_JOGANGLE_SYMBOL
1070
   384
1040
0.7853981633974483
1001
ACAD_DSTYLE_DIMARC_LENGTH_SYMBOL
1070
   379
1070
     1
  0
DIMSTYLE
105
3D0
330
A
100
AcDbSymbolTableRecord
100
AcDbDimStyleTableRecord
  2
AM_ISO$4
 70
     0
  4
"
 41
2.5
 42
1.0
 43
10.0
 44
1.0
 47
0.1
 48
0.1
 73
     0
 77
     1
 78
     8
 79
     2
140
3.5
141
0.0
143
0.0393701
146
0.71
147
1.5
176
   256
177
   256
178
     2
271
     2
272
     3
274
     4
283
     0
284
     8
288
     1
289
     0
340
5D
371
    -1
372
    -1
1001
ACAD_DSTYLE_DIMJOGGED_JOGANGLE_SYMBOL
1070
   384
1040
0.7853981633974483
1001
ACAD_DSTYLE_DIMARC_LENGTH_SYMBOL
1070
   379
1070
     1
  0
DIMSTYLE
105
3D1
330
A
100
AcDbSymbolTableRecord
100
AcDbDimStyleTableRecord
  2
AM_ISO$6
 70
     0
  4
"
 41
2.5
 42
1.0
 43
10.0
 44
1.0
 47
0.1
 48
0.1
 73
     0
 74
     0
 78
     8
 79
     2
140
3.5
141
0.0
143
0.0393701
146
0.71
147
1.5
172
     1
176
   256
177
   256
178
     2
271
     2
272
     3
274
     4
283
     0
284
     8
340
5D
371
    -1
372
    -1
1001
ACAD_DSTYLE_DIMJOGGED_JOGANGLE_SYMBOL
1070
   384
1040
0.7853981633974483
1001
ACAD_DSTYLE_DIMARC_LENGTH_SYMBOL
1070
   379
1070
     1
  0
DIMSTYLE
105
3D2
330
A
100
AcDbSymbolTableRecord
100
AcDbDimStyleTableRecord
  2
AM_ISO$7
 70
     0
  4
"
 41
2.5
 42
1.0
 43
10.0
 44
1.0
 47
0.1
 48
0.1
 73
     0
 74
     0
 77
     1
 78
     8
 79
     2
140
5.0
141
0.0
143
0.0393701
146
0.71
147
1.5
172
     1
176
   256
177
   256
178
     2
271
     2
272
     3
274
     4
283
     0
284
     8
340
5D
371
    -1
372
    -1
1001
ACAD_DSTYLE_DIMJOGGED_JOGANGLE_SYMBOL
1070
   384
1040
0.7853981633974483
1001
ACAD_DSTYLE_DIMARC_LENGTH_SYMBOL
1070
   379
1070
     1
  0
DIMSTYLE
105
3D3
330
A
100
AcDbSymbolTableRecord
100
AcDbDimStyleTableRecord
  2
AM_ISO$SF
 70
     0
  4
"
 41
2.5
 42
1.0
 43
10.0
 44
1.0
 47
0.1
 48
0.1
 73
     0
 74
     0
 75
     1
 76
     1
 77
     1
 78
     8
 79
     2
140
3.5
141
0.0
143
0.0393701
146
0.71
147
1.5
172
     1
176
   256
177
   256
178
     2
271
     2
272
     3
274
     4
283
     0
284
     8
340
5D
371
    -1
372
    -1
1001
ACAD_DSTYLE_DIMJOGGED_JOGANGLE_SYMBOL
1070
   384
1040
0.7853981633974483
1001
ACAD_DSTYLE_DIMARC_LENGTH_SYMBOL
1070
   379
1070
     1
  0
DIMSTYLE
105
3D4
330
A
100
AcDbSymbolTableRecord
100
AcDbDimStyleTableRecord
  2
AM_ISO$SH
 70
     0
  4
"
 41
2.5
 42
1.0
 43
10.0
 44
1.0
 47
0.1
 48
0.1
 73
     0
 74
     0
 75
     1
 76
     1
 77
     1
 78
     8
 79
     2
140
3.5
141
0.0
143
0.0393701
144
2.0
146
0.71
147
1.5
172
     1
173
     1
176
   256
177
   256
178
     2
271
     2
272
     3
274
     4
283
     0
284
     8
340
5D
343
194
371
    -1
372
    -1
1001
ACAD_DSTYLE_DIMJOGGED_JOGANGLE_SYMBOL
1070
   384
1040
0.7853981633974483
1001
ACAD_DSTYLE_DIMARC_LENGTH_SYMBOL
1070
   379
1070
     1
  0
ENDTAB
  0
TABLE
  2
BLOCK_RECORD
  5
1
330
0
100
AcDbSymbolTable
 70
    44
  0
BLOCK_RECORD
  5
74
102
{ACAD_XDICTIONARY
360
A88
102
}
330
1
100
AcDbSymbolTableRecord
100
AcDbBlockTableRecord
  2
*Model_Space
340
77
  0
BLOCK_RECORD
  5
70
330
1
100
AcDbSymbolTableRecord
100
AcDbBlockTableRecord
  2
*Paper_Space
340
73
  0
BLOCK_RECORD
  5
194
330
1
100
AcDbSymbolTableRecord
100
AcDbBlockTableRecord
  2
GENAXEH
340
0
  0
BLOCK_RECORD
  5
2990
330
1
100
AcDbSymbolTableRecord
100
AcDbBlockTableRecord
  2
*D12
340
0
  0
BLOCK_RECORD
  5
29B1
330
1
100
AcDbSymbolTableRecord
100
AcDbBlockTableRecord
  2
*D13
340
0
  0
BLOCK_RECORD
  5
2AF8
330
1
100
AcDbSymbolTableRecord
100
AcDbBlockTableRecord
  2
*D17
340
0
  0
ENDTAB
  0
ENDSEC
  0
SECTION
  2
BLOCKS
  0
BLOCK
  5
75
330
74
100
AcDbEntity
  8
0
100
AcDbBlockBegin
  2
*Model_Space
 70
     0
 10
0.0
 20
0.0
 30
0.0
  3
*Model_Space
  1

  0
ENDBLK
  5
76
330
74
100
AcDbEntity
  8
0
100
AcDbBlockEnd
  0
BLOCK
  5
71
330
70
100
AcDbEntity
 67
     1
  8
0
100
AcDbBlockBegin
  2
*Paper_Space
 70
     0
 10
0.0
 20
0.0
 30
0.0
  3
*Paper_Space
  1

  0
ENDBLK
  5
72
330
70
100
AcDbEntity
 67
     1
  8
0
100
AcDbBlockEnd
  0
BLOCK
  5
3171
330
194
100
AcDbEntity
  8
0
100
AcDbBlockBegin
  2
GENAXEH
 70
     0
 10
0.0
 20
0.0
 30
0.0
  3
GENAXEH
  1

  0
LINE
  5
3172
330
194
100
AcDbEntity
  8
0
100
AcDbLine
 10
-1.0
 20
0.0
 30
0.0
 11
1.0
 21
0.0
 31
0.0
  0
ENDBLK
  5
3173
330
194
100
AcDbEntity
  8
0
100
AcDbBlockEnd
  0
BLOCK
  5
2991
330
2990
100
AcDbEntity
  8
0
100
AcDbBlockBegin
  2
*D12
 70
     1
 10
0.0
 20
0.0
 30
0.0
  3
*D12
  1

  0
LINE
  5
31E7
330
2990
100
AcDbEntity
  8
AM_5 ( Bemassung)
100
AcDbLine
 10
1005.791991857185
 20
4237.899658885465
 30
0.0
 11
1005.791991857185
 21
4290.899658885465
 31
0.0
  0
LINE
  5
31E8
330
2990
100
AcDbEntity
  8
AM_5 ( Bemassung)
100
AcDbLine
 10
655.7919918571851
 20
4237.899658885465
 30
0.0
 11
655.7919918571851
 21
4290.899658885465
 31
0.0
  0
LINE
  5
31E9
330
2990
100
AcDbEntity
  8
AM_5 ( Bemassung)
100
AcDbLine
 10
989.7919918571851
 20
4286.899658885465
 30
0.0
 11
671.7919918571851
 21
4286.899658885465
 31
0.0
  0
SOLID
  5
31EA
330
2990
100
AcDbEntity
  8
AM_5 ( Bemassung)
100
AcDbTrace
 10
989.7919918571851
 20
4289.566325552132
 30
0.0
 11
989.7919918571851
 21
4284.232992218798
 31
0.0
 12
1005.791991857185
 22
4286.899658885465
 32
0.0
 13
1005.791991857185
 23
4286.899658885465
 33
0.0
  0
SOLID
  5
31EB
330
2990
100
AcDbEntity
  8
AM_5 ( Bemassung)
100
AcDbTrace
 10
671.7919918571851
 20
4289.566325552132
 30
0.0
 11
671.7919918571851
 21
4284.232992218798
 31
0.0
 12
655.7919918571851
 22
4286.899658885465
 32
0.0
 13
655.7919918571851
 23
4286.899658885465
 33
0.0
  0
MTEXT
  5
31EC
330
2990
100
AcDbEntity
  8
AM_5 ( Bemassung)
 62
     2
100
AcDbMText
 10
830.7919918571851
 20
4300.439222323392
 30
0.0
 40
14.0
 41
0.0
 71
     5
 72
     1
  1
%%c350
 73
     1
 44
1.0
  0
POINT
  5
31ED
330
2990
100
AcDbEntity
  8
Defpoints
 62
     0
100
AcDbPoint
 10
1005.791991857185
 20
4237.899658885465
 30
0.0
  0
POINT
  5
31EE
330
2990
100
AcDbEntity
  8
Defpoints
 62
     0
100
AcDbPoint
 10
655.7919918571851
 20
4237.899658885465
 30
0.0
  0
POINT
  5
31EF
330
2990
100
AcDbEntity
  8
Defpoints
 62
     0
100
AcDbPoint
 10
655.7919918571851
 20
4286.899658885465
 30
0.0
  0
ENDBLK
  5
2992
330
2990
100
AcDbEntity
  8
0
100
AcDbBlockEnd
  0
BLOCK
  5
29B2
330
29B1
100
AcDbEntity
  8
0
100
AcDbBlockBegin
  2
*D13
 70
     1
 10
0.0
 20
0.0
 30
0.0
  3
*D13
  1

  0
LINE
  5
31F0
330
29B1
100
AcDbEntity
  8
AM_5 ( Bemassung)
100
AcDbLine
 10
760.7919918571852
 20
4064.885373171179
 30
0.0
 11
760.7919918571852
 21
4012.885373171179
 31
0.0
  0
LINE
  5
31F1
330
29B1
100
AcDbEntity
  8
AM_5 ( Bemassung)
100
AcDbLine
 10
900.7919918571852
 20
4064.885373171179
 30
0.0
 11
900.7919918571852
 21
4012.885373171179
 31
0.0
  0
LINE
  5
31F2
330
29B1
100
AcDbEntity
  8
AM_5 ( Bemassung)
100
AcDbLine
 10
776.7919918571851
 20
4016.88537317118
 30
0.0
 11
884.7919918571852
 21
4016.88537317118
 31
0.0
  0
SOLID
  5
31F3
330
29B1
100
AcDbEntity
  8
AM_5 ( Bemassung)
100
AcDbTrace
 10
776.7919918571851
 20
4019.552039837846
 30
0.0
 11
776.7919918571851
 21
4014.218706504514
 31
0.0
 12
760.7919918571852
 22
4016.88537317118
 32
0.0
 13
760.7919918571852
 23
4016.88537317118
 33
0.0
  0
SOLID
  5
31F4
330
29B1
100
AcDbEntity
  8
AM_5 ( Bemassung)
100
AcDbTrace
 10
884.7919918571852
 20
4019.552039837846
 30
0.0
 11
884.7919918571852
 21
4014.218706504514
 31
0.0
 12
900.7919918571852
 22
4016.88537317118
 32
0.0
 13
900.7919918571852
 23
4016.88537317118
 33
0.0
  0
MTEXT
  5
31F5
330
29B1
100
AcDbEntity
  8
AM_5 ( Bemassung)
 62
     2
100
AcDbMText
 10
830.7919918571851
 20
4030.424936609106
 30
0.0
 40
14.0
 41
0.0
 71
     5
 72
     1
  1
%%c140
 73
     1
 44
1.0
  0
POINT
  5
31F6
330
29B1
100
AcDbEntity
  8
Defpoints
 62
     0
100
AcDbPoint
 10
760.7919918571852
 20
4064.885373171179
 30
-0.0000000000000002
  0
POINT
  5
31F7
330
29B1
100
AcDbEntity
  8
Defpoints
 62
     0
100
AcDbPoint
 10
900.7919918571852
 20
4064.885373171179
 30
-0.0000000000000002
  0
POINT
  5
31F8
330
29B1
100
AcDbEntity
  8
Defpoints
 62
     0
100
AcDbPoint
 10
900.7919918571852
 20
4016.88537317118
 30
0.0
  0
ENDBLK
  5
29B3
330
29B1
100
AcDbEntity
  8
0
100
AcDbBlockEnd
  0
BLOCK
  5
2AF9
330
2AF8
100
AcDbEntity
  8
0
100
AcDbBlockBegin
  2
*D17
 70
     1
 10
0.0
 20
0.0
 30
0.0
  3
*D17
  1

  0
LINE
  5
31F9
330
2AF8
100
AcDbEntity
  8
AM_5 ( Bemassung)
100
AcDbLine
 10
1000.791991857185
 20
4233.899658885465
 30
0.0
 11
1047.504980763614
 21
4233.899658885465
 31
0.0
  0
LINE
  5
31FA
330
2AF8
100
AcDbEntity
  8
AM_5 ( Bemassung)
100
AcDbLine
 10
1000.791991857185
 20
4068.899658885466
 30
0.0
 11
1047.504980763614
 21
4068.899658885465
 31
0.0
  0
LINE
  5
31FB
330
2AF8
100
AcDbEntity
  8
AM_5 ( Bemassung)
100
AcDbLine
 10
1043.504980763613
 20
4217.899658885465
 30
0.0
 11
1043.504980763613
 21
4084.899658885465
 31
0.0
  0
SOLID
  5
31FC
330
2AF8
100
AcDbEntity
  8
AM_5 ( Bemassung)
100
AcDbTrace
 10
1040.838314096947
 20
4217.899658885465
 30
0.0
 11
1046.17164743028
 21
4217.899658885465
 31
0.0
 12
1043.504980763613
 22
4233.899658885465
 32
0.0
 13
1043.504980763613
 23
4233.899658885465
 33
0.0
  0
SOLID
  5
31FD
330
2AF8
100
AcDbEntity
  8
AM_5 ( Bemassung)
100
AcDbTrace
 10
1040.838314096947
 20
4084.899658885465
 30
0.0
 11
1046.17164743028
 21
4084.899658885465
 31
0.0
 12
1043.504980763613
 22
4068.899658885465
 32
0.0
 13
1043.504980763613
 23
4068.899658885465
 33
0.0
  0
MTEXT
  5
31FE
330
2AF8
100
AcDbEntity
  8
AM_5 ( Bemassung)
 62
     2
100
AcDbMText
 10
1030.356958935509
 20
4151.399658885465
 30
0.0
 40
14.0
 41
0.0
 71
     5
 72
     1
  1
165
 11
0.0000000000000001
 21
1.0
 31
0.0
 73
     1
 44
1.0
  0
POINT
  5
31FF
330
2AF8
100
AcDbEntity
  8
Defpoints
 62
     0
100
AcDbPoint
 10
1000.791991857185
 20
4233.899658885465
 30
-0.0000000000000002
  0
POINT
  5
3200
330
2AF8
100
AcDbEntity
  8
Defpoints
 62
     0
100
AcDbPoint
 10
1000.791991857185
 20
4068.899658885466
 30
-0.0000000000000002
  0
POINT
  5
3201
330
2AF8
100
AcDbEntity
  8
Defpoints
 62
     0
100
AcDbPoint
 10
1043.504980763613
 20
4068.899658885465
 30
0.0
  0
ENDBLK
  5
2AFA
330
2AF8
100
AcDbEntity
  8
0
100
AcDbBlockEnd
  0
ENDSEC
  0
SECTION
  2
ENTITIES
  0
LINE
  5
1D52
330
74
100
AcDbEntity
  8
AM_7 (Mittellinie)
100
AcDbLine
 10
830.7919918571851
 20
4054.92965864562
 30
-0.0000000000000002
 11
830.7919918571851
 21
4251.239853914737
 31
-0.0000000000000002
  0
LINE
  5
1D53
102
{ACAD_REACTORS
330
2B05
102
}
330
74
100
AcDbEntity
  8
AM_0 ( Kontur 0.5 )
100
AcDbLine
 10
1000.791991857185
 20
4068.88537317118
 30
-0.0000000000000002
 11
1000.791991857185
 21
4233.899658885465
 31
-0.0000000000000002
  0
LINE
  5
1D54
330
74
100
AcDbEntity
  8
AM_0 ( Kontur 0.5 )
100
AcDbLine
 10
1005.791991857185
 20
4233.899658885465
 30
-0.0000000000000002
 11
1005.791991857185
 21
4237.899658885465
 31
-0.0000000000000002
  0
LINE
  5
1D55
330
74
100
AcDbEntity
  8
AM_0 ( Kontur 0.5 )
100
AcDbLine
 10
1005.791991857185
 20
4064.885373171179
 30
-0.0000000000000002
 11
1005.791991857185
 21
4068.88537317118
 31
-0.0000000000000002
  0
LINE
  5
1D56
102
{ACAD_REACTORS
330
29BE
102
}
330
74
100
AcDbEntity
  8
AM_0 ( Kontur 0.5 )
100
AcDbLine
 10
655.7919918571851
 20
4064.885373171179
 30
-0.0000000000000002
 11
1005.791991857185
 21
4064.885373171179
 31
-0.0000000000000002
  0
LINE
  5
1D57
102
{ACAD_REACTORS
330
299D
102
}
330
74
100
AcDbEntity
  8
AM_0 ( Kontur 0.5 )
100
AcDbLine
 10
655.7919918571851
 20
4237.899658885465
 30
-0.0000000000000002
 11
1005.791991857185
 21
4237.899658885465
 31
-0.0000000000000002
  0
LINE
  5
1D58
102
{ACAD_REACTORS
330
2B05
102
}
330
74
100
AcDbEntity
  8
AM_0 ( Kontur 0.5 )
100
AcDbLine
 10
655.7919918571851
 20
4069.88537317118
 30
-0.0000000000000002
 11
1005.791991857185
 21
4068.88537317118
 31
-0.0000000000000002
  0
LINE
  5
1D59
102
{ACAD_REACTORS
330
2B05
102
}
330
74
100
AcDbEntity
  8
AM_0 ( Kontur 0.5 )
100
AcDbLine
 10
655.7919918571851
 20
4233.899658885465
 30
-0.0000000000000002
 11
1005.791991857185
 21
4233.899658885465
 31
-0.0000000000000002
  0
LINE
  5
1D5A
330
74
100
AcDbEntity
  8
AM_0 ( Kontur 0.5 )
100
AcDbLine
 10
655.7919918571851
 20
4064.885373171179
 30
-0.0000000000000002
 11
655.7919918571851
 21
4069.88537317118
 31
-0.0000000000000002
  0
LINE
  5
1D5B
330
74
100
AcDbEntity
  8
AM_0 ( Kontur 0.5 )
100
AcDbLine
 10
660.7919918571853
 20
4069.88537317118
 30
-0.0000000000000002
 11
660.7919918571853
 21
4233.899658885465
 31
-0.0000000000000002
  0
ARC
  5
1D5C
330
74
100
AcDbEntity
  8
AM_2 ( Kontur 0.25)
100
AcDbCircle
 10
719.0228798034349
 20
4068.916830508661
 30
-0.0000000000000002
 40
2.0
100
AcDbArc
 50
359.0987765020589
 51
0.0
  0
ARC
  5
1D5D
330
74
100
AcDbEntity
  8
AM_2 ( Kontur 0.25)
100
AcDbCircle
 10
712.3066019088655
 20
4068.98752817071
 30
-0.0000000000000002
 40
2.0
100
AcDbArc
 50
357.0722008318423
 51
0.0
  0
ARC
  5
1D5E
330
74
100
AcDbEntity
  8
AM_2 ( Kontur 0.25)
100
AcDbCircle
 10
706.7450524944153
 20
4069.081791720111
 30
-0.0000000000000002
 40
2.0
100
AcDbArc
 50
354.3639381544326
 51
0.0
  0
ARC
  5
1D5F
330
74
100
AcDbEntity
  8
AM_2 ( Kontur 0.25)
100
AcDbCircle
 10
701.0656736432156
 20
4070.388148255651
 30
-0.0000000000000002
 40
2.0
100
AcDbArc
 50
345.4403650187527
 51
0.0
  0
ARC
  5
1D60
330
74
100
AcDbEntity
  8
AM_2 ( Kontur 0.25)
100
AcDbCircle
 10
730.9141753598951
 20
4068.99242948289
 30
-0.0000000000000002
 40
2.0
100
AcDbArc
 50
356.93159609544
 51
0.0
  0
ARC
  5
1D61
330
74
100
AcDbEntity
  8
AM_2 ( Kontur 0.25)
100
AcDbCircle
 10
725.3526259454455
 20
4069.086693032291
 30
-0.0000000000000002
 40
2.0
100
AcDbArc
 50
354.2228265317228
 51
0.0
  0
LINE
  5
1D62
102
{ACAD_REACTORS
330
299D
102
}
330
74
100
AcDbEntity
  8
AM_0 ( Kontur 0.5 )
100
AcDbLine
 10
655.7919918571851
 20
4233.899658885465
 30
-0.0000000000000002
 11
655.7919918571851
 21
4237.899658885465
 31
-0.0000000000000002
  0
LINE
  5
1D63
102
{ACAD_REACTORS
330
29BE
102
}
330
74
100
AcDbEntity
  8
AM_3 ( Verdeckt )
100
AcDbLine
 10
760.7919918571852
 20
4064.885373171179
 30
-0.0000000000000002
 11
760.7919918571852
 21
4068.88537317118
 31
-0.0000000000000002
  0
LINE
  5
1D64
102
{ACAD_REACTORS
330
29BE
102
}
330
74
100
AcDbEntity
  8
AM_3 ( Verdeckt )
100
AcDbLine
 10
900.7919918571852
 20
4064.885373171179
 30
-0.0000000000000002
 11
900.7919918571852
 21
4068.88537317118
 31
-0.0000000000000002
  0
LINE
  5
1D65
330
74
100
AcDbEntity
  8
AM_0 ( Kontur 0.5 )
100
AcDbLine
 10
947.7698373918538
 20
4068.88537317118
 30
-0.0000000000000002
 11
947.7698373918538
 21
4234.899658825393
 31
-0.0000000000000002
  0
LINE
  5
1D66
330
74
100
AcDbEntity
  8
AM_0 ( Kontur 0.5 )
100
AcDbLine
 10
713.8141463225045
 20
4068.88537317118
 30
-0.0000000000000002
 11
713.8141463225045
 21
4234.899658825393
 31
-0.0000000000000002
  0
LINE
  5
1D67
330
74
100
AcDbEntity
  8
AM_0 ( Kontur 0.5 )
100
AcDbLine
 10
784.2533617333656
 20
4068.88537317118
 30
-0.0000000000000002
 11
784.2533617333656
 21
4234.899658825393
 31
-0.0000000000000002
  0
LINE
  5
1D68
330
74
100
AcDbEntity
  8
AM_3 ( Verdeckt )
100
AcDbLine
 10
754.7919907157746
 20
4068.88537317118
 30
-0.0000000000000002
 11
754.7919907157746
 21
4234.899658825393
 31
-0.0000000000000002
  0
LINE
  5
1D69
330
74
100
AcDbEntity
  8
AM_3 ( Verdeckt )
100
AcDbLine
 10
765.7779077704454
 20
4068.88537317118
 30
-0.0000000000000002
 11
765.7779077704454
 21
4234.899658825393
 31
-0.0000000000000002
  0
LINE
  5
1D6A
330
74
100
AcDbEntity
  8
AM_3 ( Verdeckt )
100
AcDbLine
 10
795.7919913315344
 20
4068.88537317118
 30
-0.0000000000000002
 11
795.7919913315344
 21
4234.899658825393
 31
-0.0000000000000002
  0
LINE
  5
1D6B
330
74
100
AcDbEntity
  8
AM_3 ( Verdeckt )
100
AcDbLine
 10
865.7919923828249
 20
4068.88537317118
 30
-0.0000000000000002
 11
865.7919923828249
 21
4234.899658825393
 31
-0.0000000000000002
  0
LINE
  5
1D6C
330
74
100
AcDbEntity
  8
AM_0 ( Kontur 0.5 )
100
AcDbLine
 10
877.3306219809947
 20
4068.88537317118
 30
-0.0000000000000002
 11
877.3306219809947
 21
4234.899658825393
 31
-0.0000000000000002
  0
LINE
  5
1D6D
330
74
100
AcDbEntity
  8
AM_3 ( Verdeckt )
100
AcDbLine
 10
895.8060759439158
 20
4068.88537317118
 30
-0.0000000000000002
 11
895.8060759439158
 21
4234.899658825393
 31
-0.0000000000000002
  0
LINE
  5
1D6E
330
74
100
AcDbEntity
  8
AM_3 ( Verdeckt )
100
AcDbLine
 10
906.7919929985835
 20
4068.88537317118
 30
-0.0000000000000002
 11
906.7919929985835
 21
4234.899658825393
 31
-0.0000000000000002
  0
LINE
  5
1D6F
330
74
100
AcDbEntity
  8
AM_7 (Mittellinie)
100
AcDbLine
 10
745.7919905806037
 20
4064.885373171179
 30
-0.0000000000000002
 11
745.7919905806037
 21
4258.523331289935
 31
-0.0000000000000002
  0
LINE
  5
1D70
330
74
100
AcDbEntity
  8
AM_7 (Mittellinie)
100
AcDbLine
 10
915.7919931337547
 20
4064.885373171179
 30
-0.0000000000000002
 11
915.7919931337547
 21
4258.523331289935
 31
-0.0000000000000002
  0
LINE
  5
1D71
330
74
100
AcDbEntity
  8
AM_3 ( Verdeckt )
100
AcDbLine
 10
749.7919906406849
 20
4064.885373171179
 30
-0.0000000000000002
 11
749.7919906406849
 21
4243.899658975576
 31
-0.0000000000000002
  0
LINE
  5
1D72
330
74
100
AcDbEntity
  8
AM_3 ( Verdeckt )
100
AcDbLine
 10
741.7919905205343
 20
4064.885373171179
 30
-0.0000000000000002
 11
741.7919905205343
 21
4243.899658975576
 31
-0.0000000000000002
  0
LINE
  5
1D73
330
74
100
AcDbEntity
  8
AM_2 ( Kontur 0.25)
100
AcDbLine
 10
748.7919906256657
 20
4064.885373171179
 30
-0.0000000000000002
 11
748.7919906256657
 21
4243.899658975576
 31
-0.0000000000000002
  0
LINE
  5
1D74
330
74
100
AcDbEntity
  8
AM_2 ( Kontur 0.25)
100
AcDbLine
 10
742.7919905355537
 20
4064.885373171179
 30
-0.0000000000000002
 11
742.7919905355537
 21
4243.899658975576
 31
-0.0000000000000002
  0
LINE
  5
1D75
330
74
100
AcDbEntity
  8
AM_3 ( Verdeckt )
100
AcDbLine
 10
911.7919930736752
 20
4064.885373171179
 30
-0.0000000000000002
 11
911.7919930736752
 21
4243.899658975576
 31
-0.0000000000000002
  0
LINE
  5
1D76
330
74
100
AcDbEntity
  8
AM_2 ( Kontur 0.25)
100
AcDbLine
 10
912.7919930886946
 20
4064.885373171179
 30
-0.0000000000000002
 11
912.7919930886946
 21
4243.899658975576
 31
-0.0000000000000002
  0
LINE
  5
1D77
330
74
100
AcDbEntity
  8
AM_2 ( Kontur 0.25)
100
AcDbLine
 10
918.7919931788046
 20
4064.885373171179
 30
-0.0000000000000002
 11
918.7919931788046
 21
4243.899658975576
 31
-0.0000000000000002
  0
LINE
  5
1D78
330
74
100
AcDbEntity
  8
AM_3 ( Verdeckt )
100
AcDbLine
 10
919.7919931938256
 20
4064.885373171179
 30
-0.0000000000000002
 11
919.7919931938256
 21
4243.899658975576
 31
-0.0000000000000002
  0
LINE
  5
1D79
330
74
100
AcDbEntity
  8
AM_0 ( Kontur 0.5 )
100
AcDbLine
 10
830.7919918571851
 20
4068.88537317118
 30
-0.0000000000000002
 11
830.7919918571851
 21
4234.899658825393
 31
-0.0000000000000002
  0
LINE
  5
1D7A
330
74
100
AcDbEntity
  8
AM_0 ( Kontur 0.5 )
100
AcDbLine
 10
751.4217092046756
 20
4237.899658885465
 30
-0.0000000000000002
 11
740.1633789554742
 21
4237.899658885465
 31
-0.0000000000000002
  0
ARC
  5
1D7B
330
74
100
AcDbEntity
  8
AM_0 ( Kontur 0.5 )
100
AcDbCircle
 10
745.7925440800753
 20
4246.649659212285
 30
-0.0000000000000002
 40
6.249999999999928
100
AcDbArc
 50
0.0
 51
180.0
  0
LINE
  5
1D7C
330
74
100
AcDbEntity
  8
AM_0 ( Kontur 0.5 )
100
AcDbLine
 10
739.5425440800753
 20
4244.333568402196
 30
-0.0000000000000002
 11
739.5425440800753
 21
4246.649659212285
 31
-0.0000000000000002
  0
LINE
  5
1D7D
330
74
100
AcDbEntity
  8
AM_0 ( Kontur 0.5 )
100
AcDbLine
 10
752.0425440800753
 20
4244.333568402196
 30
-0.0000000000000002
 11
752.0425440800753
 21
4246.649659212285
 31
-0.0000000000000002
  0
ARC
  5
1D7E
330
74
100
AcDbEntity
  8
AM_0 ( Kontur 0.5 )
100
AcDbCircle
 10
751.4217092046756
 20
4240.848647199725
 30
-0.0000000000000002
 40
2.948988314257579
100
AcDbArc
 50
230.4848621642174
 51
309.5151378357826
  0
ARC
  5
1D7F
330
74
100
AcDbEntity
  8
AM_0 ( Kontur 0.5 )
100
AcDbCircle
 10
745.7925440800753
 20
4248.684659212283
 30
-0.0000000000000002
 40
10.785
100
AcDbArc
 50
249.6372502232129
 51
290.3627497767315
  0
ARC
  5
1D80
330
74
100
AcDbEntity
  8
AM_0 ( Kontur 0.5 )
100
AcDbCircle
 10
740.1633789554742
 20
4240.848647199725
 30
-0.0000000000000002
 40
2.948988314257579
100
AcDbArc
 50
230.4848621642174
 51
309.5151378357826
  0
ARC
  5
1D81
330
74
100
AcDbEntity
  8
AM_0 ( Kontur 0.5 )
100
AcDbCircle
 10
751.4217092046756
 20
4241.450671224856
 30
-0.0000000000000002
 40
2.948988314257579
100
AcDbArc
 50
50.48486216421743
 51
129.5151378357825
  0
ARC
  5
1D82
330
74
100
AcDbEntity
  8
AM_0 ( Kontur 0.5 )
100
AcDbCircle
 10
740.1633789554742
 20
4241.450671224856
 30
-0.0000000000000002
 40
2.948988314257579
100
AcDbArc
 50
50.48486216421743
 51
129.5151378357825
  0
ARC
  5
1D83
330
74
100
AcDbEntity
  8
AM_0 ( Kontur 0.5 )
100
AcDbCircle
 10
745.7925440800753
 20
4233.614659212284
 30
-0.0000000000000002
 40
10.785
100
AcDbArc
 50
69.63725022326844
 51
110.3627497767871
  0
LINE
  5
1D84
330
74
100
AcDbEntity
  8
AM_0 ( Kontur 0.5 )
100
AcDbLine
 10
738.2869905806045
 20
4238.573630992275
 30
-0.0000000000000002
 11
738.2869905806045
 21
4243.725687432333
 31
-0.0000000000000002
  0
LINE
  5
1D85
330
74
100
AcDbEntity
  8
AM_0 ( Kontur 0.5 )
100
AcDbLine
 10
742.039767330345
 20
4238.573630992244
 30
-0.0000000000000002
 11
742.039767330345
 21
4243.725687432333
 31
-0.0000000000000002
  0
LINE
  5
1D86
330
74
100
AcDbEntity
  8
AM_0 ( Kontur 0.5 )
100
AcDbLine
 10
749.5453208298048
 20
4238.573630992275
 30
-0.0000000000000002
 11
749.5453208298048
 21
4243.725687432347
 31
-0.0000000000000002
  0
LINE
  5
1D87
330
74
100
AcDbEntity
  8
AM_0 ( Kontur 0.5 )
100
AcDbLine
 10
753.2980975795343
 20
4238.573630992275
 30
-0.0000000000000002
 11
753.2980975795343
 21
4243.725687432333
 31
-0.0000000000000002
  0
ARC
  5
1D88
330
74
100
AcDbEntity
  8
AM_0 ( Kontur 0.5 )
100
AcDbCircle
 10
-915.7914396342848
 20
4246.649659212285
 30
0.0000000000000002
 40
6.249999999999928
210
0.0
220
0.0
230
-1.0
100
AcDbArc
 50
0.0
 51
180.0
  0
LINE
  5
1D89
330
74
100
AcDbEntity
  8
AM_0 ( Kontur 0.5 )
100
AcDbLine
 10
922.0414396342848
 20
4244.333568402196
 30
-0.0000000000000002
 11
922.0414396342848
 21
4246.649659212285
 31
-0.0000000000000002
  0
LINE
  5
1D8A
330
74
100
AcDbEntity
  8
AM_0 ( Kontur 0.5 )
100
AcDbLine
 10
909.5414396342848
 20
4244.333568402196
 30
-0.0000000000000002
 11
909.5414396342848
 21
4246.649659212285
 31
-0.0000000000000002
  0
ARC
  5
1D8B
330
74
100
AcDbEntity
  8
AM_0 ( Kontur 0.5 )
100
AcDbCircle
 10
-910.1622745096847
 20
4240.848647199725
 30
0.0000000000000002
 40
2.948988314257579
210
0.0
220
0.0
230
-1.0
100
AcDbArc
 50
230.4848621642174
 51
309.5151378357826
  0
ARC
  5
1D8C
330
74
100
AcDbEntity
  8
AM_0 ( Kontur 0.5 )
100
AcDbCircle
 10
-915.7914396342848
 20
4248.684659212283
 30
0.0000000000000002
 40
10.785
210
0.0
220
0.0
230
-1.0
100
AcDbArc
 50
249.6372502232129
 51
290.3627497767315
  0
ARC
  5
1D8D
330
74
100
AcDbEntity
  8
AM_0 ( Kontur 0.5 )
100
AcDbCircle
 10
-921.4206047588842
 20
4240.848647199725
 30
0.0000000000000002
 40
2.948988314257579
210
0.0
220
0.0
230
-1.0
100
AcDbArc
 50
230.4848621642174
 51
309.5151378357826
  0
ARC
  5
1D8E
330
74
100
AcDbEntity
  8
AM_0 ( Kontur 0.5 )
100
AcDbCircle
 10
-910.1622745096847
 20
4241.450671224856
 30
0.0000000000000002
 40
2.948988314257579
210
0.0
220
0.0
230
-1.0
100
AcDbArc
 50
50.48486216421743
 51
129.5151378357825
  0
ARC
  5
1D8F
330
74
100
AcDbEntity
  8
AM_0 ( Kontur 0.5 )
100
AcDbCircle
 10
-921.4206047588842
 20
4241.450671224856
 30
0.0000000000000002
 40
2.948988314257579
210
0.0
220
0.0
230
-1.0
100
AcDbArc
 50
50.48486216421743
 51
129.5151378357825
  0
ARC
  5
1D90
330
74
100
AcDbEntity
  8
AM_0 ( Kontur 0.5 )
100
AcDbCircle
 10
-915.7914396342848
 20
4233.614659212284
 30
0.0000000000000002
 40
10.785
210
0.0
220
0.0
230
-1.0
100
AcDbArc
 50
69.63725022326844
 51
110.3627497767871
  0
LINE
  5
1D91
330
74
100
AcDbEntity
  8
AM_0 ( Kontur 0.5 )
100
AcDbLine
 10
923.2969931337548
 20
4238.573630992275
 30
-0.0000000000000002
 11
923.2969931337548
 21
4243.725687432333
 31
-0.0000000000000002
  0
LINE
  5
1D92
330
74
100
AcDbEntity
  8
AM_0 ( Kontur 0.5 )
100
AcDbLine
 10
919.5442163840162
 20
4238.573630992244
 30
-0.0000000000000002
 11
919.5442163840162
 21
4243.725687432333
 31
-0.0000000000000002
  0
LINE
  5
1D93
330
74
100
AcDbEntity
  8
AM_0 ( Kontur 0.5 )
100
AcDbLine
 10
912.0386628845544
 20
4238.573630992275
 30
-0.0000000000000002
 11
912.0386628845544
 21
4243.725687432347
 31
-0.0000000000000002
  0
LINE
  5
1D94
330
74
100
AcDbEntity
  8
AM_0 ( Kontur 0.5 )
100
AcDbLine
 10
908.2858861348245
 20
4238.573630992275
 30
-0.0000000000000002
 11
908.2858861348245
 21
4243.725687432333
 31
-0.0000000000000002
  0
LINE
  5
1D95
330
74
100
AcDbEntity
  8
AM_0 ( Kontur 0.5 )
100
AcDbLine
 10
910.1622745096847
 20
4237.899658885465
 30
-0.0000000000000002
 11
921.4206047588842
 21
4237.899658885465
 31
-0.0000000000000002
  0
LINE
  5
1D96
330
74
100
AcDbEntity
  8
AM_3 ( Verdeckt )
100
AcDbLine
 10
750.0419906444347
 20
4234.899658825393
 30
-0.0000000000000002
 11
750.0419906444347
 21
4237.899658885465
 31
-0.0000000000000002
  0
LINE
  5
1D97
330
74
100
AcDbEntity
  8
AM_3 ( Verdeckt )
100
AcDbLine
 10
741.5419905167746
 20
4234.899658825393
 30
-0.0000000000000002
 11
741.5419905167746
 21
4237.899658885465
 31
-0.0000000000000002
  0
LINE
  5
1D98
330
74
100
AcDbEntity
  8
AM_3 ( Verdeckt )
100
AcDbLine
 10
911.5419930699252
 20
4234.899658825393
 30
-0.0000000000000002
 11
911.5419930699252
 21
4237.899658885465
 31
-0.0000000000000002
  0
LINE
  5
1D99
330
74
100
AcDbEntity
  8
AM_3 ( Verdeckt )
100
AcDbLine
 10
920.0419931975838
 20
4234.899658825393
 30
-0.0000000000000002
 11
920.0419931975838
 21
4237.899658885465
 31
-0.0000000000000002
  0
LINE
  5
1D9A
330
74
100
AcDbEntity
  8
AM_3 ( Verdeckt )
100
AcDbLine
 10
741.7919905205343
 20
4243.899658975576
 30
-0.0000000000000002
 11
749.7919906406849
 21
4243.899658975576
 31
-0.0000000000000002
  0
LINE
  5
1D9B
330
74
100
AcDbEntity
  8
AM_3 ( Verdeckt )
100
AcDbLine
 10
919.7919931938256
 20
4243.899658975576
 30
-0.0000000000000002
 11
911.7919930736752
 21
4243.899658975576
 31
-0.0000000000000002
  0
LINE
  5
1D9C
330
74
100
AcDbEntity
  8
AM_7 (Mittellinie)
100
AcDbLine
 10
830.7919918571851
 20
4234.899658825393
 30
-0.0000000000000002
 11
830.7919918571851
 21
4257.208978216914
 31
-0.0000000000000002
  0
LINE
  5
1D9D
330
74
100
AcDbEntity
  8
AM_3 ( Verdeckt )
100
AcDbLine
 10
760.7919908058846
 20
4064.885373171179
 30
-0.0000000000000002
 11
760.7919908058846
 21
4067.885373231262
 31
-0.0000000000000002
  0
LINE
  5
1D9E
330
74
100
AcDbEntity
  8
AM_3 ( Verdeckt )
100
AcDbLine
 10
900.7919929084756
 20
4064.885373171179
 30
-0.0000000000000002
 11
900.7919929084756
 21
4067.885373231262
 31
-0.0000000000000002
  0
ARC
  5
1D9F
330
74
100
AcDbEntity
  8
AM_3 ( Verdeckt )
100
AcDbCircle
 10
863.1211707339453
 20
3594.756683309169
 30
-0.0000000000000002
 40
4.870530056681098
100
AcDbArc
 50
202.5000000000181
 51
7.500000000010334
  0
LINE
  5
1DA0
330
74
100
AcDbEntity
  8
AM_3 ( Verdeckt )
100
AcDbLine
 10
857.7501406855244
 20
3672.86828700391
 30
-0.0000000000000002
 11
858.7415855468952
 21
3672.998813196129
 31
-0.0000000000000002
  0
LINE
  5
1DA1
330
74
100
AcDbEntity
  8
AM_3 ( Verdeckt )
100
AcDbLine
 10
857.7501406855244
 20
3672.86828700391
 30
-0.0000000000000002
 11
867.9500327308151
 21
3595.392415051559
 31
-0.0000000000000002
  0
LINE
  5
1DA2
330
74
100
AcDbEntity
  8
AM_3 ( Verdeckt )
100
AcDbLine
 10
858.7415855468952
 20
3672.998813196129
 30
-0.0000000000000002
 11
868.941477592185
 21
3595.52294124378
 31
-0.0000000000000002
  0
LINE
  5
1DA3
330
74
100
AcDbEntity
  8
AM_3 ( Verdeckt )
100
AcDbLine
 10
856.6352619255249
 20
3667.8032563616
 30
-0.0000000000000002
 11
855.6586406091055
 21
3668.018223345829
 31
-0.0000000000000002
  0
LINE
  5
1DA4
330
74
100
AcDbEntity
  8
AM_3 ( Verdeckt )
100
AcDbLine
 10
856.6352619255249
 20
3667.8032563616
 30
-0.0000000000000002
 11
858.5699647836445
 21
3676.592848209389
 31
-0.0000000000000002
  0
LINE
  5
1DA5
330
74
100
AcDbEntity
  8
AM_3 ( Verdeckt )
100
AcDbLine
 10
855.6586406091055
 20
3668.018223345829
 30
-0.0000000000000002
 11
857.5933434672251
 21
3676.80781519363
 31
-0.0000000000000002
  0
ARC
  5
1DA6
330
74
100
AcDbEntity
  8
AM_3 ( Verdeckt )
100
AcDbCircle
 10
863.4530713657541
 20
3675.51801328821
 30
-0.0000000000000002
 40
5.0
100
AcDbArc
 50
52.49999999997502
 51
167.5864096495299
  0
ARC
  5
1DA7
330
74
100
AcDbEntity
  8
AM_3 ( Verdeckt )
100
AcDbCircle
 10
863.4530713657541
 20
3675.51801328821
 30
-0.0000000000000002
 40
6.0
100
AcDbArc
 50
52.49999999997502
 51
167.5864096495299
  0
LINE
  5
1DA8
330
74
100
AcDbEntity
  8
AM_3 ( Verdeckt )
100
AcDbLine
 10
866.4968785107957
 20
3679.48477998967
 30
-0.0000000000000002
 11
929.9866328205752
 21
3630.767378047619
 31
-0.0000000000000002
  0
LINE
  5
1DA9
330
74
100
AcDbEntity
  8
AM_3 ( Verdeckt )
100
AcDbLine
 10
867.1056399398047
 20
3680.278133329959
 30
-0.0000000000000002
 11
930.5953942495852
 21
3631.560731387909
 31
-0.0000000000000002
  0
ARC
  5
1DAA
330
74
100
AcDbEntity
  8
AM_3 ( Verdeckt )
100
AcDbCircle
 10
933.5603850869247
 20
3635.42478267737
 30
-0.0000000000000002
 40
5.870530056681089
100
AcDbArc
 50
232.499999999975
 51
37.49999999999989
  0
ARC
  5
1DAB
330
74
100
AcDbEntity
  8
AM_3 ( Verdeckt )
100
AcDbCircle
 10
933.5603850869247
 20
3635.42478267737
 30
-0.0000000000000002
 40
4.870530056681098
100
AcDbArc
 50
232.499999999975
 51
37.49999999999989
  0
LINE
  5
1DAC
330
74
100
AcDbEntity
  8
AM_3 ( Verdeckt )
100
AcDbLine
 10
889.853134773125
 20
3700.385900783139
 30
-0.0000000000000002
 11
890.6464881134152
 21
3700.994662212151
 31
-0.0000000000000002
  0
LINE
  5
1DAD
330
74
100
AcDbEntity
  8
AM_3 ( Verdeckt )
100
AcDbLine
 10
889.853134773125
 20
3700.385900783139
 30
-0.0000000000000002
 11
937.4244363763748
 21
3638.389773514699
 31
-0.0000000000000002
  0
LINE
  5
1DAE
330
74
100
AcDbEntity
  8
AM_3 ( Verdeckt )
100
AcDbLine
 10
890.6464881134152
 20
3700.994662212151
 30
-0.0000000000000002
 11
938.2177897166748
 21
3638.998534943709
 31
-0.0000000000000002
  0
LINE
  5
1DAF
330
74
100
AcDbEntity
  8
AM_3 ( Verdeckt )
100
AcDbLine
 10
891.4201367659835
 20
3695.442016195949
 30
-0.0000000000000002
 11
890.4668744039664
 21
3695.139872407068
 31
-0.0000000000000002
  0
LINE
  5
1DB0
330
74
100
AcDbEntity
  8
AM_3 ( Verdeckt )
100
AcDbLine
 10
891.4201367659835
 20
3695.442016195949
 30
-0.0000000000000002
 11
888.7008426659948
 21
3704.021377454099
 31
-0.0000000000000002
  0
LINE
  5
1DB1
330
74
100
AcDbEntity
  8
AM_3 ( Verdeckt )
100
AcDbLine
 10
890.4668744039664
 20
3695.139872407068
 30
-0.0000000000000002
 11
887.7475803039843
 21
3703.719233665208
 31
-0.0000000000000002
  0
ARC
  5
1DB2
330
74
100
AcDbEntity
  8
AM_3 ( Verdeckt )
100
AcDbCircle
 10
893.467154476075
 20
3705.532096398539
 30
-0.0000000000000002
 40
5.0
100
AcDbArc
 50
82.50000000001433
 51
197.586409649516
  0
ARC
  5
1DB3
330
74
100
AcDbEntity
  8
AM_3 ( Verdeckt )
100
AcDbCircle
 10
893.467154476075
 20
3705.532096398539
 30
-0.0000000000000002
 40
6.0
100
AcDbArc
 50
82.50000000001433
 51
197.586409649516
  0
LINE
  5
1DB4
330
74
100
AcDbEntity
  8
AM_3 ( Verdeckt )
100
AcDbLine
 10
894.1197854371749
 20
3710.489320705409
 30
-0.0000000000000002
 11
973.4622265205052
 21
3700.0436901721
 31
-0.0000000000000002
  0
LINE
  5
1DB5
330
74
100
AcDbEntity
  8
AM_3 ( Verdeckt )
100
AcDbLine
 10
894.2503116293956
 20
3711.480765566779
 30
-0.0000000000000002
 11
973.5927527127239
 21
3701.03513503348
 31
-0.0000000000000002
  0
ARC
  5
1DB6
330
74
100
AcDbEntity
  8
AM_3 ( Verdeckt )
100
AcDbCircle
 10
974.2284844551161
 20
3705.863997030339
 30
-0.0000000000000002
 40
5.870530056681089
100
AcDbArc
 50
262.5000000000144
 51
67.49999999998028
  0
ARC
  5
1DB7
330
74
100
AcDbEntity
  8
AM_3 ( Verdeckt )
100
AcDbCircle
 10
974.2284844551161
 20
3705.863997030339
 30
-0.0000000000000002
 40
4.870530056681098
100
AcDbArc
 50
262.5000000000144
 51
67.49999999998028
  0
LINE
  5
1DB8
330
74
100
AcDbEntity
  8
AM_3 ( Verdeckt )
100
AcDbLine
 10
903.8963363009152
 20
3740.26835041129
 30
-0.0000000000000002
 11
904.2790197332852
 21
3741.192229943799
 31
-0.0000000000000002
  0
LINE
  5
1DB9
330
74
100
AcDbEntity
  8
AM_3 ( Verdeckt )
100
AcDbLine
 10
903.8963363009152
 20
3740.26835041129
 30
-0.0000000000000002
 11
976.0923556146464
 21
3710.363780062189
 31
-0.0000000000000002
  0
LINE
  5
1DBA
330
74
100
AcDbEntity
  8
AM_3 ( Verdeckt )
100
AcDbLine
 10
904.2790197332852
 20
3741.192229943799
 30
-0.0000000000000002
 11
976.4750390470045
 21
3711.287659594699
 31
-0.0000000000000002
  0
LINE
  5
1DBB
330
74
100
AcDbEntity
  8
AM_3 ( Verdeckt )
100
AcDbLine
 10
907.725342128104
 20
3736.770321761829
 30
-0.0000000000000002
 11
907.0508646005746
 21
3736.032026384049
 31
-0.0000000000000002
  0
LINE
  5
1DBC
330
74
100
AcDbEntity
  8
AM_3 ( Verdeckt )
100
AcDbLine
 10
907.725342128104
 20
3736.770321761829
 30
-0.0000000000000002
 11
901.0806837280842
 21
3742.840619509629
 31
-0.0000000000000002
  0
LINE
  5
1DBD
330
74
100
AcDbEntity
  8
AM_3 ( Verdeckt )
100
AcDbLine
 10
907.0508646005746
 20
3736.032026384049
 30
-0.0000000000000002
 11
900.4062062005541
 21
3742.102324131849
 31
-0.0000000000000002
  0
ARC
  5
1DBE
330
74
100
AcDbEntity
  8
AM_3 ( Verdeckt )
100
AcDbCircle
 10
904.4530713657538
 20
3746.532096398539
 30
-0.0000000000000002
 40
5.0
100
AcDbArc
 50
112.5000000000197
 51
227.5864096495233
  0
ARC
  5
1DBF
330
74
100
AcDbEntity
  8
AM_3 ( Verdeckt )
100
AcDbCircle
 10
904.4530713657538
 20
3746.532096398539
 30
-0.0000000000000002
 40
6.0
100
AcDbArc
 50
112.5000000000197
 51
227.5864096495233
  0
LINE
  5
1DC0
330
74
100
AcDbEntity
  8
AM_3 ( Verdeckt )
100
AcDbLine
 10
902.5396542039244
 20
3751.151494061089
 30
-0.0000000000000002
 11
976.4750390470045
 21
3781.776533202369
 31
-0.0000000000000002
  0
LINE
  5
1DC1
330
74
100
AcDbEntity
  8
AM_3 ( Verdeckt )
100
AcDbLine
 10
902.1569707715659
 20
3752.075373593599
 30
-0.0000000000000002
 11
976.0923556146464
 21
3782.700412734879
 31
-0.0000000000000002
  0
ARC
  5
1DC2
330
74
100
AcDbEntity
  8
AM_3 ( Verdeckt )
100
AcDbCircle
 10
974.2284844551161
 20
3787.200195766729
 30
-0.0000000000000002
 40
5.870530056681089
100
AcDbArc
 50
292.5000000000196
 51
97.49999999998564
  0
ARC
  5
1DC3
330
74
100
AcDbEntity
  8
AM_3 ( Verdeckt )
100
AcDbCircle
 10
974.2284844551161
 20
3787.200195766729
 30
-0.0000000000000002
 40
4.870530056681098
100
AcDbArc
 50
292.5000000000196
 51
97.49999999998564
  0
LINE
  5
1DC4
330
74
100
AcDbEntity
  8
AM_3 ( Verdeckt )
100
AcDbLine
 10
896.1168807603744
 20
3781.829165718309
 30
-0.0000000000000002
 11
895.9863545681546
 21
3782.820610579679
 31
-0.0000000000000002
  0
LINE
  5
1DC5
330
74
100
AcDbEntity
  8
AM_3 ( Verdeckt )
100
AcDbLine
 10
896.1168807603744
 20
3781.829165718309
 30
-0.0000000000000002
 11
973.5927527127239
 21
3792.029057763588
 31
-0.0000000000000002
  0
LINE
  5
1DC6
330
74
100
AcDbEntity
  8
AM_3 ( Verdeckt )
100
AcDbLine
 10
895.9863545681546
 20
3782.820610579679
 30
-0.0000000000000002
 11
973.4622265205052
 21
3793.020502624969
 31
-0.0000000000000002
  0
LINE
  5
1DC7
330
74
100
AcDbEntity
  8
AM_3 ( Verdeckt )
100
AcDbLine
 10
901.1819114026947
 20
3780.714286958309
 30
-0.0000000000000002
 11
900.9669444184547
 21
3779.737665641889
 31
-0.0000000000000002
  0
LINE
  5
1DC8
330
74
100
AcDbEntity
  8
AM_3 ( Verdeckt )
100
AcDbLine
 10
901.1819114026947
 20
3780.714286958309
 30
-0.0000000000000002
 11
892.3923195548947
 21
3782.648989816429
 31
-0.0000000000000002
  0
LINE
  5
1DC9
330
74
100
AcDbEntity
  8
AM_3 ( Verdeckt )
100
AcDbLine
 10
900.9669444184547
 20
3779.737665641889
 30
-0.0000000000000002
 11
892.1773525706649
 21
3781.672368500009
 31
-0.0000000000000002
  0
ARC
  5
1DCA
330
74
100
AcDbEntity
  8
AM_3 ( Verdeckt )
100
AcDbCircle
 10
893.467154476075
 20
3787.532096398539
 30
-0.0000000000000002
 40
5.0
100
AcDbArc
 50
142.5000000000001
 51
257.5864096495315
  0
ARC
  5
1DCB
330
74
100
AcDbEntity
  8
AM_3 ( Verdeckt )
100
AcDbCircle
 10
893.467154476075
 20
3787.532096398539
 30
-0.0000000000000002
 40
6.0
100
AcDbArc
 50
142.5000000000001
 51
257.5864096495315
  0
LINE
  5
1DCC
330
74
100
AcDbEntity
  8
AM_3 ( Verdeckt )
100
AcDbLine
 10
889.5003877746248
 20
3790.575903543579
 30
-0.0000000000000002
 11
938.2177897166748
 21
3854.065657853359
 31
-0.0000000000000002
  0
LINE
  5
1DCD
330
74
100
AcDbEntity
  8
AM_3 ( Verdeckt )
100
AcDbLine
 10
888.7070344343346
 20
3791.184664972589
 30
-0.0000000000000002
 11
937.4244363763748
 21
3854.674419282369
 31
-0.0000000000000002
  0
ARC
  5
1DCE
330
74
100
AcDbEntity
  8
AM_3 ( Verdeckt )
100
AcDbCircle
 10
933.5603850869247
 20
3857.639410119709
 30
-0.0000000000000002
 40
5.870530056681089
100
AcDbArc
 50
322.4999999999856
 51
127.5000000000249
  0
ARC
  5
1DCF
330
74
100
AcDbEntity
  8
AM_3 ( Verdeckt )
100
AcDbCircle
 10
933.5603850869247
 20
3857.639410119709
 30
-0.0000000000000002
 40
4.870530056681098
100
AcDbArc
 50
322.4999999999856
 51
127.5000000000249
  0
LINE
  5
1DD0
330
74
100
AcDbEntity
  8
AM_3 ( Verdeckt )
100
AcDbLine
 10
868.5992669811449
 20
3813.932159805909
 30
-0.0000000000000002
 11
867.9905055521349
 21
3814.725513146199
 31
-0.0000000000000002
  0
LINE
  5
1DD1
330
74
100
AcDbEntity
  8
AM_3 ( Verdeckt )
100
AcDbLine
 10
868.5992669811449
 20
3813.932159805909
 30
-0.0000000000000002
 11
930.5953942495852
 21
3861.503461409159
 31
-0.0000000000000002
  0
LINE
  5
1DD2
330
74
100
AcDbEntity
  8
AM_3 ( Verdeckt )
100
AcDbLine
 10
867.9905055521349
 20
3814.725513146199
 30
-0.0000000000000002
 11
929.9866328205752
 21
3862.296814749449
 31
-0.0000000000000002
  0
LINE
  5
1DD3
330
74
100
AcDbEntity
  8
AM_3 ( Verdeckt )
100
AcDbLine
 10
873.5431515683348
 20
3815.499161798769
 30
-0.0000000000000002
 11
873.8452953572251
 21
3814.54589943675
 31
-0.0000000000000002
  0
LINE
  5
1DD4
330
74
100
AcDbEntity
  8
AM_3 ( Verdeckt )
100
AcDbLine
 10
873.5431515683348
 20
3815.499161798769
 30
-0.0000000000000002
 11
864.9637903101957
 21
3812.779867698779
 31
-0.0000000000000002
  0
LINE
  5
1DD5
330
74
100
AcDbEntity
  8
AM_3 ( Verdeckt )
100
AcDbLine
 10
873.8452953572251
 20
3814.54589943675
 30
-0.0000000000000002
 11
865.265934099075
 21
3811.826605336759
 31
-0.0000000000000002
  0
ARC
  5
1DD6
330
74
100
AcDbEntity
  8
AM_3 ( Verdeckt )
100
AcDbCircle
 10
863.4530713657541
 20
3817.546179508859
 30
-0.0000000000000002
 40
5.0
100
AcDbArc
 50
172.4999999999896
 51
287.5864096495125
  0
ARC
  5
1DD7
330
74
100
AcDbEntity
  8
AM_3 ( Verdeckt )
100
AcDbCircle
 10
863.4530713657541
 20
3817.546179508859
 30
-0.0000000000000002
 40
6.0
100
AcDbArc
 50
172.4999999999896
 51
287.5864096495125
  0
LINE
  5
1DD8
330
74
100
AcDbEntity
  8
AM_3 ( Verdeckt )
100
AcDbLine
 10
858.4958470588844
 20
3818.198810469959
 30
-0.0000000000000002
 11
868.941477592185
 21
3897.54125155329
 31
-0.0000000000000002
  0
LINE
  5
1DD9
330
74
100
AcDbEntity
  8
AM_3 ( Verdeckt )
100
AcDbLine
 10
857.5044021975154
 20
3818.329336662179
 30
-0.0000000000000002
 11
867.9500327308151
 21
3897.67177774551
 31
-0.0000000000000002
  0
ARC
  5
1DDA
330
74
100
AcDbEntity
  8
AM_3 ( Verdeckt )
100
AcDbCircle
 10
863.1211707339453
 20
3898.307509487899
 30
-0.0000000000000002
 40
5.870530056681089
100
AcDbArc
 50
352.4999999999896
 51
157.4999999999818
  0
ARC
  5
1DDB
330
74
100
AcDbEntity
  8
AM_3 ( Verdeckt )
100
AcDbCircle
 10
863.1211707339453
 20
3898.307509487899
 30
-0.0000000000000002
 40
4.870530056681098
100
AcDbArc
 50
352.4999999999896
 51
157.4999999999818
  0
LINE
  5
1DDC
330
74
100
AcDbEntity
  8
AM_3 ( Verdeckt )
100
AcDbLine
 10
828.7168173530051
 20
3827.975361333699
 30
-0.0000000000000002
 11
827.7929378204953
 21
3828.358044766069
 31
-0.0000000000000002
  0
LINE
  5
1DDD
330
74
100
AcDbEntity
  8
AM_3 ( Verdeckt )
100
AcDbLine
 10
828.7168173530051
 20
3827.975361333699
 30
-0.0000000000000002
 11
858.6213877020954
 21
3900.171380647428
 31
-0.0000000000000002
  0
LINE
  5
1DDE
330
74
100
AcDbEntity
  8
AM_3 ( Verdeckt )
100
AcDbLine
 10
827.7929378204953
 20
3828.358044766069
 30
-0.0000000000000002
 11
857.6975081695845
 21
3900.554064079789
 31
-0.0000000000000002
  0
LINE
  5
1DDF
330
74
100
AcDbEntity
  8
AM_3 ( Verdeckt )
100
AcDbLine
 10
832.2148460024546
 20
3831.80436716089
 30
-0.0000000000000002
 11
832.9531413802342
 21
3831.129889633359
 31
-0.0000000000000002
  0
LINE
  5
1DE0
330
74
100
AcDbEntity
  8
AM_3 ( Verdeckt )
100
AcDbLine
 10
832.2148460024546
 20
3831.80436716089
 30
-0.0000000000000002
 11
826.1445482546541
 21
3825.15970876087
 31
-0.0000000000000002
  0
LINE
  5
1DE1
330
74
100
AcDbEntity
  8
AM_3 ( Verdeckt )
100
AcDbLine
 10
832.9531413802342
 20
3831.129889633359
 30
-0.0000000000000002
 11
826.8828436324337
 21
3824.485231233328
 31
-0.0000000000000002
  0
ARC
  5
1DE2
330
74
100
AcDbEntity
  8
AM_3 ( Verdeckt )
100
AcDbCircle
 10
822.4530713657541
 20
3828.532096398538
 30
-0.0000000000000002
 40
5.0
100
AcDbArc
 50
202.5000000000181
 51
317.5864096495339
  0
ARC
  5
1DE3
330
74
100
AcDbEntity
  8
AM_3 ( Verdeckt )
100
AcDbCircle
 10
822.4530713657541
 20
3828.532096398538
 30
-0.0000000000000002
 40
6.0
100
AcDbArc
 50
202.5000000000181
 51
317.5864096495339
  0
LINE
  5
1DE4
330
74
100
AcDbEntity
  8
AM_3 ( Verdeckt )
100
AcDbLine
 10
817.8336737031958
 20
3826.618679236709
 30
-0.0000000000000002
 11
787.2086345619154
 21
3900.554064079789
 31
-0.0000000000000002
  0
LINE
  5
1DE5
330
74
100
AcDbEntity
  8
AM_3 ( Verdeckt )
100
AcDbLine
 10
816.909794170685
 20
3826.235995804348
 30
-0.0000000000000002
 11
786.2847550294044
 21
3900.171380647428
 31
-0.0000000000000002
  0
ARC
  5
1DE6
330
74
100
AcDbEntity
  8
AM_3 ( Verdeckt )
100
AcDbCircle
 10
781.7849719975547
 20
3898.307509487899
 30
-0.0000000000000002
 40
5.870530056681089
100
AcDbArc
 50
22.50000000001815
 51
187.5000000000103
  0
ARC
  5
1DE7
330
74
100
AcDbEntity
  8
AM_3 ( Verdeckt )
100
AcDbCircle
 10
781.7849719975547
 20
3898.307509487899
 30
-0.0000000000000002
 40
4.870530056681098
100
AcDbArc
 50
22.50000000001815
 51
187.5000000000103
  0
LINE
  5
1DE8
330
74
100
AcDbEntity
  8
AM_3 ( Verdeckt )
100
AcDbLine
 10
787.1560020459837
 20
3820.195905793159
 30
-0.0000000000000002
 11
786.1645571846048
 21
3820.065379600939
 31
-0.0000000000000002
  0
LINE
  5
1DE9
330
74
100
AcDbEntity
  8
AM_3 ( Verdeckt )
100
AcDbLine
 10
787.1560020459837
 20
3820.195905793159
 30
-0.0000000000000002
 11
776.9561100006958
 21
3897.67177774551
 31
-0.0000000000000002
  0
LINE
  5
1DEA
330
74
100
AcDbEntity
  8
AM_3 ( Verdeckt )
100
AcDbLine
 10
786.1645571846048
 20
3820.065379600939
 30
-0.0000000000000002
 11
775.964665139325
 21
3897.54125155329
 31
-0.0000000000000002
  0
LINE
  5
1DEB
330
74
100
AcDbEntity
  8
AM_3 ( Verdeckt )
100
AcDbLine
 10
827.0724690283151
 20
3666.445513560359
 30
-0.0000000000000002
 11
857.6975081695845
 21
3592.510128717279
 31
-0.0000000000000002
  0
ARC
  5
1DEC
330
74
100
AcDbEntity
  8
AM_3 ( Verdeckt )
100
AcDbCircle
 10
822.4530713657541
 20
3664.532096398539
 30
-0.0000000000000002
 40
6.0
100
AcDbArc
 50
22.50000000001815
 51
137.5864096495339
  0
ARC
  5
1DED
330
74
100
AcDbEntity
  8
AM_3 ( Verdeckt )
100
AcDbCircle
 10
822.4530713657541
 20
3664.532096398539
 30
-0.0000000000000002
 40
5.0
100
AcDbArc
 50
22.50000000001815
 51
137.5864096495339
  0
LINE
  5
1DEE
330
74
100
AcDbEntity
  8
AM_3 ( Verdeckt )
100
AcDbLine
 10
811.9530013512656
 20
3661.93430316371
 30
-0.0000000000000002
 11
818.0232990990742
 21
3668.578961563739
 31
-0.0000000000000002
  0
LINE
  5
1DEF
330
74
100
AcDbEntity
  8
AM_3 ( Verdeckt )
100
AcDbLine
 10
740.3801094975761
 20
3812.621725397029
 30
-0.0000000000000002
 11
719.0734594822653
 21
3840.389092307229
 31
-0.0000000000000002
  0
LINE
  5
1DF0
330
74
100
AcDbEntity
  8
AM_3 ( Verdeckt )
100
AcDbLine
 10
738.7934028169846
 20
3811.404202539009
 30
-0.0000000000000002
 11
717.4867528016847
 21
3839.171569449209
 31
-0.0000000000000002
  0
LINE
  5
1DF1
330
74
100
AcDbEntity
  8
AM_3 ( Verdeckt )
100
AcDbLine
 10
740.3801094975761
 20
3812.621725397029
 30
-0.0000000000000002
 11
738.7934028169846
 21
3811.404202539009
 31
-0.0000000000000002
  0
LINE
  5
1DF2
330
74
100
AcDbEntity
  8
AM_3 ( Verdeckt )
100
AcDbLine
 10
719.0734594822653
 20
3840.389092307229
 30
-0.0000000000000002
 11
717.4867528016847
 21
3839.171569449209
 31
-0.0000000000000002
  0
LINE
  5
1DF3
330
74
100
AcDbEntity
  8
AM_3 ( Verdeckt )
100
AcDbLine
 10
756.3634423672548
 20
3828.605058266719
 30
-0.0000000000000002
 11
757.5809652252746
 21
3830.1917649473
 31
-0.0000000000000002
  0
LINE
  5
1DF4
330
74
100
AcDbEntity
  8
AM_3 ( Verdeckt )
100
AcDbLine
 10
728.5960754570651
 20
3849.911708282029
 30
-0.0000000000000002
 11
729.813598315084
 21
3851.498414962609
 31
-0.0000000000000002
  0
LINE
  5
1DF5
330
74
100
AcDbEntity
  8
AM_3 ( Verdeckt )
100
AcDbLine
 10
757.5809652252746
 20
3830.1917649473
 30
-0.0000000000000002
 11
729.813598315084
 21
3851.498414962609
 31
-0.0000000000000002
  0
LINE
  5
1DF6
330
74
100
AcDbEntity
  8
AM_3 ( Verdeckt )
100
AcDbLine
 10
756.3634423672548
 20
3828.605058266719
 30
-0.0000000000000002
 11
728.5960754570651
 21
3849.911708282029
 31
-0.0000000000000002
  0
LINE
  5
1DF7
330
74
100
AcDbEntity
  8
AM_3 ( Verdeckt )
100
AcDbLine
 10
729.6938095118647
 20
3849.699623523159
 30
-0.0000000000000002
 11
730.3025709408657
 21
3850.492976863449
 31
-0.0000000000000002
  0
LINE
  5
1DF8
330
74
100
AcDbEntity
  8
AM_3 ( Verdeckt )
100
AcDbLine
 10
755.8744697414749
 20
3829.610496365869
 30
-0.0000000000000002
 11
756.4832311704748
 21
3830.403849706159
 31
-0.0000000000000002
  0
LINE
  5
1DF9
330
74
100
AcDbEntity
  8
AM_3 ( Verdeckt )
100
AcDbLine
 10
739.3746713984155
 20
3813.110698022819
 30
-0.0000000000000002
 11
738.5813180581253
 21
3812.50193659381
 31
-0.0000000000000002
  0
LINE
  5
1DFA
330
74
100
AcDbEntity
  8
AM_3 ( Verdeckt )
100
AcDbLine
 10
719.2855442411255
 20
3839.29135825243
 30
-0.0000000000000002
 11
718.4921909008352
 21
3838.682596823419
 31
-0.0000000000000002
  0
LINE
  5
1DFB
330
74
100
AcDbEntity
  8
AM_3 ( Verdeckt )
100
AcDbLine
 10
685.9952032869349
 20
3776.12483323661
 30
-0.0000000000000002
 11
685.2298364222042
 21
3774.277074171589
 31
-0.0000000000000002
  0
LINE
  5
1DFC
330
74
100
AcDbEntity
  8
AM_3 ( Verdeckt )
100
AcDbLine
 10
717.565620060095
 20
3760.88315403881
 30
-0.0000000000000002
 11
685.2298364222042
 21
3774.277074171589
 31
-0.0000000000000002
  0
LINE
  5
1DFD
330
74
100
AcDbEntity
  8
AM_3 ( Verdeckt )
100
AcDbLine
 10
718.3309869248249
 20
3762.730913103829
 30
-0.0000000000000002
 11
685.9952032869349
 21
3776.12483323661
 31
-0.0000000000000002
  0
LINE
  5
1DFE
330
74
100
AcDbEntity
  8
AM_3 ( Verdeckt )
100
AcDbLine
 10
718.3309869248249
 20
3762.730913103829
 30
-0.0000000000000002
 11
717.565620060095
 21
3760.88315403881
 31
-0.0000000000000002
  0
LINE
  5
1DFF
330
74
100
AcDbEntity
  8
AM_3 ( Verdeckt )
100
AcDbLine
 10
724.1812927922755
 20
3784.564551840969
 30
-0.0000000000000002
 11
724.4423451767161
 21
3786.547441563709
 31
-0.0000000000000002
  0
LINE
  5
1E00
330
74
100
AcDbEntity
  8
AM_3 ( Verdeckt )
100
AcDbLine
 10
689.4807226441952
 20
3789.132968568669
 30
-0.0000000000000002
 11
689.741775028634
 21
3791.115858291419
 31
-0.0000000000000002
  0
LINE
  5
1E01
330
74
100
AcDbEntity
  8
AM_3 ( Verdeckt )
100
AcDbLine
 10
724.4423451767161
 20
3786.547441563709
 30
-0.0000000000000002
 11
689.741775028634
 21
3791.115858291419
 31
-0.0000000000000002
  0
LINE
  5
1E02
330
74
100
AcDbEntity
  8
AM_3 ( Verdeckt )
100
AcDbLine
 10
724.1812927922755
 20
3784.564551840969
 30
-0.0000000000000002
 11
689.4807226441952
 21
3789.132968568669
 31
-0.0000000000000002
  0
LINE
  5
1E03
330
74
100
AcDbEntity
  8
AM_3 ( Verdeckt )
100
AcDbLine
 10
689.4807226441952
 20
3703.931224228399
 30
-0.0000000000000002
 11
689.741775028634
 21
3701.948334505658
 31
-0.0000000000000002
  0
LINE
  5
1E04
330
74
100
AcDbEntity
  8
AM_3 ( Verdeckt )
100
AcDbLine
 10
724.4423451767161
 20
3706.516751233359
 30
-0.0000000000000002
 11
689.741775028634
 21
3701.948334505658
 31
-0.0000000000000002
  0
LINE
  5
1E05
330
74
100
AcDbEntity
  8
AM_3 ( Verdeckt )
100
AcDbLine
 10
724.1812927922755
 20
3708.499640956109
 30
-0.0000000000000002
 11
689.4807226441952
 21
3703.931224228399
 31
-0.0000000000000002
  0
LINE
  5
1E06
330
74
100
AcDbEntity
  8
AM_3 ( Verdeckt )
100
AcDbLine
 10
724.1812927922755
 20
3708.499640956109
 30
-0.0000000000000002
 11
724.4423451767161
 21
3706.516751233359
 31
-0.0000000000000002
  0
LINE
  5
1E07
330
74
100
AcDbEntity
  8
AM_3 ( Verdeckt )
100
AcDbLine
 10
718.3309869248249
 20
3730.33327969324
 30
-0.0000000000000002
 11
717.565620060095
 21
3732.18103875827
 31
-0.0000000000000002
  0
LINE
  5
1E08
330
74
100
AcDbEntity
  8
AM_3 ( Verdeckt )
100
AcDbLine
 10
685.9952032869349
 20
3716.939359560468
 30
-0.0000000000000002
 11
685.2298364222042
 21
3718.787118625489
 31
-0.0000000000000002
  0
LINE
  5
1E09
330
74
100
AcDbEntity
  8
AM_3 ( Verdeckt )
100
AcDbLine
 10
717.565620060095
 20
3732.18103875827
 30
-0.0000000000000002
 11
685.2298364222042
 21
3718.787118625489
 31
-0.0000000000000002
  0
LINE
  5
1E0A
330
74
100
AcDbEntity
  8
AM_3 ( Verdeckt )
100
AcDbLine
 10
718.3309869248249
 20
3730.33327969324
 30
-0.0000000000000002
 11
685.9952032869349
 21
3716.939359560468
 31
-0.0000000000000002
  0
LINE
  5
1E0B
330
74
100
AcDbEntity
  8
AM_3 ( Verdeckt )
100
AcDbLine
 10
728.5960754570651
 20
3643.152484515049
 30
-0.0000000000000002
 11
729.813598315084
 21
3641.565777834469
 31
-0.0000000000000002
  0
LINE
  5
1E0C
330
74
100
AcDbEntity
  8
AM_3 ( Verdeckt )
100
AcDbLine
 10
757.5809652252746
 20
3662.872427849769
 30
-0.0000000000000002
 11
729.813598315084
 21
3641.565777834469
 31
-0.0000000000000002
  0
LINE
  5
1E0D
330
74
100
AcDbEntity
  8
AM_3 ( Verdeckt )
100
AcDbLine
 10
756.3634423672548
 20
3664.45913453035
 30
-0.0000000000000002
 11
728.5960754570651
 21
3643.152484515049
 31
-0.0000000000000002
  0
LINE
  5
1E0E
330
74
100
AcDbEntity
  8
AM_3 ( Verdeckt )
100
AcDbLine
 10
756.3634423672548
 20
3664.45913453035
 30
-0.0000000000000002
 11
757.5809652252746
 21
3662.872427849769
 31
-0.0000000000000002
  0
LINE
  5
1E0F
330
74
100
AcDbEntity
  8
AM_3 ( Verdeckt )
100
AcDbLine
 10
740.3801094975761
 20
3680.44246740004
 30
-0.0000000000000002
 11
738.7934028169846
 21
3681.659990258059
 31
-0.0000000000000002
  0
LINE
  5
1E10
330
74
100
AcDbEntity
  8
AM_3 ( Verdeckt )
100
AcDbLine
 10
719.0734594822653
 20
3652.67510048985
 30
-0.0000000000000002
 11
717.4867528016847
 21
3653.892623347869
 31
-0.0000000000000002
  0
LINE
  5
1E11
330
74
100
AcDbEntity
  8
AM_3 ( Verdeckt )
100
AcDbLine
 10
738.7934028169846
 20
3681.659990258059
 30
-0.0000000000000002
 11
717.4867528016847
 21
3653.892623347869
 31
-0.0000000000000002
  0
LINE
  5
1E12
330
74
100
AcDbEntity
  8
AM_3 ( Verdeckt )
100
AcDbLine
 10
740.3801094975761
 20
3680.44246740004
 30
-0.0000000000000002
 11
719.0734594822653
 21
3652.67510048985
 31
-0.0000000000000002
  0
LINE
  5
1E13
330
74
100
AcDbEntity
  8
AM_3 ( Verdeckt )
100
AcDbLine
 10
792.8603345276843
 20
3610.074228319721
 30
-0.0000000000000002
 11
794.7080935927052
 21
3609.308861454989
 31
-0.0000000000000002
  0
LINE
  5
1E14
330
74
100
AcDbEntity
  8
AM_3 ( Verdeckt )
100
AcDbLine
 10
808.1020137254846
 20
3641.644645092878
 30
-0.0000000000000002
 11
794.7080935927052
 21
3609.308861454989
 31
-0.0000000000000002
  0
LINE
  5
1E15
330
74
100
AcDbEntity
  8
AM_3 ( Verdeckt )
100
AcDbLine
 10
806.2542546604554
 20
3642.41001195761
 30
-0.0000000000000002
 11
792.8603345276843
 21
3610.074228319721
 31
-0.0000000000000002
  0
LINE
  5
1E16
330
74
100
AcDbEntity
  8
AM_3 ( Verdeckt )
100
AcDbLine
 10
806.2542546604554
 20
3642.41001195761
 30
-0.0000000000000002
 11
808.1020137254846
 21
3641.644645092878
 31
-0.0000000000000002
  0
LINE
  5
1E17
330
74
100
AcDbEntity
  8
AM_3 ( Verdeckt )
100
AcDbLine
 10
784.4206159233252
 20
3648.260317825059
 30
-0.0000000000000002
 11
782.4377262005746
 21
3648.521370209499
 31
-0.0000000000000002
  0
LINE
  5
1E18
330
74
100
AcDbEntity
  8
AM_3 ( Verdeckt )
100
AcDbLine
 10
779.8521991956248
 20
3613.559747676979
 30
-0.0000000000000002
 11
777.8693094728751
 21
3613.820800061418
 31
-0.0000000000000002
  0
LINE
  5
1E19
330
74
100
AcDbEntity
  8
AM_3 ( Verdeckt )
100
AcDbLine
 10
782.4377262005746
 20
3648.521370209499
 30
-0.0000000000000002
 11
777.8693094728751
 21
3613.820800061418
 31
-0.0000000000000002
  0
LINE
  5
1E1A
330
74
100
AcDbEntity
  8
AM_3 ( Verdeckt )
100
AcDbLine
 10
784.4206159233252
 20
3648.260317825059
 30
-0.0000000000000002
 11
779.8521991956248
 21
3613.559747676979
 31
-0.0000000000000002
  0
LINE
  5
1E1B
330
74
100
AcDbEntity
  8
AM_3 ( Verdeckt )
100
AcDbLine
 10
865.0539435358851
 20
3613.559747676979
 30
-0.0000000000000002
 11
867.036833258634
 21
3613.82080006141
 31
-0.0000000000000002
  0
LINE
  5
1E1C
330
74
100
AcDbEntity
  8
AM_3 ( Verdeckt )
100
AcDbLine
 10
862.4684165309354
 20
3648.521370209499
 30
-0.0000000000000002
 11
867.036833258634
 21
3613.82080006141
 31
-0.0000000000000002
  0
LINE
  5
1E1D
330
74
100
AcDbEntity
  8
AM_3 ( Verdeckt )
100
AcDbLine
 10
860.4855268081847
 20
3648.260317825059
 30
-0.0000000000000002
 11
865.0539435358851
 21
3613.559747676979
 31
-0.0000000000000002
  0
LINE
  5
1E1E
330
74
100
AcDbEntity
  8
AM_3 ( Verdeckt )
100
AcDbLine
 10
860.4855268081847
 20
3648.260317825059
 30
-0.0000000000000002
 11
862.4684165309354
 21
3648.521370209499
 31
-0.0000000000000002
  0
LINE
  5
1E1F
330
74
100
AcDbEntity
  8
AM_3 ( Verdeckt )
100
AcDbLine
 10
838.6518880710445
 20
3642.41001195761
 30
-0.0000000000000002
 11
836.8041290060254
 21
3641.644645092878
 31
-0.0000000000000002
  0
LINE
  5
1E20
330
74
100
AcDbEntity
  8
AM_3 ( Verdeckt )
100
AcDbLine
 10
852.0458082038256
 20
3610.074228319721
 30
-0.0000000000000002
 11
850.1980491388049
 21
3609.308861454989
 31
-0.0000000000000002
  0
LINE
  5
1E21
330
74
100
AcDbEntity
  8
AM_3 ( Verdeckt )
100
AcDbLine
 10
836.8041290060254
 20
3641.644645092878
 30
-0.0000000000000002
 11
850.1980491388049
 21
3609.308861454989
 31
-0.0000000000000002
  0
LINE
  5
1E22
330
74
100
AcDbEntity
  8
AM_3 ( Verdeckt )
100
AcDbLine
 10
838.6518880710445
 20
3642.41001195761
 30
-0.0000000000000002
 11
852.0458082038256
 21
3610.074228319721
 31
-0.0000000000000002
  0
LINE
  5
1E23
330
74
100
AcDbEntity
  8
AM_3 ( Verdeckt )
100
AcDbLine
 10
925.8326832492455
 20
3652.67510048985
 30
-0.0000000000000002
 11
927.4193899298253
 21
3653.892623347859
 31
-0.0000000000000002
  0
LINE
  5
1E24
330
74
100
AcDbEntity
  8
AM_3 ( Verdeckt )
100
AcDbLine
 10
906.1127399145153
 20
3681.659990258059
 30
-0.0000000000000002
 11
927.4193899298253
 21
3653.892623347859
 31
-0.0000000000000002
  0
LINE
  5
1E25
330
74
100
AcDbEntity
  8
AM_3 ( Verdeckt )
100
AcDbLine
 10
904.526033233934
 20
3680.44246740004
 30
-0.0000000000000002
 11
925.8326832492455
 21
3652.67510048985
 31
-0.0000000000000002
  0
LINE
  5
1E26
330
74
100
AcDbEntity
  8
AM_3 ( Verdeckt )
100
AcDbLine
 10
904.526033233934
 20
3680.44246740004
 30
-0.0000000000000002
 11
906.1127399145153
 21
3681.659990258059
 31
-0.0000000000000002
  0
LINE
  5
1E27
330
74
100
AcDbEntity
  8
AM_3 ( Verdeckt )
100
AcDbLine
 10
888.5427003642453
 20
3664.45913453035
 30
-0.0000000000000002
 11
887.3251775062344
 21
3662.872427849769
 31
-0.0000000000000002
  0
LINE
  5
1E28
330
74
100
AcDbEntity
  8
AM_3 ( Verdeckt )
100
AcDbLine
 10
916.3100672744459
 20
3643.152484515049
 30
-0.0000000000000002
 11
915.092544416424
 21
3641.565777834469
 31
-0.0000000000000002
  0
LINE
  5
1E29
330
74
100
AcDbEntity
  8
AM_3 ( Verdeckt )
100
AcDbLine
 10
887.3251775062344
 20
3662.872427849769
 30
-0.0000000000000002
 11
915.092544416424
 21
3641.565777834469
 31
-0.0000000000000002
  0
LINE
  5
1E2A
330
74
100
AcDbEntity
  8
AM_3 ( Verdeckt )
100
AcDbLine
 10
888.5427003642453
 20
3664.45913453035
 30
-0.0000000000000002
 11
916.3100672744459
 21
3643.152484515049
 31
-0.0000000000000002
  0
LINE
  5
1E2B
330
74
100
AcDbEntity
  8
AM_3 ( Verdeckt )
100
AcDbLine
 10
958.9109394445747
 20
3716.939359560459
 30
-0.0000000000000002
 11
959.6763063093041
 21
3718.787118625489
 31
-0.0000000000000002
  0
LINE
  5
1E2C
330
74
100
AcDbEntity
  8
AM_3 ( Verdeckt )
100
AcDbLine
 10
927.3405226714046
 20
3732.181038758259
 30
-0.0000000000000002
 11
959.6763063093041
 21
3718.787118625489
 31
-0.0000000000000002
  0
LINE
  5
1E2D
330
74
100
AcDbEntity
  8
AM_3 ( Verdeckt )
100
AcDbLine
 10
926.5751558066748
 20
3730.33327969324
 30
-0.0000000000000002
 11
958.9109394445747
 21
3716.939359560459
 31
-0.0000000000000002
  0
LINE
  5
1E2E
330
74
100
AcDbEntity
  8
AM_3 ( Verdeckt )
100
AcDbLine
 10
926.5751558066748
 20
3730.33327969324
 30
-0.0000000000000002
 11
927.3405226714046
 21
3732.181038758259
 31
-0.0000000000000002
  0
LINE
  5
1E2F
330
74
100
AcDbEntity
  8
AM_3 ( Verdeckt )
100
AcDbLine
 10
920.7248499392244
 20
3708.499640956109
 30
-0.0000000000000002
 11
920.4637975547948
 21
3706.516751233359
 31
-0.0000000000000002
  0
LINE
  5
1E30
330
74
100
AcDbEntity
  8
AM_3 ( Verdeckt )
100
AcDbLine
 10
955.4254200873158
 20
3703.931224228399
 30
-0.0000000000000002
 11
955.1643677028751
 21
3701.948334505658
 31
-0.0000000000000002
  0
LINE
  5
1E31
330
74
100
AcDbEntity
  8
AM_3 ( Verdeckt )
100
AcDbLine
 10
920.4637975547948
 20
3706.516751233359
 30
-0.0000000000000002
 11
955.1643677028751
 21
3701.948334505658
 31
-0.0000000000000002
  0
LINE
  5
1E32
330
74
100
AcDbEntity
  8
AM_3 ( Verdeckt )
100
AcDbLine
 10
920.7248499392244
 20
3708.499640956109
 30
-0.0000000000000002
 11
955.4254200873158
 21
3703.931224228399
 31
-0.0000000000000002
  0
LINE
  5
1E33
330
74
100
AcDbEntity
  8
AM_3 ( Verdeckt )
100
AcDbLine
 10
955.4254200873158
 20
3789.132968568669
 30
-0.0000000000000002
 11
955.1643677028751
 21
3791.115858291419
 31
-0.0000000000000002
  0
LINE
  5
1E34
330
74
100
AcDbEntity
  8
AM_3 ( Verdeckt )
100
AcDbLine
 10
920.4637975547948
 20
3786.547441563709
 30
-0.0000000000000002
 11
955.1643677028751
 21
3791.115858291419
 31
-0.0000000000000002
  0
LINE
  5
1E35
330
74
100
AcDbEntity
  8
AM_3 ( Verdeckt )
100
AcDbLine
 10
920.7248499392344
 20
3784.564551840969
 30
-0.0000000000000002
 11
955.4254200873158
 21
3789.132968568669
 31
-0.0000000000000002
  0
LINE
  5
1E36
330
74
100
AcDbEntity
  8
AM_3 ( Verdeckt )
100
AcDbLine
 10
920.7248499392344
 20
3784.564551840969
 30
-0.0000000000000002
 11
920.4637975547948
 21
3786.547441563709
 31
-0.0000000000000002
  0
LINE
  5
1E37
330
74
100
AcDbEntity
  8
AM_3 ( Verdeckt )
100
AcDbLine
 10
926.5751558066748
 20
3762.730913103829
 30
-0.0000000000000002
 11
927.3405226714046
 21
3760.88315403881
 31
-0.0000000000000002
  0
LINE
  5
1E38
330
74
100
AcDbEntity
  8
AM_3 ( Verdeckt )
100
AcDbLine
 10
958.9109394445747
 20
3776.12483323661
 30
-0.0000000000000002
 11
959.6763063093041
 21
3774.277074171589
 31
-0.0000000000000002
  0
LINE
  5
1E39
330
74
100
AcDbEntity
  8
AM_3 ( Verdeckt )
100
AcDbLine
 10
927.3405226714046
 20
3760.88315403881
 30
-0.0000000000000002
 11
959.6763063093041
 21
3774.277074171589
 31
-0.0000000000000002
  0
LINE
  5
1E3A
330
74
100
AcDbEntity
  8
AM_3 ( Verdeckt )
100
AcDbLine
 10
926.5751558066748
 20
3762.730913103829
 30
-0.0000000000000002
 11
958.9109394445747
 21
3776.12483323661
 31
-0.0000000000000002
  0
LINE
  5
1E3B
330
74
100
AcDbEntity
  8
AM_3 ( Verdeckt )
100
AcDbLine
 10
916.3100672744459
 20
3849.911708282019
 30
-0.0000000000000002
 11
915.092544416424
 21
3851.498414962609
 31
-0.0000000000000002
  0
LINE
  5
1E3C
330
74
100
AcDbEntity
  8
AM_3 ( Verdeckt )
100
AcDbLine
 10
887.3251775062344
 20
3830.1917649473
 30
-0.0000000000000002
 11
915.092544416424
 21
3851.498414962609
 31
-0.0000000000000002
  0
LINE
  5
1E3D
330
74
100
AcDbEntity
  8
AM_3 ( Verdeckt )
100
AcDbLine
 10
888.5427003642453
 20
3828.605058266719
 30
-0.0000000000000002
 11
916.3100672744459
 21
3849.911708282019
 31
-0.0000000000000002
  0
LINE
  5
1E3E
330
74
100
AcDbEntity
  8
AM_3 ( Verdeckt )
100
AcDbLine
 10
888.5427003642453
 20
3828.605058266719
 30
-0.0000000000000002
 11
887.3251775062344
 21
3830.1917649473
 31
-0.0000000000000002
  0
LINE
  5
1E3F
330
74
100
AcDbEntity
  8
AM_3 ( Verdeckt )
100
AcDbLine
 10
904.526033233934
 20
3812.621725397029
 30
-0.0000000000000002
 11
906.1127399145153
 21
3811.404202539009
 31
-0.0000000000000002
  0
LINE
  5
1E40
330
74
100
AcDbEntity
  8
AM_3 ( Verdeckt )
100
AcDbLine
 10
925.8326832492455
 20
3840.389092307219
 30
-0.0000000000000002
 11
927.4193899298253
 21
3839.171569449209
 31
-0.0000000000000002
  0
LINE
  5
1E41
330
74
100
AcDbEntity
  8
AM_3 ( Verdeckt )
100
AcDbLine
 10
906.1127399145153
 20
3811.404202539009
 30
-0.0000000000000002
 11
927.4193899298253
 21
3839.171569449209
 31
-0.0000000000000002
  0
LINE
  5
1E42
330
74
100
AcDbEntity
  8
AM_3 ( Verdeckt )
100
AcDbLine
 10
904.526033233934
 20
3812.621725397029
 30
-0.0000000000000002
 11
925.8326832492455
 21
3840.389092307219
 31
-0.0000000000000002
  0
LINE
  5
1E43
330
74
100
AcDbEntity
  8
AM_3 ( Verdeckt )
100
AcDbLine
 10
852.0458082038256
 20
3882.989964477359
 30
-0.0000000000000002
 11
850.1980491388049
 21
3883.75533134209
 31
-0.0000000000000002
  0
LINE
  5
1E44
330
74
100
AcDbEntity
  8
AM_3 ( Verdeckt )
100
AcDbLine
 10
836.8041290060254
 20
3851.419547704189
 30
-0.0000000000000002
 11
850.1980491388049
 21
3883.75533134209
 31
-0.0000000000000002
  0
LINE
  5
1E45
330
74
100
AcDbEntity
  8
AM_3 ( Verdeckt )
100
AcDbLine
 10
838.6518880710445
 20
3850.654180839459
 30
-0.0000000000000002
 11
852.0458082038256
 21
3882.989964477359
 31
-0.0000000000000002
  0
LINE
  5
1E46
330
74
100
AcDbEntity
  8
AM_3 ( Verdeckt )
100
AcDbLine
 10
838.6518880710445
 20
3850.654180839459
 30
-0.0000000000000002
 11
836.8041290060254
 21
3851.419547704189
 31
-0.0000000000000002
  0
LINE
  5
1E47
330
74
100
AcDbEntity
  8
AM_3 ( Verdeckt )
100
AcDbLine
 10
860.4855268081847
 20
3844.803874972008
 30
-0.0000000000000002
 11
862.4684165309354
 21
3844.542822587569
 31
-0.0000000000000002
  0
LINE
  5
1E48
330
74
100
AcDbEntity
  8
AM_3 ( Verdeckt )
100
AcDbLine
 10
865.0539435358851
 20
3879.504445120099
 30
-0.0000000000000002
 11
867.036833258634
 21
3879.243392735659
 31
-0.0000000000000002
  0
LINE
  5
1E49
330
74
100
AcDbEntity
  8
AM_3 ( Verdeckt )
100
AcDbLine
 10
862.4684165309354
 20
3844.542822587569
 30
-0.0000000000000002
 11
867.036833258634
 21
3879.243392735659
 31
-0.0000000000000002
  0
LINE
  5
1E4A
330
74
100
AcDbEntity
  8
AM_3 ( Verdeckt )
100
AcDbLine
 10
860.4855268081847
 20
3844.803874972008
 30
-0.0000000000000002
 11
865.0539435358851
 21
3879.504445120099
 31
-0.0000000000000002
  0
LINE
  5
1E4B
330
74
100
AcDbEntity
  8
AM_3 ( Verdeckt )
100
AcDbLine
 10
779.8521991956248
 20
3879.504445120099
 30
-0.0000000000000002
 11
777.8693094728751
 21
3879.243392735659
 31
-0.0000000000000002
  0
LINE
  5
1E4C
330
74
100
AcDbEntity
  8
AM_3 ( Verdeckt )
100
AcDbLine
 10
782.4377262005746
 20
3844.542822587569
 30
-0.0000000000000002
 11
777.8693094728751
 21
3879.243392735659
 31
-0.0000000000000002
  0
LINE
  5
1E4D
330
74
100
AcDbEntity
  8
AM_3 ( Verdeckt )
100
AcDbLine
 10
784.4206159233252
 20
3844.803874972008
 30
-0.0000000000000002
 11
779.8521991956248
 21
3879.504445120099
 31
-0.0000000000000002
  0
LINE
  5
1E4E
330
74
100
AcDbEntity
  8
AM_3 ( Verdeckt )
100
AcDbLine
 10
784.4206159233252
 20
3844.803874972008
 30
-0.0000000000000002
 11
782.4377262005746
 21
3844.542822587569
 31
-0.0000000000000002
  0
LINE
  5
1E4F
330
74
100
AcDbEntity
  8
AM_3 ( Verdeckt )
100
AcDbLine
 10
806.2542546604554
 20
3850.654180839459
 30
-0.0000000000000002
 11
808.1020137254846
 21
3851.419547704189
 31
-0.0000000000000002
  0
LINE
  5
1E50
330
74
100
AcDbEntity
  8
AM_3 ( Verdeckt )
100
AcDbLine
 10
792.8603345276843
 20
3882.989964477359
 30
-0.0000000000000002
 11
794.7080935927052
 21
3883.75533134209
 31
-0.0000000000000002
  0
LINE
  5
1E51
330
74
100
AcDbEntity
  8
AM_3 ( Verdeckt )
100
AcDbLine
 10
808.1020137254846
 20
3851.419547704189
 30
-0.0000000000000002
 11
794.7080935927052
 21
3883.75533134209
 31
-0.0000000000000002
  0
LINE
  5
1E52
330
74
100
AcDbEntity
  8
AM_3 ( Verdeckt )
100
AcDbLine
 10
806.2542546604554
 20
3850.654180839459
 30
-0.0000000000000002
 11
792.8603345276843
 21
3882.989964477359
 31
-0.0000000000000002
  0
LINE
  5
1E53
330
74
100
AcDbEntity
  8
AM_3 ( Verdeckt )
100
AcDbLine
 10
686.7277411032655
 20
3775.280210037989
 30
-0.0000000000000002
 11
686.3450576708956
 21
3774.356330505479
 31
-0.0000000000000002
  0
LINE
  5
1E54
330
74
100
AcDbEntity
  8
AM_3 ( Verdeckt )
100
AcDbLine
 10
717.2157656761337
 20
3762.651656769939
 30
-0.0000000000000002
 11
716.8330822437655
 21
3761.72777723743
 31
-0.0000000000000002
  0
LINE
  5
1E55
330
74
100
AcDbEntity
  8
AM_3 ( Verdeckt )
100
AcDbLine
 10
723.2551110270151
 20
3785.190800463869
 30
-0.0000000000000002
 11
723.3856372192349
 21
3786.18224532525
 31
-0.0000000000000002
  0
LINE
  5
1E56
330
74
100
AcDbEntity
  8
AM_3 ( Verdeckt )
100
AcDbLine
 10
690.5374306016748
 20
3789.498164807129
 30
-0.0000000000000002
 11
690.6679567938954
 21
3790.489609668509
 31
-0.0000000000000002
  0
LINE
  5
1E57
330
74
100
AcDbEntity
  8
AM_3 ( Verdeckt )
100
AcDbLine
 10
690.5374306016748
 20
3703.566027989939
 30
-0.0000000000000002
 11
690.6679567938954
 21
3702.574583128559
 31
-0.0000000000000002
  0
LINE
  5
1E58
330
74
100
AcDbEntity
  8
AM_3 ( Verdeckt )
100
AcDbLine
 10
723.2551110270151
 20
3707.873392333199
 30
-0.0000000000000002
 11
723.3856372192349
 21
3706.88194747183
 31
-0.0000000000000002
  0
LINE
  5
1E59
330
74
100
AcDbEntity
  8
AM_3 ( Verdeckt )
100
AcDbLine
 10
717.2157656761337
 20
3730.412536027129
 30
-0.0000000000000002
 11
716.8330822437655
 21
3731.336415559639
 31
-0.0000000000000002
  0
LINE
  5
1E5A
330
74
100
AcDbEntity
  8
AM_3 ( Verdeckt )
100
AcDbLine
 10
686.7277411032655
 20
3717.783982759078
 30
-0.0000000000000002
 11
686.3450576708956
 21
3718.707862291599
 31
-0.0000000000000002
  0
LINE
  5
1E5B
330
74
100
AcDbEntity
  8
AM_3 ( Verdeckt )
100
AcDbLine
 10
729.6938095118647
 20
3643.364569273909
 30
-0.0000000000000002
 11
730.3025709408657
 21
3642.57121593362
 31
-0.0000000000000002
  0
LINE
  5
1E5C
330
74
100
AcDbEntity
  8
AM_3 ( Verdeckt )
100
AcDbLine
 10
755.8744697414749
 20
3663.453696431199
 30
-0.0000000000000002
 11
756.4832311704748
 21
3662.660343090909
 31
-0.0000000000000002
  0
LINE
  5
1E5D
330
74
100
AcDbEntity
  8
AM_3 ( Verdeckt )
100
AcDbLine
 10
739.3746713984155
 20
3679.953494774249
 30
-0.0000000000000002
 11
738.5813180581253
 21
3680.56225620326
 31
-0.0000000000000002
  0
LINE
  5
1E5E
330
74
100
AcDbEntity
  8
AM_3 ( Verdeckt )
100
AcDbLine
 10
719.2855442411255
 20
3653.77283454464
 30
-0.0000000000000002
 11
718.4921909008352
 21
3654.381595973649
 31
-0.0000000000000002
  0
LINE
  5
1E5F
330
74
100
AcDbEntity
  8
AM_3 ( Verdeckt )
100
AcDbLine
 10
793.7049577263051
 20
3610.806766136049
 30
-0.0000000000000002
 11
794.628837258816
 21
3610.424082703679
 31
-0.0000000000000002
  0
LINE
  5
1E60
330
74
100
AcDbEntity
  8
AM_3 ( Verdeckt )
100
AcDbLine
 10
806.3335109943455
 20
3641.294790708919
 30
-0.0000000000000002
 11
807.2573905268653
 21
3640.91210727655
 31
-0.0000000000000002
  0
LINE
  5
1E61
330
74
100
AcDbEntity
  8
AM_3 ( Verdeckt )
100
AcDbLine
 10
783.7943673004165
 20
3647.334136059789
 30
-0.0000000000000002
 11
782.8029224390457
 21
3647.46466225201
 31
-0.0000000000000002
  0
LINE
  5
1E62
330
74
100
AcDbEntity
  8
AM_3 ( Verdeckt )
100
AcDbLine
 10
779.4870029571547
 20
3614.61645563446
 30
-0.0000000000000002
 11
778.4955580957849
 21
3614.746981826679
 31
-0.0000000000000002
  0
LINE
  5
1E63
330
74
100
AcDbEntity
  8
AM_3 ( Verdeckt )
100
AcDbLine
 10
865.4191397743542
 20
3614.61645563446
 30
-0.0000000000000002
 11
866.4105846357253
 21
3614.746981826679
 31
-0.0000000000000002
  0
LINE
  5
1E64
330
74
100
AcDbEntity
  8
AM_3 ( Verdeckt )
100
AcDbLine
 10
861.1117754310836
 20
3647.334136059789
 30
-0.0000000000000002
 11
862.1032202924661
 21
3647.46466225201
 31
-0.0000000000000002
  0
LINE
  5
1E65
330
74
100
AcDbEntity
  8
AM_3 ( Verdeckt )
100
AcDbLine
 10
838.5726317371545
 20
3641.294790708919
 30
-0.0000000000000002
 11
837.6487522046462
 21
3640.91210727655
 31
-0.0000000000000002
  0
LINE
  5
1E66
330
74
100
AcDbEntity
  8
AM_3 ( Verdeckt )
100
AcDbLine
 10
851.2011850052049
 20
3610.806766136049
 30
-0.0000000000000002
 11
850.2773054726947
 21
3610.424082703679
 31
-0.0000000000000002
  0
LINE
  5
1E67
330
74
100
AcDbEntity
  8
AM_3 ( Verdeckt )
100
AcDbLine
 10
925.6205984903745
 20
3653.77283454464
 30
-0.0000000000000002
 11
926.4139518306656
 21
3654.381595973649
 31
-0.0000000000000002
  0
LINE
  5
1E68
330
74
100
AcDbEntity
  8
AM_3 ( Verdeckt )
100
AcDbLine
 10
905.5314713330844
 20
3679.953494774249
 30
-0.0000000000000002
 11
906.3248246733847
 21
3680.56225620326
 31
-0.0000000000000002
  0
LINE
  5
1E69
330
74
100
AcDbEntity
  8
AM_3 ( Verdeckt )
100
AcDbLine
 10
889.0316729900341
 20
3663.453696431199
 30
-0.0000000000000002
 11
888.4229115610251
 21
3662.660343090909
 31
-0.0000000000000002
  0
LINE
  5
1E6A
330
74
100
AcDbEntity
  8
AM_3 ( Verdeckt )
100
AcDbLine
 10
915.212333219646
 20
3643.364569273909
 30
-0.0000000000000002
 11
914.6035717906343
 21
3642.57121593362
 31
-0.0000000000000002
  0
LINE
  5
1E6B
330
74
100
AcDbEntity
  8
AM_3 ( Verdeckt )
100
AcDbLine
 10
958.1784016282451
 20
3717.783982759078
 30
-0.0000000000000002
 11
958.5610850606045
 21
3718.707862291599
 31
-0.0000000000000002
  0
LINE
  5
1E6C
330
74
100
AcDbEntity
  8
AM_3 ( Verdeckt )
100
AcDbLine
 10
927.6903770553744
 20
3730.412536027129
 30
-0.0000000000000002
 11
928.0730604877343
 21
3731.336415559639
 31
-0.0000000000000002
  0
LINE
  5
1E6D
330
74
100
AcDbEntity
  8
AM_3 ( Verdeckt )
100
AcDbLine
 10
921.6510317044956
 20
3707.873392333199
 30
-0.0000000000000002
 11
921.5205055122751
 21
3706.88194747183
 31
-0.0000000000000002
  0
LINE
  5
1E6E
330
74
100
AcDbEntity
  8
AM_3 ( Verdeckt )
100
AcDbLine
 10
954.3687121298253
 20
3703.566027989939
 30
-0.0000000000000002
 11
954.2381859376154
 21
3702.574583128559
 31
-0.0000000000000002
  0
LINE
  5
1E6F
330
74
100
AcDbEntity
  8
AM_3 ( Verdeckt )
100
AcDbLine
 10
954.3687121298253
 20
3789.498164807139
 30
-0.0000000000000002
 11
954.2381859376154
 21
3790.489609668509
 31
-0.0000000000000002
  0
LINE
  5
1E70
330
74
100
AcDbEntity
  8
AM_3 ( Verdeckt )
100
AcDbLine
 10
921.6510317044956
 20
3785.190800463869
 30
-0.0000000000000002
 11
921.5205055122751
 21
3786.18224532525
 31
-0.0000000000000002
  0
LINE
  5
1E71
330
74
100
AcDbEntity
  8
AM_3 ( Verdeckt )
100
AcDbLine
 10
927.6903770553744
 20
3762.651656769939
 30
-0.0000000000000002
 11
928.0730604877343
 21
3761.72777723743
 31
-0.0000000000000002
  0
LINE
  5
1E72
330
74
100
AcDbEntity
  8
AM_3 ( Verdeckt )
100
AcDbLine
 10
958.1784016282451
 20
3775.280210037989
 30
-0.0000000000000002
 11
958.5610850606045
 21
3774.356330505479
 31
-0.0000000000000002
  0
LINE
  5
1E73
330
74
100
AcDbEntity
  8
AM_3 ( Verdeckt )
100
AcDbLine
 10
915.212333219646
 20
3849.699623523159
 30
-0.0000000000000002
 11
914.6035717906343
 21
3850.492976863449
 31
-0.0000000000000002
  0
LINE
  5
1E74
330
74
100
AcDbEntity
  8
AM_3 ( Verdeckt )
100
AcDbLine
 10
889.0316729900341
 20
3829.610496365869
 30
-0.0000000000000002
 11
888.4229115610251
 21
3830.403849706159
 31
-0.0000000000000002
  0
LINE
  5
1E75
330
74
100
AcDbEntity
  8
AM_3 ( Verdeckt )
100
AcDbLine
 10
905.5314713330844
 20
3813.110698022819
 30
-0.0000000000000002
 11
906.3248246733847
 21
3812.50193659381
 31
-0.0000000000000002
  0
LINE
  5
1E76
330
74
100
AcDbEntity
  8
AM_3 ( Verdeckt )
100
AcDbLine
 10
925.6205984903745
 20
3839.29135825243
 30
-0.0000000000000002
 11
926.4139518306656
 21
3838.682596823419
 31
-0.0000000000000002
  0
LINE
  5
1E77
330
74
100
AcDbEntity
  8
AM_3 ( Verdeckt )
100
AcDbLine
 10
851.2011850052049
 20
3882.257426661029
 30
-0.0000000000000002
 11
850.2773054726947
 21
3882.640110093389
 31
-0.0000000000000002
  0
LINE
  5
1E78
330
74
100
AcDbEntity
  8
AM_3 ( Verdeckt )
100
AcDbLine
 10
838.5726317371545
 20
3851.769402088159
 30
-0.0000000000000002
 11
837.6487522046462
 21
3852.152085520519
 31
-0.0000000000000002
  0
LINE
  5
1E79
330
74
100
AcDbEntity
  8
AM_3 ( Verdeckt )
100
AcDbLine
 10
861.1117754310836
 20
3845.730056737279
 30
-0.0000000000000002
 11
862.1032202924661
 21
3845.599530545058
 31
-0.0000000000000002
  0
LINE
  5
1E7A
330
74
100
AcDbEntity
  8
AM_3 ( Verdeckt )
100
AcDbLine
 10
865.4191397743542
 20
3878.447737162609
 30
-0.0000000000000002
 11
866.4105846357253
 21
3878.317210970389
 31
-0.0000000000000002
  0
LINE
  5
1E7B
330
74
100
AcDbEntity
  8
AM_3 ( Verdeckt )
100
AcDbLine
 10
779.4870029571547
 20
3878.447737162609
 30
-0.0000000000000002
 11
778.4955580957849
 21
3878.317210970389
 31
-0.0000000000000002
  0
LINE
  5
1E7C
330
74
100
AcDbEntity
  8
AM_3 ( Verdeckt )
100
AcDbLine
 10
783.7943673004165
 20
3845.730056737279
 30
-0.0000000000000002
 11
782.8029224390457
 21
3845.599530545058
 31
-0.0000000000000002
  0
LINE
  5
1E7D
330
74
100
AcDbEntity
  8
AM_3 ( Verdeckt )
100
AcDbLine
 10
806.3335109943455
 20
3851.769402088159
 30
-0.0000000000000002
 11
807.2573905268653
 21
3852.152085520519
 31
-0.0000000000000002
  0
LINE
  5
1E7E
330
74
100
AcDbEntity
  8
AM_3 ( Verdeckt )
100
AcDbLine
 10
793.7049577263051
 20
3882.257426661029
 30
-0.0000000000000002
 11
794.628837258816
 21
3882.640110093389
 31
-0.0000000000000002
  0
LINE
  5
1E7F
330
74
100
AcDbEntity
  8
AM_3 ( Verdeckt )
100
AcDbLine
 10
812.6912967290454
 20
3661.259825636179
 30
-0.0000000000000002
 11
818.7615944768539
 21
3667.904484036199
 31
-0.0000000000000002
  0
LINE
  5
1E80
330
74
100
AcDbEntity
  8
AM_3 ( Verdeckt )
100
AcDbLine
 10
812.6912967290454
 20
3661.259825636179
 30
-0.0000000000000002
 11
811.9530013512656
 21
3661.93430316371
 31
-0.0000000000000002
  0
LINE
  5
1E81
330
74
100
AcDbEntity
  8
AM_3 ( Verdeckt )
100
AcDbLine
 10
817.1132049110156
 20
3664.706148031009
 30
-0.0000000000000002
 11
787.2086345619154
 21
3592.510128717279
 31
-0.0000000000000002
  0
LINE
  5
1E82
330
74
100
AcDbEntity
  8
AM_3 ( Verdeckt )
100
AcDbLine
 10
816.1893253785049
 20
3665.088831463369
 30
-0.0000000000000002
 11
786.2847550294044
 21
3592.892812149639
 31
-0.0000000000000002
  0
LINE
  5
1E83
330
74
100
AcDbEntity
  8
AM_3 ( Verdeckt )
100
AcDbLine
 10
816.1893253785049
 20
3665.088831463369
 30
-0.0000000000000002
 11
817.1132049110156
 21
3664.706148031009
 31
-0.0000000000000002
  0
ARC
  5
1E84
330
74
100
AcDbEntity
  8
AM_3 ( Verdeckt )
100
AcDbCircle
 10
781.7849719975547
 20
3594.756683309169
 30
-0.0000000000000002
 40
4.870530056681098
100
AcDbArc
 50
172.4999999999896
 51
337.4999999999819
  0
ARC
  5
1E85
330
74
100
AcDbEntity
  8
AM_3 ( Verdeckt )
100
AcDbCircle
 10
781.7849719975547
 20
3594.756683309169
 30
-0.0000000000000002
 40
5.870530056681089
100
AcDbArc
 50
172.4999999999896
 51
337.4999999999819
  0
LINE
  5
1E86
330
74
100
AcDbEntity
  8
AM_3 ( Verdeckt )
100
AcDbLine
 10
787.4017405339955
 20
3674.73485613489
 30
-0.0000000000000002
 11
776.9561100006958
 21
3595.392415051559
 31
-0.0000000000000002
  0
LINE
  5
1E87
330
74
100
AcDbEntity
  8
AM_3 ( Verdeckt )
100
AcDbLine
 10
786.4102956726246
 20
3674.865382327109
 30
-0.0000000000000002
 11
775.964665139325
 21
3595.52294124378
 31
-0.0000000000000002
  0
ARC
  5
1E88
330
74
100
AcDbEntity
  8
AM_3 ( Verdeckt )
100
AcDbCircle
 10
781.4530713657541
 20
3675.51801328821
 30
-0.0000000000000002
 40
6.0
100
AcDbArc
 50
352.4999999999896
 51
107.5864096495125
  0
ARC
  5
1E89
330
74
100
AcDbEntity
  8
AM_3 ( Verdeckt )
100
AcDbCircle
 10
781.4530713657541
 20
3675.51801328821
 30
-0.0000000000000002
 40
5.0
100
AcDbArc
 50
352.4999999999896
 51
107.5864096495125
  0
LINE
  5
1E8A
330
74
100
AcDbEntity
  8
AM_3 ( Verdeckt )
100
AcDbLine
 10
771.0608473742848
 20
3678.518293360319
 30
-0.0000000000000002
 11
779.6402086324251
 21
3681.237587460309
 31
-0.0000000000000002
  0
LINE
  5
1E8B
330
74
100
AcDbEntity
  8
AM_7 (Mittellinie)
100
AcDbLine
 10
967.4530713657539
 20
3649.507817962309
 30
-0.0000000000000002
 11
967.4530713657539
 21
3672.087955294269
 31
-0.0000000000000002
  0
LINE
  5
1E8C
330
74
100
AcDbEntity
  8
AM_3 ( Verdeckt )
100
AcDbLine
 10
771.3629911631651
 20
3677.565030998299
 30
-0.0000000000000002
 11
779.942352421316
 21
3680.28432509829
 31
-0.0000000000000002
  0
LINE
  5
1E8D
330
74
100
AcDbEntity
  8
AM_3 ( Verdeckt )
100
AcDbLine
 10
771.3629911631651
 20
3677.565030998299
 30
-0.0000000000000002
 11
771.0608473742848
 21
3678.518293360319
 31
-0.0000000000000002
  0
LINE
  5
1E8E
330
74
100
AcDbEntity
  8
AM_3 ( Verdeckt )
100
AcDbLine
 10
776.915637179365
 20
3678.338679650869
 30
-0.0000000000000002
 11
714.9195099109256
 21
3630.767378047619
 31
-0.0000000000000002
  0
LINE
  5
1E8F
330
74
100
AcDbEntity
  8
AM_3 ( Verdeckt )
100
AcDbLine
 10
776.3068757503551
 20
3679.132032991159
 30
-0.0000000000000002
 11
714.3107484819247
 21
3631.560731387909
 31
-0.0000000000000002
  0
LINE
  5
1E90
330
74
100
AcDbEntity
  8
AM_3 ( Verdeckt )
100
AcDbLine
 10
776.3068757503551
 20
3679.132032991159
 30
-0.0000000000000002
 11
776.915637179365
 21
3678.338679650869
 31
-0.0000000000000002
  0
ARC
  5
1E91
330
74
100
AcDbEntity
  8
AM_3 ( Verdeckt )
100
AcDbCircle
 10
711.3457576445853
 20
3635.42478267737
 30
-0.0000000000000002
 40
4.870530056681098
100
AcDbArc
 50
142.5000000000001
 51
307.500000000025
  0
ARC
  5
1E92
330
74
100
AcDbEntity
  8
AM_3 ( Verdeckt )
100
AcDbCircle
 10
711.3457576445853
 20
3635.42478267737
 30
-0.0000000000000002
 40
5.870530056681089
100
AcDbArc
 50
142.5000000000001
 51
307.500000000025
  0
LINE
  5
1E93
330
74
100
AcDbEntity
  8
AM_3 ( Verdeckt )
100
AcDbLine
 10
756.1991082971752
 20
3701.879527824479
 30
-0.0000000000000002
 11
707.4817063551245
 21
3638.389773514699
 31
-0.0000000000000002
  0
LINE
  5
1E94
330
74
100
AcDbEntity
  8
AM_3 ( Verdeckt )
100
AcDbLine
 10
755.4057549568843
 20
3702.488289253488
 30
-0.0000000000000002
 11
706.6883530148343
 21
3638.998534943709
 31
-0.0000000000000002
  0
ARC
  5
1E95
330
74
100
AcDbEntity
  8
AM_3 ( Verdeckt )
100
AcDbCircle
 10
751.4389882554251
 20
3705.532096398539
 30
-0.0000000000000002
 40
6.0
100
AcDbArc
 50
322.4999999999856
 51
77.58640964953156
  0
ARC
  5
1E96
330
74
100
AcDbEntity
  8
AM_3 ( Verdeckt )
100
AcDbCircle
 10
751.4389882554251
 20
3705.532096398539
 30
-0.0000000000000002
 40
5.0
100
AcDbArc
 50
322.4999999999856
 51
77.58640964953156
  0
LINE
  5
1E97
330
74
100
AcDbEntity
  8
AM_3 ( Verdeckt )
100
AcDbLine
 10
743.9391983130543
 20
3713.326527155189
 30
-0.0000000000000002
 11
752.7287901608461
 21
3711.391824297058
 31
-0.0000000000000002
  0
LINE
  5
1E98
330
74
100
AcDbEntity
  8
AM_3 ( Verdeckt )
100
AcDbLine
 10
743.724231328816
 20
3712.34990583876
 30
-0.0000000000000002
 11
752.513823176605
 21
3710.41520298064
 31
-0.0000000000000002
  0
LINE
  5
1E99
330
74
100
AcDbEntity
  8
AM_3 ( Verdeckt )
100
AcDbLine
 10
743.724231328816
 20
3712.34990583876
 30
-0.0000000000000002
 11
743.9391983130543
 21
3713.326527155189
 31
-0.0000000000000002
  0
LINE
  5
1E9A
330
74
100
AcDbEntity
  8
AM_3 ( Verdeckt )
100
AcDbLine
 10
748.9197881633462
 20
3710.243582217389
 30
-0.0000000000000002
 11
671.4439162110047
 21
3700.0436901721
 31
-0.0000000000000002
  0
CIRCLE
  5
1E9B
330
74
100
AcDbEntity
  8
AM_0 ( Kontur 0.5 )
100
AcDbCircle
 10
737.4530713657541
 20
3831.532096398539
 30
-0.0000000000000002
 40
6.499999902379778
  0
LINE
  5
1E9C
330
74
100
AcDbEntity
  8
AM_0 ( Kontur 0.5 )
100
AcDbLine
 10
733.7002946723842
 20
3825.03209649616
 30
-0.0000000000000002
 11
741.2058480591249
 21
3825.03209649616
 31
-0.0000000000000002
  0
LINE
  5
1E9D
330
74
100
AcDbEntity
  8
AM_0 ( Kontur 0.5 )
100
AcDbLine
 10
729.9475179790051
 20
3831.532096398539
 30
-0.0000000000000002
 11
733.7002946723842
 21
3825.03209649616
 31
-0.0000000000000002
  0
LINE
  5
1E9E
330
74
100
AcDbEntity
  8
AM_0 ( Kontur 0.5 )
100
AcDbLine
 10
733.7002946723842
 20
3838.032096300918
 30
-0.0000000000000002
 11
729.9475179790051
 21
3831.532096398539
 31
-0.0000000000000002
  0
LINE
  5
1E9F
330
74
100
AcDbEntity
  8
AM_0 ( Kontur 0.5 )
100
AcDbLine
 10
741.2058480591249
 20
3838.032096300918
 30
-0.0000000000000002
 11
733.7002946723842
 21
3838.032096300918
 31
-0.0000000000000002
  0
LINE
  5
1EA0
330
74
100
AcDbEntity
  8
AM_0 ( Kontur 0.5 )
100
AcDbLine
 10
744.9586247524948
 20
3831.532096398539
 30
-0.0000000000000002
 11
741.2058480591249
 21
3838.032096300918
 31
-0.0000000000000002
  0
LINE
  5
1EA1
330
74
100
AcDbEntity
  8
AM_0 ( Kontur 0.5 )
100
AcDbLine
 10
741.2058480591249
 20
3825.03209649616
 30
-0.0000000000000002
 11
744.9586247524948
 21
3831.532096398539
 31
-0.0000000000000002
  0
LINE
  5
1EA2
330
74
100
AcDbEntity
  8
AM_0 ( Kontur 0.5 )
100
AcDbLine
 10
899.9475179790161
 20
3661.532096398539
 30
-0.0000000000000002
 11
903.7002946723841
 21
3655.032096496159
 31
-0.0000000000000002
  0
LINE
  5
1EA3
330
74
100
AcDbEntity
  8
AM_0 ( Kontur 0.5 )
100
AcDbLine
 10
899.9475179790161
 20
3831.532096398539
 30
-0.0000000000000002
 11
903.7002946723841
 21
3825.03209649616
 31
-0.0000000000000002
  0
LINE
  5
1EA4
330
74
100
AcDbEntity
  8
AM_0 ( Kontur 0.5 )
100
AcDbLine
 10
903.7002946723841
 20
3838.032096300918
 30
-0.0000000000000002
 11
899.9475179790161
 21
3831.532096398539
 31
-0.0000000000000002
  0
LINE
  5
1EA5
330
74
100
AcDbEntity
  8
AM_0 ( Kontur 0.5 )
100
AcDbLine
 10
911.2058480591247
 20
3838.032096300918
 30
-0.0000000000000002
 11
903.7002946723841
 21
3838.032096300918
 31
-0.0000000000000002
  0
LINE
  5
1EA6
330
74
100
AcDbEntity
  8
AM_0 ( Kontur 0.5 )
100
AcDbLine
 10
914.9586247524947
 20
3831.532096398539
 30
-0.0000000000000002
 11
911.2058480591247
 21
3838.032096300918
 31
-0.0000000000000002
  0
CIRCLE
  5
1EA7
330
74
100
AcDbEntity
  8
AM_0 ( Kontur 0.5 )
100
AcDbCircle
 10
907.4530713657539
 20
3831.532096398539
 30
-0.0000000000000002
 40
6.499999902379778
  0
LINE
  5
1EA8
330
74
100
AcDbEntity
  8
AM_0 ( Kontur 0.5 )
100
AcDbLine
 10
911.2058480591247
 20
3825.03209649616
 30
-0.0000000000000002
 11
914.9586247524947
 21
3831.532096398539
 31
-0.0000000000000002
  0
LINE
  5
1EA9
330
74
100
AcDbEntity
  8
AM_0 ( Kontur 0.5 )
100
AcDbLine
 10
903.7002946723841
 20
3825.03209649616
 30
-0.0000000000000002
 11
911.2058480591247
 21
3825.03209649616
 31
-0.0000000000000002
  0
LINE
  5
1EAA
330
74
100
AcDbEntity
  8
AM_0 ( Kontur 0.5 )
100
AcDbLine
 10
903.7002946723841
 20
3668.032096300919
 30
-0.0000000000000002
 11
899.9475179790161
 21
3661.532096398539
 31
-0.0000000000000002
  0
LINE
  5
1EAB
330
74
100
AcDbEntity
  8
AM_0 ( Kontur 0.5 )
100
AcDbLine
 10
911.2058480591247
 20
3668.032096300919
 30
-0.0000000000000002
 11
903.7002946723841
 21
3668.032096300919
 31
-0.0000000000000002
  0
LINE
  5
1EAC
330
74
100
AcDbEntity
  8
AM_0 ( Kontur 0.5 )
100
AcDbLine
 10
914.9586247524947
 20
3661.532096398539
 30
-0.0000000000000002
 11
911.2058480591247
 21
3668.032096300919
 31
-0.0000000000000002
  0
CIRCLE
  5
1EAD
330
74
100
AcDbEntity
  8
AM_0 ( Kontur 0.5 )
100
AcDbCircle
 10
907.4530713657539
 20
3661.532096398539
 30
-0.0000000000000002
 40
6.499999902379778
  0
LINE
  5
1EAE
330
74
100
AcDbEntity
  8
AM_0 ( Kontur 0.5 )
100
AcDbLine
 10
911.2058480591247
 20
3655.032096496159
 30
-0.0000000000000002
 11
914.9586247524947
 21
3661.532096398539
 31
-0.0000000000000002
  0
LINE
  5
1EAF
330
74
100
AcDbEntity
  8
AM_0 ( Kontur 0.5 )
100
AcDbLine
 10
903.7002946723841
 20
3655.032096496159
 30
-0.0000000000000002
 11
911.2058480591247
 21
3655.032096496159
 31
-0.0000000000000002
  0
LINE
  5
1EB0
330
74
100
AcDbEntity
  8
AM_0 ( Kontur 0.5 )
100
AcDbLine
 10
729.9475179790051
 20
3661.532096398539
 30
-0.0000000000000002
 11
733.7002946723842
 21
3655.032096496159
 31
-0.0000000000000002
  0
LINE
  5
1EB1
330
74
100
AcDbEntity
  8
AM_0 ( Kontur 0.5 )
100
AcDbLine
 10
733.7002946723842
 20
3668.032096300919
 30
-0.0000000000000002
 11
729.9475179790051
 21
3661.532096398539
 31
-0.0000000000000002
  0
LINE
  5
1EB2
330
74
100
AcDbEntity
  8
AM_0 ( Kontur 0.5 )
100
AcDbLine
 10
741.2058480591249
 20
3668.032096300919
 30
-0.0000000000000002
 11
733.7002946723842
 21
3668.032096300919
 31
-0.0000000000000002
  0
LINE
  5
1EB3
330
74
100
AcDbEntity
  8
AM_0 ( Kontur 0.5 )
100
AcDbLine
 10
744.9586247524948
 20
3661.532096398539
 30
-0.0000000000000002
 11
741.2058480591249
 21
3668.032096300919
 31
-0.0000000000000002
  0
CIRCLE
  5
1EB4
330
74
100
AcDbEntity
  8
AM_0 ( Kontur 0.5 )
100
AcDbCircle
 10
737.4530713657541
 20
3661.532096398539
 30
-0.0000000000000002
 40
6.499999902379778
  0
LINE
  5
1EB5
330
74
100
AcDbEntity
  8
AM_0 ( Kontur 0.5 )
100
AcDbLine
 10
741.2058480591249
 20
3655.032096496159
 30
-0.0000000000000002
 11
744.9586247524948
 21
3661.532096398539
 31
-0.0000000000000002
  0
LINE
  5
1EB6
330
74
100
AcDbEntity
  8
AM_0 ( Kontur 0.5 )
100
AcDbLine
 10
733.7002946723842
 20
3655.032096496159
 30
-0.0000000000000002
 11
741.2058480591249
 21
3655.032096496159
 31
-0.0000000000000002
  0
LINE
  5
1EB7
330
74
100
AcDbEntity
  8
AM_7 (Mittellinie)
100
AcDbLine
 10
677.4530713657541
 20
3649.507817962309
 30
-0.0000000000000002
 11
677.4530713657541
 21
3672.087955294269
 31
-0.0000000000000002
  0
LINE
  5
1EB8
330
74
100
AcDbEntity
  8
AM_7 (Mittellinie)
100
AcDbLine
 10
737.4530713657541
 20
3817.899507095859
 30
-0.0000000000000002
 11
737.4530713657541
 21
3843.067879654249
 31
-0.0000000000000002
  0
LINE
  5
1EB9
330
74
100
AcDbEntity
  8
AM_3 ( Verdeckt )
100
AcDbLine
 10
748.7892619711256
 20
3711.235027078769
 30
-0.0000000000000002
 11
671.313390018784
 21
3701.03513503348
 31
-0.0000000000000002
  0
LINE
  5
1EBA
330
74
100
AcDbEntity
  8
AM_3 ( Verdeckt )
100
AcDbLine
 10
748.7892619711256
 20
3711.235027078769
 30
-0.0000000000000002
 11
748.9197881633462
 21
3710.243582217389
 31
-0.0000000000000002
  0
ARC
  5
1EBB
330
74
100
AcDbEntity
  8
AM_3 ( Verdeckt )
100
AcDbCircle
 10
670.677658276395
 20
3705.863997030339
 30
-0.0000000000000002
 40
4.870530056681098
100
AcDbArc
 50
112.5000000000197
 51
277.4999999999856
  0
ARC
  5
1EBC
330
74
100
AcDbEntity
  8
AM_3 ( Verdeckt )
100
AcDbCircle
 10
670.677658276395
 20
3705.863997030339
 30
-0.0000000000000002
 40
5.870530056681089
100
AcDbArc
 50
112.5000000000197
 51
277.4999999999856
  0
LINE
  5
1EBD
330
74
100
AcDbEntity
  8
AM_3 ( Verdeckt )
100
AcDbLine
 10
742.7491719599447
 20
3740.988819203469
 30
-0.0000000000000002
 11
668.8137871168654
 21
3710.363780062189
 31
-0.0000000000000002
  0
LINE
  5
1EBE
330
74
100
AcDbEntity
  8
AM_3 ( Verdeckt )
100
AcDbLine
 10
742.3664885275757
 20
3741.912698735979
 30
-0.0000000000000002
 11
668.4311036844956
 21
3711.287659594699
 31
-0.0000000000000002
  0
ARC
  5
1EBF
330
74
100
AcDbEntity
  8
AM_3 ( Verdeckt )
100
AcDbCircle
 10
740.4530713657541
 20
3746.532096398539
 30
-0.0000000000000002
 40
6.0
100
AcDbArc
 50
292.5000000000196
 51
47.5864096495233
  0
ARC
  5
1EC0
330
74
100
AcDbEntity
  8
AM_3 ( Verdeckt )
100
AcDbCircle
 10
740.4530713657541
 20
3746.532096398539
 30
-0.0000000000000002
 40
5.0
100
AcDbArc
 50
292.5000000000196
 51
47.5864096495233
  0
LINE
  5
1EC1
330
74
100
AcDbEntity
  8
AM_3 ( Verdeckt )
100
AcDbLine
 10
737.8552781309354
 20
3757.032166413019
 30
-0.0000000000000002
 11
744.4999365309548
 21
3750.96186866522
 31
-0.0000000000000002
  0
LINE
  5
1EC2
330
74
100
AcDbEntity
  8
AM_3 ( Verdeckt )
100
AcDbLine
 10
737.1808006033961
 20
3756.293871035239
 30
-0.0000000000000002
 11
743.8254590034247
 21
3750.223573287438
 31
-0.0000000000000002
  0
LINE
  5
1EC3
330
74
100
AcDbEntity
  8
AM_3 ( Verdeckt )
100
AcDbLine
 10
737.1808006033961
 20
3756.293871035239
 30
-0.0000000000000002
 11
737.8552781309354
 21
3757.032166413019
 31
-0.0000000000000002
  0
LINE
  5
1EC4
330
74
100
AcDbEntity
  8
AM_3 ( Verdeckt )
100
AcDbLine
 10
740.6271229982247
 20
3751.871962853279
 30
-0.0000000000000002
 11
668.4311036844956
 21
3781.776533202369
 31
-0.0000000000000002
  0
LINE
  5
1EC5
330
74
100
AcDbEntity
  8
AM_3 ( Verdeckt )
100
AcDbLine
 10
741.0098064305847
 20
3752.795842385789
 30
-0.0000000000000002
 11
668.8137871168654
 21
3782.700412734879
 31
-0.0000000000000002
  0
LINE
  5
1EC6
330
74
100
AcDbEntity
  8
AM_3 ( Verdeckt )
100
AcDbLine
 10
741.0098064305847
 20
3752.795842385789
 30
-0.0000000000000002
 11
740.6271229982247
 21
3751.871962853279
 31
-0.0000000000000002
  0
ARC
  5
1EC7
330
74
100
AcDbEntity
  8
AM_3 ( Verdeckt )
100
AcDbCircle
 10
670.677658276395
 20
3787.200195766729
 30
-0.0000000000000002
 40
4.870530056681098
100
AcDbArc
 50
82.50000000001433
 51
247.4999999999803
  0
ARC
  5
1EC8
330
74
100
AcDbEntity
  8
AM_3 ( Verdeckt )
100
AcDbCircle
 10
670.677658276395
 20
3787.200195766729
 30
-0.0000000000000002
 40
5.870530056681089
100
AcDbArc
 50
82.50000000001433
 51
247.4999999999803
  0
LINE
  5
1EC9
330
74
100
AcDbEntity
  8
AM_3 ( Verdeckt )
100
AcDbLine
 10
750.6558311021043
 20
3781.583427230289
 30
-0.0000000000000002
 11
671.313390018784
 21
3792.029057763588
 31
-0.0000000000000002
  0
LINE
  5
1ECA
330
74
100
AcDbEntity
  8
AM_3 ( Verdeckt )
100
AcDbLine
 10
750.786357294325
 20
3782.574872091668
 30
-0.0000000000000002
 11
671.4439162110047
 21
3793.020502624969
 31
-0.0000000000000002
  0
ARC
  5
1ECB
330
74
100
AcDbEntity
  8
AM_3 ( Verdeckt )
100
AcDbCircle
 10
751.4389882554251
 20
3787.532096398539
 30
-0.0000000000000002
 40
6.0
100
AcDbArc
 50
262.5000000000144
 51
17.58640964951603
  0
ARC
  5
1ECC
330
74
100
AcDbEntity
  8
AM_3 ( Verdeckt )
100
AcDbCircle
 10
751.4389882554251
 20
3787.532096398539
 30
-0.0000000000000002
 40
5.0
100
AcDbArc
 50
262.5000000000144
 51
17.58640964951603
  0
LINE
  5
1ECD
330
74
100
AcDbEntity
  8
AM_3 ( Verdeckt )
100
AcDbLine
 10
754.4392683275336
 20
3797.924320390009
 30
-0.0000000000000002
 11
757.1585624275257
 21
3789.344959131859
 31
-0.0000000000000002
  0
LINE
  5
1ECE
330
74
100
AcDbEntity
  8
AM_3 ( Verdeckt )
100
AcDbLine
 10
753.4860059655247
 20
3797.622176601121
 30
-0.0000000000000002
 11
756.2053000655152
 21
3789.042815342969
 31
-0.0000000000000002
  0
LINE
  5
1ECF
330
74
100
AcDbEntity
  8
AM_3 ( Verdeckt )
100
AcDbLine
 10
753.4860059655247
 20
3797.622176601121
 30
-0.0000000000000002
 11
754.4392683275336
 21
3797.924320390009
 31
-0.0000000000000002
  0
LINE
  5
1ED0
330
74
100
AcDbEntity
  8
AM_3 ( Verdeckt )
100
AcDbLine
 10
788.2708808059842
 20
3825.260936435469
 30
-0.0000000000000002
 11
789.2475021224043
 21
3825.04596945124
 31
-0.0000000000000002
  0
LINE
  5
1ED1
330
74
100
AcDbEntity
  8
AM_3 ( Verdeckt )
100
AcDbLine
 10
788.2708808059842
 20
3825.260936435469
 30
-0.0000000000000002
 11
786.3361779478664
 21
3816.471344587679
 31
-0.0000000000000002
  0
LINE
  5
1ED2
330
74
100
AcDbEntity
  8
AM_3 ( Verdeckt )
100
AcDbLine
 10
789.2475021224043
 20
3825.04596945124
 30
-0.0000000000000002
 11
787.3127992642849
 21
3816.256377603449
 31
-0.0000000000000002
  0
LINE
  5
1ED3
330
74
100
AcDbEntity
  8
AM_3 ( Verdeckt )
100
AcDbLine
 10
755.053007958385
 20
3792.678292013929
 30
-0.0000000000000002
 11
754.2596546180846
 21
3792.06953058492
 31
-0.0000000000000002
  0
ARC
  5
1ED4
330
74
100
AcDbEntity
  8
AM_3 ( Verdeckt )
100
AcDbCircle
 10
781.4530713657541
 20
3817.546179508859
 30
-0.0000000000000002
 40
6.0
100
AcDbArc
 50
232.499999999975
 51
347.5864096495298
  0
LINE
  5
1ED5
330
74
100
AcDbEntity
  8
AM_3 ( Verdeckt )
100
AcDbLine
 10
777.8005027917052
 20
3812.786059467109
 30
-0.0000000000000002
 11
714.3107484819247
 21
3861.503461409159
 31
-0.0000000000000002
  0
ARC
  5
1ED6
330
74
100
AcDbEntity
  8
AM_3 ( Verdeckt )
100
AcDbCircle
 10
711.3457576445853
 20
3857.6394101197
 30
-0.0000000000000002
 40
4.870530056681098
100
AcDbArc
 50
52.49999999997502
 51
217.4999999999999
  0
LINE
  5
1ED7
330
74
100
AcDbEntity
  8
AM_3 ( Verdeckt )
100
AcDbLine
 10
755.053007958385
 20
3792.678292013929
 30
-0.0000000000000002
 11
707.4817063551245
 21
3854.674419282369
 31
-0.0000000000000002
  0
ARC
  5
1ED8
330
74
100
AcDbEntity
  8
AM_3 ( Verdeckt )
100
AcDbCircle
 10
863.1211707339453
 20
3594.756683309169
 30
-0.0000000000000002
 40
5.870530056681089
100
AcDbArc
 50
202.5000000000181
 51
7.500000000010334
  0
ARC
  5
1ED9
330
74
100
AcDbEntity
  8
AM_3 ( Verdeckt )
100
AcDbCircle
 10
781.4530713657541
 20
3817.546179508859
 30
-0.0000000000000002
 40
5.0
100
AcDbArc
 50
232.499999999975
 51
347.5864096495298
  0
ARC
  5
1EDA
330
74
100
AcDbEntity
  8
AM_3 ( Verdeckt )
100
AcDbCircle
 10
737.4530713657541
 20
3831.532096398539
 30
-0.0000000000000002
 40
4.0
100
AcDbArc
 50
73.32397021473433
 51
0.0
  0
ARC
  5
1EDB
330
74
100
AcDbEntity
  8
AM_3 ( Verdeckt )
100
AcDbCircle
 10
711.3457576445853
 20
3857.6394101197
 30
-0.0000000000000002
 40
5.870530056681089
100
AcDbArc
 50
52.49999999997502
 51
217.4999999999999
  0
ARC
  5
1EDC
330
74
100
AcDbEntity
  8
AM_3 ( Verdeckt )
100
AcDbCircle
 10
907.4530713657539
 20
3661.532096398539
 30
-0.0000000000000002
 40
4.0
100
AcDbArc
 50
0.0
 51
17.49560091778709
  0
CIRCLE
  5
1EDD
330
74
100
AcDbEntity
  8
AM_3 ( Verdeckt )
100
AcDbCircle
 10
737.4530713657541
 20
3831.532096398539
 30
-0.0000000000000002
 40
3.325
  0
LINE
  5
1EDE
330
74
100
AcDbEntity
  8
AM_7 (Mittellinie)
100
AcDbLine
 10
737.4530713657541
 20
3648.678054287858
 30
-0.0000000000000002
 11
737.4530713657541
 21
3671.762378740809
 31
-0.0000000000000002
  0
LINE
  5
1EDF
330
74
100
AcDbEntity
  8
AM_7 (Mittellinie)
100
AcDbLine
 10
907.4530713657539
 20
3648.678054287858
 30
-0.0000000000000002
 11
907.4530713657539
 21
3671.762378740809
 31
-0.0000000000000002
  0
LINE
  5
1EE0
330
74
100
AcDbEntity
  8
AM_7 (Mittellinie)
100
AcDbLine
 10
615.1834952594545
 20
3746.532096398539
 30
-0.0000000000000002
 11
782.9229095872451
 21
3746.532096398539
 31
-0.0000000000000002
  0
LINE
  5
1EE1
330
74
100
AcDbEntity
  8
AM_7 (Mittellinie)
100
AcDbLine
 10
822.4530713657541
 20
3554.28454844942
 30
-0.0000000000000002
 11
822.4530713657541
 21
3715.289330013869
 31
-0.0000000000000002
  0
CIRCLE
  5
1EE2
330
74
100
AcDbEntity
  8
AM_0 ( Kontur 0.5 )
100
AcDbCircle
 10
822.4530713657541
 20
3746.532096398539
 30
-0.0000000000000002
 40
175.0
  0
LINE
  5
1EE3
330
74
100
AcDbEntity
  8
AM_3 ( Verdeckt )
100
AcDbLine
 10
754.2596546180846
 20
3792.06953058492
 30
-0.0000000000000002
 11
706.6883530148343
 21
3854.065657853359
 31
-0.0000000000000002
  0
LINE
  5
1EE4
330
74
100
AcDbEntity
  8
AM_7 (Mittellinie)
100
AcDbLine
 10
822.4530713657541
 20
3777.014270255599
 30
-0.0000000000000002
 11
822.4530713657541
 21
3938.479109735139
 31
-0.0000000000000002
  0
LINE
  5
1EE5
330
74
100
AcDbEntity
  8
AM_3 ( Verdeckt )
100
AcDbLine
 10
778.4092642207151
 20
3813.5794128074
 30
-0.0000000000000002
 11
714.9195099109256
 21
3862.296814749449
 31
-0.0000000000000002
  0
CIRCLE
  5
1EE6
330
74
100
AcDbEntity
  8
AM_3 ( Verdeckt )
100
AcDbCircle
 10
822.4530713657541
 20
3914.532096398539
 30
-0.0000000000000002
 40
5.24999999999999
  0
LINE
  5
1EE7
330
74
100
AcDbEntity
  8
AM_7 (Mittellinie)
100
AcDbLine
 10
957.442334778616
 20
3661.532096398539
 30
-0.0000000000000002
 11
975.5447032066749
 21
3661.532096398539
 31
-0.0000000000000002
  0
CIRCLE
  5
1EE8
330
74
100
AcDbEntity
  8
AM_3 ( Verdeckt )
100
AcDbCircle
 10
677.4530713657541
 20
3661.532096398539
 30
-0.0000000000000002
 40
5.24999999999999
  0
CIRCLE
  5
1EE9
330
74
100
AcDbEntity
  8
AM_3 ( Verdeckt )
100
AcDbCircle
 10
967.4530713657539
 20
3661.532096398539
 30
-0.0000000000000002
 40
5.24999999999999
  0
CIRCLE
  5
1EEA
330
74
100
AcDbEntity
  8
AM_3 ( Verdeckt )
100
AcDbCircle
 10
822.4530713657541
 20
3746.532096398539
 30
-0.0000000000000002
 40
69.9999999999999
  0
LINE
  5
1EEB
330
74
100
AcDbEntity
  8
AM_7 (Mittellinie)
100
AcDbLine
 10
861.7387371727955
 20
3746.532096398539
 30
-0.0000000000000002
 11
1018.364448524404
 21
3746.532096398539
 31
-0.0000000000000002
  0
LINE
  5
1EEC
330
74
100
AcDbEntity
  8
AM_7 (Mittellinie)
100
AcDbLine
 10
907.4530713657539
 20
3817.899507095859
 30
-0.0000000000000002
 11
907.4530713657539
 21
3844.227083744679
 31
-0.0000000000000002
  0
LINE
  5
1EED
330
74
100
AcDbEntity
  8
AM_7 (Mittellinie)
100
AcDbLine
 10
896.8059861349336
 20
3831.532096398539
 30
-0.0000000000000002
 11
919.1271924241554
 21
3831.532096398539
 31
-0.0000000000000002
  0
ARC
  5
1EEE
330
74
100
AcDbEntity
  8
AM_3 ( Verdeckt )
100
AcDbCircle
 10
907.4530713657539
 20
3831.532096398539
 30
-0.0000000000000002
 40
4.0
100
AcDbArc
 50
73.32397021473433
 51
0.0
  0
ARC
  5
1EEF
330
74
100
AcDbEntity
  8
AM_3 ( Verdeckt )
100
AcDbCircle
 10
907.4530713657539
 20
3831.532096398539
 30
-0.0000000000000002
 40
4.0
100
AcDbArc
 50
0.0
 51
17.49560091778709
  0
CIRCLE
  5
1EF0
330
74
100
AcDbEntity
  8
AM_3 ( Verdeckt )
100
AcDbCircle
 10
737.4530713657541
 20
3661.532096398539
 30
-0.0000000000000002
 40
3.325
  0
LINE
  5
1EF1
330
74
100
AcDbEntity
  8
AM_7 (Mittellinie)
100
AcDbLine
 10
668.3216504562452
 20
3661.532096398539
 30
-0.0000000000000002
 11
687.9756504638452
 21
3661.532096398539
 31
-0.0000000000000002
  0
LINE
  5
1EF2
330
74
100
AcDbEntity
  8
AM_7 (Mittellinie)
100
AcDbLine
 10
896.8059861349336
 20
3661.532096398539
 30
-0.0000000000000002
 11
919.3411593252839
 21
3661.532096398539
 31
-0.0000000000000002
  0
LINE
  5
1EF3
330
74
100
AcDbEntity
  8
AM_7 (Mittellinie)
100
AcDbLine
 10
811.706884647684
 20
3914.532096398539
 30
-0.0000000000000002
 11
832.6050758415448
 21
3914.532096398539
 31
-0.0000000000000002
  0
LINE
  5
1EF4
330
74
100
AcDbEntity
  8
AM_3 ( Verdeckt )
100
AcDbLine
 10
827.996348560825
 20
3666.828196992729
 30
-0.0000000000000002
 11
858.6213877021046
 21
3592.892812149639
 31
-0.0000000000000002
  0
CIRCLE
  5
1EF5
330
74
100
AcDbEntity
  8
AM_3 ( Verdeckt )
100
AcDbCircle
 10
907.4530713657539
 20
3661.532096398539
 30
-0.0000000000000002
 40
3.325
  0
ARC
  5
1EF6
330
74
100
AcDbEntity
  8
AM_3 ( Verdeckt )
100
AcDbCircle
 10
907.4530713657539
 20
3661.532096398539
 30
-0.0000000000000002
 40
4.0
100
AcDbArc
 50
73.32397021473433
 51
0.0
  0
ARC
  5
1EF7
330
74
100
AcDbEntity
  8
AM_3 ( Verdeckt )
100
AcDbCircle
 10
737.4530713657541
 20
3661.532096398539
 30
-0.0000000000000002
 40
4.0
100
AcDbArc
 50
73.32397021473433
 51
0.0
  0
ARC
  5
1EF8
330
74
100
AcDbEntity
  8
AM_3 ( Verdeckt )
100
AcDbCircle
 10
737.4530713657541
 20
3831.532096398539
 30
-0.0000000000000002
 40
4.0
100
AcDbArc
 50
0.0
 51
17.49560091778709
  0
ARC
  5
1EF9
330
74
100
AcDbEntity
  8
AM_3 ( Verdeckt )
100
AcDbCircle
 10
737.4530713657541
 20
3661.532096398539
 30
-0.0000000000000002
 40
4.0
100
AcDbArc
 50
0.0
 51
17.49560091778709
  0
CIRCLE
  5
1EFA
330
74
100
AcDbEntity
  8
AM_3 ( Verdeckt )
100
AcDbCircle
 10
907.4530713657539
 20
3831.532096398539
 30
-0.0000000000000002
 40
3.325
  0
LINE
  5
1EFB
330
74
100
AcDbEntity
  8
AM_7 (Mittellinie)
100
AcDbLine
 10
724.9136197538746
 20
3831.532096398539
 30
-0.0000000000000002
 11
747.9979442068253
 21
3831.532096398539
 31
-0.0000000000000002
  0
LINE
  5
1EFC
330
74
100
AcDbEntity
  8
AM_7 (Mittellinie)
100
AcDbLine
 10
712.3929824181541
 20
3717.041584446129
 30
-0.0000000000000002
 11
730.6621496909947
 21
3721.936793063278
 31
-0.0000000000000002
  0
LINE
  5
1EFD
330
74
100
AcDbEntity
  8
AM_7 (Mittellinie)
100
AcDbLine
 10
914.8617943471856
 20
3771.292939094999
 30
-0.0000000000000002
 11
933.2931920860946
 21
3776.23161723452
 31
-0.0000000000000002
  0
CIRCLE
  5
1EFE
330
74
100
AcDbEntity
  8
AM_3 ( Verdeckt )
100
AcDbCircle
 10
923.8752831261045
 20
3773.708096134299
 30
-0.0000000000000002
 40
3.75
  0
CIRCLE
  5
1EFF
330
74
100
AcDbEntity
  8
AM_3 ( Verdeckt )
100
AcDbCircle
 10
721.0308596054054
 20
3719.35609666277
 30
-0.0000000000000002
 40
3.75
  0
ARC
  5
1F00
330
74
100
AcDbEntity
  8
AM_7 (Mittellinie)
100
AcDbCircle
 10
822.4530713657541
 20
3746.532096398539
 30
-0.0000000000000002
 40
105.0
100
AcDbArc
 50
190.4212037320023
 51
199.4455098349112
  0
ARC
  5
1F01
330
74
100
AcDbEntity
  8
AM_7 (Mittellinie)
100
AcDbCircle
 10
822.4530713657541
 20
3746.532096398539
 30
-0.0000000000000002
 40
105.0
100
AcDbArc
 50
10.65180232022703
 51
19.5895789253958
  0
LINE
  5
1F02
330
74
100
AcDbEntity
  8
AM_7 (Mittellinie)
100
AcDbLine
 10
725.7320188995045
 20
3661.532096398539
 30
-0.0000000000000002
 11
747.9979442068253
 21
3661.532096398539
 31
-0.0000000000000002
  0
ELLIPSE
  5
2934
330
74
100
AcDbEntity
  8
AM_2 ( Kontur 0.25)
100
AcDbEllipse
 10
785.1549311882791
 20
3750.638694733492
 30
-0.0000000000000002
 11
8.678739325409138
 21
12.65874293901783
 31
0.0
210
0.0
220
0.0
230
0.9999999999999998
 40
0.6537867520664599
 41
5.337637804046209
 42
11.48329872840159
  0
ELLIPSE
  5
2935
330
74
100
AcDbEntity
  8
AM_2 ( Kontur 0.25)
100
AcDbEllipse
 10
785.1421142725738
 20
3750.4170760884
 30
-0.0000000000000002
 11
6.861930719839946
 21
11.18498486926295
 31
0.0
210
0.0
220
0.0
230
1.0
 40
0.4844290690998304
 41
5.302972782809451
 42
11.40427987559324
  0
SPLINE
  5
2936
330
74
100
AcDbEntity
  8
AM_2 ( Kontur 0.25)
100
AcDbSpline
210
0.0
220
0.0
230
1.0
 70
     8
 71
     3
 72
     9
 73
     5
 74
     0
 42
0.0000000001
 43
0.0000000001
 40
0.0
 40
0.0
 40
0.0
 40
0.0
 40
7.968107150523366
 40
14.83107190610577
 40
14.83107190610577
 40
14.83107190610577
 40
14.83107190610577
 10
790.8937341416876
 20
3758.315482511331
 30
-0.0000000000000002
 10
790.9805898105769
 20
3757.310344245715
 30
-0.0000000000000002
 10
791.1422546384238
 20
3755.439476094554
 30
-0.0000000000000002
 10
792.6740589368802
 20
3754.244037365917
 30
-0.0000000000000002
 10
793.4637048186778
 20
3753.884325246637
 30
-0.0000000000000002
  0
SPLINE
  5
2937
330
74
100
AcDbEntity
  8
AM_2 ( Kontur 0.25)
100
AcDbSpline
210
0.0
220
0.0
230
1.0
 70
     8
 71
     3
 72
    14
 73
    10
 74
     0
 42
0.0000000001
 43
0.0000000001
 40
24.47382092594304
 40
24.47382092594304
 40
24.47382092594304
 40
24.47382092594304
 40
27.07720801688995
 40
65.95863428631481
 40
68.90571152459711
 40
78.76292925805633
 40
85.37637435376925
 40
90.16781575675782
 40
124.4302840537597
 40
124.4302840537597
 40
124.4302840537597
 40
124.4302840537597
 10
796.9450107234352
 20
3753.447229980583
 30
-0.0000000000000002
 10
797.2617614361461
 20
3753.484445198655
 30
-0.0000000000000002
 10
802.3015193831234
 20
3754.301605342325
 30
-0.0000000000000002
 10
807.2847063471106
 20
3757.527375941269
 30
-0.0000000000000002
 10
813.5024387014819
 20
3756.780232463544
 30
-0.0000000000000002
 10
815.879555901969
 20
3755.975022990675
 30
-0.0000000000000002
 10
817.3583513655266
 20
3753.684334852917
 30
-0.0000000000000002
 10
818.0391739276547
 20
3748.132900905221
 30
-0.0000000000000002
 10
816.3766010940944
 20
3743.561720082265
 30
-0.0000000000000002
 10
814.9180057975172
 20
3739.551367745471
 30
-0.0000000000000002
  0
SPLINE
  5
2938
330
74
100
AcDbEntity
  8
AM_2 ( Kontur 0.25)
100
AcDbSpline
210
0.0
220
0.0
230
1.0
 70
     8
 71
     3
 72
    10
 73
     6
 74
     0
 42
0.0000000001
 43
0.0000000001
 40
0.0
 40
0.0
 40
0.0
 40
0.0
 40
8.412186980282188
 40
16.06694186604353
 40
19.01677443785813
 40
19.01677443785813
 40
19.01677443785813
 40
19.01677443785813
 10
787.8751748510202
 20
3756.224376511101
 30
-0.0000000000000002
 10
788.30299007171
 20
3755.267488481369
 30
-0.0000000000000002
 10
789.1201000927231
 20
3753.439870481193
 30
-0.0000000000000002
 10
791.2390264689711
 20
3752.294467008001
 30
-0.0000000000000002
 10
792.4901109092607
 20
3751.902046786805
 30
-0.0000000000000002
 10
792.8412519878293
 20
3751.81190254329
 30
-0.0000000000000002
  0
SPLINE
  5
2939
330
74
100
AcDbEntity
  8
AM_2 ( Kontur 0.25)
100
AcDbSpline
210
0.0
220
0.0
230
1.0
 70
     8
 71
     3
 72
    10
 73
     6
 74
     0
 42
0.0000000001
 43
0.0000000001
 40
29.29572467169512
 40
29.29572467169512
 40
29.29572467169512
 40
29.29572467169512
 40
71.17070356599137
 40
74.53363183549175
 40
79.05964029186219
 40
79.05964029186219
 40
79.05964029186219
 40
79.05964029186219
 10
796.5330703750877
 20
3751.55833549579
 30
-0.0000000000000002
 10
801.4713964876081
 20
3752.120992090602
 30
-0.0000000000000002
 10
806.3132143197563
 20
3756.297518257252
 30
-0.0000000000000002
 10
812.837806399586
 20
3754.76019052203
 30
-0.0000000000000002
 10
812.9160967444077
 20
3753.681148912217
 30
-0.0000000000000002
 10
812.9610131602747
 20
3753.062085580809
 30
-0.0000000000000002
  0
SPLINE
  5
293A
330
74
100
AcDbEntity
  8
AM_2 ( Kontur 0.25)
100
AcDbSpline
210
0.0
220
0.0
230
1.0
 70
     8
 71
     3
 72
    14
 73
    10
 74
     0
 42
0.0000000001
 43
0.0000000001
 40
76.82676989542816
 40
76.82676989542816
 40
76.82676989542816
 40
76.82676989542816
 40
77.9870644368766
 40
87.73291956716915
 40
100.7008506286425
 40
111.422155335124
 40
116.6225380960957
 40
127.9426008144845
 40
185.2659915644711
 40
185.2659915644711
 40
185.2659915644711
 40
185.2659915644711
 10
801.1187004987387
 20
3736.601958508456
 30
-0.0000000000000002
 10
801.2538844653136
 20
3736.572123044208
 30
-0.0000000000000002
 10
802.5317414877317
 20
3736.322686594139
 30
-0.0000000000000002
 10
805.5095157748308
 20
3736.406424787842
 30
-0.0000000000000002
 10
809.0962357320496
 20
3741.448719619432
 30
-0.0000000000000002
 10
810.9752896473453
 20
3736.490596492866
 30
-0.0000000000000002
 10
814.514720234305
 20
3736.383848506121
 30
-0.0000000000000002
 10
822.2685611494561
 20
3741.375789951649
 30
-0.0000000000000002
 10
827.3578163688688
 20
3748.003000668138
 30
-0.0000000000000002
 10
831.6077972603906
 20
3753.537311229286
 30
-0.0000000000000002
  0
SPLINE
  5
293B
330
74
100
AcDbEntity
  8
AM_2 ( Kontur 0.25)
100
AcDbSpline
210
0.0
220
0.0
230
1.0
 70
     8
 71
     3
 72
    13
 73
     9
 74
     7
 42
0.0000000001
 43
0.0000000001
 44
0.0000000001
 40
0.0
 40
0.0
 40
0.0
 40
0.0
 40
5.305104483176427
 40
12.09373169808936
 40
13.60524304207241
 40
15.47568552068127
 40
18.27227929916991
 40
20.65852672114425
 40
20.65852672114425
 40
20.65852672114425
 40
20.65852672114425
 10
831.6077972603906
 20
3753.537311229286
 30
-0.0000000000000002
 10
831.454122768161
 20
3751.777700615848
 30
-0.0000000000000002
 10
831.1038001526954
 20
3747.766420777812
 30
-0.0000000000000002
 10
830.6685445769145
 20
3743.221152960259
 30
-0.0000000000000002
 10
829.8222461794999
 20
3739.950351973666
 30
-0.0000000000000002
 10
828.4564879783669
 20
3738.153037404449
 30
-0.0000000000000002
 10
825.4020975105092
 20
3738.723549718331
 30
-0.0000000000000002
 10
824.9350143840182
 20
3740.491756100348
 30
-0.0000000000000002
 10
824.7199632444353
 20
3741.305861290419
 30
-0.0000000000000002
 11
831.6077972603906
 21
3753.537311229286
 31
-0.0000000000000002
 11
831.1397353495722
 21
3748.252895308386
 31
-0.0000000000000002
 11
830.2153352388957
 21
3741.52749986288
 31
-0.0000000000000002
 11
829.7589970390399
 21
3740.086520338271
 31
-0.0000000000000002
 11
828.5022929240692
 21
3738.701150411789
 31
-0.0000000000000002
 11
825.7418734400726
 21
3739.149504105041
 31
-0.0000000000000002
 11
824.7199632444353
 21
3741.305861290419
 31
-0.0000000000000002
  0
SPLINE
  5
293C
330
74
100
AcDbEntity
  8
AM_2 ( Kontur 0.25)
100
AcDbSpline
210
0.0
220
0.0
230
1.0
 70
     8
 71
     3
 72
    12
 73
     8
 74
     0
 42
0.0000000001
 43
0.0000000001
 40
0.2094809425514192
 40
0.2094809425514192
 40
0.2094809425514192
 40
0.2094809425514192
 40
7.378083141439497
 40
15.02801745628717
 40
23.63339279305255
 40
33.74130360878141
 40
48.87136692722079
 40
48.87136692722079
 40
48.87136692722079
 40
48.87136692722079
 10
822.0298006971971
 20
3739.548126287459
 30
-0.0000000000000002
 10
822.5174985588219
 20
3738.801718825951
 30
-0.0000000000000002
 10
823.5366435556407
 20
3737.271804431834
 30
-0.0000000000000002
 10
826.4139247422189
 20
3736.351600029885
 30
-0.0000000000000002
 10
829.6156136393982
 20
3736.569523533722
 30
-0.0000000000000002
 10
833.5333286527511
 20
3738.819806109553
 30
-0.0000000000000002
 10
833.7949036904483
 20
3742.051080667657
 30
-0.0000000000000002
 10
833.7427830675787
 20
3744.016444470002
 30
-0.0000000000000002
  0
SPLINE
  5
293D
330
74
100
AcDbEntity
  8
AM_2 ( Kontur 0.25)
100
AcDbSpline
210
0.0
220
0.0
230
1.0
 70
     8
 71
     3
 72
    17
 73
    13
 74
     0
 42
0.0000000001
 43
0.0000000001
 40
80.77064250775974
 40
80.77064250775974
 40
80.77064250775974
 40
80.77064250775974
 40
82.75219090712093
 40
87.23347413009777
 40
92.45693041780191
 40
97.29410671661666
 40
106.7167370381517
 40
133.6369996485395
 40
160.5572622589273
 40
166.9421329478337
 40
173.32700363674
 40
177.6796617549528
 40
177.6796617549528
 40
177.6796617549528
 40
177.6796617549528
 10
835.0389029908511
 20
3755.72772172944
 30
-0.0000000000000002
 10
835.1170376544796
 20
3755.941284371302
 30
-0.0000000000000002
 10
835.4582924418663
 20
3756.545952720443
 30
-0.0000000000000002
 10
836.8581667578146
 20
3756.816670323541
 30
-0.0000000000000002
 10
838.9662353288603
 20
3758.577937611658
 30
-0.0000000000000002
 10
835.4806191769585
 20
3759.064188601139
 30
-0.0000000000000002
 10
831.6339418440803
 20
3756.365393250677
 30
-0.0000000000000002
 10
826.5587465795798
 20
3750.259850583196
 30
-0.0000000000000002
 10
821.7236375029315
 20
3744.841022497368
 30
-0.0000000000000002
 10
818.0634102938311
 20
3741.754747109118
 30
-0.0000000000000002
 10
816.6993697961659
 20
3740.090062469079
 30
-0.0000000000000002
 10
815.4318276943941
 20
3739.706750443747
 30
-0.0000000000000002
 10
814.9180057975172
 20
3739.551367745471
 30
-0.0000000000000002
  0
SPLINE
  5
293E
330
74
100
AcDbEntity
  8
AM_2 ( Kontur 0.25)
100
AcDbSpline
210
0.0
220
0.0
230
1.0
 70
     8
 71
     3
 72
    29
 73
    25
 74
    23
 42
0.0000000001
 43
0.0000000001
 44
0.0000000001
 40
0.0
 40
0.0
 40
0.0
 40
0.0
 40
5.129449445632971
 40
9.658701770177582
 40
11.46435687114821
 40
13.6614082018567
 40
17.40506729352842
 40
18.91173323941271
 40
25.05042020702488
 40
29.78247299114309
 40
33.20323715337893
 40
35.81723022660194
 40
37.8594682845239
 40
40.67499363503786
 40
45.24259280495217
 40
50.52941016110454
 40
56.09003672656505
 40
60.85419819284471
 40
63.47309496940898
 40
66.1815389477535
 40
69.04676946622791
 40
72.66543920536975
 40
77.55832656954956
 40
83.59448358473088
 40
83.59448358473088
 40
83.59448358473088
 40
83.59448358473088
 10
854.0435356251164
 20
3743.831528725881
 30
-0.0000000000000002
 10
852.8256270719483
 20
3742.611373151755
 30
-0.0000000000000002
 10
850.5323175027479
 20
3740.313832464666
 30
-0.0000000000000002
 10
846.9470730704774
 20
3738.76946670327
 30
-0.0000000000000002
 10
843.999501020016
 20
3738.52348539511
 30
-0.0000000000000002
 10
841.7885074164027
 20
3740.303607272899
 30
-0.0000000000000002
 10
841.8801059590023
 20
3743.614463188868
 30
-0.0000000000000002
 10
845.3561996865197
 20
3745.482273290021
 30
-0.0000000000000002
 10
849.5482710002557
 20
3745.80833806241
 30
-0.0000000000000002
 10
853.6406804759106
 20
3748.505505130876
 30
-0.0000000000000002
 10
856.0045159887724
 20
3751.322538320092
 30
-0.0000000000000002
 10
856.4681523846715
 20
3754.142181021432
 30
-0.0000000000000002
 10
855.1774538976166
 20
3756.539760793878
 30
-0.0000000000000002
 10
851.756492375982
 20
3757.155804405776
 30
-0.0000000000000002
 10
847.7359754674825
 20
3755.711960987301
 30
-0.0000000000000002
 10
843.3599938983375
 20
3752.877781612695
 30
-0.0000000000000002
 10
840.0878516762947
 20
3748.769919368869
 30
-0.0000000000000002
 10
838.2792895726183
 20
3744.680008612709
 30
-0.0000000000000002
 10
838.3660093742317
 20
3741.31850482777
 30
-0.0000000000000002
 10
838.8835594952526
 20
3738.476760418409
 30
-0.0000000000000002
 10
841.6676936316624
 20
3736.67100855409
 30
-0.0000000000000002
 10
845.523817423737
 20
3736.198334666506
 30
-0.0000000000000002
 10
850.2216444111031
 20
3737.965231158195
 30
-0.0000000000000002
 10
853.104174254704
 20
3740.196002323799
 30
-0.0000000000000002
 10
854.6962075682277
 20
3741.428066587893
 30
-0.0000000000000002
 11
854.0435356251164
 21
3743.831528725881
 31
-0.0000000000000002
 11
850.1846987115857
 21
3740.45208656924
 31
-0.0000000000000002
 11
845.9892876869073
 21
3738.745436941051
 31
-0.0000000000000002
 11
844.1836325859366
 21
3738.745436941051
 31
-0.0000000000000002
 11
842.471855542055
 21
3740.122700133694
 31
-0.0000000000000002
 11
842.6895146122678
 21
3743.860026440535
 31
-0.0000000000000002
 11
843.9523774904628
 21
3744.681743924446
 31
-0.0000000000000002
 11
849.8432614580579
 21
3746.408290699562
 31
-0.0000000000000002
 11
853.8326885143559
 21
3748.953245574242
 31
-0.0000000000000002
 11
855.86723336885
 21
3751.703200971824
 31
-0.0000000000000002
 11
856.1632363815151
 21
3754.3003805966
 31
-0.0000000000000002
 11
855.1477262681565
 21
3756.072237107407
 31
-0.0000000000000002
 11
852.44140015837
 21
3756.848756255191
 31
-0.0000000000000002
 11
848.0350201799337
 21
3755.645935544263
 31
-0.0000000000000002
 11
843.6291197019636
 21
3752.723867999606
 31
-0.0000000000000002
 11
840.1301651074136
 21
3748.402076178407
 31
-0.0000000000000002
 11
838.4355079025244
 21
3743.949507095877
 31
-0.0000000000000002
 11
838.4355079025244
 21
3741.330610319313
 31
-0.0000000000000002
 11
839.189133585849
 21
3738.729126682373
 31
-0.0000000000000002
 11
841.4851669396139
 21
3737.015132294285
 31
-0.0000000000000002
 11
845.0672775508191
 21
3736.502049211275
 31
-0.0000000000000002
 11
849.722827139678
 21
3738.007441115141
 31
-0.0000000000000002
 11
854.6962075682277
 21
3741.428066587893
 31
-0.0000000000000002
  0
SPLINE
  5
293F
330
74
100
AcDbEntity
  8
AM_2 ( Kontur 0.25)
100
AcDbSpline
210
0.0
220
0.0
230
1.0
 70
    11
 71
     3
 72
    15
 73
    11
 74
     9
 42
0.0000000001
 43
0.0000000001
 44
0.0000000001
 40
0.0
 40
0.0
 40
0.0
 40
0.0
 40
3.881025405084106
 40
7.950225294342879
 40
9.877577929030186
 40
11.53344850295302
 40
14.14989329380677
 40
18.50504618587798
 40
19.43029499398705
 40
19.74966535717808
 40
19.74966535717808
 40
19.74966535717808
 40
19.74966535717808
 10
868.5361464459363
 20
3762.639567328147
 30
-0.0000000000000002
 10
867.4048022340386
 20
3762.09570626242
 30
-0.0000000000000002
 10
865.0872597211101
 20
3760.98161461136
 30
-0.0000000000000002
 10
861.4504628934909
 20
3759.80188088105
 30
-0.0000000000000002
 10
861.4762773922764
 20
3756.484601188852
 30
-0.0000000000000002
 10
863.9868817842575
 20
3756.162801024855
 30
-0.0000000000000002
 10
866.2711845981306
 20
3758.156398487589
 30
-0.0000000000000002
 10
867.4963101264756
 20
3760.48982727669
 30
-0.0000000000000002
 10
868.3360097762607
 20
3762.158087798577
 30
-0.0000000000000002
 10
868.4952780644847
 20
3762.541248069074
 30
-0.0000000000000002
 10
868.5361464459363
 20
3762.639567328147
 30
-0.0000000000000002
 11
868.5361464459363
 21
3762.639567328147
 31
-0.0000000000000002
 11
864.996836111104
 21
3761.047197851971
 31
-0.0000000000000002
 11
861.6878589551525
 21
3758.678852877071
 31
-0.0000000000000002
 11
861.8935114488831
 21
3756.762503422964
 31
-0.0000000000000002
 11
863.5079198284984
 21
3756.394273954545
 31
-0.0000000000000002
 11
865.7031738672467
 21
3757.817876093117
 31
-0.0000000000000002
 11
868.0097915056395
 21
3761.512043358357
 31
-0.0000000000000002
 11
868.411739452009
 21
3762.345423946874
 31
-0.0000000000000002
 11
868.5361464459363
 21
3762.639567328147
 31
-0.0000000000000002
  0
SPLINE
  5
2940
330
74
100
AcDbEntity
  8
AM_2 ( Kontur 0.25)
100
AcDbSpline
210
0.0
220
0.0
230
1.0
 70
    11
 71
     3
 72
    15
 73
    11
 74
     9
 42
0.0000000001
 43
0.0000000001
 44
0.0000000001
 40
0.0
 40
0.0
 40
0.0
 40
0.0
 40
3.881025405083733
 40
7.95022529434322
 40
9.877577929030358
 40
11.53344850295495
 40
14.14989329380945
 40
18.5050461858804
 40
19.43029499398832
 40
19.74966535718023
 40
19.74966535718023
 40
19.74966535718023
 40
19.74966535718023
 10
865.9386335981981
 20
3753.362851092441
 30
-0.0000000000000002
 10
864.8072893863002
 20
3752.818990026714
 30
-0.0000000000000002
 10
862.4897468733712
 20
3751.704898375657
 30
-0.0000000000000002
 10
858.8529500457539
 20
3750.525164645345
 30
-0.0000000000000002
 10
858.8787645445361
 20
3747.207884953144
 30
-0.0000000000000002
 10
861.3893689365191
 20
3746.886084789148
 30
-0.0000000000000002
 10
863.6736717503904
 20
3748.879682251885
 30
-0.0000000000000002
 10
864.8987972787415
 20
3751.213111040984
 30
-0.0000000000000002
 10
865.7384969285224
 20
3752.881371562871
 30
-0.0000000000000002
 10
865.8977652167463
 20
3753.264531833368
 30
-0.0000000000000002
 10
865.9386335981981
 20
3753.362851092441
 30
-0.0000000000000002
 11
865.9386335981981
 21
3753.362851092441
 31
-0.0000000000000002
 11
862.3993232633656
 21
3751.770481616266
 31
-0.0000000000000002
 11
859.0903461074139
 21
3749.402136641365
 31
-0.0000000000000002
 11
859.2959986011429
 21
3747.485787187257
 31
-0.0000000000000002
 11
860.91040698076
 21
3747.117557718839
 31
-0.0000000000000002
 11
863.1056610195082
 21
3748.541159857412
 31
-0.0000000000000002
 11
865.4122786579026
 21
3752.235327122651
 31
-0.0000000000000002
 11
865.8142266042705
 21
3753.068707711167
 31
-0.0000000000000002
 11
865.9386335981981
 21
3753.362851092441
 31
-0.0000000000000002
  0
SPLINE
  5
2941
330
74
100
AcDbEntity
  8
AM_2 ( Kontur 0.25)
100
AcDbSpline
210
0.0
220
0.0
230
1.0
 70
     8
 71
     3
 72
    16
 73
    12
 74
     0
 42
0.0000000001
 43
0.0000000001
 40
0.0
 40
0.0
 40
0.0
 40
0.0
 40
19.49599945796019
 40
35.55644828708982
 40
46.90882418482302
 40
52.57758285702468
 40
59.01510100257528
 40
62.27337091053763
 40
65.35356432814818
 40
71.10392861451507
 40
76.94560568245778
 40
76.94560568245778
 40
76.94560568245778
 40
76.94560568245778
 10
812.9610131602747
 20
3753.062085580809
 30
-0.0000000000000002
 10
810.7310333223267
 20
3752.270588322867
 30
-0.0000000000000002
 10
806.6640367592535
 20
3750.827070057385
 30
-0.0000000000000002
 10
801.6896528265787
 20
3748.044010884377
 30
-0.0000000000000002
 10
798.5154910051313
 20
3745.517103393626
 30
-0.0000000000000002
 10
796.9957293865463
 20
3743.029617010517
 30
-0.0000000000000002
 10
796.8483492147298
 20
3741.134477922661
 30
-0.0000000000000002
 10
796.9187108698406
 20
3739.570380935806
 30
-0.0000000000000002
 10
797.6019880547372
 20
3738.234421206704
 30
-0.0000000000000002
 10
799.0463274868671
 20
3737.064229113393
 30
-0.0000000000000002
 10
800.4085627684071
 20
3736.71494092943
 30
-0.0000000000000002
 10
801.1187004987387
 20
3736.601958508456
 30
-0.0000000000000002
  0
SPLINE
  5
2942
330
74
100
AcDbEntity
  8
AM_2 ( Kontur 0.25)
100
AcDbSpline
210
0.0
220
0.0
230
1.0
 70
     8
 71
     3
 72
    16
 73
    12
 74
     0
 42
0.0000000001
 43
0.0000000001
 40
0.0
 40
0.0
 40
0.0
 40
0.0
 40
15.15750207772487
 40
27.25697387011311
 40
34.43931065860861
 40
39.65009329418549
 40
44.56345646904475
 40
47.71213136306745
 40
54.82006013499383
 40
60.56606766894518
 40
71.55366046898641
 40
71.55366046898641
 40
71.55366046898641
 40
71.55366046898641
 10
812.3996989687093
 20
3749.136332531918
 30
-0.0000000000000002
 10
810.6381161602223
 20
3748.565714379992
 30
-0.0000000000000002
 10
807.4703503677593
 20
3747.539600447953
 30
-0.0000000000000002
 10
803.998520209765
 20
3745.303240436356
 30
-0.0000000000000002
 10
801.3097058520322
 20
3743.762789458749
 30
-0.0000000000000002
 10
800.6775057352367
 20
3741.543367194837
 30
-0.0000000000000002
 10
801.4519537075102
 20
3739.984482325362
 30
-0.0000000000000002
 10
803.0133784710631
 20
3738.935442349799
 30
-0.0000000000000002
 10
805.1511177940248
 20
3738.99438906098
 30
-0.0000000000000002
 10
807.639256374483
 20
3740.487327863159
 30
-0.0000000000000002
 10
809.1767017754062
 20
3741.887950039618
 30
-0.0000000000000002
 10
809.9814198284256
 20
3742.949302282827
 30
-0.0000000000000002
  0
SPLINE
  5
2943
330
74
100
AcDbEntity
  8
AM_2 ( Kontur 0.25)
100
AcDbSpline
210
0.0
220
0.0
230
1.0
 70
     8
 71
     3
 72
    10
 73
     6
 74
     4
 42
0.0000000001
 43
0.0000000001
 44
0.0000000001
 40
0.0
 40
0.0
 40
0.0
 40
0.0
 40
2.718288968095166
 40
5.367882505661949
 40
6.773806714623188
 40
6.773806714623188
 40
6.773806714623188
 40
6.773806714623188
 10
809.9814198284256
 20
3742.949302282827
 30
-0.0000000000000002
 10
810.5628309246158
 20
3743.646671876847
 30
-0.0000000000000002
 10
811.7109599456535
 20
3745.023787440222
 30
-0.0000000000000002
 10
812.7237551321256
 20
3747.075618337899
 30
-0.0000000000000002
 10
813.0760106798078
 20
3748.38141289624
 30
-0.0000000000000002
 10
813.1981269256684
 20
3748.834092010532
 30
-0.0000000000000002
 11
809.9814198284256
 21
3742.949302282827
 31
-0.0000000000000002
 11
811.6370422903074
 21
3745.105226487845
 31
-0.0000000000000002
 11
812.8012392146484
 21
3747.485350735793
 31
-0.0000000000000002
 11
813.1981269256684
 21
3748.834092010532
 31
-0.0000000000000002
  0
LINE
  5
2944
330
74
100
AcDbEntity
  8
AM_2 ( Kontur 0.25)
100
AcDbLine
 10
812.3996989687093
 20
3749.136332531918
 30
-0.0000000000000002
 11
813.1981269256684
 21
3748.834092010532
 31
-0.0000000000000002
  0
SPLINE
  5
2945
330
74
100
AcDbEntity
  8
AM_2 ( Kontur 0.25)
100
AcDbSpline
210
0.0
220
0.0
230
1.0
 70
     8
 71
     3
 72
    10
 73
     6
 74
     0
 42
0.0000000001
 43
0.0000000001
 40
0.0
 40
0.0
 40
0.0
 40
0.0
 40
6.720829269292407
 40
18.98594895565098
 40
32.53410848116109
 40
32.53410848116109
 40
32.53410848116109
 40
32.53410848116109
 10
835.0389029908511
 20
3755.72772172944
 30
-0.0000000000000002
 10
834.8771306983579
 20
3754.930459718225
 30
-0.0000000000000002
 10
834.4201334492609
 20
3752.678241242989
 30
-0.0000000000000002
 10
833.7928162966454
 20
3748.760589699973
 30
-0.0000000000000002
 10
833.8122152652285
 20
3745.670254455988
 30
-0.0000000000000002
 10
833.7427830675787
 20
3744.016444470002
 30
-0.0000000000000002
  0
LINE
  5
2946
330
74
100
AcDbEntity
  8
AM_2 ( Kontur 0.25)
100
AcDbLine
 10
824.7199632444333
 20
3741.305861290419
 30
-0.0000000000000002
 11
822.0298006971971
 21
3739.548126287459
 31
-0.0000000000000002
  0
LINE
  5
2947
330
74
100
AcDbEntity
  8
AM_2 ( Kontur 0.25)
100
AcDbLine
 10
790.8937341416876
 20
3758.315482511331
 30
-0.0000000000000002
 11
787.8751748510202
 21
3756.224376511101
 31
-0.0000000000000002
  0
LINE
  5
2948
330
74
100
AcDbEntity
  8
AM_2 ( Kontur 0.25)
100
AcDbLine
 10
854.6962075682277
 20
3741.428066587893
 30
-0.0000000000000002
 11
854.0435356251164
 21
3743.831528725881
 31
-0.0000000000000002
  0
SPLINE
  5
2949
330
74
100
AcDbEntity
  8
AM_2 ( Kontur 0.25)
100
AcDbSpline
210
0.0
220
0.0
230
1.0
 70
     8
 71
     3
 72
    15
 73
    11
 74
     0
 42
0.0000000001
 43
0.0000000001
 40
0.0
 40
0.0
 40
0.0
 40
0.0
 40
8.45925447378854
 40
19.20850535527661
 40
29.49452603167964
 40
33.294415627964
 40
35.23585065027483
 40
44.35486976400721
 40
55.46532870482259
 40
57.67055361541051
 40
57.67055361541051
 40
57.67055361541051
 40
57.67055361541051
 10
844.8496463402118
 20
3746.871496075358
 30
-0.0000000000000002
 10
845.8331965732758
 20
3747.15886319313
 30
-0.0000000000000002
 10
848.0665529497239
 20
3747.811390296764
 30
-0.0000000000000002
 10
851.2460201656447
 20
3749.622368922839
 30
-0.0000000000000002
 10
853.1900816429878
 20
3751.911892312192
 30
-0.0000000000000002
 10
853.9327272993904
 20
3753.897114136773
 30
-0.0000000000000002
 10
852.8801873734064
 20
3755.592912975379
 30
-0.0000000000000002
 10
849.5190190392841
 20
3753.82129898449
 30
-0.0000000000000002
 10
847.7338668817337
 20
3752.300246709725
 30
-0.0000000000000002
 10
846.5251665528176
 20
3751.204457570529
 30
-0.0000000000000002
 10
846.3337649799067
 20
3751.013606772636
 30
-0.0000000000000002
  0
SPLINE
  5
294A
330
74
100
AcDbEntity
  8
AM_2 ( Kontur 0.25)
100
AcDbSpline
210
0.0
220
0.0
230
1.0
 70
     8
 71
     3
 72
    11
 73
     7
 74
     5
 42
0.0000000001
 43
0.0000000001
 44
0.0000000001
 40
0.0
 40
0.0
 40
0.0
 40
0.0
 40
2.01864379883876
 40
3.172767832505081
 40
4.145369506853184
 40
4.801513932941736
 40
4.801513932941736
 40
4.801513932941736
 40
4.801513932941736
 10
846.3337649799067
 20
3751.013606772636
 30
-0.0000000000000002
 10
845.8436879406406
 20
3750.546153756369
 30
-0.0000000000000002
 10
845.0734179868591
 20
3749.811442712214
 30
-0.0000000000000002
 10
844.3419794804109
 20
3748.637935217357
 30
-0.0000000000000002
 10
843.8961182852594
 20
3747.808437936473
 30
-0.0000000000000002
 10
843.8229292640107
 20
3747.267001202148
 30
-0.0000000000000002
 10
843.7934448843826
 20
3747.048882064234
 30
-0.0000000000000002
 11
846.3337649799067
 21
3751.013606772636
 31
-0.0000000000000002
 11
844.9487221282906
 21
3749.545077206786
 31
-0.0000000000000002
 11
844.3201159955242
 21
3748.577163669875
 31
-0.0000000000000002
 11
843.9123700523833
 21
3747.694158991067
 31
-0.0000000000000002
 11
843.7934448843826
 21
3747.048882064234
 31
-0.0000000000000002
  0
LINE
  5
294B
330
74
100
AcDbEntity
  8
AM_2 ( Kontur 0.25)
100
AcDbLine
 10
844.8496463402118
 20
3746.871496075358
 30
-0.0000000000000002
 11
843.7934448843826
 21
3747.048882064234
 31
-0.0000000000000002
  0
DIMENSION
  5
298F
102
{ACAD_XDICTIONARY
360
299C
102
}
102
{ACAD_REACTORS
330
299D
102
}
330
74
100
AcDbEntity
  8
AM_5 ( Bemassung)
100
AcDbDimension
  2
*D12
 10
655.7919918571851
 20
4286.899658885465
 30
0.0
 11
830.7919918571851
 21
4300.439222323392
 31
0.0
 70
    32
  1
%%c<>
 71
     5
 42
349.9999999999999
  3
AM_DIN$0
100
AcDbAlignedDimension
 13
1005.791991857185
 23
4237.899658885465
 33
0.0
 14
655.7919918571851
 24
4237.899658885465
 34
0.0
 50
0.0000000000000114
100
AcDbRotatedDimension
1001
ACAD
1000
DSTYLE
1002
{
1070
    40
1040
4.0
1002
}
1001
ACAD_DSTYLE_DIMINSPECT
1070
   396
1000
100%
1070
   395
1000

1070
   394
1070
    33
1070
   393
1070
     0
  0
DIMENSION
  5
29B0
102
{ACAD_XDICTIONARY
360
29BD
102
}
102
{ACAD_REACTORS
330
29BE
102
}
330
74
100
AcDbEntity
  8
AM_5 ( Bemassung)
100
AcDbDimension
  2
*D13
 10
900.7919918571852
 20
4016.88537317118
 30
0.0
 11
830.7919918571851
 21
4030.424936609106
 31
0.0
 70
    32
  1
%%c<>
 71
     5
 42
140.0
  3
AM_DIN$0
100
AcDbAlignedDimension
 13
760.7919918571852
 23
4064.885373171179
 33
-0.0000000000000002
 14
900.7919918571852
 24
4064.885373171179
 34
-0.0000000000000002
 50
0.0000000000001132
100
AcDbRotatedDimension
1001
ACAD
1000
DSTYLE
1002
{
1070
    40
1040
4.0
1002
}
1001
ACAD_DSTYLE_DIMINSPECT
1070
   396
1000
100%
1070
   395
1000

1070
   394
1070
    33
1070
   393
1070
     0
  0
DIMENSION
  5
2AF7
102
{ACAD_XDICTIONARY
360
2B04
102
}
102
{ACAD_REACTORS
330
2B05
102
}
330
74
100
AcDbEntity
  8
AM_5 ( Bemassung)
100
AcDbDimension
  2
*D17
 10
1043.504980763613
 20
4068.899658885465
 30
0.0
 11
1043.504980763613
 21
4151.399658885465
 31
0.0
 70
   160
 71
     5
 42
164.9999999999995
  3
AM_DIN$0
100
AcDbAlignedDimension
 13
1000.791991857185
 23
4233.899658885465
 33
-0.0000000000000002
 14
1000.791991857185
 24
4068.899658885466
 34
-0.0000000000000002
 50
90.00000000000005
100
AcDbRotatedDimension
1001
ACAD
1000
DSTYLE
1002
{
1070
    40
1040
4.0
1002
}
1001
ACAD_DSTYLE_DIMINSPECT
1070
   396
1000
100%
1070
   395
1000

1070
   394
1070
    33
1070
   393
1070
     0
  0
ENDSEC
  0
SECTION
  2
OBJECTS
  0
DICTIONARY
  5
C
330
0
100
AcDbDictionary
281
     1
  3
ACAD_2007HEADERVARS_RT
350
3203
  3
ACAD_COLOR
350
6A
  3
ACAD_GROUP
350
D
  3
ACAD_LAYOUT
350
69
  3
ACAD_MATERIAL
350
10
  3
ACAD_MLEADERSTYLE
350
6D
  3
ACAD_MLINESTYLE
350
66
  3
ACAD_PLOTSETTINGS
350
68
  3
ACAD_PLOTSTYLENAME
350
E
  3
ACAD_SCALELIST
350
3A
  3
ACAD_TABLESTYLE
350
6B
  3
ACAD_VISUALSTYLE
350
29
  3
ACDB_RECOMPOSE_DATA
350
1B4
  3
AcDbVariableDictionary
350
1C9
  3
AcmDictionary
350
166
  3
AMG
350
10C
  3
AMGSNAPSETTINGS
350
19B
  3
ASE_INDEX_DICTIONARY
350
30B4
  0
DICTIONARY
  5
1B6
330
8
100
AcDbDictionary
280
     1
281
     1
  0
DICTIONARY
  5
256
330
2
100
AcDbDictionary
280
     1
281
     1
  3
AMLAYER_GROUPCOLORS
360
257
  0
DICTIONARY
  5
1A2
330
5C
100
AcDbDictionary
280
     1
281
     1
  3
ADSK_XREC_LAYER_RECONCILED
360
D41
  0
DICTIONARY
  5
2C7
330
27F
100
AcDbDictionary
280
     1
281
     1
  3
ADSK_XREC_LAYER_RECONCILED
360
D4D
  0
DICTIONARY
  5
2C9
330
2AA
100
AcDbDictionary
280
     1
281
     1
  3
ADSK_XREC_LAYER_RECONCILED
360
D4E
  0
DICTIONARY
  5
2CB
330
2AC
100
AcDbDictionary
280
     1
281
     1
  3
ADSK_XREC_LAYER_RECONCILED
360
D4F
  0
DICTIONARY
  5
2CD
330
2AE
100
AcDbDictionary
280
     1
281
     1
  3
ADSK_XREC_LAYER_RECONCILED
360
D50
  0
DICTIONARY
  5
2CF
330
2B1
100
AcDbDictionary
280
     1
281
     1
  3
ADSK_XREC_LAYER_RECONCILED
360
D51
  0
DICTIONARY
  5
A1F
330
9FC
100
AcDbDictionary
280
     1
281
     1
  3
ADSK_XREC_LAYER_RECONCILED
360
D54
  0
DICTIONARY
  5
A88
330
74
100
AcDbDictionary
280
     1
281
     1
  3
ACAD_SORTENTS
360
A89
  0
DICTIONARY
  5
299C
330
298F
100
AcDbDictionary
280
     1
281
     1
  3
ACAD_DIMASSOC
360
299D
  0
DICTIONARY
  5
29BD
330
29B0
100
AcDbDictionary
280
     1
281
     1
  3
ACAD_DIMASSOC
360
29BE
  0
DICTIONARY
  5
2B04
330
2AF7
100
AcDbDictionary
280
     1
281
     1
  3
ACAD_DIMASSOC
360
2B05
  0
DICTIONARY
  5
3203
102
{ACAD_REACTORS
330
C
102
}
330
C
100
AcDbDictionary
281
     1
  3
DIMARCSYM
350
3204
  0
DICTIONARY
  5
6A
102
{ACAD_REACTORS
330
C
102
}
330
C
100
AcDbDictionary
281
     1
  0
DICTIONARY
  5
D
102
{ACAD_REACTORS
330
C
102
}
330
C
100
AcDbDictionary
281
     1
  0
DICTIONARY
  5
69
102
{ACAD_REACTORS
330
C
102
}
330
C
100
AcDbDictionary
281
     1
  3
Layout1
350
73
  3
Model
350
77
  0
DICTIONARY
  5
10
102
{ACAD_REACTORS
330
C
102
}
330
C
100
AcDbDictionary
281
     1
  3
ByBlock
350
19
  3
ByLayer
350
11
  3
Global
350
21
  0
DICTIONARY
  5
6D
102
{ACAD_REACTORS
330
C
102
}
330
C
100
AcDbDictionary
281
     1
  3
Standard
350
6E
  0
DICTIONARY
  5
66
102
{ACAD_REACTORS
330
C
102
}
330
C
100
AcDbDictionary
281
     1
  3
Standard
350
67
  0
DICTIONARY
  5
68
102
{ACAD_REACTORS
330
C
102
}
330
C
100
AcDbDictionary
281
     1
  0
ACDBDICTIONARYWDFLT
  5
E
102
{ACAD_REACTORS
330
C
102
}
330
C
100
AcDbDictionary
281
     1
  3
Normal
350
F
100
AcDbDictionaryWithDefault
340
F
  0
DICTIONARY
  5
3A
102
{ACAD_REACTORS
330
C
102
}
330
C
100
AcDbDictionary
281
     1
  3
*A1
350
1153
  3
A0
350
3B
  3
A1
350
3C
  3
A2
350
3D
  3
A3
350
3E
  3
A4
350
3F
  3
A5
350
40
  3
A6
350
41
  3
A7
350
42
  3
A8
350
43
  3
A9
350
44
  3
B0
350
45
  3
B1
350
46
  3
B2
350
47
  3
B3
350
48
  3
B4
350
49
  3
B5
350
4A
  3
B6
350
4B
  3
B7
350
4C
  3
B8
350
4D
  3
B9
350
4E
  3
C0
350
4F
  3
C1
350
50
  3
C2
350
51
  3
C3
350
52
  3
C4
350
53
  3
C5
350
54
  3
C6
350
55
  3
C7
350
56
  3
C8
350
57
  3
C9
350
58
  3
D0
350
59
  3
D1
350
5A
  3
D2
350
5B
  0
DICTIONARY
  5
6B
102
{ACAD_REACTORS
330
C
102
}
330
C
100
AcDbDictionary
281
     1
  3
Standard
350
6C
  0
DICTIONARY
  5
29
102
{ACAD_REACTORS
330
C
102
}
330
C
100
AcDbDictionary
281
     1
  3
2dWireframe
350
2F
  3
3D Hidden
350
31
  3
3dWireframe
350
30
  3
Basic
350
2E
  3
Brighten
350
35
  3
ColorChange
350
39
  3
Conceptual
350
32
  3
Dim
350
34
  3
Facepattern
350
38
  3
Flat
350
2A
  3
FlatWithEdges
350
2B
  3
Gouraud
350
2C
  3
GouraudWithEdges
350
2D
  3
Linepattern
350
37
  3
Realistic
350
33
  3
Thicken
350
36
  0
XRECORD
  5
1B4
102
{ACAD_REACTORS
330
C
102
}
330
C
100
AcDbXrecord
280
     1
 90
        1
330
6C
  0
DICTIONARY
  5
1C9
102
{ACAD_REACTORS
330
C
102
}
330
C
100
AcDbDictionary
281
     1
  3
CANNOSCALE
350
1CC
  3
CMLEADERSTYLE
350
1CB
  3
CTABLESTYLE
350
1CA
  3
DIMASSOC
350
1CF
  3
INDEXCTL
350
1CE
  3
LIGHTINGUNITS
350
2D3
  3
MSLTSCALE
350
2D2
  3
SORTENTS
350
1CD
  0
DICTIONARY
  5
166
102
{ACAD_REACTORS
330
C
102
}
330
C
100
AcDbDictionary
281
     1
  3
AcmBOM
350
2B6
  3
AcmStdDictionary
350
171
  3
AMDTSECTSYM_ARROWCOLOR
350
186
  0
DICTIONARY
  5
10C
102
{ACAD_REACTORS
330
C
102
}
330
C
100
AcDbDictionary
281
     1
  0
DICTIONARY
  5
19B
102
{ACAD_REACTORS
330
C
102
}
330
C
100
AcDbDictionary
281
     1
  0
DICTIONARY
  5
30B4
102
{ACAD_REACTORS
330
C
102
}
330
C
100
AcDbDictionary
281
     1
  3
ASEBlockHierarchyIndexRecord
350
30B5
1001
DCO15
1040
1634624506.805
  0
DICTIONARY
  5
257
102
{ACAD_REACTORS
330
256
102
}
330
256
100
AcDbDictionary
280
     1
281
     1
  0
XRECORD
  5
D41
102
{ACAD_REACTORS
330
1A2
102
}
330
1A2
100
AcDbXrecord
280
     1
290
     1
  0
XRECORD
  5
D4D
102
{ACAD_REACTORS
330
2C7
102
}
330
2C7
100
AcDbXrecord
280
     1
290
     1
  0
XRECORD
  5
D4E
102
{ACAD_REACTORS
330
2C9
102
}
330
2C9
100
AcDbXrecord
280
     1
290
     1
  0
XRECORD
  5
D4F
102
{ACAD_REACTORS
330
2CB
102
}
330
2CB
100
AcDbXrecord
280
     1
290
     1
  0
XRECORD
  5
D50
102
{ACAD_REACTORS
330
2CD
102
}
330
2CD
100
AcDbXrecord
280
     1
290
     1
  0
XRECORD
  5
D51
102
{ACAD_REACTORS
330
2CF
102
}
330
2CF
100
AcDbXrecord
280
     1
290
     1
  0
XRECORD
  5
D54
102
{ACAD_REACTORS
330
A1F
102
}
330
A1F
100
AcDbXrecord
280
     1
290
     1
  0
SORTENTSTABLE
  5
A89
102
{ACAD_REACTORS
330
A88
102
}
330
A88
100
AcDbSortentsTable
330
74
  0
DIMASSOC
  5
299D
102
{ACAD_REACTORS
330
299C
102
}
330
299C
100
AcDbDimAssoc
330
298F
 90
        2
 70
     0
 71
     0
  1
AcDbOsnapPointRef
 72
     6
331
1D57
 73
     0
 91
        0
 40
0.0
 10
0.0
 20
0.0
 30
0.0
332
1D62
 74
     0
 92
        0
 75
     0
  0
DIMASSOC
  5
29BE
102
{ACAD_REACTORS
330
29BD
102
}
330
29BD
100
AcDbDimAssoc
330
29B0
 90
        3
 70
     0
 71
     0
  1
AcDbOsnapPointRef
 72
     6
331
1D56
 73
     0
 91
        0
 40
0.3
 10
0.0
 20
0.0
 30
0.0
332
1D63
 74
     0
 92
        0
 75
     0
  1
AcDbOsnapPointRef
 72
     6
331
1D56
 73
     0
 91
        0
 40
0.7
 10
0.0
 20
0.0
 30
0.0
332
1D64
 74
     0
 92
        0
 75
     0
  0
DIMASSOC
  5
2B05
102
{ACAD_REACTORS
330
2B04
102
}
330
2B04
100
AcDbDimAssoc
330
2AF7
 90
        3
 70
     0
 71
     0
  1
AcDbOsnapPointRef
 72
     6
331
1D53
 73
     0
 91
        0
 40
1.0
 10
0.0
 20
0.0
 30
0.0
332
1D59
 74
     0
 92
        0
 75
     0
  1
AcDbOsnapPointRef
 72
     6
331
1D53
 73
     0
 91
        0
 40
0.0000811688311677
 10
0.0
 20
0.0
 30
0.0
332
1D58
 74
     0
 92
        0
 75
     0
  0
XRECORD
  5
3204
102
{ACAD_REACTORS
330
3203
102
}
330
3203
100
AcDbXrecord
280
     1
 70
     1
  0
LAYOUT
  5
73
102
{ACAD_REACTORS
330
69
102
}
330
69
100
AcDbPlotSettings
  1

  2
\\OASE42\HP DesignJet 500 42+HPGL2 Card
  4

  6

 40
0.0
 41
0.0
 42
0.0
 43
0.0
 44
0.0
 45
0.0
 46
0.0
 47
0.0
 48
0.0
 49
0.0
140
0.0
141
0.0
142
1.0
143
1.0
 70
   688
 72
     0
 73
     0
 74
     5
  7
C:\Dokumente und Einstellungen\guzb562\Anwendungsdaten\Autodesk\Autodesk Mechanical Desktop 2008\R17.1\deu\Plot Styles\OASE.ctb
 75
    16
147
1.0
 76
     0
 77
     2
 78
   300
148
0.0
149
0.0
100
AcDbLayout
  1
Layout1
 70
     1
 71
     1
 10
0.0
 20
0.0
 11
12.0
 21
9.0
 12
0.0
 22
0.0
 32
0.0
 14
1.000000000000000E+20
 24
1.000000000000000E+20
 34
1.000000000000000E+20
 15
-1.000000000000000E+20
 25
-1.000000000000000E+20
 35
-1.000000000000000E+20
146
0.0
 13
0.0
 23
0.0
 33
0.0
 16
1.0
 26
0.0
 36
0.0
 17
0.0
 27
1.0
 37
0.0
 76
     0
330
70
  0
LAYOUT
  5
77
102
{ACAD_REACTORS
330
69
102
}
330
69
100
AcDbPlotSettings
  1

  2
HP DesignJet 500 42+HPGL2 Card.pc3
  4
User622
  6

 40
0.0
 41
0.0845947265625
 42
0.084716796875
 43
0.0
 44
841.0786743164063
 45
1189.05859375
 46
0.0
 47
0.0
 48
0.0
 49
0.0
140
0.0
141
0.0
142
1.0
143
8.825566186707652
 70
 11952
 72
     1
 73
     1
 74
     0
  7
C:\Dokumente und Einstellungen\guzb562\Anwendungsdaten\Autodesk\Autodesk Mechanical Desktop 2008\R17.1\deu\Plot Styles\OASE.ctb
 75
     0
147
0.1133071781282563
 76
     0
 77
     2
 78
   300
148
375.8176034259132
149
23.23337679269889
100
AcDbLayout
  1
Model
 70
     1
 71
     0
 10
0.0
 20
0.0
 11
12.0
 21
9.0
 12
0.0
 22
0.0
 32
0.0
 14
0.0
 24
0.0
 34
0.0
 15
0.0
 25
0.0
 35
0.0
146
0.0
 13
0.0
 23
0.0
 33
0.0
 16
1.0
 26
0.0
 36
0.0
 17
0.0
 27
1.0
 37
0.0
 76
     0
330
74
331
82
1001
ACAD_PSEXT
1000
HP DesignJet 500 42+HPGL2 Card.pc3
1000
HP DesignJet 500 42+HPGL2 Card
1000
\\oase42
1000

1070
     0
  0
MATERIAL
  5
19
102
{ACAD_XDICTIONARY
360
1A
102
}
102
{ACAD_REACTORS
330
10
102
}
330
10
100
AcDbMaterial
  1
ByBlock
 72
     0
 43
0.0208333333333333
 43
0.0
 43
0.0
 43
0.0
 43
0.0
 43
0.0208333333333333
 43
0.0
 43
0.0
 43
0.0
 43
0.0
 43
1.0
 43
0.0
 43
0.0
 43
0.0
 43
0.0
 43
1.0
 77
     0
 47
0.0208333333333333
 47
0.0
 47
0.0
 47
0.0
 47
0.0
 47
0.0208333333333333
 47
0.0
 47
0.0
 47
0.0
 47
0.0
 47
1.0
 47
0.0
 47
0.0
 47
0.0
 47
0.0
 47
1.0
171
     0
 49
0.0208333333333333
 49
0.0
 49
0.0
 49
0.0
 49
0.0
 49
0.0208333333333333
 49
0.0
 49
0.0
 49
0.0
 49
0.0
 49
1.0
 49
0.0
 49
0.0
 49
0.0
 49
0.0
 49
1.0
175
     0
142
0.0208333333333333
142
0.0
142
0.0
142
0.0
142
0.0
142
0.0208333333333333
142
0.0
142
0.0
142
0.0
142
0.0
142
1.0
142
0.0
142
0.0
142
0.0
142
0.0
142
1.0
179
     0
144
0.0208333333333333
144
0.0
144
0.0
144
0.0
144
0.0
144
0.0208333333333333
144
0.0
144
0.0
144
0.0
144
0.0
144
1.0
144
0.0
144
0.0
144
0.0
144
0.0
144
1.0
147
0.0208333333333333
147
0.0
147
0.0
147
0.0
147
0.0
147
0.0208333333333333
147
0.0
147
0.0
147
0.0
147
0.0
147
1.0
147
0.0
147
0.0
147
0.0
147
0.0
147
1.0
  0
MATERIAL
  5
11
102
{ACAD_XDICTIONARY
360
12
102
}
102
{ACAD_REACTORS
330
10
102
}
330
10
100
AcDbMaterial
  1
ByLayer
 72
     0
 43
0.0208333333333333
 43
0.0
 43
0.0
 43
0.0
 43
0.0
 43
0.0208333333333333
 43
0.0
 43
0.0
 43
0.0
 43
0.0
 43
1.0
 43
0.0
 43
0.0
 43
0.0
 43
0.0
 43
1.0
 77
     0
 47
0.0208333333333333
 47
0.0
 47
0.0
 47
0.0
 47
0.0
 47
0.0208333333333333
 47
0.0
 47
0.0
 47
0.0
 47
0.0
 47
1.0
 47
0.0
 47
0.0
 47
0.0
 47
0.0
 47
1.0
171
     0
 49
0.0208333333333333
 49
0.0
 49
0.0
 49
0.0
 49
0.0
 49
0.0208333333333333
 49
0.0
 49
0.0
 49
0.0
 49
0.0
 49
1.0
 49
0.0
 49
0.0
 49
0.0
 49
0.0
 49
1.0
175
     0
142
0.0208333333333333
142
0.0
142
0.0
142
0.0
142
0.0
142
0.0208333333333333
142
0.0
142
0.0
142
0.0
142
0.0
142
1.0
142
0.0
142
0.0
142
0.0
142
0.0
142
1.0
179
     0
144
0.0208333333333333
144
0.0
144
0.0
144
0.0
144
0.0
144
0.0208333333333333
144
0.0
144
0.0
144
0.0
144
0.0
144
1.0
144
0.0
144
0.0
144
0.0
144
0.0
144
1.0
147
0.0208333333333333
147
0.0
147
0.0
147
0.0
147
0.0
147
0.0208333333333333
147
0.0
147
0.0
147
0.0
147
0.0
147
1.0
147
0.0
147
0.0
147
0.0
147
0.0
147
1.0
  0
MATERIAL
  5
21
102
{ACAD_XDICTIONARY
360
22
102
}
102
{ACAD_REACTORS
330
10
102
}
330
10
100
AcDbMaterial
  1
Global
 72
     0
 43
0.0208333333333333
 43
0.0
 43
0.0
 43
0.0
 43
0.0
 43
0.0208333333333333
 43
0.0
 43
0.0
 43
0.0
 43
0.0
 43
1.0
 43
0.0
 43
0.0
 43
0.0
 43
0.0
 43
1.0
 77
     0
 47
0.0208333333333333
 47
0.0
 47
0.0
 47
0.0
 47
0.0
 47
0.0208333333333333
 47
0.0
 47
0.0
 47
0.0
 47
0.0
 47
1.0
 47
0.0
 47
0.0
 47
0.0
 47
0.0
 47
1.0
171
     0
 49
0.0208333333333333
 49
0.0
 49
0.0
 49
0.0
 49
0.0
 49
0.0208333333333333
 49
0.0
 49
0.0
 49
0.0
 49
0.0
 49
1.0
 49
0.0
 49
0.0
 49
0.0
 49
0.0
 49
1.0
175
     0
142
0.0208333333333333
142
0.0
142
0.0
142
0.0
142
0.0
142
0.0208333333333333
142
0.0
142
0.0
142
0.0
142
0.0
142
1.0
142
0.0
142
0.0
142
0.0
142
0.0
142
1.0
179
     0
144
0.0208333333333333
144
0.0
144
0.0
144
0.0
144
0.0
144
0.0208333333333333
144
0.0
144
0.0
144
0.0
144
0.0
144
1.0
144
0.0
144
0.0
144
0.0
144
0.0
144
1.0
147
0.0208333333333333
147
0.0
147
0.0
147
0.0
147
0.0
147
0.0208333333333333
147
0.0
147
0.0
147
0.0
147
0.0
147
1.0
147
0.0
147
0.0
147
0.0
147
0.0
147
1.0
  0
MLEADERSTYLE
  5
6E
102
{ACAD_REACTORS
330
6D
102
}
330
6D
100
AcDbMLeaderStyle
170
     2
171
     1
172
     0
 90
        2
 40
0.0
 41
0.0
173
     1
 91
-1056964608
340
62
 92
       -2
290
     1
 42
0.09
291
     1
 43
0.36
  3
Standard
 44
0.18
300

342
5D
174
     1
178
     6
175
     1
176
     0
 93
-1056964608
 45
0.18
292
     0
297
     0
 46
0.18
 94
-1056964608
 47
1.0
 49
1.0
140
1.0
293
     1
141
0.0
294
     1
177
     0
142
1.0
295
     0
296
     0
143
0.125
1001
ACAD_MLEADERVER
1070
     2
  0
MLINESTYLE
  5
67
102
{ACAD_REACTORS
330
66
102
}
330
66
100
AcDbMlineStyle
  2
STANDARD
 70
     0
  3

 62
   256
 51
90.0
 52
90.0
 71
     2
 49
0.5
 62
   256
  6
BYLAYER
 49
-0.5
 62
   256
  6
BYLAYER
  0
ACDBPLACEHOLDER
  5
F
102
{ACAD_REACTORS
330
E
102
}
330
E
  0
SCALE
  5
1153
102
{ACAD_REACTORS
330
3A
102
}
330
3A
100
AcDbScale
 70
     0
300
1:2.5
140
1.0
141
2.5
290
     0
  0
SCALE
  5
3B
102
{ACAD_REACTORS
330
3A
102
}
330
3A
100
AcDbScale
 70
     0
300
1:1
140
1.0
141
1.0
290
     1
  0
SCALE
  5
3C
102
{ACAD_REACTORS
330
3A
102
}
330
3A
100
AcDbScale
 70
     0
300
1:2
140
1.0
141
2.0
290
     0
  0
SCALE
  5
3D
102
{ACAD_REACTORS
330
3A
102
}
330
3A
100
AcDbScale
 70
     0
300
1:4
140
1.0
141
4.0
290
     0
  0
SCALE
  5
3E
102
{ACAD_REACTORS
330
3A
102
}
330
3A
100
AcDbScale
 70
     0
300
1:5
140
1.0
141
5.0
290
     0
  0
SCALE
  5
3F
102
{ACAD_REACTORS
330
3A
102
}
330
3A
100
AcDbScale
 70
     0
300
1:8
140
1.0
141
8.0
290
     0
  0
SCALE
  5
40
102
{ACAD_REACTORS
330
3A
102
}
330
3A
100
AcDbScale
 70
     0
300
1:10
140
1.0
141
10.0
290
     0
  0
SCALE
  5
41
102
{ACAD_REACTORS
330
3A
102
}
330
3A
100
AcDbScale
 70
     0
300
1:16
140
1.0
141
16.0
290
     0
  0
SCALE
  5
42
102
{ACAD_REACTORS
330
3A
102
}
330
3A
100
AcDbScale
 70
     0
300
1:20
140
1.0
141
20.0
290
     0
  0
SCALE
  5
43
102
{ACAD_REACTORS
330
3A
102
}
330
3A
100
AcDbScale
 70
     0
300
1:30
140
1.0
141
30.0
290
     0
  0
SCALE
  5
44
102
{ACAD_REACTORS
330
3A
102
}
330
3A
100
AcDbScale
 70
     0
300
1:40
140
1.0
141
40.0
290
     0
  0
SCALE
  5
45
102
{ACAD_REACTORS
330
3A
102
}
330
3A
100
AcDbScale
 70
     0
300
1:50
140
1.0
141
50.0
290
     0
  0
SCALE
  5
46
102
{ACAD_REACTORS
330
3A
102
}
330
3A
100
AcDbScale
 70
     0
300
1:100
140
1.0
141
100.0
290
     0
  0
SCALE
  5
47
102
{ACAD_REACTORS
330
3A
102
}
330
3A
100
AcDbScale
 70
     0
300
2:1
140
2.0
141
1.0
290
     0
  0
SCALE
  5
48
102
{ACAD_REACTORS
330
3A
102
}
330
3A
100
AcDbScale
 70
     0
300
4:1
140
4.0
141
1.0
290
     0
  0
SCALE
  5
49
102
{ACAD_REACTORS
330
3A
102
}
330
3A
100
AcDbScale
 70
     0
300
8:1
140
8.0
141
1.0
290
     0
  0
SCALE
  5
4A
102
{ACAD_REACTORS
330
3A
102
}
330
3A
100
AcDbScale
 70
     0
300
10:1
140
10.0
141
1.0
290
     0
  0
SCALE
  5
4B
102
{ACAD_REACTORS
330
3A
102
}
330
3A
100
AcDbScale
 70
     0
300
100:1
140
100.0
141
1.0
290
     0
  0
SCALE
  5
4C
102
{ACAD_REACTORS
330
3A
102
}
330
3A
100
AcDbScale
 70
     0
300
1/128" = 1'-0"
140
0.0078125
141
12.0
290
     0
  0
SCALE
  5
4D
102
{ACAD_REACTORS
330
3A
102
}
330
3A
100
AcDbScale
 70
     0
300
1/64" = 1'-0"
140
0.015625
141
12.0
290
     0
  0
SCALE
  5
4E
102
{ACAD_REACTORS
330
3A
102
}
330
3A
100
AcDbScale
 70
     0
300
1/32" = 1'-0"
140
0.03125
141
12.0
290
     0
  0
SCALE
  5
4F
102
{ACAD_REACTORS
330
3A
102
}
330
3A
100
AcDbScale
 70
     0
300
1/16" = 1'-0"
140
0.0625
141
12.0
290
     0
  0
SCALE
  5
50
102
{ACAD_REACTORS
330
3A
102
}
330
3A
100
AcDbScale
 70
     0
300
3/32" = 1'-0"
140
0.09375
141
12.0
290
     0
  0
SCALE
  5
51
102
{ACAD_REACTORS
330
3A
102
}
330
3A
100
AcDbScale
 70
     0
300
1/8" = 1'-0"
140
0.125
141
12.0
290
     0
  0
SCALE
  5
52
102
{ACAD_REACTORS
330
3A
102
}
330
3A
100
AcDbScale
 70
     0
300
3/16" = 1'-0"
140
0.1875
141
12.0
290
     0
  0
SCALE
  5
53
102
{ACAD_REACTORS
330
3A
102
}
330
3A
100
AcDbScale
 70
     0
300
1/4" = 1'-0"
140
0.25
141
12.0
290
     0
  0
SCALE
  5
54
102
{ACAD_REACTORS
330
3A
102
}
330
3A
100
AcDbScale
 70
     0
300
3/8" = 1'-0"
140
0.375
141
12.0
290
     0
  0
SCALE
  5
55
102
{ACAD_REACTORS
330
3A
102
}
330
3A
100
AcDbScale
 70
     0
300
1/2" = 1'-0"
140
0.5
141
12.0
290
     0
  0
SCALE
  5
56
102
{ACAD_REACTORS
330
3A
102
}
330
3A
100
AcDbScale
 70
     0
300
3/4" = 1'-0"
140
0.75
141
12.0
290
     0
  0
SCALE
  5
57
102
{ACAD_REACTORS
330
3A
102
}
330
3A
100
AcDbScale
 70
     0
300
1" = 1'-0"
140
1.0
141
12.0
290
     0
  0
SCALE
  5
58
102
{ACAD_REACTORS
330
3A
102
}
330
3A
100
AcDbScale
 70
     0
300
1-1/2" = 1'-0"
140
1.5
141
12.0
290
     0
  0
SCALE
  5
59
102
{ACAD_REACTORS
330
3A
102
}
330
3A
100
AcDbScale
 70
     0
300
3" = 1'-0"
140
3.0
141
12.0
290
     0
  0
SCALE
  5
5A
102
{ACAD_REACTORS
330
3A
102
}
330
3A
100
AcDbScale
 70
     0
300
6" = 1'-0"
140
6.0
141
12.0
290
     0
  0
SCALE
  5
5B
102
{ACAD_REACTORS
330
3A
102
}
330
3A
100
AcDbScale
 70
     0
300
1'-0" = 1'-0"
140
12.0
141
12.0
290
     0
  0
TABLESTYLE
  5
6C
102
{ACAD_XDICTIONARY
360
1B2
102
}
102
{ACAD_REACTORS
330
6B
102
}
330
6B
100
AcDbTableStyle
  3
Standard
 70
     0
 71
     0
 40
0.06
 41
0.06
280
     0
281
     0
  7
STANDARD
140
0.18
170
     2
 62
     0
 63
     7
283
     0
274
    -2
284
     1
 64
     0
275
    -2
285
     1
 65
     0
276
    -2
286
     1
 66
     0
277
    -2
287
     1
 67
     0
278
    -2
288
     1
 68
     0
279
    -2
289
     1
 69
     0
  7
STANDARD
140
0.25
170
     5
 62
     0
 63
     7
283
     0
274
    -2
284
     1
 64
     0
275
    -2
285
     1
 65
     0
276
    -2
286
     1
 66
     0
277
    -2
287
     1
 67
     0
278
    -2
288
     1
 68
     0
279
    -2
289
     1
 69
     0
  7
STANDARD
140
0.18
170
     5
 62
     0
 63
     7
283
     0
274
    -2
284
     1
 64
     0
275
    -2
285
     1
 65
     0
276
    -2
286
     1
 66
     0
277
    -2
287
     1
 67
     0
278
    -2
288
     1
 68
     0
279
    -2
289
     1
 69
     0
  0
VISUALSTYLE
  5
2F
102
{ACAD_REACTORS
330
29
102
}
330
29
100
AcDbVisualStyle
  2
2dWireframe
 70
     4
 71
     0
 72
     2
 73
     0
 90
        0
 40
-0.6
 41
-30.0
 62
     5
 63
     7
 74
     1
 91
        4
 64
     7
 65
   257
 75
     1
175
     1
 42
1.0
 92
        0
 66
   257
 43
1.0
 76
     1
 77
     6
 78
     2
 67
     7
 79
     5
170
     0
171
     0
290
     0
174
     0
 93
        1
 44
0.0
173
     0
291
     0
 45
0.0
1001
ACAD
1000
AcDbSavedByObjectVersion
1070
     0
1000
AcDbSavedByObjectVersion
1070
     0
  0
VISUALSTYLE
  5
31
102
{ACAD_REACTORS
330
29
102
}
330
29
100
AcDbVisualStyle
  2
3D Hidden
 70
     6
 71
     1
 72
     2
 73
     2
 90
        0
 40
-0.6
 41
-30.0
 62
     5
 63
     7
 74
     2
 91
        2
 64
     7
 65
   257
 75
     2
175
     1
 42
40.0
 92
        0
 66
   257
 43
1.0
 76
     1
 77
     6
 78
     2
 67
     7
 79
     3
170
     0
171
     0
290
     0
174
     0
 93
        1
 44
0.0
173
     0
291
     0
 45
0.0
1001
ACAD
1000
AcDbSavedByObjectVersion
1070
     0
1000
AcDbSavedByObjectVersion
1070
     0
  0
VISUALSTYLE
  5
30
102
{ACAD_REACTORS
330
29
102
}
330
29
100
AcDbVisualStyle
  2
3dWireframe
 70
     5
 71
     0
 72
     2
 73
     0
 90
        0
 40
-0.6
 41
-30.0
 62
     5
 63
     7
 74
     1
 91
        4
 64
     7
 65
   257
 75
     1
175
     1
 42
1.0
 92
        0
 66
   257
 43
1.0
 76
     1
 77
     6
 78
     2
 67
     7
 79
     5
170
     0
171
     0
290
     0
174
     0
 93
        1
 44
0.0
173
     0
291
     0
 45
0.0
1001
ACAD
1000
AcDbSavedByObjectVersion
1070
     0
1000
AcDbSavedByObjectVersion
1070
     0
  0
VISUALSTYLE
  5
2E
102
{ACAD_REACTORS
330
29
102
}
330
29
100
AcDbVisualStyle
  2
Basic
 70
     7
 71
     1
 72
     0
 73
     1
 90
        0
 40
-0.6
 41
-30.0
 62
     5
 63
     7
 74
     0
 91
        4
 64
     7
 65
   257
 75
     1
175
     1
 42
1.0
 92
        8
 66
     7
 43
1.0
 76
     1
 77
     6
 78
     2
 67
     7
 79
     5
170
     0
171
     0
290
     0
174
     0
 93
        1
 44
0.0
173
     0
291
     1
 45
0.0
1001
ACAD
1000
AcDbSavedByObjectVersion
1070
     0
1000
AcDbSavedByObjectVersion
1070
     0
  0
VISUALSTYLE
  5
35
102
{ACAD_REACTORS
330
29
102
}
330
29
100
AcDbVisualStyle
  2
Brighten
 70
    12
 71
     2
 72
     2
 73
     0
 90
        0
 40
-0.6
 41
-30.0
 62
     5
 63
     7
 74
     1
 91
        4
 64
     7
 65
   257
 75
     1
175
     1
 42
1.0
 92
        8
 66
     7
 43
1.0
 76
     1
 77
     6
 78
     2
 67
     7
 79
     5
170
     0
171
     0
290
     0
174
     0
 93
        1
 44
50.0
173
     0
291
     1
 45
0.0
1001
ACAD
1000
AcDbSavedByObjectVersion
1070
     0
1000
AcDbSavedByObjectVersion
1070
     0
  0
VISUALSTYLE
  5
39
102
{ACAD_REACTORS
330
29
102
}
330
29
100
AcDbVisualStyle
  2
ColorChange
 70
    16
 71
     2
 72
     2
 73
     3
 90
        0
 40
-0.6
 41
-30.0
 62
     5
 63
     8
 74
     1
 91
        4
 64
     7
 65
   257
 75
     1
175
     1
 42
1.0
 92
        8
 66
     8
 43
1.0
 76
     1
 77
     6
 78
     2
 67
     7
 79
     5
170
     0
171
     0
290
     0
174
     0
 93
        1
 44
0.0
173
     0
291
     1
 45
0.0
1001
ACAD
1000
AcDbSavedByObjectVersion
1070
     0
1000
AcDbSavedByObjectVersion
1070
     0
  0
VISUALSTYLE
  5
32
102
{ACAD_REACTORS
330
29
102
}
330
29
100
AcDbVisualStyle
  2
Conceptual
 70
     9
 71
     3
 72
     2
 73
     0
 90
        0
 40
-0.6
 41
-30.0
 62
     5
 63
     7
 74
     2
 91
        2
 64
     7
 65
   257
 75
     1
175
     1
 42
40.0
 92
        8
 66
     7
 43
1.0
 76
     1
 77
     6
 78
     2
 67
     7
 79
     3
170
     0
171
     0
290
     0
174
     0
 93
        1
 44
0.0
173
     0
291
     0
 45
0.0
1001
ACAD
1000
AcDbSavedByObjectVersion
1070
     0
1000
AcDbSavedByObjectVersion
1070
     0
  0
VISUALSTYLE
  5
34
102
{ACAD_REACTORS
330
29
102
}
330
29
100
AcDbVisualStyle
  2
Dim
 70
    11
 71
     2
 72
     2
 73
     0
 90
        0
 40
-0.6
 41
-30.0
 62
     5
 63
     7
 74
     1
 91
        4
 64
     7
 65
   257
 75
     1
175
     1
 42
1.0
 92
        8
 66
     7
 43
1.0
 76
     1
 77
     6
 78
     2
 67
     7
 79
     5
170
     0
171
     0
290
     0
174
     0
 93
        1
 44
-50.0
173
     0
291
     1
 45
0.0
1001
ACAD
1000
AcDbSavedByObjectVersion
1070
     0
1000
AcDbSavedByObjectVersion
1070
     0
  0
VISUALSTYLE
  5
38
102
{ACAD_REACTORS
330
29
102
}
330
29
100
AcDbVisualStyle
  2
Facepattern
 70
    15
 71
     2
 72
     2
 73
     0
 90
        0
 40
-0.6
 41
-30.0
 62
     5
 63
     7
 74
     1
 91
        4
 64
     7
 65
   257
 75
     1
175
     1
 42
1.0
 92
        8
 66
     7
 43
1.0
 76
     1
 77
     6
 78
     2
 67
     7
 79
     5
170
     0
171
     0
290
     0
174
     0
 93
        1
 44
0.0
173
     0
291
     1
 45
0.0
1001
ACAD
1000
AcDbSavedByObjectVersion
1070
     0
1000
AcDbSavedByObjectVersion
1070
     0
  0
VISUALSTYLE
  5
2A
102
{ACAD_REACTORS
330
29
102
}
330
29
100
AcDbVisualStyle
  2
Flat
 70
     0
 71
     2
 72
     1
 73
     1
 90
        2
 40
-0.6
 41
30.0
 62
     5
 63
     7
 74
     0
 91
        4
 64
     7
 65
   257
 75
     1
175
     1
 42
1.0
 92
        8
 66
     7
 43
1.0
 76
     1
 77
     6
 78
     2
 67
     7
 79
     5
170
     0
171
     0
290
     0
174
     0
 93
       13
 44
0.0
173
     0
291
     1
 45
0.0
1001
ACAD
1000
AcDbSavedByObjectVersion
1070
     0
1000
AcDbSavedByObjectVersion
1070
     0
  0
VISUALSTYLE
  5
2B
102
{ACAD_REACTORS
330
29
102
}
330
29
100
AcDbVisualStyle
  2
FlatWithEdges
 70
     1
 71
     2
 72
     1
 73
     1
 90
        2
 40
-0.6
 41
30.0
 62
     5
 63
     7
 74
     1
 91
        4
 64
     7
 65
   257
 75
     1
175
     1
 42
1.0
 92
        0
 66
   257
 43
1.0
 76
     1
 77
     6
 78
     2
 67
     7
 79
     5
170
     0
171
     0
290
     0
174
     0
 93
       13
 44
0.0
173
     0
291
     1
 45
0.0
1001
ACAD
1000
AcDbSavedByObjectVersion
1070
     0
1000
AcDbSavedByObjectVersion
1070
     0
  0
VISUALSTYLE
  5
2C
102
{ACAD_REACTORS
330
29
102
}
330
29
100
AcDbVisualStyle
  2
Gouraud
 70
     2
 71
     2
 72
     2
 73
     1
 90
        2
 40
-0.6
 41
30.0
 62
     5
 63
     7
 74
     0
 91
        4
 64
     7
 65
   257
 75
     1
175
     1
 42
1.0
 92
        0
 66
     7
 43
1.0
 76
     1
 77
     6
 78
     2
 67
     7
 79
     5
170
     0
171
     0
290
     0
174
     0
 93
       13
 44
0.0
173
     0
291
     1
 45
0.0
1001
ACAD
1000
AcDbSavedByObjectVersion
1070
     0
1000
AcDbSavedByObjectVersion
1070
     0
  0
VISUALSTYLE
  5
2D
102
{ACAD_REACTORS
330
29
102
}
330
29
100
AcDbVisualStyle
  2
GouraudWithEdges
 70
     3
 71
     2
 72
     2
 73
     1
 90
        2
 40
-0.6
 41
30.0
 62
     5
 63
     7
 74
     1
 91
        4
 64
     7
 65
   257
 75
     1
175
     1
 42
1.0
 92
        0
 66
   257
 43
1.0
 76
     1
 77
     6
 78
     2
 67
     7
 79
     5
170
     0
171
     0
290
     0
174
     0
 93
       13
 44
0.0
173
     0
291
     1
 45
0.0
1001
ACAD
1000
AcDbSavedByObjectVersion
1070
     0
1000
AcDbSavedByObjectVersion
1070
     0
  0
VISUALSTYLE
  5
37
102
{ACAD_REACTORS
330
29
102
}
330
29
100
AcDbVisualStyle
  2
Linepattern
 70
    14
 71
     2
 72
     2
 73
     0
 90
        0
 40
-0.6
 41
-30.0
 62
     5
 63
     7
 74
     1
 91
        4
 64
     7
 65
   257
 75
     7
175
     7
 42
1.0
 92
        8
 66
     7
 43
1.0
 76
     1
 77
     6
 78
     2
 67
     7
 79
     5
170
     0
171
     0
290
     0
174
     0
 93
        1
 44
0.0
173
     0
291
     1
 45
0.0
1001
ACAD
1000
AcDbSavedByObjectVersion
1070
     0
1000
AcDbSavedByObjectVersion
1070
     0
  0
VISUALSTYLE
  5
33
102
{ACAD_REACTORS
330
29
102
}
330
29
100
AcDbVisualStyle
  2
Realistic
 70
     8
 71
     2
 72
     2
 73
     0
 90
        0
 40
-0.6
 41
-30.0
 62
     5
 63
     7
 74
     1
 91
        0
 64
     7
 65
   257
 75
     1
175
     1
 42
1.0
 92
        8
 66
     8
 43
1.0
 76
     1
 77
     6
 78
     2
 67
     7
 79
     5
170
     0
171
     0
290
     0
174
     0
 93
       13
 44
0.0
173
     0
291
     0
 45
0.0
1001
ACAD
1000
AcDbSavedByObjectVersion
1070
     0
1000
AcDbSavedByObjectVersion
1070
     0
  0
VISUALSTYLE
  5
36
102
{ACAD_REACTORS
330
29
102
}
330
29
100
AcDbVisualStyle
  2
Thicken
 70
    13
 71
     2
 72
     2
 73
     0
 90
        0
 40
-0.6
 41
-30.0
 62
     5
 63
     7
 74
     1
 91
        4
 64
     7
 65
   257
 75
     1
175
     1
 42
1.0
 92
       12
 66
     7
 43
1.0
 76
     1
 77
     6
 78
     2
 67
     7
 79
     5
170
     0
171
     0
290
     0
174
     0
 93
        1
 44
0.0
173
     0
291
     1
 45
0.0
1001
ACAD
1000
AcDbSavedByObjectVersion
1070
     0
1000
AcDbSavedByObjectVersion
1070
     0
  0
DICTIONARYVAR
  5
1CC
102
{ACAD_REACTORS
330
1C9
102
}
330
1C9
100
DictionaryVariables
280
     0
  1
1:4
  0
DICTIONARYVAR
  5
1CB
102
{ACAD_REACTORS
330
1C9
102
}
330
1C9
100
DictionaryVariables
280
     0
  1
STANDARD
  0
DICTIONARYVAR
  5
1CA
102
{ACAD_REACTORS
330
1C9
102
}
330
1C9
100
DictionaryVariables
280
     0
  1
STANDARD
  0
DICTIONARYVAR
  5
1CF
102
{ACAD_REACTORS
330
1C9
102
}
330
1C9
100
DictionaryVariables
280
     0
  1
1
  0
DICTIONARYVAR
  5
1CE
102
{ACAD_REACTORS
330
1C9
102
}
330
1C9
100
DictionaryVariables
280
     0
  1
0
  0
DICTIONARYVAR
  5
2D3
102
{ACAD_REACTORS
330
1C9
102
}
330
1C9
100
DictionaryVariables
280
     0
  1
0
  0
DICTIONARYVAR
  5
2D2
102
{ACAD_REACTORS
330
1C9
102
}
330
1C9
100
DictionaryVariables
280
     0
  1
0
  0
DICTIONARYVAR
  5
1CD
102
{ACAD_REACTORS
330
1C9
102
}
330
1C9
100
DictionaryVariables
280
     0
  1
127
  0
DICTIONARY
  5
2B6
102
{ACAD_REACTORS
330
166
102
}
330
166
100
AcDbDictionary
281
     1
  0
DICTIONARY
  5
171
102
{ACAD_REACTORS
330
166
102
}
330
166
100
AcDbDictionary
281
     1
  0
XRECORD
  5
186
102
{ACAD_REACTORS
330
166
102
}
330
166
100
AcDbXrecord
280
     1
 90
-1023410169
  0
XRECORD
  5
30B5
102
{ACAD_REACTORS
330
30B4
102
}
330
30B4
100
AcDbXrecord
280
     1
330
3BC
330
30AC
330
30B3
330
B3D
  0
DICTIONARY
  5
1A
330
19
100
AcDbDictionary
280
     1
281
     1
  3
ACAD_XREC_ROUNDTRIP
360
30BB
  3
BUMPTILE
360
1C
  3
DIFFUSETILE
360
1B
  3
OPACITYTILE
360
1F
  3
REFLECTIONTILE
360
1E
  3
REFRACTIONTILE
360
20
  3
SPECULARTILE
360
1D
  0
DICTIONARY
  5
12
330
11
100
AcDbDictionary
280
     1
281
     1
  3
ACAD_XREC_ROUNDTRIP
360
30BA
  3
BUMPTILE
360
14
  3
DIFFUSETILE
360
13
  3
OPACITYTILE
360
17
  3
REFLECTIONTILE
360
16
  3
REFRACTIONTILE
360
18
  3
SPECULARTILE
360
15
  0
DICTIONARY
  5
22
330
21
100
AcDbDictionary
280
     1
281
     1
  3
ACAD_XREC_ROUNDTRIP
360
30BC
  3
BUMPTILE
360
24
  3
DIFFUSETILE
360
23
  3
OPACITYTILE
360
27
  3
REFLECTIONTILE
360
26
  3
REFRACTIONTILE
360
28
  3
SPECULARTILE
360
25
  0
DICTIONARY
  5
1B2
330
6C
100
AcDbDictionary
280
     1
281
     1
  3
ACAD_ROUNDTRIP_2008_TABLESTYLE_CELLSTYLEMAP
360
3202
  3
ACAD_XREC_ROUNDTRIP
360
3205
  0
XRECORD
  5
30BB
102
{ACAD_REACTORS
330
1A
102
}
330
1A
100
AcDbXrecord
280
     1
102
MATERIAL
148
0.0
149
0.0
149
0.0
 93
        0
 94
      127
282
     0
 72
     0
 77
     0
171
     0
175
     0
179
     0
273
     0
  0
XRECORD
  5
1C
102
{ACAD_REACTORS
330
1A
102
}
330
1A
100
AcDbXrecord
280
     1
270
     1
271
     1
  0
XRECORD
  5
1B
102
{ACAD_REACTORS
330
1A
102
}
330
1A
100
AcDbXrecord
280
     1
270
     1
271
     1
  0
XRECORD
  5
1F
102
{ACAD_REACTORS
330
1A
102
}
330
1A
100
AcDbXrecord
280
     1
270
     1
271
     1
  0
XRECORD
  5
1E
102
{ACAD_REACTORS
330
1A
102
}
330
1A
100
AcDbXrecord
280
     1
270
     1
271
     1
  0
XRECORD
  5
20
102
{ACAD_REACTORS
330
1A
102
}
330
1A
100
AcDbXrecord
280
     1
270
     1
271
     1
  0
XRECORD
  5
1D
102
{ACAD_REACTORS
330
1A
102
}
330
1A
100
AcDbXrecord
280
     1
270
     1
271
     1
  0
XRECORD
  5
30BA
102
{ACAD_REACTORS
330
12
102
}
330
12
100
AcDbXrecord
280
     1
102
MATERIAL
148
0.0
149
0.0
149
0.0
 93
        0
 94
      127
282
     0
 72
     0
 77
     0
171
     0
175
     0
179
     0
273
     0
  0
XRECORD
  5
14
102
{ACAD_REACTORS
330
12
102
}
330
12
100
AcDbXrecord
280
     1
270
     1
271
     1
  0
XRECORD
  5
13
102
{ACAD_REACTORS
330
12
102
}
330
12
100
AcDbXrecord
280
     1
270
     1
271
     1
  0
XRECORD
  5
17
102
{ACAD_REACTORS
330
12
102
}
330
12
100
AcDbXrecord
280
     1
270
     1
271
     1
  0
XRECORD
  5
16
102
{ACAD_REACTORS
330
12
102
}
330
12
100
AcDbXrecord
280
     1
270
     1
271
     1
  0
XRECORD
  5
18
102
{ACAD_REACTORS
330
12
102
}
330
12
100
AcDbXrecord
280
     1
270
     1
271
     1
  0
XRECORD
  5
15
102
{ACAD_REACTORS
330
12
102
}
330
12
100
AcDbXrecord
280
     1
270
     1
271
     1
  0
XRECORD
  5
30BC
102
{ACAD_REACTORS
330
22
102
}
330
22
100
AcDbXrecord
280
     1
102
MATERIAL
148
0.0
149
0.0
149
0.0
 93
        0
 94
      127
282
     0
 72
     0
 77
     0
171
     0
175
     0
179
     0
273
     0
  0
XRECORD
  5
24
102
{ACAD_REACTORS
330
22
102
}
330
22
100
AcDbXrecord
280
     1
270
     1
271
     1
  0
XRECORD
  5
23
102
{ACAD_REACTORS
330
22
102
}
330
22
100
AcDbXrecord
280
     1
270
     1
271
     1
  0
XRECORD
  5
27
102
{ACAD_REACTORS
330
22
102
}
330
22
100
AcDbXrecord
280
     1
270
     1
271
     1
  0
XRECORD
  5
26
102
{ACAD_REACTORS
330
22
102
}
330
22
100
AcDbXrecord
280
     1
270
     1
271
     1
  0
XRECORD
  5
28
102
{ACAD_REACTORS
330
22
102
}
330
22
100
AcDbXrecord
280
     1
270
     1
271
     1
  0
XRECORD
  5
25
102
{ACAD_REACTORS
330
22
102
}
330
22
100
AcDbXrecord
280
     1
270
     1
271
     1
  0
CELLSTYLEMAP
  5
3202
102
{ACAD_REACTORS
330
1B2
102
}
330
1B2
100
AcDbCellStyleMap
 90
        3
300
CELLSTYLE
  1
TABLEFORMAT_BEGIN
 90
        5
170
     1
 91
        0
 92
    32768
 62
   257
 93
        1
300
CONTENTFORMAT
  1
CONTENTFORMAT_BEGIN
 90
        0
 91
        0
 92
      512
 93
        0
300

 40
0.0
140
1.0
 94
        5
 62
     0
340
5D
144
0.25
309
CONTENTFORMAT_END
171
     1
301
MARGIN
  1
CELLMARGIN_BEGIN
 40
0.06
 40
0.06
 40
0.06
 40
0.06
 40
0.18
 40
0.18
309
CELLMARGIN_END
 94
        6
 95
        1
302
GRIDFORMAT
  1
GRIDFORMAT_BEGIN
 90
        0
 91
        1
 62
     0
 92
       -2
340
0
 93
        0
 40
0.045
309
GRIDFORMAT_END
 95
        2
302
GRIDFORMAT
  1
GRIDFORMAT_BEGIN
 90
        0
 91
        1
 62
     0
 92
       -2
340
0
 93
        0
 40
0.045
309
GRIDFORMAT_END
 95
        4
302
GRIDFORMAT
  1
GRIDFORMAT_BEGIN
 90
        0
 91
        1
 62
     0
 92
       -2
340
0
 93
        0
 40
0.045
309
GRIDFORMAT_END
 95
        8
302
GRIDFORMAT
  1
GRIDFORMAT_BEGIN
 90
        0
 91
        1
 62
     0
 92
       -2
340
0
 93
        0
 40
0.045
309
GRIDFORMAT_END
 95
       16
302
GRIDFORMAT
  1
GRIDFORMAT_BEGIN
 90
        0
 91
        1
 62
     0
 92
       -2
340
0
 93
        0
 40
0.045
309
GRIDFORMAT_END
 95
       32
302
GRIDFORMAT
  1
GRIDFORMAT_BEGIN
 90
        0
 91
        1
 62
     0
 92
       -2
340
0
 93
        0
 40
0.045
309
GRIDFORMAT_END
309
TABLEFORMAT_END
  1
CELLSTYLE_BEGIN
 90
        1
 91
        1
300
_TITLE
309
CELLSTYLE_END
300
CELLSTYLE
  1
TABLEFORMAT_BEGIN
 90
        5
170
     1
 91
        0
 92
        0
 62
   257
 93
        1
300
CONTENTFORMAT
  1
CONTENTFORMAT_BEGIN
 90
        0
 91
        0
 92
      512
 93
        0
300

 40
0.0
140
1.0
 94
        5
 62
     0
340
5D
144
0.18
309
CONTENTFORMAT_END
171
     1
301
MARGIN
  1
CELLMARGIN_BEGIN
 40
0.06
 40
0.06
 40
0.06
 40
0.06
 40
0.18
 40
0.18
309
CELLMARGIN_END
 94
        6
 95
        1
302
GRIDFORMAT
  1
GRIDFORMAT_BEGIN
 90
        0
 91
        1
 62
     0
 92
       -2
340
0
 93
        0
 40
0.045
309
GRIDFORMAT_END
 95
        2
302
GRIDFORMAT
  1
GRIDFORMAT_BEGIN
 90
        0
 91
        1
 62
     0
 92
       -2
340
0
 93
        0
 40
0.045
309
GRIDFORMAT_END
 95
        4
302
GRIDFORMAT
  1
GRIDFORMAT_BEGIN
 90
        0
 91
        1
 62
     0
 92
       -2
340
0
 93
        0
 40
0.045
309
GRIDFORMAT_END
 95
        8
302
GRIDFORMAT
  1
GRIDFORMAT_BEGIN
 90
        0
 91
        1
 62
     0
 92
       -2
340
0
 93
        0
 40
0.045
309
GRIDFORMAT_END
 95
       16
302
GRIDFORMAT
  1
GRIDFORMAT_BEGIN
 90
        0
 91
        1
 62
     0
 92
       -2
340
0
 93
        0
 40
0.045
309
GRIDFORMAT_END
 95
       32
302
GRIDFORMAT
  1
GRIDFORMAT_BEGIN
 90
        0
 91
        1
 62
     0
 92
       -2
340
0
 93
        0
 40
0.045
309
GRIDFORMAT_END
309
TABLEFORMAT_END
  1
CELLSTYLE_BEGIN
 90
        2
 91
        1
300
_HEADER
309
CELLSTYLE_END
300
CELLSTYLE
  1
TABLEFORMAT_BEGIN
 90
        5
170
     1
 91
        0
 92
        0
 62
   257
 93
        1
300
CONTENTFORMAT
  1
CONTENTFORMAT_BEGIN
 90
        0
 91
        0
 92
      512
 93
        0
300

 40
0.0
140
1.0
 94
        2
 62
     0
340
5D
144
0.18
309
CONTENTFORMAT_END
171
     1
301
MARGIN
  1
CELLMARGIN_BEGIN
 40
0.06
 40
0.06
 40
0.06
 40
0.06
 40
0.18
 40
0.18
309
CELLMARGIN_END
 94
        6
 95
        1
302
GRIDFORMAT
  1
GRIDFORMAT_BEGIN
 90
        0
 91
        1
 62
     0
 92
       -2
340
0
 93
        0
 40
0.045
309
GRIDFORMAT_END
 95
        2
302
GRIDFORMAT
  1
GRIDFORMAT_BEGIN
 90
        0
 91
        1
 62
     0
 92
       -2
340
0
 93
        0
 40
0.045
309
GRIDFORMAT_END
 95
        4
302
GRIDFORMAT
  1
GRIDFORMAT_BEGIN
 90
        0
 91
        1
 62
     0
 92
       -2
340
0
 93
        0
 40
0.045
309
GRIDFORMAT_END
 95
        8
302
GRIDFORMAT
  1
GRIDFORMAT_BEGIN
 90
        0
 91
        1
 62
     0
 92
       -2
340
0
 93
        0
 40
0.045
309
GRIDFORMAT_END
 95
       16
302
GRIDFORMAT
  1
GRIDFORMAT_BEGIN
 90
        0
 91
        1
 62
     0
 92
       -2
340
0
 93
        0
 40
0.045
309
GRIDFORMAT_END
 95
       32
302
GRIDFORMAT
  1
GRIDFORMAT_BEGIN
 90
        0
 91
        1
 62
     0
 92
       -2
340
0
 93
        0
 40
0.045
309
GRIDFORMAT_END
309
TABLEFORMAT_END
  1
CELLSTYLE_BEGIN
 90
        3
 91
        2
300
_DATA
309
CELLSTYLE_END
  0
XRECORD
  5
3205
102
{ACAD_REACTORS
330
1B2
102
}
330
1B2
100
AcDbXrecord
280
     1
102
ACAD_ROUNDTRIP_PRE2007_TABLESTYLE
 90
      512
 91
        0
  1

 92
      512
 93
        0
  2

 94
      512
 95
        0
  3

  0
ENDSEC
  0
EOF
