  0
SECTION
  2
HEADER
  9
$ACADVER
  1
AC1018
  9
$ACADMAINTVER
 70
   104
  9
$DWGCODEPAGE
  3
ANSI_1252
  9
$LASTSAVEDBY
  1
guzb562
  9
$INSBASE
 10
0.0
 20
0.0
 30
0.0
  9
$EXTMIN
 10
3904.352775737818
 20
3221.518267092199
 30
-0.0000000000000153
  9
$EXTMAX
 10
4626.760882014955
 20
4477.296765057015
 30
0.0
  9
$LIMMIN
 10
0.0
 20
0.0
  9
$LIMMAX
 10
8400.0
 20
5940.0
  9
$ORTHOMODE
 70
     0
  9
$REGENMODE
 70
     1
  9
$FILLMODE
 70
     1
  9
$QTEXTMODE
 70
     0
  9
$MIRRTEXT
 70
     1
  9
$LTSCALE
 40
20.0
  9
$ATTMODE
 70
     1
  9
$TEXTSIZE
 40
3.5
  9
$TRACEWID
 40
1.0
  9
$TEXTSTYLE
  7
STANDARD
  9
$CLAYER
  8
AM_2 ( Kontur 0.25)
  9
$CELTYPE
  6
ByLayer
  9
$CECOLOR
 62
   256
  9
$CELTSCALE
 40
1.0
  9
$DISPSILH
 70
     0
  9
$DIMSCALE
 40
1.0
  9
$DIMASZ
 40
5.0
  9
$DIMEXO
 40
1.0
  9
$DIMDLI
 40
10.0
  9
$DIMRND
 40
0.0
  9
$DIMDLE
 40
0.0
  9
$DIMEXE
 40
1.0
  9
$DIMTP
 40
0.1
  9
$DIMTM
 40
0.1
  9
$DIMTXT
 40
5.0
  9
$DIMCEN
 40
0.0
  9
$DIMTSZ
 40
0.0
  9
$DIMTOL
 70
     0
  9
$DIMLIM
 70
     0
  9
$DIMTIH
 70
     0
  9
$DIMTOH
 70
     0
  9
$DIMSE1
 70
     0
  9
$DIMSE2
 70
     0
  9
$DIMTAD
 70
     1
  9
$DIMZIN
 70
     8
  9
$DIMBLK
  1

  9
$DIMASO
 70
     1
  9
$DIMSHO
 70
     1
  9
$DIMPOST
  1

  9
$DIMAPOST
  1
"
  9
$DIMALT
 70
     0
  9
$DIMALTD
 70
     2
  9
$DIMALTF
 40
0.0393701
  9
$DIMLFAC
 40
1.0
  9
$DIMTOFL
 70
     1
  9
$DIMTVP
 40
0.0
  9
$DIMTIX
 70
     0
  9
$DIMSOXD
 70
     0
  9
$DIMSAH
 70
     0
  9
$DIMBLK1
  1

  9
$DIMBLK2
  1

  9
$DIMSTYLE
  2
AM_DIN
  9
$DIMCLRD
 70
   256
  9
$DIMCLRE
 70
   256
  9
$DIMCLRT
 70
     2
  9
$DIMTFAC
 40
0.71
  9
$DIMGAP
 40
1.5
  9
$DIMJUST
 70
     0
  9
$DIMSD1
 70
     0
  9
$DIMSD2
 70
     0
  9
$DIMTOLJ
 70
     0
  9
$DIMTZIN
 70
     8
  9
$DIMALTZ
 70
     0
  9
$DIMALTTZ
 70
     0
  9
$DIMUPT
 70
     0
  9
$DIMDEC
 70
     2
  9
$DIMTDEC
 70
     2
  9
$DIMALTU
 70
     2
  9
$DIMALTTD
 70
     2
  9
$DIMTXSTY
  7
STANDARD
  9
$DIMAUNIT
 70
     0
  9
$DIMADEC
 70
     0
  9
$DIMALTRND
 40
0.0
  9
$DIMAZIN
 70
     2
  9
$DIMDSEP
 70
    46
  9
$DIMATFIT
 70
     3
  9
$DIMFRAC
 70
     0
  9
$DIMLDRBLK
  1

  9
$DIMLUNIT
 70
     2
  9
$DIMLWD
 70
    -1
  9
$DIMLWE
 70
    -1
  9
$DIMTMOVE
 70
     0
  9
$LUNITS
 70
     2
  9
$LUPREC
 70
     2
  9
$SKETCHINC
 40
1.0
  9
$FILLETRAD
 40
50.0
  9
$AUNITS
 70
     0
  9
$AUPREC
 70
     0
  9
$MENU
  1
ACAD
  9
$ELEVATION
 40
0.0
  9
$PELEVATION
 40
0.0
  9
$THICKNESS
 40
0.0
  9
$LIMCHECK
 70
     0
  9
$CHAMFERA
 40
50.0
  9
$CHAMFERB
 40
50.0
  9
$CHAMFERC
 40
0.0
  9
$CHAMFERD
 40
0.0
  9
$SKPOLY
 70
     0
  9
$TDCREATE
 40
2454721.555362628
  9
$TDUCREATE
 40
2454721.472029294
  9
$TDUPDATE
 40
2454722.478835116
  9
$TDUUPDATE
 40
2454722.395501782
  9
$TDINDWG
 40
0.0423955671
  9
$TDUSRTIMER
 40
0.0423939352
  9
$USRTIMER
 70
     1
  9
$ANGBASE
 50
0.0
  9
$ANGDIR
 70
     0
  9
$PDMODE
 70
     0
  9
$PDSIZE
 40
0.0
  9
$PLINEWID
 40
0.0
  9
$SPLFRAME
 70
     0
  9
$SPLINETYPE
 70
     6
  9
$SPLINESEGS
 70
    12
  9
$HANDSEED
  5
323B
  9
$SURFTAB1
 70
     6
  9
$SURFTAB2
 70
     6
  9
$SURFTYPE
 70
     6
  9
$SURFU
 70
     6
  9
$SURFV
 70
     6
  9
$UCSBASE
  2

  9
$UCSNAME
  2

  9
$UCSORG
 10
0.0
 20
0.0
 30
0.0
  9
$UCSXDIR
 10
1.0
 20
0.0
 30
0.0
  9
$UCSYDIR
 10
0.0
 20
1.0
 30
0.0
  9
$UCSORTHOREF
  2

  9
$UCSORTHOVIEW
 70
     0
  9
$UCSORGTOP
 10
0.0
 20
0.0
 30
0.0
  9
$UCSORGBOTTOM
 10
0.0
 20
0.0
 30
0.0
  9
$UCSORGLEFT
 10
0.0
 20
0.0
 30
0.0
  9
$UCSORGRIGHT
 10
0.0
 20
0.0
 30
0.0
  9
$UCSORGFRONT
 10
0.0
 20
0.0
 30
0.0
  9
$UCSORGBACK
 10
0.0
 20
0.0
 30
0.0
  9
$PUCSBASE
  2

  9
$PUCSNAME
  2

  9
$PUCSORG
 10
0.0
 20
0.0
 30
0.0
  9
$PUCSXDIR
 10
1.0
 20
0.0
 30
0.0
  9
$PUCSYDIR
 10
0.0
 20
1.0
 30
0.0
  9
$PUCSORTHOREF
  2

  9
$PUCSORTHOVIEW
 70
     0
  9
$PUCSORGTOP
 10
0.0
 20
0.0
 30
0.0
  9
$PUCSORGBOTTOM
 10
0.0
 20
0.0
 30
0.0
  9
$PUCSORGLEFT
 10
0.0
 20
0.0
 30
0.0
  9
$PUCSORGRIGHT
 10
0.0
 20
0.0
 30
0.0
  9
$PUCSORGFRONT
 10
0.0
 20
0.0
 30
0.0
  9
$PUCSORGBACK
 10
0.0
 20
0.0
 30
0.0
  9
$USERI1
 70
     0
  9
$USERI2
 70
     0
  9
$USERI3
 70
     0
  9
$USERI4
 70
     0
  9
$USERI5
 70
     0
  9
$USERR1
 40
0.0
  9
$USERR2
 40
0.0
  9
$USERR3
 40
0.0
  9
$USERR4
 40
0.0
  9
$USERR5
 40
0.0
  9
$WORLDVIEW
 70
     1
  9
$SHADEDGE
 70
     3
  9
$SHADEDIF
 70
    70
  9
$TILEMODE
 70
     1
  9
$MAXACTVP
 70
    64
  9
$PINSBASE
 10
0.0
 20
0.0
 30
0.0
  9
$PLIMCHECK
 70
     0
  9
$PEXTMIN
 10
1.000000000000000E+20
 20
1.000000000000000E+20
 30
1.000000000000000E+20
  9
$PEXTMAX
 10
-1.000000000000000E+20
 20
-1.000000000000000E+20
 30
-1.000000000000000E+20
  9
$PLIMMIN
 10
0.0
 20
0.0
  9
$PLIMMAX
 10
12.0
 20
9.0
  9
$UNITMODE
 70
     0
  9
$VISRETAIN
 70
     1
  9
$PLINEGEN
 70
     0
  9
$PSLTSCALE
 70
     1
  9
$TREEDEPTH
 70
  3020
  9
$CMLSTYLE
  2
Standard
  9
$CMLJUST
 70
     0
  9
$CMLSCALE
 40
1.0
  9
$PROXYGRAPHICS
 70
     1
  9
$MEASUREMENT
 70
     1
  9
$CELWEIGHT
370
    -1
  9
$ENDCAPS
280
     0
  9
$JOINSTYLE
280
     0
  9
$LWDISPLAY
290
     0
  9
$INSUNITS
 70
     4
  9
$HYPERLINKBASE
  1

  9
$STYLESHEET
  1

  9
$XEDIT
290
     1
  9
$CEPSNTYPE
380
     0
  9
$PSTYLEMODE
290
     1
  9
$FINGERPRINTGUID
  2
{4C071292-662D-4442-88CE-2D75C0717A93}
  9
$VERSIONGUID
  2
{940C7A8D-2879-4A29-B403-1EA3F5B10EDB}
  9
$EXTNAMES
290
     1
  9
$PSVPSCALE
 40
0.0
  9
$OLESTARTUP
290
     0
  9
$SORTENTS
280
   127
  9
$INDEXCTL
280
     0
  9
$HIDETEXT
280
     0
  9
$XCLIPFRAME
290
     0
  9
$HALOGAP
280
     0
  9
$OBSCOLOR
 70
   257
  9
$OBSLTYPE
280
     0
  9
$INTERSECTIONDISPLAY
280
     0
  9
$INTERSECTIONCOLOR
 70
   257
  9
$DIMASSOC
280
     2
  9
$PROJECTNAME
  1

  0
ENDSEC
  0
SECTION
  2
CLASSES
  0
CLASS
  1
ACDBDICTIONARYWDFLT
  2
AcDbDictionaryWithDefault
  3
ObjectDBX Classes
 90
        0
 91
        1
280
     0
281
     0
  0
CLASS
  1
MATERIAL
  2
AcDbMaterial
  3
ObjectDBX Classes
 90
     1153
 91
        3
280
     0
281
     0
  0
CLASS
  1
VISUALSTYLE
  2
AcDbVisualStyle
  3
ObjectDBX Classes
 90
     4095
 91
       16
280
     0
281
     0
  0
CLASS
  1
SCALE
  2
AcDbScale
  3
ObjectDBX Classes
 90
     1153
 91
       34
280
     0
281
     0
  0
CLASS
  1
TABLESTYLE
  2
AcDbTableStyle
  3
ObjectDBX Classes
 90
     4095
 91
        1
280
     0
281
     0
  0
CLASS
  1
MLEADERSTYLE
  2
AcDbMLeaderStyle
  3
ACDB_MLEADERSTYLE_CLASS
 90
     4095
 91
        1
280
     0
281
     0
  0
CLASS
  1
AMGSETTINGSOBJ
  2
AmgSettingsObj
  3
"AcadM|Product Description: AutoCAD Mechanical|Company: Autodesk, Inc."
 90
     1024
 91
        2
280
     0
281
     0
  0
CLASS
  1
ACME_DOCUMENT
  2
AcMeDbDoc
  3
AcMeServices
 90
     1024
 91
        1
280
     0
281
     0
  0
CLASS
  1
ACMESCOPE
  2
AcMeScope
  3
AcMeServices
 90
     1024
 91
        1
280
     0
281
     0
  0
CLASS
  1
ACMECOMMANDHISTORY
  2
AcMeCommandHistory
  3
AcMeServices
 90
     1024
 91
        1
280
     0
281
     0
  0
CLASS
  1
ACIMSYSVARMAN
  2
AcImSysVarManager
  3
AcMeServices
 90
     1024
 91
        5
280
     0
281
     0
  0
CLASS
  1
ACIMINTSYSVAR
  2
AcImIntSysVar
  3
AcMeServices
 90
     1024
 91
       27
280
     0
281
     0
  0
CLASS
  1
ACMEDRAWINGMAN
  2
AcMeDrawingMan
  3
AcMeServices
 90
     1024
 91
        1
280
     0
281
     0
  0
CLASS
  1
ACMEVIEW
  2
AcMeView
  3
AcMeServices
 90
     1024
 91
        1
280
     0
281
     0
  0
CLASS
  1
ACDBENTITYCACHE
  2
AcMeEntityCache
  3
AcMeServices
 90
     1024
 91
        1
280
     0
281
     0
  0
CLASS
  1
GSMANAGER
  2
AcMeGSManager
  3
AcMeServices
 90
     1024
 91
        1
280
     0
281
     0
  0
CLASS
  1
AMDTINTERNALREACTOR
  2
AmdtInternalReactor
  3
AcMeServices
 90
     1024
 91
        2
280
     0
281
     0
  0
CLASS
  1
ACMESTATEMGR
  2
AcMeStateMgr
  3
AcMeServices
 90
     1024
 91
        1
280
     0
281
     0
  0
CLASS
  1
ACGREFMASTER
  2
AcGrefMaster
  3
AcAttribServices
 90
     1024
 91
        1
280
     0
281
     0
  0
CLASS
  1
AM_DRAWING_MGR
  2
AcDmDwgMgr
  3
AcMechDwgViewMgmt
 90
     1024
 91
        1
280
     0
281
     0
  0
CLASS
  1
AM_DWG_DOCUMENT
  2
AcDmDwgDocument
  3
AcMechDwgViewMgmt
 90
     1024
 91
        1
280
     0
281
     0
  0
CLASS
  1
AM_DWG_SHEET
  2
AcDmSheet
  3
AcMechDwgViewMgmt
 90
     1024
 91
        1
280
     0
281
     0
  0
CLASS
  1
AM_VIEWDIMPARMAP
  2
AcDmViewDimParMap
  3
AcMechDwgViewMgmt
 90
     1024
 91
        1
280
     0
281
     0
  0
CLASS
  1
ACIMREALSYSVAR
  2
AcImRealSysVar
  3
AcMeServices
 90
     1024
 91
        1
280
     0
281
     0
  0
CLASS
  1
AM_DWGMGR_NAME
  2
AcDmDwgMgrName
  3
AcMechDwgViewMgmt
 90
     1024
 91
        1
280
     0
281
     0
  0
CLASS
  1
ACME_DATABASE
  2
AcMeDbDatabase
  3
AcMeServices
 90
     1024
 91
        1
280
     0
281
     0
  0
CLASS
  1
ACRFINSADJUSTERMGR
  2
AcRfInsAdjusterMgr
  3
AcMeServices
 90
     1024
 91
        1
280
     0
281
     0
  0
CLASS
  1
ACGREFACADMASTER
  2
AcGrefacadMaster
  3
AcGrefServices
 90
     1024
 91
        1
280
     0
281
     0
  0
CLASS
  1
AMDTMENUSTATEMGR
  2
AmdtMenuStateMgr
  3
McadcomServices
 90
     1024
 91
        1
280
     0
281
     0
  0
CLASS
  1
AMDTMCOMMENUSTATE
  2
AmdtMcomMenuState
  3
McadcomServices
 90
     1024
 91
        1
280
     0
281
     0
  0
CLASS
  1
AMIMASTER
  2
AmiMaster
  3
AmiServices
 90
     1024
 91
        1
280
     0
281
     0
  0
CLASS
  1
MAPIAMMOUDLE
  2
MApiAmModule
  3
MApiAmServices
 90
     1024
 91
        1
280
     0
281
     0
  0
CLASS
  1
ACIMSTRSYSVAR
  2
AcImStrSysVar
  3
AcMeServices
 90
     1024
 91
        5
280
     0
281
     0
  0
CLASS
  1
AMDTADMENUSTATE
  2
AmdtAdMenuState
  3
DesignerServices
 90
     1024
 91
        1
280
     0
281
     0
  0
CLASS
  1
ADAPPL
  2
AcAdAppl
  3
DesignerServices
 90
     1024
 91
        1
280
     0
281
     0
  0
CLASS
  1
DEPMGR
  2
AcAdDepMgr
  3
DesignerServices
 90
     1024
 91
        1
280
     0
281
     0
  0
CLASS
  1
PARAMMGR
  2
AcAdParamMgr
  3
DesignerServices
 90
     1024
 91
        1
280
     0
281
     0
  0
CLASS
  1
PARAMSCOPE
  2
AcAdParamScope
  3
DesignerServices
 90
     1024
 91
        1
280
     0
281
     0
  0
CLASS
  1
NAMEDAPPL
  2
AcAdNamedAppl
  3
DesignerServices
 90
     1024
 91
        1
280
     0
281
     0
  0
CLASS
  1
AMDTDMMENUSTATE
  2
AmdtDmMenuState
  3
AcMechDwgViewMgmt
 90
     1024
 91
        1
280
     0
281
     0
  0
CLASS
  1
AMDTAMMENUSTATE
  2
AmdtAmMenuState
  3
DesignerAssemblies
 90
     1024
 91
        1
280
     0
281
     0
  0
CLASS
  1
ACAMPROJECT
  2
AcAmProject
  3
DesignerAssemblies
 90
     1024
 91
        1
280
     0
281
     0
  0
CLASS
  1
ACAMGRCOMPDEF
  2
AcAmGrCompDef
  3
DesignerAssemblies
 90
     1024
 91
        1
280
     0
281
     0
  0
CLASS
  1
ACCMCONTEXT
  2
AcCmContext
  3
DesignerAssemblies
 90
     1024
 91
        1
280
     0
281
     0
  0
CLASS
  1
ACAMCOMPDEF
  2
AcAmCompDef
  3
DesignerAssemblies
 90
     1024
 91
        1
280
     0
281
     0
  0
CLASS
  1
ACAMCOMPDEFMGR
  2
AcAmCompDefMgr
  3
DesignerAssemblies
 90
     1024
 91
        1
280
     0
281
     0
  0
CLASS
  1
AMCONTEXTMGR
  2
AcAmContextMgr
  3
DesignerAssemblies
 90
     1024
 91
        1
280
     0
281
     0
  0
CLASS
  1
ACAMCONTEXTMODELER
  2
AcAmContextModeler
  3
DesignerAssemblies
 90
     1024
 91
        1
280
     0
281
     0
  0
CLASS
  1
ACMDATADICTIONARY
  2
AcmDataDictionary
  3
"AcmSymBB|Product Description: AutoCAD Mechanical|Company: Autodesk, Inc."
 90
     1024
 91
        1
280
     0
281
     0
  0
CLASS
  1
CATALOGSTATE
  2
AcAmCatalogState
  3
DesignerAssemblies
 90
     1024
 91
        1
280
     0
281
     0
  0
CLASS
  1
ACAMGRCOMPDEFSET
  2
AcAmGrCompDefSet
  3
DesignerAssemblies
 90
     1024
 91
        1
280
     0
281
     0
  0
CLASS
  1
AMDTBROWSERDBTAB
  2
AmdtBrowserDbTab
  3
McadcomServices
 90
     1024
 91
        1
280
     0
281
     0
  0
CLASS
  1
CBROWSERAPPOBJECT
  2
CBrowserAppObject
  3
McadcomServices
 90
     1024
 91
        3
280
     0
281
     0
  0
CLASS
  1
DM_PLACEHOLDER
  2
AcDmSelsetPlaceholder
  3
AcMechDwgViewMgmt
 90
     1024
 91
        1
280
     0
281
     0
  0
CLASS
  1
ACMSTANDARDANSI
  2
AcmStandardANSI
  3
"Amdt_StdImp|Product Description: AutoCAD Mechanical|Company: Autodesk, Inc."
 90
     1024
 91
        1
280
     0
281
     0
  0
CLASS
  1
AMGOBJPROPCFG
  2
AmgObjPropCfg
  3
"AmgLay|Product Description: AutoCAD Mechanical|Company: Autodesk, Inc."
 90
     1025
 91
        2
280
     0
281
     0
  0
CLASS
  1
ACMSURFSTANDARDANSI
  2
AcmSurfTextStdANSI
  3
"Amdt_StdImp|Product Description: AutoCAD Mechanical|Company: Autodesk, Inc."
 90
     1024
 91
        1
280
     0
281
     0
  0
CLASS
  1
ACMFCFSTANDARDANSI
  2
AcmFCFStdANSI
  3
"Amdt_StdImp|Product Description: AutoCAD Mechanical|Company: Autodesk, Inc."
 90
     1024
 91
        1
280
     0
281
     0
  0
CLASS
  1
ACMWELDSTANDARDANSI
  2
AcmWeldingStdANSI
  3
"Amdt_StdImp|Product Description: AutoCAD Mechanical|Company: Autodesk, Inc."
 90
     1024
 91
        1
280
     0
281
     0
  0
CLASS
  1
ACMIDSTANDARDANSI
  2
AcmIdStdANSI
  3
"Amdt_StdImp|Product Description: AutoCAD Mechanical|Company: Autodesk, Inc."
 90
     1024
 91
        1
280
     0
281
     0
  0
CLASS
  1
ACMDATUMSTANDARDANSI
  2
AcmDatumStdANSI
  3
"Amdt_StdImp|Product Description: AutoCAD Mechanical|Company: Autodesk, Inc."
 90
     1024
 91
        1
280
     0
281
     0
  0
CLASS
  1
ACMBOMSTANDARDANSI
  2
AcmBOMStdANSI
  3
"Amdt_StdImp|Product Description: AutoCAD Mechanical|Company: Autodesk, Inc."
 90
     1024
 91
        1
280
     0
281
     0
  0
CLASS
  1
ACMDETAILSTANDARDANSI
  2
AmdtDetailSymStdANSI
  3
"Amdt_StdImp|Product Description: AutoCAD Mechanical|Company: Autodesk, Inc."
 90
     1024
 91
        1
280
     0
281
     0
  0
CLASS
  1
ACMSECTIONSTANDARDANSI
  2
AmdtSectionSymStdANSI
  3
"Amdt_StdImp|Product Description: AutoCAD Mechanical|Company: Autodesk, Inc."
 90
     1024
 91
        1
280
     0
281
     0
  0
CLASS
  1
ACMCENTERLINESTANDARDANSI
  2
AmdtCenterLineStdANSI
  3
"Amdt_StdImp|Product Description: AutoCAD Mechanical|Company: Autodesk, Inc."
 90
     1024
 91
        1
280
     0
281
     0
  0
CLASS
  1
ACMTHREADLINESTANDARDANSI
  2
AmdtThreadLineStdANSI
  3
"Amdt_StdImp|Product Description: AutoCAD Mechanical|Company: Autodesk, Inc."
 90
     1024
 91
        1
280
     0
281
     0
  0
CLASS
  1
ACMNOTESTANDARDANSI
  2
AmdtNoteStdANSI
  3
"Amdt_StdImp|Product Description: AutoCAD Mechanical|Company: Autodesk, Inc."
 90
     1024
 91
        1
280
     0
281
     0
  0
CLASS
  1
ACMTAPERSTANDARDANSI
  2
AcmTaperStdANSI
  3
"Amdt_StdImp|Product Description: AutoCAD Mechanical|Company: Autodesk, Inc."
 90
     1024
 91
        1
280
     0
281
     0
  0
CLASS
  1
ACMANOOTATIONVIEWSTANDARDANSI
  2
AmdtAnViewStdANSI
  3
"Amdt_StdImp|Product Description: AutoCAD Mechanical|Company: Autodesk, Inc."
 90
     1024
 91
        1
280
     0
281
     0
  0
CLASS
  1
AMDTNOTETEMPLATEDB
  2
AmdtNoteTemplateDB
  3
AcmSymBB|Product Description: AutoCAD Mechanical|Company: Autodesk, Inc.
 90
     1024
 91
       18
280
     0
281
     0
  0
CLASS
  1
ACAMGLAYSTD
  2
AcAmgLayStd
  3
"AmgLay|Product Description: AutoCAD Mechanical|Company: Autodesk, Inc."
 90
     1024
 91
        3
280
     0
281
     0
  0
CLASS
  1
ACAMGDIMSTD
  2
AcAmgDimStd
  3
"AmgDim|Product Description: AutoCAD Mechanical|Company: Autodesk, Inc."
 90
     1024
 91
        3
280
     0
281
     0
  0
CLASS
  1
ACAMGHOLECHARTSTDANSI
  2
AcAmgHoleChartStdANSI
  3
AmgDim|Product Description: AutoCAD Mechanical|Company: Autodesk, Inc.
 90
     1024
 91
        1
280
     0
281
     0
  0
CLASS
  1
ACAMGTITLESTD
  2
AcAmgTitleStd
  3
"AmgTitle|Product Description: AutoCAD Mechanical|Company: Autodesk, Inc."
 90
     4095
 91
        3
280
     0
281
     0
  0
CLASS
  1
ACAMGFILTERDAT
  2
AcAmgFilterDat
  3
"AcadM|Product Description: AutoCAD Mechanical|Company: Autodesk, Inc."
 90
     1024
 91
        0
280
     0
281
     0
  0
CLASS
  1
CELLSTYLEMAP
  2
AcDbCellStyleMap
  3
ObjectDBX Classes
 90
     1152
 91
        2
280
     0
281
     0
  0
CLASS
  1
DICTIONARYVAR
  2
AcDbDictionaryVar
  3
ObjectDBX Classes
 90
        0
 91
        8
280
     0
281
     0
  0
CLASS
  1
ACMDATAENTRYPART
  2
AcmDataEntryPart
  3
AcmSymBB|Product Description: AutoCAD Mechanical|Company: Autodesk, Inc.
 90
     1024
 91
        0
280
     0
281
     0
  0
CLASS
  1
ACMPARTREF
  2
AcmPartRef
  3
"AcmSymBB|Product Description: AutoCAD Mechanical|Company: Autodesk, Inc."
 90
     4095
 91
        0
280
     0
281
     1
  0
CLASS
  1
ACDBLINERES
  2
AcDbLineRes
  3
AcGrefServices
 90
     1024
 91
        0
280
     0
281
     0
  0
CLASS
  1
ACMSTANDARDDIN
  2
AcmStandardDIN
  3
"Amdt_StdImp|Product Description: AutoCAD Mechanical|Company: Autodesk, Inc."
 90
     1024
 91
        1
280
     0
281
     0
  0
CLASS
  1
AMDTEDGESTANDARDDIN13715
  2
AmdtEdgeStdDIN13715
  3
"Amdt_StdImp|Product Description: AutoCAD Mechanical|Company: Autodesk, Inc."
 90
     1024
 91
        1
280
     0
281
     0
  0
CLASS
  1
ACMSURFSTANDARDDIN2002
  2
AcmSurfTextStdDIN2002
  3
"Amdt_StdImp|Product Description: AutoCAD Mechanical|Company: Autodesk, Inc."
 90
     1024
 91
        1
280
     0
281
     0
  0
CLASS
  1
ACMFCFSTANDARDDIN
  2
AcmFCFStdDIN
  3
"Amdt_StdImp|Product Description: AutoCAD Mechanical|Company: Autodesk, Inc."
 90
     1024
 91
        1
280
     0
281
     0
  0
CLASS
  1
ACMWELDSTANDARDDIN
  2
AcmWeldingStdDIN
  3
"Amdt_StdImp|Product Description: AutoCAD Mechanical|Company: Autodesk, Inc."
 90
     1024
 91
        1
280
     0
281
     0
  0
CLASS
  1
ACMIDSTANDARDDIN
  2
AcmIdStdDIN
  3
"Amdt_StdImp|Product Description: AutoCAD Mechanical|Company: Autodesk, Inc."
 90
     1024
 91
        1
280
     0
281
     0
  0
CLASS
  1
ACMDATUMSTANDARDDIN
  2
AcmDatumStdDIN
  3
"Amdt_StdImp|Product Description: AutoCAD Mechanical|Company: Autodesk, Inc."
 90
     1024
 91
        1
280
     0
281
     0
  0
CLASS
  1
ACMBOMSTANDARDDIN
  2
AcmBOMStdDIN
  3
"Amdt_StdImp|Product Description: AutoCAD Mechanical|Company: Autodesk, Inc."
 90
     1024
 91
        1
280
     0
281
     0
  0
CLASS
  1
ACMDETAILSTANDARDDIN
  2
AmdtDetailSymStdDIN
  3
"Amdt_StdImp|Product Description: AutoCAD Mechanical|Company: Autodesk, Inc."
 90
     1024
 91
        1
280
     0
281
     0
  0
CLASS
  1
ACMSECTIONSTANDARDDIN
  2
AmdtSectionSymStdDIN
  3
"Amdt_StdImp|Product Description: AutoCAD Mechanical|Company: Autodesk, Inc."
 90
     1024
 91
        1
280
     0
281
     0
  0
CLASS
  1
ACMCENTERLINESTANDARDDIN
  2
AmdtCenterLineStdDIN
  3
"Amdt_StdImp|Product Description: AutoCAD Mechanical|Company: Autodesk, Inc."
 90
     1024
 91
        1
280
     0
281
     0
  0
CLASS
  1
ACMTHREADLINESTANDARDDIN
  2
AmdtThreadLineStdDIN
  3
"Amdt_StdImp|Product Description: AutoCAD Mechanical|Company: Autodesk, Inc."
 90
     1024
 91
        1
280
     0
281
     0
  0
CLASS
  1
ACMNOTESTANDARDDIN
  2
AmdtNoteStdDIN
  3
"Amdt_StdImp|Product Description: AutoCAD Mechanical|Company: Autodesk, Inc."
 90
     1024
 91
        1
280
     0
281
     0
  0
CLASS
  1
ACMTAPERSTANDARDDIN
  2
AcmTaperStdDIN
  3
"Amdt_StdImp|Product Description: AutoCAD Mechanical|Company: Autodesk, Inc."
 90
     1024
 91
        1
280
     0
281
     0
  0
CLASS
  1
ACMANOOTATIONVIEWSTANDARDDIN
  2
AmdtAnViewStdDIN
  3
"Amdt_StdImp|Product Description: AutoCAD Mechanical|Company: Autodesk, Inc."
 90
     1024
 91
        1
280
     0
281
     0
  0
CLASS
  1
ACAMGHOLECHARTSTDDIN
  2
AcAmgHoleChartStdDIN
  3
AmgDim|Product Description: AutoCAD Mechanical|Company: Autodesk, Inc.
 90
     1024
 91
        1
280
     0
281
     0
  0
CLASS
  1
ACMDATAENTRYBLOCK
  2
AcmDataEntryBlock
  3
AcmSymBB|Product Description: AutoCAD Mechanical|Company: Autodesk, Inc.
 90
     1024
 91
        0
280
     0
281
     0
  0
CLASS
  1
ACMBOM
  2
AcmBom
  3
"AcmSymBB|Product Description: AutoCAD Mechanical|Company: Autodesk, Inc."
 90
     1024
 91
        0
280
     0
281
     0
  0
CLASS
  1
AMDTFORMULAUPDATEDISPATCHER
  2
AmdtFormulaUpdateDispatcher
  3
AcMeServices
 90
     1024
 91
        0
280
     0
281
     0
  0
CLASS
  1
ACMBOMROW
  2
AcmBomRow
  3
"AcmSymBB|Product Description: AutoCAD Mechanical|Company: Autodesk, Inc."
 90
     1024
 91
        0
280
     0
281
     0
  0
CLASS
  1
ACMPARTLIST
  2
AcmPartList
  3
"AcmSymBB|Product Description: AutoCAD Mechanical|Company: Autodesk, Inc."
 90
     4095
 91
        0
280
     0
281
     1
  0
CLASS
  1
CAMSSTRUCTBTNSTATE
  2
StructBtnState
  3
DesignerAssemblies
 90
     1024
 91
        0
280
     0
281
     0
  0
CLASS
  1
ACRFATTGENMGR
  2
AcRfAttGeneralMgr
  3
AcAttribServices
 90
     1024
 91
        0
280
     0
281
     0
  0
CLASS
  1
ACRFOBJATTMGR
  2
AcRfObjAttGroupMgr
  3
AcAttribServices
 90
     1024
 91
        0
280
     0
281
     0
  0
CLASS
  1
ACRFMCADAPIATTHOLDER
  2
AcRfMCADAPIAttHolder
  3
AcAttribServices
 90
     1024
 91
        0
280
     0
281
     0
  0
CLASS
  1
AMDTSYSATTR
  2
AmdtSystemAttribute
  3
AcAttribServices
 90
     1024
 91
        0
280
     0
281
     0
  0
CLASS
  1
SORTENTSTABLE
  2
AcDbSortentsTable
  3
ObjectDBX Classes
 90
        0
 91
        3
280
     0
281
     0
  0
CLASS
  1
ACMSTANDARDISO
  2
AcmStandardISO
  3
"Amdt_StdImp|Product Description: AutoCAD Mechanical|Company: Autodesk, Inc."
 90
     1024
 91
        1
280
     0
281
     0
  0
CLASS
  1
AMDTEDGESTANDARDISO
  2
AmdtEdgeStdISO
  3
"Amdt_StdImp|Product Description: AutoCAD Mechanical|Company: Autodesk, Inc."
 90
     1024
 91
        1
280
     0
281
     0
  0
CLASS
  1
ACMSURFSTANDARDISO2002
  2
AcmSurfTextStdISO2002
  3
"Amdt_StdImp|Product Description: AutoCAD Mechanical|Company: Autodesk, Inc."
 90
     1024
 91
        1
280
     0
281
     0
  0
CLASS
  1
ACMFCFSTANDARDISO
  2
AcmFCFStdISO
  3
"Amdt_StdImp|Product Description: AutoCAD Mechanical|Company: Autodesk, Inc."
 90
     1024
 91
        1
280
     0
281
     0
  0
CLASS
  1
ACMWELDSTANDARDISO
  2
AcmWeldingStdISO
  3
"Amdt_StdImp|Product Description: AutoCAD Mechanical|Company: Autodesk, Inc."
 90
     1024
 91
        1
280
     0
281
     0
  0
CLASS
  1
ACMIDSTANDARDISO
  2
AcmIdStdISO
  3
"Amdt_StdImp|Product Description: AutoCAD Mechanical|Company: Autodesk, Inc."
 90
     1024
 91
        1
280
     0
281
     0
  0
CLASS
  1
ACMDATUMSTANDARDISO
  2
AcmDatumStdISO
  3
"Amdt_StdImp|Product Description: AutoCAD Mechanical|Company: Autodesk, Inc."
 90
     1024
 91
        1
280
     0
281
     0
  0
CLASS
  1
ACMBOMSTANDARDISO
  2
AcmBOMStdISO
  3
"Amdt_StdImp|Product Description: AutoCAD Mechanical|Company: Autodesk, Inc."
 90
     1024
 91
        1
280
     0
281
     0
  0
CLASS
  1
ACMDETAILSTANDARDISO
  2
AmdtDetailSymStdISO
  3
"Amdt_StdImp|Product Description: AutoCAD Mechanical|Company: Autodesk, Inc."
 90
     1024
 91
        1
280
     0
281
     0
  0
CLASS
  1
ACMSECTIONSTANDARDISO2001
  2
AmdtSectionSymStdISO2001
  3
"Amdt_StdImp|Product Description: AutoCAD Mechanical|Company: Autodesk, Inc."
 90
     1024
 91
        1
280
     0
281
     0
  0
CLASS
  1
ACMCENTERLINESTANDARDISO
  2
AmdtCenterLineStdISO
  3
"Amdt_StdImp|Product Description: AutoCAD Mechanical|Company: Autodesk, Inc."
 90
     1024
 91
        1
280
     0
281
     0
  0
CLASS
  1
ACMNOTESTANDARDISO
  2
AmdtNoteStdISO
  3
"Amdt_StdImp|Product Description: AutoCAD Mechanical|Company: Autodesk, Inc."
 90
     1024
 91
        1
280
     0
281
     0
  0
CLASS
  1
ACAMGHOLECHARTSTDISO
  2
AcAmgHoleChartStdISO
  3
AmgDim|Product Description: AutoCAD Mechanical|Company: Autodesk, Inc.
 90
     1024
 91
        1
280
     0
281
     0
  0
CLASS
  1
ACMTHREADLINESTANDARDISO
  2
AmdtThreadLineStdISO
  3
"Amdt_StdImp|Product Description: AutoCAD Mechanical|Company: Autodesk, Inc."
 90
     1024
 91
        1
280
     0
281
     0
  0
CLASS
  1
ACMTAPERSTANDARDISO
  2
AcmTaperStdISO
  3
"Amdt_StdImp|Product Description: AutoCAD Mechanical|Company: Autodesk, Inc."
 90
     1024
 91
        1
280
     0
281
     0
  0
CLASS
  1
ACMANOOTATIONVIEWSTANDARDISO
  2
AmdtAnViewStdISO
  3
"Amdt_StdImp|Product Description: AutoCAD Mechanical|Company: Autodesk, Inc."
 90
     1024
 91
        1
280
     0
281
     0
  0
CLASS
  1
ACMSTANDARDGB
  2
AcmStandardGB
  3
"Amdt_StdImp|Product Description: AutoCAD Mechanical|Company: Autodesk, Inc."
 90
     1024
 91
        0
280
     0
281
     0
  0
CLASS
  1
ACMSURFSTANDARDGB
  2
AcmSurfTextStdGB
  3
"Amdt_StdImp|Product Description: AutoCAD Mechanical|Company: Autodesk, Inc."
 90
     1024
 91
        0
280
     0
281
     0
  0
CLASS
  1
ACMFCFSTANDARDGB
  2
AcmFCFStdGB
  3
"Amdt_StdImp|Product Description: AutoCAD Mechanical|Company: Autodesk, Inc."
 90
     1024
 91
        0
280
     0
281
     0
  0
CLASS
  1
ACMWELDSTANDARDGB
  2
AcmWeldingStdGB
  3
"Amdt_StdImp|Product Description: AutoCAD Mechanical|Company: Autodesk, Inc."
 90
     1024
 91
        0
280
     0
281
     0
  0
CLASS
  1
ACMIDSTANDARDGB
  2
AcmIdStdGB
  3
"Amdt_StdImp|Product Description: AutoCAD Mechanical|Company: Autodesk, Inc."
 90
     1024
 91
        0
280
     0
281
     0
  0
CLASS
  1
ACMDATUMSTANDARDGB
  2
AcmDatumStdGB
  3
"Amdt_StdImp|Product Description: AutoCAD Mechanical|Company: Autodesk, Inc."
 90
     1024
 91
        0
280
     0
281
     0
  0
CLASS
  1
ACMBOMSTANDARDGB
  2
AcmBOMStdGB
  3
"Amdt_StdImp|Product Description: AutoCAD Mechanical|Company: Autodesk, Inc."
 90
     1024
 91
        0
280
     0
281
     0
  0
CLASS
  1
ACMDETAILSTANDARDGB
  2
AmdtDetailSymStdGB
  3
"Amdt_StdImp|Product Description: AutoCAD Mechanical|Company: Autodesk, Inc."
 90
     1024
 91
        0
280
     0
281
     0
  0
CLASS
  1
ACMSECTIONSTANDARDGB1998
  2
AmdtSectionSymStdGB1998
  3
"Amdt_StdImp|Product Description: AutoCAD Mechanical|Company: Autodesk, Inc."
 90
     1024
 91
        0
280
     0
281
     0
  0
CLASS
  1
ACMCENTERLINESTANDARDGB
  2
AmdtCenterLineStdGB
  3
"Amdt_StdImp|Product Description: AutoCAD Mechanical|Company: Autodesk, Inc."
 90
     1024
 91
        0
280
     0
281
     0
  0
CLASS
  1
ACMTHREADLINESTANDARDGB
  2
AmdtThreadLineStdGB
  3
"Amdt_StdImp|Product Description: AutoCAD Mechanical|Company: Autodesk, Inc."
 90
     1024
 91
        0
280
     0
281
     0
  0
CLASS
  1
ACMNOTESTANDARDGB
  2
AmdtNoteStdGB
  3
"Amdt_StdImp|Product Description: AutoCAD Mechanical|Company: Autodesk, Inc."
 90
     1024
 91
        0
280
     0
281
     0
  0
CLASS
  1
ACMTAPERSTANDARDGB
  2
AcmTaperStdGB
  3
"Amdt_StdImp|Product Description: AutoCAD Mechanical|Company: Autodesk, Inc."
 90
     1024
 91
        0
280
     0
281
     0
  0
CLASS
  1
ACMANOOTATIONVIEWSTANDARDGB
  2
AmdtAnViewStdGB
  3
"Amdt_StdImp|Product Description: AutoCAD Mechanical|Company: Autodesk, Inc."
 90
     1024
 91
        0
280
     0
281
     0
  0
CLASS
  1
ACAMGHOLECHARTSTDGB
  2
AcAmgHoleChartStdGB
  3
AmgDim|Product Description: AutoCAD Mechanical|Company: Autodesk, Inc.
 90
     1024
 91
        0
280
     0
281
     0
  0
CLASS
  1
ACMSTANDARDCSN
  2
AcmStandardCSN
  3
"Amdt_StdImp|Product Description: AutoCAD Mechanical|Company: Autodesk, Inc."
 90
     1024
 91
        0
280
     0
281
     0
  0
CLASS
  1
ACMSURFSTANDARDCSN
  2
AcmSurfTextStdCSN
  3
"Amdt_StdImp|Product Description: AutoCAD Mechanical|Company: Autodesk, Inc."
 90
     1024
 91
        0
280
     0
281
     0
  0
CLASS
  1
ACMFCFSTANDARDCSN
  2
AcmFCFStdCSN
  3
"Amdt_StdImp|Product Description: AutoCAD Mechanical|Company: Autodesk, Inc."
 90
     1024
 91
        0
280
     0
281
     0
  0
CLASS
  1
ACMWELDSTANDARDCSN
  2
AcmWeldingStdCSN
  3
"Amdt_StdImp|Product Description: AutoCAD Mechanical|Company: Autodesk, Inc."
 90
     1024
 91
        0
280
     0
281
     0
  0
CLASS
  1
ACMIDSTANDARDCSN
  2
AcmIdStdCSN
  3
"Amdt_StdImp|Product Description: AutoCAD Mechanical|Company: Autodesk, Inc."
 90
     1024
 91
        0
280
     0
281
     0
  0
CLASS
  1
ACMDATUMSTANDARDCSN
  2
AcmDatumStdCSN
  3
"Amdt_StdImp|Product Description: AutoCAD Mechanical|Company: Autodesk, Inc."
 90
     1024
 91
        0
280
     0
281
     0
  0
CLASS
  1
ACMBOMSTANDARDCSN
  2
AcmBOMStdCSN
  3
"Amdt_StdImp|Product Description: AutoCAD Mechanical|Company: Autodesk, Inc."
 90
     1024
 91
        0
280
     0
281
     0
  0
CLASS
  1
ACMDETAILSTANDARDCSN
  2
AmdtDetailSymStdCSN
  3
"Amdt_StdImp|Product Description: AutoCAD Mechanical|Company: Autodesk, Inc."
 90
     1024
 91
        0
280
     0
281
     0
  0
CLASS
  1
ACMSECTIONSTANDARDCSN2002
  2
AmdtSectionSymStdCSN2002
  3
"Amdt_StdImp|Product Description: AutoCAD Mechanical|Company: Autodesk, Inc."
 90
     1024
 91
        0
280
     0
281
     0
  0
CLASS
  1
ACMCENTERLINESTANDARDCSN
  2
AmdtCenterLineStdCSN
  3
"Amdt_StdImp|Product Description: AutoCAD Mechanical|Company: Autodesk, Inc."
 90
     1024
 91
        0
280
     0
281
     0
  0
CLASS
  1
ACMTHREADLINESTANDARDCSN
  2
AmdtThreadLineStdCSN
  3
"Amdt_StdImp|Product Description: AutoCAD Mechanical|Company: Autodesk, Inc."
 90
     1024
 91
        0
280
     0
281
     0
  0
CLASS
  1
ACMNOTESTANDARDCSN
  2
AmdtNoteStdCSN
  3
"Amdt_StdImp|Product Description: AutoCAD Mechanical|Company: Autodesk, Inc."
 90
     1024
 91
        0
280
     0
281
     0
  0
CLASS
  1
ACMTAPERSTANDARDCSN
  2
AcmTaperStdCSN
  3
"Amdt_StdImp|Product Description: AutoCAD Mechanical|Company: Autodesk, Inc."
 90
     1024
 91
        0
280
     0
281
     0
  0
CLASS
  1
ACMANOOTATIONVIEWSTANDARDCSN
  2
AmdtAnViewStdCSN
  3
"Amdt_StdImp|Product Description: AutoCAD Mechanical|Company: Autodesk, Inc."
 90
     1024
 91
        0
280
     0
281
     0
  0
CLASS
  1
ACAMGHOLECHARTSTDCSN
  2
AcAmgHoleChartStdCSN
  3
AmgDim|Product Description: AutoCAD Mechanical|Company: Autodesk, Inc.
 90
     1024
 91
        0
280
     0
281
     0
  0
CLASS
  1
DIMASSOC
  2
AcDbDimAssoc
  3
"AcDbDimAssoc|Product Desc:     AcDim ARX App For Dimension|Company:          Autodesk, Inc.|WEB Address:      www.autodesk.com"
 90
        0
 91
       27
280
     0
281
     0
  0
CLASS
  1
ACDBCIRCARCRES
  2
AcDbCircArcRes
  3
AcGrefServices
 90
     1024
 91
        0
280
     0
281
     0
  0
CLASS
  1
ACDB_BLKREFOBJECTCONTEXTDATA_CLASS
  2
AcDbBlkRefObjectContextData
  3
ObjectDBX Classes
 90
     1153
 91
        0
280
     0
281
     0
  0
CLASS
  1
ACAD_EVALUATION_GRAPH
  2
AcDbEvalGraph
  3
ObjectDBX Classes
 90
     1153
 91
        0
280
     0
281
     0
  0
CLASS
  1
ACAECUSTOBJ
  2
AcAeEditorObj
  3
AcAeEditorObj
 90
     1024
 91
        0
280
     0
281
     0
  0
CLASS
  1
ACDB_DYNAMICBLOCKPURGEPREVENTER_VERSION
  2
AcDbDynamicBlockPurgePreventer
  3
ObjectDBX Classes
 90
     1153
 91
        0
280
     0
281
     0
  0
ENDSEC
  0
SECTION
  2
TABLES
  0
TABLE
  2
VPORT
  5
8
102
{ACAD_XDICTIONARY
360
1B6
102
}
330
0
100
AcDbSymbolTable
 70
     1
  0
VPORT
  5
82
330
8
100
AcDbSymbolTableRecord
100
AcDbViewportTableRecord
  2
*Active
 70
     0
 10
0.0
 20
0.0
 11
1.0
 21
1.0
 12
4265.556828876386
 22
3849.407516074607
 13
0.0
 23
0.0
 14
50.0
 24
50.0
 15
200.0
 25
200.0
 16
0.0
 26
0.0
 36
1.0
 17
0.0
 27
0.0
 37
0.0
 40
1264.856414817574
 41
1.443908323281061
 42
50.0
 43
0.0
 44
0.0
 50
0.0
 51
0.0
 71
    16
 72
 10000
 73
     1
 74
     1
 75
     0
 76
     0
 77
     0
 78
     0
281
     0
 65
     1
110
0.0
120
0.0
130
0.0
111
1.0
121
0.0
131
0.0
112
0.0
122
1.0
132
0.0
 79
     0
146
0.0
  0
ENDTAB
  0
TABLE
  2
LTYPE
  5
5
330
0
100
AcDbSymbolTable
 70
    23
  0
LTYPE
  5
62
330
5
100
AcDbSymbolTableRecord
100
AcDbLinetypeTableRecord
  2
ByBlock
 70
     0
  3

 72
    65
 73
     0
 40
0.0
  0
LTYPE
  5
63
330
5
100
AcDbSymbolTableRecord
100
AcDbLinetypeTableRecord
  2
ByLayer
 70
     0
  3

 72
    65
 73
     0
 40
0.0
  0
LTYPE
  5
64
330
5
100
AcDbSymbolTableRecord
100
AcDbLinetypeTableRecord
  2
CONTINUOUS
 70
     0
  3
Solid line
 72
    65
 73
     0
 40
0.0
  0
LTYPE
  5
78
330
5
100
AcDbSymbolTableRecord
100
AcDbLinetypeTableRecord
  2
DASHED
 70
     0
  3
Dashed line
 72
    65
 73
     2
 40
0.75
 49
0.5
 74
     0
 49
-0.25
 74
     0
  0
LTYPE
  5
79
330
5
100
AcDbSymbolTableRecord
100
AcDbLinetypeTableRecord
  2
CENTER
 70
     0
  3
Center line
 72
    65
 73
     4
 40
2.0
 49
1.25
 74
     0
 49
-0.25
 74
     0
 49
0.25
 74
     0
 49
-0.25
 74
     0
  0
LTYPE
  5
13E
330
5
100
AcDbSymbolTableRecord
100
AcDbLinetypeTableRecord
  2
HIDDEN
 70
     0
  3
Verdeckt
 72
    65
 73
     2
 40
0.375
 49
0.25
 74
     0
 49
-0.125
 74
     0
  0
LTYPE
  5
13F
330
5
100
AcDbSymbolTableRecord
100
AcDbLinetypeTableRecord
  2
PHANTOM2
 70
     0
  3
Phantom (.5x) ___ _ _ ___ _ _ ___ _ _ ___ _ _
 72
    65
 73
     6
 40
1.25
 49
0.625
 74
     0
 49
-0.125
 74
     0
 49
0.125
 74
     0
 49
-0.125
 74
     0
 49
0.125
 74
     0
 49
-0.125
 74
     0
  0
LTYPE
  5
183
330
5
100
AcDbSymbolTableRecord
100
AcDbLinetypeTableRecord
  2
ACANSTGB
 70
     0
  3
__ . . __ . .
 72
    65
 73
     6
 40
0.35433070866
 49
0.15748031496
 74
     0
 49
-0.03937007874
 74
     0
 49
0.03937007874
 74
     0
 49
-0.03937007874
 74
     0
 49
0.03937007874
 74
     0
 49
-0.03937007874
 74
     0
  0
LTYPE
  5
184
330
5
100
AcDbSymbolTableRecord
100
AcDbLinetypeTableRecord
  2
ACANSTGL
 70
     0
  3
_ _ _ _ _
 72
    65
 73
     2
 40
0.11811023622
 49
0.07874015748
 74
     0
 49
-0.03937007874
 74
     0
  0
LTYPE
  5
26A
330
5
100
AcDbSymbolTableRecord
100
AcDbLinetypeTableRecord
  2
ACDINWELD
 70
     0
  3
_ _ _ _ _
 72
    65
 73
     2
 40
2.0
 49
2.0
 74
     0
 49
-1.0
 74
     0
  0
LTYPE
  5
26B
330
5
100
AcDbSymbolTableRecord
100
AcDbLinetypeTableRecord
  2
ACDINTGB
 70
     0
  3
__ . . __ . .
 72
    65
 73
     6
 40
9.0
 49
4.0
 74
     0
 49
-1.0
 74
     0
 49
1.0
 74
     0
 49
-1.0
 74
     0
 49
1.0
 74
     0
 49
-1.0
 74
     0
  0
LTYPE
  5
26C
330
5
100
AcDbSymbolTableRecord
100
AcDbLinetypeTableRecord
  2
ACDINTGL
 70
     0
  3
_ _ _ _ _
 72
    65
 73
     2
 40
3.0
 49
2.0
 74
     0
 49
-1.0
 74
     0
  0
LTYPE
  5
2A6
330
5
100
AcDbSymbolTableRecord
100
AcDbLinetypeTableRecord
  2
Amconstr
 70
     0
  3
_______________________
 72
    65
 73
     2
 40
9999.0
 49
9999.0
 74
     0
 49
0.0
 74
     0
  0
LTYPE
  5
2A7
330
5
100
AcDbSymbolTableRecord
100
AcDbLinetypeTableRecord
  2
Amzigzag
 70
     0
  3
/\/-/\/-/\/-/\/-/\/-/\/
 72
    65
 73
     2
 40
11.0001
 49
0.0001
 74
     4
 75
   136
340
2A8
 46
0.04
 50
0.0
 44
0.0
 45
0.0
 49
-11.0
 74
     0
  0
LTYPE
  5
38A
330
5
100
AcDbSymbolTableRecord
100
AcDbLinetypeTableRecord
  2
HIDDEN2
 70
     0
  3
Hidden (.5x) _ _ _ _ _ _ _ _ _ _ _ _ _ _ _ _ _
 72
    65
 73
     2
 40
0.1875
 49
0.125
 74
     0
 49
-0.0625
 74
     0
  0
LTYPE
  5
38B
330
5
100
AcDbSymbolTableRecord
100
AcDbLinetypeTableRecord
  2
CENTER2
 70
     0
  3
Center (.5x) ___ _ ___ _ ___ _ ___ _ ___ _ ___
 72
    65
 73
     4
 40
1.125
 49
0.75
 74
     0
 49
-0.125
 74
     0
 49
0.125
 74
     0
 49
-0.125
 74
     0
  0
LTYPE
  5
3C3
330
5
100
AcDbSymbolTableRecord
100
AcDbLinetypeTableRecord
  2
AM_ISO02W050
 70
     0
  3
__ __ __ __ __ __ __ __ __ __ __ __ __ __ __
 72
    65
 73
     2
 40
7.5
 49
6.0
 74
     0
 49
-1.5
 74
     0
  0
LTYPE
  5
3C4
330
5
100
AcDbSymbolTableRecord
100
AcDbLinetypeTableRecord
  2
AM_ISO08W050
 70
     0
  3
____ . ____ . ____ . ____ . ____ . ____ . ____
 72
    65
 73
     4
 40
18.0
 49
12.0
 74
     0
 49
-1.5
 74
     0
 49
3.0
 74
     0
 49
-1.5
 74
     0
  0
LTYPE
  5
3C5
330
5
100
AcDbSymbolTableRecord
100
AcDbLinetypeTableRecord
  2
AM_ISO09W050
 70
     0
  3
_____ . . _____ . . _____ . . ____ .. ____
 72
    65
 73
     6
 40
22.5
 49
12.0
 74
     0
 49
-1.5
 74
     0
 49
3.0
 74
     0
 49
-1.5
 74
     0
 49
3.0
 74
     0
 49
-1.5
 74
     0
  0
LTYPE
  5
3C6
330
5
100
AcDbSymbolTableRecord
100
AcDbLinetypeTableRecord
  2
AM_ISO08W050x2
 70
     0
  3
__ . __ . __ . __ . __ . __
 72
    65
 73
     4
 40
9.0
 49
6.0
 74
     0
 49
-0.75
 74
     0
 49
1.5
 74
     0
 49
-0.75
 74
     0
  0
LTYPE
  5
3C7
330
5
100
AcDbSymbolTableRecord
100
AcDbLinetypeTableRecord
  2
AM_ISO02W050x2
 70
     0
  3
 _ _ _ _ _ _ _ _ _ _ _ _
 72
    65
 73
     2
 40
3.75
 49
3.0
 74
     0
 49
-0.75
 74
     0
  0
LTYPE
  5
3C8
330
5
100
AcDbSymbolTableRecord
100
AcDbLinetypeTableRecord
  2
ACISOWELD
 70
     0
  3
_ _ _ _ _
 72
    65
 73
     2
 40
2.0
 49
2.0
 74
     0
 49
-1.0
 74
     0
  0
LTYPE
  5
3C9
330
5
100
AcDbSymbolTableRecord
100
AcDbLinetypeTableRecord
  2
ACISOTGB
 70
     0
  3
__ . . __ . .
 72
    65
 73
     6
 40
9.0
 49
4.0
 74
     0
 49
-1.0
 74
     0
 49
1.0
 74
     0
 49
-1.0
 74
     0
 49
1.0
 74
     0
 49
-1.0
 74
     0
  0
LTYPE
  5
3CA
330
5
100
AcDbSymbolTableRecord
100
AcDbLinetypeTableRecord
  2
ACISOTGL
 70
     0
  3
_ _ _ _ _
 72
    65
 73
     2
 40
3.0
 49
2.0
 74
     0
 49
-1.0
 74
     0
  0
ENDTAB
  0
TABLE
  2
LAYER
  5
2
102
{ACAD_XDICTIONARY
360
256
102
}
330
0
100
AcDbSymbolTable
 70
    24
  0
LAYER
  5
5C
102
{ACAD_XDICTIONARY
360
1A2
102
}
330
2
100
AcDbSymbolTableRecord
100
AcDbLayerTableRecord
  2
0
 70
     0
 62
     7
  6
CONTINUOUS
370
    -3
390
F
  0
LAYER
  5
27F
102
{ACAD_XDICTIONARY
360
2C7
102
}
330
2
100
AcDbSymbolTableRecord
100
AcDbLayerTableRecord
  2
Defpoints
 70
     0
 62
     7
  6
CONTINUOUS
290
     0
370
    -3
390
F
  0
LAYER
  5
2AA
102
{ACAD_XDICTIONARY
360
2C9
102
}
330
2
100
AcDbSymbolTableRecord
100
AcDbLayerTableRecord
  2
AM_3 ( Verdeckt )
 70
     0
 62
     6
  6
AM_ISO02W050
370
    25
390
F
1001
AcAecLayerStandard
1000

1000

  0
LAYER
  5
2AC
102
{ACAD_XDICTIONARY
360
2CB
102
}
330
2
100
AcDbSymbolTableRecord
100
AcDbLayerTableRecord
  2
AM_7 (Mittellinie)
 70
     0
 62
     4
  6
AM_ISO08W050
370
    25
390
F
1001
AcAecLayerStandard
1000

1000

  0
LAYER
  5
2AE
102
{ACAD_XDICTIONARY
360
2CD
102
}
330
2
100
AcDbSymbolTableRecord
100
AcDbLayerTableRecord
  2
AM_2 ( Kontur 0.25)
 70
     0
 62
     5
  6
CONTINUOUS
370
    25
390
F
1001
AcAecLayerStandard
1000

1000

  0
LAYER
  5
2B1
102
{ACAD_XDICTIONARY
360
2CF
102
}
330
2
100
AcDbSymbolTableRecord
100
AcDbLayerTableRecord
  2
AM_5 ( Bemassung)
 70
     0
 62
     3
  6
CONTINUOUS
370
    25
390
F
1001
AcAecLayerStandard
1000

1000

  0
LAYER
  5
9FC
102
{ACAD_XDICTIONARY
360
A1F
102
}
330
2
100
AcDbSymbolTableRecord
100
AcDbLayerTableRecord
  2
AM_0 ( Kontur 0.5 )
 70
     0
 62
     7
  6
CONTINUOUS
370
    50
390
F
1001
AcAecLayerStandard
1000

1000

  0
ENDTAB
  0
TABLE
  2
STYLE
  5
3
330
0
100
AcDbSymbolTable
 70
    13
  0
STYLE
  5
5D
330
3
100
AcDbSymbolTableRecord
100
AcDbTextStyleTableRecord
  2
STANDARD
 70
     0
 40
0.0
 41
1.0
 50
0.0
 71
     0
 42
3.5
  3
ARIAL.TTF
  4

1001
ACAD
1000
Arial
1071
       34
  0
STYLE
  5
174
330
3
100
AcDbSymbolTableRecord
100
AcDbTextStyleTableRecord
  2
ACANSTS
 70
     0
 40
1.0
 41
1.0
 50
0.0
 71
     0
 42
3.5
  3
romans.shx
  4

  0
STYLE
  5
182
330
3
100
AcDbSymbolTableRecord
100
AcDbTextStyleTableRecord
  2
ACANSGDT
 70
     0
 40
0.0
 41
1.0
 50
0.0
 71
     0
 42
3.5
  3
amgdt.shx
  4

  0
STYLE
  5
25A
330
3
100
AcDbSymbolTableRecord
100
AcDbTextStyleTableRecord
  2
ACDINTS
 70
     0
 40
1.0
 41
1.0
 50
0.0
 71
     0
 42
3.5
  3
isocp.shx
  4

  0
STYLE
  5
269
330
3
100
AcDbSymbolTableRecord
100
AcDbTextStyleTableRecord
  2
ACDINGDT
 70
     0
 40
0.0
 41
1.0
 50
0.0
 71
     0
 42
3.5
  3
amgdt.shx
  4

  0
STYLE
  5
2A8
330
3
100
AcDbSymbolTableRecord
100
AcDbTextStyleTableRecord
  2

 70
     1
 40
0.0
 41
1.0
 50
0.0
 71
     0
 42
2.5
  3
genltshp.shx
  4

  0
STYLE
  5
3CB
330
3
100
AcDbSymbolTableRecord
100
AcDbTextStyleTableRecord
  2
ACISOTS
 70
     0
 40
1.0
 41
1.0
 50
0.0
 71
     0
 42
2.5
  3
ARIALN.TTF
  4

1001
ACAD
1000
Arial Narrow
1071
       34
  0
STYLE
  5
3CC
330
3
100
AcDbSymbolTableRecord
100
AcDbTextStyleTableRecord
  2
ACISOGDT
 70
     0
 40
0.0
 41
1.0
 50
0.0
 71
     0
 42
2.5
  3
amgdt.shx
  4

  0
ENDTAB
  0
TABLE
  2
VIEW
  5
6
330
0
100
AcDbSymbolTable
 70
     6
  0
VIEW
  5
51B
330
6
100
AcDbSymbolTableRecord
100
AcDbViewTableRecord
  2
AM_VIEW1
 70
     0
 40
2970.0
 10
5244.127408818744
 20
7963.547409082302
 41
4538.252933507171
 11
0.0
 21
0.0
 31
1.0
 12
0.0
 22
0.0
 32
0.0
 42
50.0
 43
0.0
 44
0.0
 50
0.0
 71
    16
281
     0
 72
     0
  0
VIEW
  5
51C
330
6
100
AcDbSymbolTableRecord
100
AcDbViewTableRecord
  2
AM_VIEW2
 70
     0
 40
2970.0
 10
9105.874475311576
 20
7963.547409082302
 41
4538.252933507171
 11
0.0
 21
0.0
 31
1.0
 12
0.0
 22
0.0
 32
0.0
 42
50.0
 43
0.0
 44
0.0
 50
0.0
 71
    16
281
     0
 72
     0
  0
VIEW
  5
51D
330
6
100
AcDbSymbolTableRecord
100
AcDbViewTableRecord
  2
AM_VIEW3
 70
     0
 40
2970.0
 10
5244.127408818744
 20
4993.547409082303
 41
4538.252933507171
 11
0.0
 21
0.0
 31
1.0
 12
0.0
 22
0.0
 32
0.0
 42
50.0
 43
0.0
 44
0.0
 50
0.0
 71
    16
281
     0
 72
     0
  0
VIEW
  5
51E
330
6
100
AcDbSymbolTableRecord
100
AcDbViewTableRecord
  2
AM_VIEW4
 70
     0
 40
2970.0
 10
9105.874475311576
 20
4993.547409082303
 41
4538.252933507171
 11
0.0
 21
0.0
 31
1.0
 12
0.0
 22
0.0
 32
0.0
 42
50.0
 43
0.0
 44
0.0
 50
0.0
 71
    16
281
     0
 72
     0
  0
VIEW
  5
51F
330
6
100
AcDbSymbolTableRecord
100
AcDbViewTableRecord
  2
AM_VIEW5
 70
     0
 40
2970.0
 10
7175.000942065159
 20
6478.547409082302
 41
4538.252933507172
 11
0.0
 21
0.0
 31
1.0
 12
0.0
 22
0.0
 32
0.0
 42
50.0
 43
0.0
 44
0.0
 50
0.0
 71
    16
281
     0
 72
     0
  0
VIEW
  5
520
330
6
100
AcDbSymbolTableRecord
100
AcDbViewTableRecord
  2
AM_VIEW6
 70
     0
 40
5939.940599999999
 10
7175.000942065159
 20
6478.547409082302
 41
9076.415101955673
 11
0.0
 21
0.0
 31
1.0
 12
0.0
 22
0.0
 32
0.0
 42
50.0
 43
0.0
 44
0.0
 50
0.0
 71
    16
281
     0
 72
     0
  0
ENDTAB
  0
TABLE
  2
UCS
  5
7
330
0
100
AcDbSymbolTable
 70
     0
  0
ENDTAB
  0
TABLE
  2
APPID
  5
9
330
0
100
AcDbSymbolTable
 70
    66
  0
APPID
  5
5E
330
9
100
AcDbSymbolTableRecord
100
AcDbRegAppTableRecord
  2
ACAD
 70
     0
  0
APPID
  5
65
330
9
100
AcDbSymbolTableRecord
100
AcDbRegAppTableRecord
  2
AcadAnnotative
 70
     0
  0
APPID
  5
6F
330
9
100
AcDbSymbolTableRecord
100
AcDbRegAppTableRecord
  2
ACAD_MLEADERVER
 70
     0
  0
APPID
  5
111
330
9
100
AcDbSymbolTableRecord
100
AcDbRegAppTableRecord
  2
MCAD_NO_VIS
 70
     0
  0
APPID
  5
112
330
9
100
AcDbSymbolTableRecord
100
AcDbRegAppTableRecord
  2
ACAD_TEMP_GRAPHIC
 70
     0
  0
APPID
  5
141
330
9
100
AcDbSymbolTableRecord
100
AcDbRegAppTableRecord
  2
AD_DRAW
 70
     0
  0
APPID
  5
144
330
9
100
AcDbSymbolTableRecord
100
AcDbRegAppTableRecord
  2
ACATTRIBSERVICES
 70
     0
  0
APPID
  5
165
330
9
100
AcDbSymbolTableRecord
100
AcDbRegAppTableRecord
  2
DESIGNERASSEMBLIES
 70
     0
  0
APPID
  5
16B
330
9
100
AcDbSymbolTableRecord
100
AcDbRegAppTableRecord
  2
ACADM_DIM_EDIT
 70
     0
  0
APPID
  5
16C
330
9
100
AcDbSymbolTableRecord
100
AcDbRegAppTableRecord
  2
AMDT_DM_ADJ
 70
     0
  0
APPID
  5
1C8
330
9
100
AcDbSymbolTableRecord
100
AcDbRegAppTableRecord
  2
ACAD_DSTYLE_DIMARC_LENGTH_SYMBOL
 70
     0
  0
APPID
  5
24A
330
9
100
AcDbSymbolTableRecord
100
AcDbRegAppTableRecord
  2
AcAecLayerStandard
 70
     0
  0
APPID
  5
280
330
9
100
AcDbSymbolTableRecord
100
AcDbRegAppTableRecord
  2
ACAD_DSTYLE_DIMJOGGED_JOGANGLE_SYMBOL
 70
     0
  0
APPID
  5
281
330
9
100
AcDbSymbolTableRecord
100
AcDbRegAppTableRecord
  2
AcadAnnoPO
 70
     0
  0
APPID
  5
282
330
9
100
AcDbSymbolTableRecord
100
AcDbRegAppTableRecord
  2
ACAD_EXEMPT_FROM_CAD_STANDARDS
 70
     0
  0
APPID
  5
283
330
9
100
AcDbSymbolTableRecord
100
AcDbRegAppTableRecord
  2
GENIUS_GENODEF_13
 70
     0
  0
APPID
  5
284
330
9
100
AcDbSymbolTableRecord
100
AcDbRegAppTableRecord
  2
GENIUS_GENOBJ-N-CRS_13
 70
     0
  0
APPID
  5
285
330
9
100
AcDbSymbolTableRecord
100
AcDbRegAppTableRecord
  2
GENIUS_GENOENT_13
 70
     0
  0
APPID
  5
286
330
9
100
AcDbSymbolTableRecord
100
AcDbRegAppTableRecord
  2
GENIUS_GENOLIS_13
 70
     0
  0
APPID
  5
287
330
9
100
AcDbSymbolTableRecord
100
AcDbRegAppTableRecord
  2
GENIUS_GENOREF_13
 70
     0
  0
APPID
  5
288
330
9
100
AcDbSymbolTableRecord
100
AcDbRegAppTableRecord
  2
GEVID1190879659
 70
     0
  0
APPID
  5
289
330
9
100
AcDbSymbolTableRecord
100
AcDbRegAppTableRecord
  2
GEVDC
 70
     0
  0
APPID
  5
28A
330
9
100
AcDbSymbolTableRecord
100
AcDbRegAppTableRecord
  2
GENIUS_GENBH_13
 70
     0
  0
APPID
  5
28B
330
9
100
AcDbSymbolTableRecord
100
AcDbRegAppTableRecord
  2
GENIUS_GENOBJ-NBEHI-BHF_13
 70
     0
  0
APPID
  5
28C
330
9
100
AcDbSymbolTableRecord
100
AcDbRegAppTableRecord
  2
GENIUS_GENOBJ-NBEHI-BHB_13
 70
     0
  0
APPID
  5
28D
330
9
100
AcDbSymbolTableRecord
100
AcDbRegAppTableRecord
  2
GEVID1190879660
 70
     0
  0
APPID
  5
28E
330
9
100
AcDbSymbolTableRecord
100
AcDbRegAppTableRecord
  2
GEVID1190879661
 70
     0
  0
APPID
  5
28F
330
9
100
AcDbSymbolTableRecord
100
AcDbRegAppTableRecord
  2
ACAD_DSTYLE_DIMRADIAL_EXTENSION
 70
     0
  0
APPID
  5
290
330
9
100
AcDbSymbolTableRecord
100
AcDbRegAppTableRecord
  2
GEVID1190879662
 70
     0
  0
APPID
  5
291
330
9
100
AcDbSymbolTableRecord
100
AcDbRegAppTableRecord
  2
GEVID1190879663
 70
     0
  0
APPID
  5
292
330
9
100
AcDbSymbolTableRecord
100
AcDbRegAppTableRecord
  2
GEVID1190879664
 70
     0
  0
APPID
  5
293
330
9
100
AcDbSymbolTableRecord
100
AcDbRegAppTableRecord
  2
GEVID1190879665
 70
     0
  0
APPID
  5
294
330
9
100
AcDbSymbolTableRecord
100
AcDbRegAppTableRecord
  2
GEVID1190879666
 70
     0
  0
APPID
  5
295
330
9
100
AcDbSymbolTableRecord
100
AcDbRegAppTableRecord
  2
GENIUS_GENOBJ-N-CEN_13
 70
     0
  0
APPID
  5
296
330
9
100
AcDbSymbolTableRecord
100
AcDbRegAppTableRecord
  2
GENIUS_GENCEN_19
 70
     0
  0
APPID
  5
297
330
9
100
AcDbSymbolTableRecord
100
AcDbRegAppTableRecord
  2
GEVID1190879667
 70
     0
  0
APPID
  5
298
330
9
100
AcDbSymbolTableRecord
100
AcDbRegAppTableRecord
  2
GENIUS_GENOBJ-N-CRC_13
 70
     0
  0
APPID
  5
299
330
9
100
AcDbSymbolTableRecord
100
AcDbRegAppTableRecord
  2
GENIUS_GENCRC_14
 70
     0
  0
APPID
  5
29A
330
9
100
AcDbSymbolTableRecord
100
AcDbRegAppTableRecord
  2
ACAD_PSEXT
 70
     0
  0
APPID
  5
29B
330
9
100
AcDbSymbolTableRecord
100
AcDbRegAppTableRecord
  2
GEVID1190888456
 70
     0
  0
APPID
  5
29C
330
9
100
AcDbSymbolTableRecord
100
AcDbRegAppTableRecord
  2
GEVID1190888457
 70
     0
  0
APPID
  5
29D
330
9
100
AcDbSymbolTableRecord
100
AcDbRegAppTableRecord
  2
GEVID1190888458
 70
     0
  0
APPID
  5
29E
330
9
100
AcDbSymbolTableRecord
100
AcDbRegAppTableRecord
  2
GEVID1190888459
 70
     0
  0
APPID
  5
29F
330
9
100
AcDbSymbolTableRecord
100
AcDbRegAppTableRecord
  2
GEVID1190888460
 70
     0
  0
APPID
  5
2A0
330
9
100
AcDbSymbolTableRecord
100
AcDbRegAppTableRecord
  2
GEVID1190888461
 70
     0
  0
APPID
  5
2A1
330
9
100
AcDbSymbolTableRecord
100
AcDbRegAppTableRecord
  2
GEVID1190888462
 70
     0
  0
APPID
  5
2A2
330
9
100
AcDbSymbolTableRecord
100
AcDbRegAppTableRecord
  2
ACAD_DSTYLE_DIMJAG
 70
     0
  0
APPID
  5
2A3
330
9
100
AcDbSymbolTableRecord
100
AcDbRegAppTableRecord
  2
ACAD_DSTYLE_DIMTALN
 70
     0
  0
APPID
  5
390
330
9
100
AcDbSymbolTableRecord
100
AcDbRegAppTableRecord
  2
GENIUS_GENBLLY_14
 70
     0
  0
APPID
  5
3D5
330
9
100
AcDbSymbolTableRecord
100
AcDbRegAppTableRecord
  2
DCO15
 70
     0
  0
APPID
  5
3D6
330
9
100
AcDbSymbolTableRecord
100
AcDbRegAppTableRecord
  2
GENIUS_GENREC_14
 70
     0
  0
APPID
  5
3D7
330
9
100
AcDbSymbolTableRecord
100
AcDbRegAppTableRecord
  2
GENIUS_GENOBJ-N-REC_13
 70
     0
  0
APPID
  5
519
330
9
100
AcDbSymbolTableRecord
100
AcDbRegAppTableRecord
  2
GENIUS_GENOBJ-N-TIT_13
 70
     0
  0
APPID
  5
51A
330
9
100
AcDbSymbolTableRecord
100
AcDbRegAppTableRecord
  2
GENIUS_GENTITLE_13
 70
     0
  0
APPID
  5
521
330
9
100
AcDbSymbolTableRecord
100
AcDbRegAppTableRecord
  2
GENIUS_GENSCREG_15
 70
     0
  0
APPID
  5
522
330
9
100
AcDbSymbolTableRecord
100
AcDbRegAppTableRecord
  2
GENIUS_GENOBJ-N-SDF_13
 70
     0
  0
APPID
  5
5BA
330
9
100
AcDbSymbolTableRecord
100
AcDbRegAppTableRecord
  2
ACAD_DSTYLE_DIMINSPECT
 70
     0
  0
APPID
  5
986
330
9
100
AcDbSymbolTableRecord
100
AcDbRegAppTableRecord
  2
GENIUS_GENDIMSH_14
 70
     0
  0
APPID
  5
AFA
330
9
100
AcDbSymbolTableRecord
100
AcDbRegAppTableRecord
  2
GENIUS_GENOBJ-N-HTC_13
 70
     0
  0
APPID
  5
AFB
330
9
100
AcDbSymbolTableRecord
100
AcDbRegAppTableRecord
  2
GENIUS_GENHATCH_13
 70
     0
  0
APPID
  5
B3E
330
9
100
AcDbSymbolTableRecord
100
AcDbRegAppTableRecord
  2
ACAUTHENVIRON
 70
     0
  0
APPID
  5
B42
330
9
100
AcDbSymbolTableRecord
100
AcDbRegAppTableRecord
  2
AcDbDynamicBlockTrueName
 70
     0
  0
APPID
  5
B43
330
9
100
AcDbSymbolTableRecord
100
AcDbRegAppTableRecord
  2
AcDbDynamicBlockGUID
 70
     0
  0
APPID
  5
B45
330
9
100
AcDbSymbolTableRecord
100
AcDbRegAppTableRecord
  2
ACDBBLOCKREPETAG
 70
     0
  0
APPID
  5
2F23
330
9
100
AcDbSymbolTableRecord
100
AcDbRegAppTableRecord
  2
GENIUS_GENDTOL_13
 70
     0
  0
APPID
  5
30F0
330
9
100
AcDbSymbolTableRecord
100
AcDbRegAppTableRecord
  2
AcDbAttr
 70
     0
  0
ENDTAB
  0
TABLE
  2
DIMSTYLE
  5
A
330
0
100
AcDbSymbolTable
 70
    25
100
AcDbDimStyleTable
 71
     5
340
276
340
27B
340
5F
340
27C
340
3CE
  0
DIMSTYLE
105
5F
330
A
100
AcDbSymbolTableRecord
100
AcDbDimStyleTableRecord
  2
Standard
 70
     0
340
5D
  0
DIMSTYLE
105
18F
330
A
100
AcDbSymbolTableRecord
100
AcDbDimStyleTableRecord
  2
AM_ANSI
 70
     0
  4
mm
 41
0.1
 42
0.05
 43
0.5
 44
0.1
 47
0.1
 48
0.1
 78
     7
 79
     2
140
0.12
141
0.0
146
0.71
147
0.06
176
   256
177
   256
178
     2
274
     4
284
     7
340
5D
371
    -1
372
    -1
1001
ACAD_DSTYLE_DIMARC_LENGTH_SYMBOL
1070
   379
1070
     1
  0
DIMSTYLE
105
190
330
A
100
AcDbSymbolTableRecord
100
AcDbDimStyleTableRecord
  2
AM_ANSI$3
 70
     0
  4
mm
 41
0.1
 42
0.05
 43
0.5
 44
0.1
 47
0.1
 48
0.1
 78
     7
 79
     2
140
0.12
141
0.0
146
0.71
147
0.06
176
   256
177
   256
178
     2
274
     4
284
     7
288
     1
289
     0
340
5D
371
    -1
372
    -1
1001
ACAD_DSTYLE_DIMARC_LENGTH_SYMBOL
1070
   379
1070
     1
  0
DIMSTYLE
105
191
330
A
100
AcDbSymbolTableRecord
100
AcDbDimStyleTableRecord
  2
AM_ANSI$4
 70
     0
  4
mm
 41
0.1
 42
0.05
 43
0.5
 44
0.1
 47
0.1
 48
0.1
 78
     7
 79
     2
140
0.12
141
0.0
146
0.71
147
0.06
176
   256
177
   256
178
     2
274
     4
284
     7
288
     1
289
     0
340
5D
371
    -1
372
    -1
1001
ACAD_DSTYLE_DIMARC_LENGTH_SYMBOL
1070
   379
1070
     1
  0
DIMSTYLE
105
192
330
A
100
AcDbSymbolTableRecord
100
AcDbDimStyleTableRecord
  2
AM_ANSI$7
 70
     0
  4
mm
 41
0.1
 42
0.05
 43
0.5
 44
0.1
 47
0.1
 48
0.1
 78
     7
 79
     2
140
0.24
141
0.0
146
0.71
147
0.06
176
   256
177
   256
178
     2
274
     4
284
     7
340
5D
371
    -1
372
    -1
1001
ACAD_DSTYLE_DIMARC_LENGTH_SYMBOL
1070
   379
1070
     1
  0
DIMSTYLE
105
193
330
A
100
AcDbSymbolTableRecord
100
AcDbDimStyleTableRecord
  2
AM_ANSI$SF
 70
     0
  4
mm
 41
0.1
 42
0.05
 43
0.5
 44
0.1
 47
0.1
 48
0.1
 75
     1
 76
     1
 78
     7
 79
     2
140
0.12
141
0.0
146
0.71
147
0.06
176
   256
177
   256
178
     2
274
     4
284
     7
340
5D
371
    -1
372
    -1
1001
ACAD_DSTYLE_DIMARC_LENGTH_SYMBOL
1070
   379
1070
     1
  0
DIMSTYLE
105
198
330
A
100
AcDbSymbolTableRecord
100
AcDbDimStyleTableRecord
  2
AM_ANSI$SH
 70
     0
  4
mm
 41
0.1
 42
0.05
 43
0.5
 44
0.1
 47
0.1
 48
0.1
 75
     1
 76
     1
 78
     7
 79
     2
140
0.12
141
0.0
146
0.71
147
0.06
173
     1
176
   256
177
   256
178
     2
274
     4
284
     7
340
5D
343
194
371
    -1
372
    -1
1001
ACAD_DSTYLE_DIMARC_LENGTH_SYMBOL
1070
   379
1070
     1
  0
DIMSTYLE
105
276
330
A
100
AcDbSymbolTableRecord
100
AcDbDimStyleTableRecord
  2
AM_DIN
 70
     0
  4
"
 41
5.0
 42
1.0
 43
10.0
 44
1.0
 47
0.1
 48
0.1
 73
     0
 74
     0
 77
     1
 78
     8
 79
     2
140
5.0
141
0.0
143
0.0393701
146
0.71
147
1.5
172
     1
176
   256
177
   256
178
     2
271
     2
272
     2
283
     0
284
     8
340
5D
371
    -1
372
    -1
1001
ACAD_DSTYLE_DIMJOGGED_JOGANGLE_SYMBOL
1070
   384
1040
1.570796326794896
  0
DIMSTYLE
105
277
330
A
100
AcDbSymbolTableRecord
100
AcDbDimStyleTableRecord
  2
AM_DIN$3
 70
     0
  4
"
 41
3.5
 42
1.0
 43
10.0
 44
1.0
 47
0.1
 48
0.1
 73
     0
 77
     1
 78
     8
 79
     2
140
3.5
141
0.0
143
0.0393701
146
0.71
147
1.5
176
   256
177
   256
178
     2
271
     2
272
     2
283
     0
284
     8
288
     1
289
     0
340
5D
371
    -1
372
    -1
1001
ACAD_DSTYLE_DIMJOGGED_JOGANGLE_SYMBOL
1070
   384
1040
1.570796326794896
  0
DIMSTYLE
105
278
330
A
100
AcDbSymbolTableRecord
100
AcDbDimStyleTableRecord
  2
AM_DIN$4
 70
     0
  4
"
 41
4.0
 42
1.0
 43
10.0
 44
1.0
 47
0.1
 48
0.1
 73
     0
 77
     1
 78
     8
 79
     2
140
3.5
141
0.0
143
0.0393701
146
0.71
147
1.5
176
   256
177
   256
178
     2
271
     2
272
     2
283
     0
284
     8
288
     1
289
     0
340
5D
371
    -1
372
    -1
1001
ACAD_DSTYLE_DIMJOGGED_JOGANGLE_SYMBOL
1070
   384
1040
1.570796326794896
  0
DIMSTYLE
105
279
330
A
100
AcDbSymbolTableRecord
100
AcDbDimStyleTableRecord
  2
AM_DIN$6
 70
     0
  4
"
 41
4.0
 42
0.0
 43
10.0
 44
1.0
 47
0.1
 48
0.1
 73
     0
 74
     0
 78
     8
 79
     2
140
3.5
141
0.0
143
0.0393701
146
0.71
147
1.5
172
     1
176
   256
177
   256
178
     2
271
     2
272
     2
283
     0
284
     8
340
5D
371
    -1
372
    -1
1001
ACAD_DSTYLE_DIMJOGGED_JOGANGLE_SYMBOL
1070
   384
1040
1.570796326794896
  0
DIMSTYLE
105
27A
330
A
100
AcDbSymbolTableRecord
100
AcDbDimStyleTableRecord
  2
AM_DIN$7
 70
     0
  4
"
 41
5.0
 42
1.0
 43
10.0
 44
1.0
 47
0.1
 48
0.1
 73
     0
 74
     0
 77
     1
 78
     8
 79
     2
140
5.0
141
0.0
143
0.0393701
146
0.71
147
1.5
172
     1
176
   256
177
   256
178
     2
271
     2
272
     2
283
     0
284
     8
340
5D
371
    -1
372
    -1
1001
ACAD_DSTYLE_DIMJOGGED_JOGANGLE_SYMBOL
1070
   384
1040
1.570796326794896
  0
DIMSTYLE
105
27B
330
A
100
AcDbSymbolTableRecord
100
AcDbDimStyleTableRecord
  2
AM_DIN$SF
 70
     0
  4
"
 41
4.0
 42
1.0
 43
10.0
 44
1.0
 47
0.1
 48
0.1
 73
     0
 74
     0
 75
     1
 76
     1
 77
     1
 78
     8
 79
     2
140
3.5
141
0.0
143
0.0393701
146
0.71
147
1.5
172
     1
176
   256
177
   256
178
     2
271
     2
272
     2
283
     0
284
     8
340
5D
371
    -1
372
    -1
1001
ACAD_DSTYLE_DIMJOGGED_JOGANGLE_SYMBOL
1070
   384
1040
1.570796326794896
  0
DIMSTYLE
105
27C
330
A
100
AcDbSymbolTableRecord
100
AcDbDimStyleTableRecord
  2
AM_DIN$SH
 70
     0
  4
"
 41
4.0
 42
1.0
 43
10.0
 44
1.0
 47
0.1
 48
0.1
 73
     0
 74
     0
 75
     1
 76
     1
 77
     1
 78
     8
 79
     2
140
3.5
141
0.0
143
0.0393701
144
2.0
146
0.71
147
1.5
172
     1
173
     1
176
   256
177
   256
178
     2
271
     2
272
     2
283
     0
284
     8
340
5D
343
194
371
    -1
372
    -1
1001
ACAD_DSTYLE_DIMJOGGED_JOGANGLE_SYMBOL
1070
   384
1040
1.570796326794896
  0
DIMSTYLE
105
32F
102
{ACAD_REACTORS
330
2BB5
330
2C57
330
2C93
102
}
330
A
100
AcDbSymbolTableRecord
100
AcDbDimStyleTableRecord
  2
AM_DIN$0
 70
     0
  4
"
 41
4.0
 42
0.0
 43
10.0
 44
1.0
 47
0.1
 48
0.1
 73
     0
 74
     0
 77
     1
 78
     8
 79
     2
140
3.5
141
0.0
143
0.0393701
146
0.71
147
1.5
172
     1
176
   256
177
   256
178
     2
271
     2
272
     2
283
     0
284
     8
340
5D
371
    -1
372
    -1
1001
ACAD_DSTYLE_DIMJOGGED_JOGANGLE_SYMBOL
1070
   384
1040
1.570796326794896
  0
DIMSTYLE
105
330
330
A
100
AcDbSymbolTableRecord
100
AcDbDimStyleTableRecord
  2
AM_DIN$2
 70
     0
  4
"
 41
4.0
 42
0.0
 43
10.0
 44
1.0
 47
0.1
 48
0.1
 73
     0
 74
     0
 77
     1
 78
     8
 79
     2
140
3.5
141
0.0
143
0.0393701
146
0.71
147
1.5
172
     1
176
   256
177
   256
178
     2
271
     2
272
     2
283
     0
284
     8
340
5D
371
    -1
372
    -1
1001
ACAD_DSTYLE_DIMJOGGED_JOGANGLE_SYMBOL
1070
   384
1040
1.570796326794896
  0
DIMSTYLE
105
3CE
330
A
100
AcDbSymbolTableRecord
100
AcDbDimStyleTableRecord
  2
AM_ISO
 70
     0
  4
"
 41
2.5
 42
1.0
 43
10.0
 44
1.0
 47
0.1
 48
0.1
 73
     0
 74
     0
 77
     1
 78
     8
 79
     2
140
3.5
141
0.0
143
0.0393701
146
0.71
147
1.5
172
     1
176
   256
177
   256
178
     2
271
     2
272
     3
274
     4
283
     0
284
     8
340
5D
371
    -1
372
    -1
1001
ACAD_DSTYLE_DIMJOGGED_JOGANGLE_SYMBOL
1070
   384
1040
0.7853981633974483
1001
ACAD_DSTYLE_DIMARC_LENGTH_SYMBOL
1070
   379
1070
     1
  0
DIMSTYLE
105
3CF
330
A
100
AcDbSymbolTableRecord
100
AcDbDimStyleTableRecord
  2
AM_ISO$3
 70
     0
  4
"
 41
2.5
 42
1.0
 43
10.0
 44
1.0
 47
0.1
 48
0.1
 73
     0
 77
     1
 78
     8
 79
     2
140
3.5
141
0.0
143
0.0393701
146
0.71
147
1.5
176
   256
177
   256
178
     2
271
     2
272
     3
274
     4
283
     0
284
     8
288
     1
289
     0
340
5D
371
    -1
372
    -1
1001
ACAD_DSTYLE_DIMJOGGED_JOGANGLE_SYMBOL
1070
   384
1040
0.7853981633974483
1001
ACAD_DSTYLE_DIMARC_LENGTH_SYMBOL
1070
   379
1070
     1
  0
DIMSTYLE
105
3D0
330
A
100
AcDbSymbolTableRecord
100
AcDbDimStyleTableRecord
  2
AM_ISO$4
 70
     0
  4
"
 41
2.5
 42
1.0
 43
10.0
 44
1.0
 47
0.1
 48
0.1
 73
     0
 77
     1
 78
     8
 79
     2
140
3.5
141
0.0
143
0.0393701
146
0.71
147
1.5
176
   256
177
   256
178
     2
271
     2
272
     3
274
     4
283
     0
284
     8
288
     1
289
     0
340
5D
371
    -1
372
    -1
1001
ACAD_DSTYLE_DIMJOGGED_JOGANGLE_SYMBOL
1070
   384
1040
0.7853981633974483
1001
ACAD_DSTYLE_DIMARC_LENGTH_SYMBOL
1070
   379
1070
     1
  0
DIMSTYLE
105
3D1
330
A
100
AcDbSymbolTableRecord
100
AcDbDimStyleTableRecord
  2
AM_ISO$6
 70
     0
  4
"
 41
2.5
 42
1.0
 43
10.0
 44
1.0
 47
0.1
 48
0.1
 73
     0
 74
     0
 78
     8
 79
     2
140
3.5
141
0.0
143
0.0393701
146
0.71
147
1.5
172
     1
176
   256
177
   256
178
     2
271
     2
272
     3
274
     4
283
     0
284
     8
340
5D
371
    -1
372
    -1
1001
ACAD_DSTYLE_DIMJOGGED_JOGANGLE_SYMBOL
1070
   384
1040
0.7853981633974483
1001
ACAD_DSTYLE_DIMARC_LENGTH_SYMBOL
1070
   379
1070
     1
  0
DIMSTYLE
105
3D2
330
A
100
AcDbSymbolTableRecord
100
AcDbDimStyleTableRecord
  2
AM_ISO$7
 70
     0
  4
"
 41
2.5
 42
1.0
 43
10.0
 44
1.0
 47
0.1
 48
0.1
 73
     0
 74
     0
 77
     1
 78
     8
 79
     2
140
5.0
141
0.0
143
0.0393701
146
0.71
147
1.5
172
     1
176
   256
177
   256
178
     2
271
     2
272
     3
274
     4
283
     0
284
     8
340
5D
371
    -1
372
    -1
1001
ACAD_DSTYLE_DIMJOGGED_JOGANGLE_SYMBOL
1070
   384
1040
0.7853981633974483
1001
ACAD_DSTYLE_DIMARC_LENGTH_SYMBOL
1070
   379
1070
     1
  0
DIMSTYLE
105
3D3
330
A
100
AcDbSymbolTableRecord
100
AcDbDimStyleTableRecord
  2
AM_ISO$SF
 70
     0
  4
"
 41
2.5
 42
1.0
 43
10.0
 44
1.0
 47
0.1
 48
0.1
 73
     0
 74
     0
 75
     1
 76
     1
 77
     1
 78
     8
 79
     2
140
3.5
141
0.0
143
0.0393701
146
0.71
147
1.5
172
     1
176
   256
177
   256
178
     2
271
     2
272
     3
274
     4
283
     0
284
     8
340
5D
371
    -1
372
    -1
1001
ACAD_DSTYLE_DIMJOGGED_JOGANGLE_SYMBOL
1070
   384
1040
0.7853981633974483
1001
ACAD_DSTYLE_DIMARC_LENGTH_SYMBOL
1070
   379
1070
     1
  0
DIMSTYLE
105
3D4
330
A
100
AcDbSymbolTableRecord
100
AcDbDimStyleTableRecord
  2
AM_ISO$SH
 70
     0
  4
"
 41
2.5
 42
1.0
 43
10.0
 44
1.0
 47
0.1
 48
0.1
 73
     0
 74
     0
 75
     1
 76
     1
 77
     1
 78
     8
 79
     2
140
3.5
141
0.0
143
0.0393701
144
2.0
146
0.71
147
1.5
172
     1
173
     1
176
   256
177
   256
178
     2
271
     2
272
     3
274
     4
283
     0
284
     8
340
5D
343
194
371
    -1
372
    -1
1001
ACAD_DSTYLE_DIMJOGGED_JOGANGLE_SYMBOL
1070
   384
1040
0.7853981633974483
1001
ACAD_DSTYLE_DIMARC_LENGTH_SYMBOL
1070
   379
1070
     1
  0
ENDTAB
  0
TABLE
  2
BLOCK_RECORD
  5
1
330
0
100
AcDbSymbolTable
 70
    44
  0
BLOCK_RECORD
  5
74
102
{ACAD_XDICTIONARY
360
A88
102
}
330
1
100
AcDbSymbolTableRecord
100
AcDbBlockTableRecord
  2
*Model_Space
340
77
  0
BLOCK_RECORD
  5
70
330
1
100
AcDbSymbolTableRecord
100
AcDbBlockTableRecord
  2
*Paper_Space
340
73
  0
BLOCK_RECORD
  5
194
330
1
100
AcDbSymbolTableRecord
100
AcDbBlockTableRecord
  2
GENAXEH
340
0
  0
BLOCK_RECORD
  5
2BB6
330
1
100
AcDbSymbolTableRecord
100
AcDbBlockTableRecord
  2
*D19
340
0
  0
BLOCK_RECORD
  5
2C58
330
1
100
AcDbSymbolTableRecord
100
AcDbBlockTableRecord
  2
*D22
340
0
  0
BLOCK_RECORD
  5
2C94
330
1
100
AcDbSymbolTableRecord
100
AcDbBlockTableRecord
  2
*D23
340
0
  0
ENDTAB
  0
ENDSEC
  0
SECTION
  2
BLOCKS
  0
BLOCK
  5
75
330
74
100
AcDbEntity
  8
0
100
AcDbBlockBegin
  2
*Model_Space
 70
     0
 10
0.0
 20
0.0
 30
0.0
  3
*Model_Space
  1

  0
ENDBLK
  5
76
330
74
100
AcDbEntity
  8
0
100
AcDbBlockEnd
  0
BLOCK
  5
71
330
70
100
AcDbEntity
 67
     1
  8
0
100
AcDbBlockBegin
  2
*Paper_Space
 70
     0
 10
0.0
 20
0.0
 30
0.0
  3
*Paper_Space
  1

  0
ENDBLK
  5
72
330
70
100
AcDbEntity
 67
     1
  8
0
100
AcDbBlockEnd
  0
BLOCK
  5
31A3
330
194
100
AcDbEntity
  8
0
100
AcDbBlockBegin
  2
GENAXEH
 70
     0
 10
0.0
 20
0.0
 30
0.0
  3
GENAXEH
  1

  0
LINE
  5
31A4
330
194
100
AcDbEntity
  8
0
100
AcDbLine
 10
-1.0
 20
0.0
 30
0.0
 11
1.0
 21
0.0
 31
0.0
  0
ENDBLK
  5
31A5
330
194
100
AcDbEntity
  8
0
100
AcDbBlockEnd
  0
BLOCK
  5
2BB7
330
2BB6
100
AcDbEntity
  8
0
100
AcDbBlockBegin
  2
*D19
 70
     1
 10
0.0
 20
0.0
 30
0.0
  3
*D19
  1

  0
LINE
  5
3219
330
2BB6
100
AcDbEntity
  8
AM_5 ( Bemassung)
100
AcDbLine
 10
4516.972010848205
 20
4367.741819015203
 30
0.0
 11
4626.387813082587
 21
4367.741819015203
 31
0.0
  0
LINE
  5
321A
330
2BB6
100
AcDbEntity
  8
AM_5 ( Bemassung)
100
AcDbLine
 10
4516.972010848205
 20
4089.741819015205
 30
0.0
 11
4626.387813082587
 21
4089.741819015205
 31
0.0
  0
LINE
  5
321B
330
2BB6
100
AcDbEntity
  8
AM_5 ( Bemassung)
100
AcDbLine
 10
4622.387813082587
 20
4351.741819015204
 30
0.0
 11
4622.387813082587
 21
4105.741819015205
 31
0.0
  0
SOLID
  5
321C
330
2BB6
100
AcDbEntity
  8
AM_5 ( Bemassung)
100
AcDbTrace
 10
4619.72114641592
 20
4351.741819015204
 30
0.0
 11
4625.054479749254
 21
4351.741819015204
 31
0.0
 12
4622.387813082587
 22
4367.741819015203
 32
0.0
 13
4622.387813082587
 23
4367.741819015203
 33
0.0
  0
SOLID
  5
321D
330
2BB6
100
AcDbEntity
  8
AM_5 ( Bemassung)
100
AcDbTrace
 10
4619.72114641592
 20
4105.741819015205
 30
0.0
 11
4625.054479749254
 21
4105.741819015205
 31
0.0
 12
4622.387813082587
 22
4089.741819015205
 32
0.0
 13
4622.387813082587
 23
4089.741819015205
 33
0.0
  0
MTEXT
  5
321E
330
2BB6
100
AcDbEntity
  8
AM_5 ( Bemassung)
 62
     2
100
AcDbMText
 10
4609.239791254482
 20
4228.741819015206
 30
0.0
 40
14.0
 41
0.0
 71
     5
 72
     1
  1
278
 11
0.0000000000000001
 21
1.0
 31
0.0
 73
     1
 44
1.0
  0
POINT
  5
321F
330
2BB6
100
AcDbEntity
  8
Defpoints
 62
     0
100
AcDbPoint
 10
4516.972010848205
 20
4367.741819015203
 30
-0.0000000000000002
  0
POINT
  5
3220
330
2BB6
100
AcDbEntity
  8
Defpoints
 62
     0
100
AcDbPoint
 10
4516.972010848205
 20
4089.741819015205
 30
-0.0000000000000002
  0
POINT
  5
3221
330
2BB6
100
AcDbEntity
  8
Defpoints
 62
     0
100
AcDbPoint
 10
4622.387813082587
 20
4089.741819015205
 30
0.0
  0
ENDBLK
  5
2BB8
330
2BB6
100
AcDbEntity
  8
0
100
AcDbBlockEnd
  0
BLOCK
  5
2C59
330
2C58
100
AcDbEntity
  8
0
100
AcDbBlockBegin
  2
*D22
 70
     1
 10
0.0
 20
0.0
 30
0.0
  3
*D22
  1

  0
LINE
  5
3222
330
2C58
100
AcDbEntity
  8
AM_5 ( Bemassung)
100
AcDbLine
 10
4516.972010848205
 20
4367.741819015203
 30
0.0
 11
4516.972010848205
 21
4456.888168431223
 31
0.0
  0
LINE
  5
3223
330
2C58
100
AcDbEntity
  8
AM_5 ( Bemassung)
100
AcDbLine
 10
3916.972001837115
 20
4367.741819015203
 30
0.0
 11
3916.972001837115
 21
4456.888168431223
 31
0.0
  0
LINE
  5
3224
330
2C58
100
AcDbEntity
  8
AM_5 ( Bemassung)
100
AcDbLine
 10
4500.972010848206
 20
4452.888168431224
 30
0.0
 11
3932.972001837115
 21
4452.888168431224
 31
0.0
  0
SOLID
  5
3225
330
2C58
100
AcDbEntity
  8
AM_5 ( Bemassung)
100
AcDbTrace
 10
4500.972010848206
 20
4455.554835097891
 30
0.0
 11
4500.972010848206
 21
4450.221501764556
 31
0.0
 12
4516.972010848205
 22
4452.888168431224
 32
0.0
 13
4516.972010848205
 23
4452.888168431224
 33
0.0
  0
SOLID
  5
3226
330
2C58
100
AcDbEntity
  8
AM_5 ( Bemassung)
100
AcDbTrace
 10
3932.972001837115
 20
4455.554835097891
 30
0.0
 11
3932.972001837115
 21
4450.221501764556
 31
0.0
 12
3916.972001837115
 22
4452.888168431224
 32
0.0
 13
3916.972001837115
 23
4452.888168431224
 33
0.0
  0
MTEXT
  5
3227
330
2C58
100
AcDbEntity
  8
AM_5 ( Bemassung)
 62
     2
100
AcDbMText
 10
4216.97200634266
 20
4466.42773186915
 30
0.0
 40
14.0
 41
0.0
 71
     5
 72
     1
  1
%%c 600
 73
     1
 44
1.0
  0
POINT
  5
3228
330
2C58
100
AcDbEntity
  8
Defpoints
 62
     0
100
AcDbPoint
 10
4516.972010848205
 20
4367.741819015203
 30
0.0
  0
POINT
  5
3229
330
2C58
100
AcDbEntity
  8
Defpoints
 62
     0
100
AcDbPoint
 10
3916.972001837115
 20
4367.741819015203
 30
0.0
  0
POINT
  5
322A
330
2C58
100
AcDbEntity
  8
Defpoints
 62
     0
100
AcDbPoint
 10
3916.972001837115
 20
4452.888168431224
 30
0.0
  0
ENDBLK
  5
2C5A
330
2C58
100
AcDbEntity
  8
0
100
AcDbBlockEnd
  0
BLOCK
  5
2C95
330
2C94
100
AcDbEntity
  8
0
100
AcDbBlockBegin
  2
*D23
 70
     1
 10
0.0
 20
0.0
 30
0.0
  3
*D23
  1

  0
LINE
  5
322B
330
2C94
100
AcDbEntity
  8
AM_5 ( Bemassung)
100
AcDbLine
 10
4076.972004240075
 20
4089.741819015205
 30
0.0
 11
4076.972004240075
 21
3991.678193684706
 31
0.0
  0
LINE
  5
322C
330
2C94
100
AcDbEntity
  8
AM_5 ( Bemassung)
100
AcDbLine
 10
4356.972008445246
 20
4089.741819015205
 30
0.0
 11
4356.972008445246
 21
3991.678193684706
 31
0.0
  0
LINE
  5
322D
330
2C94
100
AcDbEntity
  8
AM_5 ( Bemassung)
100
AcDbLine
 10
4092.972004240075
 20
3995.678193684706
 30
0.0
 11
4340.972008445246
 21
3995.678193684706
 31
0.0
  0
SOLID
  5
322E
330
2C94
100
AcDbEntity
  8
AM_5 ( Bemassung)
100
AcDbTrace
 10
4092.972004240075
 20
3998.344860351373
 30
0.0
 11
4092.972004240075
 21
3993.011527018039
 31
0.0
 12
4076.972004240075
 22
3995.678193684706
 32
0.0
 13
4076.972004240075
 23
3995.678193684706
 33
0.0
  0
SOLID
  5
322F
330
2C94
100
AcDbEntity
  8
AM_5 ( Bemassung)
100
AcDbTrace
 10
4340.972008445246
 20
3998.344860351373
 30
0.0
 11
4340.972008445246
 21
3993.011527018039
 31
0.0
 12
4356.972008445246
 22
3995.678193684706
 32
0.0
 13
4356.972008445246
 23
3995.678193684706
 33
0.0
  0
MTEXT
  5
3230
330
2C94
100
AcDbEntity
  8
AM_5 ( Bemassung)
 62
     2
100
AcDbMText
 10
4216.97200634266
 20
4009.217757122632
 30
0.0
 40
14.0
 41
0.0
 71
     5
 72
     1
  1
%%c 280
 73
     1
 44
1.0
  0
POINT
  5
3231
330
2C94
100
AcDbEntity
  8
Defpoints
 62
     0
100
AcDbPoint
 10
4076.972004240075
 20
4089.741819015205
 30
-0.0000000000000002
  0
POINT
  5
3232
330
2C94
100
AcDbEntity
  8
Defpoints
 62
     0
100
AcDbPoint
 10
4356.972008445246
 20
4089.741819015205
 30
-0.0000000000000002
  0
POINT
  5
3233
330
2C94
100
AcDbEntity
  8
Defpoints
 62
     0
100
AcDbPoint
 10
4356.972008445246
 20
3995.678193684706
 30
0.0
  0
ENDBLK
  5
2C96
330
2C94
100
AcDbEntity
  8
0
100
AcDbBlockEnd
  0
ENDSEC
  0
SECTION
  2
ENTITIES
  0
LINE
  5
20B4
330
74
100
AcDbEntity
  8
AM_0 ( Kontur 0.5 )
100
AcDbLine
 10
3916.972001837115
 20
4363.741818955131
 30
-0.0000000000000002
 11
4516.972010848205
 21
4363.741818955131
 31
-0.0000000000000002
  0
LINE
  5
20B5
102
{ACAD_REACTORS
330
2BC3
330
2C65
102
}
330
74
100
AcDbEntity
  8
AM_0 ( Kontur 0.5 )
100
AcDbLine
 10
3916.972001837115
 20
4367.741819015203
 30
-0.0000000000000002
 11
4516.972010848205
 21
4367.741819015203
 31
-0.0000000000000002
  0
LINE
  5
20B6
102
{ACAD_REACTORS
330
2BC3
102
}
330
74
100
AcDbEntity
  8
AM_0 ( Kontur 0.5 )
100
AcDbLine
 10
4516.972010848205
 20
4363.741818955131
 30
-0.0000000000000002
 11
4516.972010848205
 21
4367.741819015203
 31
-0.0000000000000002
  0
LINE
  5
20B7
102
{ACAD_REACTORS
330
2C65
102
}
330
74
100
AcDbEntity
  8
AM_0 ( Kontur 0.5 )
100
AcDbLine
 10
3916.972001837115
 20
4363.741818955131
 30
-0.0000000000000002
 11
3916.972001837115
 21
4367.741819015203
 31
-0.0000000000000002
  0
LINE
  5
20B8
330
74
100
AcDbEntity
  8
AM_7 (Mittellinie)
100
AcDbLine
 10
4366.972008595435
 20
4089.741819015205
 30
-0.0000000000000002
 11
4366.972008595435
 21
4395.819981548154
 31
-0.0000000000000002
  0
LINE
  5
20B9
102
{ACAD_REACTORS
330
2BC3
330
2CA1
102
}
330
74
100
AcDbEntity
  8
AM_0 ( Kontur 0.5 )
100
AcDbLine
 10
3916.972001837115
 20
4089.741819015205
 30
-0.0000000000000002
 11
4516.972010848205
 21
4089.741819015205
 31
-0.0000000000000002
  0
LINE
  5
20BA
330
74
100
AcDbEntity
  8
AM_0 ( Kontur 0.5 )
100
AcDbLine
 10
3916.972001837115
 20
4093.741819075279
 30
-0.0000000000000002
 11
4516.972010848205
 21
4093.741819075279
 31
-0.0000000000000002
  0
LINE
  5
20BB
330
74
100
AcDbEntity
  8
AM_3 ( Verdeckt )
100
AcDbLine
 10
4371.222008659265
 20
4363.741818955131
 30
-0.0000000000000002
 11
4371.222008659265
 21
4367.741819015203
 31
-0.0000000000000002
  0
LINE
  5
20BC
330
74
100
AcDbEntity
  8
AM_3 ( Verdeckt )
100
AcDbLine
 10
4362.722008531606
 20
4363.741818955131
 30
-0.0000000000000002
 11
4362.722008531606
 21
4367.741819015203
 31
-0.0000000000000002
  0
LINE
  5
20BD
330
74
100
AcDbEntity
  8
AM_2 ( Kontur 0.25)
100
AcDbLine
 10
4369.972008640496
 20
4089.741819015205
 30
-0.0000000000000002
 11
4369.972008640496
 21
4373.741819105315
 31
-0.0000000000000002
  0
LINE
  5
20BE
330
74
100
AcDbEntity
  8
AM_3 ( Verdeckt )
100
AcDbLine
 10
4370.972008655506
 20
4089.741819015205
 30
-0.0000000000000002
 11
4370.972008655506
 21
4373.741819105315
 31
-0.0000000000000002
  0
LINE
  5
20BF
330
74
100
AcDbEntity
  8
AM_0 ( Kontur 0.5 )
100
AcDbLine
 10
4373.221455095965
 20
4374.175728531934
 30
-0.0000000000000002
 11
4373.221455095965
 21
4376.491819342024
 31
-0.0000000000000002
  0
ARC
  5
20C0
330
74
100
AcDbEntity
  8
AM_0 ( Kontur 0.5 )
100
AcDbCircle
 10
-4372.600620220565
 20
4370.69080732946
 30
0.0000000000000002
 40
2.948988314257579
210
0.0
220
0.0
230
-1.0
100
AcDbArc
 50
230.4848621642075
 51
309.5151378357925
  0
ARC
  5
20C1
330
74
100
AcDbEntity
  8
AM_0 ( Kontur 0.5 )
100
AcDbCircle
 10
-4372.600620220565
 20
4371.29283135459
 30
0.0000000000000002
 40
2.948988314257579
210
0.0
220
0.0
230
-1.0
100
AcDbArc
 50
50.4848621642075
 51
129.5151378357924
  0
LINE
  5
20C2
330
74
100
AcDbEntity
  8
AM_0 ( Kontur 0.5 )
100
AcDbLine
 10
4374.477008595435
 20
4368.415791122011
 30
-0.0000000000000002
 11
4374.477008595435
 21
4373.56784756207
 31
-0.0000000000000002
  0
LINE
  5
20C3
330
74
100
AcDbEntity
  8
AM_0 ( Kontur 0.5 )
100
AcDbLine
 10
4370.724231845707
 20
4368.415791121982
 30
-0.0000000000000002
 11
4370.724231845707
 21
4373.567847562072
 31
-0.0000000000000002
  0
LINE
  5
20C4
330
74
100
AcDbEntity
  8
AM_3 ( Verdeckt )
100
AcDbLine
 10
4370.972008655506
 20
4373.741819105315
 30
-0.0000000000000002
 11
4362.972008535357
 21
4373.741819105315
 31
-0.0000000000000002
  0
LINE
  5
20C5
330
74
100
AcDbEntity
  8
AM_3 ( Verdeckt )
100
AcDbLine
 10
4362.972008535357
 20
4089.741819015205
 30
-0.0000000000000002
 11
4362.972008535357
 21
4373.741819105315
 31
-0.0000000000000002
  0
LINE
  5
20C6
330
74
100
AcDbEntity
  8
AM_2 ( Kontur 0.25)
100
AcDbLine
 10
4363.972008550374
 20
4089.741819015205
 30
-0.0000000000000002
 11
4363.972008550374
 21
4373.741819105315
 31
-0.0000000000000002
  0
ARC
  5
20C7
330
74
100
AcDbEntity
  8
AM_0 ( Kontur 0.5 )
100
AcDbCircle
 10
-4366.971455095974
 20
4376.491819342024
 30
0.0000000000000002
 40
6.249999999999928
210
0.0
220
0.0
230
-1.0
100
AcDbArc
 50
0.0
 51
180.0
  0
ARC
  5
20C8
330
74
100
AcDbEntity
  8
AM_0 ( Kontur 0.5 )
100
AcDbCircle
 10
-4361.342289971375
 20
4370.69080732946
 30
0.0000000000000002
 40
2.948988314257579
210
0.0
220
0.0
230
-1.0
100
AcDbArc
 50
230.4848621642075
 51
309.5151378357925
  0
ARC
  5
20C9
330
74
100
AcDbEntity
  8
AM_0 ( Kontur 0.5 )
100
AcDbCircle
 10
-4366.971455095974
 20
4378.526819342027
 30
0.0000000000000002
 40
10.785
210
0.0
220
0.0
230
-1.0
100
AcDbArc
 50
249.6372502232127
 51
290.3627497767314
  0
ARC
  5
20CA
330
74
100
AcDbEntity
  8
AM_0 ( Kontur 0.5 )
100
AcDbCircle
 10
-4366.971455095974
 20
4363.456819342025
 30
0.0000000000000002
 40
10.785
210
0.0
220
0.0
230
-1.0
100
AcDbArc
 50
69.63725022326858
 51
110.3627497767872
  0
LINE
  5
20CB
330
74
100
AcDbEntity
  8
AM_0 ( Kontur 0.5 )
100
AcDbLine
 10
4360.721455095974
 20
4374.175728531934
 30
-0.0000000000000002
 11
4360.721455095974
 21
4376.491819342024
 31
-0.0000000000000002
  0
ARC
  5
20CC
330
74
100
AcDbEntity
  8
AM_0 ( Kontur 0.5 )
100
AcDbCircle
 10
-4361.342289971375
 20
4371.29283135459
 30
0.0000000000000002
 40
2.948988314257579
210
0.0
220
0.0
230
-1.0
100
AcDbArc
 50
50.48486216422428
 51
129.5151378357924
  0
LINE
  5
20CD
330
74
100
AcDbEntity
  8
AM_0 ( Kontur 0.5 )
100
AcDbLine
 10
4363.218678346235
 20
4368.415791122011
 30
-0.0000000000000002
 11
4363.218678346235
 21
4373.567847562084
 31
-0.0000000000000002
  0
LINE
  5
20CE
330
74
100
AcDbEntity
  8
AM_0 ( Kontur 0.5 )
100
AcDbLine
 10
4359.465901596506
 20
4368.415791122011
 30
-0.0000000000000002
 11
4359.465901596506
 21
4373.56784756207
 31
-0.0000000000000002
  0
LINE
  5
20CF
330
74
100
AcDbEntity
  8
AM_3 ( Verdeckt )
100
AcDbLine
 10
4071.222004153715
 20
4363.741818955131
 30
-0.0000000000000002
 11
4071.222004153715
 21
4367.741819015203
 31
-0.0000000000000002
  0
LINE
  5
20D0
330
74
100
AcDbEntity
  8
AM_3 ( Verdeckt )
100
AcDbLine
 10
4062.722004026055
 20
4363.741818955131
 30
-0.0000000000000002
 11
4062.722004026055
 21
4367.741819015203
 31
-0.0000000000000002
  0
LINE
  5
20D1
102
{ACAD_REACTORS
330
2BC3
102
}
330
74
100
AcDbEntity
  8
AM_0 ( Kontur 0.5 )
100
AcDbLine
 10
4516.972010848205
 20
4093.741819075279
 30
-0.0000000000000002
 11
4516.972010848205
 21
4089.741819015205
 31
-0.0000000000000002
  0
LINE
  5
20D2
330
74
100
AcDbEntity
  8
AM_2 ( Kontur 0.25)
100
AcDbLine
 10
4069.972004134943
 20
4089.741819015205
 30
-0.0000000000000002
 11
4069.972004134943
 21
4373.741819105315
 31
-0.0000000000000002
  0
LINE
  5
20D3
330
74
100
AcDbEntity
  8
AM_2 ( Kontur 0.25)
100
AcDbLine
 10
4063.972004044836
 20
4089.741819015205
 30
-0.0000000000000002
 11
4063.972004044836
 21
4373.741819105315
 31
-0.0000000000000002
  0
ARC
  5
20D4
330
74
100
AcDbEntity
  8
AM_0 ( Kontur 0.5 )
100
AcDbCircle
 10
4061.343392464755
 20
4370.69080732946
 30
-0.0000000000000002
 40
2.948988314257579
100
AcDbArc
 50
230.4848621642243
 51
309.5151378357757
  0
LINE
  5
20D5
330
74
100
AcDbEntity
  8
AM_3 ( Verdeckt )
100
AcDbLine
 10
4070.972004149965
 20
4089.741819015205
 30
-0.0000000000000002
 11
4070.972004149965
 21
4373.741819105315
 31
-0.0000000000000002
  0
ARC
  5
20D6
330
74
100
AcDbEntity
  8
AM_0 ( Kontur 0.5 )
100
AcDbCircle
 10
4072.601722713956
 20
4370.69080732946
 30
-0.0000000000000002
 40
2.948988314257579
100
AcDbArc
 50
230.4848621642243
 51
309.5151378357757
  0
ARC
  5
20D7
330
74
100
AcDbEntity
  8
AM_0 ( Kontur 0.5 )
100
AcDbCircle
 10
4066.972557589354
 20
4378.526819342027
 30
-0.0000000000000002
 40
10.785
100
AcDbArc
 50
249.6372502232127
 51
290.3627497767314
  0
LINE
  5
20D8
330
74
100
AcDbEntity
  8
AM_3 ( Verdeckt )
100
AcDbLine
 10
4062.972004029814
 20
4089.741819015205
 30
-0.0000000000000002
 11
4062.972004029814
 21
4373.741819105315
 31
-0.0000000000000002
  0
LINE
  5
20D9
330
74
100
AcDbEntity
  8
AM_7 (Mittellinie)
100
AcDbLine
 10
4066.972004089886
 20
4089.741819015205
 30
-0.0000000000000002
 11
4066.972004089886
 21
4395.819981548154
 31
-0.0000000000000002
  0
LINE
  5
20DA
330
74
100
AcDbEntity
  8
AM_0 ( Kontur 0.5 )
100
AcDbLine
 10
4060.722557589355
 20
4374.175728531934
 30
-0.0000000000000002
 11
4060.722557589355
 21
4376.491819342024
 31
-0.0000000000000002
  0
ARC
  5
20DB
330
74
100
AcDbEntity
  8
AM_0 ( Kontur 0.5 )
100
AcDbCircle
 10
4061.343392464755
 20
4371.29283135459
 30
-0.0000000000000002
 40
2.948988314257579
100
AcDbArc
 50
50.48486216422428
 51
129.5151378357757
  0
LINE
  5
20DC
330
74
100
AcDbEntity
  8
AM_0 ( Kontur 0.5 )
100
AcDbLine
 10
4059.467004089885
 20
4368.415791122011
 30
-0.0000000000000002
 11
4059.467004089885
 21
4373.56784756207
 31
-0.0000000000000002
  0
LINE
  5
20DD
330
74
100
AcDbEntity
  8
AM_0 ( Kontur 0.5 )
100
AcDbLine
 10
4063.219780839616
 20
4368.415791121982
 30
-0.0000000000000002
 11
4063.219780839616
 21
4373.567847562072
 31
-0.0000000000000002
  0
LINE
  5
20DE
330
74
100
AcDbEntity
  8
AM_3 ( Verdeckt )
100
AcDbLine
 10
4062.972004029814
 20
4373.741819105315
 30
-0.0000000000000002
 11
4070.972004149965
 21
4373.741819105315
 31
-0.0000000000000002
  0
ARC
  5
20DF
330
74
100
AcDbEntity
  8
AM_0 ( Kontur 0.5 )
100
AcDbCircle
 10
4066.972557589354
 20
4376.491819342024
 30
-0.0000000000000002
 40
6.249999999999928
100
AcDbArc
 50
0.0
 51
180.0
  0
ARC
  5
20E0
330
74
100
AcDbEntity
  8
AM_0 ( Kontur 0.5 )
100
AcDbCircle
 10
4066.972557589354
 20
4363.456819342025
 30
-0.0000000000000002
 40
10.785
100
AcDbArc
 50
69.63725022326858
 51
110.3627497767872
  0
LINE
  5
20E1
330
74
100
AcDbEntity
  8
AM_0 ( Kontur 0.5 )
100
AcDbLine
 10
4073.222557589355
 20
4374.175728531934
 30
-0.0000000000000002
 11
4073.222557589355
 21
4376.491819342024
 31
-0.0000000000000002
  0
ARC
  5
20E2
330
74
100
AcDbEntity
  8
AM_0 ( Kontur 0.5 )
100
AcDbCircle
 10
4072.601722713956
 20
4371.29283135459
 30
-0.0000000000000002
 40
2.948988314257579
100
AcDbArc
 50
50.48486216422428
 51
129.5151378357757
  0
LINE
  5
20E3
330
74
100
AcDbEntity
  8
AM_0 ( Kontur 0.5 )
100
AcDbLine
 10
4070.725334339086
 20
4368.415791122011
 30
-0.0000000000000002
 11
4070.725334339086
 21
4373.567847562084
 31
-0.0000000000000002
  0
LINE
  5
20E4
330
74
100
AcDbEntity
  8
AM_0 ( Kontur 0.5 )
100
AcDbLine
 10
4074.478111088815
 20
4368.415791122011
 30
-0.0000000000000002
 11
4074.478111088815
 21
4373.56784756207
 31
-0.0000000000000002
  0
LINE
  5
20E5
330
74
100
AcDbEntity
  8
AM_0 ( Kontur 0.5 )
100
AcDbLine
 10
3928.472002009825
 20
4093.741819075279
 30
-0.0000000000000002
 11
3928.472002009825
 21
4363.741818955131
 31
-0.0000000000000002
  0
LINE
  5
20E6
330
74
100
AcDbEntity
  8
AM_0 ( Kontur 0.5 )
100
AcDbLine
 10
3966.293400973307
 20
4093.741819075279
 30
-0.0000000000000002
 11
3966.293400973307
 21
4363.741818955131
 31
-0.0000000000000002
  0
LINE
  5
20E7
330
74
100
AcDbEntity
  8
AM_0 ( Kontur 0.5 )
100
AcDbLine
 10
3938.091235466585
 20
4093.741819075279
 30
-0.0000000000000002
 11
3938.091235466585
 21
4363.741818955131
 31
-0.0000000000000002
  0
LINE
  5
20E8
330
74
100
AcDbEntity
  8
AM_0 ( Kontur 0.5 )
100
AcDbLine
 10
3916.972001837115
 20
4093.741819075279
 30
-0.0000000000000002
 11
3916.972001837115
 21
4089.741819015205
 31
-0.0000000000000002
  0
LINE
  5
20E9
330
74
100
AcDbEntity
  8
AM_0 ( Kontur 0.5 )
100
AcDbLine
 10
4011.156567556986
 20
4093.741819075279
 30
-0.0000000000000002
 11
4011.156567556986
 21
4363.741818955131
 31
-0.0000000000000002
  0
LINE
  5
20EA
330
74
100
AcDbEntity
  8
AM_0 ( Kontur 0.5 )
100
AcDbLine
 10
4069.623384554856
 20
4093.741819075279
 30
-0.0000000000000002
 11
4069.623384554856
 21
4363.741818955131
 31
-0.0000000000000002
  0
LINE
  5
20EB
330
74
100
AcDbEntity
  8
AM_0 ( Kontur 0.5 )
100
AcDbLine
 10
4137.709435009464
 20
4093.741819075279
 30
-0.0000000000000002
 11
4137.709435009464
 21
4363.741818955131
 31
-0.0000000000000002
  0
LINE
  5
20EC
330
74
100
AcDbEntity
  8
AM_7 (Mittellinie)
100
AcDbLine
 10
4216.972006342665
 20
4064.278657271865
 30
-0.0000000000000002
 11
4216.972006342665
 21
4093.741819075279
 31
-0.0000000000000002
  0
LINE
  5
20ED
330
74
100
AcDbEntity
  8
AM_7 (Mittellinie)
100
AcDbLine
 10
4216.972006342665
 20
4363.741818955131
 30
-0.0000000000000002
 11
4216.972006342665
 21
4390.193794366989
 31
-0.0000000000000002
  0
LINE
  5
20EE
330
74
100
AcDbEntity
  8
AM_0 ( Kontur 0.5 )
100
AcDbLine
 10
4216.972006342665
 20
4363.741818955131
 30
-0.0000000000000002
 11
4216.972006342665
 21
4093.741819075279
 31
-0.0000000000000002
  0
LINE
  5
20EF
330
74
100
AcDbEntity
  8
AM_0 ( Kontur 0.5 )
100
AcDbLine
 10
4296.234577675856
 20
4093.741819075279
 30
-0.0000000000000002
 11
4296.234577675856
 21
4363.741818955131
 31
-0.0000000000000002
  0
LINE
  5
20F0
330
74
100
AcDbEntity
  8
AM_0 ( Kontur 0.5 )
100
AcDbLine
 10
4364.320628130466
 20
4093.741819075279
 30
-0.0000000000000002
 11
4364.320628130466
 21
4363.741818955131
 31
-0.0000000000000002
  0
LINE
  5
20F1
330
74
100
AcDbEntity
  8
AM_0 ( Kontur 0.5 )
100
AcDbLine
 10
4422.787445128334
 20
4093.741819075279
 30
-0.0000000000000002
 11
4422.787445128334
 21
4363.741818955131
 31
-0.0000000000000002
  0
LINE
  5
20F2
330
74
100
AcDbEntity
  8
AM_0 ( Kontur 0.5 )
100
AcDbLine
 10
4467.650611712024
 20
4093.741819075279
 30
-0.0000000000000002
 11
4467.650611712024
 21
4363.741818955131
 31
-0.0000000000000002
  0
LINE
  5
20F3
330
74
100
AcDbEntity
  8
AM_0 ( Kontur 0.5 )
100
AcDbLine
 10
4495.852777218743
 20
4093.741819075279
 30
-0.0000000000000002
 11
4495.852777218743
 21
4363.741818955131
 31
-0.0000000000000002
  0
LINE
  5
20F4
330
74
100
AcDbEntity
  8
AM_0 ( Kontur 0.5 )
100
AcDbLine
 10
4505.472010675496
 20
4093.741819075279
 30
-0.0000000000000002
 11
4505.472010675496
 21
4363.741818955131
 31
-0.0000000000000002
  0
LINE
  5
20F5
330
74
100
AcDbEntity
  8
AM_3 ( Verdeckt )
100
AcDbLine
 10
4447.222009800666
 20
4089.741819015205
 30
-0.0000000000000002
 11
4447.222009800666
 21
4093.741819075279
 31
-0.0000000000000002
  0
LINE
  5
20F6
330
74
100
AcDbEntity
  8
AM_3 ( Verdeckt )
100
AcDbLine
 10
4436.722009642974
 20
4089.741819015205
 30
-0.0000000000000002
 11
4436.722009642974
 21
4093.741819075279
 31
-0.0000000000000002
  0
LINE
  5
20F7
330
74
100
AcDbEntity
  8
AM_7 (Mittellinie)
100
AcDbLine
 10
3991.972002963507
 20
4077.717540398398
 30
-0.0000000000000002
 11
3991.972002963507
 21
4109.458208819741
 31
-0.0000000000000002
  0
LINE
  5
20F8
330
74
100
AcDbEntity
  8
AM_7 (Mittellinie)
100
AcDbLine
 10
4441.972009721825
 20
4077.717540398398
 30
-0.0000000000000002
 11
4441.972009721825
 21
4109.458208819741
 31
-0.0000000000000002
  0
LINE
  5
20F9
330
74
100
AcDbEntity
  8
AM_3 ( Verdeckt )
100
AcDbLine
 10
3997.222003042345
 20
4089.741819015205
 30
-0.0000000000000002
 11
3997.222003042345
 21
4093.741819075279
 31
-0.0000000000000002
  0
LINE
  5
20FA
330
74
100
AcDbEntity
  8
AM_3 ( Verdeckt )
100
AcDbLine
 10
3986.722002884657
 20
4089.741819015205
 30
-0.0000000000000002
 11
3986.722002884657
 21
4093.741819075279
 31
-0.0000000000000002
  0
LINE
  5
20FB
102
{ACAD_REACTORS
330
2CA1
102
}
330
74
100
AcDbEntity
  8
AM_3 ( Verdeckt )
100
AcDbLine
 10
4076.972004240075
 20
4089.741819015205
 30
-0.0000000000000002
 11
4076.972004240075
 21
4093.741819075279
 31
-0.0000000000000002
  0
LINE
  5
20FC
102
{ACAD_REACTORS
330
2CA1
102
}
330
74
100
AcDbEntity
  8
AM_3 ( Verdeckt )
100
AcDbLine
 10
4356.972008445246
 20
4089.741819015205
 30
-0.0000000000000002
 11
4356.972008445246
 21
4093.741819075279
 31
-0.0000000000000002
  0
LINE
  5
20FD
330
74
100
AcDbEntity
  8
AM_7 (Mittellinie)
100
AcDbLine
 10
3904.620625671944
 20
3536.443416852895
 30
-0.0000000000000002
 11
4177.441844564155
 21
3536.443416852895
 31
-0.0000000000000002
  0
LINE
  5
20FE
330
74
100
AcDbEntity
  8
AM_7 (Mittellinie)
100
AcDbLine
 10
4216.972006342665
 20
3221.810893115835
 30
-0.0000000000000002
 11
4216.972006342665
 21
3505.200650468225
 31
-0.0000000000000002
  0
LINE
  5
20FF
330
74
100
AcDbEntity
  8
AM_7 (Mittellinie)
100
AcDbLine
 10
4356.324921111844
 20
3386.443416852895
 30
-0.0000000000000002
 11
4378.860094302193
 21
3386.443416852895
 31
-0.0000000000000002
  0
LINE
  5
2100
330
74
100
AcDbEntity
  8
AM_0 ( Kontur 0.5 )
100
AcDbLine
 10
4359.466452955925
 20
3386.443416852895
 30
-0.0000000000000002
 11
4363.219229649294
 21
3379.943416950515
 31
-0.0000000000000002
  0
CIRCLE
  5
2101
330
74
100
AcDbEntity
  8
AM_0 ( Kontur 0.5 )
100
AcDbCircle
 10
4216.972006342665
 20
3536.443416852895
 30
-0.0000000000000002
 40
300.0
  0
CIRCLE
  5
2102
330
74
100
AcDbEntity
  8
AM_3 ( Verdeckt )
100
AcDbCircle
 10
4216.972006342665
 20
3536.443416852895
 30
-0.0000000000000002
 40
140.0
  0
CIRCLE
  5
2103
330
74
100
AcDbEntity
  8
AM_3 ( Verdeckt )
100
AcDbCircle
 10
-4366.972006342665
 20
3686.443416852895
 30
0.0000000000000002
 40
3.325
210
0.0
220
0.0
230
-1.0
  0
ARC
  5
2104
330
74
100
AcDbEntity
  8
AM_3 ( Verdeckt )
100
AcDbCircle
 10
-4366.972006342665
 20
3686.443416852895
 30
0.0000000000000002
 40
4.0
210
0.0
220
0.0
230
-1.0
100
AcDbArc
 50
253.3239702147343
 51
180.0
  0
LINE
  5
2105
330
74
100
AcDbEntity
  8
AM_7 (Mittellinie)
100
AcDbLine
 10
4356.324921111844
 20
3686.443416852895
 30
-0.0000000000000002
 11
4378.860094302193
 21
3686.443416852895
 31
-0.0000000000000002
  0
LINE
  5
2106
330
74
100
AcDbEntity
  8
AM_0 ( Kontur 0.5 )
100
AcDbLine
 10
4359.466452955925
 20
3686.443416852895
 30
-0.0000000000000002
 11
4363.219229649294
 21
3692.943416755274
 31
-0.0000000000000002
  0
LINE
  5
2107
330
74
100
AcDbEntity
  8
AM_0 ( Kontur 0.5 )
100
AcDbLine
 10
4363.219229649294
 20
3679.943416950515
 30
-0.0000000000000002
 11
4359.466452955925
 21
3686.443416852895
 31
-0.0000000000000002
  0
LINE
  5
2108
330
74
100
AcDbEntity
  8
AM_0 ( Kontur 0.5 )
100
AcDbLine
 10
4370.724783036043
 20
3679.943416950515
 30
-0.0000000000000002
 11
4363.219229649294
 21
3679.943416950515
 31
-0.0000000000000002
  0
LINE
  5
2109
330
74
100
AcDbEntity
  8
AM_0 ( Kontur 0.5 )
100
AcDbLine
 10
4374.477559729413
 20
3686.443416852895
 30
-0.0000000000000002
 11
4370.724783036043
 21
3679.943416950515
 31
-0.0000000000000002
  0
CIRCLE
  5
210A
330
74
100
AcDbEntity
  8
AM_0 ( Kontur 0.5 )
100
AcDbCircle
 10
-4366.972006342665
 20
3686.443416852895
 30
0.0000000000000002
 40
6.499999902379778
210
0.0
220
0.0
230
-1.0
  0
LINE
  5
210B
330
74
100
AcDbEntity
  8
AM_0 ( Kontur 0.5 )
100
AcDbLine
 10
4370.724783036043
 20
3692.943416755274
 30
-0.0000000000000002
 11
4374.477559729413
 21
3686.443416852895
 31
-0.0000000000000002
  0
LINE
  5
210C
330
74
100
AcDbEntity
  8
AM_0 ( Kontur 0.5 )
100
AcDbLine
 10
4363.219229649294
 20
3692.943416755274
 30
-0.0000000000000002
 11
4370.724783036043
 21
3692.943416755274
 31
-0.0000000000000002
  0
ARC
  5
210D
330
74
100
AcDbEntity
  8
AM_3 ( Verdeckt )
100
AcDbCircle
 10
-4366.972006342665
 20
3686.443416852895
 30
0.0000000000000002
 40
4.0
210
0.0
220
0.0
230
-1.0
100
AcDbArc
 50
180.0
 51
197.4956009177881
  0
LINE
  5
210E
330
74
100
AcDbEntity
  8
AM_7 (Mittellinie)
100
AcDbLine
 10
4366.972006342665
 20
3699.297458963565
 30
-0.0000000000000002
 11
4366.972006342665
 21
3676.213134510614
 31
-0.0000000000000002
  0
CIRCLE
  5
210F
330
74
100
AcDbEntity
  8
AM_3 ( Verdeckt )
100
AcDbCircle
 10
4066.972006342665
 20
3686.443416852895
 30
-0.0000000000000002
 40
3.325
  0
ARC
  5
2110
330
74
100
AcDbEntity
  8
AM_3 ( Verdeckt )
100
AcDbCircle
 10
4066.972006342665
 20
3686.443416852895
 30
-0.0000000000000002
 40
4.0
100
AcDbArc
 50
253.3239702147343
 51
180.0
  0
LINE
  5
2111
330
74
100
AcDbEntity
  8
AM_7 (Mittellinie)
100
AcDbLine
 10
4077.619091573484
 20
3686.443416852895
 30
-0.0000000000000002
 11
4055.083918383146
 21
3686.443416852895
 31
-0.0000000000000002
  0
LINE
  5
2112
330
74
100
AcDbEntity
  8
AM_0 ( Kontur 0.5 )
100
AcDbLine
 10
4074.477559729413
 20
3686.443416852895
 30
-0.0000000000000002
 11
4070.724783036036
 21
3692.943416755274
 31
-0.0000000000000002
  0
LINE
  5
2113
330
74
100
AcDbEntity
  8
AM_0 ( Kontur 0.5 )
100
AcDbLine
 10
4070.724783036036
 20
3679.943416950515
 30
-0.0000000000000002
 11
4074.477559729413
 21
3686.443416852895
 31
-0.0000000000000002
  0
LINE
  5
2114
330
74
100
AcDbEntity
  8
AM_0 ( Kontur 0.5 )
100
AcDbLine
 10
4063.219229649294
 20
3679.943416950515
 30
-0.0000000000000002
 11
4070.724783036036
 21
3679.943416950515
 31
-0.0000000000000002
  0
LINE
  5
2115
330
74
100
AcDbEntity
  8
AM_0 ( Kontur 0.5 )
100
AcDbLine
 10
4059.466452955925
 20
3686.443416852895
 30
-0.0000000000000002
 11
4063.219229649294
 21
3679.943416950515
 31
-0.0000000000000002
  0
CIRCLE
  5
2116
330
74
100
AcDbEntity
  8
AM_0 ( Kontur 0.5 )
100
AcDbCircle
 10
4066.972006342665
 20
3686.443416852895
 30
-0.0000000000000002
 40
6.499999902379778
  0
LINE
  5
2117
330
74
100
AcDbEntity
  8
AM_0 ( Kontur 0.5 )
100
AcDbLine
 10
4063.219229649294
 20
3692.943416755274
 30
-0.0000000000000002
 11
4059.466452955925
 21
3686.443416852895
 31
-0.0000000000000002
  0
LINE
  5
2118
330
74
100
AcDbEntity
  8
AM_0 ( Kontur 0.5 )
100
AcDbLine
 10
4070.724783036036
 20
3692.943416755274
 30
-0.0000000000000002
 11
4063.219229649294
 21
3692.943416755274
 31
-0.0000000000000002
  0
ARC
  5
2119
330
74
100
AcDbEntity
  8
AM_3 ( Verdeckt )
100
AcDbCircle
 10
4066.972006342665
 20
3686.443416852895
 30
-0.0000000000000002
 40
4.0
100
AcDbArc
 50
180.0
 51
197.4956009177881
  0
LINE
  5
211A
330
74
100
AcDbEntity
  8
AM_7 (Mittellinie)
100
AcDbLine
 10
4066.972006342665
 20
3699.297458963565
 30
-0.0000000000000002
 11
4066.972006342665
 21
3676.213134510614
 31
-0.0000000000000002
  0
ARC
  5
211B
330
74
100
AcDbEntity
  8
AM_3 ( Verdeckt )
100
AcDbCircle
 10
-4066.972006342665
 20
3386.443416852895
 30
0.0000000000000002
 40
4.0
210
0.0
220
0.0
230
-1.0
100
AcDbArc
 50
73.32397021473432
 51
0.0
  0
CIRCLE
  5
211C
330
74
100
AcDbEntity
  8
AM_3 ( Verdeckt )
100
AcDbCircle
 10
-4066.972006342665
 20
3386.443416852895
 30
0.0000000000000002
 40
3.325
210
0.0
220
0.0
230
-1.0
  0
LINE
  5
211D
330
74
100
AcDbEntity
  8
AM_7 (Mittellinie)
100
AcDbLine
 10
4077.619091573484
 20
3386.443416852895
 30
-0.0000000000000002
 11
4055.083918383146
 21
3386.443416852895
 31
-0.0000000000000002
  0
LINE
  5
211E
330
74
100
AcDbEntity
  8
AM_0 ( Kontur 0.5 )
100
AcDbLine
 10
4074.477559729413
 20
3386.443416852895
 30
-0.0000000000000002
 11
4070.724783036036
 21
3379.943416950515
 31
-0.0000000000000002
  0
LINE
  5
211F
330
74
100
AcDbEntity
  8
AM_0 ( Kontur 0.5 )
100
AcDbLine
 10
4070.724783036036
 20
3392.943416755274
 30
-0.0000000000000002
 11
4074.477559729413
 21
3386.443416852895
 31
-0.0000000000000002
  0
LINE
  5
2120
330
74
100
AcDbEntity
  8
AM_0 ( Kontur 0.5 )
100
AcDbLine
 10
4063.219229649294
 20
3392.943416755274
 30
-0.0000000000000002
 11
4070.724783036036
 21
3392.943416755274
 31
-0.0000000000000002
  0
LINE
  5
2121
330
74
100
AcDbEntity
  8
AM_0 ( Kontur 0.5 )
100
AcDbLine
 10
4059.466452955925
 20
3386.443416852895
 30
-0.0000000000000002
 11
4063.219229649294
 21
3392.943416755274
 31
-0.0000000000000002
  0
CIRCLE
  5
2122
330
74
100
AcDbEntity
  8
AM_0 ( Kontur 0.5 )
100
AcDbCircle
 10
-4066.972006342665
 20
3386.443416852895
 30
0.0000000000000002
 40
6.499999902379778
210
0.0
220
0.0
230
-1.0
  0
LINE
  5
2123
330
74
100
AcDbEntity
  8
AM_0 ( Kontur 0.5 )
100
AcDbLine
 10
4063.219229649294
 20
3379.943416950515
 30
-0.0000000000000002
 11
4059.466452955925
 21
3386.443416852895
 31
-0.0000000000000002
  0
LINE
  5
2124
330
74
100
AcDbEntity
  8
AM_0 ( Kontur 0.5 )
100
AcDbLine
 10
4070.724783036036
 20
3379.943416950515
 30
-0.0000000000000002
 11
4063.219229649294
 21
3379.943416950515
 31
-0.0000000000000002
  0
ARC
  5
2125
330
74
100
AcDbEntity
  8
AM_3 ( Verdeckt )
100
AcDbCircle
 10
-4066.972006342665
 20
3386.443416852895
 30
0.0000000000000002
 40
4.0
210
0.0
220
0.0
230
-1.0
100
AcDbArc
 50
0.0
 51
17.49560091778814
  0
LINE
  5
2126
330
74
100
AcDbEntity
  8
AM_7 (Mittellinie)
100
AcDbLine
 10
4066.972006342665
 20
3373.927629546484
 30
-0.0000000000000002
 11
4066.972006342665
 21
3396.673699195174
 31
-0.0000000000000002
  0
LINE
  5
2127
330
74
100
AcDbEntity
  8
AM_7 (Mittellinie)
100
AcDbLine
 10
4441.972006342665
 20
3354.419138416675
 30
-0.0000000000000002
 11
4441.972006342665
 21
3376.999275748625
 31
-0.0000000000000002
  0
CIRCLE
  5
2128
330
74
100
AcDbEntity
  8
AM_3 ( Verdeckt )
100
AcDbCircle
 10
4441.972006342665
 20
3366.443416852894
 30
-0.0000000000000002
 40
5.24999999999999
  0
LINE
  5
2129
330
74
100
AcDbEntity
  8
AM_7 (Mittellinie)
100
AcDbLine
 10
4431.961269755535
 20
3366.443416852894
 30
-0.0000000000000002
 11
4452.813302194125
 21
3366.443416852894
 31
-0.0000000000000002
  0
LINE
  5
212A
330
74
100
AcDbEntity
  8
AM_3 ( Verdeckt )
100
AcDbLine
 10
4127.461799956154
 20
3715.362926082454
 30
-0.0000000000000002
 11
4104.518742502114
 21
3748.129007854014
 31
-0.0000000000000002
  0
LINE
  5
212B
330
74
100
AcDbEntity
  8
AM_3 ( Verdeckt )
100
AcDbLine
 10
4129.100104044735
 20
3716.510078955165
 30
-0.0000000000000002
 11
4106.157046590693
 21
3749.276160726725
 31
-0.0000000000000002
  0
LINE
  5
212C
330
74
100
AcDbEntity
  8
AM_3 ( Verdeckt )
100
AcDbLine
 10
4106.157046590693
 20
3749.276160726725
 30
-0.0000000000000002
 11
4104.518742502114
 21
3748.129007854014
 31
-0.0000000000000002
  0
LINE
  5
212D
330
74
100
AcDbEntity
  8
AM_3 ( Verdeckt )
100
AcDbLine
 10
4129.100104044735
 20
3716.510078955165
 30
-0.0000000000000002
 11
4127.461799956154
 21
3715.362926082454
 31
-0.0000000000000002
  0
LINE
  5
212E
330
74
100
AcDbEntity
  8
AM_3 ( Verdeckt )
100
AcDbLine
 10
4088.060923266763
 20
3738.828359054365
 30
-0.0000000000000002
 11
4089.873538840843
 21
3739.673595577845
 31
-0.0000000000000002
  0
LINE
  5
212F
330
74
100
AcDbEntity
  8
AM_3 ( Verdeckt )
100
AcDbLine
 10
4104.965653736392
 20
3702.576047572895
 30
-0.0000000000000002
 11
4106.778269310463
 21
3703.421284096374
 31
-0.0000000000000002
  0
LINE
  5
2130
330
74
100
AcDbEntity
  8
AM_3 ( Verdeckt )
100
AcDbLine
 10
4104.965653736392
 20
3702.576047572895
 30
-0.0000000000000002
 11
4088.060923266763
 21
3738.828359054365
 31
-0.0000000000000002
  0
LINE
  5
2131
330
74
100
AcDbEntity
  8
AM_3 ( Verdeckt )
100
AcDbLine
 10
4106.778269310463
 20
3703.421284096374
 30
-0.0000000000000002
 11
4089.873538840843
 21
3739.673595577845
 31
-0.0000000000000002
  0
LINE
  5
2132
330
74
100
AcDbEntity
  8
AM_3 ( Verdeckt )
100
AcDbLine
 10
4155.229964695243
 20
3678.321047152875
 30
-0.0000000000000002
 11
4080.897107035965
 21
3784.479369654425
 31
-0.0000000000000002
  0
LINE
  5
2133
330
74
100
AcDbEntity
  8
AM_3 ( Verdeckt )
100
AcDbLine
 10
4154.410812650954
 20
3677.747470716524
 30
-0.0000000000000002
 11
4080.077954991675
 21
3783.905793218075
 31
-0.0000000000000002
  0
LINE
  5
2134
330
74
100
AcDbEntity
  8
AM_3 ( Verdeckt )
100
AcDbLine
 10
4144.834539388475
 20
3765.296902802154
 30
-0.0000000000000002
 11
4146.804154894503
 21
3765.644199157485
 31
-0.0000000000000002
  0
LINE
  5
2135
330
74
100
AcDbEntity
  8
AM_3 ( Verdeckt )
100
AcDbLine
 10
4151.780466495153
 20
3725.904592681665
 30
-0.0000000000000002
 11
4153.750082001175
 21
3726.251889036995
 31
-0.0000000000000002
  0
LINE
  5
2136
330
74
100
AcDbEntity
  8
AM_3 ( Verdeckt )
100
AcDbLine
 10
4151.780466495153
 20
3725.904592681665
 30
-0.0000000000000002
 11
4144.834539388475
 21
3765.296902802154
 31
-0.0000000000000002
  0
LINE
  5
2137
330
74
100
AcDbEntity
  8
AM_3 ( Verdeckt )
100
AcDbLine
 10
4153.750082001175
 20
3726.251889036995
 30
-0.0000000000000002
 11
4146.804154894503
 21
3765.644199157485
 31
-0.0000000000000002
  0
ARC
  5
2138
330
74
100
AcDbEntity
  8
AM_3 ( Verdeckt )
100
AcDbCircle
 10
4157.535640062164
 20
3679.935498425465
 30
-0.0000000000000002
 40
2.814709897868729
100
AcDbArc
 50
215.0000000000174
 51
349.9999999999961
  0
ARC
  5
2139
330
74
100
AcDbEntity
  8
AM_3 ( Verdeckt )
100
AcDbCircle
 10
4157.535640062164
 20
3679.935498425465
 30
-0.0000000000000002
 40
3.814709897868728
100
AcDbArc
 50
215.0000000000174
 51
349.9999999999961
  0
LINE
  5
213A
330
74
100
AcDbEntity
  8
AM_3 ( Verdeckt )
100
AcDbLine
 10
4161.292395945074
 20
3679.273081003366
 30
-0.0000000000000002
 11
4162.855229544074
 21
3688.136350780475
 31
-0.0000000000000002
  0
LINE
  5
213B
330
74
100
AcDbEntity
  8
AM_3 ( Verdeckt )
100
AcDbLine
 10
4160.307588192064
 20
3679.446729181035
 30
-0.0000000000000002
 11
4161.870421791062
 21
3688.309998958145
 31
-0.0000000000000002
  0
LINE
  5
213C
330
74
100
AcDbEntity
  8
AM_3 ( Verdeckt )
100
AcDbLine
 10
4162.855229544074
 20
3688.136350780475
 30
-0.0000000000000002
 11
4161.870421791062
 21
3688.309998958145
 31
-0.0000000000000002
  0
LINE
  5
213D
330
74
100
AcDbEntity
  8
AM_3 ( Verdeckt )
100
AcDbLine
 10
4145.500591442654
 20
3764.398919137974
 30
-0.0000000000000002
 11
4146.485399195664
 21
3764.572567315634
 31
-0.0000000000000002
  0
LINE
  5
213E
330
74
100
AcDbEntity
  8
AM_3 ( Verdeckt )
100
AcDbLine
 10
4152.099222193995
 20
3726.976224523505
 30
-0.0000000000000002
 11
4153.084029947003
 21
3727.149872701176
 31
-0.0000000000000002
  0
LINE
  5
213F
330
74
100
AcDbEntity
  8
AM_3 ( Verdeckt )
100
AcDbLine
 10
4124.928318126463
 20
3663.315278011345
 30
-0.0000000000000002
 11
4124.022010339424
 21
3662.892659749604
 31
-0.0000000000000002
  0
ARC
  5
2140
330
74
100
AcDbEntity
  8
AM_3 ( Verdeckt )
100
AcDbCircle
 10
4075.820625917525
 20
3780.924779307715
 30
-0.0000000000000002
 40
5.197239149716258
100
AcDbArc
 50
35.00000000001741
 51
205.0000000000113
  0
LINE
  5
2141
330
74
100
AcDbEntity
  8
AM_3 ( Verdeckt )
100
AcDbLine
 10
4124.928318126463
 20
3663.315278011345
 30
-0.0000000000000002
 11
4071.110327605054
 21
3778.728331132424
 31
-0.0000000000000002
  0
LINE
  5
2142
330
74
100
AcDbEntity
  8
AM_3 ( Verdeckt )
100
AcDbLine
 10
4124.022010339424
 20
3662.892659749604
 30
-0.0000000000000002
 11
4070.204019818013
 21
3778.305712870675
 31
-0.0000000000000002
  0
ARC
  5
2143
330
74
100
AcDbEntity
  8
AM_3 ( Verdeckt )
100
AcDbCircle
 10
4075.820625917525
 20
3780.924779307715
 30
-0.0000000000000002
 40
6.197239149716259
100
AcDbArc
 50
35.00000000001741
 51
205.0000000000113
  0
LINE
  5
2144
330
74
100
AcDbEntity
  8
AM_3 ( Verdeckt )
100
AcDbLine
 10
4164.890316147963
 20
3769.594380214225
 30
-0.0000000000000002
 11
4163.950623527174
 21
3769.252360070895
 31
-0.0000000000000002
  0
LINE
  5
2145
330
74
100
AcDbEntity
  8
AM_3 ( Verdeckt )
100
AcDbLine
 10
4125.438193689452
 20
3668.961086904075
 30
-0.0000000000000002
 11
4124.441998991364
 21
3668.873931161324
 31
-0.0000000000000002
  0
LINE
  5
2146
330
74
100
AcDbEntity
  8
AM_3 ( Verdeckt )
100
AcDbLine
 10
4125.226400676094
 20
3659.908178878494
 30
-0.0000000000000002
 11
4124.441998991364
 21
3668.873931161324
 31
-0.0000000000000002
  0
LINE
  5
2147
330
74
100
AcDbEntity
  8
AM_3 ( Verdeckt )
100
AcDbLine
 10
4126.222595374183
 20
3659.995334621245
 30
-0.0000000000000002
 11
4125.438193689452
 21
3668.961086904075
 31
-0.0000000000000002
  0
ARC
  5
2148
330
74
100
AcDbEntity
  8
AM_3 ( Verdeckt )
100
AcDbCircle
 10
4122.422401599163
 20
3659.662860746735
 30
-0.0000000000000002
 40
2.814709897868729
100
AcDbArc
 50
229.9999999999875
 51
5.000000000000828
  0
ARC
  5
2149
330
74
100
AcDbEntity
  8
AM_3 ( Verdeckt )
100
AcDbCircle
 10
4122.422401599163
 20
3659.662860746735
 30
-0.0000000000000002
 40
3.814709897868728
100
AcDbArc
 50
229.9999999999875
 51
5.000000000000828
  0
LINE
  5
214A
330
74
100
AcDbEntity
  8
AM_3 ( Verdeckt )
100
AcDbLine
 10
4085.489584967834
 20
3687.631534387044
 30
-0.0000000000000002
 11
4084.204009748463
 21
3686.099445500815
 31
-0.0000000000000002
  0
LINE
  5
214B
330
74
100
AcDbEntity
  8
AM_3 ( Verdeckt )
100
AcDbLine
 10
4054.847807243075
 20
3713.343038774515
 30
-0.0000000000000002
 11
4053.562232023705
 21
3711.810949888274
 31
-0.0000000000000002
  0
LINE
  5
214C
330
74
100
AcDbEntity
  8
AM_3 ( Verdeckt )
100
AcDbLine
 10
4084.204009748463
 20
3686.099445500815
 30
-0.0000000000000002
 11
4053.562232023705
 21
3711.810949888274
 31
-0.0000000000000002
  0
LINE
  5
214D
330
74
100
AcDbEntity
  8
AM_3 ( Verdeckt )
100
AcDbLine
 10
4085.489584967834
 20
3687.631534387044
 30
-0.0000000000000002
 11
4054.847807243075
 21
3713.343038774515
 31
-0.0000000000000002
  0
LINE
  5
214E
330
74
100
AcDbEntity
  8
AM_3 ( Verdeckt )
100
AcDbLine
 10
4119.970353342263
 20
3656.740623427355
 30
-0.0000000000000002
 11
4020.694530727763
 21
3740.042929568015
 31
-0.0000000000000002
  0
LINE
  5
214F
330
74
100
AcDbEntity
  8
AM_3 ( Verdeckt )
100
AcDbLine
 10
4120.613140951955
 20
3657.506667870475
 30
-0.0000000000000002
 11
4021.337318337445
 21
3740.808974011125
 31
-0.0000000000000002
  0
ARC
  5
2150
330
74
100
AcDbEntity
  8
AM_3 ( Verdeckt )
100
AcDbCircle
 10
4017.353809797743
 20
3736.061613397805
 30
-0.0000000000000002
 40
5.197239149716258
100
AcDbArc
 50
49.99999999998745
 51
220.0000000000119
  0
ARC
  5
2151
330
74
100
AcDbEntity
  8
AM_3 ( Verdeckt )
100
AcDbCircle
 10
4017.353809797743
 20
3736.061613397805
 30
-0.0000000000000002
 40
6.197239149716259
100
AcDbArc
 50
49.99999999998745
 51
220.0000000000119
  0
LINE
  5
2152
330
74
100
AcDbEntity
  8
AM_3 ( Verdeckt )
100
AcDbLine
 10
4040.072384421044
 20
3698.567615952475
 30
-0.0000000000000002
 11
4041.604473307285
 21
3699.853191171854
 31
-0.0000000000000002
  0
LINE
  5
2153
330
74
100
AcDbEntity
  8
AM_3 ( Verdeckt )
100
AcDbLine
 10
4065.783888808503
 20
3667.925838227715
 30
-0.0000000000000002
 11
4067.315977694742
 21
3669.211413447095
 31
-0.0000000000000002
  0
LINE
  5
2154
330
74
100
AcDbEntity
  8
AM_3 ( Verdeckt )
100
AcDbLine
 10
4067.315977694742
 20
3669.211413447095
 30
-0.0000000000000002
 11
4041.604473307285
 21
3699.853191171854
 31
-0.0000000000000002
  0
LINE
  5
2155
330
74
100
AcDbEntity
  8
AM_3 ( Verdeckt )
100
AcDbLine
 10
4065.783888808503
 20
3667.925838227715
 30
-0.0000000000000002
 11
4040.072384421044
 21
3698.567615952475
 31
-0.0000000000000002
  0
LINE
  5
2156
330
74
100
AcDbEntity
  8
AM_3 ( Verdeckt )
100
AcDbLine
 10
4095.227776792323
 20
3635.169564683366
 30
-0.0000000000000002
 11
4094.461732349205
 21
3634.526777073684
 31
-0.0000000000000002
  0
LINE
  5
2157
330
74
100
AcDbEntity
  8
AM_3 ( Verdeckt )
100
AcDbLine
 10
4095.227776792323
 20
3635.169564683366
 30
-0.0000000000000002
 11
4013.372493627554
 21
3732.720892467804
 31
-0.0000000000000002
  0
LINE
  5
2158
330
74
100
AcDbEntity
  8
AM_3 ( Verdeckt )
100
AcDbLine
 10
4094.461732349205
 20
3634.526777073684
 30
-0.0000000000000002
 11
4012.606449184434
 21
3732.078104858115
 31
-0.0000000000000002
  0
LINE
  5
2159
330
74
100
AcDbEntity
  8
AM_3 ( Verdeckt )
100
AcDbLine
 10
4094.259035900364
 20
3640.754962809485
 30
-0.0000000000000002
 11
4093.319343279573
 21
3640.412942666155
 31
-0.0000000000000002
  0
LINE
  5
215A
330
74
100
AcDbEntity
  8
AM_3 ( Verdeckt )
100
AcDbLine
 10
4096.397524569514
 20
3631.955709079085
 30
-0.0000000000000002
 11
4093.319343279573
 21
3640.412942666155
 31
-0.0000000000000002
  0
LINE
  5
215B
330
74
100
AcDbEntity
  8
AM_3 ( Verdeckt )
100
AcDbLine
 10
4097.337217190293
 20
3632.297729222404
 30
-0.0000000000000002
 11
4094.259035900364
 21
3640.754962809485
 31
-0.0000000000000002
  0
ARC
  5
215C
330
74
100
AcDbEntity
  8
AM_3 ( Verdeckt )
100
AcDbCircle
 10
4093.752562448826
 20
3630.993021596395
 30
-0.0000000000000002
 40
2.814709897868729
100
AcDbArc
 50
245.0000000000219
 51
20.00000000001286
  0
ARC
  5
215D
330
74
100
AcDbEntity
  8
AM_3 ( Verdeckt )
100
AcDbCircle
 10
4093.752562448826
 20
3630.993021596395
 30
-0.0000000000000002
 40
3.814709897868728
100
AcDbArc
 50
245.0000000000219
 51
20.00000000001286
  0
LINE
  5
215E
330
74
100
AcDbEntity
  8
AM_3 ( Verdeckt )
100
AcDbLine
 10
4050.839375622665
 20
3648.449769459164
 30
-0.0000000000000002
 11
4049.994139099175
 21
3646.637153885085
 31
-0.0000000000000002
  0
LINE
  5
215F
330
74
100
AcDbEntity
  8
AM_3 ( Verdeckt )
100
AcDbLine
 10
4014.587064141193
 20
3665.354499928785
 30
-0.0000000000000002
 11
4013.741827617713
 21
3663.541884354715
 31
-0.0000000000000002
  0
LINE
  5
2160
330
74
100
AcDbEntity
  8
AM_3 ( Verdeckt )
100
AcDbLine
 10
4049.994139099175
 20
3646.637153885085
 30
-0.0000000000000002
 11
4013.741827617713
 21
3663.541884354715
 31
-0.0000000000000002
  0
LINE
  5
2161
330
74
100
AcDbEntity
  8
AM_3 ( Verdeckt )
100
AcDbLine
 10
4050.839375622665
 20
3648.449769459164
 30
-0.0000000000000002
 11
4014.587064141193
 21
3665.354499928785
 31
-0.0000000000000002
  0
LINE
  5
2162
330
74
100
AcDbEntity
  8
AM_3 ( Verdeckt )
100
AcDbLine
 10
4092.140396382744
 20
3627.535720310664
 30
-0.0000000000000002
 11
3974.687092063134
 21
3682.305095590514
 31
-0.0000000000000002
  0
LINE
  5
2163
330
74
100
AcDbEntity
  8
AM_3 ( Verdeckt )
100
AcDbLine
 10
4092.563014644483
 20
3628.442028097705
 30
-0.0000000000000002
 11
3975.109710324883
 21
3683.211403377544
 31
-0.0000000000000002
  0
ARC
  5
2164
330
74
100
AcDbEntity
  8
AM_3 ( Verdeckt )
100
AcDbCircle
 10
3972.490643887833
 20
3677.594797278035
 30
-0.0000000000000002
 40
5.197239149716258
100
AcDbArc
 50
65.00000000002188
 51
235.0000000000197
  0
ARC
  5
2165
330
74
100
AcDbEntity
  8
AM_3 ( Verdeckt )
100
AcDbCircle
 10
3972.490643887833
 20
3677.594797278035
 30
-0.0000000000000002
 40
6.197239149716259
100
AcDbArc
 50
65.00000000002188
 51
235.0000000000197
  0
LINE
  5
2166
330
74
100
AcDbEntity
  8
AM_3 ( Verdeckt )
100
AcDbLine
 10
4004.139262468835
 20
3647.258376604865
 30
-0.0000000000000002
 11
4005.286415341534
 21
3648.896680693445
 31
-0.0000000000000002
  0
LINE
  5
2167
330
74
100
AcDbEntity
  8
AM_3 ( Verdeckt )
100
AcDbLine
 10
4036.905344240394
 20
3624.315319150825
 30
-0.0000000000000002
 11
4038.052497113095
 21
3625.953623239394
 31
-0.0000000000000002
  0
LINE
  5
2168
330
74
100
AcDbEntity
  8
AM_3 ( Verdeckt )
100
AcDbLine
 10
4038.052497113095
 20
3625.953623239394
 30
-0.0000000000000002
 11
4005.286415341534
 21
3648.896680693445
 31
-0.0000000000000002
  0
LINE
  5
2169
330
74
100
AcDbEntity
  8
AM_3 ( Verdeckt )
100
AcDbLine
 10
4036.905344240394
 20
3624.315319150825
 30
-0.0000000000000002
 11
4004.139262468835
 21
3647.258376604865
 31
-0.0000000000000002
  0
LINE
  5
216A
330
74
100
AcDbEntity
  8
AM_3 ( Verdeckt )
100
AcDbLine
 10
4073.823903510193
 20
3600.295827533415
 30
-0.0000000000000002
 11
4073.250327073843
 21
3599.476675489134
 31
-0.0000000000000002
  0
LINE
  5
216B
330
74
100
AcDbEntity
  8
AM_3 ( Verdeckt )
100
AcDbLine
 10
4073.823903510193
 20
3600.295827533415
 30
-0.0000000000000002
 11
3969.509629977483
 21
3673.337468203894
 31
-0.0000000000000002
  0
LINE
  5
216C
330
74
100
AcDbEntity
  8
AM_3 ( Verdeckt )
100
AcDbLine
 10
4073.250327073843
 20
3599.476675489134
 30
-0.0000000000000002
 11
3968.936053541133
 21
3672.518316159605
 31
-0.0000000000000002
  0
LINE
  5
216D
330
74
100
AcDbEntity
  8
AM_3 ( Verdeckt )
100
AcDbLine
 10
4071.442564254144
 20
3605.440179240935
 30
-0.0000000000000002
 11
4070.623412209864
 21
3604.866602804575
 31
-0.0000000000000002
  0
LINE
  5
216E
330
74
100
AcDbEntity
  8
AM_3 ( Verdeckt )
100
AcDbLine
 10
4075.785600137015
 20
3597.494234405974
 30
-0.0000000000000002
 11
4070.623412209864
 21
3604.866602804575
 31
-0.0000000000000002
  0
LINE
  5
216F
330
74
100
AcDbEntity
  8
AM_3 ( Verdeckt )
100
AcDbLine
 10
4076.604752181305
 20
3598.067810842325
 30
-0.0000000000000002
 11
4071.442564254144
 21
3605.440179240935
 31
-0.0000000000000002
  0
ARC
  5
2170
330
74
100
AcDbEntity
  8
AM_3 ( Verdeckt )
100
AcDbCircle
 10
4073.479924770104
 20
3595.879783133394
 30
-0.0000000000000002
 40
2.814709897868729
100
AcDbArc
 50
259.9999999999949
 51
35.00000000001741
  0
ARC
  5
2171
330
74
100
AcDbEntity
  8
AM_3 ( Verdeckt )
100
AcDbCircle
 10
4073.479924770104
 20
3595.879783133394
 30
-0.0000000000000002
 40
3.814709897868728
100
AcDbArc
 50
259.9999999999949
 51
35.00000000001741
  0
LINE
  5
2172
330
74
100
AcDbEntity
  8
AM_3 ( Verdeckt )
100
AcDbLine
 10
4027.510830513892
 20
3601.634956700405
 30
-0.0000000000000002
 11
4027.163534158564
 21
3599.665341194375
 31
-0.0000000000000002
  0
LINE
  5
2173
330
74
100
AcDbEntity
  8
AM_3 ( Verdeckt )
100
AcDbLine
 10
3988.118520393405
 20
3608.580883807084
 30
-0.0000000000000002
 11
3987.771224038076
 21
3606.611268301055
 31
-0.0000000000000002
  0
LINE
  5
2174
330
74
100
AcDbEntity
  8
AM_3 ( Verdeckt )
100
AcDbLine
 10
4027.163534158564
 20
3599.665341194375
 30
-0.0000000000000002
 11
3987.771224038076
 21
3606.611268301055
 31
-0.0000000000000002
  0
LINE
  5
2175
330
74
100
AcDbEntity
  8
AM_3 ( Verdeckt )
100
AcDbLine
 10
4027.510830513892
 20
3601.634956700405
 30
-0.0000000000000002
 11
3988.118520393405
 21
3608.580883807084
 31
-0.0000000000000002
  0
LINE
  5
2176
330
74
100
AcDbEntity
  8
AM_3 ( Verdeckt )
100
AcDbLine
 10
4072.817507348005
 20
3592.123027250484
 30
-0.0000000000000002
 11
3945.190969911913
 21
3614.627029254864
 31
-0.0000000000000002
  0
LINE
  5
2177
330
74
100
AcDbEntity
  8
AM_3 ( Verdeckt )
100
AcDbLine
 10
4072.991155525675
 20
3593.107835003495
 30
-0.0000000000000002
 11
3945.364618089584
 21
3615.611837007875
 31
-0.0000000000000002
  0
ARC
  5
2178
330
74
100
AcDbEntity
  8
AM_3 ( Verdeckt )
100
AcDbCircle
 10
3944.288478804675
 20
3609.508747845964
 30
-0.0000000000000002
 40
5.197239149716258
100
AcDbArc
 50
79.99999999999485
 51
250.0000000000103
  0
ARC
  5
2179
330
74
100
AcDbEntity
  8
AM_3 ( Verdeckt )
100
AcDbCircle
 10
3944.288478804675
 20
3609.508747845964
 30
-0.0000000000000002
 40
6.197239149716259
100
AcDbArc
 50
79.99999999999485
 51
250.0000000000103
  0
LINE
  5
217A
330
74
100
AcDbEntity
  8
AM_3 ( Verdeckt )
100
AcDbLine
 10
3982.710340288884
 20
3588.397280880524
 30
-0.0000000000000002
 11
3983.394380575533
 21
3590.276666122105
 31
-0.0000000000000002
  0
LINE
  5
217B
330
74
100
AcDbEntity
  8
AM_3 ( Verdeckt )
100
AcDbLine
 10
4020.298045120323
 20
3574.716475147505
 30
-0.0000000000000002
 11
4020.982085406974
 21
3576.595860389075
 31
-0.0000000000000002
  0
LINE
  5
217C
330
74
100
AcDbEntity
  8
AM_3 ( Verdeckt )
100
AcDbLine
 10
4020.982085406974
 20
3576.595860389075
 30
-0.0000000000000002
 11
3983.394380575533
 21
3590.276666122105
 31
-0.0000000000000002
  0
LINE
  5
217D
330
74
100
AcDbEntity
  8
AM_3 ( Verdeckt )
100
AcDbLine
 10
4020.298045120323
 20
3574.716475147505
 30
-0.0000000000000002
 11
3982.710340288884
 21
3588.397280880524
 31
-0.0000000000000002
  0
LINE
  5
217E
330
74
100
AcDbEntity
  8
AM_3 ( Verdeckt )
100
AcDbLine
 10
4062.175336872676
 20
3561.070654116696
 30
-0.0000000000000002
 11
4061.833316729343
 21
3560.130961495905
 31
-0.0000000000000002
  0
LINE
  5
217F
330
74
100
AcDbEntity
  8
AM_3 ( Verdeckt )
100
AcDbLine
 10
4062.175336872676
 20
3561.070654116696
 30
-0.0000000000000002
 11
3942.510918325785
 21
3604.624940568526
 31
-0.0000000000000002
  0
LINE
  5
2180
330
74
100
AcDbEntity
  8
AM_3 ( Verdeckt )
100
AcDbLine
 10
4061.833316729343
 20
3560.130961495905
 30
-0.0000000000000002
 11
3942.168898182464
 21
3603.685247947745
 31
-0.0000000000000002
  0
LINE
  5
2181
330
74
100
AcDbEntity
  8
AM_3 ( Verdeckt )
100
AcDbLine
 10
4058.543683587485
 20
3565.423380338175
 30
-0.0000000000000002
 11
4057.900895977805
 21
3564.657335895055
 31
-0.0000000000000002
  0
LINE
  5
2182
330
74
100
AcDbEntity
  8
AM_3 ( Verdeckt )
100
AcDbLine
 10
4064.795295965873
 20
3558.872247407875
 30
-0.0000000000000002
 11
4057.900895977805
 21
3564.657335895055
 31
-0.0000000000000002
  0
LINE
  5
2183
330
74
100
AcDbEntity
  8
AM_3 ( Verdeckt )
100
AcDbLine
 10
4065.438083575563
 20
3559.638291850994
 30
-0.0000000000000002
 11
4058.543683587485
 21
3565.423380338175
 31
-0.0000000000000002
  0
ARC
  5
2184
330
74
100
AcDbEntity
  8
AM_3 ( Verdeckt )
100
AcDbCircle
 10
4062.986035318664
 20
3556.716054531623
 30
-0.0000000000000002
 40
2.814709897868729
100
AcDbArc
 50
274.9999999999736
 51
49.99999999998745
  0
ARC
  5
2185
330
74
100
AcDbEntity
  8
AM_3 ( Verdeckt )
100
AcDbCircle
 10
4062.986035318664
 20
3556.716054531623
 30
-0.0000000000000002
 40
3.814709897868728
100
AcDbArc
 50
274.9999999999736
 51
49.99999999998745
  0
LINE
  5
2186
330
74
100
AcDbEntity
  8
AM_3 ( Verdeckt )
100
AcDbLine
 10
4017.093751438465
 20
3550.377448235155
 30
-0.0000000000000002
 11
4017.268062923964
 21
3548.385058838975
 31
-0.0000000000000002
  0
LINE
  5
2187
330
74
100
AcDbEntity
  8
AM_3 ( Verdeckt )
100
AcDbLine
 10
3977.245963514793
 20
3546.891218525245
 30
-0.0000000000000002
 11
3977.420275000292
 21
3544.898829129065
 31
-0.0000000000000002
  0
LINE
  5
2188
330
74
100
AcDbEntity
  8
AM_3 ( Verdeckt )
100
AcDbLine
 10
4017.268062923964
 20
3548.385058838975
 30
-0.0000000000000002
 11
3977.420275000292
 21
3544.898829129065
 31
-0.0000000000000002
  0
LINE
  5
2189
330
74
100
AcDbEntity
  8
AM_3 ( Verdeckt )
100
AcDbLine
 10
4017.093751438465
 20
3550.377448235155
 30
-0.0000000000000002
 11
3977.245963514793
 21
3546.891218525245
 31
-0.0000000000000002
  0
LINE
  5
218A
330
74
100
AcDbEntity
  8
AM_3 ( Verdeckt )
100
AcDbLine
 10
4063.318509193176
 20
3552.915860756604
 30
-0.0000000000000002
 11
3934.216276254056
 21
3541.620878938554
 31
-0.0000000000000002
  0
LINE
  5
218B
330
74
100
AcDbEntity
  8
AM_3 ( Verdeckt )
100
AcDbLine
 10
4063.231353450434
 20
3553.912055454694
 30
-0.0000000000000002
 11
3934.129120511305
 21
3542.617073636645
 31
-0.0000000000000002
  0
ARC
  5
218C
330
74
100
AcDbEntity
  8
AM_3 ( Verdeckt )
100
AcDbCircle
 10
3934.669245492383
 20
3536.443416852885
 30
-0.0000000000000002
 40
5.197239149716258
100
AcDbArc
 50
95.00000000002595
 51
265.0000000000264
  0
ARC
  5
218D
330
74
100
AcDbEntity
  8
AM_3 ( Verdeckt )
100
AcDbCircle
 10
3934.669245492383
 20
3536.443416852885
 30
-0.0000000000000002
 40
6.197239149716259
100
AcDbArc
 50
95.00000000002595
 51
265.0000000000264
  0
LINE
  5
218E
330
74
100
AcDbEntity
  8
AM_3 ( Verdeckt )
100
AcDbLine
 10
3977.245963514793
 20
3525.995615180535
 30
-0.0000000000000002
 11
3977.420275000292
 21
3527.988004576715
 31
-0.0000000000000002
  0
LINE
  5
218F
330
74
100
AcDbEntity
  8
AM_3 ( Verdeckt )
100
AcDbLine
 10
4017.093751438465
 20
3522.509385470625
 30
-0.0000000000000002
 11
4017.268062923964
 21
3524.501774866814
 31
-0.0000000000000002
  0
LINE
  5
2190
330
74
100
AcDbEntity
  8
AM_3 ( Verdeckt )
100
AcDbLine
 10
4017.268062923964
 20
3524.501774866814
 30
-0.0000000000000002
 11
3977.420275000292
 21
3527.988004576715
 31
-0.0000000000000002
  0
LINE
  5
2191
330
74
100
AcDbEntity
  8
AM_3 ( Verdeckt )
100
AcDbLine
 10
4017.093751438465
 20
3522.509385470625
 30
-0.0000000000000002
 11
3977.245963514793
 21
3525.995615180535
 31
-0.0000000000000002
  0
LINE
  5
2192
330
74
100
AcDbEntity
  8
AM_3 ( Verdeckt )
100
AcDbLine
 10
4061.075907445934
 20
3520.167175178864
 30
-0.0000000000000002
 11
4060.988751703184
 21
3519.170980480775
 31
-0.0000000000000002
  0
LINE
  5
2193
330
74
100
AcDbEntity
  8
AM_3 ( Verdeckt )
100
AcDbLine
 10
4061.075907445934
 20
3520.167175178864
 30
-0.0000000000000002
 11
3934.216276254056
 21
3531.265954767234
 31
-0.0000000000000002
  0
LINE
  5
2194
330
74
100
AcDbEntity
  8
AM_3 ( Verdeckt )
100
AcDbLine
 10
4060.988751703184
 20
3519.170980480775
 30
-0.0000000000000002
 11
3934.129120511305
 21
3530.269760069144
 31
-0.0000000000000002
  0
LINE
  5
2195
330
74
100
AcDbEntity
  8
AM_3 ( Verdeckt )
100
AcDbLine
 10
4056.441431301414
 20
3523.431644815554
 30
-0.0000000000000002
 11
4056.018813039674
 21
3522.525337028514
 31
-0.0000000000000002
  0
LINE
  5
2196
330
74
100
AcDbEntity
  8
AM_3 ( Verdeckt )
100
AcDbLine
 10
4064.175583123005
 20
3518.721772672845
 30
-0.0000000000000002
 11
4056.018813039674
 21
3522.525337028514
 31
-0.0000000000000002
  0
LINE
  5
2197
330
74
100
AcDbEntity
  8
AM_3 ( Verdeckt )
100
AcDbLine
 10
4064.598201384741
 20
3519.628080459885
 30
-0.0000000000000002
 11
4056.441431301414
 21
3523.431644815554
 31
-0.0000000000000002
  0
ARC
  5
2198
330
74
100
AcDbEntity
  8
AM_3 ( Verdeckt )
100
AcDbCircle
 10
4062.986035318664
 20
3516.170779174166
 30
-0.0000000000000002
 40
2.814709897868729
100
AcDbArc
 50
289.9999999999896
 51
65.00000000002188
  0
ARC
  5
2199
330
74
100
AcDbEntity
  8
AM_3 ( Verdeckt )
100
AcDbCircle
 10
4062.986035318664
 20
3516.170779174166
 30
-0.0000000000000002
 40
3.814709897868728
100
AcDbArc
 50
289.9999999999896
 51
65.00000000002188
  0
LINE
  5
219A
330
74
100
AcDbEntity
  8
AM_3 ( Verdeckt )
100
AcDbLine
 10
4020.298045120323
 20
3498.170358558275
 30
-0.0000000000000002
 11
4020.982085406974
 21
3496.290973316704
 31
-0.0000000000000002
  0
LINE
  5
219B
330
74
100
AcDbEntity
  8
AM_3 ( Verdeckt )
100
AcDbLine
 10
3982.710340288884
 20
3484.489552825255
 30
-0.0000000000000002
 11
3983.394380575533
 21
3482.610167583674
 31
-0.0000000000000002
  0
LINE
  5
219C
330
74
100
AcDbEntity
  8
AM_3 ( Verdeckt )
100
AcDbLine
 10
4020.982085406974
 20
3496.290973316704
 30
-0.0000000000000002
 11
3983.394380575533
 21
3482.610167583674
 31
-0.0000000000000002
  0
LINE
  5
219D
330
74
100
AcDbEntity
  8
AM_3 ( Verdeckt )
100
AcDbLine
 10
4020.298045120323
 20
3498.170358558275
 30
-0.0000000000000002
 11
3982.710340288884
 21
3484.489552825255
 31
-0.0000000000000002
  0
LINE
  5
219E
330
74
100
AcDbEntity
  8
AM_3 ( Verdeckt )
100
AcDbLine
 10
4064.290742944676
 20
3512.586124432695
 30
-0.0000000000000002
 11
3942.510918325785
 21
3468.261893137264
 31
-0.0000000000000002
  0
LINE
  5
219F
330
74
100
AcDbEntity
  8
AM_3 ( Verdeckt )
100
AcDbLine
 10
4063.948722801354
 20
3513.525817053485
 30
-0.0000000000000002
 11
3942.168898182464
 21
3469.201585758045
 31
-0.0000000000000002
  0
ARC
  5
21A0
330
74
100
AcDbEntity
  8
AM_3 ( Verdeckt )
100
AcDbCircle
 10
3944.288478804675
 20
3463.378085859815
 30
-0.0000000000000002
 40
5.197239149716258
100
AcDbArc
 50
109.9999999999896
 51
280.0000000000051
  0
ARC
  5
21A1
330
74
100
AcDbEntity
  8
AM_3 ( Verdeckt )
100
AcDbCircle
 10
3944.288478804675
 20
3463.378085859815
 30
-0.0000000000000002
 40
6.197239149716259
100
AcDbArc
 50
109.9999999999896
 51
280.0000000000051
  0
LINE
  5
21A2
330
74
100
AcDbEntity
  8
AM_3 ( Verdeckt )
100
AcDbLine
 10
3988.118520393415
 20
3464.305949898695
 30
-0.0000000000000002
 11
3987.771224038076
 21
3466.275565404725
 31
-0.0000000000000002
  0
LINE
  5
21A3
330
74
100
AcDbEntity
  8
AM_3 ( Verdeckt )
100
AcDbLine
 10
4027.510830513892
 20
3471.251877005374
 30
-0.0000000000000002
 11
4027.163534158564
 21
3473.221492511405
 31
-0.0000000000000002
  0
LINE
  5
21A4
330
74
100
AcDbEntity
  8
AM_3 ( Verdeckt )
100
AcDbLine
 10
4027.163534158564
 20
3473.221492511405
 30
-0.0000000000000002
 11
3987.771224038076
 21
3466.275565404725
 31
-0.0000000000000002
  0
LINE
  5
21A5
330
74
100
AcDbEntity
  8
AM_3 ( Verdeckt )
100
AcDbLine
 10
4027.510830513892
 20
3471.251877005374
 30
-0.0000000000000002
 11
3988.118520393415
 21
3464.305949898695
 31
-0.0000000000000002
  0
LINE
  5
21A6
330
74
100
AcDbEntity
  8
AM_3 ( Verdeckt )
100
AcDbLine
 10
4070.600539528524
 20
3480.372895213365
 30
-0.0000000000000002
 11
4070.774187706192
 21
3479.388087460355
 31
-0.0000000000000002
  0
LINE
  5
21A7
330
74
100
AcDbEntity
  8
AM_3 ( Verdeckt )
100
AcDbLine
 10
4070.600539528524
 20
3480.372895213365
 30
-0.0000000000000002
 11
3945.190969911913
 21
3458.259804450925
 31
-0.0000000000000002
  0
LINE
  5
21A8
330
74
100
AcDbEntity
  8
AM_3 ( Verdeckt )
100
AcDbLine
 10
4070.774187706192
 20
3479.388087460355
 30
-0.0000000000000002
 11
3945.364618089584
 21
3457.274996697914
 31
-0.0000000000000002
  0
LINE
  5
21A9
330
74
100
AcDbEntity
  8
AM_3 ( Verdeckt )
100
AcDbLine
 10
4065.279072415083
 20
3482.326640054303
 30
-0.0000000000000002
 11
4065.105424237414
 21
3481.341832301295
 31
-0.0000000000000002
  0
LINE
  5
21AA
330
74
100
AcDbEntity
  8
AM_3 ( Verdeckt )
100
AcDbLine
 10
4073.968694014525
 20
3479.778998702285
 30
-0.0000000000000002
 11
4065.105424237414
 21
3481.341832301295
 31
-0.0000000000000002
  0
LINE
  5
21AB
330
74
100
AcDbEntity
  8
AM_3 ( Verdeckt )
100
AcDbLine
 10
4074.142342192193
 20
3480.763806455305
 30
-0.0000000000000002
 11
4065.279072415083
 21
3482.326640054303
 31
-0.0000000000000002
  0
ARC
  5
21AC
330
74
100
AcDbEntity
  8
AM_3 ( Verdeckt )
100
AcDbCircle
 10
4073.479924770093
 20
3477.007050572385
 30
-0.0000000000000002
 40
2.814709897868729
100
AcDbArc
 50
304.9999999999803
 51
79.99999999999485
  0
ARC
  5
21AD
330
74
100
AcDbEntity
  8
AM_3 ( Verdeckt )
100
AcDbCircle
 10
4073.479924770093
 20
3477.007050572385
 30
-0.0000000000000002
 40
3.814709897868728
100
AcDbArc
 50
304.9999999999803
 51
79.99999999999485
  0
LINE
  5
21AE
330
74
100
AcDbEntity
  8
AM_3 ( Verdeckt )
100
AcDbLine
 10
4036.905344240394
 20
3448.571514554964
 30
-0.0000000000000002
 11
4038.052497113095
 21
3446.933210466383
 31
-0.0000000000000002
  0
LINE
  5
21AF
330
74
100
AcDbEntity
  8
AM_3 ( Verdeckt )
100
AcDbLine
 10
4004.139262468835
 20
3425.628457100914
 30
-0.0000000000000002
 11
4005.286415341543
 21
3423.990153012334
 31
-0.0000000000000002
  0
LINE
  5
21B0
330
74
100
AcDbEntity
  8
AM_3 ( Verdeckt )
100
AcDbLine
 10
4038.052497113095
 20
3446.933210466383
 30
-0.0000000000000002
 11
4005.286415341543
 21
3423.990153012334
 31
-0.0000000000000002
  0
LINE
  5
21B1
330
74
100
AcDbEntity
  8
AM_3 ( Verdeckt )
100
AcDbLine
 10
4036.905344240394
 20
3448.571514554964
 30
-0.0000000000000002
 11
4004.139262468835
 21
3425.628457100914
 31
-0.0000000000000002
  0
LINE
  5
21B2
330
74
100
AcDbEntity
  8
AM_3 ( Verdeckt )
100
AcDbLine
 10
4075.667952479034
 20
3473.882223161175
 30
-0.0000000000000002
 11
3969.509629977483
 21
3399.549365501895
 31
-0.0000000000000002
  0
LINE
  5
21B3
330
74
100
AcDbEntity
  8
AM_3 ( Verdeckt )
100
AcDbLine
 10
4075.094376042683
 20
3474.701375205465
 30
-0.0000000000000002
 11
3968.936053541133
 21
3400.368517546185
 31
-0.0000000000000002
  0
ARC
  5
21B4
330
74
100
AcDbEntity
  8
AM_3 ( Verdeckt )
100
AcDbCircle
 10
3972.490643887833
 20
3395.292036427745
 30
-0.0000000000000002
 40
5.197239149716258
100
AcDbArc
 50
124.9999999999803
 51
294.9999999999781
  0
ARC
  5
21B5
330
74
100
AcDbEntity
  8
AM_3 ( Verdeckt )
100
AcDbCircle
 10
3972.490643887833
 20
3395.292036427745
 30
-0.0000000000000002
 40
6.197239149716259
100
AcDbArc
 50
124.9999999999803
 51
294.9999999999781
  0
LINE
  5
21B6
330
74
100
AcDbEntity
  8
AM_3 ( Verdeckt )
100
AcDbLine
 10
4014.587064141193
 20
3407.532333776995
 30
-0.0000000000000002
 11
4013.741827617713
 21
3409.344949351066
 31
-0.0000000000000002
  0
LINE
  5
21B7
330
74
100
AcDbEntity
  8
AM_3 ( Verdeckt )
100
AcDbLine
 10
4050.839375622665
 20
3424.437064246625
 30
-0.0000000000000002
 11
4049.994139099175
 21
3426.249679820695
 31
-0.0000000000000002
  0
LINE
  5
21B8
330
74
100
AcDbEntity
  8
AM_3 ( Verdeckt )
100
AcDbLine
 10
4049.994139099175
 20
3426.249679820695
 30
-0.0000000000000002
 11
4013.741827617713
 21
3409.344949351066
 31
-0.0000000000000002
  0
LINE
  5
21B9
330
74
100
AcDbEntity
  8
AM_3 ( Verdeckt )
100
AcDbLine
 10
4050.839375622665
 20
3424.437064246625
 30
-0.0000000000000002
 11
4014.587064141193
 21
3407.532333776995
 31
-0.0000000000000002
  0
LINE
  5
21BA
330
74
100
AcDbEntity
  8
AM_3 ( Verdeckt )
100
AcDbLine
 10
4090.100145184213
 20
3444.399728636684
 30
-0.0000000000000002
 11
4090.522763445952
 21
3443.493420849645
 31
-0.0000000000000002
  0
LINE
  5
21BB
330
74
100
AcDbEntity
  8
AM_3 ( Verdeckt )
100
AcDbLine
 10
4090.100145184213
 20
3444.399728636684
 30
-0.0000000000000002
 11
3974.687092063134
 21
3390.581738115275
 31
-0.0000000000000002
  0
LINE
  5
21BC
330
74
100
AcDbEntity
  8
AM_3 ( Verdeckt )
100
AcDbLine
 10
4090.522763445952
 20
3443.493420849645
 30
-0.0000000000000002
 11
3975.109710324883
 21
3389.675430328234
 31
-0.0000000000000002
  0
LINE
  5
21BD
330
74
100
AcDbEntity
  8
AM_3 ( Verdeckt )
100
AcDbLine
 10
4084.454336291485
 20
3444.909604199674
 30
-0.0000000000000002
 11
4084.541492034233
 21
3443.913409501585
 31
-0.0000000000000002
  0
LINE
  5
21BE
330
74
100
AcDbEntity
  8
AM_3 ( Verdeckt )
100
AcDbLine
 10
4093.507244317065
 20
3444.697811186314
 30
-0.0000000000000002
 11
4084.541492034233
 21
3443.913409501585
 31
-0.0000000000000002
  0
LINE
  5
21BF
330
74
100
AcDbEntity
  8
AM_3 ( Verdeckt )
100
AcDbLine
 10
4093.420088574314
 20
3445.694005884404
 30
-0.0000000000000002
 11
4084.454336291485
 21
3444.909604199674
 31
-0.0000000000000002
  0
ARC
  5
21C0
330
74
100
AcDbEntity
  8
AM_3 ( Verdeckt )
100
AcDbCircle
 10
4093.752562448826
 20
3441.893812109394
 30
-0.0000000000000002
 40
2.814709897868729
100
AcDbArc
 50
320.0000000000082
 51
95.00000000002595
  0
ARC
  5
21C1
330
74
100
AcDbEntity
  8
AM_3 ( Verdeckt )
100
AcDbCircle
 10
4093.752562448826
 20
3441.893812109394
 30
-0.0000000000000002
 40
3.814709897868728
100
AcDbArc
 50
320.0000000000082
 51
95.00000000002595
  0
LINE
  5
21C2
330
74
100
AcDbEntity
  8
AM_3 ( Verdeckt )
100
AcDbLine
 10
4065.783888808503
 20
3404.960995478064
 30
-0.0000000000000002
 11
4067.315977694742
 21
3403.675420258685
 31
-0.0000000000000002
  0
LINE
  5
21C3
330
74
100
AcDbEntity
  8
AM_3 ( Verdeckt )
100
AcDbLine
 10
4040.072384421044
 20
3374.319217753304
 30
-0.0000000000000002
 11
4041.604473307285
 21
3373.033642533924
 31
-0.0000000000000002
  0
LINE
  5
21C4
330
74
100
AcDbEntity
  8
AM_3 ( Verdeckt )
100
AcDbLine
 10
4067.315977694742
 20
3403.675420258685
 30
-0.0000000000000002
 11
4041.604473307285
 21
3373.033642533924
 31
-0.0000000000000002
  0
LINE
  5
21C5
330
74
100
AcDbEntity
  8
AM_3 ( Verdeckt )
100
AcDbLine
 10
4065.783888808503
 20
3404.960995478064
 30
-0.0000000000000002
 11
4040.072384421044
 21
3374.319217753304
 31
-0.0000000000000002
  0
LINE
  5
21C6
330
74
100
AcDbEntity
  8
AM_3 ( Verdeckt )
100
AcDbLine
 10
4096.674799768202
 20
3439.441763852495
 30
-0.0000000000000002
 11
4013.372493627542
 21
3340.165941237984
 31
-0.0000000000000002
  0
LINE
  5
21C7
330
74
100
AcDbEntity
  8
AM_3 ( Verdeckt )
100
AcDbLine
 10
4095.908755325084
 20
3440.084551462175
 30
-0.0000000000000002
 11
4012.606449184423
 21
3340.808728847675
 31
-0.0000000000000002
  0
ARC
  5
21C8
330
74
100
AcDbEntity
  8
AM_3 ( Verdeckt )
100
AcDbCircle
 10
4017.353809797743
 20
3336.825220307965
 30
-0.0000000000000002
 40
5.197239149716258
100
AcDbArc
 50
140.0000000000081
 51
310.0000000000126
  0
ARC
  5
21C9
330
74
100
AcDbEntity
  8
AM_3 ( Verdeckt )
100
AcDbCircle
 10
4017.353809797743
 20
3336.825220307965
 30
-0.0000000000000002
 40
6.197239149716259
100
AcDbArc
 50
140.0000000000081
 51
310.0000000000126
  0
LINE
  5
21CA
330
74
100
AcDbEntity
  8
AM_3 ( Verdeckt )
100
AcDbLine
 10
4054.847807243083
 20
3359.543794931274
 30
-0.0000000000000002
 11
4053.562232023705
 21
3361.075883817504
 31
-0.0000000000000002
  0
LINE
  5
21CB
330
74
100
AcDbEntity
  8
AM_3 ( Verdeckt )
100
AcDbLine
 10
4085.489584967834
 20
3385.255299318735
 30
-0.0000000000000002
 11
4084.204009748463
 21
3386.787388204974
 31
-0.0000000000000002
  0
LINE
  5
21CC
330
74
100
AcDbEntity
  8
AM_3 ( Verdeckt )
100
AcDbLine
 10
4084.204009748463
 20
3386.787388204974
 30
-0.0000000000000002
 11
4053.562232023705
 21
3361.075883817504
 31
-0.0000000000000002
  0
LINE
  5
21CD
330
74
100
AcDbEntity
  8
AM_3 ( Verdeckt )
100
AcDbLine
 10
4085.489584967834
 20
3385.255299318735
 30
-0.0000000000000002
 11
4054.847807243083
 21
3359.543794931274
 31
-0.0000000000000002
  0
LINE
  5
21CE
330
74
100
AcDbEntity
  8
AM_3 ( Verdeckt )
100
AcDbLine
 10
4118.245858512191
 20
3414.699187302544
 30
-0.0000000000000002
 11
4118.888646121874
 21
3413.933142859435
 31
-0.0000000000000002
  0
LINE
  5
21CF
330
74
100
AcDbEntity
  8
AM_3 ( Verdeckt )
100
AcDbLine
 10
4118.245858512191
 20
3414.699187302544
 30
-0.0000000000000002
 11
4020.694530727754
 21
3332.843904137775
 31
-0.0000000000000002
  0
LINE
  5
21D0
330
74
100
AcDbEntity
  8
AM_3 ( Verdeckt )
100
AcDbLine
 10
4118.888646121874
 20
3413.933142859435
 30
-0.0000000000000002
 11
4021.337318337445
 21
3332.077859694655
 31
-0.0000000000000002
  0
LINE
  5
21D1
330
74
100
AcDbEntity
  8
AM_3 ( Verdeckt )
100
AcDbLine
 10
4112.660460386076
 20
3413.730446410585
 30
-0.0000000000000002
 11
4113.002480529402
 21
3412.790753789804
 31
-0.0000000000000002
  0
LINE
  5
21D2
330
74
100
AcDbEntity
  8
AM_3 ( Verdeckt )
100
AcDbLine
 10
4121.459714116473
 20
3415.868935079735
 30
-0.0000000000000002
 11
4113.002480529402
 21
3412.790753789804
 31
-0.0000000000000002
  0
LINE
  5
21D3
330
74
100
AcDbEntity
  8
AM_3 ( Verdeckt )
100
AcDbLine
 10
4121.117693973154
 20
3416.808627700525
 30
-0.0000000000000002
 11
4112.660460386076
 21
3413.730446410585
 31
-0.0000000000000002
  0
ARC
  5
21D4
330
74
100
AcDbEntity
  8
AM_3 ( Verdeckt )
100
AcDbCircle
 10
4122.422401599163
 20
3413.223972959054
 30
-0.0000000000000002
 40
2.814709897868729
100
AcDbArc
 50
334.9999999999886
 51
109.9999999999896
  0
ARC
  5
21D5
330
74
100
AcDbEntity
  8
AM_3 ( Verdeckt )
100
AcDbCircle
 10
4122.422401599163
 20
3413.223972959054
 30
-0.0000000000000002
 40
3.814709897868728
100
AcDbArc
 50
334.9999999999886
 51
109.9999999999896
  0
LINE
  5
21D6
330
74
100
AcDbEntity
  8
AM_3 ( Verdeckt )
100
AcDbLine
 10
4104.965653736392
 20
3370.310786132885
 30
-0.0000000000000002
 11
4106.778269310474
 21
3369.465549609405
 31
-0.0000000000000002
  0
LINE
  5
21D7
330
74
100
AcDbEntity
  8
AM_3 ( Verdeckt )
100
AcDbLine
 10
4088.060923266773
 20
3334.058474651415
 30
-0.0000000000000002
 11
4089.873538840843
 21
3333.213238127934
 31
-0.0000000000000002
  0
LINE
  5
21D8
330
74
100
AcDbEntity
  8
AM_3 ( Verdeckt )
100
AcDbLine
 10
4106.778269310474
 20
3369.465549609405
 30
-0.0000000000000002
 11
4089.873538840843
 21
3333.213238127934
 31
-0.0000000000000002
  0
LINE
  5
21D9
330
74
100
AcDbEntity
  8
AM_3 ( Verdeckt )
100
AcDbLine
 10
4104.965653736392
 20
3370.310786132885
 30
-0.0000000000000002
 11
4088.060923266773
 21
3334.058474651415
 31
-0.0000000000000002
  0
LINE
  5
21DA
330
74
100
AcDbEntity
  8
AM_3 ( Verdeckt )
100
AcDbLine
 10
4125.879702884893
 20
3411.611806892975
 30
-0.0000000000000002
 11
4071.110327605043
 21
3294.158502573365
 31
-0.0000000000000002
  0
LINE
  5
21DB
330
74
100
AcDbEntity
  8
AM_3 ( Verdeckt )
100
AcDbLine
 10
4124.973395097856
 20
3412.034425154715
 30
-0.0000000000000002
 11
4070.204019818013
 21
3294.581120835105
 31
-0.0000000000000002
  0
ARC
  5
21DC
330
74
100
AcDbEntity
  8
AM_3 ( Verdeckt )
100
AcDbCircle
 10
4075.820625917525
 20
3291.962054398065
 30
-0.0000000000000002
 40
5.197239149716258
100
AcDbArc
 50
155.0000000000228
 51
324.9999999999827
  0
ARC
  5
21DD
330
74
100
AcDbEntity
  8
AM_3 ( Verdeckt )
100
AcDbCircle
 10
4075.820625917525
 20
3291.962054398065
 30
-0.0000000000000002
 40
6.197239149716259
100
AcDbArc
 50
155.0000000000228
 51
324.9999999999827
  0
LINE
  5
21DE
330
74
100
AcDbEntity
  8
AM_3 ( Verdeckt )
100
AcDbLine
 10
4106.157046590693
 20
3323.610672979065
 30
-0.0000000000000002
 11
4104.518742502114
 21
3324.757825851765
 31
-0.0000000000000002
  0
LINE
  5
21DF
330
74
100
AcDbEntity
  8
AM_3 ( Verdeckt )
100
AcDbLine
 10
4129.100104044735
 20
3356.376754750626
 30
-0.0000000000000002
 11
4127.461799956164
 21
3357.523907623324
 31
-0.0000000000000002
  0
LINE
  5
21E0
330
74
100
AcDbEntity
  8
AM_3 ( Verdeckt )
100
AcDbLine
 10
4127.461799956164
 20
3357.523907623324
 30
-0.0000000000000002
 11
4104.518742502114
 21
3324.757825851765
 31
-0.0000000000000002
  0
LINE
  5
21E1
330
74
100
AcDbEntity
  8
AM_3 ( Verdeckt )
100
AcDbLine
 10
4129.100104044735
 20
3356.376754750626
 30
-0.0000000000000002
 11
4106.157046590693
 21
3323.610672979065
 31
-0.0000000000000002
  0
LINE
  5
21E2
330
74
100
AcDbEntity
  8
AM_3 ( Verdeckt )
100
AcDbLine
 10
4153.119595662142
 20
3393.295314020413
 30
-0.0000000000000002
 11
4153.938747706424
 21
3392.721737584064
 31
-0.0000000000000002
  0
LINE
  5
21E3
330
74
100
AcDbEntity
  8
AM_3 ( Verdeckt )
100
AcDbLine
 10
4153.119595662142
 20
3393.295314020413
 30
-0.0000000000000002
 11
4080.077954991664
 21
3288.981040487705
 31
-0.0000000000000002
  0
LINE
  5
21E4
330
74
100
AcDbEntity
  8
AM_3 ( Verdeckt )
100
AcDbLine
 10
4153.938747706424
 20
3392.721737584064
 30
-0.0000000000000002
 11
4080.897107035954
 21
3288.407464051354
 31
-0.0000000000000002
  0
LINE
  5
21E5
330
74
100
AcDbEntity
  8
AM_3 ( Verdeckt )
100
AcDbLine
 10
4147.975243954624
 20
3390.913974764374
 30
-0.0000000000000002
 11
4148.548820390976
 21
3390.094822720085
 31
-0.0000000000000002
  0
LINE
  5
21E6
330
74
100
AcDbEntity
  8
AM_3 ( Verdeckt )
100
AcDbLine
 10
4155.921188789585
 20
3395.257010647244
 30
-0.0000000000000002
 11
4148.548820390976
 21
3390.094822720085
 31
-0.0000000000000002
  0
LINE
  5
21E7
330
74
100
AcDbEntity
  8
AM_3 ( Verdeckt )
100
AcDbLine
 10
4155.347612353224
 20
3396.076162691534
 30
-0.0000000000000002
 11
4147.975243954624
 21
3390.913974764374
 31
-0.0000000000000002
  0
ARC
  5
21E8
330
74
100
AcDbEntity
  8
AM_3 ( Verdeckt )
100
AcDbCircle
 10
4157.535640062164
 20
3392.951335280325
 30
-0.0000000000000002
 40
2.814709897868729
100
AcDbArc
 50
349.9999999999961
 51
124.9999999999803
  0
ARC
  5
21E9
330
74
100
AcDbEntity
  8
AM_3 ( Verdeckt )
100
AcDbCircle
 10
4157.535640062164
 20
3392.951335280325
 30
-0.0000000000000002
 40
3.814709897868728
100
AcDbArc
 50
349.9999999999961
 51
124.9999999999803
  0
LINE
  5
21EA
330
74
100
AcDbEntity
  8
AM_3 ( Verdeckt )
100
AcDbLine
 10
4151.780466495153
 20
3346.982241024124
 30
-0.0000000000000002
 11
4153.750082001175
 21
3346.634944668784
 31
-0.0000000000000002
  0
LINE
  5
21EB
330
74
100
AcDbEntity
  8
AM_3 ( Verdeckt )
100
AcDbLine
 10
4144.834539388475
 20
3307.589930903635
 30
-0.0000000000000002
 11
4146.804154894503
 21
3307.242634548294
 31
-0.0000000000000002
  0
LINE
  5
21EC
330
74
100
AcDbEntity
  8
AM_3 ( Verdeckt )
100
AcDbLine
 10
4153.750082001175
 20
3346.634944668784
 30
-0.0000000000000002
 11
4146.804154894503
 21
3307.242634548294
 31
-0.0000000000000002
  0
LINE
  5
21ED
330
74
100
AcDbEntity
  8
AM_3 ( Verdeckt )
100
AcDbLine
 10
4151.780466495153
 20
3346.982241024124
 30
-0.0000000000000002
 11
4144.834539388475
 21
3307.589930903635
 31
-0.0000000000000002
  0
LINE
  5
21EE
330
74
100
AcDbEntity
  8
AM_3 ( Verdeckt )
100
AcDbLine
 10
4161.292395945074
 20
3392.288917858234
 30
-0.0000000000000002
 11
4138.788393940693
 21
3264.662380422145
 31
-0.0000000000000002
  0
LINE
  5
21EF
330
74
100
AcDbEntity
  8
AM_3 ( Verdeckt )
100
AcDbLine
 10
4160.307588192064
 20
3392.462566035894
 30
-0.0000000000000002
 11
4137.803586187682
 21
3264.836028599805
 31
-0.0000000000000002
  0
ARC
  5
21F0
330
74
100
AcDbEntity
  8
AM_3 ( Verdeckt )
100
AcDbCircle
 10
4143.906675349593
 20
3263.759889314896
 30
-0.0000000000000002
 40
5.197239149716258
100
AcDbArc
 50
169.999999999996
 51
339.9999999999872
  0
ARC
  5
21F1
330
74
100
AcDbEntity
  8
AM_3 ( Verdeckt )
100
AcDbCircle
 10
4143.906675349593
 20
3263.759889314896
 30
-0.0000000000000002
 40
6.197239149716259
100
AcDbArc
 50
169.999999999996
 51
339.9999999999872
  0
LINE
  5
21F2
330
74
100
AcDbEntity
  8
AM_3 ( Verdeckt )
100
AcDbLine
 10
4165.018142315026
 20
3302.181750799114
 30
-0.0000000000000002
 11
4163.138757073455
 21
3302.865791085764
 31
-0.0000000000000002
  0
LINE
  5
21F3
330
74
100
AcDbEntity
  8
AM_3 ( Verdeckt )
100
AcDbLine
 10
4178.698948048054
 20
3339.769455630545
 30
-0.0000000000000002
 11
4176.819562806485
 21
3340.453495917204
 31
-0.0000000000000002
  0
LINE
  5
21F4
330
74
100
AcDbEntity
  8
AM_3 ( Verdeckt )
100
AcDbLine
 10
4176.819562806485
 20
3340.453495917204
 30
-0.0000000000000002
 11
4163.138757073455
 21
3302.865791085764
 31
-0.0000000000000002
  0
LINE
  5
21F5
330
74
100
AcDbEntity
  8
AM_3 ( Verdeckt )
100
AcDbLine
 10
4178.698948048054
 20
3339.769455630545
 30
-0.0000000000000002
 11
4165.018142315026
 21
3302.181750799114
 31
-0.0000000000000002
  0
LINE
  5
21F6
330
74
100
AcDbEntity
  8
AM_3 ( Verdeckt )
100
AcDbLine
 10
4192.344769078865
 20
3381.646747382894
 30
-0.0000000000000002
 11
4193.284461699652
 21
3381.304727239565
 31
-0.0000000000000002
  0
LINE
  5
21F7
330
74
100
AcDbEntity
  8
AM_3 ( Verdeckt )
100
AcDbLine
 10
4192.344769078865
 20
3381.646747382894
 30
-0.0000000000000002
 11
4148.790482627035
 21
3261.982328836015
 31
-0.0000000000000002
  0
LINE
  5
21F8
330
74
100
AcDbEntity
  8
AM_3 ( Verdeckt )
100
AcDbLine
 10
4193.284461699652
 20
3381.304727239565
 30
-0.0000000000000002
 11
4149.730175247814
 21
3261.640308692685
 31
-0.0000000000000002
  0
LINE
  5
21F9
330
74
100
AcDbEntity
  8
AM_3 ( Verdeckt )
100
AcDbLine
 10
4187.992042857383
 20
3378.015094097714
 30
-0.0000000000000002
 11
4188.758087300504
 21
3377.372306488025
 31
-0.0000000000000002
  0
LINE
  5
21FA
330
74
100
AcDbEntity
  8
AM_3 ( Verdeckt )
100
AcDbLine
 10
4194.543175787684
 20
3384.266706476094
 30
-0.0000000000000002
 11
4188.758087300504
 21
3377.372306488025
 31
-0.0000000000000002
  0
LINE
  5
21FB
330
74
100
AcDbEntity
  8
AM_3 ( Verdeckt )
100
AcDbLine
 10
4193.777131344564
 20
3384.909494085786
 30
-0.0000000000000002
 11
4187.992042857383
 21
3378.015094097714
 31
-0.0000000000000002
  0
ARC
  5
21FC
330
74
100
AcDbEntity
  8
AM_3 ( Verdeckt )
100
AcDbCircle
 10
4196.699368663933
 20
3382.457445828884
 30
-0.0000000000000002
 40
2.814709897868729
100
AcDbArc
 50
5.000000000000828
 51
140.0000000000081
  0
ARC
  5
21FD
330
74
100
AcDbEntity
  8
AM_3 ( Verdeckt )
100
AcDbCircle
 10
4196.699368663933
 20
3382.457445828884
 30
-0.0000000000000002
 40
3.814709897868728
100
AcDbArc
 50
5.000000000000828
 51
140.0000000000081
  0
LINE
  5
21FE
330
74
100
AcDbEntity
  8
AM_3 ( Verdeckt )
100
AcDbLine
 10
4203.037974960404
 20
3336.565161948695
 30
-0.0000000000000002
 11
4205.030364356583
 21
3336.739473434184
 31
-0.0000000000000002
  0
LINE
  5
21FF
330
74
100
AcDbEntity
  8
AM_3 ( Verdeckt )
100
AcDbLine
 10
4206.524204670314
 20
3296.717374025024
 30
-0.0000000000000002
 11
4208.516594066493
 21
3296.891685510515
 31
-0.0000000000000002
  0
LINE
  5
2200
330
74
100
AcDbEntity
  8
AM_3 ( Verdeckt )
100
AcDbLine
 10
4205.030364356583
 20
3336.739473434184
 30
-0.0000000000000002
 11
4208.516594066493
 21
3296.891685510515
 31
-0.0000000000000002
  0
LINE
  5
2201
330
74
100
AcDbEntity
  8
AM_3 ( Verdeckt )
100
AcDbLine
 10
4203.037974960404
 20
3336.565161948695
 30
-0.0000000000000002
 11
4206.524204670314
 21
3296.717374025024
 31
-0.0000000000000002
  0
LINE
  5
2202
330
74
100
AcDbEntity
  8
AM_3 ( Verdeckt )
100
AcDbLine
 10
4200.499562438954
 20
3382.789919703404
 30
-0.0000000000000002
 11
4211.794544257002
 21
3253.687686764275
 31
-0.0000000000000002
  0
LINE
  5
2203
330
74
100
AcDbEntity
  8
AM_3 ( Verdeckt )
100
AcDbLine
 10
4199.503367740853
 20
3382.702763960655
 30
-0.0000000000000002
 11
4210.798349558912
 21
3253.600531021525
 31
-0.0000000000000002
  0
ARC
  5
2204
330
74
100
AcDbEntity
  8
AM_3 ( Verdeckt )
100
AcDbCircle
 10
4216.972006342665
 20
3254.140656002604
 30
-0.0000000000000002
 40
5.197239149716258
100
AcDbArc
 50
185.0000000000008
 51
354.9999999999991
  0
ARC
  5
2205
330
74
100
AcDbEntity
  8
AM_3 ( Verdeckt )
100
AcDbCircle
 10
4216.972006342665
 20
3254.140656002604
 30
-0.0000000000000002
 40
6.197239149716259
100
AcDbArc
 50
185.0000000000008
 51
354.9999999999991
  0
LINE
  5
2206
330
74
100
AcDbEntity
  8
AM_3 ( Verdeckt )
100
AcDbLine
 10
4227.419808015024
 20
3296.717374025024
 30
-0.0000000000000002
 11
4225.427418618843
 21
3296.891685510515
 31
-0.0000000000000002
  0
LINE
  5
2207
330
74
100
AcDbEntity
  8
AM_3 ( Verdeckt )
100
AcDbLine
 10
4230.906037724934
 20
3336.565161948695
 30
-0.0000000000000002
 11
4228.913648328744
 21
3336.739473434184
 31
-0.0000000000000002
  0
LINE
  5
2208
330
74
100
AcDbEntity
  8
AM_3 ( Verdeckt )
100
AcDbLine
 10
4228.913648328744
 20
3336.739473434184
 30
-0.0000000000000002
 11
4225.427418618843
 21
3296.891685510515
 31
-0.0000000000000002
  0
LINE
  5
2209
330
74
100
AcDbEntity
  8
AM_3 ( Verdeckt )
100
AcDbLine
 10
4230.906037724934
 20
3336.565161948695
 30
-0.0000000000000002
 11
4227.419808015024
 21
3296.717374025024
 31
-0.0000000000000002
  0
LINE
  5
220A
330
74
100
AcDbEntity
  8
AM_3 ( Verdeckt )
100
AcDbLine
 10
4233.248248016684
 20
3380.547317956155
 30
-0.0000000000000002
 11
4234.244442714785
 21
3380.460162213415
 31
-0.0000000000000002
  0
LINE
  5
220B
330
74
100
AcDbEntity
  8
AM_3 ( Verdeckt )
100
AcDbLine
 10
4233.248248016684
 20
3380.547317956155
 30
-0.0000000000000002
 11
4222.149468428324
 21
3253.687686764275
 31
-0.0000000000000002
  0
LINE
  5
220C
330
74
100
AcDbEntity
  8
AM_3 ( Verdeckt )
100
AcDbLine
 10
4234.244442714785
 20
3380.460162213415
 30
-0.0000000000000002
 11
4223.145663126413
 21
3253.600531021525
 31
-0.0000000000000002
  0
LINE
  5
220D
330
74
100
AcDbEntity
  8
AM_3 ( Verdeckt )
100
AcDbLine
 10
4229.983778380005
 20
3375.912841811634
 30
-0.0000000000000002
 11
4230.890086167041
 21
3375.490223549895
 31
-0.0000000000000002
  0
LINE
  5
220E
330
74
100
AcDbEntity
  8
AM_3 ( Verdeckt )
100
AcDbLine
 10
4234.693650522714
 20
3383.646993633225
 30
-0.0000000000000002
 11
4230.890086167041
 21
3375.490223549895
 31
-0.0000000000000002
  0
LINE
  5
220F
330
74
100
AcDbEntity
  8
AM_3 ( Verdeckt )
100
AcDbLine
 10
4233.787342735675
 20
3384.069611894965
 30
-0.0000000000000002
 11
4229.983778380005
 21
3375.912841811634
 31
-0.0000000000000002
  0
ARC
  5
2210
330
74
100
AcDbEntity
  8
AM_3 ( Verdeckt )
100
AcDbCircle
 10
4237.244644021393
 20
3382.457445828884
 30
-0.0000000000000002
 40
2.814709897868729
100
AcDbArc
 50
20.00000000001286
 51
154.9999999999887
  0
ARC
  5
2211
330
74
100
AcDbEntity
  8
AM_3 ( Verdeckt )
100
AcDbCircle
 10
4237.244644021393
 20
3382.457445828884
 30
-0.0000000000000002
 40
3.814709897868728
100
AcDbArc
 50
20.00000000001286
 51
154.9999999999887
  0
LINE
  5
2212
330
74
100
AcDbEntity
  8
AM_3 ( Verdeckt )
100
AcDbLine
 10
4255.245064637285
 20
3339.769455630545
 30
-0.0000000000000002
 11
4257.124449878854
 21
3340.453495917204
 31
-0.0000000000000002
  0
LINE
  5
2213
330
74
100
AcDbEntity
  8
AM_3 ( Verdeckt )
100
AcDbLine
 10
4268.925870370305
 20
3302.181750799114
 30
-0.0000000000000002
 11
4270.805255611874
 21
3302.865791085764
 31
-0.0000000000000002
  0
LINE
  5
2214
330
74
100
AcDbEntity
  8
AM_3 ( Verdeckt )
100
AcDbLine
 10
4257.124449878854
 20
3340.453495917204
 30
-0.0000000000000002
 11
4270.805255611874
 21
3302.865791085764
 31
-0.0000000000000002
  0
LINE
  5
2215
330
74
100
AcDbEntity
  8
AM_3 ( Verdeckt )
100
AcDbLine
 10
4255.245064637285
 20
3339.769455630545
 30
-0.0000000000000002
 11
4268.925870370305
 21
3302.181750799114
 31
-0.0000000000000002
  0
LINE
  5
2216
330
74
100
AcDbEntity
  8
AM_3 ( Verdeckt )
100
AcDbLine
 10
4240.829298762863
 20
3383.762153454905
 30
-0.0000000000000002
 11
4285.153530058293
 21
3261.982328836015
 31
-0.0000000000000002
  0
LINE
  5
2217
330
74
100
AcDbEntity
  8
AM_3 ( Verdeckt )
100
AcDbLine
 10
4239.889606142074
 20
3383.420133311575
 30
-0.0000000000000002
 11
4284.213837437514
 21
3261.640308692685
 31
-0.0000000000000002
  0
ARC
  5
2218
330
74
100
AcDbEntity
  8
AM_3 ( Verdeckt )
100
AcDbCircle
 10
4290.037337335743
 20
3263.759889314896
 30
-0.0000000000000002
 40
5.197239149716258
100
AcDbArc
 50
200.0000000000128
 51
10.00000000000386
  0
ARC
  5
2219
330
74
100
AcDbEntity
  8
AM_3 ( Verdeckt )
100
AcDbCircle
 10
4290.037337335743
 20
3263.759889314896
 30
-0.0000000000000002
 40
6.197239149716259
100
AcDbArc
 50
200.0000000000128
 51
10.00000000000386
  0
LINE
  5
221A
330
74
100
AcDbEntity
  8
AM_3 ( Verdeckt )
100
AcDbLine
 10
4289.109473296863
 20
3307.589930903635
 30
-0.0000000000000002
 11
4287.139857790835
 21
3307.242634548294
 31
-0.0000000000000002
  0
LINE
  5
221B
330
74
100
AcDbEntity
  8
AM_3 ( Verdeckt )
100
AcDbLine
 10
4282.163546190185
 20
3346.982241024124
 30
-0.0000000000000002
 11
4280.193930684155
 21
3346.634944668784
 31
-0.0000000000000002
  0
LINE
  5
221C
330
74
100
AcDbEntity
  8
AM_3 ( Verdeckt )
100
AcDbLine
 10
4280.193930684155
 20
3346.634944668784
 30
-0.0000000000000002
 11
4287.139857790835
 21
3307.242634548294
 31
-0.0000000000000002
  0
LINE
  5
221D
330
74
100
AcDbEntity
  8
AM_3 ( Verdeckt )
100
AcDbLine
 10
4282.163546190185
 20
3346.982241024124
 30
-0.0000000000000002
 11
4289.109473296863
 21
3307.589930903635
 31
-0.0000000000000002
  0
LINE
  5
221E
330
74
100
AcDbEntity
  8
AM_3 ( Verdeckt )
100
AcDbLine
 10
4273.042527982185
 20
3390.071950038745
 30
-0.0000000000000002
 11
4274.027335735204
 21
3390.245598216413
 31
-0.0000000000000002
  0
LINE
  5
221F
330
74
100
AcDbEntity
  8
AM_3 ( Verdeckt )
100
AcDbLine
 10
4273.042527982185
 20
3390.071950038745
 30
-0.0000000000000002
 11
4295.155618744636
 21
3264.662380422145
 31
-0.0000000000000002
  0
LINE
  5
2220
330
74
100
AcDbEntity
  8
AM_3 ( Verdeckt )
100
AcDbLine
 10
4274.027335735204
 20
3390.245598216413
 30
-0.0000000000000002
 11
4296.140426497644
 21
3264.836028599805
 31
-0.0000000000000002
  0
LINE
  5
2221
330
74
100
AcDbEntity
  8
AM_3 ( Verdeckt )
100
AcDbLine
 10
4271.088783141254
 20
3384.750482925305
 30
-0.0000000000000002
 11
4272.073590894264
 21
3384.576834747635
 31
-0.0000000000000002
  0
LINE
  5
2222
330
74
100
AcDbEntity
  8
AM_3 ( Verdeckt )
100
AcDbLine
 10
4273.636424493264
 20
3393.440104524745
 30
-0.0000000000000002
 11
4272.073590894264
 21
3384.576834747635
 31
-0.0000000000000002
  0
LINE
  5
2223
330
74
100
AcDbEntity
  8
AM_3 ( Verdeckt )
100
AcDbLine
 10
4272.651616740254
 20
3393.613752702414
 30
-0.0000000000000002
 11
4271.088783141254
 21
3384.750482925305
 31
-0.0000000000000002
  0
ARC
  5
2224
330
74
100
AcDbEntity
  8
AM_3 ( Verdeckt )
100
AcDbCircle
 10
4276.408372623174
 20
3392.951335280325
 30
-0.0000000000000002
 40
2.814709897868729
100
AcDbArc
 50
35.00000000001741
 51
169.999999999996
  0
ARC
  5
2225
330
74
100
AcDbEntity
  8
AM_3 ( Verdeckt )
100
AcDbCircle
 10
4276.408372623174
 20
3392.951335280325
 30
-0.0000000000000002
 40
3.814709897868728
100
AcDbArc
 50
35.00000000001741
 51
169.999999999996
  0
LINE
  5
2226
330
74
100
AcDbEntity
  8
AM_3 ( Verdeckt )
100
AcDbLine
 10
4304.843908640594
 20
3356.376754750626
 30
-0.0000000000000002
 11
4306.482212729173
 21
3357.523907623324
 31
-0.0000000000000002
  0
LINE
  5
2227
330
74
100
AcDbEntity
  8
AM_3 ( Verdeckt )
100
AcDbLine
 10
4327.786966094643
 20
3323.610672979065
 30
-0.0000000000000002
 11
4329.425270183213
 21
3324.757825851765
 31
-0.0000000000000002
  0
LINE
  5
2228
330
74
100
AcDbEntity
  8
AM_3 ( Verdeckt )
100
AcDbLine
 10
4306.482212729173
 20
3357.523907623324
 30
-0.0000000000000002
 11
4329.425270183213
 21
3324.757825851765
 31
-0.0000000000000002
  0
LINE
  5
2229
330
74
100
AcDbEntity
  8
AM_3 ( Verdeckt )
100
AcDbLine
 10
4304.843908640594
 20
3356.376754750626
 30
-0.0000000000000002
 11
4327.786966094643
 21
3323.610672979065
 31
-0.0000000000000002
  0
LINE
  5
222A
330
74
100
AcDbEntity
  8
AM_3 ( Verdeckt )
100
AcDbLine
 10
4279.533200034374
 20
3395.139362989255
 30
-0.0000000000000002
 11
4353.866057693663
 21
3288.981040487705
 31
-0.0000000000000002
  0
LINE
  5
222B
330
74
100
AcDbEntity
  8
AM_3 ( Verdeckt )
100
AcDbLine
 10
4278.714047990093
 20
3394.565786552905
 30
-0.0000000000000002
 11
4353.046905649374
 21
3288.407464051354
 31
-0.0000000000000002
  0
ARC
  5
222C
330
74
100
AcDbEntity
  8
AM_3 ( Verdeckt )
100
AcDbCircle
 10
4358.123386767814
 20
3291.962054398065
 30
-0.0000000000000002
 40
5.197239149716258
100
AcDbArc
 50
215.0000000000174
 51
25.00000000001126
  0
ARC
  5
222D
330
74
100
AcDbEntity
  8
AM_3 ( Verdeckt )
100
AcDbCircle
 10
4358.123386767814
 20
3291.962054398065
 30
-0.0000000000000002
 40
6.197239149716259
100
AcDbArc
 50
215.0000000000174
 51
25.00000000001126
  0
LINE
  5
222E
330
74
100
AcDbEntity
  8
AM_3 ( Verdeckt )
100
AcDbLine
 10
4345.883089418565
 20
3334.058474651415
 30
-0.0000000000000002
 11
4344.070473844492
 21
3333.213238127934
 31
-0.0000000000000002
  0
LINE
  5
222F
330
74
100
AcDbEntity
  8
AM_3 ( Verdeckt )
100
AcDbLine
 10
4328.978358948933
 20
3370.310786132885
 30
-0.0000000000000002
 11
4327.165743374864
 21
3369.465549609405
 31
-0.0000000000000002
  0
LINE
  5
2230
330
74
100
AcDbEntity
  8
AM_3 ( Verdeckt )
100
AcDbLine
 10
4327.165743374864
 20
3369.465549609405
 30
-0.0000000000000002
 11
4344.070473844492
 21
3333.213238127934
 31
-0.0000000000000002
  0
LINE
  5
2231
330
74
100
AcDbEntity
  8
AM_3 ( Verdeckt )
100
AcDbLine
 10
4328.978358948933
 20
3370.310786132885
 30
-0.0000000000000002
 11
4345.883089418565
 21
3334.058474651415
 31
-0.0000000000000002
  0
LINE
  5
2232
330
74
100
AcDbEntity
  8
AM_3 ( Verdeckt )
100
AcDbLine
 10
4309.015694558874
 20
3409.571555694435
 30
-0.0000000000000002
 11
4309.922002345914
 21
3409.994173956184
 31
-0.0000000000000002
  0
LINE
  5
2233
330
74
100
AcDbEntity
  8
AM_3 ( Verdeckt )
100
AcDbLine
 10
4309.015694558874
 20
3409.571555694435
 30
-0.0000000000000002
 11
4362.833685080285
 21
3294.158502573365
 31
-0.0000000000000002
  0
LINE
  5
2234
330
74
100
AcDbEntity
  8
AM_3 ( Verdeckt )
100
AcDbLine
 10
4309.922002345914
 20
3409.994173956184
 30
-0.0000000000000002
 11
4363.739992867315
 21
3294.581120835105
 31
-0.0000000000000002
  0
LINE
  5
2235
330
74
100
AcDbEntity
  8
AM_3 ( Verdeckt )
100
AcDbLine
 10
4308.505818995884
 20
3403.925746801715
 30
-0.0000000000000002
 11
4309.502013693974
 21
3404.012902544455
 31
-0.0000000000000002
  0
LINE
  5
2236
330
74
100
AcDbEntity
  8
AM_3 ( Verdeckt )
100
AcDbLine
 10
4308.717612009244
 20
3412.978654827285
 30
-0.0000000000000002
 11
4309.502013693974
 21
3404.012902544455
 31
-0.0000000000000002
  0
LINE
  5
2237
330
74
100
AcDbEntity
  8
AM_3 ( Verdeckt )
100
AcDbLine
 10
4307.721417311155
 20
3412.891499084536
 30
-0.0000000000000002
 11
4308.505818995884
 21
3403.925746801715
 31
-0.0000000000000002
  0
ARC
  5
2238
330
74
100
AcDbEntity
  8
AM_3 ( Verdeckt )
100
AcDbCircle
 10
4311.521611086163
 20
3413.223972959054
 30
-0.0000000000000002
 40
2.814709897868729
100
AcDbArc
 50
49.99999999998745
 51
185.0000000000008
  0
ARC
  5
2239
330
74
100
AcDbEntity
  8
AM_3 ( Verdeckt )
100
AcDbCircle
 10
4311.521611086163
 20
3413.223972959054
 30
-0.0000000000000002
 40
3.814709897868728
100
AcDbArc
 50
49.99999999998745
 51
185.0000000000008
  0
LINE
  5
223A
330
74
100
AcDbEntity
  8
AM_3 ( Verdeckt )
100
AcDbLine
 10
4348.454427717494
 20
3385.255299318735
 30
-0.0000000000000002
 11
4349.740002936863
 21
3386.787388204974
 31
-0.0000000000000002
  0
LINE
  5
223B
330
74
100
AcDbEntity
  8
AM_3 ( Verdeckt )
100
AcDbLine
 10
4379.096205442253
 20
3359.543794931274
 30
-0.0000000000000002
 11
4380.381780661624
 21
3361.075883817504
 31
-0.0000000000000002
  0
LINE
  5
223C
330
74
100
AcDbEntity
  8
AM_3 ( Verdeckt )
100
AcDbLine
 10
4349.740002936863
 20
3386.787388204974
 30
-0.0000000000000002
 11
4380.381780661624
 21
3361.075883817504
 31
-0.0000000000000002
  0
LINE
  5
223D
330
74
100
AcDbEntity
  8
AM_3 ( Verdeckt )
100
AcDbLine
 10
4348.454427717494
 20
3385.255299318735
 30
-0.0000000000000002
 11
4379.096205442253
 21
3359.543794931274
 31
-0.0000000000000002
  0
LINE
  5
223E
330
74
100
AcDbEntity
  8
AM_3 ( Verdeckt )
100
AcDbLine
 10
4313.973659343065
 20
3416.146210278424
 30
-0.0000000000000002
 11
4413.249481957574
 21
3332.843904137775
 31
-0.0000000000000002
  0
LINE
  5
223F
330
74
100
AcDbEntity
  8
AM_3 ( Verdeckt )
100
AcDbLine
 10
4313.330871733374
 20
3415.380165835304
 30
-0.0000000000000002
 11
4412.606694347884
 21
3332.077859694655
 31
-0.0000000000000002
  0
ARC
  5
2240
330
74
100
AcDbEntity
  8
AM_3 ( Verdeckt )
100
AcDbCircle
 10
4416.590202887586
 20
3336.825220307974
 30
-0.0000000000000002
 40
5.197239149716258
100
AcDbArc
 50
229.9999999999875
 51
40.00000000001182
  0
ARC
  5
2241
330
74
100
AcDbEntity
  8
AM_3 ( Verdeckt )
100
AcDbCircle
 10
4416.590202887586
 20
3336.825220307974
 30
-0.0000000000000002
 40
6.197239149716259
100
AcDbArc
 50
229.9999999999875
 51
40.00000000001182
  0
LINE
  5
2242
330
74
100
AcDbEntity
  8
AM_3 ( Verdeckt )
100
AcDbLine
 10
4393.871628264284
 20
3374.319217753304
 30
-0.0000000000000002
 11
4392.339539378044
 21
3373.033642533935
 31
-0.0000000000000002
  0
LINE
  5
2243
330
74
100
AcDbEntity
  8
AM_3 ( Verdeckt )
100
AcDbLine
 10
4368.160123876825
 20
3404.960995478064
 30
-0.0000000000000002
 11
4366.628034990585
 21
3403.675420258685
 31
-0.0000000000000002
  0
LINE
  5
2244
330
74
100
AcDbEntity
  8
AM_3 ( Verdeckt )
100
AcDbLine
 10
4366.628034990585
 20
3403.675420258685
 30
-0.0000000000000002
 11
4392.339539378044
 21
3373.033642533935
 31
-0.0000000000000002
  0
LINE
  5
2245
330
74
100
AcDbEntity
  8
AM_3 ( Verdeckt )
100
AcDbLine
 10
4368.160123876825
 20
3404.960995478064
 30
-0.0000000000000002
 11
4393.871628264284
 21
3374.319217753304
 31
-0.0000000000000002
  0
LINE
  5
2246
330
74
100
AcDbEntity
  8
AM_3 ( Verdeckt )
100
AcDbLine
 10
4338.716235893005
 20
3437.717269022415
 30
-0.0000000000000002
 11
4339.482280336126
 21
3438.360056632105
 31
-0.0000000000000002
  0
LINE
  5
2247
330
74
100
AcDbEntity
  8
AM_3 ( Verdeckt )
100
AcDbLine
 10
4338.716235893005
 20
3437.717269022415
 30
-0.0000000000000002
 11
4420.571519057785
 21
3340.165941237984
 31
-0.0000000000000002
  0
LINE
  5
2248
330
74
100
AcDbEntity
  8
AM_3 ( Verdeckt )
100
AcDbLine
 10
4339.482280336126
 20
3438.360056632105
 30
-0.0000000000000002
 11
4421.337563500902
 21
3340.808728847665
 31
-0.0000000000000002
  0
LINE
  5
2249
330
74
100
AcDbEntity
  8
AM_3 ( Verdeckt )
100
AcDbLine
 10
4339.684976784962
 20
3432.131870896305
 30
-0.0000000000000002
 11
4340.624669405753
 21
3432.473891039625
 31
-0.0000000000000002
  0
LINE
  5
224A
330
74
100
AcDbEntity
  8
AM_3 ( Verdeckt )
100
AcDbLine
 10
4337.546488115822
 20
3440.931124626705
 30
-0.0000000000000002
 11
4340.624669405753
 21
3432.473891039625
 31
-0.0000000000000002
  0
LINE
  5
224B
330
74
100
AcDbEntity
  8
AM_3 ( Verdeckt )
100
AcDbLine
 10
4336.606795495034
 20
3440.589104483374
 30
-0.0000000000000002
 11
4339.684976784962
 21
3432.131870896305
 31
-0.0000000000000002
  0
ARC
  5
224C
330
74
100
AcDbEntity
  8
AM_3 ( Verdeckt )
100
AcDbCircle
 10
4340.191450236504
 20
3441.893812109384
 30
-0.0000000000000002
 40
2.814709897868729
100
AcDbArc
 50
65.00000000002188
 51
200.0000000000128
  0
ARC
  5
224D
330
74
100
AcDbEntity
  8
AM_3 ( Verdeckt )
100
AcDbCircle
 10
4340.191450236504
 20
3441.893812109384
 30
-0.0000000000000002
 40
3.814709897868728
100
AcDbArc
 50
65.00000000002188
 51
200.0000000000128
  0
LINE
  5
224E
330
74
100
AcDbEntity
  8
AM_3 ( Verdeckt )
100
AcDbLine
 10
4383.104637062674
 20
3424.437064246625
 30
-0.0000000000000002
 11
4383.949873586153
 21
3426.249679820695
 31
-0.0000000000000002
  0
LINE
  5
224F
330
74
100
AcDbEntity
  8
AM_3 ( Verdeckt )
100
AcDbLine
 10
4419.356948544144
 20
3407.532333776995
 30
-0.0000000000000002
 11
4420.202185067624
 21
3409.344949351066
 31
-0.0000000000000002
  0
LINE
  5
2250
330
74
100
AcDbEntity
  8
AM_3 ( Verdeckt )
100
AcDbLine
 10
4383.949873586153
 20
3426.249679820695
 30
-0.0000000000000002
 11
4420.202185067624
 21
3409.344949351066
 31
-0.0000000000000002
  0
LINE
  5
2251
330
74
100
AcDbEntity
  8
AM_3 ( Verdeckt )
100
AcDbLine
 10
4383.104637062674
 20
3424.437064246625
 30
-0.0000000000000002
 11
4419.356948544144
 21
3407.532333776995
 31
-0.0000000000000002
  0
LINE
  5
2252
330
74
100
AcDbEntity
  8
AM_3 ( Verdeckt )
100
AcDbLine
 10
4341.803616302585
 20
3445.351113395115
 30
-0.0000000000000002
 11
4459.256920622192
 21
3390.581738115275
 31
-0.0000000000000002
  0
LINE
  5
2253
330
74
100
AcDbEntity
  8
AM_3 ( Verdeckt )
100
AcDbLine
 10
4341.380998040841
 20
3444.444805608075
 30
-0.0000000000000002
 11
4458.834302360456
 21
3389.675430328234
 31
-0.0000000000000002
  0
ARC
  5
2254
330
74
100
AcDbEntity
  8
AM_3 ( Verdeckt )
100
AcDbCircle
 10
4461.453368797492
 20
3395.292036427754
 30
-0.0000000000000002
 40
5.197239149716258
100
AcDbArc
 50
245.0000000000219
 51
55.0000000000197
  0
ARC
  5
2255
330
74
100
AcDbEntity
  8
AM_3 ( Verdeckt )
100
AcDbCircle
 10
4461.453368797492
 20
3395.292036427754
 30
-0.0000000000000002
 40
6.197239149716259
100
AcDbArc
 50
245.0000000000219
 51
55.0000000000197
  0
LINE
  5
2256
330
74
100
AcDbEntity
  8
AM_3 ( Verdeckt )
100
AcDbLine
 10
4429.804750216493
 20
3425.628457100924
 30
-0.0000000000000002
 11
4428.657597343794
 21
3423.990153012345
 31
-0.0000000000000002
  0
LINE
  5
2257
330
74
100
AcDbEntity
  8
AM_3 ( Verdeckt )
100
AcDbLine
 10
4397.038668444934
 20
3448.571514554964
 30
-0.0000000000000002
 11
4395.891515572236
 21
3446.933210466383
 31
-0.0000000000000002
  0
LINE
  5
2258
330
74
100
AcDbEntity
  8
AM_3 ( Verdeckt )
100
AcDbLine
 10
4395.891515572236
 20
3446.933210466383
 30
-0.0000000000000002
 11
4428.657597343794
 21
3423.990153012345
 31
-0.0000000000000002
  0
LINE
  5
2259
330
74
100
AcDbEntity
  8
AM_3 ( Verdeckt )
100
AcDbLine
 10
4397.038668444934
 20
3448.571514554964
 30
-0.0000000000000002
 11
4429.804750216493
 21
3425.628457100924
 31
-0.0000000000000002
  0
LINE
  5
225A
330
74
100
AcDbEntity
  8
AM_3 ( Verdeckt )
100
AcDbLine
 10
4360.120109175143
 20
3472.591006172365
 30
-0.0000000000000002
 11
4360.693685611493
 21
3473.410158216655
 31
-0.0000000000000002
  0
LINE
  5
225B
330
74
100
AcDbEntity
  8
AM_3 ( Verdeckt )
100
AcDbLine
 10
4360.120109175143
 20
3472.591006172365
 30
-0.0000000000000002
 11
4464.434382707856
 21
3399.549365501895
 31
-0.0000000000000002
  0
LINE
  5
225C
330
74
100
AcDbEntity
  8
AM_3 ( Verdeckt )
100
AcDbLine
 10
4360.693685611493
 20
3473.410158216655
 30
-0.0000000000000002
 11
4465.007959144204
 21
3400.368517546185
 31
-0.0000000000000002
  0
LINE
  5
225D
330
74
100
AcDbEntity
  8
AM_3 ( Verdeckt )
100
AcDbLine
 10
4362.501448431183
 20
3467.446654464855
 30
-0.0000000000000002
 11
4363.320600475474
 21
3468.020230901205
 31
-0.0000000000000002
  0
LINE
  5
225E
330
74
100
AcDbEntity
  8
AM_3 ( Verdeckt )
100
AcDbLine
 10
4358.158412548312
 20
3475.392599299804
 30
-0.0000000000000002
 11
4363.320600475474
 21
3468.020230901205
 31
-0.0000000000000002
  0
LINE
  5
225F
330
74
100
AcDbEntity
  8
AM_3 ( Verdeckt )
100
AcDbLine
 10
4357.339260504023
 20
3474.819022863454
 30
-0.0000000000000002
 11
4362.501448431183
 21
3467.446654464855
 31
-0.0000000000000002
  0
ARC
  5
2260
330
74
100
AcDbEntity
  8
AM_3 ( Verdeckt )
100
AcDbCircle
 10
4360.464087915234
 20
3477.007050572385
 30
-0.0000000000000002
 40
2.814709897868729
100
AcDbArc
 50
79.99999999999485
 51
215.0000000000174
  0
ARC
  5
2261
330
74
100
AcDbEntity
  8
AM_3 ( Verdeckt )
100
AcDbCircle
 10
4360.464087915234
 20
3477.007050572385
 30
-0.0000000000000002
 40
3.814709897868728
100
AcDbArc
 50
79.99999999999485
 51
215.0000000000174
  0
LINE
  5
2262
330
74
100
AcDbEntity
  8
AM_3 ( Verdeckt )
100
AcDbLine
 10
4406.433182171432
 20
3471.251877005374
 30
-0.0000000000000002
 11
4406.780478526774
 21
3473.221492511405
 31
-0.0000000000000002
  0
LINE
  5
2263
330
74
100
AcDbEntity
  8
AM_3 ( Verdeckt )
100
AcDbLine
 10
4445.825492291924
 20
3464.305949898705
 30
-0.0000000000000002
 11
4446.172788647262
 21
3466.275565404725
 31
-0.0000000000000002
  0
LINE
  5
2264
330
74
100
AcDbEntity
  8
AM_3 ( Verdeckt )
100
AcDbLine
 10
4406.780478526774
 20
3473.221492511405
 30
-0.0000000000000002
 11
4446.172788647262
 21
3466.275565404725
 31
-0.0000000000000002
  0
LINE
  5
2265
330
74
100
AcDbEntity
  8
AM_3 ( Verdeckt )
100
AcDbLine
 10
4406.433182171432
 20
3471.251877005374
 30
-0.0000000000000002
 11
4445.825492291924
 21
3464.305949898705
 31
-0.0000000000000002
  0
LINE
  5
2266
330
74
100
AcDbEntity
  8
AM_3 ( Verdeckt )
100
AcDbLine
 10
4361.126505337325
 20
3480.763806455305
 30
-0.0000000000000002
 11
4488.753042773413
 21
3458.259804450915
 31
-0.0000000000000002
  0
LINE
  5
2267
330
74
100
AcDbEntity
  8
AM_3 ( Verdeckt )
100
AcDbLine
 10
4360.952857159664
 20
3479.778998702285
 30
-0.0000000000000002
 11
4488.579394595743
 21
3457.274996697904
 31
-0.0000000000000002
  0
ARC
  5
2268
330
74
100
AcDbEntity
  8
AM_3 ( Verdeckt )
100
AcDbCircle
 10
4489.655533880663
 20
3463.378085859815
 30
-0.0000000000000002
 40
5.197239149716258
100
AcDbArc
 50
259.9999999999949
 51
70.00000000001034
  0
ARC
  5
2269
330
74
100
AcDbEntity
  8
AM_3 ( Verdeckt )
100
AcDbCircle
 10
4489.655533880663
 20
3463.378085859815
 30
-0.0000000000000002
 40
6.197239149716259
100
AcDbArc
 50
259.9999999999949
 51
70.00000000001034
  0
LINE
  5
226A
330
74
100
AcDbEntity
  8
AM_3 ( Verdeckt )
100
AcDbLine
 10
4451.233672396443
 20
3484.489552825255
 30
-0.0000000000000002
 11
4450.549632109793
 21
3482.610167583684
 31
-0.0000000000000002
  0
LINE
  5
226B
330
74
100
AcDbEntity
  8
AM_3 ( Verdeckt )
100
AcDbLine
 10
4413.645967565015
 20
3498.170358558275
 30
-0.0000000000000002
 11
4412.961927278355
 21
3496.290973316704
 31
-0.0000000000000002
  0
LINE
  5
226C
330
74
100
AcDbEntity
  8
AM_3 ( Verdeckt )
100
AcDbLine
 10
4412.961927278355
 20
3496.290973316704
 30
-0.0000000000000002
 11
4450.549632109793
 21
3482.610167583684
 31
-0.0000000000000002
  0
LINE
  5
226D
330
74
100
AcDbEntity
  8
AM_3 ( Verdeckt )
100
AcDbLine
 10
4413.645967565015
 20
3498.170358558275
 30
-0.0000000000000002
 11
4451.233672396443
 21
3484.489552825255
 31
-0.0000000000000002
  0
LINE
  5
226E
330
74
100
AcDbEntity
  8
AM_3 ( Verdeckt )
100
AcDbLine
 10
4371.768675812663
 20
3511.816179589094
 30
-0.0000000000000002
 11
4372.110695955993
 21
3512.755872209874
 31
-0.0000000000000002
  0
LINE
  5
226F
330
74
100
AcDbEntity
  8
AM_3 ( Verdeckt )
100
AcDbLine
 10
4371.768675812663
 20
3511.816179589094
 30
-0.0000000000000002
 11
4491.433094359543
 21
3468.261893137254
 31
-0.0000000000000002
  0
LINE
  5
2270
330
74
100
AcDbEntity
  8
AM_3 ( Verdeckt )
100
AcDbLine
 10
4372.110695955993
 20
3512.755872209874
 30
-0.0000000000000002
 11
4491.775114502862
 21
3469.201585758045
 31
-0.0000000000000002
  0
LINE
  5
2271
330
74
100
AcDbEntity
  8
AM_3 ( Verdeckt )
100
AcDbLine
 10
4375.400329097842
 20
3507.463453367603
 30
-0.0000000000000002
 11
4376.043116707532
 21
3508.229497810725
 31
-0.0000000000000002
  0
LINE
  5
2272
330
74
100
AcDbEntity
  8
AM_3 ( Verdeckt )
100
AcDbLine
 10
4369.148716719453
 20
3514.014586297905
 30
-0.0000000000000002
 11
4376.043116707532
 21
3508.229497810725
 31
-0.0000000000000002
  0
LINE
  5
2273
330
74
100
AcDbEntity
  8
AM_3 ( Verdeckt )
100
AcDbLine
 10
4368.505929109775
 20
3513.248541854784
 30
-0.0000000000000002
 11
4375.400329097842
 21
3507.463453367603
 31
-0.0000000000000002
  0
ARC
  5
2274
330
74
100
AcDbEntity
  8
AM_3 ( Verdeckt )
100
AcDbCircle
 10
4370.957977366674
 20
3516.170779174154
 30
-0.0000000000000002
 40
2.814709897868729
100
AcDbArc
 50
94.99999999997365
 51
229.9999999999875
  0
ARC
  5
2275
330
74
100
AcDbEntity
  8
AM_3 ( Verdeckt )
100
AcDbCircle
 10
4370.957977366674
 20
3516.170779174154
 30
-0.0000000000000002
 40
3.814709897868728
100
AcDbArc
 50
94.99999999997365
 51
229.9999999999875
  0
LINE
  5
2276
330
74
100
AcDbEntity
  8
AM_3 ( Verdeckt )
100
AcDbLine
 10
4416.850261246863
 20
3522.509385470625
 30
-0.0000000000000002
 11
4416.675949761375
 21
3524.501774866814
 31
-0.0000000000000002
  0
LINE
  5
2277
330
74
100
AcDbEntity
  8
AM_3 ( Verdeckt )
100
AcDbLine
 10
4456.698049170534
 20
3525.995615180535
 30
-0.0000000000000002
 11
4456.523737685044
 21
3527.988004576715
 31
-0.0000000000000002
  0
LINE
  5
2278
330
74
100
AcDbEntity
  8
AM_3 ( Verdeckt )
100
AcDbLine
 10
4416.675949761375
 20
3524.501774866814
 30
-0.0000000000000002
 11
4456.523737685044
 21
3527.988004576715
 31
-0.0000000000000002
  0
LINE
  5
2279
330
74
100
AcDbEntity
  8
AM_3 ( Verdeckt )
100
AcDbLine
 10
4416.850261246863
 20
3522.509385470625
 30
-0.0000000000000002
 11
4456.698049170534
 21
3525.995615180535
 31
-0.0000000000000002
  0
LINE
  5
227A
330
74
100
AcDbEntity
  8
AM_3 ( Verdeckt )
100
AcDbLine
 10
4370.625503492154
 20
3519.970972949175
 30
-0.0000000000000002
 11
4499.727736431282
 21
3531.265954767234
 31
-0.0000000000000002
  0
LINE
  5
227B
330
74
100
AcDbEntity
  8
AM_3 ( Verdeckt )
100
AcDbLine
 10
4370.712659234905
 20
3518.974778251084
 30
-0.0000000000000002
 11
4499.814892174024
 21
3530.269760069134
 31
-0.0000000000000002
  0
ARC
  5
227C
330
74
100
AcDbEntity
  8
AM_3 ( Verdeckt )
100
AcDbCircle
 10
4499.274767192955
 20
3536.443416852895
 30
-0.0000000000000002
 40
5.197239149716258
100
AcDbArc
 50
275.0000000000259
 51
85.00000000002636
  0
ARC
  5
227D
330
74
100
AcDbEntity
  8
AM_3 ( Verdeckt )
100
AcDbCircle
 10
4499.274767192955
 20
3536.443416852895
 30
-0.0000000000000002
 40
6.197239149716259
100
AcDbArc
 50
275.0000000000259
 51
85.00000000002636
  0
LINE
  5
227E
330
74
100
AcDbEntity
  8
AM_3 ( Verdeckt )
100
AcDbLine
 10
4456.698049170534
 20
3546.891218525254
 30
-0.0000000000000002
 11
4456.523737685044
 21
3544.898829129065
 31
-0.0000000000000002
  0
LINE
  5
227F
330
74
100
AcDbEntity
  8
AM_3 ( Verdeckt )
100
AcDbLine
 10
4416.850261246863
 20
3550.377448235155
 30
-0.0000000000000002
 11
4416.675949761375
 21
3548.385058838975
 31
-0.0000000000000002
  0
LINE
  5
2280
330
74
100
AcDbEntity
  8
AM_3 ( Verdeckt )
100
AcDbLine
 10
4416.675949761375
 20
3548.385058838975
 30
-0.0000000000000002
 11
4456.523737685044
 21
3544.898829129065
 31
-0.0000000000000002
  0
LINE
  5
2281
330
74
100
AcDbEntity
  8
AM_3 ( Verdeckt )
100
AcDbLine
 10
4416.850261246863
 20
3550.377448235155
 30
-0.0000000000000002
 11
4456.698049170534
 21
3546.891218525254
 31
-0.0000000000000002
  0
LINE
  5
2282
330
74
100
AcDbEntity
  8
AM_3 ( Verdeckt )
100
AcDbLine
 10
4372.868105239404
 20
3552.719658526915
 30
-0.0000000000000002
 11
4372.955260982144
 21
3553.715853225004
 31
-0.0000000000000002
  0
LINE
  5
2283
330
74
100
AcDbEntity
  8
AM_3 ( Verdeckt )
100
AcDbLine
 10
4372.868105239404
 20
3552.719658526915
 30
-0.0000000000000002
 11
4499.727736431282
 21
3541.620878938545
 31
-0.0000000000000002
  0
LINE
  5
2284
330
74
100
AcDbEntity
  8
AM_3 ( Verdeckt )
100
AcDbLine
 10
4372.955260982144
 20
3553.715853225004
 30
-0.0000000000000002
 11
4499.814892174024
 21
3542.617073636634
 31
-0.0000000000000002
  0
LINE
  5
2285
330
74
100
AcDbEntity
  8
AM_3 ( Verdeckt )
100
AcDbLine
 10
4377.502581383925
 20
3549.455188890235
 30
-0.0000000000000002
 11
4377.925199645663
 21
3550.361496677265
 31
-0.0000000000000002
  0
LINE
  5
2286
330
74
100
AcDbEntity
  8
AM_3 ( Verdeckt )
100
AcDbLine
 10
4369.768429562333
 20
3554.165061032934
 30
-0.0000000000000002
 11
4377.925199645663
 21
3550.361496677265
 31
-0.0000000000000002
  0
LINE
  5
2287
330
74
100
AcDbEntity
  8
AM_3 ( Verdeckt )
100
AcDbLine
 10
4369.345811300594
 20
3553.258753245894
 30
-0.0000000000000002
 11
4377.502581383925
 21
3549.455188890235
 31
-0.0000000000000002
  0
ARC
  5
2288
330
74
100
AcDbEntity
  8
AM_3 ( Verdeckt )
100
AcDbCircle
 10
4370.957977366674
 20
3556.716054531623
 30
-0.0000000000000002
 40
2.814709897868729
100
AcDbArc
 50
109.9999999999896
 51
245.0000000000219
  0
ARC
  5
2289
330
74
100
AcDbEntity
  8
AM_3 ( Verdeckt )
100
AcDbCircle
 10
4370.957977366674
 20
3556.716054531623
 30
-0.0000000000000002
 40
3.814709897868728
100
AcDbArc
 50
109.9999999999896
 51
245.0000000000219
  0
LINE
  5
228A
330
74
100
AcDbEntity
  8
AM_3 ( Verdeckt )
100
AcDbLine
 10
4413.645967565015
 20
3574.716475147505
 30
-0.0000000000000002
 11
4412.961927278355
 21
3576.595860389075
 31
-0.0000000000000002
  0
LINE
  5
228B
330
74
100
AcDbEntity
  8
AM_3 ( Verdeckt )
100
AcDbLine
 10
4451.233672396443
 20
3588.397280880535
 30
-0.0000000000000002
 11
4450.549632109793
 21
3590.276666122105
 31
-0.0000000000000002
  0
LINE
  5
228C
330
74
100
AcDbEntity
  8
AM_3 ( Verdeckt )
100
AcDbLine
 10
4412.961927278355
 20
3576.595860389075
 30
-0.0000000000000002
 11
4450.549632109793
 21
3590.276666122105
 31
-0.0000000000000002
  0
LINE
  5
228D
330
74
100
AcDbEntity
  8
AM_3 ( Verdeckt )
100
AcDbLine
 10
4413.645967565015
 20
3574.716475147505
 30
-0.0000000000000002
 11
4451.233672396443
 21
3588.397280880535
 31
-0.0000000000000002
  0
LINE
  5
228E
330
74
100
AcDbEntity
  8
AM_3 ( Verdeckt )
100
AcDbLine
 10
4369.653269740654
 20
3560.300709273085
 30
-0.0000000000000002
 11
4491.433094359543
 21
3604.624940568526
 31
-0.0000000000000002
  0
LINE
  5
228F
330
74
100
AcDbEntity
  8
AM_3 ( Verdeckt )
100
AcDbLine
 10
4369.995289883983
 20
3559.361016652304
 30
-0.0000000000000002
 11
4491.775114502873
 21
3603.685247947735
 31
-0.0000000000000002
  0
ARC
  5
2290
330
74
100
AcDbEntity
  8
AM_3 ( Verdeckt )
100
AcDbCircle
 10
4489.655533880663
 20
3609.508747845964
 30
-0.0000000000000002
 40
5.197239149716258
100
AcDbArc
 50
289.9999999999896
 51
100.0000000000051
  0
ARC
  5
2291
330
74
100
AcDbEntity
  8
AM_3 ( Verdeckt )
100
AcDbCircle
 10
4489.655533880663
 20
3609.508747845964
 30
-0.0000000000000002
 40
6.197239149716259
100
AcDbArc
 50
289.9999999999896
 51
100.0000000000051
  0
LINE
  5
2292
330
74
100
AcDbEntity
  8
AM_3 ( Verdeckt )
100
AcDbLine
 10
4445.825492291924
 20
3608.580883807084
 30
-0.0000000000000002
 11
4446.172788647262
 21
3606.611268301055
 31
-0.0000000000000002
  0
LINE
  5
2293
330
74
100
AcDbEntity
  8
AM_3 ( Verdeckt )
100
AcDbLine
 10
4406.433182171432
 20
3601.634956700405
 30
-0.0000000000000002
 11
4406.780478526774
 21
3599.665341194385
 31
-0.0000000000000002
  0
LINE
  5
2294
330
74
100
AcDbEntity
  8
AM_3 ( Verdeckt )
100
AcDbLine
 10
4406.780478526774
 20
3599.665341194385
 30
-0.0000000000000002
 11
4446.172788647262
 21
3606.611268301055
 31
-0.0000000000000002
  0
LINE
  5
2295
330
74
100
AcDbEntity
  8
AM_3 ( Verdeckt )
100
AcDbLine
 10
4406.433182171432
 20
3601.634956700405
 30
-0.0000000000000002
 11
4445.825492291924
 21
3608.580883807084
 31
-0.0000000000000002
  0
LINE
  5
2296
330
74
100
AcDbEntity
  8
AM_3 ( Verdeckt )
100
AcDbLine
 10
4363.343473156805
 20
3592.513938492415
 30
-0.0000000000000002
 11
4363.169824979143
 21
3593.498746245425
 31
-0.0000000000000002
  0
LINE
  5
2297
330
74
100
AcDbEntity
  8
AM_3 ( Verdeckt )
100
AcDbLine
 10
4363.343473156805
 20
3592.513938492415
 30
-0.0000000000000002
 11
4488.753042773413
 21
3614.627029254855
 31
-0.0000000000000002
  0
LINE
  5
2298
330
74
100
AcDbEntity
  8
AM_3 ( Verdeckt )
100
AcDbLine
 10
4363.169824979143
 20
3593.498746245425
 30
-0.0000000000000002
 11
4488.579394595753
 21
3615.611837007875
 31
-0.0000000000000002
  0
LINE
  5
2299
330
74
100
AcDbEntity
  8
AM_3 ( Verdeckt )
100
AcDbLine
 10
4368.664940270256
 20
3590.560193651474
 30
-0.0000000000000002
 11
4368.838588447925
 21
3591.545001404494
 31
-0.0000000000000002
  0
LINE
  5
229A
330
74
100
AcDbEntity
  8
AM_3 ( Verdeckt )
100
AcDbLine
 10
4359.975318670811
 20
3593.107835003495
 30
-0.0000000000000002
 11
4368.838588447925
 21
3591.545001404494
 31
-0.0000000000000002
  0
LINE
  5
229B
330
74
100
AcDbEntity
  8
AM_3 ( Verdeckt )
100
AcDbLine
 10
4359.801670493142
 20
3592.123027250484
 30
-0.0000000000000002
 11
4368.664940270256
 21
3590.560193651474
 31
-0.0000000000000002
  0
ARC
  5
229C
330
74
100
AcDbEntity
  8
AM_3 ( Verdeckt )
100
AcDbCircle
 10
4360.464087915234
 20
3595.879783133394
 30
-0.0000000000000002
 40
2.814709897868729
100
AcDbArc
 50
124.9999999999803
 51
259.9999999999949
  0
ARC
  5
229D
330
74
100
AcDbEntity
  8
AM_3 ( Verdeckt )
100
AcDbCircle
 10
4360.464087915234
 20
3595.879783133394
 30
-0.0000000000000002
 40
3.814709897868728
100
AcDbArc
 50
124.9999999999803
 51
259.9999999999949
  0
LINE
  5
229E
330
74
100
AcDbEntity
  8
AM_3 ( Verdeckt )
100
AcDbLine
 10
4397.038668444934
 20
3624.315319150825
 30
-0.0000000000000002
 11
4395.891515572236
 21
3625.953623239405
 31
-0.0000000000000002
  0
LINE
  5
229F
330
74
100
AcDbEntity
  8
AM_3 ( Verdeckt )
100
AcDbLine
 10
4429.804750216493
 20
3647.258376604865
 30
-0.0000000000000002
 11
4428.657597343794
 21
3648.896680693445
 31
-0.0000000000000002
  0
LINE
  5
22A0
330
74
100
AcDbEntity
  8
AM_3 ( Verdeckt )
100
AcDbLine
 10
4395.891515572236
 20
3625.953623239405
 30
-0.0000000000000002
 11
4428.657597343794
 21
3648.896680693445
 31
-0.0000000000000002
  0
LINE
  5
22A1
330
74
100
AcDbEntity
  8
AM_3 ( Verdeckt )
100
AcDbLine
 10
4397.038668444934
 20
3624.315319150825
 30
-0.0000000000000002
 11
4429.804750216493
 21
3647.258376604865
 31
-0.0000000000000002
  0
LINE
  5
22A2
330
74
100
AcDbEntity
  8
AM_3 ( Verdeckt )
100
AcDbLine
 10
4358.276060206303
 20
3599.004610544605
 30
-0.0000000000000002
 11
4464.434382707856
 21
3673.337468203885
 31
-0.0000000000000002
  0
LINE
  5
22A3
330
74
100
AcDbEntity
  8
AM_3 ( Verdeckt )
100
AcDbLine
 10
4358.849636642655
 20
3598.185458500315
 30
-0.0000000000000002
 11
4465.007959144204
 21
3672.518316159595
 31
-0.0000000000000002
  0
ARC
  5
22A4
330
74
100
AcDbEntity
  8
AM_3 ( Verdeckt )
100
AcDbCircle
 10
4461.453368797492
 20
3677.594797278035
 30
-0.0000000000000002
 40
5.197239149716258
100
AcDbArc
 50
304.9999999999803
 51
114.999999999978
  0
ARC
  5
22A5
330
74
100
AcDbEntity
  8
AM_3 ( Verdeckt )
100
AcDbCircle
 10
4461.453368797492
 20
3677.594797278035
 30
-0.0000000000000002
 40
6.197239149716259
100
AcDbArc
 50
304.9999999999803
 51
114.999999999978
  0
LINE
  5
22A6
330
74
100
AcDbEntity
  8
AM_3 ( Verdeckt )
100
AcDbLine
 10
4419.356948544144
 20
3665.354499928795
 30
-0.0000000000000002
 11
4420.202185067624
 21
3663.541884354715
 31
-0.0000000000000002
  0
LINE
  5
22A7
330
74
100
AcDbEntity
  8
AM_3 ( Verdeckt )
100
AcDbLine
 10
4383.104637062674
 20
3648.449769459164
 30
-0.0000000000000002
 11
4383.949873586153
 21
3646.637153885085
 31
-0.0000000000000002
  0
LINE
  5
22A8
330
74
100
AcDbEntity
  8
AM_3 ( Verdeckt )
100
AcDbLine
 10
4383.949873586153
 20
3646.637153885085
 30
-0.0000000000000002
 11
4420.202185067624
 21
3663.541884354715
 31
-0.0000000000000002
  0
LINE
  5
22A9
330
74
100
AcDbEntity
  8
AM_3 ( Verdeckt )
100
AcDbLine
 10
4383.104637062674
 20
3648.449769459164
 30
-0.0000000000000002
 11
4419.356948544144
 21
3665.354499928795
 31
-0.0000000000000002
  0
LINE
  5
22AA
330
74
100
AcDbEntity
  8
AM_3 ( Verdeckt )
100
AcDbLine
 10
4343.843867501115
 20
3628.487105069094
 30
-0.0000000000000002
 11
4343.421249239373
 21
3629.393412856134
 31
-0.0000000000000002
  0
LINE
  5
22AB
330
74
100
AcDbEntity
  8
AM_3 ( Verdeckt )
100
AcDbLine
 10
4343.843867501115
 20
3628.487105069094
 30
-0.0000000000000002
 11
4459.256920622192
 21
3682.305095590504
 31
-0.0000000000000002
  0
LINE
  5
22AC
330
74
100
AcDbEntity
  8
AM_3 ( Verdeckt )
100
AcDbLine
 10
4343.421249239373
 20
3629.393412856134
 30
-0.0000000000000002
 11
4458.834302360456
 21
3683.211403377544
 31
-0.0000000000000002
  0
LINE
  5
22AD
330
74
100
AcDbEntity
  8
AM_3 ( Verdeckt )
100
AcDbLine
 10
4349.489676393843
 20
3627.977229506105
 30
-0.0000000000000002
 11
4349.402520651094
 21
3628.973424204195
 31
-0.0000000000000002
  0
LINE
  5
22AE
330
74
100
AcDbEntity
  8
AM_3 ( Verdeckt )
100
AcDbLine
 10
4340.436768368274
 20
3628.189022519465
 30
-0.0000000000000002
 11
4349.402520651094
 21
3628.973424204195
 31
-0.0000000000000002
  0
LINE
  5
22AF
330
74
100
AcDbEntity
  8
AM_3 ( Verdeckt )
100
AcDbLine
 10
4340.523924111024
 20
3627.192827821375
 30
-0.0000000000000002
 11
4349.489676393843
 21
3627.977229506105
 31
-0.0000000000000002
  0
ARC
  5
22B0
330
74
100
AcDbEntity
  8
AM_3 ( Verdeckt )
100
AcDbCircle
 10
4340.191450236504
 20
3630.993021596395
 30
-0.0000000000000002
 40
2.814709897868729
100
AcDbArc
 50
140.0000000000081
 51
275.0000000000259
  0
ARC
  5
22B1
330
74
100
AcDbEntity
  8
AM_3 ( Verdeckt )
100
AcDbCircle
 10
4340.191450236504
 20
3630.993021596395
 30
-0.0000000000000002
 40
3.814709897868728
100
AcDbArc
 50
140.0000000000081
 51
275.0000000000259
  0
LINE
  5
22B2
330
74
100
AcDbEntity
  8
AM_3 ( Verdeckt )
100
AcDbLine
 10
4368.160123876825
 20
3667.925838227725
 30
-0.0000000000000002
 11
4366.628034990585
 21
3669.211413447095
 31
-0.0000000000000002
  0
LINE
  5
22B3
330
74
100
AcDbEntity
  8
AM_3 ( Verdeckt )
100
AcDbLine
 10
4393.871628264284
 20
3698.567615952485
 30
-0.0000000000000002
 11
4392.339539378044
 21
3699.853191171854
 31
-0.0000000000000002
  0
LINE
  5
22B4
330
74
100
AcDbEntity
  8
AM_3 ( Verdeckt )
100
AcDbLine
 10
4366.628034990585
 20
3669.211413447095
 30
-0.0000000000000002
 11
4392.339539378044
 21
3699.853191171854
 31
-0.0000000000000002
  0
LINE
  5
22B5
330
74
100
AcDbEntity
  8
AM_3 ( Verdeckt )
100
AcDbLine
 10
4368.160123876825
 20
3667.925838227725
 30
-0.0000000000000002
 11
4393.871628264284
 21
3698.567615952485
 31
-0.0000000000000002
  0
LINE
  5
22B6
330
74
100
AcDbEntity
  8
AM_3 ( Verdeckt )
100
AcDbLine
 10
4337.269212917135
 20
3633.445069853286
 30
-0.0000000000000002
 11
4420.571519057785
 21
3732.720892467793
 31
-0.0000000000000002
  0
LINE
  5
22B7
330
74
100
AcDbEntity
  8
AM_3 ( Verdeckt )
100
AcDbLine
 10
4338.035257360254
 20
3632.802282243604
 30
-0.0000000000000002
 11
4421.337563500902
 21
3732.078104858115
 31
-0.0000000000000002
  0
ARC
  5
22B8
330
74
100
AcDbEntity
  8
AM_3 ( Verdeckt )
100
AcDbCircle
 10
4416.590202887586
 20
3736.061613397814
 30
-0.0000000000000002
 40
5.197239149716258
100
AcDbArc
 50
320.0000000000082
 51
130.0000000000125
  0
ARC
  5
22B9
330
74
100
AcDbEntity
  8
AM_3 ( Verdeckt )
100
AcDbCircle
 10
4416.590202887586
 20
3736.061613397814
 30
-0.0000000000000002
 40
6.197239149716259
100
AcDbArc
 50
320.0000000000082
 51
130.0000000000125
  0
LINE
  5
22BA
330
74
100
AcDbEntity
  8
AM_3 ( Verdeckt )
100
AcDbLine
 10
4379.096205442253
 20
3713.343038774515
 30
-0.0000000000000002
 11
4380.381780661624
 21
3711.810949888274
 31
-0.0000000000000002
  0
LINE
  5
22BB
330
74
100
AcDbEntity
  8
AM_3 ( Verdeckt )
100
AcDbLine
 10
4348.454427717494
 20
3687.631534387044
 30
-0.0000000000000002
 11
4349.740002936863
 21
3686.099445500815
 31
-0.0000000000000002
  0
LINE
  5
22BC
330
74
100
AcDbEntity
  8
AM_3 ( Verdeckt )
100
AcDbLine
 10
4349.740002936863
 20
3686.099445500815
 30
-0.0000000000000002
 11
4380.381780661624
 21
3711.810949888274
 31
-0.0000000000000002
  0
LINE
  5
22BD
330
74
100
AcDbEntity
  8
AM_3 ( Verdeckt )
100
AcDbLine
 10
4348.454427717494
 20
3687.631534387044
 30
-0.0000000000000002
 11
4379.096205442253
 21
3713.343038774515
 31
-0.0000000000000002
  0
LINE
  5
22BE
330
74
100
AcDbEntity
  8
AM_3 ( Verdeckt )
100
AcDbLine
 10
4315.698154173143
 20
3658.187646403233
 30
-0.0000000000000002
 11
4315.055366563455
 21
3658.953690846355
 31
-0.0000000000000002
  0
LINE
  5
22BF
330
74
100
AcDbEntity
  8
AM_3 ( Verdeckt )
100
AcDbLine
 10
4315.698154173143
 20
3658.187646403233
 30
-0.0000000000000002
 11
4413.249481957574
 21
3740.042929568004
 31
-0.0000000000000002
  0
LINE
  5
22C0
330
74
100
AcDbEntity
  8
AM_3 ( Verdeckt )
100
AcDbLine
 10
4315.055366563455
 20
3658.953690846355
 30
-0.0000000000000002
 11
4412.606694347884
 21
3740.808974011125
 31
-0.0000000000000002
  0
LINE
  5
22C1
330
74
100
AcDbEntity
  8
AM_3 ( Verdeckt )
100
AcDbLine
 10
4321.283552299255
 20
3659.156387295194
 30
-0.0000000000000002
 11
4320.941532155935
 21
3660.096079915975
 31
-0.0000000000000002
  0
LINE
  5
22C2
330
74
100
AcDbEntity
  8
AM_3 ( Verdeckt )
100
AcDbLine
 10
4312.484298568864
 20
3657.017898626044
 30
-0.0000000000000002
 11
4320.941532155935
 21
3660.096079915975
 31
-0.0000000000000002
  0
LINE
  5
22C3
330
74
100
AcDbEntity
  8
AM_3 ( Verdeckt )
100
AcDbLine
 10
4312.826318712184
 20
3656.078206005265
 30
-0.0000000000000002
 11
4321.283552299255
 21
3659.156387295194
 31
-0.0000000000000002
  0
ARC
  5
22C4
330
74
100
AcDbEntity
  8
AM_3 ( Verdeckt )
100
AcDbCircle
 10
4311.521611086174
 20
3659.662860746724
 30
-0.0000000000000002
 40
2.814709897868729
100
AcDbArc
 50
154.9999999999887
 51
289.9999999999896
  0
ARC
  5
22C5
330
74
100
AcDbEntity
  8
AM_3 ( Verdeckt )
100
AcDbCircle
 10
4311.521611086174
 20
3659.662860746724
 30
-0.0000000000000002
 40
3.814709897868728
100
AcDbArc
 50
154.9999999999887
 51
289.9999999999896
  0
LINE
  5
22C6
330
74
100
AcDbEntity
  8
AM_3 ( Verdeckt )
100
AcDbLine
 10
4328.978358948933
 20
3702.576047572895
 30
-0.0000000000000002
 11
4327.165743374864
 21
3703.421284096384
 31
-0.0000000000000002
  0
LINE
  5
22C7
330
74
100
AcDbEntity
  8
AM_3 ( Verdeckt )
100
AcDbLine
 10
4345.883089418565
 20
3738.828359054365
 30
-0.0000000000000002
 11
4344.070473844492
 21
3739.673595577845
 31
-0.0000000000000002
  0
LINE
  5
22C8
330
74
100
AcDbEntity
  8
AM_3 ( Verdeckt )
100
AcDbLine
 10
4327.165743374864
 20
3703.421284096384
 30
-0.0000000000000002
 11
4344.070473844492
 21
3739.673595577845
 31
-0.0000000000000002
  0
LINE
  5
22C9
330
74
100
AcDbEntity
  8
AM_3 ( Verdeckt )
100
AcDbLine
 10
4328.978358948933
 20
3702.576047572895
 30
-0.0000000000000002
 11
4345.883089418565
 21
3738.828359054365
 31
-0.0000000000000002
  0
LINE
  5
22CA
330
74
100
AcDbEntity
  8
AM_3 ( Verdeckt )
100
AcDbLine
 10
4308.064309800443
 20
3661.275026812815
 30
-0.0000000000000002
 11
4362.833685080285
 21
3778.728331132415
 31
-0.0000000000000002
  0
LINE
  5
22CB
330
74
100
AcDbEntity
  8
AM_3 ( Verdeckt )
100
AcDbLine
 10
4308.970617587482
 20
3660.852408551075
 30
-0.0000000000000002
 11
4363.739992867325
 21
3778.305712870675
 31
-0.0000000000000002
  0
ARC
  5
22CC
330
74
100
AcDbEntity
  8
AM_3 ( Verdeckt )
100
AcDbCircle
 10
4358.123386767806
 20
3780.924779307724
 30
-0.0000000000000002
 40
5.197239149716258
100
AcDbArc
 50
335.0000000000228
 51
144.9999999999826
  0
ARC
  5
22CD
330
74
100
AcDbEntity
  8
AM_3 ( Verdeckt )
100
AcDbCircle
 10
4358.123386767806
 20
3780.924779307724
 30
-0.0000000000000002
 40
6.197239149716259
100
AcDbArc
 50
335.0000000000228
 51
144.9999999999826
  0
LINE
  5
22CE
330
74
100
AcDbEntity
  8
AM_3 ( Verdeckt )
100
AcDbLine
 10
4327.786966094634
 20
3749.276160726725
 30
-0.0000000000000002
 11
4329.425270183213
 21
3748.129007854025
 31
-0.0000000000000002
  0
LINE
  5
22CF
330
74
100
AcDbEntity
  8
AM_3 ( Verdeckt )
100
AcDbLine
 10
4304.843908640594
 20
3716.510078955165
 30
-0.0000000000000002
 11
4306.482212729173
 21
3715.362926082454
 31
-0.0000000000000002
  0
LINE
  5
22D0
330
74
100
AcDbEntity
  8
AM_3 ( Verdeckt )
100
AcDbLine
 10
4306.482212729173
 20
3715.362926082454
 30
-0.0000000000000002
 11
4329.425270183213
 21
3748.129007854025
 31
-0.0000000000000002
  0
LINE
  5
22D1
330
74
100
AcDbEntity
  8
AM_3 ( Verdeckt )
100
AcDbLine
 10
4304.843908640594
 20
3716.510078955165
 30
-0.0000000000000002
 11
4327.786966094634
 21
3749.276160726725
 31
-0.0000000000000002
  0
LINE
  5
22D2
330
74
100
AcDbEntity
  8
AM_3 ( Verdeckt )
100
AcDbLine
 10
4280.824417023193
 20
3679.591519685364
 30
-0.0000000000000002
 11
4280.005264978905
 21
3680.165096121714
 31
-0.0000000000000002
  0
LINE
  5
22D3
330
74
100
AcDbEntity
  8
AM_3 ( Verdeckt )
100
AcDbLine
 10
4280.824417023193
 20
3679.591519685364
 30
-0.0000000000000002
 11
4353.866057693663
 21
3783.905793218075
 31
-0.0000000000000002
  0
LINE
  5
22D4
330
74
100
AcDbEntity
  8
AM_3 ( Verdeckt )
100
AcDbLine
 10
4280.005264978905
 20
3680.165096121714
 30
-0.0000000000000002
 11
4353.046905649374
 21
3784.479369654425
 31
-0.0000000000000002
  0
LINE
  5
22D5
330
74
100
AcDbEntity
  8
AM_3 ( Verdeckt )
100
AcDbLine
 10
4285.968768730702
 20
3681.972858941415
 30
-0.0000000000000002
 11
4285.395192294354
 21
3682.792010985695
 31
-0.0000000000000002
  0
LINE
  5
22D6
330
74
100
AcDbEntity
  8
AM_3 ( Verdeckt )
100
AcDbLine
 10
4278.022823895754
 20
3677.629823058544
 30
-0.0000000000000002
 11
4285.395192294354
 21
3682.792010985695
 31
-0.0000000000000002
  0
LINE
  5
22D7
330
74
100
AcDbEntity
  8
AM_3 ( Verdeckt )
100
AcDbLine
 10
4278.596400332104
 20
3676.810671014254
 30
-0.0000000000000002
 11
4285.968768730702
 21
3681.972858941415
 31
-0.0000000000000002
  0
ARC
  5
22D8
330
74
100
AcDbEntity
  8
AM_3 ( Verdeckt )
100
AcDbCircle
 10
4276.408372623174
 20
3679.935498425455
 30
-0.0000000000000002
 40
2.814709897868729
100
AcDbArc
 50
169.999999999996
 51
304.9999999999803
  0
ARC
  5
22D9
330
74
100
AcDbEntity
  8
AM_3 ( Verdeckt )
100
AcDbCircle
 10
4276.408372623174
 20
3679.935498425455
 30
-0.0000000000000002
 40
3.814709897868728
100
AcDbArc
 50
169.999999999996
 51
304.9999999999803
  0
LINE
  5
22DA
330
74
100
AcDbEntity
  8
AM_3 ( Verdeckt )
100
AcDbLine
 10
4282.163546190185
 20
3725.904592681665
 30
-0.0000000000000002
 11
4280.193930684155
 21
3726.251889036995
 31
-0.0000000000000002
  0
LINE
  5
22DB
330
74
100
AcDbEntity
  8
AM_3 ( Verdeckt )
100
AcDbLine
 10
4289.109473296856
 20
3765.296902802154
 30
-0.0000000000000002
 11
4287.139857790835
 21
3765.644199157485
 31
-0.0000000000000002
  0
LINE
  5
22DC
330
74
100
AcDbEntity
  8
AM_3 ( Verdeckt )
100
AcDbLine
 10
4280.193930684155
 20
3726.251889036995
 30
-0.0000000000000002
 11
4287.139857790835
 21
3765.644199157485
 31
-0.0000000000000002
  0
LINE
  5
22DD
330
74
100
AcDbEntity
  8
AM_3 ( Verdeckt )
100
AcDbLine
 10
4282.163546190185
 20
3725.904592681665
 30
-0.0000000000000002
 11
4289.109473296856
 21
3765.296902802154
 31
-0.0000000000000002
  0
LINE
  5
22DE
330
74
100
AcDbEntity
  8
AM_3 ( Verdeckt )
100
AcDbLine
 10
4272.651616740254
 20
3680.597915847555
 30
-0.0000000000000002
 11
4295.155618744644
 21
3808.224453283645
 31
-0.0000000000000002
  0
LINE
  5
22DF
330
74
100
AcDbEntity
  8
AM_3 ( Verdeckt )
100
AcDbLine
 10
4273.636424493274
 20
3680.424267669884
 30
-0.0000000000000002
 11
4296.140426497654
 21
3808.050805105974
 31
-0.0000000000000002
  0
ARC
  5
22E0
330
74
100
AcDbEntity
  8
AM_3 ( Verdeckt )
100
AcDbCircle
 10
4290.037337335743
 20
3809.126944390885
 30
-0.0000000000000002
 40
5.197239149716258
100
AcDbArc
 50
349.9999999999961
 51
159.9999999999871
  0
ARC
  5
22E1
330
74
100
AcDbEntity
  8
AM_3 ( Verdeckt )
100
AcDbCircle
 10
4290.037337335743
 20
3809.126944390885
 30
-0.0000000000000002
 40
6.197239149716259
100
AcDbArc
 50
349.9999999999961
 51
159.9999999999871
  0
LINE
  5
22E2
330
74
100
AcDbEntity
  8
AM_3 ( Verdeckt )
100
AcDbLine
 10
4268.925870370305
 20
3770.705082906675
 30
-0.0000000000000002
 11
4270.805255611874
 21
3770.021042620015
 31
-0.0000000000000002
  0
LINE
  5
22E3
330
74
100
AcDbEntity
  8
AM_3 ( Verdeckt )
100
AcDbLine
 10
4255.245064637285
 20
3733.117378075235
 30
-0.0000000000000002
 11
4257.124449878854
 21
3732.433337788586
 31
-0.0000000000000002
  0
LINE
  5
22E4
330
74
100
AcDbEntity
  8
AM_3 ( Verdeckt )
100
AcDbLine
 10
4257.124449878854
 20
3732.433337788586
 30
-0.0000000000000002
 11
4270.805255611874
 21
3770.021042620015
 31
-0.0000000000000002
  0
LINE
  5
22E5
330
74
100
AcDbEntity
  8
AM_3 ( Verdeckt )
100
AcDbLine
 10
4255.245064637285
 20
3733.117378075235
 30
-0.0000000000000002
 11
4268.925870370305
 21
3770.705082906675
 31
-0.0000000000000002
  0
LINE
  5
22E6
330
74
100
AcDbEntity
  8
AM_3 ( Verdeckt )
100
AcDbLine
 10
4241.599243606463
 20
3691.240086322885
 30
-0.0000000000000002
 11
4240.659550985685
 21
3691.582106466215
 31
-0.0000000000000002
  0
LINE
  5
22E7
330
74
100
AcDbEntity
  8
AM_3 ( Verdeckt )
100
AcDbLine
 10
4241.599243606463
 20
3691.240086322885
 30
-0.0000000000000002
 11
4285.153530058304
 21
3810.904504869765
 31
-0.0000000000000002
  0
LINE
  5
22E8
330
74
100
AcDbEntity
  8
AM_3 ( Verdeckt )
100
AcDbLine
 10
4240.659550985685
 20
3691.582106466215
 30
-0.0000000000000002
 11
4284.213837437514
 21
3811.246525013094
 31
-0.0000000000000002
  0
LINE
  5
22E9
330
74
100
AcDbEntity
  8
AM_3 ( Verdeckt )
100
AcDbLine
 10
4245.951969827955
 20
3694.871739608065
 30
-0.0000000000000002
 11
4245.185925384833
 21
3695.514527217755
 31
-0.0000000000000002
  0
LINE
  5
22EA
330
74
100
AcDbEntity
  8
AM_3 ( Verdeckt )
100
AcDbLine
 10
4239.400836897653
 20
3688.620127229685
 30
-0.0000000000000002
 11
4245.185925384833
 21
3695.514527217755
 31
-0.0000000000000002
  0
LINE
  5
22EB
330
74
100
AcDbEntity
  8
AM_3 ( Verdeckt )
100
AcDbLine
 10
4240.166881340774
 20
3687.977339619994
 30
-0.0000000000000002
 11
4245.951969827955
 21
3694.871739608065
 31
-0.0000000000000002
  0
ARC
  5
22EC
330
74
100
AcDbEntity
  8
AM_3 ( Verdeckt )
100
AcDbCircle
 10
4237.244644021393
 20
3690.429387876895
 30
-0.0000000000000002
 40
2.814709897868729
100
AcDbArc
 50
185.0000000000008
 51
320.0000000000082
  0
ARC
  5
22ED
330
74
100
AcDbEntity
  8
AM_3 ( Verdeckt )
100
AcDbCircle
 10
4237.244644021393
 20
3690.429387876895
 30
-0.0000000000000002
 40
3.814709897868728
100
AcDbArc
 50
185.0000000000008
 51
320.0000000000082
  0
LINE
  5
22EE
330
74
100
AcDbEntity
  8
AM_3 ( Verdeckt )
100
AcDbLine
 10
4230.906037724923
 20
3736.321671757095
 30
-0.0000000000000002
 11
4228.913648328744
 21
3736.147360271594
 31
-0.0000000000000002
  0
LINE
  5
22EF
330
74
100
AcDbEntity
  8
AM_3 ( Verdeckt )
100
AcDbLine
 10
4227.419808015024
 20
3776.169459680765
 30
-0.0000000000000002
 11
4225.427418618843
 21
3775.995148195265
 31
-0.0000000000000002
  0
LINE
  5
22F0
330
74
100
AcDbEntity
  8
AM_3 ( Verdeckt )
100
AcDbLine
 10
4228.913648328744
 20
3736.147360271594
 30
-0.0000000000000002
 11
4225.427418618843
 21
3775.995148195265
 31
-0.0000000000000002
  0
LINE
  5
22F1
330
74
100
AcDbEntity
  8
AM_3 ( Verdeckt )
100
AcDbLine
 10
4230.906037724923
 20
3736.321671757095
 30
-0.0000000000000002
 11
4227.419808015024
 21
3776.169459680765
 31
-0.0000000000000002
  0
LINE
  5
22F2
330
74
100
AcDbEntity
  8
AM_3 ( Verdeckt )
100
AcDbLine
 10
4233.444450246384
 20
3690.096914002384
 30
-0.0000000000000002
 11
4222.149468428324
 21
3819.199146941505
 31
-0.0000000000000002
  0
LINE
  5
22F3
330
74
100
AcDbEntity
  8
AM_3 ( Verdeckt )
100
AcDbLine
 10
4234.440644944474
 20
3690.184069745124
 30
-0.0000000000000002
 11
4223.145663126413
 21
3819.286302684254
 31
-0.0000000000000002
  0
ARC
  5
22F4
330
74
100
AcDbEntity
  8
AM_3 ( Verdeckt )
100
AcDbCircle
 10
4216.972006342665
 20
3818.746177703174
 30
-0.0000000000000002
 40
5.197239149716258
100
AcDbArc
 50
5.000000000000828
 51
174.9999999999992
  0
ARC
  5
22F5
330
74
100
AcDbEntity
  8
AM_3 ( Verdeckt )
100
AcDbCircle
 10
4216.972006342665
 20
3818.746177703174
 30
-0.0000000000000002
 40
6.197239149716259
100
AcDbArc
 50
5.000000000000828
 51
174.9999999999992
  0
LINE
  5
22F6
330
74
100
AcDbEntity
  8
AM_3 ( Verdeckt )
100
AcDbLine
 10
4206.524204670304
 20
3776.169459680765
 30
-0.0000000000000002
 11
4208.516594066493
 21
3775.995148195265
 31
-0.0000000000000002
  0
LINE
  5
22F7
330
74
100
AcDbEntity
  8
AM_3 ( Verdeckt )
100
AcDbLine
 10
4203.037974960404
 20
3736.321671757095
 30
-0.0000000000000002
 11
4205.030364356583
 21
3736.147360271594
 31
-0.0000000000000002
  0
LINE
  5
22F8
330
74
100
AcDbEntity
  8
AM_3 ( Verdeckt )
100
AcDbLine
 10
4205.030364356583
 20
3736.147360271594
 30
-0.0000000000000002
 11
4208.516594066493
 21
3775.995148195265
 31
-0.0000000000000002
  0
LINE
  5
22F9
330
74
100
AcDbEntity
  8
AM_3 ( Verdeckt )
100
AcDbLine
 10
4203.037974960404
 20
3736.321671757095
 30
-0.0000000000000002
 11
4206.524204670304
 21
3776.169459680765
 31
-0.0000000000000002
  0
LINE
  5
22FA
330
74
100
AcDbEntity
  8
AM_3 ( Verdeckt )
100
AcDbLine
 10
4200.695764668644
 20
3692.339515749625
 30
-0.0000000000000002
 11
4199.699569970554
 21
3692.426671492375
 31
-0.0000000000000002
  0
LINE
  5
22FB
330
74
100
AcDbEntity
  8
AM_3 ( Verdeckt )
100
AcDbLine
 10
4200.695764668644
 20
3692.339515749625
 30
-0.0000000000000002
 11
4211.794544257013
 21
3819.199146941505
 31
-0.0000000000000002
  0
LINE
  5
22FC
330
74
100
AcDbEntity
  8
AM_3 ( Verdeckt )
100
AcDbLine
 10
4199.699569970554
 20
3692.426671492375
 30
-0.0000000000000002
 11
4210.798349558926
 21
3819.286302684254
 31
-0.0000000000000002
  0
LINE
  5
22FD
330
74
100
AcDbEntity
  8
AM_3 ( Verdeckt )
100
AcDbLine
 10
4203.960234305324
 20
3696.973991894145
 30
-0.0000000000000002
 11
4203.053926518292
 21
3697.396610155885
 31
-0.0000000000000002
  0
LINE
  5
22FE
330
74
100
AcDbEntity
  8
AM_3 ( Verdeckt )
100
AcDbLine
 10
4199.250362162625
 20
3689.239840072554
 30
-0.0000000000000002
 11
4203.053926518292
 21
3697.396610155885
 31
-0.0000000000000002
  0
LINE
  5
22FF
330
74
100
AcDbEntity
  8
AM_3 ( Verdeckt )
100
AcDbLine
 10
4200.156669949663
 20
3688.817221810815
 30
-0.0000000000000002
 11
4203.960234305324
 21
3696.973991894145
 31
-0.0000000000000002
  0
ARC
  5
2300
330
74
100
AcDbEntity
  8
AM_3 ( Verdeckt )
100
AcDbCircle
 10
4196.699368663933
 20
3690.429387876895
 30
-0.0000000000000002
 40
2.814709897868729
100
AcDbArc
 50
200.0000000000128
 51
334.9999999999886
  0
ARC
  5
2301
330
74
100
AcDbEntity
  8
AM_3 ( Verdeckt )
100
AcDbCircle
 10
4196.699368663933
 20
3690.429387876895
 30
-0.0000000000000002
 40
3.814709897868728
100
AcDbArc
 50
200.0000000000128
 51
334.9999999999886
  0
LINE
  5
2302
330
74
100
AcDbEntity
  8
AM_3 ( Verdeckt )
100
AcDbLine
 10
4178.698948048054
 20
3733.117378075235
 30
-0.0000000000000002
 11
4176.819562806485
 21
3732.433337788586
 31
-0.0000000000000002
  0
LINE
  5
2303
330
74
100
AcDbEntity
  8
AM_3 ( Verdeckt )
100
AcDbLine
 10
4165.018142315026
 20
3770.705082906675
 30
-0.0000000000000002
 11
4163.138757073455
 21
3770.021042620025
 31
-0.0000000000000002
  0
LINE
  5
2304
330
74
100
AcDbEntity
  8
AM_3 ( Verdeckt )
100
AcDbLine
 10
4176.819562806485
 20
3732.433337788586
 30
-0.0000000000000002
 11
4163.138757073455
 21
3770.021042620025
 31
-0.0000000000000002
  0
LINE
  5
2305
330
74
100
AcDbEntity
  8
AM_3 ( Verdeckt )
100
AcDbLine
 10
4178.698948048054
 20
3733.117378075235
 30
-0.0000000000000002
 11
4165.018142315026
 21
3770.705082906675
 31
-0.0000000000000002
  0
LINE
  5
2306
330
74
100
AcDbEntity
  8
AM_3 ( Verdeckt )
100
AcDbLine
 10
4193.114713922476
 20
3689.124680250885
 30
-0.0000000000000002
 11
4148.790482627035
 21
3810.904504869774
 31
-0.0000000000000002
  0
LINE
  5
2307
330
74
100
AcDbEntity
  8
AM_3 ( Verdeckt )
100
AcDbLine
 10
4194.054406543254
 20
3689.466700394205
 30
-0.0000000000000002
 11
4149.730175247825
 21
3811.246525013094
 31
-0.0000000000000002
  0
ARC
  5
2308
330
74
100
AcDbEntity
  8
AM_3 ( Verdeckt )
100
AcDbCircle
 10
4143.906675349584
 20
3809.126944390885
 30
-0.0000000000000002
 40
5.197239149716258
100
AcDbArc
 50
20.00000000001286
 51
190.0000000000039
  0
ARC
  5
2309
330
74
100
AcDbEntity
  8
AM_3 ( Verdeckt )
100
AcDbCircle
 10
4143.906675349584
 20
3809.126944390885
 30
-0.0000000000000002
 40
6.197239149716259
100
AcDbArc
 50
20.00000000001286
 51
190.0000000000039
  0
LINE
  5
230A
330
74
100
AcDbEntity
  8
AM_3 ( Verdeckt )
100
AcDbLine
 10
4144.834539388475
 20
3765.296902802154
 30
-0.0000000000000002
 11
4146.804154894492
 21
3765.644199157485
 31
-0.0000000000000002
  0
LINE
  5
230B
330
74
100
AcDbEntity
  8
AM_3 ( Verdeckt )
100
AcDbLine
 10
4151.780466495153
 20
3725.904592681665
 30
-0.0000000000000002
 11
4153.750082001175
 21
3726.251889036995
 31
-0.0000000000000002
  0
LINE
  5
230C
330
74
100
AcDbEntity
  8
AM_3 ( Verdeckt )
100
AcDbLine
 10
4153.750082001175
 20
3726.251889036995
 30
-0.0000000000000002
 11
4146.804154894492
 21
3765.644199157485
 31
-0.0000000000000002
  0
LINE
  5
230D
330
74
100
AcDbEntity
  8
AM_3 ( Verdeckt )
100
AcDbLine
 10
4151.780466495153
 20
3725.904592681665
 30
-0.0000000000000002
 11
4144.834539388475
 21
3765.296902802154
 31
-0.0000000000000002
  0
LINE
  5
230E
330
74
100
AcDbEntity
  8
AM_3 ( Verdeckt )
100
AcDbLine
 10
4160.901484703144
 20
3682.814883667035
 30
-0.0000000000000002
 11
4159.916676950132
 21
3682.641235489364
 31
-0.0000000000000002
  0
LINE
  5
230F
330
74
100
AcDbEntity
  8
AM_3 ( Verdeckt )
100
AcDbLine
 10
4160.901484703144
 20
3682.814883667035
 30
-0.0000000000000002
 11
4138.788393940703
 21
3808.224453283645
 31
-0.0000000000000002
  0
LINE
  5
2310
330
74
100
AcDbEntity
  8
AM_3 ( Verdeckt )
100
AcDbLine
 10
4159.916676950132
 20
3682.641235489364
 30
-0.0000000000000002
 11
4137.803586187682
 21
3808.050805105974
 31
-0.0000000000000002
  0
LINE
  5
2311
330
74
100
AcDbEntity
  8
AM_3 ( Verdeckt )
100
AcDbLine
 10
4177.887081594333
 20
3733.886060624355
 30
-0.0000000000000002
 11
4176.947388973553
 21
3733.544040481034
 31
-0.0000000000000002
  0
LINE
  5
2312
330
74
100
AcDbEntity
  8
AM_3 ( Verdeckt )
100
AcDbLine
 10
4106.321047004905
 20
3748.170220464265
 30
-0.0000000000000002
 11
4105.501894960613
 21
3747.596644027914
 31
-0.0000000000000002
  0
LINE
  5
2313
330
74
100
AcDbEntity
  8
AM_3 ( Verdeckt )
100
AcDbLine
 10
4128.116951586243
 20
3717.042442781275
 30
-0.0000000000000002
 11
4127.297799541952
 21
3716.468866344924
 31
-0.0000000000000002
  0
LINE
  5
2314
330
74
100
AcDbEntity
  8
AM_3 ( Verdeckt )
100
AcDbLine
 10
4088.936695422034
 20
3738.133360398205
 30
-0.0000000000000002
 11
4089.843003209074
 21
3738.555978659945
 31
-0.0000000000000002
  0
LINE
  5
2315
330
74
100
AcDbEntity
  8
AM_3 ( Verdeckt )
100
AcDbLine
 10
4104.996189368185
 20
3703.693664490804
 30
-0.0000000000000002
 11
4105.902497155216
 21
3704.116282752554
 31
-0.0000000000000002
  0
LINE
  5
2316
330
74
100
AcDbEntity
  8
AM_3 ( Verdeckt )
100
AcDbLine
 10
4055.292457881363
 20
3712.317228943275
 30
-0.0000000000000002
 11
4054.649670271674
 21
3711.551184500154
 31
-0.0000000000000002
  0
LINE
  5
2317
330
74
100
AcDbEntity
  8
AM_3 ( Verdeckt )
100
AcDbLine
 10
4084.402146719883
 20
3687.891299775185
 30
-0.0000000000000002
 11
4083.759359110194
 21
3687.125255332065
 31
-0.0000000000000002
  0
LINE
  5
2318
330
74
100
AcDbEntity
  8
AM_3 ( Verdeckt )
100
AcDbLine
 10
4041.098194252305
 20
3698.122965314215
 30
-0.0000000000000002
 11
4041.864238695425
 21
3698.765752923895
 31
-0.0000000000000002
  0
LINE
  5
2319
330
74
100
AcDbEntity
  8
AM_3 ( Verdeckt )
100
AcDbLine
 10
4065.524123420392
 20
3669.013276475684
 30
-0.0000000000000002
 11
4066.290167863512
 21
3669.656064085375
 31
-0.0000000000000002
  0
LINE
  5
231A
330
74
100
AcDbEntity
  8
AM_3 ( Verdeckt )
100
AcDbLine
 10
4015.282062797376
 20
3664.478727773544
 30
-0.0000000000000002
 11
4014.859444535633
 21
3663.572419986504
 31
-0.0000000000000002
  0
LINE
  5
231B
330
74
100
AcDbEntity
  8
AM_3 ( Verdeckt )
100
AcDbLine
 10
4049.721758704762
 20
3648.419233827395
 30
-0.0000000000000002
 11
4049.299140443024
 21
3647.512926040355
 31
-0.0000000000000002
  0
LINE
  5
231C
330
74
100
AcDbEntity
  8
AM_3 ( Verdeckt )
100
AcDbLine
 10
4005.245202731313
 20
3647.094376190665
 30
-0.0000000000000002
 11
4005.818779167664
 21
3647.913528234954
 31
-0.0000000000000002
  0
LINE
  5
231D
330
74
100
AcDbEntity
  8
AM_3 ( Verdeckt )
100
AcDbLine
 10
4036.372980414294
 20
3625.298471609325
 30
-0.0000000000000002
 11
4036.946556850644
 21
3626.117623653615
 31
-0.0000000000000002
  0
LINE
  5
231E
330
74
100
AcDbEntity
  8
AM_3 ( Verdeckt )
100
AcDbLine
 10
3989.016504057604
 20
3607.914831752925
 30
-0.0000000000000002
 11
3988.842855879933
 21
3606.930023999915
 31
-0.0000000000000002
  0
LINE
  5
231F
330
74
100
AcDbEntity
  8
AM_3 ( Verdeckt )
100
AcDbLine
 10
4026.439198672064
 20
3601.316201001585
 30
-0.0000000000000002
 11
4026.265550494394
 21
3600.331393248565
 31
-0.0000000000000002
  0
LINE
  5
2320
330
74
100
AcDbEntity
  8
AM_3 ( Verdeckt )
100
AcDbLine
 10
3983.821042981345
 20
3588.525107047615
 30
-0.0000000000000002
 11
3984.163063124675
 21
3589.464799668394
 31
-0.0000000000000002
  0
LINE
  5
2321
330
74
100
AcDbEntity
  8
AM_3 ( Verdeckt )
100
AcDbLine
 10
4019.529362571213
 20
3575.528341601235
 30
-0.0000000000000002
 11
4019.871382714535
 21
3576.468034222024
 31
-0.0000000000000002
  0
LINE
  5
2322
330
74
100
AcDbEntity
  8
AM_3 ( Verdeckt )
100
AcDbLine
 10
3978.285736084276
 20
3546.480276918975
 30
-0.0000000000000002
 11
3978.372891827024
 21
3545.484082220875
 31
-0.0000000000000002
  0
LINE
  5
2323
330
74
100
AcDbEntity
  8
AM_3 ( Verdeckt )
100
AcDbLine
 10
4016.141134611763
 20
3549.792195143384
 30
-0.0000000000000002
 11
4016.228290354503
 21
3548.796000445285
 31
-0.0000000000000002
  0
LINE
  5
2324
330
74
100
AcDbEntity
  8
AM_3 ( Verdeckt )
100
AcDbLine
 10
3978.285736084276
 20
3526.406556786855
 30
-0.0000000000000002
 11
3978.372891827024
 21
3527.402751484945
 31
-0.0000000000000002
  0
LINE
  5
2325
330
74
100
AcDbEntity
  8
AM_3 ( Verdeckt )
100
AcDbLine
 10
4016.141134611763
 20
3523.094638562446
 30
-0.0000000000000002
 11
4016.228290354503
 21
3524.090833260534
 31
-0.0000000000000002
  0
LINE
  5
2326
330
74
100
AcDbEntity
  8
AM_3 ( Verdeckt )
100
AcDbLine
 10
3983.821042981345
 20
3484.361726658205
 30
-0.0000000000000002
 11
3984.163063124675
 21
3483.422034037425
 31
-0.0000000000000002
  0
LINE
  5
2327
330
74
100
AcDbEntity
  8
AM_3 ( Verdeckt )
100
AcDbLine
 10
4019.529362571213
 20
3497.358492104585
 30
-0.0000000000000002
 11
4019.871382714535
 21
3496.418799483794
 31
-0.0000000000000002
  0
LINE
  5
2328
330
74
100
AcDbEntity
  8
AM_3 ( Verdeckt )
100
AcDbLine
 10
3989.016504057594
 20
3464.972001952895
 30
-0.0000000000000002
 11
3988.842855879933
 21
3465.956809705904
 31
-0.0000000000000002
  0
LINE
  5
2329
330
74
100
AcDbEntity
  8
AM_3 ( Verdeckt )
100
AcDbLine
 10
4026.439198672064
 20
3471.570632704244
 30
-0.0000000000000002
 11
4026.265550494394
 21
3472.555440457255
 31
-0.0000000000000002
  0
LINE
  5
232A
330
74
100
AcDbEntity
  8
AM_3 ( Verdeckt )
100
AcDbLine
 10
4005.245202731304
 20
3425.792457515155
 30
-0.0000000000000002
 11
4005.818779167656
 21
3424.973305470865
 31
-0.0000000000000002
  0
LINE
  5
232B
330
74
100
AcDbEntity
  8
AM_3 ( Verdeckt )
100
AcDbLine
 10
4036.372980414294
 20
3447.588362096495
 30
-0.0000000000000002
 11
4036.946556850644
 21
3446.769210052205
 31
-0.0000000000000002
  0
LINE
  5
232C
330
74
100
AcDbEntity
  8
AM_3 ( Verdeckt )
100
AcDbLine
 10
4015.282062797363
 20
3408.408105932284
 30
-0.0000000000000002
 11
4014.859444535624
 21
3409.314413719314
 31
-0.0000000000000002
  0
LINE
  5
232D
330
74
100
AcDbEntity
  8
AM_3 ( Verdeckt )
100
AcDbLine
 10
4049.721758704762
 20
3424.467599878425
 30
-0.0000000000000002
 11
4049.299140443024
 21
3425.373907665464
 31
-0.0000000000000002
  0
LINE
  5
232E
330
74
100
AcDbEntity
  8
AM_3 ( Verdeckt )
100
AcDbLine
 10
4041.098194252294
 20
3374.763868391615
 30
-0.0000000000000002
 11
4041.864238695414
 21
3374.121080781925
 31
-0.0000000000000002
  0
LINE
  5
232F
330
74
100
AcDbEntity
  8
AM_3 ( Verdeckt )
100
AcDbLine
 10
4065.524123420384
 20
3403.873557230135
 30
-0.0000000000000002
 11
4066.290167863504
 21
3403.230769620445
 31
-0.0000000000000002
  0
LINE
  5
2330
330
74
100
AcDbEntity
  8
AM_3 ( Verdeckt )
100
AcDbLine
 10
4055.292457881354
 20
3360.569604762544
 30
-0.0000000000000002
 11
4054.649670271674
 21
3361.335649205664
 31
-0.0000000000000002
  0
LINE
  5
2331
330
74
100
AcDbEntity
  8
AM_3 ( Verdeckt )
100
AcDbLine
 10
4084.402146719883
 20
3384.995533930633
 30
-0.0000000000000002
 11
4083.759359110194
 21
3385.761578373755
 31
-0.0000000000000002
  0
LINE
  5
2332
330
74
100
AcDbEntity
  8
AM_3 ( Verdeckt )
100
AcDbLine
 10
4088.936695422024
 20
3334.753473307614
 30
-0.0000000000000002
 11
4089.843003209064
 21
3334.330855045875
 31
-0.0000000000000002
  0
LINE
  5
2333
330
74
100
AcDbEntity
  8
AM_3 ( Verdeckt )
100
AcDbLine
 10
4104.996189368175
 20
3369.193169215004
 30
-0.0000000000000002
 11
4105.902497155216
 21
3368.770550953263
 31
-0.0000000000000002
  0
LINE
  5
2334
330
74
100
AcDbEntity
  8
AM_3 ( Verdeckt )
100
AcDbLine
 10
4106.321047004905
 20
3324.716613241554
 30
-0.0000000000000002
 11
4105.501894960613
 21
3325.290189677904
 31
-0.0000000000000002
  0
LINE
  5
2335
330
74
100
AcDbEntity
  8
AM_3 ( Verdeckt )
100
AcDbLine
 10
4128.116951586243
 20
3355.844390924544
 30
-0.0000000000000002
 11
4127.297799541952
 21
3356.417967360895
 31
-0.0000000000000002
  0
LINE
  5
2336
330
74
100
AcDbEntity
  8
AM_3 ( Verdeckt )
100
AcDbLine
 10
4145.500591442643
 20
3308.487914567844
 30
-0.0000000000000002
 11
4146.485399195652
 21
3308.314266390175
 31
-0.0000000000000002
  0
LINE
  5
2337
330
74
100
AcDbEntity
  8
AM_3 ( Verdeckt )
100
AcDbLine
 10
4152.099222193982
 20
3345.910609182304
 30
-0.0000000000000002
 11
4153.084029947003
 21
3345.736961004643
 31
-0.0000000000000002
  0
LINE
  5
2338
330
74
100
AcDbEntity
  8
AM_3 ( Verdeckt )
100
AcDbLine
 10
4164.890316147956
 20
3303.292453491593
 30
-0.0000000000000002
 11
4163.950623527174
 21
3303.634473634924
 31
-0.0000000000000002
  0
LINE
  5
2339
330
74
100
AcDbEntity
  8
AM_3 ( Verdeckt )
100
AcDbLine
 10
4177.887081594333
 20
3339.000773081455
 30
-0.0000000000000002
 11
4176.947388973544
 21
3339.342793224785
 31
-0.0000000000000002
  0
LINE
  5
233A
330
74
100
AcDbEntity
  8
AM_3 ( Verdeckt )
100
AcDbLine
 10
4206.935146276593
 20
3297.757146594525
 30
-0.0000000000000002
 11
4207.931340974694
 21
3297.844302337266
 31
-0.0000000000000002
  0
LINE
  5
233B
330
74
100
AcDbEntity
  8
AM_3 ( Verdeckt )
100
AcDbLine
 10
4203.623228052185
 20
3335.612545122006
 30
-0.0000000000000002
 11
4204.619422750283
 21
3335.699700864755
 31
-0.0000000000000002
  0
LINE
  5
233C
330
74
100
AcDbEntity
  8
AM_3 ( Verdeckt )
100
AcDbLine
 10
4227.008866408713
 20
3297.757146594525
 30
-0.0000000000000002
 11
4226.012671710623
 21
3297.844302337266
 31
-0.0000000000000002
  0
LINE
  5
233D
330
74
100
AcDbEntity
  8
AM_3 ( Verdeckt )
100
AcDbLine
 10
4230.320784633124
 20
3335.612545122006
 30
-0.0000000000000002
 11
4229.324589935034
 21
3335.699700864755
 31
-0.0000000000000002
  0
LINE
  5
233E
330
74
100
AcDbEntity
  8
AM_3 ( Verdeckt )
100
AcDbLine
 10
4269.053696537364
 20
3303.292453491593
 30
-0.0000000000000002
 11
4269.993389158144
 21
3303.634473634915
 31
-0.0000000000000002
  0
LINE
  5
233F
330
74
100
AcDbEntity
  8
AM_3 ( Verdeckt )
100
AcDbLine
 10
4256.056931090984
 20
3339.000773081455
 30
-0.0000000000000002
 11
4256.996623711775
 21
3339.342793224785
 31
-0.0000000000000002
  0
LINE
  5
2340
330
74
100
AcDbEntity
  8
AM_3 ( Verdeckt )
100
AcDbLine
 10
4288.443421242674
 20
3308.487914567844
 30
-0.0000000000000002
 11
4287.458613489664
 21
3308.314266390175
 31
-0.0000000000000002
  0
LINE
  5
2341
330
74
100
AcDbEntity
  8
AM_3 ( Verdeckt )
100
AcDbLine
 10
4281.844790491325
 20
3345.910609182304
 30
-0.0000000000000002
 11
4280.859982738312
 21
3345.736961004635
 31
-0.0000000000000002
  0
LINE
  5
2342
330
74
100
AcDbEntity
  8
AM_3 ( Verdeckt )
100
AcDbLine
 10
4327.622965680414
 20
3324.716613241554
 30
-0.0000000000000002
 11
4328.442117724703
 21
3325.290189677904
 31
-0.0000000000000002
  0
LINE
  5
2343
330
74
100
AcDbEntity
  8
AM_3 ( Verdeckt )
100
AcDbLine
 10
4305.827061099074
 20
3355.844390924534
 30
-0.0000000000000002
 11
4306.646213143363
 21
3356.417967360884
 31
-0.0000000000000002
  0
LINE
  5
2344
330
74
100
AcDbEntity
  8
AM_3 ( Verdeckt )
100
AcDbLine
 10
4345.007317263292
 20
3334.753473307614
 30
-0.0000000000000002
 11
4344.101009476255
 21
3334.330855045875
 31
-0.0000000000000002
  0
LINE
  5
2345
330
74
100
AcDbEntity
  8
AM_3 ( Verdeckt )
100
AcDbLine
 10
4328.947823317142
 20
3369.193169215004
 30
-0.0000000000000002
 11
4328.041515530104
 21
3368.770550953263
 31
-0.0000000000000002
  0
LINE
  5
2346
330
74
100
AcDbEntity
  8
AM_3 ( Verdeckt )
100
AcDbLine
 10
4378.651554803954
 20
3360.569604762544
 30
-0.0000000000000002
 11
4379.294342413641
 21
3361.335649205664
 31
-0.0000000000000002
  0
LINE
  5
2347
330
74
100
AcDbEntity
  8
AM_3 ( Verdeckt )
100
AcDbLine
 10
4349.541865965435
 20
3384.995533930633
 30
-0.0000000000000002
 11
4350.184653575125
 21
3385.761578373755
 31
-0.0000000000000002
  0
LINE
  5
2348
330
74
100
AcDbEntity
  8
AM_3 ( Verdeckt )
100
AcDbLine
 10
4392.845818433024
 20
3374.763868391605
 30
-0.0000000000000002
 11
4392.079773989904
 21
3374.121080781915
 31
-0.0000000000000002
  0
LINE
  5
2349
330
74
100
AcDbEntity
  8
AM_3 ( Verdeckt )
100
AcDbLine
 10
4368.419889264933
 20
3403.873557230126
 30
-0.0000000000000002
 11
4367.653844821813
 21
3403.230769620434
 31
-0.0000000000000002
  0
LINE
  5
234A
330
74
100
AcDbEntity
  8
AM_3 ( Verdeckt )
100
AcDbLine
 10
4418.661949887954
 20
3408.408105932275
 30
-0.0000000000000002
 11
4419.084568149694
 21
3409.314413719314
 31
-0.0000000000000002
  0
LINE
  5
234B
330
74
100
AcDbEntity
  8
AM_3 ( Verdeckt )
100
AcDbLine
 10
4384.222253980555
 20
3424.467599878425
 30
-0.0000000000000002
 11
4384.644872242304
 21
3425.373907665454
 31
-0.0000000000000002
  0
LINE
  5
234C
330
74
100
AcDbEntity
  8
AM_3 ( Verdeckt )
100
AcDbLine
 10
4428.698809954013
 20
3425.792457515144
 30
-0.0000000000000002
 11
4428.125233517665
 21
3424.973305470855
 31
-0.0000000000000002
  0
LINE
  5
234D
330
74
100
AcDbEntity
  8
AM_3 ( Verdeckt )
100
AcDbLine
 10
4397.571032271033
 20
3447.588362096485
 30
-0.0000000000000002
 11
4396.997455834674
 21
3446.769210052195
 31
-0.0000000000000002
  0
LINE
  5
234E
330
74
100
AcDbEntity
  8
AM_3 ( Verdeckt )
100
AcDbLine
 10
4444.927508627724
 20
3464.972001952895
 30
-0.0000000000000002
 11
4445.101156805395
 21
3465.956809705904
 31
-0.0000000000000002
  0
LINE
  5
234F
330
74
100
AcDbEntity
  8
AM_3 ( Verdeckt )
100
AcDbLine
 10
4407.504814013264
 20
3471.570632704234
 30
-0.0000000000000002
 11
4407.678462190925
 21
3472.555440457244
 31
-0.0000000000000002
  0
LINE
  5
2350
330
74
100
AcDbEntity
  8
AM_3 ( Verdeckt )
100
AcDbLine
 10
4450.122969703975
 20
3484.361726658205
 30
-0.0000000000000002
 11
4449.780949560643
 21
3483.422034037415
 31
-0.0000000000000002
  0
LINE
  5
2351
330
74
100
AcDbEntity
  8
AM_3 ( Verdeckt )
100
AcDbLine
 10
4414.414650114113
 20
3497.358492104575
 30
-0.0000000000000002
 11
4414.072629970784
 21
3496.418799483794
 31
-0.0000000000000002
  0
LINE
  5
2352
330
74
100
AcDbEntity
  8
AM_3 ( Verdeckt )
100
AcDbLine
 10
4455.658276601042
 20
3526.406556786844
 30
-0.0000000000000002
 11
4455.571120858304
 21
3527.402751484935
 31
-0.0000000000000002
  0
LINE
  5
2353
330
74
100
AcDbEntity
  8
AM_3 ( Verdeckt )
100
AcDbLine
 10
4417.802878073564
 20
3523.094638562435
 30
-0.0000000000000002
 11
4417.715722330812
 21
3524.090833260525
 31
-0.0000000000000002
  0
LINE
  5
2354
330
74
100
AcDbEntity
  8
AM_3 ( Verdeckt )
100
AcDbLine
 10
4455.658276601042
 20
3546.480276918964
 30
-0.0000000000000002
 11
4455.571120858304
 21
3545.484082220875
 31
-0.0000000000000002
  0
LINE
  5
2355
330
74
100
AcDbEntity
  8
AM_3 ( Verdeckt )
100
AcDbLine
 10
4417.802878073564
 20
3549.792195143374
 30
-0.0000000000000002
 11
4417.715722330812
 21
3548.796000445285
 31
-0.0000000000000002
  0
LINE
  5
2356
330
74
100
AcDbEntity
  8
AM_3 ( Verdeckt )
100
AcDbLine
 10
4450.122969703975
 20
3588.525107047605
 30
-0.0000000000000002
 11
4449.780949560653
 21
3589.464799668394
 31
-0.0000000000000002
  0
LINE
  5
2357
330
74
100
AcDbEntity
  8
AM_3 ( Verdeckt )
100
AcDbLine
 10
4414.414650114113
 20
3575.528341601235
 30
-0.0000000000000002
 11
4414.072629970784
 21
3576.468034222014
 31
-0.0000000000000002
  0
LINE
  5
2358
330
74
100
AcDbEntity
  8
AM_3 ( Verdeckt )
100
AcDbLine
 10
4444.927508627724
 20
3607.914831752915
 30
-0.0000000000000002
 11
4445.101156805395
 21
3606.930023999904
 31
-0.0000000000000002
  0
LINE
  5
2359
330
74
100
AcDbEntity
  8
AM_3 ( Verdeckt )
100
AcDbLine
 10
4407.504814013264
 20
3601.316201001575
 30
-0.0000000000000002
 11
4407.678462190935
 21
3600.331393248565
 31
-0.0000000000000002
  0
LINE
  5
235A
330
74
100
AcDbEntity
  8
AM_3 ( Verdeckt )
100
AcDbLine
 10
4428.698809954013
 20
3647.094376190665
 30
-0.0000000000000002
 11
4428.125233517665
 21
3647.913528234954
 31
-0.0000000000000002
  0
LINE
  5
235B
330
74
100
AcDbEntity
  8
AM_3 ( Verdeckt )
100
AcDbLine
 10
4397.571032271033
 20
3625.298471609325
 30
-0.0000000000000002
 11
4396.997455834684
 21
3626.117623653615
 31
-0.0000000000000002
  0
LINE
  5
235C
330
74
100
AcDbEntity
  8
AM_3 ( Verdeckt )
100
AcDbLine
 10
4418.661949887954
 20
3664.478727773535
 30
-0.0000000000000002
 11
4419.084568149694
 21
3663.572419986494
 31
-0.0000000000000002
  0
LINE
  5
235D
330
74
100
AcDbEntity
  8
AM_3 ( Verdeckt )
100
AcDbLine
 10
4384.222253980563
 20
3648.419233827385
 30
-0.0000000000000002
 11
4384.644872242304
 21
3647.512926040355
 31
-0.0000000000000002
  0
LINE
  5
235E
330
74
100
AcDbEntity
  8
AM_3 ( Verdeckt )
100
AcDbLine
 10
4392.845818433024
 20
3698.122965314205
 30
-0.0000000000000002
 11
4392.079773989904
 21
3698.765752923895
 31
-0.0000000000000002
  0
LINE
  5
235F
330
74
100
AcDbEntity
  8
AM_3 ( Verdeckt )
100
AcDbLine
 10
4368.419889264933
 20
3669.013276475684
 30
-0.0000000000000002
 11
4367.653844821813
 21
3669.656064085375
 31
-0.0000000000000002
  0
LINE
  5
2360
330
74
100
AcDbEntity
  8
AM_3 ( Verdeckt )
100
AcDbLine
 10
4378.651554803963
 20
3712.317228943265
 30
-0.0000000000000002
 11
4379.294342413653
 21
3711.551184500145
 31
-0.0000000000000002
  0
LINE
  5
2361
330
74
100
AcDbEntity
  8
AM_3 ( Verdeckt )
100
AcDbLine
 10
4349.541865965444
 20
3687.891299775175
 30
-0.0000000000000002
 11
4350.184653575133
 21
3687.125255332055
 31
-0.0000000000000002
  0
LINE
  5
2362
330
74
100
AcDbEntity
  8
AM_3 ( Verdeckt )
100
AcDbLine
 10
4345.007317263292
 20
3738.133360398194
 30
-0.0000000000000002
 11
4344.101009476255
 21
3738.555978659935
 31
-0.0000000000000002
  0
LINE
  5
2363
330
74
100
AcDbEntity
  8
AM_3 ( Verdeckt )
100
AcDbLine
 10
4328.947823317142
 20
3703.693664490804
 30
-0.0000000000000002
 11
4328.041515530116
 21
3704.116282752545
 31
-0.0000000000000002
  0
LINE
  5
2364
330
74
100
AcDbEntity
  8
AM_3 ( Verdeckt )
100
AcDbLine
 10
4327.622965680425
 20
3748.170220464254
 30
-0.0000000000000002
 11
4328.442117724714
 21
3747.596644027904
 31
-0.0000000000000002
  0
LINE
  5
2365
330
74
100
AcDbEntity
  8
AM_3 ( Verdeckt )
100
AcDbLine
 10
4305.827061099083
 20
3717.042442781275
 30
-0.0000000000000002
 11
4306.646213143374
 21
3716.468866344924
 31
-0.0000000000000002
  0
LINE
  5
2366
330
74
100
AcDbEntity
  8
AM_3 ( Verdeckt )
100
AcDbLine
 10
4288.443421242674
 20
3764.398919137974
 30
-0.0000000000000002
 11
4287.458613489664
 21
3764.572567315634
 31
-0.0000000000000002
  0
LINE
  5
2367
330
74
100
AcDbEntity
  8
AM_3 ( Verdeckt )
100
AcDbLine
 10
4281.844790491333
 20
3726.976224523505
 30
-0.0000000000000002
 11
4280.859982738323
 21
3727.149872701176
 31
-0.0000000000000002
  0
LINE
  5
2368
330
74
100
AcDbEntity
  8
AM_3 ( Verdeckt )
100
AcDbLine
 10
4269.053696537364
 20
3769.594380214225
 30
-0.0000000000000002
 11
4269.993389158152
 21
3769.252360070895
 31
-0.0000000000000002
  0
LINE
  5
2369
330
74
100
AcDbEntity
  8
AM_3 ( Verdeckt )
100
AcDbLine
 10
4256.056931090994
 20
3733.886060624355
 30
-0.0000000000000002
 11
4256.996623711775
 21
3733.544040481034
 31
-0.0000000000000002
  0
LINE
  5
236A
330
74
100
AcDbEntity
  8
AM_3 ( Verdeckt )
100
AcDbLine
 10
4227.008866408724
 20
3775.129687111294
 30
-0.0000000000000002
 11
4226.012671710633
 21
3775.042531368544
 31
-0.0000000000000002
  0
LINE
  5
236B
330
74
100
AcDbEntity
  8
AM_3 ( Verdeckt )
100
AcDbLine
 10
4230.320784633135
 20
3737.274288583805
 30
-0.0000000000000002
 11
4229.324589935044
 21
3737.187132841066
 31
-0.0000000000000002
  0
LINE
  5
236C
330
74
100
AcDbEntity
  8
AM_3 ( Verdeckt )
100
AcDbLine
 10
4206.935146276604
 20
3775.129687111294
 30
-0.0000000000000002
 11
4207.931340974694
 21
3775.042531368544
 31
-0.0000000000000002
  0
LINE
  5
236D
330
74
100
AcDbEntity
  8
AM_3 ( Verdeckt )
100
AcDbLine
 10
4203.623228052193
 20
3737.274288583805
 30
-0.0000000000000002
 11
4204.619422750283
 21
3737.187132841066
 31
-0.0000000000000002
  0
LINE
  5
236E
330
74
100
AcDbEntity
  8
AM_7 (Mittellinie)
100
AcDbLine
 10
4001.982742929803
 20
3366.443416852894
 30
-0.0000000000000002
 11
3981.130710491205
 21
3366.443416852894
 31
-0.0000000000000002
  0
LINE
  5
236F
330
74
100
AcDbEntity
  8
AM_7 (Mittellinie)
100
AcDbLine
 10
3991.972006342665
 20
3354.419138416675
 30
-0.0000000000000002
 11
3991.972006342665
 21
3376.999275748625
 31
-0.0000000000000002
  0
CIRCLE
  5
2370
330
74
100
AcDbEntity
  8
AM_3 ( Verdeckt )
100
AcDbCircle
 10
-3991.972006342665
 20
3366.443416852894
 30
0.0000000000000002
 40
5.24999999999999
210
0.0
220
0.0
230
-1.0
  0
LINE
  5
2371
330
74
100
AcDbEntity
  8
AM_7 (Mittellinie)
100
AcDbLine
 10
4001.982742929803
 20
3706.443416852894
 30
-0.0000000000000002
 11
3981.130710491205
 21
3706.443416852894
 31
-0.0000000000000002
  0
LINE
  5
2372
330
74
100
AcDbEntity
  8
AM_7 (Mittellinie)
100
AcDbLine
 10
3991.972006342665
 20
3718.467695289116
 30
-0.0000000000000002
 11
3991.972006342665
 21
3695.887557957166
 31
-0.0000000000000002
  0
CIRCLE
  5
2373
330
74
100
AcDbEntity
  8
AM_3 ( Verdeckt )
100
AcDbCircle
 10
3991.972006342665
 20
3706.443416852894
 30
-0.0000000000000002
 40
5.24999999999999
  0
LINE
  5
2374
330
74
100
AcDbEntity
  8
AM_7 (Mittellinie)
100
AcDbLine
 10
4441.972006342665
 20
3718.467695289116
 30
-0.0000000000000002
 11
4441.972006342665
 21
3695.887557957166
 31
-0.0000000000000002
  0
LINE
  5
2375
330
74
100
AcDbEntity
  8
AM_7 (Mittellinie)
100
AcDbLine
 10
4431.961269755535
 20
3706.443416852894
 30
-0.0000000000000002
 11
4452.813302194125
 21
3706.443416852894
 31
-0.0000000000000002
  0
CIRCLE
  5
2376
330
74
100
AcDbEntity
  8
AM_3 ( Verdeckt )
100
AcDbCircle
 10
-4441.972006342665
 20
3706.443416852894
 30
0.0000000000000002
 40
5.24999999999999
210
0.0
220
0.0
230
-1.0
  0
LINE
  5
2377
330
74
100
AcDbEntity
  8
AM_0 ( Kontur 0.5 )
100
AcDbLine
 10
4363.219229649294
 20
3379.943416950515
 30
-0.0000000000000002
 11
4370.724783036043
 21
3379.943416950515
 31
-0.0000000000000002
  0
LINE
  5
2378
330
74
100
AcDbEntity
  8
AM_0 ( Kontur 0.5 )
100
AcDbLine
 10
4374.477559729413
 20
3386.443416852895
 30
-0.0000000000000002
 11
4370.724783036043
 21
3392.943416755274
 31
-0.0000000000000002
  0
LINE
  5
2379
330
74
100
AcDbEntity
  8
AM_0 ( Kontur 0.5 )
100
AcDbLine
 10
4370.724783036043
 20
3392.943416755274
 30
-0.0000000000000002
 11
4363.219229649294
 21
3392.943416755274
 31
-0.0000000000000002
  0
LINE
  5
237A
330
74
100
AcDbEntity
  8
AM_0 ( Kontur 0.5 )
100
AcDbLine
 10
4370.724783036043
 20
3379.943416950515
 30
-0.0000000000000002
 11
4374.477559729413
 21
3386.443416852895
 31
-0.0000000000000002
  0
LINE
  5
237B
330
74
100
AcDbEntity
  8
AM_0 ( Kontur 0.5 )
100
AcDbLine
 10
4363.219229649294
 20
3392.943416755274
 30
-0.0000000000000002
 11
4359.466452955925
 21
3386.443416852895
 31
-0.0000000000000002
  0
CIRCLE
  5
237C
330
74
100
AcDbEntity
  8
AM_0 ( Kontur 0.5 )
100
AcDbCircle
 10
4366.972006342665
 20
3386.443416852895
 30
-0.0000000000000002
 40
6.499999902379778
  0
LINE
  5
237D
330
74
100
AcDbEntity
  8
AM_7 (Mittellinie)
100
AcDbLine
 10
4256.257672149714
 20
3536.443416852895
 30
-0.0000000000000002
 11
4525.427396055044
 21
3536.443416852895
 31
-0.0000000000000002
  0
ARC
  5
237E
330
74
100
AcDbEntity
  8
AM_3 ( Verdeckt )
100
AcDbCircle
 10
4366.972006342665
 20
3386.443416852895
 30
-0.0000000000000002
 40
4.0
100
AcDbArc
 50
73.32397021473432
 51
0.0
  0
CIRCLE
  5
237F
330
74
100
AcDbEntity
  8
AM_3 ( Verdeckt )
100
AcDbCircle
 10
4366.972006342665
 20
3386.443416852895
 30
-0.0000000000000002
 40
3.325
  0
ARC
  5
2380
330
74
100
AcDbEntity
  8
AM_3 ( Verdeckt )
100
AcDbCircle
 10
4366.972006342665
 20
3386.443416852895
 30
-0.0000000000000002
 40
4.0
100
AcDbArc
 50
0.0
 51
17.49560091778814
  0
CIRCLE
  5
2381
330
74
100
AcDbEntity
  8
AM_3 ( Verdeckt )
100
AcDbCircle
 10
-4069.472006342665
 20
3536.443416852895
 30
0.0000000000000002
 40
3.75
210
0.0
220
0.0
230
-1.0
  0
ARC
  5
2382
330
74
100
AcDbEntity
  8
AM_7 (Mittellinie)
100
AcDbCircle
 10
4216.972006342665
 20
3536.443416852895
 30
-0.0000000000000002
 40
147.5
100
AcDbArc
 50
175.8254216676002
 51
184.2821682385135
  0
CIRCLE
  5
2383
330
74
100
AcDbEntity
  8
AM_3 ( Verdeckt )
100
AcDbCircle
 10
4216.972006342665
 20
3361.443416852895
 30
-0.0000000000000002
 40
3.75
  0
ARC
  5
2384
330
74
100
AcDbEntity
  8
AM_7 (Mittellinie)
100
AcDbCircle
 10
4216.972006342665
 20
3536.443416852895
 30
-0.0000000000000002
 40
175.0
100
AcDbArc
 50
266.4100848609339
 51
273.4551669494879
  0
CIRCLE
  5
2385
330
74
100
AcDbEntity
  8
AM_3 ( Verdeckt )
100
AcDbCircle
 10
4364.472006342665
 20
3536.443416852895
 30
-0.0000000000000002
 40
3.75
  0
ARC
  5
2386
330
74
100
AcDbEntity
  8
AM_7 (Mittellinie)
100
AcDbCircle
 10
4216.972006342665
 20
3536.443416852895
 30
-0.0000000000000002
 40
147.5
100
AcDbArc
 50
355.704869556998
 51
4.164215816337037
  0
LINE
  5
2387
330
74
100
AcDbEntity
  8
AM_7 (Mittellinie)
100
AcDbLine
 10
4216.972006342665
 20
3566.925590709954
 30
-0.0000000000000002
 11
4216.972006342665
 21
3841.824120062115
 31
-0.0000000000000002
  0
LINE
  5
2388
330
74
100
AcDbEntity
  8
AM_7 (Mittellinie)
100
AcDbLine
 10
4366.972006342665
 20
3373.927629546484
 30
-0.0000000000000002
 11
4366.972006342665
 21
3396.673699195174
 31
-0.0000000000000002
  0
CIRCLE
  5
2389
330
74
100
AcDbEntity
  8
AM_3 ( Verdeckt )
100
AcDbCircle
 10
4216.972006342665
 20
3711.443416852894
 30
-0.0000000000000002
 40
3.75
  0
ARC
  5
238A
330
74
100
AcDbEntity
  8
AM_7 (Mittellinie)
100
AcDbCircle
 10
4216.972006342665
 20
3536.443416852895
 30
-0.0000000000000002
 40
175.0
100
AcDbArc
 50
86.379073787313
 51
93.5843159984889
  0
ELLIPSE
  5
2904
330
74
100
AcDbEntity
  8
AM_2 ( Kontur 0.25)
100
AcDbEllipse
 10
4134.699446853145
 20
3544.048093505966
 30
0.0
 11
19.37218599421683
 21
28.25612263173623
 31
0.0
210
0.0
220
0.0
230
1.0
 40
0.6537867520664599
 41
5.337637804046209
 42
11.48329872840159
  0
ELLIPSE
  5
2905
330
74
100
AcDbEntity
  8
AM_2 ( Kontur 0.25)
100
AcDbEllipse
 10
4134.670837666303
 20
3543.553409030318
 30
0.0
 11
15.31680964249988
 21
24.96648408317624
 31
0.0
210
0.0
220
0.0
230
1.0
 40
0.4844290690998303
 41
5.302972782809451
 42
11.40427987559324
  0
SPLINE
  5
2906
330
74
100
AcDbEntity
  8
AM_2 ( Kontur 0.25)
100
AcDbSpline
210
0.0
220
0.0
230
1.0
 70
     8
 71
     3
 72
     9
 73
     5
 74
     0
 42
0.0000000001
 43
0.0000000001
 40
0.0
 40
0.0
 40
0.0
 40
0.0
 40
7.968107150523366
 40
14.83107190610577
 40
14.83107190610577
 40
14.83107190610577
 40
14.83107190610577
 10
4147.509274874148
 20
3561.183780510074
 30
0.0
 10
4147.70314913506
 20
3558.940168310036
 30
0.0
 10
4148.064008125792
 20
3554.764123329767
 30
0.0
 10
4151.48321414913
 20
3552.095733310487
 30
0.0
 10
4153.245816563859
 20
3551.292804472808
 30
0.0
  0
SPLINE
  5
2907
330
74
100
AcDbEntity
  8
AM_2 ( Kontur 0.25)
100
AcDbSpline
210
0.0
220
0.0
230
1.0
 70
     8
 71
     3
 72
    14
 73
    10
 74
     0
 42
0.0000000001
 43
0.0000000001
 40
24.47382092594304
 40
24.47382092594304
 40
24.47382092594304
 40
24.47382092594304
 40
27.07720801688995
 40
65.95863428631481
 40
68.90571152459711
 40
78.76292925805633
 40
85.37637435376925
 40
90.16781575675782
 40
124.4302840537597
 40
124.4302840537597
 40
124.4302840537597
 40
124.4302840537597
 10
4161.016588672691
 20
3550.317145396795
 30
0.0
 10
4161.723621513563
 20
3550.400215079993
 30
0.0
 10
4172.97308121664
 20
3552.224233257828
 30
0.0
 10
4184.096266404107
 20
3559.424614059042
 30
0.0
 10
4197.975133266548
 20
3557.756883081976
 30
0.0
 10
4203.281198446205
 20
3555.959540508608
 30
0.0
 10
4206.582081177362
 20
3550.846397343969
 30
0.0
 10
4208.101774396395
 20
3538.45480371072
 30
0.0
 10
4204.390674321484
 20
3528.251275088052
 30
0.0
 10
4201.134881248767
 20
3519.29959576485
 30
0.0
  0
SPLINE
  5
2908
330
74
100
AcDbEntity
  8
AM_2 ( Kontur 0.25)
100
AcDbSpline
210
0.0
220
0.0
230
1.0
 70
     8
 71
     3
 72
    10
 73
     6
 74
     0
 42
0.0000000001
 43
0.0000000001
 40
0.0
 40
0.0
 40
0.0
 40
0.0
 40
8.412186980282188
 40
16.06694186604353
 40
19.01677443785813
 40
19.01677443785813
 40
19.01677443785813
 40
19.01677443785813
 10
4140.771419314622
 20
3556.51613318813
 30
0.0
 10
4141.726364003661
 20
3554.380222407479
 30
0.0
 10
4143.550270300563
 20
3550.300717942801
 30
0.0
 10
4148.28001667612
 20
3547.744013761569
 30
0.0
 10
4151.072615873195
 20
3546.868075767826
 30
0.0
 10
4151.856412923571
 20
3546.66686093855
 30
0.0
  0
SPLINE
  5
2909
330
74
100
AcDbEntity
  8
AM_2 ( Kontur 0.25)
100
AcDbSpline
210
0.0
220
0.0
230
1.0
 70
     8
 71
     3
 72
    10
 73
     6
 74
     0
 42
0.0000000001
 43
0.0000000001
 40
29.29572467169512
 40
29.29572467169512
 40
29.29572467169512
 40
29.29572467169512
 40
71.17070356599137
 40
74.53363183549175
 40
79.05964029186219
 40
79.05964029186219
 40
79.05964029186219
 40
79.05964029186219
 10
4160.09707896656
 20
3546.100863064668
 30
0.0
 10
4171.120128324864
 20
3547.356792963802
 30
0.0
 10
4181.92775741448
 20
3556.679396014362
 30
0.0
 10
4196.491579021244
 20
3553.247860891097
 30
0.0
 10
4196.666334255221
 20
3550.839285869193
 30
0.0
 10
4196.766594112067
 20
3549.457448075872
 30
0.0
  0
SPLINE
  5
290A
330
74
100
AcDbEntity
  8
AM_2 ( Kontur 0.25)
100
AcDbSpline
210
0.0
220
0.0
230
1.0
 70
     8
 71
     3
 72
    14
 73
    10
 74
     0
 42
0.0000000001
 43
0.0000000001
 40
76.82676989542816
 40
76.82676989542816
 40
76.82676989542816
 40
76.82676989542816
 40
77.9870644368766
 40
87.73291956716915
 40
100.7008506286425
 40
111.422155335124
 40
116.6225380960957
 40
127.9426008144845
 40
185.2659915644711
 40
185.2659915644711
 40
185.2659915644711
 40
185.2659915644711
 10
4170.332860492563
 20
3512.716093003655
 30
0.0
 10
4170.634610417957
 20
3512.649495985247
 30
0.0
 10
4173.486969842998
 20
3512.092718194911
 30
0.0
 10
4180.13378744813
 20
3512.279633805852
 30
0.0
 10
4188.139858781203
 20
3523.534756197796
 30
0.0
 10
4192.334175556419
 20
3512.467517075999
 30
0.0
 10
4200.234690259455
 20
3512.229240319869
 30
0.0
 10
4217.542370873632
 20
3523.371966760783
 30
0.0
 10
4228.902315559816
 20
3538.164847824373
 30
0.0
 10
4238.388880049823
 20
3550.518219612652
 30
0.0
  0
SPLINE
  5
290B
330
74
100
AcDbEntity
  8
AM_2 ( Kontur 0.25)
100
AcDbSpline
210
0.0
220
0.0
230
1.0
 70
     8
 71
     3
 72
    13
 73
     9
 74
     7
 42
0.0000000001
 43
0.0000000001
 44
0.0000000001
 40
0.0
 40
0.0
 40
0.0
 40
0.0
 40
11.84175107851837
 40
26.99493682609413
 40
30.3688460760566
 40
34.5439408943772
 40
40.78633772136259
 40
46.11278285969845
 40
46.11278285969845
 40
46.11278285969845
 40
46.11278285969845
 10
4238.388880049823
 20
3550.518219612652
 30
0.0
 10
4238.045856629669
 20
3546.590517350514
 30
0.0
 10
4237.263886505865
 20
3537.636767712043
 30
0.0
 10
4236.29233388135
 20
3527.491080619288
 30
0.0
 10
4234.403274958548
 20
3520.190185559928
 30
0.0
 10
4231.354707545306
 20
3516.178322682212
 30
0.0
 10
4224.536871679553
 20
3517.451787668556
 30
0.0
 10
4223.494275415062
 20
3521.39867691413
 30
0.0
 10
4223.014250549922
 20
3523.215875999109
 30
0.0
 11
4238.388880049823
 21
3550.518219612652
 31
0.0
 11
4237.344098998891
 21
3538.722648360644
 31
0.0
 11
4235.280705894701
 21
3523.710604955494
 31
0.0
 11
4234.262093841451
 21
3520.494132802349
 31
0.0
 11
4231.456950727679
 21
3517.401789216454
 31
0.0
 11
4225.295300093756
 21
3518.402578710319
 31
0.0
 11
4223.014250549922
 21
3523.215875999109
 31
0.0
  0
SPLINE
  5
290C
330
74
100
AcDbEntity
  8
AM_2 ( Kontur 0.25)
100
AcDbSpline
210
0.0
220
0.0
230
1.0
 70
     8
 71
     3
 72
    12
 73
     8
 74
     0
 42
0.0000000001
 43
0.0000000001
 40
0.2094809425514192
 40
0.2094809425514192
 40
0.2094809425514192
 40
0.2094809425514192
 40
7.378083141439497
 40
15.02801745628717
 40
23.63339279305255
 40
33.74130360878141
 40
48.87136692722079
 40
48.87136692722079
 40
48.87136692722079
 40
48.87136692722079
 10
4217.009423435553
 20
3519.292360367501
 30
0.0
 10
4218.098034733823
 20
3517.626272283779
 30
0.0
 10
4220.372911958864
 20
3514.211284796911
 30
0.0
 10
4226.795414607477
 20
3512.157257113989
 30
0.0
 10
4233.94204161011
 20
3512.643693506483
 30
0.0
 10
4242.686941193485
 20
3517.666645684676
 30
0.0
 10
4243.270814045486
 20
3524.879312109016
 30
0.0
 10
4243.154473369441
 20
3529.266284882107
 30
0.0
  0
SPLINE
  5
290D
330
74
100
AcDbEntity
  8
AM_2 ( Kontur 0.25)
100
AcDbSpline
210
0.0
220
0.0
230
1.0
 70
     8
 71
     3
 72
    17
 73
    13
 74
     0
 42
0.0000000001
 43
0.0000000001
 40
80.77064250775974
 40
80.77064250775974
 40
80.77064250775974
 40
80.77064250775974
 40
82.75219090712093
 40
87.23347413009777
 40
92.45693041780191
 40
97.29410671661666
 40
106.7167370381517
 40
133.6369996485395
 40
160.5572622589273
 40
166.9421329478337
 40
173.32700363674
 40
177.6796617549528
 40
177.6796617549528
 40
177.6796617549528
 40
177.6796617549528
 10
4246.047598198175
 20
3555.40752876478
 30
0.0
 10
4246.22200592949
 20
3555.884231090364
 30
0.0
 10
4246.98373536562
 20
3557.233937226839
 30
0.0
 10
4250.10845482086
 20
3557.838217590899
 30
0.0
 10
4254.813965024085
 20
3561.769617787586
 30
0.0
 10
4247.03357182788
 20
3562.854999460536
 30
0.0
 10
4238.447238495561
 20
3556.830902696111
 30
0.0
 10
4227.118677637303
 20
3543.202459241913
 30
0.0
 10
4216.326023448352
 20
3531.106860836048
 30
0.0
 10
4208.15587342804
 20
3524.217853272992
 30
0.0
 10
4205.111140174319
 20
3520.502039344333
 30
0.0
 10
4202.281805125725
 20
3519.64643214493
 30
0.0
 10
4201.134881248767
 20
3519.29959576485
 30
0.0
  0
SPLINE
  5
290E
330
74
100
AcDbEntity
  8
AM_2 ( Kontur 0.25)
100
AcDbSpline
210
0.0
220
0.0
230
1.0
 70
     8
 71
     3
 72
    29
 73
    25
 74
    23
 42
0.0000000001
 43
0.0000000001
 44
0.0000000001
 40
0.0
 40
0.0
 40
0.0
 40
0.0
 40
11.44966394114609
 40
21.55960216557877
 40
25.59008230166955
 40
30.49421473628906
 40
38.85059663733898
 40
42.21369026654203
 40
55.91611653353417
 40
66.47873435522915
 40
74.1143686459329
 40
79.94917461294744
 40
84.50774170652106
 40
90.79239650677425
 40
100.987930368189
 40
112.7888619667441
 40
125.2009748360773
 40
135.8352638233092
 40
141.6810155567078
 40
147.7266494369444
 40
154.1222532728218
 40
162.199641083407
 40
173.1212646641675
 40
186.5948294301939
 40
186.5948294301939
 40
186.5948294301939
 40
186.5948294301939
 10
4288.468653185374
 20
3528.853526524693
 30
0.0
 10
4285.750107307765
 20
3526.129964975305
 30
0.0
 10
4280.631112733654
 20
3521.001525941625
 30
0.0
 10
4272.628334983053
 20
3517.554280938505
 30
0.0
 10
4266.048933084701
 20
3517.005215518505
 30
0.0
 10
4261.11367950521
 20
3520.978701852861
 30
0.0
 10
4261.318140537803
 20
3528.369005236712
 30
0.0
 10
4269.077278322432
 20
3532.538224212518
 30
0.0
 10
4278.434580362022
 20
3533.26604736516
 30
0.0
 10
4287.569422941613
 20
3539.286509571555
 30
0.0
 10
4292.845841497104
 20
3545.574530083204
 30
0.0
 10
4293.88074416652
 20
3551.868375398691
 30
0.0
 10
4290.999720757918
 20
3557.220115962188
 30
0.0
 10
4283.363645932842
 20
3558.595213310169
 30
0.0
 10
4274.389277833512
 20
3555.372348536797
 30
0.0
 10
4264.621461830958
 20
3549.0460552899
 30
0.0
 10
4257.317572942465
 20
3539.876719924223
 30
0.0
 10
4253.280603961051
 20
3530.747454843506
 30
0.0
 10
4253.474174946794
 20
3523.244098180692
 30
0.0
 10
4254.629420752642
 20
3516.900918695517
 30
0.0
 10
4260.844005878555
 20
3512.8702225698
 30
0.0
 10
4269.451425057296
 20
3511.815146927875
 30
0.0
 10
4279.937646011234
 20
3515.759112311111
 30
0.0
 10
4286.371864412131
 20
3520.73851223433
 30
0.0
 10
4289.925510201245
 20
3523.48865568097
 30
0.0
 11
4288.468653185374
 21
3528.853526524693
 31
0.0
 11
4279.855177931955
 21
3521.310128853622
 31
0.0
 11
4270.490421180439
 21
3517.500643076411
 31
0.0
 11
4266.459941044348
 21
3517.500643076411
 31
0.0
 11
4262.639010142826
 21
3520.574891274276
 31
0.0
 11
4263.124856281697
 21
3528.917137494902
 31
0.0
 11
4265.943746634806
 21
3530.751328307205
 31
0.0
 11
4279.093041205331
 21
3534.605227358804
 31
0.0
 11
4287.998012313142
 21
3540.285930204072
 31
0.0
 11
4292.539407077635
 21
3546.424223502246
 31
0.0
 11
4293.200128088047
 21
3552.221499450406
 31
0.0
 11
4290.933364442159
 21
3556.176536304886
 31
0.0
 11
4284.892457947101
 21
3557.909837974045
 31
0.0
 11
4275.056788352378
 21
3555.224970315725
 31
0.0
 11
4265.222189071194
 21
3548.70249811783
 31
0.0
 11
4257.4120225655
 21
3539.055641374082
 31
0.0
 11
4253.629305590304
 21
3529.116871100576
 31
0.0
 11
4253.629305590304
 21
3523.271119367177
 31
0.0
 11
4255.311505776296
 21
3517.464236249005
 31
0.0
 11
4260.436580226661
 21
3513.638355918453
 31
0.0
 11
4268.432362840959
 21
3512.49308117959
 31
0.0
 11
4278.824214601806
 21
3515.853330965008
 31
0.0
 11
4289.925510201245
 21
3523.48865568097
 31
0.0
  0
SPLINE
  5
290F
330
74
100
AcDbEntity
  8
AM_2 ( Kontur 0.25)
100
AcDbSpline
210
0.0
220
0.0
230
1.0
 70
    11
 71
     3
 72
    15
 73
    11
 74
     9
 42
0.0000000001
 43
0.0000000001
 44
0.0000000001
 40
0.0
 40
0.0
 40
0.0
 40
0.0
 40
8.663003136346658
 40
17.74603860344329
 40
22.04816502015688
 40
25.74430469409535
 40
31.5845832451085
 40
41.30590666490866
 40
43.37119418301062
 40
44.08407445799016
 40
44.08407445799016
 40
44.08407445799016
 40
44.08407445799016
 10
4320.818230910416
 20
3570.835755547609
 30
0.0
 10
4318.292909008859
 20
3569.621779954468
 30
0.0
 10
4313.119823042501
 20
3567.134968233353
 30
0.0
 10
4305.001972980852
 20
3564.501634013911
 30
0.0
 10
4305.059594629923
 20
3557.096991843823
 30
0.0
 10
4310.663622290598
 20
3556.37868790633
 30
0.0
 10
4315.762512500135
 20
3560.82868224279
 30
0.0
 10
4318.497167697329
 20
3566.037228647048
 30
0.0
 10
4320.371497272751
 20
3569.761024454815
 30
0.0
 10
4320.727006844676
 20
3570.616292915751
 30
0.0
 10
4320.818230910416
 20
3570.835755547609
 30
0.0
 11
4320.818230910416
 21
3570.835755547609
 31
0.0
 11
4312.91798462731
 21
3567.28135939543
 31
0.0
 11
4305.531874904201
 21
3561.994875076458
 31
0.0
 11
4305.990920649135
 21
3557.71730933068
 31
0.0
 11
4309.594510782208
 21
3556.895368552961
 31
0.0
 11
4314.494631404413
 21
3560.073051897989
 31
0.0
 11
4319.643331490111
 21
3568.318960972185
 31
0.0
 11
4320.540536727544
 21
3570.179185500124
 31
0.0
 11
4320.818230910416
 21
3570.835755547609
 31
0.0
  0
SPLINE
  5
2910
330
74
100
AcDbEntity
  8
AM_2 ( Kontur 0.25)
100
AcDbSpline
210
0.0
220
0.0
230
1.0
 70
    11
 71
     3
 72
    15
 73
    11
 74
     9
 42
0.0000000001
 43
0.0000000001
 44
0.0000000001
 40
0.0
 40
0.0
 40
0.0
 40
0.0
 40
8.663003136346825
 40
17.7460386034441
 40
22.04816502015614
 40
25.74430469409361
 40
31.58458324510905
 40
41.3059066649095
 40
43.37119418300829
 40
44.08407445798919
 40
44.08407445798919
 40
44.08407445798919
 40
44.08407445798919
 10
4315.020211161001
 20
3550.128799664336
 30
0.0
 10
4312.494889259443
 20
3548.914824071198
 30
0.0
 10
4307.321803293084
 20
3546.428012350087
 30
0.0
 10
4299.203953231436
 20
3543.794678130639
 30
0.0
 10
4299.261574880506
 20
3536.390035960552
 30
0.0
 10
4304.865602541182
 20
3535.67173202306
 30
0.0
 10
4309.964492750716
 20
3540.121726359521
 30
0.0
 10
4312.699147947931
 20
3545.330272763764
 30
0.0
 10
4314.573477523328
 20
3549.054068571546
 30
0.0
 10
4314.928987095259
 20
3549.909337032478
 30
0.0
 10
4315.020211161001
 20
3550.128799664336
 30
0.0
 11
4315.020211161001
 21
3550.128799664336
 31
0.0
 11
4307.119964877893
 21
3546.574403512161
 31
0.0
 11
4299.733855154786
 21
3541.287919193185
 31
0.0
 11
4300.192900899718
 21
3537.010353447409
 31
0.0
 11
4303.79649103279
 21
3536.18841266969
 31
0.0
 11
4308.696611654997
 21
3539.366096014718
 31
0.0
 11
4313.845311740698
 21
3547.612005088911
 31
0.0
 11
4314.742516978124
 21
3549.472229616852
 31
0.0
 11
4315.020211161001
 21
3550.128799664336
 31
0.0
  0
SPLINE
  5
2911
330
74
100
AcDbEntity
  8
AM_2 ( Kontur 0.25)
100
AcDbSpline
210
0.0
220
0.0
230
1.0
 70
     8
 71
     3
 72
    16
 73
    12
 74
     0
 42
0.0000000001
 43
0.0000000001
 40
0.0
 40
0.0
 40
0.0
 40
0.0
 40
19.49599945796019
 40
35.55644828708982
 40
46.90882418482302
 40
52.57758285702468
 40
59.01510100257528
 40
62.27337091053763
 40
65.35356432814818
 40
71.10392861451507
 40
76.94560568245778
 40
76.94560568245778
 40
76.94560568245778
 40
76.94560568245778
 10
4196.766594112067
 20
3549.457448075872
 30
0.0
 10
4191.788960545218
 20
3547.690713125109
 30
0.0
 10
4182.71084321693
 20
3544.468574139659
 30
0.0
 10
4171.607307652922
 20
3538.256388485621
 30
0.0
 10
4164.522125015764
 20
3532.615969979481
 30
0.0
 10
4161.129799974278
 20
3527.063545017184
 30
0.0
 10
4160.800826376473
 20
3522.833323838934
 30
0.0
 10
4160.957883642349
 20
3519.342035921846
 30
0.0
 10
4162.483055930061
 20
3516.359982955101
 30
0.0
 10
4165.70702787678
 20
3513.747947032532
 30
0.0
 10
4168.747731630215
 20
3512.968285907617
 30
0.0
 10
4170.332860492563
 20
3512.716093003655
 30
0.0
  0
SPLINE
  5
2912
330
74
100
AcDbEntity
  8
AM_2 ( Kontur 0.25)
100
AcDbSpline
210
0.0
220
0.0
230
1.0
 70
     8
 71
     3
 72
    16
 73
    12
 74
     0
 42
0.0000000001
 43
0.0000000001
 40
0.0
 40
0.0
 40
0.0
 40
0.0
 40
15.15750207772487
 40
27.25697387011311
 40
34.43931065860861
 40
39.65009329418549
 40
44.56345646904475
 40
47.71213136306745
 40
54.82006013499383
 40
60.56606766894518
 40
71.55366046898641
 40
71.55366046898641
 40
71.55366046898641
 40
71.55366046898641
 10
4195.513660648752
 20
3540.694606448885
 30
0.0
 10
4191.581556165519
 20
3539.420905216906
 30
0.0
 10
4184.510650378769
 20
3537.130472332891
 30
0.0
 10
4176.761029490392
 20
3532.138597307005
 30
0.0
 10
4170.759211727596
 20
3528.700090660561
 30
0.0
 10
4169.348050752605
 20
3523.746023107185
 30
0.0
 10
4171.076729262145
 20
3520.266369380678
 30
0.0
 10
4174.562052395074
 20
3517.924762292364
 30
0.0
 10
4179.333791955256
 20
3518.056339772682
 30
0.0
 10
4184.887672715209
 20
3521.388792456116
 30
0.0
 10
4188.319470485128
 20
3524.515181242856
 30
0.0
 10
4190.115716139191
 20
3526.884271071447
 30
0.0
  0
SPLINE
  5
2913
330
74
100
AcDbEntity
  8
AM_2 ( Kontur 0.25)
100
AcDbSpline
210
0.0
220
0.0
230
1.0
 70
     8
 71
     3
 72
    10
 73
     6
 74
     4
 42
0.0000000001
 43
0.0000000001
 44
0.0000000001
 40
0.0
 40
0.0
 40
0.0
 40
0.0
 40
6.06760930378487
 40
11.98188059299699
 40
15.12010427371325
 40
15.12010427371325
 40
15.12010427371325
 40
15.12010427371325
 10
4190.115716139191
 20
3526.884271071447
 30
0.0
 10
4191.413508764616
 20
3528.440899629526
 30
0.0
 10
4193.976296758001
 20
3531.514818297778
 30
0.0
 10
4196.237000299232
 20
3536.094797980093
 30
0.0
 10
4197.023285003878
 20
3539.009517976387
 30
0.0
 10
4197.295865909818
 20
3540.019962427934
 30
0.0
 11
4190.115716139191
 21
3526.884271071447
 31
0.0
 11
4193.811301991604
 21
3531.696601886221
 31
0.0
 11
4196.409955840578
 21
3537.009379225392
 31
0.0
 11
4197.295865909818
 21
3540.019962427934
 31
0.0
  0
LINE
  5
2914
330
74
100
AcDbEntity
  8
AM_2 ( Kontur 0.25)
100
AcDbLine
 10
4195.513660648752
 20
3540.694606448885
 30
0.0
 11
4197.295865909818
 21
3540.019962427934
 31
0.0
  0
SPLINE
  5
2915
330
74
100
AcDbEntity
  8
AM_2 ( Kontur 0.25)
100
AcDbSpline
210
0.0
220
0.0
230
1.0
 70
     8
 71
     3
 72
    10
 73
     6
 74
     0
 42
0.0000000001
 43
0.0000000001
 40
0.0
 40
0.0
 40
0.0
 40
0.0
 40
6.720829269292407
 40
18.98594895565098
 40
32.53410848116109
 40
32.53410848116109
 40
32.53410848116109
 40
32.53410848116109
 10
4246.047598198175
 20
3555.40752876478
 30
0.0
 10
4245.686499330999
 20
3553.627926061175
 30
0.0
 10
4244.666416185697
 20
3548.600652678953
 30
0.0
 10
4243.266154684321
 20
3539.855894770435
 30
0.0
 10
4243.309455953482
 20
3532.957825029397
 30
0.0
 10
4243.154473369441
 20
3529.266284882107
 30
0.0
  0
LINE
  5
2916
330
74
100
AcDbEntity
  8
AM_2 ( Kontur 0.25)
100
AcDbLine
 10
4223.014250549921
 20
3523.215875999109
 30
0.0
 11
4217.009423435553
 21
3519.292360367501
 31
0.0
  0
LINE
  5
2917
330
74
100
AcDbEntity
  8
AM_2 ( Kontur 0.25)
100
AcDbLine
 10
4147.509274874148
 20
3561.183780510074
 30
0.0
 11
4140.771419314622
 21
3556.51613318813
 31
0.0
  0
LINE
  5
2918
330
74
100
AcDbEntity
  8
AM_2 ( Kontur 0.25)
100
AcDbLine
 10
4289.925510201245
 20
3523.48865568097
 30
0.0
 11
4288.468653185374
 21
3528.853526524693
 31
0.0
  0
SPLINE
  5
2919
330
74
100
AcDbEntity
  8
AM_2 ( Kontur 0.25)
100
AcDbSpline
210
0.0
220
0.0
230
1.0
 70
     8
 71
     3
 72
    15
 73
    11
 74
     0
 42
0.0000000001
 43
0.0000000001
 40
0.0
 40
0.0
 40
0.0
 40
0.0
 40
8.45925447378854
 40
19.20850535527661
 40
29.49452603167964
 40
33.294415627964
 40
35.23585065027483
 40
44.35486976400721
 40
55.46532870482259
 40
57.67055361541051
 40
57.67055361541051
 40
57.67055361541051
 40
57.67055361541051
 10
4267.94657888871
 20
3535.639167929776
 30
0.0
 10
4270.142003516086
 20
3536.280612389091
 30
0.0
 10
4275.127173999229
 20
3537.737146102557
 30
0.0
 10
4282.224199034766
 20
3541.779509107189
 30
0.0
 10
4286.563621975266
 20
3546.890052386994
 30
0.0
 10
4288.221313172594
 20
3551.321351102579
 30
0.0
 10
4285.87189369495
 20
3555.106616367326
 30
0.0
 10
4278.369285806285
 20
3551.152120851946
 30
0.0
 10
4274.384571168893
 20
3547.756914881485
 30
0.0
 10
4271.686579363277
 20
3545.310956981498
 30
0.0
 10
4271.25934370946
 20
3544.884950736201
 30
0.0
  0
SPLINE
  5
291A
330
74
100
AcDbEntity
  8
AM_2 ( Kontur 0.25)
100
AcDbSpline
210
0.0
220
0.0
230
1.0
 70
     8
 71
     3
 72
    11
 73
     7
 74
     5
 42
0.0000000001
 43
0.0000000001
 44
0.0000000001
 40
0.0
 40
0.0
 40
0.0
 40
0.0
 40
4.505901336696221
 40
7.082071054699646
 40
9.253056934940275
 40
10.71766502888807
 40
10.71766502888807
 40
10.71766502888807
 40
10.71766502888807
 10
4271.25934370946
 20
3544.884950736201
 30
0.0
 10
4270.165421746811
 20
3543.84152882489
 30
0.0
 10
4268.446069171405
 20
3542.201548815618
 30
0.0
 10
4266.8133939338
 20
3539.582112443167
 30
0.0
 10
4265.818168051763
 20
3537.730556012625
 30
0.0
 10
4265.654799700761
 20
3536.521991873505
 30
0.0
 10
4265.588986353376
 20
3536.035118797805
 30
0.0
 11
4271.25934370946
 21
3544.884950736201
 31
0.0
 11
4268.167730201385
 21
3541.606982955284
 31
0.0
 11
4266.764591512177
 21
3539.446461667538
 31
0.0
 11
4265.854444317665
 21
3537.475469080913
 31
0.0
 11
4265.588986353376
 21
3536.035118797805
 31
0.0
  0
LINE
  5
291B
330
74
100
AcDbEntity
  8
AM_2 ( Kontur 0.25)
100
AcDbLine
 10
4267.94657888871
 20
3535.639167929776
 30
0.0
 11
4265.588986353379
 21
3536.035118797805
 31
0.0
  0
DIMENSION
  5
2BB5
102
{ACAD_XDICTIONARY
360
2BC2
102
}
102
{ACAD_REACTORS
330
2BC3
102
}
330
74
100
AcDbEntity
  8
AM_5 ( Bemassung)
100
AcDbDimension
  2
*D19
 10
4622.387813082587
 20
4089.741819015205
 30
0.0
 11
4609.239791254482
 21
4228.741819015206
 31
0.0
 70
    32
 71
     5
 42
277.9999999999986
  3
AM_DIN$0
100
AcDbAlignedDimension
 13
4516.972010848205
 23
4367.741819015203
 33
-0.0000000000000002
 14
4516.972010848205
 24
4089.741819015205
 34
-0.0000000000000002
 50
90.0
100
AcDbRotatedDimension
1001
ACAD
1000
DSTYLE
1002
{
1070
    40
1040
4.0
1002
}
1001
ACAD_DSTYLE_DIMINSPECT
1070
   396
1000
100%
1070
   395
1000

1070
   394
1070
    33
1070
   393
1070
     0
  0
DIMENSION
  5
2C57
102
{ACAD_XDICTIONARY
360
2C64
102
}
102
{ACAD_REACTORS
330
2C65
102
}
330
74
100
AcDbEntity
  8
AM_5 ( Bemassung)
100
AcDbDimension
  2
*D22
 10
3916.972001837115
 20
4452.888168431224
 30
0.0
 11
4216.97200634266
 21
4466.42773186915
 31
0.0
 70
    32
  1
%%c <>
 71
     5
 42
600.0000090110911
  3
AM_DIN$0
100
AcDbAlignedDimension
 13
4516.972010848205
 23
4367.741819015203
 33
0.0
 14
3916.972001837115
 24
4367.741819015203
 34
0.0
100
AcDbRotatedDimension
1001
ACAD
1000
DSTYLE
1002
{
1070
    40
1040
4.0
1002
}
1001
ACAD_DSTYLE_DIMINSPECT
1070
   396
1000
100%
1070
   395
1000

1070
   394
1070
    33
1070
   393
1070
     0
  0
DIMENSION
  5
2C93
102
{ACAD_XDICTIONARY
360
2CA0
102
}
102
{ACAD_REACTORS
330
2CA1
102
}
330
74
100
AcDbEntity
  8
AM_5 ( Bemassung)
100
AcDbDimension
  2
*D23
 10
4356.972008445246
 20
3995.678193684706
 30
0.0
 11
4216.97200634266
 21
4009.217757122632
 31
0.0
 70
    32
  1
%%c <>
 71
     5
 42
280.0000042051706
  3
AM_DIN$0
100
AcDbAlignedDimension
 13
4076.972004240075
 23
4089.741819015205
 33
-0.0000000000000002
 14
4356.972008445246
 24
4089.741819015205
 34
-0.0000000000000002
 50
0.0000000000001132
100
AcDbRotatedDimension
1001
ACAD
1000
DSTYLE
1002
{
1070
    40
1040
4.0
1002
}
1001
ACAD_DSTYLE_DIMINSPECT
1070
   396
1000
100%
1070
   395
1000

1070
   394
1070
    33
1070
   393
1070
     0
  0
ENDSEC
  0
SECTION
  2
OBJECTS
  0
DICTIONARY
  5
C
330
0
100
AcDbDictionary
281
     1
  3
ACAD_2007HEADERVARS_RT
350
3237
  3
ACAD_COLOR
350
6A
  3
ACAD_GROUP
350
D
  3
ACAD_LAYOUT
350
69
  3
ACAD_MATERIAL
350
10
  3
ACAD_MLEADERSTYLE
350
6D
  3
ACAD_MLINESTYLE
350
66
  3
ACAD_PLOTSETTINGS
350
68
  3
ACAD_PLOTSTYLENAME
350
E
  3
ACAD_SCALELIST
350
3A
  3
ACAD_TABLESTYLE
350
6B
  3
ACAD_VISUALSTYLE
350
29
  3
ACDB_RECOMPOSE_DATA
350
1B4
  3
AcDbVariableDictionary
350
1C9
  3
AcmDictionary
350
166
  3
AMG
350
10C
  3
AMGSNAPSETTINGS
350
19B
  3
ASE_INDEX_DICTIONARY
350
3234
  0
DICTIONARY
  5
1B6
330
8
100
AcDbDictionary
280
     1
281
     1
  0
DICTIONARY
  5
256
330
2
100
AcDbDictionary
280
     1
281
     1
  3
AMLAYER_GROUPCOLORS
360
257
  0
DICTIONARY
  5
1A2
330
5C
100
AcDbDictionary
280
     1
281
     1
  3
ADSK_XREC_LAYER_RECONCILED
360
D41
  0
DICTIONARY
  5
2C7
330
27F
100
AcDbDictionary
280
     1
281
     1
  3
ADSK_XREC_LAYER_RECONCILED
360
D4D
  0
DICTIONARY
  5
2C9
330
2AA
100
AcDbDictionary
280
     1
281
     1
  3
ADSK_XREC_LAYER_RECONCILED
360
D4E
  0
DICTIONARY
  5
2CB
330
2AC
100
AcDbDictionary
280
     1
281
     1
  3
ADSK_XREC_LAYER_RECONCILED
360
D4F
  0
DICTIONARY
  5
2CD
330
2AE
100
AcDbDictionary
280
     1
281
     1
  3
ADSK_XREC_LAYER_RECONCILED
360
D50
  0
DICTIONARY
  5
2CF
330
2B1
100
AcDbDictionary
280
     1
281
     1
  3
ADSK_XREC_LAYER_RECONCILED
360
D51
  0
DICTIONARY
  5
A1F
330
9FC
100
AcDbDictionary
280
     1
281
     1
  3
ADSK_XREC_LAYER_RECONCILED
360
D54
  0
DICTIONARY
  5
A88
330
74
100
AcDbDictionary
280
     1
281
     1
  3
ACAD_SORTENTS
360
A89
  0
DICTIONARY
  5
2BC2
330
2BB5
100
AcDbDictionary
280
     1
281
     1
  3
ACAD_DIMASSOC
360
2BC3
  0
DICTIONARY
  5
2C64
330
2C57
100
AcDbDictionary
280
     1
281
     1
  3
ACAD_DIMASSOC
360
2C65
  0
DICTIONARY
  5
2CA0
330
2C93
100
AcDbDictionary
280
     1
281
     1
  3
ACAD_DIMASSOC
360
2CA1
  0
DICTIONARY
  5
3237
102
{ACAD_REACTORS
330
C
102
}
330
C
100
AcDbDictionary
281
     1
  3
DIMARCSYM
350
3238
  0
DICTIONARY
  5
6A
102
{ACAD_REACTORS
330
C
102
}
330
C
100
AcDbDictionary
281
     1
  0
DICTIONARY
  5
D
102
{ACAD_REACTORS
330
C
102
}
330
C
100
AcDbDictionary
281
     1
  0
DICTIONARY
  5
69
102
{ACAD_REACTORS
330
C
102
}
330
C
100
AcDbDictionary
281
     1
  3
Layout1
350
73
  3
Model
350
77
  0
DICTIONARY
  5
10
102
{ACAD_REACTORS
330
C
102
}
330
C
100
AcDbDictionary
281
     1
  3
ByBlock
350
19
  3
ByLayer
350
11
  3
Global
350
21
  0
DICTIONARY
  5
6D
102
{ACAD_REACTORS
330
C
102
}
330
C
100
AcDbDictionary
281
     1
  3
Standard
350
6E
  0
DICTIONARY
  5
66
102
{ACAD_REACTORS
330
C
102
}
330
C
100
AcDbDictionary
281
     1
  3
Standard
350
67
  0
DICTIONARY
  5
68
102
{ACAD_REACTORS
330
C
102
}
330
C
100
AcDbDictionary
281
     1
  0
ACDBDICTIONARYWDFLT
  5
E
102
{ACAD_REACTORS
330
C
102
}
330
C
100
AcDbDictionary
281
     1
  3
Normal
350
F
100
AcDbDictionaryWithDefault
340
F
  0
DICTIONARY
  5
3A
102
{ACAD_REACTORS
330
C
102
}
330
C
100
AcDbDictionary
281
     1
  3
*A1
350
1153
  3
A0
350
3B
  3
A1
350
3C
  3
A2
350
3D
  3
A3
350
3E
  3
A4
350
3F
  3
A5
350
40
  3
A6
350
41
  3
A7
350
42
  3
A8
350
43
  3
A9
350
44
  3
B0
350
45
  3
B1
350
46
  3
B2
350
47
  3
B3
350
48
  3
B4
350
49
  3
B5
350
4A
  3
B6
350
4B
  3
B7
350
4C
  3
B8
350
4D
  3
B9
350
4E
  3
C0
350
4F
  3
C1
350
50
  3
C2
350
51
  3
C3
350
52
  3
C4
350
53
  3
C5
350
54
  3
C6
350
55
  3
C7
350
56
  3
C8
350
57
  3
C9
350
58
  3
D0
350
59
  3
D1
350
5A
  3
D2
350
5B
  0
DICTIONARY
  5
6B
102
{ACAD_REACTORS
330
C
102
}
330
C
100
AcDbDictionary
281
     1
  3
Standard
350
6C
  0
DICTIONARY
  5
29
102
{ACAD_REACTORS
330
C
102
}
330
C
100
AcDbDictionary
281
     1
  3
2dWireframe
350
2F
  3
3D Hidden
350
31
  3
3dWireframe
350
30
  3
Basic
350
2E
  3
Brighten
350
35
  3
ColorChange
350
39
  3
Conceptual
350
32
  3
Dim
350
34
  3
Facepattern
350
38
  3
Flat
350
2A
  3
FlatWithEdges
350
2B
  3
Gouraud
350
2C
  3
GouraudWithEdges
350
2D
  3
Linepattern
350
37
  3
Realistic
350
33
  3
Thicken
350
36
  0
XRECORD
  5
1B4
102
{ACAD_REACTORS
330
C
102
}
330
C
100
AcDbXrecord
280
     1
 90
        1
330
6C
  0
DICTIONARY
  5
1C9
102
{ACAD_REACTORS
330
C
102
}
330
C
100
AcDbDictionary
281
     1
  3
CANNOSCALE
350
1CC
  3
CMLEADERSTYLE
350
1CB
  3
CTABLESTYLE
350
1CA
  3
DIMASSOC
350
1CF
  3
INDEXCTL
350
1CE
  3
LIGHTINGUNITS
350
2D3
  3
MSLTSCALE
350
2D2
  3
SORTENTS
350
1CD
  0
DICTIONARY
  5
166
102
{ACAD_REACTORS
330
C
102
}
330
C
100
AcDbDictionary
281
     1
  3
AcmBOM
350
2B6
  3
AcmStdDictionary
350
171
  3
AMDTSECTSYM_ARROWCOLOR
350
186
  0
DICTIONARY
  5
10C
102
{ACAD_REACTORS
330
C
102
}
330
C
100
AcDbDictionary
281
     1
  0
DICTIONARY
  5
19B
102
{ACAD_REACTORS
330
C
102
}
330
C
100
AcDbDictionary
281
     1
  0
DICTIONARY
  5
3234
102
{ACAD_REACTORS
330
C
102
}
330
C
100
AcDbDictionary
281
     1
  3
ASEBlockHierarchyIndexRecord
350
3235
1001
DCO15
1040
1634624667.354
  0
DICTIONARY
  5
257
102
{ACAD_REACTORS
330
256
102
}
330
256
100
AcDbDictionary
280
     1
281
     1
  0
XRECORD
  5
D41
102
{ACAD_REACTORS
330
1A2
102
}
330
1A2
100
AcDbXrecord
280
     1
290
     1
  0
XRECORD
  5
D4D
102
{ACAD_REACTORS
330
2C7
102
}
330
2C7
100
AcDbXrecord
280
     1
290
     1
  0
XRECORD
  5
D4E
102
{ACAD_REACTORS
330
2C9
102
}
330
2C9
100
AcDbXrecord
280
     1
290
     1
  0
XRECORD
  5
D4F
102
{ACAD_REACTORS
330
2CB
102
}
330
2CB
100
AcDbXrecord
280
     1
290
     1
  0
XRECORD
  5
D50
102
{ACAD_REACTORS
330
2CD
102
}
330
2CD
100
AcDbXrecord
280
     1
290
     1
  0
XRECORD
  5
D51
102
{ACAD_REACTORS
330
2CF
102
}
330
2CF
100
AcDbXrecord
280
     1
290
     1
  0
XRECORD
  5
D54
102
{ACAD_REACTORS
330
A1F
102
}
330
A1F
100
AcDbXrecord
280
     1
290
     1
  0
SORTENTSTABLE
  5
A89
102
{ACAD_REACTORS
330
A88
102
}
330
A88
100
AcDbSortentsTable
330
74
  0
DIMASSOC
  5
2BC3
102
{ACAD_REACTORS
330
2BC2
102
}
330
2BC2
100
AcDbDimAssoc
330
2BB5
 90
        3
 70
     0
 71
     0
  1
AcDbOsnapPointRef
 72
     6
331
20B5
 73
     0
 91
        0
 40
1.0
 10
0.0
 20
0.0
 30
0.0
332
20B6
 74
     0
 92
        0
 75
     0
  1
AcDbOsnapPointRef
 72
     6
331
20B9
 73
     0
 91
        0
 40
1.0
 10
0.0
 20
0.0
 30
0.0
332
20D1
 74
     0
 92
        0
 75
     0
  0
DIMASSOC
  5
2C65
102
{ACAD_REACTORS
330
2C64
102
}
330
2C64
100
AcDbDimAssoc
330
2C57
 90
        2
 70
     0
 71
     0
  1
AcDbOsnapPointRef
 72
     6
331
20B5
 73
     0
 91
        0
 40
0.0
 10
0.0
 20
0.0
 30
0.0
332
20B7
 74
     0
 92
        0
 75
     0
  0
DIMASSOC
  5
2CA1
102
{ACAD_REACTORS
330
2CA0
102
}
330
2CA0
100
AcDbDimAssoc
330
2C93
 90
        3
 70
     0
 71
     0
  1
AcDbOsnapPointRef
 72
     6
331
20B9
 73
     0
 91
        0
 40
0.2666666666666697
 10
0.0
 20
0.0
 30
0.0
332
20FB
 74
     0
 92
        0
 75
     0
  1
AcDbOsnapPointRef
 72
     6
331
20B9
 73
     0
 91
        0
 40
0.7333333333333274
 10
0.0
 20
0.0
 30
0.0
332
20FC
 74
     0
 92
        0
 75
     0
  0
XRECORD
  5
3238
102
{ACAD_REACTORS
330
3237
102
}
330
3237
100
AcDbXrecord
280
     1
 70
     1
  0
LAYOUT
  5
73
102
{ACAD_REACTORS
330
69
102
}
330
69
100
AcDbPlotSettings
  1

  2
\\OASE42\HP DesignJet 500 42+HPGL2 Card
  4

  6

 40
0.0
 41
0.0
 42
0.0
 43
0.0
 44
0.0
 45
0.0
 46
0.0
 47
0.0
 48
0.0
 49
0.0
140
0.0
141
0.0
142
1.0
143
1.0
 70
   688
 72
     0
 73
     0
 74
     5
  7
C:\Dokumente und Einstellungen\guzb562\Anwendungsdaten\Autodesk\Autodesk Mechanical Desktop 2008\R17.1\deu\Plot Styles\OASE.ctb
 75
    16
147
1.0
 76
     0
 77
     2
 78
   300
148
0.0
149
0.0
100
AcDbLayout
  1
Layout1
 70
     1
 71
     1
 10
0.0
 20
0.0
 11
12.0
 21
9.0
 12
0.0
 22
0.0
 32
0.0
 14
1.000000000000000E+20
 24
1.000000000000000E+20
 34
1.000000000000000E+20
 15
-1.000000000000000E+20
 25
-1.000000000000000E+20
 35
-1.000000000000000E+20
146
0.0
 13
0.0
 23
0.0
 33
0.0
 16
1.0
 26
0.0
 36
0.0
 17
0.0
 27
1.0
 37
0.0
 76
     0
330
70
  0
LAYOUT
  5
77
102
{ACAD_REACTORS
330
69
102
}
330
69
100
AcDbPlotSettings
  1

  2
HP DesignJet 500 42+HPGL2 Card.pc3
  4
User622
  6

 40
0.0
 41
0.0845947265625
 42
0.084716796875
 43
0.0
 44
841.0786743164063
 45
1189.05859375
 46
0.0
 47
0.0
 48
0.0
 49
0.0
140
0.0
141
0.0
142
1.0
143
8.825566186707652
 70
 11952
 72
     1
 73
     1
 74
     0
  7
C:\Dokumente und Einstellungen\guzb562\Anwendungsdaten\Autodesk\Autodesk Mechanical Desktop 2008\R17.1\deu\Plot Styles\OASE.ctb
 75
     0
147
0.1133071781282563
 76
     0
 77
     2
 78
   300
148
375.8176034259132
149
23.23337679269889
100
AcDbLayout
  1
Model
 70
     1
 71
     0
 10
0.0
 20
0.0
 11
12.0
 21
9.0
 12
0.0
 22
0.0
 32
0.0
 14
0.0
 24
0.0
 34
0.0
 15
0.0
 25
0.0
 35
0.0
146
0.0
 13
0.0
 23
0.0
 33
0.0
 16
1.0
 26
0.0
 36
0.0
 17
0.0
 27
1.0
 37
0.0
 76
     0
330
74
331
82
1001
ACAD_PSEXT
1000
HP DesignJet 500 42+HPGL2 Card.pc3
1000
HP DesignJet 500 42+HPGL2 Card
1000
\\oase42
1000

1070
     0
  0
MATERIAL
  5
19
102
{ACAD_XDICTIONARY
360
1A
102
}
102
{ACAD_REACTORS
330
10
102
}
330
10
100
AcDbMaterial
  1
ByBlock
 72
     0
 43
0.0208333333333333
 43
0.0
 43
0.0
 43
0.0
 43
0.0
 43
0.0208333333333333
 43
0.0
 43
0.0
 43
0.0
 43
0.0
 43
1.0
 43
0.0
 43
0.0
 43
0.0
 43
0.0
 43
1.0
 77
     0
 47
0.0208333333333333
 47
0.0
 47
0.0
 47
0.0
 47
0.0
 47
0.0208333333333333
 47
0.0
 47
0.0
 47
0.0
 47
0.0
 47
1.0
 47
0.0
 47
0.0
 47
0.0
 47
0.0
 47
1.0
171
     0
 49
0.0208333333333333
 49
0.0
 49
0.0
 49
0.0
 49
0.0
 49
0.0208333333333333
 49
0.0
 49
0.0
 49
0.0
 49
0.0
 49
1.0
 49
0.0
 49
0.0
 49
0.0
 49
0.0
 49
1.0
175
     0
142
0.0208333333333333
142
0.0
142
0.0
142
0.0
142
0.0
142
0.0208333333333333
142
0.0
142
0.0
142
0.0
142
0.0
142
1.0
142
0.0
142
0.0
142
0.0
142
0.0
142
1.0
179
     0
144
0.0208333333333333
144
0.0
144
0.0
144
0.0
144
0.0
144
0.0208333333333333
144
0.0
144
0.0
144
0.0
144
0.0
144
1.0
144
0.0
144
0.0
144
0.0
144
0.0
144
1.0
147
0.0208333333333333
147
0.0
147
0.0
147
0.0
147
0.0
147
0.0208333333333333
147
0.0
147
0.0
147
0.0
147
0.0
147
1.0
147
0.0
147
0.0
147
0.0
147
0.0
147
1.0
  0
MATERIAL
  5
11
102
{ACAD_XDICTIONARY
360
12
102
}
102
{ACAD_REACTORS
330
10
102
}
330
10
100
AcDbMaterial
  1
ByLayer
 72
     0
 43
0.0208333333333333
 43
0.0
 43
0.0
 43
0.0
 43
0.0
 43
0.0208333333333333
 43
0.0
 43
0.0
 43
0.0
 43
0.0
 43
1.0
 43
0.0
 43
0.0
 43
0.0
 43
0.0
 43
1.0
 77
     0
 47
0.0208333333333333
 47
0.0
 47
0.0
 47
0.0
 47
0.0
 47
0.0208333333333333
 47
0.0
 47
0.0
 47
0.0
 47
0.0
 47
1.0
 47
0.0
 47
0.0
 47
0.0
 47
0.0
 47
1.0
171
     0
 49
0.0208333333333333
 49
0.0
 49
0.0
 49
0.0
 49
0.0
 49
0.0208333333333333
 49
0.0
 49
0.0
 49
0.0
 49
0.0
 49
1.0
 49
0.0
 49
0.0
 49
0.0
 49
0.0
 49
1.0
175
     0
142
0.0208333333333333
142
0.0
142
0.0
142
0.0
142
0.0
142
0.0208333333333333
142
0.0
142
0.0
142
0.0
142
0.0
142
1.0
142
0.0
142
0.0
142
0.0
142
0.0
142
1.0
179
     0
144
0.0208333333333333
144
0.0
144
0.0
144
0.0
144
0.0
144
0.0208333333333333
144
0.0
144
0.0
144
0.0
144
0.0
144
1.0
144
0.0
144
0.0
144
0.0
144
0.0
144
1.0
147
0.0208333333333333
147
0.0
147
0.0
147
0.0
147
0.0
147
0.0208333333333333
147
0.0
147
0.0
147
0.0
147
0.0
147
1.0
147
0.0
147
0.0
147
0.0
147
0.0
147
1.0
  0
MATERIAL
  5
21
102
{ACAD_XDICTIONARY
360
22
102
}
102
{ACAD_REACTORS
330
10
102
}
330
10
100
AcDbMaterial
  1
Global
 72
     0
 43
0.0208333333333333
 43
0.0
 43
0.0
 43
0.0
 43
0.0
 43
0.0208333333333333
 43
0.0
 43
0.0
 43
0.0
 43
0.0
 43
1.0
 43
0.0
 43
0.0
 43
0.0
 43
0.0
 43
1.0
 77
     0
 47
0.0208333333333333
 47
0.0
 47
0.0
 47
0.0
 47
0.0
 47
0.0208333333333333
 47
0.0
 47
0.0
 47
0.0
 47
0.0
 47
1.0
 47
0.0
 47
0.0
 47
0.0
 47
0.0
 47
1.0
171
     0
 49
0.0208333333333333
 49
0.0
 49
0.0
 49
0.0
 49
0.0
 49
0.0208333333333333
 49
0.0
 49
0.0
 49
0.0
 49
0.0
 49
1.0
 49
0.0
 49
0.0
 49
0.0
 49
0.0
 49
1.0
175
     0
142
0.0208333333333333
142
0.0
142
0.0
142
0.0
142
0.0
142
0.0208333333333333
142
0.0
142
0.0
142
0.0
142
0.0
142
1.0
142
0.0
142
0.0
142
0.0
142
0.0
142
1.0
179
     0
144
0.0208333333333333
144
0.0
144
0.0
144
0.0
144
0.0
144
0.0208333333333333
144
0.0
144
0.0
144
0.0
144
0.0
144
1.0
144
0.0
144
0.0
144
0.0
144
0.0
144
1.0
147
0.0208333333333333
147
0.0
147
0.0
147
0.0
147
0.0
147
0.0208333333333333
147
0.0
147
0.0
147
0.0
147
0.0
147
1.0
147
0.0
147
0.0
147
0.0
147
0.0
147
1.0
  0
MLEADERSTYLE
  5
6E
102
{ACAD_REACTORS
330
6D
102
}
330
6D
100
AcDbMLeaderStyle
170
     2
171
     1
172
     0
 90
        2
 40
0.0
 41
0.0
173
     1
 91
-1056964608
340
62
 92
       -2
290
     1
 42
0.09
291
     1
 43
0.36
  3
Standard
 44
0.18
300

342
5D
174
     1
178
     6
175
     1
176
     0
 93
-1056964608
 45
0.18
292
     0
297
     0
 46
0.18
 94
-1056964608
 47
1.0
 49
1.0
140
1.0
293
     1
141
0.0
294
     1
177
     0
142
1.0
295
     0
296
     0
143
0.125
1001
ACAD_MLEADERVER
1070
     2
  0
MLINESTYLE
  5
67
102
{ACAD_REACTORS
330
66
102
}
330
66
100
AcDbMlineStyle
  2
STANDARD
 70
     0
  3

 62
   256
 51
90.0
 52
90.0
 71
     2
 49
0.5
 62
   256
  6
BYLAYER
 49
-0.5
 62
   256
  6
BYLAYER
  0
ACDBPLACEHOLDER
  5
F
102
{ACAD_REACTORS
330
E
102
}
330
E
  0
SCALE
  5
1153
102
{ACAD_REACTORS
330
3A
102
}
330
3A
100
AcDbScale
 70
     0
300
1:2.5
140
1.0
141
2.5
290
     0
  0
SCALE
  5
3B
102
{ACAD_REACTORS
330
3A
102
}
330
3A
100
AcDbScale
 70
     0
300
1:1
140
1.0
141
1.0
290
     1
  0
SCALE
  5
3C
102
{ACAD_REACTORS
330
3A
102
}
330
3A
100
AcDbScale
 70
     0
300
1:2
140
1.0
141
2.0
290
     0
  0
SCALE
  5
3D
102
{ACAD_REACTORS
330
3A
102
}
330
3A
100
AcDbScale
 70
     0
300
1:4
140
1.0
141
4.0
290
     0
  0
SCALE
  5
3E
102
{ACAD_REACTORS
330
3A
102
}
330
3A
100
AcDbScale
 70
     0
300
1:5
140
1.0
141
5.0
290
     0
  0
SCALE
  5
3F
102
{ACAD_REACTORS
330
3A
102
}
330
3A
100
AcDbScale
 70
     0
300
1:8
140
1.0
141
8.0
290
     0
  0
SCALE
  5
40
102
{ACAD_REACTORS
330
3A
102
}
330
3A
100
AcDbScale
 70
     0
300
1:10
140
1.0
141
10.0
290
     0
  0
SCALE
  5
41
102
{ACAD_REACTORS
330
3A
102
}
330
3A
100
AcDbScale
 70
     0
300
1:16
140
1.0
141
16.0
290
     0
  0
SCALE
  5
42
102
{ACAD_REACTORS
330
3A
102
}
330
3A
100
AcDbScale
 70
     0
300
1:20
140
1.0
141
20.0
290
     0
  0
SCALE
  5
43
102
{ACAD_REACTORS
330
3A
102
}
330
3A
100
AcDbScale
 70
     0
300
1:30
140
1.0
141
30.0
290
     0
  0
SCALE
  5
44
102
{ACAD_REACTORS
330
3A
102
}
330
3A
100
AcDbScale
 70
     0
300
1:40
140
1.0
141
40.0
290
     0
  0
SCALE
  5
45
102
{ACAD_REACTORS
330
3A
102
}
330
3A
100
AcDbScale
 70
     0
300
1:50
140
1.0
141
50.0
290
     0
  0
SCALE
  5
46
102
{ACAD_REACTORS
330
3A
102
}
330
3A
100
AcDbScale
 70
     0
300
1:100
140
1.0
141
100.0
290
     0
  0
SCALE
  5
47
102
{ACAD_REACTORS
330
3A
102
}
330
3A
100
AcDbScale
 70
     0
300
2:1
140
2.0
141
1.0
290
     0
  0
SCALE
  5
48
102
{ACAD_REACTORS
330
3A
102
}
330
3A
100
AcDbScale
 70
     0
300
4:1
140
4.0
141
1.0
290
     0
  0
SCALE
  5
49
102
{ACAD_REACTORS
330
3A
102
}
330
3A
100
AcDbScale
 70
     0
300
8:1
140
8.0
141
1.0
290
     0
  0
SCALE
  5
4A
102
{ACAD_REACTORS
330
3A
102
}
330
3A
100
AcDbScale
 70
     0
300
10:1
140
10.0
141
1.0
290
     0
  0
SCALE
  5
4B
102
{ACAD_REACTORS
330
3A
102
}
330
3A
100
AcDbScale
 70
     0
300
100:1
140
100.0
141
1.0
290
     0
  0
SCALE
  5
4C
102
{ACAD_REACTORS
330
3A
102
}
330
3A
100
AcDbScale
 70
     0
300
1/128" = 1'-0"
140
0.0078125
141
12.0
290
     0
  0
SCALE
  5
4D
102
{ACAD_REACTORS
330
3A
102
}
330
3A
100
AcDbScale
 70
     0
300
1/64" = 1'-0"
140
0.015625
141
12.0
290
     0
  0
SCALE
  5
4E
102
{ACAD_REACTORS
330
3A
102
}
330
3A
100
AcDbScale
 70
     0
300
1/32" = 1'-0"
140
0.03125
141
12.0
290
     0
  0
SCALE
  5
4F
102
{ACAD_REACTORS
330
3A
102
}
330
3A
100
AcDbScale
 70
     0
300
1/16" = 1'-0"
140
0.0625
141
12.0
290
     0
  0
SCALE
  5
50
102
{ACAD_REACTORS
330
3A
102
}
330
3A
100
AcDbScale
 70
     0
300
3/32" = 1'-0"
140
0.09375
141
12.0
290
     0
  0
SCALE
  5
51
102
{ACAD_REACTORS
330
3A
102
}
330
3A
100
AcDbScale
 70
     0
300
1/8" = 1'-0"
140
0.125
141
12.0
290
     0
  0
SCALE
  5
52
102
{ACAD_REACTORS
330
3A
102
}
330
3A
100
AcDbScale
 70
     0
300
3/16" = 1'-0"
140
0.1875
141
12.0
290
     0
  0
SCALE
  5
53
102
{ACAD_REACTORS
330
3A
102
}
330
3A
100
AcDbScale
 70
     0
300
1/4" = 1'-0"
140
0.25
141
12.0
290
     0
  0
SCALE
  5
54
102
{ACAD_REACTORS
330
3A
102
}
330
3A
100
AcDbScale
 70
     0
300
3/8" = 1'-0"
140
0.375
141
12.0
290
     0
  0
SCALE
  5
55
102
{ACAD_REACTORS
330
3A
102
}
330
3A
100
AcDbScale
 70
     0
300
1/2" = 1'-0"
140
0.5
141
12.0
290
     0
  0
SCALE
  5
56
102
{ACAD_REACTORS
330
3A
102
}
330
3A
100
AcDbScale
 70
     0
300
3/4" = 1'-0"
140
0.75
141
12.0
290
     0
  0
SCALE
  5
57
102
{ACAD_REACTORS
330
3A
102
}
330
3A
100
AcDbScale
 70
     0
300
1" = 1'-0"
140
1.0
141
12.0
290
     0
  0
SCALE
  5
58
102
{ACAD_REACTORS
330
3A
102
}
330
3A
100
AcDbScale
 70
     0
300
1-1/2" = 1'-0"
140
1.5
141
12.0
290
     0
  0
SCALE
  5
59
102
{ACAD_REACTORS
330
3A
102
}
330
3A
100
AcDbScale
 70
     0
300
3" = 1'-0"
140
3.0
141
12.0
290
     0
  0
SCALE
  5
5A
102
{ACAD_REACTORS
330
3A
102
}
330
3A
100
AcDbScale
 70
     0
300
6" = 1'-0"
140
6.0
141
12.0
290
     0
  0
SCALE
  5
5B
102
{ACAD_REACTORS
330
3A
102
}
330
3A
100
AcDbScale
 70
     0
300
1'-0" = 1'-0"
140
12.0
141
12.0
290
     0
  0
TABLESTYLE
  5
6C
102
{ACAD_XDICTIONARY
360
1B2
102
}
102
{ACAD_REACTORS
330
6B
102
}
330
6B
100
AcDbTableStyle
  3
Standard
 70
     0
 71
     0
 40
0.06
 41
0.06
280
     0
281
     0
  7
STANDARD
140
0.18
170
     2
 62
     0
 63
     7
283
     0
274
    -2
284
     1
 64
     0
275
    -2
285
     1
 65
     0
276
    -2
286
     1
 66
     0
277
    -2
287
     1
 67
     0
278
    -2
288
     1
 68
     0
279
    -2
289
     1
 69
     0
  7
STANDARD
140
0.25
170
     5
 62
     0
 63
     7
283
     0
274
    -2
284
     1
 64
     0
275
    -2
285
     1
 65
     0
276
    -2
286
     1
 66
     0
277
    -2
287
     1
 67
     0
278
    -2
288
     1
 68
     0
279
    -2
289
     1
 69
     0
  7
STANDARD
140
0.18
170
     5
 62
     0
 63
     7
283
     0
274
    -2
284
     1
 64
     0
275
    -2
285
     1
 65
     0
276
    -2
286
     1
 66
     0
277
    -2
287
     1
 67
     0
278
    -2
288
     1
 68
     0
279
    -2
289
     1
 69
     0
  0
VISUALSTYLE
  5
2F
102
{ACAD_REACTORS
330
29
102
}
330
29
100
AcDbVisualStyle
  2
2dWireframe
 70
     4
 71
     0
 72
     2
 73
     0
 90
        0
 40
-0.6
 41
-30.0
 62
     5
 63
     7
 74
     1
 91
        4
 64
     7
 65
   257
 75
     1
175
     1
 42
1.0
 92
        0
 66
   257
 43
1.0
 76
     1
 77
     6
 78
     2
 67
     7
 79
     5
170
     0
171
     0
290
     0
174
     0
 93
        1
 44
0.0
173
     0
291
     0
 45
0.0
1001
ACAD
1000
AcDbSavedByObjectVersion
1070
     0
1000
AcDbSavedByObjectVersion
1070
     0
  0
VISUALSTYLE
  5
31
102
{ACAD_REACTORS
330
29
102
}
330
29
100
AcDbVisualStyle
  2
3D Hidden
 70
     6
 71
     1
 72
     2
 73
     2
 90
        0
 40
-0.6
 41
-30.0
 62
     5
 63
     7
 74
     2
 91
        2
 64
     7
 65
   257
 75
     2
175
     1
 42
40.0
 92
        0
 66
   257
 43
1.0
 76
     1
 77
     6
 78
     2
 67
     7
 79
     3
170
     0
171
     0
290
     0
174
     0
 93
        1
 44
0.0
173
     0
291
     0
 45
0.0
1001
ACAD
1000
AcDbSavedByObjectVersion
1070
     0
1000
AcDbSavedByObjectVersion
1070
     0
  0
VISUALSTYLE
  5
30
102
{ACAD_REACTORS
330
29
102
}
330
29
100
AcDbVisualStyle
  2
3dWireframe
 70
     5
 71
     0
 72
     2
 73
     0
 90
        0
 40
-0.6
 41
-30.0
 62
     5
 63
     7
 74
     1
 91
        4
 64
     7
 65
   257
 75
     1
175
     1
 42
1.0
 92
        0
 66
   257
 43
1.0
 76
     1
 77
     6
 78
     2
 67
     7
 79
     5
170
     0
171
     0
290
     0
174
     0
 93
        1
 44
0.0
173
     0
291
     0
 45
0.0
1001
ACAD
1000
AcDbSavedByObjectVersion
1070
     0
1000
AcDbSavedByObjectVersion
1070
     0
  0
VISUALSTYLE
  5
2E
102
{ACAD_REACTORS
330
29
102
}
330
29
100
AcDbVisualStyle
  2
Basic
 70
     7
 71
     1
 72
     0
 73
     1
 90
        0
 40
-0.6
 41
-30.0
 62
     5
 63
     7
 74
     0
 91
        4
 64
     7
 65
   257
 75
     1
175
     1
 42
1.0
 92
        8
 66
     7
 43
1.0
 76
     1
 77
     6
 78
     2
 67
     7
 79
     5
170
     0
171
     0
290
     0
174
     0
 93
        1
 44
0.0
173
     0
291
     1
 45
0.0
1001
ACAD
1000
AcDbSavedByObjectVersion
1070
     0
1000
AcDbSavedByObjectVersion
1070
     0
  0
VISUALSTYLE
  5
35
102
{ACAD_REACTORS
330
29
102
}
330
29
100
AcDbVisualStyle
  2
Brighten
 70
    12
 71
     2
 72
     2
 73
     0
 90
        0
 40
-0.6
 41
-30.0
 62
     5
 63
     7
 74
     1
 91
        4
 64
     7
 65
   257
 75
     1
175
     1
 42
1.0
 92
        8
 66
     7
 43
1.0
 76
     1
 77
     6
 78
     2
 67
     7
 79
     5
170
     0
171
     0
290
     0
174
     0
 93
        1
 44
50.0
173
     0
291
     1
 45
0.0
1001
ACAD
1000
AcDbSavedByObjectVersion
1070
     0
1000
AcDbSavedByObjectVersion
1070
     0
  0
VISUALSTYLE
  5
39
102
{ACAD_REACTORS
330
29
102
}
330
29
100
AcDbVisualStyle
  2
ColorChange
 70
    16
 71
     2
 72
     2
 73
     3
 90
        0
 40
-0.6
 41
-30.0
 62
     5
 63
     8
 74
     1
 91
        4
 64
     7
 65
   257
 75
     1
175
     1
 42
1.0
 92
        8
 66
     8
 43
1.0
 76
     1
 77
     6
 78
     2
 67
     7
 79
     5
170
     0
171
     0
290
     0
174
     0
 93
        1
 44
0.0
173
     0
291
     1
 45
0.0
1001
ACAD
1000
AcDbSavedByObjectVersion
1070
     0
1000
AcDbSavedByObjectVersion
1070
     0
  0
VISUALSTYLE
  5
32
102
{ACAD_REACTORS
330
29
102
}
330
29
100
AcDbVisualStyle
  2
Conceptual
 70
     9
 71
     3
 72
     2
 73
     0
 90
        0
 40
-0.6
 41
-30.0
 62
     5
 63
     7
 74
     2
 91
        2
 64
     7
 65
   257
 75
     1
175
     1
 42
40.0
 92
        8
 66
     7
 43
1.0
 76
     1
 77
     6
 78
     2
 67
     7
 79
     3
170
     0
171
     0
290
     0
174
     0
 93
        1
 44
0.0
173
     0
291
     0
 45
0.0
1001
ACAD
1000
AcDbSavedByObjectVersion
1070
     0
1000
AcDbSavedByObjectVersion
1070
     0
  0
VISUALSTYLE
  5
34
102
{ACAD_REACTORS
330
29
102
}
330
29
100
AcDbVisualStyle
  2
Dim
 70
    11
 71
     2
 72
     2
 73
     0
 90
        0
 40
-0.6
 41
-30.0
 62
     5
 63
     7
 74
     1
 91
        4
 64
     7
 65
   257
 75
     1
175
     1
 42
1.0
 92
        8
 66
     7
 43
1.0
 76
     1
 77
     6
 78
     2
 67
     7
 79
     5
170
     0
171
     0
290
     0
174
     0
 93
        1
 44
-50.0
173
     0
291
     1
 45
0.0
1001
ACAD
1000
AcDbSavedByObjectVersion
1070
     0
1000
AcDbSavedByObjectVersion
1070
     0
  0
VISUALSTYLE
  5
38
102
{ACAD_REACTORS
330
29
102
}
330
29
100
AcDbVisualStyle
  2
Facepattern
 70
    15
 71
     2
 72
     2
 73
     0
 90
        0
 40
-0.6
 41
-30.0
 62
     5
 63
     7
 74
     1
 91
        4
 64
     7
 65
   257
 75
     1
175
     1
 42
1.0
 92
        8
 66
     7
 43
1.0
 76
     1
 77
     6
 78
     2
 67
     7
 79
     5
170
     0
171
     0
290
     0
174
     0
 93
        1
 44
0.0
173
     0
291
     1
 45
0.0
1001
ACAD
1000
AcDbSavedByObjectVersion
1070
     0
1000
AcDbSavedByObjectVersion
1070
     0
  0
VISUALSTYLE
  5
2A
102
{ACAD_REACTORS
330
29
102
}
330
29
100
AcDbVisualStyle
  2
Flat
 70
     0
 71
     2
 72
     1
 73
     1
 90
        2
 40
-0.6
 41
30.0
 62
     5
 63
     7
 74
     0
 91
        4
 64
     7
 65
   257
 75
     1
175
     1
 42
1.0
 92
        8
 66
     7
 43
1.0
 76
     1
 77
     6
 78
     2
 67
     7
 79
     5
170
     0
171
     0
290
     0
174
     0
 93
       13
 44
0.0
173
     0
291
     1
 45
0.0
1001
ACAD
1000
AcDbSavedByObjectVersion
1070
     0
1000
AcDbSavedByObjectVersion
1070
     0
  0
VISUALSTYLE
  5
2B
102
{ACAD_REACTORS
330
29
102
}
330
29
100
AcDbVisualStyle
  2
FlatWithEdges
 70
     1
 71
     2
 72
     1
 73
     1
 90
        2
 40
-0.6
 41
30.0
 62
     5
 63
     7
 74
     1
 91
        4
 64
     7
 65
   257
 75
     1
175
     1
 42
1.0
 92
        0
 66
   257
 43
1.0
 76
     1
 77
     6
 78
     2
 67
     7
 79
     5
170
     0
171
     0
290
     0
174
     0
 93
       13
 44
0.0
173
     0
291
     1
 45
0.0
1001
ACAD
1000
AcDbSavedByObjectVersion
1070
     0
1000
AcDbSavedByObjectVersion
1070
     0
  0
VISUALSTYLE
  5
2C
102
{ACAD_REACTORS
330
29
102
}
330
29
100
AcDbVisualStyle
  2
Gouraud
 70
     2
 71
     2
 72
     2
 73
     1
 90
        2
 40
-0.6
 41
30.0
 62
     5
 63
     7
 74
     0
 91
        4
 64
     7
 65
   257
 75
     1
175
     1
 42
1.0
 92
        0
 66
     7
 43
1.0
 76
     1
 77
     6
 78
     2
 67
     7
 79
     5
170
     0
171
     0
290
     0
174
     0
 93
       13
 44
0.0
173
     0
291
     1
 45
0.0
1001
ACAD
1000
AcDbSavedByObjectVersion
1070
     0
1000
AcDbSavedByObjectVersion
1070
     0
  0
VISUALSTYLE
  5
2D
102
{ACAD_REACTORS
330
29
102
}
330
29
100
AcDbVisualStyle
  2
GouraudWithEdges
 70
     3
 71
     2
 72
     2
 73
     1
 90
        2
 40
-0.6
 41
30.0
 62
     5
 63
     7
 74
     1
 91
        4
 64
     7
 65
   257
 75
     1
175
     1
 42
1.0
 92
        0
 66
   257
 43
1.0
 76
     1
 77
     6
 78
     2
 67
     7
 79
     5
170
     0
171
     0
290
     0
174
     0
 93
       13
 44
0.0
173
     0
291
     1
 45
0.0
1001
ACAD
1000
AcDbSavedByObjectVersion
1070
     0
1000
AcDbSavedByObjectVersion
1070
     0
  0
VISUALSTYLE
  5
37
102
{ACAD_REACTORS
330
29
102
}
330
29
100
AcDbVisualStyle
  2
Linepattern
 70
    14
 71
     2
 72
     2
 73
     0
 90
        0
 40
-0.6
 41
-30.0
 62
     5
 63
     7
 74
     1
 91
        4
 64
     7
 65
   257
 75
     7
175
     7
 42
1.0
 92
        8
 66
     7
 43
1.0
 76
     1
 77
     6
 78
     2
 67
     7
 79
     5
170
     0
171
     0
290
     0
174
     0
 93
        1
 44
0.0
173
     0
291
     1
 45
0.0
1001
ACAD
1000
AcDbSavedByObjectVersion
1070
     0
1000
AcDbSavedByObjectVersion
1070
     0
  0
VISUALSTYLE
  5
33
102
{ACAD_REACTORS
330
29
102
}
330
29
100
AcDbVisualStyle
  2
Realistic
 70
     8
 71
     2
 72
     2
 73
     0
 90
        0
 40
-0.6
 41
-30.0
 62
     5
 63
     7
 74
     1
 91
        0
 64
     7
 65
   257
 75
     1
175
     1
 42
1.0
 92
        8
 66
     8
 43
1.0
 76
     1
 77
     6
 78
     2
 67
     7
 79
     5
170
     0
171
     0
290
     0
174
     0
 93
       13
 44
0.0
173
     0
291
     0
 45
0.0
1001
ACAD
1000
AcDbSavedByObjectVersion
1070
     0
1000
AcDbSavedByObjectVersion
1070
     0
  0
VISUALSTYLE
  5
36
102
{ACAD_REACTORS
330
29
102
}
330
29
100
AcDbVisualStyle
  2
Thicken
 70
    13
 71
     2
 72
     2
 73
     0
 90
        0
 40
-0.6
 41
-30.0
 62
     5
 63
     7
 74
     1
 91
        4
 64
     7
 65
   257
 75
     1
175
     1
 42
1.0
 92
       12
 66
     7
 43
1.0
 76
     1
 77
     6
 78
     2
 67
     7
 79
     5
170
     0
171
     0
290
     0
174
     0
 93
        1
 44
0.0
173
     0
291
     1
 45
0.0
1001
ACAD
1000
AcDbSavedByObjectVersion
1070
     0
1000
AcDbSavedByObjectVersion
1070
     0
  0
DICTIONARYVAR
  5
1CC
102
{ACAD_REACTORS
330
1C9
102
}
330
1C9
100
DictionaryVariables
280
     0
  1
1:4
  0
DICTIONARYVAR
  5
1CB
102
{ACAD_REACTORS
330
1C9
102
}
330
1C9
100
DictionaryVariables
280
     0
  1
STANDARD
  0
DICTIONARYVAR
  5
1CA
102
{ACAD_REACTORS
330
1C9
102
}
330
1C9
100
DictionaryVariables
280
     0
  1
STANDARD
  0
DICTIONARYVAR
  5
1CF
102
{ACAD_REACTORS
330
1C9
102
}
330
1C9
100
DictionaryVariables
280
     0
  1
1
  0
DICTIONARYVAR
  5
1CE
102
{ACAD_REACTORS
330
1C9
102
}
330
1C9
100
DictionaryVariables
280
     0
  1
0
  0
DICTIONARYVAR
  5
2D3
102
{ACAD_REACTORS
330
1C9
102
}
330
1C9
100
DictionaryVariables
280
     0
  1
0
  0
DICTIONARYVAR
  5
2D2
102
{ACAD_REACTORS
330
1C9
102
}
330
1C9
100
DictionaryVariables
280
     0
  1
0
  0
DICTIONARYVAR
  5
1CD
102
{ACAD_REACTORS
330
1C9
102
}
330
1C9
100
DictionaryVariables
280
     0
  1
127
  0
DICTIONARY
  5
2B6
102
{ACAD_REACTORS
330
166
102
}
330
166
100
AcDbDictionary
281
     1
  0
DICTIONARY
  5
171
102
{ACAD_REACTORS
330
166
102
}
330
166
100
AcDbDictionary
281
     1
  0
XRECORD
  5
186
102
{ACAD_REACTORS
330
166
102
}
330
166
100
AcDbXrecord
280
     1
 90
-1023410169
  0
XRECORD
  5
3235
102
{ACAD_REACTORS
330
3234
102
}
330
3234
100
AcDbXrecord
280
     1
  0
DICTIONARY
  5
1A
330
19
100
AcDbDictionary
280
     1
281
     1
  3
ACAD_XREC_ROUNDTRIP
360
30ED
  3
BUMPTILE
360
1C
  3
DIFFUSETILE
360
1B
  3
OPACITYTILE
360
1F
  3
REFLECTIONTILE
360
1E
  3
REFRACTIONTILE
360
20
  3
SPECULARTILE
360
1D
  0
DICTIONARY
  5
12
330
11
100
AcDbDictionary
280
     1
281
     1
  3
ACAD_XREC_ROUNDTRIP
360
30EC
  3
BUMPTILE
360
14
  3
DIFFUSETILE
360
13
  3
OPACITYTILE
360
17
  3
REFLECTIONTILE
360
16
  3
REFRACTIONTILE
360
18
  3
SPECULARTILE
360
15
  0
DICTIONARY
  5
22
330
21
100
AcDbDictionary
280
     1
281
     1
  3
ACAD_XREC_ROUNDTRIP
360
30EE
  3
BUMPTILE
360
24
  3
DIFFUSETILE
360
23
  3
OPACITYTILE
360
27
  3
REFLECTIONTILE
360
26
  3
REFRACTIONTILE
360
28
  3
SPECULARTILE
360
25
  0
DICTIONARY
  5
1B2
330
6C
100
AcDbDictionary
280
     1
281
     1
  3
ACAD_ROUNDTRIP_2008_TABLESTYLE_CELLSTYLEMAP
360
3236
  3
ACAD_XREC_ROUNDTRIP
360
3239
  0
XRECORD
  5
30ED
102
{ACAD_REACTORS
330
1A
102
}
330
1A
100
AcDbXrecord
280
     1
102
MATERIAL
148
0.0
149
0.0
149
0.0
 93
        0
 94
      127
282
     0
 72
     0
 77
     0
171
     0
175
     0
179
     0
273
     0
  0
XRECORD
  5
1C
102
{ACAD_REACTORS
330
1A
102
}
330
1A
100
AcDbXrecord
280
     1
270
     1
271
     1
  0
XRECORD
  5
1B
102
{ACAD_REACTORS
330
1A
102
}
330
1A
100
AcDbXrecord
280
     1
270
     1
271
     1
  0
XRECORD
  5
1F
102
{ACAD_REACTORS
330
1A
102
}
330
1A
100
AcDbXrecord
280
     1
270
     1
271
     1
  0
XRECORD
  5
1E
102
{ACAD_REACTORS
330
1A
102
}
330
1A
100
AcDbXrecord
280
     1
270
     1
271
     1
  0
XRECORD
  5
20
102
{ACAD_REACTORS
330
1A
102
}
330
1A
100
AcDbXrecord
280
     1
270
     1
271
     1
  0
XRECORD
  5
1D
102
{ACAD_REACTORS
330
1A
102
}
330
1A
100
AcDbXrecord
280
     1
270
     1
271
     1
  0
XRECORD
  5
30EC
102
{ACAD_REACTORS
330
12
102
}
330
12
100
AcDbXrecord
280
     1
102
MATERIAL
148
0.0
149
0.0
149
0.0
 93
        0
 94
      127
282
     0
 72
     0
 77
     0
171
     0
175
     0
179
     0
273
     0
  0
XRECORD
  5
14
102
{ACAD_REACTORS
330
12
102
}
330
12
100
AcDbXrecord
280
     1
270
     1
271
     1
  0
XRECORD
  5
13
102
{ACAD_REACTORS
330
12
102
}
330
12
100
AcDbXrecord
280
     1
270
     1
271
     1
  0
XRECORD
  5
17
102
{ACAD_REACTORS
330
12
102
}
330
12
100
AcDbXrecord
280
     1
270
     1
271
     1
  0
XRECORD
  5
16
102
{ACAD_REACTORS
330
12
102
}
330
12
100
AcDbXrecord
280
     1
270
     1
271
     1
  0
XRECORD
  5
18
102
{ACAD_REACTORS
330
12
102
}
330
12
100
AcDbXrecord
280
     1
270
     1
271
     1
  0
XRECORD
  5
15
102
{ACAD_REACTORS
330
12
102
}
330
12
100
AcDbXrecord
280
     1
270
     1
271
     1
  0
XRECORD
  5
30EE
102
{ACAD_REACTORS
330
22
102
}
330
22
100
AcDbXrecord
280
     1
102
MATERIAL
148
0.0
149
0.0
149
0.0
 93
        0
 94
      127
282
     0
 72
     0
 77
     0
171
     0
175
     0
179
     0
273
     0
  0
XRECORD
  5
24
102
{ACAD_REACTORS
330
22
102
}
330
22
100
AcDbXrecord
280
     1
270
     1
271
     1
  0
XRECORD
  5
23
102
{ACAD_REACTORS
330
22
102
}
330
22
100
AcDbXrecord
280
     1
270
     1
271
     1
  0
XRECORD
  5
27
102
{ACAD_REACTORS
330
22
102
}
330
22
100
AcDbXrecord
280
     1
270
     1
271
     1
  0
XRECORD
  5
26
102
{ACAD_REACTORS
330
22
102
}
330
22
100
AcDbXrecord
280
     1
270
     1
271
     1
  0
XRECORD
  5
28
102
{ACAD_REACTORS
330
22
102
}
330
22
100
AcDbXrecord
280
     1
270
     1
271
     1
  0
XRECORD
  5
25
102
{ACAD_REACTORS
330
22
102
}
330
22
100
AcDbXrecord
280
     1
270
     1
271
     1
  0
CELLSTYLEMAP
  5
3236
102
{ACAD_REACTORS
330
1B2
102
}
330
1B2
100
AcDbCellStyleMap
 90
        3
300
CELLSTYLE
  1
TABLEFORMAT_BEGIN
 90
        5
170
     1
 91
        0
 92
    32768
 62
   257
 93
        1
300
CONTENTFORMAT
  1
CONTENTFORMAT_BEGIN
 90
        0
 91
        0
 92
      512
 93
        0
300

 40
0.0
140
1.0
 94
        5
 62
     0
340
5D
144
0.25
309
CONTENTFORMAT_END
171
     1
301
MARGIN
  1
CELLMARGIN_BEGIN
 40
0.06
 40
0.06
 40
0.06
 40
0.06
 40
0.18
 40
0.18
309
CELLMARGIN_END
 94
        6
 95
        1
302
GRIDFORMAT
  1
GRIDFORMAT_BEGIN
 90
        0
 91
        1
 62
     0
 92
       -2
340
0
 93
        0
 40
0.045
309
GRIDFORMAT_END
 95
        2
302
GRIDFORMAT
  1
GRIDFORMAT_BEGIN
 90
        0
 91
        1
 62
     0
 92
       -2
340
0
 93
        0
 40
0.045
309
GRIDFORMAT_END
 95
        4
302
GRIDFORMAT
  1
GRIDFORMAT_BEGIN
 90
        0
 91
        1
 62
     0
 92
       -2
340
0
 93
        0
 40
0.045
309
GRIDFORMAT_END
 95
        8
302
GRIDFORMAT
  1
GRIDFORMAT_BEGIN
 90
        0
 91
        1
 62
     0
 92
       -2
340
0
 93
        0
 40
0.045
309
GRIDFORMAT_END
 95
       16
302
GRIDFORMAT
  1
GRIDFORMAT_BEGIN
 90
        0
 91
        1
 62
     0
 92
       -2
340
0
 93
        0
 40
0.045
309
GRIDFORMAT_END
 95
       32
302
GRIDFORMAT
  1
GRIDFORMAT_BEGIN
 90
        0
 91
        1
 62
     0
 92
       -2
340
0
 93
        0
 40
0.045
309
GRIDFORMAT_END
309
TABLEFORMAT_END
  1
CELLSTYLE_BEGIN
 90
        1
 91
        1
300
_TITLE
309
CELLSTYLE_END
300
CELLSTYLE
  1
TABLEFORMAT_BEGIN
 90
        5
170
     1
 91
        0
 92
        0
 62
   257
 93
        1
300
CONTENTFORMAT
  1
CONTENTFORMAT_BEGIN
 90
        0
 91
        0
 92
      512
 93
        0
300

 40
0.0
140
1.0
 94
        5
 62
     0
340
5D
144
0.18
309
CONTENTFORMAT_END
171
     1
301
MARGIN
  1
CELLMARGIN_BEGIN
 40
0.06
 40
0.06
 40
0.06
 40
0.06
 40
0.18
 40
0.18
309
CELLMARGIN_END
 94
        6
 95
        1
302
GRIDFORMAT
  1
GRIDFORMAT_BEGIN
 90
        0
 91
        1
 62
     0
 92
       -2
340
0
 93
        0
 40
0.045
309
GRIDFORMAT_END
 95
        2
302
GRIDFORMAT
  1
GRIDFORMAT_BEGIN
 90
        0
 91
        1
 62
     0
 92
       -2
340
0
 93
        0
 40
0.045
309
GRIDFORMAT_END
 95
        4
302
GRIDFORMAT
  1
GRIDFORMAT_BEGIN
 90
        0
 91
        1
 62
     0
 92
       -2
340
0
 93
        0
 40
0.045
309
GRIDFORMAT_END
 95
        8
302
GRIDFORMAT
  1
GRIDFORMAT_BEGIN
 90
        0
 91
        1
 62
     0
 92
       -2
340
0
 93
        0
 40
0.045
309
GRIDFORMAT_END
 95
       16
302
GRIDFORMAT
  1
GRIDFORMAT_BEGIN
 90
        0
 91
        1
 62
     0
 92
       -2
340
0
 93
        0
 40
0.045
309
GRIDFORMAT_END
 95
       32
302
GRIDFORMAT
  1
GRIDFORMAT_BEGIN
 90
        0
 91
        1
 62
     0
 92
       -2
340
0
 93
        0
 40
0.045
309
GRIDFORMAT_END
309
TABLEFORMAT_END
  1
CELLSTYLE_BEGIN
 90
        2
 91
        1
300
_HEADER
309
CELLSTYLE_END
300
CELLSTYLE
  1
TABLEFORMAT_BEGIN
 90
        5
170
     1
 91
        0
 92
        0
 62
   257
 93
        1
300
CONTENTFORMAT
  1
CONTENTFORMAT_BEGIN
 90
        0
 91
        0
 92
      512
 93
        0
300

 40
0.0
140
1.0
 94
        2
 62
     0
340
5D
144
0.18
309
CONTENTFORMAT_END
171
     1
301
MARGIN
  1
CELLMARGIN_BEGIN
 40
0.06
 40
0.06
 40
0.06
 40
0.06
 40
0.18
 40
0.18
309
CELLMARGIN_END
 94
        6
 95
        1
302
GRIDFORMAT
  1
GRIDFORMAT_BEGIN
 90
        0
 91
        1
 62
     0
 92
       -2
340
0
 93
        0
 40
0.045
309
GRIDFORMAT_END
 95
        2
302
GRIDFORMAT
  1
GRIDFORMAT_BEGIN
 90
        0
 91
        1
 62
     0
 92
       -2
340
0
 93
        0
 40
0.045
309
GRIDFORMAT_END
 95
        4
302
GRIDFORMAT
  1
GRIDFORMAT_BEGIN
 90
        0
 91
        1
 62
     0
 92
       -2
340
0
 93
        0
 40
0.045
309
GRIDFORMAT_END
 95
        8
302
GRIDFORMAT
  1
GRIDFORMAT_BEGIN
 90
        0
 91
        1
 62
     0
 92
       -2
340
0
 93
        0
 40
0.045
309
GRIDFORMAT_END
 95
       16
302
GRIDFORMAT
  1
GRIDFORMAT_BEGIN
 90
        0
 91
        1
 62
     0
 92
       -2
340
0
 93
        0
 40
0.045
309
GRIDFORMAT_END
 95
       32
302
GRIDFORMAT
  1
GRIDFORMAT_BEGIN
 90
        0
 91
        1
 62
     0
 92
       -2
340
0
 93
        0
 40
0.045
309
GRIDFORMAT_END
309
TABLEFORMAT_END
  1
CELLSTYLE_BEGIN
 90
        3
 91
        2
300
_DATA
309
CELLSTYLE_END
  0
XRECORD
  5
3239
102
{ACAD_REACTORS
330
1B2
102
}
330
1B2
100
AcDbXrecord
280
     1
102
ACAD_ROUNDTRIP_PRE2007_TABLESTYLE
 90
      512
 91
        0
  1

 92
      512
 93
        0
  2

 94
      512
 95
        0
  3

  0
ENDSEC
  0
EOF
