  0
SECTION
  2
HEADER
  9
$ACADVER
  1
AC1018
  9
$ACADMAINTVER
 70
   104
  9
$DWGCODEPAGE
  3
ANSI_1252
  9
$LASTSAVEDBY
  1
guzb562
  9
$INSBASE
 10
0.0
 20
0.0
 30
0.0
  9
$EXTMIN
 10
152.7812109899828
 20
91.85159539555195
 30
-0.0015258207003583
  9
$EXTMAX
 10
348.7754738603192
 20
363.6041545735862
 30
0.0000000349246037
  9
$LIMMIN
 10
0.0
 20
0.0
  9
$LIMMAX
 10
753.7957778185
 20
296.9995117188
  9
$ORTHOMODE
 70
     0
  9
$REGENMODE
 70
     1
  9
$FILLMODE
 70
     1
  9
$QTEXTMODE
 70
     0
  9
$MIRRTEXT
 70
     0
  9
$LTSCALE
 40
20.0
  9
$ATTMODE
 70
     1
  9
$TEXTSIZE
 40
3.5
  9
$TRACEWID
 40
0.05
  9
$TEXTSTYLE
  7
STANDARD
  9
$CLAYER
  8
AM_7 (Mittellinie)
  9
$CELTYPE
  6
AM_ISO08W050x2
  9
$CECOLOR
 62
   256
  9
$CELTSCALE
 40
1.0
  9
$DISPSILH
 70
     0
  9
$DIMSCALE
 40
1.0
  9
$DIMASZ
 40
5.0
  9
$DIMEXO
 40
1.0
  9
$DIMDLI
 40
10.0
  9
$DIMRND
 40
0.0
  9
$DIMDLE
 40
0.0
  9
$DIMEXE
 40
1.0
  9
$DIMTP
 40
0.1
  9
$DIMTM
 40
0.1
  9
$DIMTXT
 40
5.0
  9
$DIMCEN
 40
0.0
  9
$DIMTSZ
 40
0.0
  9
$DIMTOL
 70
     0
  9
$DIMLIM
 70
     0
  9
$DIMTIH
 70
     0
  9
$DIMTOH
 70
     0
  9
$DIMSE1
 70
     0
  9
$DIMSE2
 70
     0
  9
$DIMTAD
 70
     1
  9
$DIMZIN
 70
     8
  9
$DIMBLK
  1

  9
$DIMASO
 70
     1
  9
$DIMSHO
 70
     1
  9
$DIMPOST
  1

  9
$DIMAPOST
  1
"
  9
$DIMALT
 70
     0
  9
$DIMALTD
 70
     2
  9
$DIMALTF
 40
0.0393701
  9
$DIMLFAC
 40
1.0
  9
$DIMTOFL
 70
     1
  9
$DIMTVP
 40
0.0
  9
$DIMTIX
 70
     0
  9
$DIMSOXD
 70
     0
  9
$DIMSAH
 70
     0
  9
$DIMBLK1
  1

  9
$DIMBLK2
  1

  9
$DIMSTYLE
  2
AM_DIN
  9
$DIMCLRD
 70
   256
  9
$DIMCLRE
 70
   256
  9
$DIMCLRT
 70
     2
  9
$DIMTFAC
 40
0.71
  9
$DIMGAP
 40
1.5
  9
$DIMJUST
 70
     0
  9
$DIMSD1
 70
     0
  9
$DIMSD2
 70
     0
  9
$DIMTOLJ
 70
     0
  9
$DIMTZIN
 70
     8
  9
$DIMALTZ
 70
     0
  9
$DIMALTTZ
 70
     0
  9
$DIMUPT
 70
     0
  9
$DIMDEC
 70
     2
  9
$DIMTDEC
 70
     2
  9
$DIMALTU
 70
     2
  9
$DIMALTTD
 70
     2
  9
$DIMTXSTY
  7
STANDARD
  9
$DIMAUNIT
 70
     0
  9
$DIMADEC
 70
     0
  9
$DIMALTRND
 40
0.0
  9
$DIMAZIN
 70
     2
  9
$DIMDSEP
 70
    46
  9
$DIMATFIT
 70
     3
  9
$DIMFRAC
 70
     0
  9
$DIMLDRBLK
  1

  9
$DIMLUNIT
 70
     2
  9
$DIMLWD
 70
    -1
  9
$DIMLWE
 70
    -1
  9
$DIMTMOVE
 70
     0
  9
$LUNITS
 70
     2
  9
$LUPREC
 70
     2
  9
$SKETCHINC
 40
0.1
  9
$FILLETRAD
 40
50.0
  9
$AUNITS
 70
     0
  9
$AUPREC
 70
     0
  9
$MENU
  1
acad
  9
$ELEVATION
 40
0.0
  9
$PELEVATION
 40
0.0
  9
$THICKNESS
 40
0.0
  9
$LIMCHECK
 70
     0
  9
$CHAMFERA
 40
50.0
  9
$CHAMFERB
 40
50.0
  9
$CHAMFERC
 40
0.0
  9
$CHAMFERD
 40
0.0
  9
$SKPOLY
 70
     0
  9
$TDCREATE
 40
2444972.083333333
  9
$TDUCREATE
 40
2444972.000000000
  9
$TDUPDATE
 40
2454719.481657928
  9
$TDUUPDATE
 40
2454719.398324595
  9
$TDINDWG
 40
0.0075087153
  9
$TDUSRTIMER
 40
0.0075087153
  9
$USRTIMER
 70
     1
  9
$ANGBASE
 50
0.0
  9
$ANGDIR
 70
     0
  9
$PDMODE
 70
     3
  9
$PDSIZE
 40
0.3125
  9
$PLINEWID
 40
0.0
  9
$SPLFRAME
 70
     0
  9
$SPLINETYPE
 70
     6
  9
$SPLINESEGS
 70
     8
  9
$HANDSEED
  5
884
  9
$SURFTAB1
 70
     6
  9
$SURFTAB2
 70
     6
  9
$SURFTYPE
 70
     6
  9
$SURFU
 70
     6
  9
$SURFV
 70
     6
  9
$UCSBASE
  2

  9
$UCSNAME
  2

  9
$UCSORG
 10
0.0
 20
0.0
 30
0.0
  9
$UCSXDIR
 10
1.0
 20
0.0
 30
0.0
  9
$UCSYDIR
 10
0.0
 20
1.0
 30
0.0
  9
$UCSORTHOREF
  2

  9
$UCSORTHOVIEW
 70
     0
  9
$UCSORGTOP
 10
0.0
 20
0.0
 30
0.0
  9
$UCSORGBOTTOM
 10
0.0
 20
0.0
 30
0.0
  9
$UCSORGLEFT
 10
0.0
 20
0.0
 30
0.0
  9
$UCSORGRIGHT
 10
0.0
 20
0.0
 30
0.0
  9
$UCSORGFRONT
 10
0.0
 20
0.0
 30
0.0
  9
$UCSORGBACK
 10
0.0
 20
0.0
 30
0.0
  9
$PUCSBASE
  2

  9
$PUCSNAME
  2

  9
$PUCSORG
 10
0.0
 20
0.0
 30
0.0
  9
$PUCSXDIR
 10
1.0
 20
0.0
 30
0.0
  9
$PUCSYDIR
 10
0.0
 20
1.0
 30
0.0
  9
$PUCSORTHOREF
  2

  9
$PUCSORTHOVIEW
 70
     0
  9
$PUCSORGTOP
 10
0.0
 20
0.0
 30
0.0
  9
$PUCSORGBOTTOM
 10
0.0
 20
0.0
 30
0.0
  9
$PUCSORGLEFT
 10
0.0
 20
0.0
 30
0.0
  9
$PUCSORGRIGHT
 10
0.0
 20
0.0
 30
0.0
  9
$PUCSORGFRONT
 10
0.0
 20
0.0
 30
0.0
  9
$PUCSORGBACK
 10
0.0
 20
0.0
 30
0.0
  9
$USERI1
 70
     0
  9
$USERI2
 70
     0
  9
$USERI3
 70
     0
  9
$USERI4
 70
     0
  9
$USERI5
 70
     0
  9
$USERR1
 40
0.0
  9
$USERR2
 40
0.0
  9
$USERR3
 40
0.0
  9
$USERR4
 40
0.0
  9
$USERR5
 40
0.0
  9
$WORLDVIEW
 70
     1
  9
$SHADEDGE
 70
     3
  9
$SHADEDIF
 70
    70
  9
$TILEMODE
 70
     1
  9
$MAXACTVP
 70
    16
  9
$PINSBASE
 10
0.0
 20
0.0
 30
0.0
  9
$PLIMCHECK
 70
     0
  9
$PEXTMIN
 10
1.000000000000000E+20
 20
1.000000000000000E+20
 30
1.000000000000000E+20
  9
$PEXTMAX
 10
-1.000000000000000E+20
 20
-1.000000000000000E+20
 30
-1.000000000000000E+20
  9
$PLIMMIN
 10
0.0
 20
0.0
  9
$PLIMMAX
 10
12.0
 20
9.0
  9
$UNITMODE
 70
     0
  9
$VISRETAIN
 70
     0
  9
$PLINEGEN
 70
     1
  9
$PSLTSCALE
 70
     0
  9
$TREEDEPTH
 70
  3020
  9
$CMLSTYLE
  2
STANDARD
  9
$CMLJUST
 70
     0
  9
$CMLSCALE
 40
1.0
  9
$PROXYGRAPHICS
 70
     1
  9
$MEASUREMENT
 70
     0
  9
$CELWEIGHT
370
    -1
  9
$ENDCAPS
280
     0
  9
$JOINSTYLE
280
     0
  9
$LWDISPLAY
290
     0
  9
$INSUNITS
 70
     0
  9
$HYPERLINKBASE
  1

  9
$STYLESHEET
  1

  9
$XEDIT
290
     1
  9
$CEPSNTYPE
380
     0
  9
$PSTYLEMODE
290
     1
  9
$FINGERPRINTGUID
  2
{1A39B3CB-661C-482F-87AC-8C3013177A65}
  9
$VERSIONGUID
  2
{60CAA2C1-43C9-487B-ACC6-A4C591E627D5}
  9
$EXTNAMES
290
     1
  9
$PSVPSCALE
 40
0.0
  9
$OLESTARTUP
290
     0
  9
$SORTENTS
280
   127
  9
$INDEXCTL
280
     0
  9
$HIDETEXT
280
     0
  9
$XCLIPFRAME
290
     0
  9
$HALOGAP
280
     0
  9
$OBSCOLOR
 70
   257
  9
$OBSLTYPE
280
     0
  9
$INTERSECTIONDISPLAY
280
     0
  9
$INTERSECTIONCOLOR
 70
   257
  9
$DIMASSOC
280
     2
  9
$PROJECTNAME
  1

  0
ENDSEC
  0
SECTION
  2
CLASSES
  0
CLASS
  1
IMAGE
  2
AcDbRasterImage
  3
ISM
 90
     2175
 91
        0
280
     0
281
     1
  0
CLASS
  1
DICTIONARYVAR
  2
AcDbDictionaryVar
  3
ObjectDBX Classes
 90
        0
 91
       13
280
     0
281
     0
  0
CLASS
  1
RASTERVARIABLES
  2
AcDbRasterVariables
  3
ISM
 90
        0
 91
        0
280
     0
281
     0
  0
CLASS
  1
IMAGEDEF
  2
AcDbRasterImageDef
  3
ISM
 90
        0
 91
        0
280
     0
281
     0
  0
CLASS
  1
IMAGEDEF_REACTOR
  2
AcDbRasterImageDefReactor
  3
ISM
 90
        1
 91
        0
280
     0
281
     0
  0
CLASS
  1
IDBUFFER
  2
AcDbIdBuffer
  3
ObjectDBX Classes
 90
        0
 91
        0
280
     0
281
     0
  0
CLASS
  1
SPATIAL_FILTER
  2
AcDbSpatialFilter
  3
ObjectDBX Classes
 90
        0
 91
        0
280
     0
281
     0
  0
CLASS
  1
SORTENTSTABLE
  2
AcDbSortentsTable
  3
ObjectDBX Classes
 90
        0
 91
        0
280
     0
281
     0
  0
CLASS
  1
LAYER_INDEX
  2
AcDbLayerIndex
  3
ObjectDBX Classes
 90
        0
 91
        0
280
     0
281
     0
  0
CLASS
  1
SPATIAL_INDEX
  2
AcDbSpatialIndex
  3
ObjectDBX Classes
 90
        0
 91
        0
280
     0
281
     0
  0
CLASS
  1
OBJECT_PTR
  2
CAseDLPNTableRecord
  3
ASE-LPNTableRecord
 90
        1
 91
        0
280
     0
281
     0
  0
CLASS
  1
PLOTSETTINGS
  2
AcDbPlotSettings
  3
ObjectDBX Classes
 90
        0
 91
        0
280
     0
281
     0
  0
CLASS
  1
ACDBDICTIONARYWDFLT
  2
AcDbDictionaryWithDefault
  3
ObjectDBX Classes
 90
        0
 91
        1
280
     0
281
     0
  0
CLASS
  1
WIPEOUT
  2
AcDbWipeout
  3
"WipeOut|Product Desc: Object Enabler for WipeOut entity                        |Company: Autodesk, Inc.                        |WEB Address: www.autodesk.com"
 90
     2175
 91
        0
280
     0
281
     1
  0
CLASS
  1
WIPEOUTVARIABLES
  2
AcDbWipeoutVariables
  3
"WipeOut|Product Desc:     WipeOut Dbx Application|Company:          Autodesk, Inc.|WEB Address:      www.autodesk.com"
 90
        0
 91
        0
280
     0
281
     0
  0
CLASS
  1
RTEXT
  2
RText
  3
RText|AutoCAD Express Tool|expresstools@autodesk.com
 90
     3071
 91
        0
280
     0
281
     1
  0
CLASS
  1
ARCALIGNEDTEXT
  2
AcDbArcAlignedText
  3
ATEXT|AutoCAD Express Tool|expresstools@autodesk.com
 90
        0
 91
        0
280
     0
281
     1
  0
CLASS
  1
MATERIAL
  2
AcDbMaterial
  3
ObjectDBX Classes
 90
     1153
 91
        3
280
     0
281
     0
  0
CLASS
  1
VISUALSTYLE
  2
AcDbVisualStyle
  3
ObjectDBX Classes
 90
     4095
 91
       16
280
     0
281
     0
  0
CLASS
  1
TABLESTYLE
  2
AcDbTableStyle
  3
ObjectDBX Classes
 90
     4095
 91
        1
280
     0
281
     0
  0
CLASS
  1
SCALE
  2
AcDbScale
  3
ObjectDBX Classes
 90
     1153
 91
       33
280
     0
281
     0
  0
CLASS
  1
MLEADERSTYLE
  2
AcDbMLeaderStyle
  3
ACDB_MLEADERSTYLE_CLASS
 90
     4095
 91
        1
280
     0
281
     0
  0
CLASS
  1
ACME_DOCUMENT
  2
AcMeDbDoc
  3
AcMeServices
 90
     1024
 91
        2
280
     0
281
     0
  0
CLASS
  1
AMGSETTINGSOBJ
  2
AmgSettingsObj
  3
"AcadM|Product Description: AutoCAD Mechanical|Company: Autodesk, Inc."
 90
     1024
 91
        5
280
     0
281
     0
  0
CLASS
  1
ACMESCOPE
  2
AcMeScope
  3
AcMeServices
 90
     1024
 91
        1
280
     0
281
     0
  0
CLASS
  1
ACMECOMMANDHISTORY
  2
AcMeCommandHistory
  3
AcMeServices
 90
     1024
 91
        1
280
     0
281
     0
  0
CLASS
  1
ACIMSYSVARMAN
  2
AcImSysVarManager
  3
AcMeServices
 90
     1024
 91
        5
280
     0
281
     0
  0
CLASS
  1
ACIMINTSYSVAR
  2
AcImIntSysVar
  3
AcMeServices
 90
     1024
 91
       28
280
     0
281
     0
  0
CLASS
  1
ACMEDRAWINGMAN
  2
AcMeDrawingMan
  3
AcMeServices
 90
     1024
 91
        1
280
     0
281
     0
  0
CLASS
  1
ACMEVIEW
  2
AcMeView
  3
AcMeServices
 90
     1024
 91
        1
280
     0
281
     0
  0
CLASS
  1
ACDBENTITYCACHE
  2
AcMeEntityCache
  3
AcMeServices
 90
     1024
 91
        1
280
     0
281
     0
  0
CLASS
  1
GSMANAGER
  2
AcMeGSManager
  3
AcMeServices
 90
     1024
 91
        1
280
     0
281
     0
  0
CLASS
  1
AMDTINTERNALREACTOR
  2
AmdtInternalReactor
  3
AcMeServices
 90
     1024
 91
        2
280
     0
281
     0
  0
CLASS
  1
ACMESTATEMGR
  2
AcMeStateMgr
  3
AcMeServices
 90
     1024
 91
        1
280
     0
281
     0
  0
CLASS
  1
ACGREFMASTER
  2
AcGrefMaster
  3
AcAttribServices
 90
     1024
 91
        1
280
     0
281
     0
  0
CLASS
  1
AM_DRAWING_MGR
  2
AcDmDwgMgr
  3
AcMechDwgViewMgmt
 90
     1024
 91
        1
280
     0
281
     0
  0
CLASS
  1
AM_DWG_DOCUMENT
  2
AcDmDwgDocument
  3
AcMechDwgViewMgmt
 90
     1024
 91
        1
280
     0
281
     0
  0
CLASS
  1
AM_DWG_SHEET
  2
AcDmSheet
  3
AcMechDwgViewMgmt
 90
     1024
 91
        1
280
     0
281
     0
  0
CLASS
  1
AM_VIEWDIMPARMAP
  2
AcDmViewDimParMap
  3
AcMechDwgViewMgmt
 90
     1024
 91
        1
280
     0
281
     0
  0
CLASS
  1
ACIMREALSYSVAR
  2
AcImRealSysVar
  3
AcMeServices
 90
     1024
 91
        1
280
     0
281
     0
  0
CLASS
  1
AM_DWGMGR_NAME
  2
AcDmDwgMgrName
  3
AcMechDwgViewMgmt
 90
     1024
 91
        1
280
     0
281
     0
  0
CLASS
  1
ACME_DATABASE
  2
AcMeDbDatabase
  3
AcMeServices
 90
     1024
 91
        1
280
     0
281
     0
  0
CLASS
  1
ACRFINSADJUSTERMGR
  2
AcRfInsAdjusterMgr
  3
AcMeServices
 90
     1024
 91
        1
280
     0
281
     0
  0
CLASS
  1
ACGREFACADMASTER
  2
AcGrefacadMaster
  3
AcGrefServices
 90
     1024
 91
        1
280
     0
281
     0
  0
CLASS
  1
AMDTMENUSTATEMGR
  2
AmdtMenuStateMgr
  3
McadcomServices
 90
     1024
 91
        1
280
     0
281
     0
  0
CLASS
  1
AMDTMCOMMENUSTATE
  2
AmdtMcomMenuState
  3
McadcomServices
 90
     1024
 91
        1
280
     0
281
     0
  0
CLASS
  1
AMIMASTER
  2
AmiMaster
  3
AmiServices
 90
     1024
 91
        1
280
     0
281
     0
  0
CLASS
  1
MAPIAMMOUDLE
  2
MApiAmModule
  3
MApiAmServices
 90
     1024
 91
        1
280
     0
281
     0
  0
CLASS
  1
ACIMSTRSYSVAR
  2
AcImStrSysVar
  3
AcMeServices
 90
     1024
 91
        5
280
     0
281
     0
  0
CLASS
  1
AMDTADMENUSTATE
  2
AmdtAdMenuState
  3
DesignerServices
 90
     1024
 91
        1
280
     0
281
     0
  0
CLASS
  1
ADAPPL
  2
AcAdAppl
  3
DesignerServices
 90
     1024
 91
        1
280
     0
281
     0
  0
CLASS
  1
DEPMGR
  2
AcAdDepMgr
  3
DesignerServices
 90
     1024
 91
        1
280
     0
281
     0
  0
CLASS
  1
PARAMMGR
  2
AcAdParamMgr
  3
DesignerServices
 90
     1024
 91
        1
280
     0
281
     0
  0
CLASS
  1
PARAMSCOPE
  2
AcAdParamScope
  3
DesignerServices
 90
     1024
 91
        1
280
     0
281
     0
  0
CLASS
  1
NAMEDAPPL
  2
AcAdNamedAppl
  3
DesignerServices
 90
     1024
 91
        1
280
     0
281
     0
  0
CLASS
  1
AMDTDMMENUSTATE
  2
AmdtDmMenuState
  3
AcMechDwgViewMgmt
 90
     1024
 91
        1
280
     0
281
     0
  0
CLASS
  1
AMDTAMMENUSTATE
  2
AmdtAmMenuState
  3
DesignerAssemblies
 90
     1024
 91
        1
280
     0
281
     0
  0
CLASS
  1
ACAMPROJECT
  2
AcAmProject
  3
DesignerAssemblies
 90
     1024
 91
        1
280
     0
281
     0
  0
CLASS
  1
ACAMGRCOMPDEF
  2
AcAmGrCompDef
  3
DesignerAssemblies
 90
     1024
 91
        1
280
     0
281
     0
  0
CLASS
  1
ACCMCONTEXT
  2
AcCmContext
  3
DesignerAssemblies
 90
     1024
 91
        1
280
     0
281
     0
  0
CLASS
  1
ACAMCOMPDEF
  2
AcAmCompDef
  3
DesignerAssemblies
 90
     1024
 91
        1
280
     0
281
     0
  0
CLASS
  1
ACAMCOMPDEFMGR
  2
AcAmCompDefMgr
  3
DesignerAssemblies
 90
     1024
 91
        1
280
     0
281
     0
  0
CLASS
  1
AMCONTEXTMGR
  2
AcAmContextMgr
  3
DesignerAssemblies
 90
     1024
 91
        1
280
     0
281
     0
  0
CLASS
  1
ACAMCONTEXTMODELER
  2
AcAmContextModeler
  3
DesignerAssemblies
 90
     1024
 91
        1
280
     0
281
     0
  0
CLASS
  1
ACMDATADICTIONARY
  2
AcmDataDictionary
  3
"AcmSymBB|Product Description: AutoCAD Mechanical|Company: Autodesk, Inc."
 90
     1024
 91
        1
280
     0
281
     0
  0
CLASS
  1
CATALOGSTATE
  2
AcAmCatalogState
  3
DesignerAssemblies
 90
     1024
 91
        1
280
     0
281
     0
  0
CLASS
  1
ACAMGRCOMPDEFSET
  2
AcAmGrCompDefSet
  3
DesignerAssemblies
 90
     1024
 91
        1
280
     0
281
     0
  0
CLASS
  1
AMDTBROWSERDBTAB
  2
AmdtBrowserDbTab
  3
McadcomServices
 90
     1024
 91
        1
280
     0
281
     0
  0
CLASS
  1
CBROWSERAPPOBJECT
  2
CBrowserAppObject
  3
McadcomServices
 90
     1024
 91
        3
280
     0
281
     0
  0
CLASS
  1
DM_PLACEHOLDER
  2
AcDmSelsetPlaceholder
  3
AcMechDwgViewMgmt
 90
     1024
 91
        1
280
     0
281
     0
  0
CLASS
  1
ACMSTANDARDANSI
  2
AcmStandardANSI
  3
"Amdt_StdImp|Product Description: AutoCAD Mechanical|Company: Autodesk, Inc."
 90
     1024
 91
        2
280
     0
281
     0
  0
CLASS
  1
AMGOBJPROPCFG
  2
AmgObjPropCfg
  3
"AmgLay|Product Description: AutoCAD Mechanical|Company: Autodesk, Inc."
 90
     1025
 91
        2
280
     0
281
     0
  0
CLASS
  1
ACMSURFSTANDARDANSI
  2
AcmSurfTextStdANSI
  3
"Amdt_StdImp|Product Description: AutoCAD Mechanical|Company: Autodesk, Inc."
 90
     1024
 91
        2
280
     0
281
     0
  0
CLASS
  1
ACMFCFSTANDARDANSI
  2
AcmFCFStdANSI
  3
"Amdt_StdImp|Product Description: AutoCAD Mechanical|Company: Autodesk, Inc."
 90
     1024
 91
        2
280
     0
281
     0
  0
CLASS
  1
ACMWELDSTANDARDANSI
  2
AcmWeldingStdANSI
  3
"Amdt_StdImp|Product Description: AutoCAD Mechanical|Company: Autodesk, Inc."
 90
     1024
 91
        2
280
     0
281
     0
  0
CLASS
  1
ACMIDSTANDARDANSI
  2
AcmIdStdANSI
  3
"Amdt_StdImp|Product Description: AutoCAD Mechanical|Company: Autodesk, Inc."
 90
     1024
 91
        2
280
     0
281
     0
  0
CLASS
  1
ACMDATUMSTANDARDANSI
  2
AcmDatumStdANSI
  3
"Amdt_StdImp|Product Description: AutoCAD Mechanical|Company: Autodesk, Inc."
 90
     1024
 91
        2
280
     0
281
     0
  0
CLASS
  1
ACMBOMSTANDARDANSI
  2
AcmBOMStdANSI
  3
"Amdt_StdImp|Product Description: AutoCAD Mechanical|Company: Autodesk, Inc."
 90
     1024
 91
        2
280
     0
281
     0
  0
CLASS
  1
ACMDETAILSTANDARDANSI
  2
AmdtDetailSymStdANSI
  3
"Amdt_StdImp|Product Description: AutoCAD Mechanical|Company: Autodesk, Inc."
 90
     1024
 91
        2
280
     0
281
     0
  0
CLASS
  1
ACMSECTIONSTANDARDANSI
  2
AmdtSectionSymStdANSI
  3
"Amdt_StdImp|Product Description: AutoCAD Mechanical|Company: Autodesk, Inc."
 90
     1024
 91
        2
280
     0
281
     0
  0
CLASS
  1
ACMCENTERLINESTANDARDANSI
  2
AmdtCenterLineStdANSI
  3
"Amdt_StdImp|Product Description: AutoCAD Mechanical|Company: Autodesk, Inc."
 90
     1024
 91
        2
280
     0
281
     0
  0
CLASS
  1
ACMTHREADLINESTANDARDANSI
  2
AmdtThreadLineStdANSI
  3
"Amdt_StdImp|Product Description: AutoCAD Mechanical|Company: Autodesk, Inc."
 90
     1024
 91
        2
280
     0
281
     0
  0
CLASS
  1
ACMNOTESTANDARDANSI
  2
AmdtNoteStdANSI
  3
"Amdt_StdImp|Product Description: AutoCAD Mechanical|Company: Autodesk, Inc."
 90
     1024
 91
        2
280
     0
281
     0
  0
CLASS
  1
ACMTAPERSTANDARDANSI
  2
AcmTaperStdANSI
  3
"Amdt_StdImp|Product Description: AutoCAD Mechanical|Company: Autodesk, Inc."
 90
     1024
 91
        2
280
     0
281
     0
  0
CLASS
  1
ACMANOOTATIONVIEWSTANDARDANSI
  2
AmdtAnViewStdANSI
  3
"Amdt_StdImp|Product Description: AutoCAD Mechanical|Company: Autodesk, Inc."
 90
     1024
 91
        2
280
     0
281
     0
  0
CLASS
  1
AMDTNOTETEMPLATEDB
  2
AmdtNoteTemplateDB
  3
AcmSymBB|Product Description: AutoCAD Mechanical|Company: Autodesk, Inc.
 90
     1024
 91
       24
280
     0
281
     0
  0
CLASS
  1
ACAMGLAYSTD
  2
AcAmgLayStd
  3
"AmgLay|Product Description: AutoCAD Mechanical|Company: Autodesk, Inc."
 90
     1024
 91
        4
280
     0
281
     0
  0
CLASS
  1
ACAMGDIMSTD
  2
AcAmgDimStd
  3
"AmgDim|Product Description: AutoCAD Mechanical|Company: Autodesk, Inc."
 90
     1024
 91
        4
280
     0
281
     0
  0
CLASS
  1
ACAMGHOLECHARTSTDANSI
  2
AcAmgHoleChartStdANSI
  3
AmgDim|Product Description: AutoCAD Mechanical|Company: Autodesk, Inc.
 90
     1024
 91
        2
280
     0
281
     0
  0
CLASS
  1
ACAMGTITLESTD
  2
AcAmgTitleStd
  3
"AmgTitle|Product Description: AutoCAD Mechanical|Company: Autodesk, Inc."
 90
     4095
 91
        4
280
     0
281
     0
  0
CLASS
  1
ACAMGFILTERDAT
  2
AcAmgFilterDat
  3
"AcadM|Product Description: AutoCAD Mechanical|Company: Autodesk, Inc."
 90
     1024
 91
        6
280
     0
281
     0
  0
CLASS
  1
ACMSTANDARDDIN
  2
AcmStandardDIN
  3
"Amdt_StdImp|Product Description: AutoCAD Mechanical|Company: Autodesk, Inc."
 90
     1024
 91
        1
280
     0
281
     0
  0
CLASS
  1
AMDTEDGESTANDARDDIN13715
  2
AmdtEdgeStdDIN13715
  3
"Amdt_StdImp|Product Description: AutoCAD Mechanical|Company: Autodesk, Inc."
 90
     1024
 91
        1
280
     0
281
     0
  0
CLASS
  1
ACMSURFSTANDARDDIN2002
  2
AcmSurfTextStdDIN2002
  3
"Amdt_StdImp|Product Description: AutoCAD Mechanical|Company: Autodesk, Inc."
 90
     1024
 91
        1
280
     0
281
     0
  0
CLASS
  1
ACMFCFSTANDARDDIN
  2
AcmFCFStdDIN
  3
"Amdt_StdImp|Product Description: AutoCAD Mechanical|Company: Autodesk, Inc."
 90
     1024
 91
        1
280
     0
281
     0
  0
CLASS
  1
ACMWELDSTANDARDDIN
  2
AcmWeldingStdDIN
  3
"Amdt_StdImp|Product Description: AutoCAD Mechanical|Company: Autodesk, Inc."
 90
     1024
 91
        1
280
     0
281
     0
  0
CLASS
  1
ACMIDSTANDARDDIN
  2
AcmIdStdDIN
  3
"Amdt_StdImp|Product Description: AutoCAD Mechanical|Company: Autodesk, Inc."
 90
     1024
 91
        1
280
     0
281
     0
  0
CLASS
  1
ACMDATUMSTANDARDDIN
  2
AcmDatumStdDIN
  3
"Amdt_StdImp|Product Description: AutoCAD Mechanical|Company: Autodesk, Inc."
 90
     1024
 91
        1
280
     0
281
     0
  0
CLASS
  1
ACMBOMSTANDARDDIN
  2
AcmBOMStdDIN
  3
"Amdt_StdImp|Product Description: AutoCAD Mechanical|Company: Autodesk, Inc."
 90
     1024
 91
        1
280
     0
281
     0
  0
CLASS
  1
ACMDETAILSTANDARDDIN
  2
AmdtDetailSymStdDIN
  3
"Amdt_StdImp|Product Description: AutoCAD Mechanical|Company: Autodesk, Inc."
 90
     1024
 91
        1
280
     0
281
     0
  0
CLASS
  1
ACMSECTIONSTANDARDDIN
  2
AmdtSectionSymStdDIN
  3
"Amdt_StdImp|Product Description: AutoCAD Mechanical|Company: Autodesk, Inc."
 90
     1024
 91
        1
280
     0
281
     0
  0
CLASS
  1
ACMCENTERLINESTANDARDDIN
  2
AmdtCenterLineStdDIN
  3
"Amdt_StdImp|Product Description: AutoCAD Mechanical|Company: Autodesk, Inc."
 90
     1024
 91
        1
280
     0
281
     0
  0
CLASS
  1
ACMTHREADLINESTANDARDDIN
  2
AmdtThreadLineStdDIN
  3
"Amdt_StdImp|Product Description: AutoCAD Mechanical|Company: Autodesk, Inc."
 90
     1024
 91
        1
280
     0
281
     0
  0
CLASS
  1
ACMNOTESTANDARDDIN
  2
AmdtNoteStdDIN
  3
"Amdt_StdImp|Product Description: AutoCAD Mechanical|Company: Autodesk, Inc."
 90
     1024
 91
        1
280
     0
281
     0
  0
CLASS
  1
ACMTAPERSTANDARDDIN
  2
AcmTaperStdDIN
  3
"Amdt_StdImp|Product Description: AutoCAD Mechanical|Company: Autodesk, Inc."
 90
     1024
 91
        1
280
     0
281
     0
  0
CLASS
  1
ACMANOOTATIONVIEWSTANDARDDIN
  2
AmdtAnViewStdDIN
  3
"Amdt_StdImp|Product Description: AutoCAD Mechanical|Company: Autodesk, Inc."
 90
     1024
 91
        1
280
     0
281
     0
  0
CLASS
  1
ACAMGHOLECHARTSTDDIN
  2
AcAmgHoleChartStdDIN
  3
AmgDim|Product Description: AutoCAD Mechanical|Company: Autodesk, Inc.
 90
     1024
 91
        1
280
     0
281
     0
  0
CLASS
  1
ACMSTANDARDISO
  2
AcmStandardISO
  3
"Amdt_StdImp|Product Description: AutoCAD Mechanical|Company: Autodesk, Inc."
 90
     1024
 91
        1
280
     0
281
     0
  0
CLASS
  1
AMDTEDGESTANDARDISO
  2
AmdtEdgeStdISO
  3
"Amdt_StdImp|Product Description: AutoCAD Mechanical|Company: Autodesk, Inc."
 90
     1024
 91
        1
280
     0
281
     0
  0
CLASS
  1
ACMSURFSTANDARDISO2002
  2
AcmSurfTextStdISO2002
  3
"Amdt_StdImp|Product Description: AutoCAD Mechanical|Company: Autodesk, Inc."
 90
     1024
 91
        1
280
     0
281
     0
  0
CLASS
  1
ACMFCFSTANDARDISO
  2
AcmFCFStdISO
  3
"Amdt_StdImp|Product Description: AutoCAD Mechanical|Company: Autodesk, Inc."
 90
     1024
 91
        1
280
     0
281
     0
  0
CLASS
  1
ACMWELDSTANDARDISO
  2
AcmWeldingStdISO
  3
"Amdt_StdImp|Product Description: AutoCAD Mechanical|Company: Autodesk, Inc."
 90
     1024
 91
        1
280
     0
281
     0
  0
CLASS
  1
ACMIDSTANDARDISO
  2
AcmIdStdISO
  3
"Amdt_StdImp|Product Description: AutoCAD Mechanical|Company: Autodesk, Inc."
 90
     1024
 91
        1
280
     0
281
     0
  0
CLASS
  1
ACMDATUMSTANDARDISO
  2
AcmDatumStdISO
  3
"Amdt_StdImp|Product Description: AutoCAD Mechanical|Company: Autodesk, Inc."
 90
     1024
 91
        1
280
     0
281
     0
  0
CLASS
  1
ACMBOMSTANDARDISO
  2
AcmBOMStdISO
  3
"Amdt_StdImp|Product Description: AutoCAD Mechanical|Company: Autodesk, Inc."
 90
     1024
 91
        1
280
     0
281
     0
  0
CLASS
  1
ACMDETAILSTANDARDISO
  2
AmdtDetailSymStdISO
  3
"Amdt_StdImp|Product Description: AutoCAD Mechanical|Company: Autodesk, Inc."
 90
     1024
 91
        1
280
     0
281
     0
  0
CLASS
  1
ACMSECTIONSTANDARDISO2001
  2
AmdtSectionSymStdISO2001
  3
"Amdt_StdImp|Product Description: AutoCAD Mechanical|Company: Autodesk, Inc."
 90
     1024
 91
        1
280
     0
281
     0
  0
CLASS
  1
ACMCENTERLINESTANDARDISO
  2
AmdtCenterLineStdISO
  3
"Amdt_StdImp|Product Description: AutoCAD Mechanical|Company: Autodesk, Inc."
 90
     1024
 91
        1
280
     0
281
     0
  0
CLASS
  1
ACMNOTESTANDARDISO
  2
AmdtNoteStdISO
  3
"Amdt_StdImp|Product Description: AutoCAD Mechanical|Company: Autodesk, Inc."
 90
     1024
 91
        1
280
     0
281
     0
  0
CLASS
  1
ACAMGHOLECHARTSTDISO
  2
AcAmgHoleChartStdISO
  3
AmgDim|Product Description: AutoCAD Mechanical|Company: Autodesk, Inc.
 90
     1024
 91
        1
280
     0
281
     0
  0
CLASS
  1
ACMTHREADLINESTANDARDISO
  2
AmdtThreadLineStdISO
  3
"Amdt_StdImp|Product Description: AutoCAD Mechanical|Company: Autodesk, Inc."
 90
     1024
 91
        1
280
     0
281
     0
  0
CLASS
  1
ACMTAPERSTANDARDISO
  2
AcmTaperStdISO
  3
"Amdt_StdImp|Product Description: AutoCAD Mechanical|Company: Autodesk, Inc."
 90
     1024
 91
        1
280
     0
281
     0
  0
CLASS
  1
ACMANOOTATIONVIEWSTANDARDISO
  2
AmdtAnViewStdISO
  3
"Amdt_StdImp|Product Description: AutoCAD Mechanical|Company: Autodesk, Inc."
 90
     1024
 91
        1
280
     0
281
     0
  0
CLASS
  1
DIMASSOC
  2
AcDbDimAssoc
  3
"AcDbDimAssoc|Product Desc:     AcDim ARX App For Dimension|Company:          Autodesk, Inc.|WEB Address:      www.autodesk.com"
 90
        0
 91
        7
280
     0
281
     0
  0
CLASS
  1
CAMSSTRUCTBTNSTATE
  2
StructBtnState
  3
DesignerAssemblies
 90
     1024
 91
        1
280
     0
281
     0
  0
CLASS
  1
CELLSTYLEMAP
  2
AcDbCellStyleMap
  3
ObjectDBX Classes
 90
     1152
 91
        3
280
     0
281
     0
  0
ENDSEC
  0
SECTION
  2
TABLES
  0
TABLE
  2
VPORT
  5
8
330
0
100
AcDbSymbolTable
 70
     1
  0
VPORT
  5
1F4
330
8
100
AcDbSymbolTableRecord
100
AcDbViewportTableRecord
  2
*ACTIVE
 70
     0
 10
0.0
 20
0.0
 11
1.0
 21
1.0
 12
248.4734465137413
 22
209.0735438186646
 13
0.0
 23
0.0
 14
2.5
 24
2.5
 15
20.0
 25
20.0
 16
0.0
 26
0.0
 36
1.0
 17
0.0
 27
0.0
 37
0.0
 40
492.3247924262641
 41
1.443908323281061
 42
50.0
 43
0.0
 44
0.0
 50
0.0
 51
0.0
 71
     0
 72
   100
 73
     1
 74
     1
 75
     0
 76
     0
 77
     0
 78
     0
281
     0
 65
     1
110
0.0
120
0.0
130
0.0
111
1.0
121
0.0
131
0.0
112
0.0
122
1.0
132
0.0
 79
     0
146
0.0
  0
ENDTAB
  0
TABLE
  2
LTYPE
  5
5
330
0
100
AcDbSymbolTable
 70
    25
  0
LTYPE
  5
14
330
5
100
AcDbSymbolTableRecord
100
AcDbLinetypeTableRecord
  2
BYBLOCK
 70
     0
  3

 72
    65
 73
     0
 40
0.0
  0
LTYPE
  5
15
330
5
100
AcDbSymbolTableRecord
100
AcDbLinetypeTableRecord
  2
BYLAYER
 70
     0
  3

 72
    65
 73
     0
 40
0.0
  0
LTYPE
  5
16
330
5
100
AcDbSymbolTableRecord
100
AcDbLinetypeTableRecord
  2
CONTINUOUS
 70
     0
  3
Solid line
 72
    65
 73
     0
 40
0.0
  0
LTYPE
  5
1F5
330
5
100
AcDbSymbolTableRecord
100
AcDbLinetypeTableRecord
  2
CENTER
 70
     0
  3
Center line
 72
    65
 73
     4
 40
2.0
 49
1.25
 74
     0
 49
-0.25
 74
     0
 49
0.25
 74
     0
 49
-0.25
 74
     0
  0
LTYPE
  5
1F6
330
5
100
AcDbSymbolTableRecord
100
AcDbLinetypeTableRecord
  2
HIDDEN
 70
     0
  3
Verdeckt
 72
    65
 73
     2
 40
0.375
 49
0.25
 74
     0
 49
-0.125
 74
     0
  0
LTYPE
  5
1F7
330
5
100
AcDbSymbolTableRecord
100
AcDbLinetypeTableRecord
  2
PHANTOM
 70
     0
  3
_____ _ _ _____ _ _ _____ _ _ _____
 72
    65
 73
     6
 40
0.8
 49
0.45
 74
     0
 49
-0.05
 74
     0
 49
0.1
 74
     0
 49
-0.05
 74
     0
 49
0.1
 74
     0
 49
-0.05
 74
     0
  0
LTYPE
  5
1F8
330
5
100
AcDbSymbolTableRecord
100
AcDbLinetypeTableRecord
  2
DOT
 70
     0
  3
. . . . . . . . . . . . . . . . . . . .
 72
    65
 73
     2
 40
0.2
 49
0.1
 74
     0
 49
-0.1
 74
     0
  0
LTYPE
  5
1F9
330
5
100
AcDbSymbolTableRecord
100
AcDbLinetypeTableRecord
  2
DASHED
 70
     0
  3
Dashed line
 72
    65
 73
     2
 40
0.75
 49
0.5
 74
     0
 49
-0.25
 74
     0
  0
LTYPE
  5
4F8
330
5
100
AcDbSymbolTableRecord
100
AcDbLinetypeTableRecord
  2
PHANTOM2
 70
     0
  3
Phantom (.5x) ___ _ _ ___ _ _ ___ _ _ ___ _ _
 72
    65
 73
     6
 40
1.25
 49
0.625
 74
     0
 49
-0.125
 74
     0
 49
0.125
 74
     0
 49
-0.125
 74
     0
 49
0.125
 74
     0
 49
-0.125
 74
     0
  0
LTYPE
  5
53C
330
5
100
AcDbSymbolTableRecord
100
AcDbLinetypeTableRecord
  2
ACANSTGB
 70
     0
  3
__ . . __ . .
 72
    65
 73
     6
 40
0.35433070866
 49
0.15748031496
 74
     0
 49
-0.03937007874
 74
     0
 49
0.03937007874
 74
     0
 49
-0.03937007874
 74
     0
 49
0.03937007874
 74
     0
 49
-0.03937007874
 74
     0
  0
LTYPE
  5
53D
330
5
100
AcDbSymbolTableRecord
100
AcDbLinetypeTableRecord
  2
ACANSTGL
 70
     0
  3
_ _ _ _ _
 72
    65
 73
     2
 40
0.11811023622
 49
0.07874015748
 74
     0
 49
-0.03937007874
 74
     0
  0
LTYPE
  5
611
330
5
100
AcDbSymbolTableRecord
100
AcDbLinetypeTableRecord
  2
AM_ISO02W050
 70
     0
  3
__ __ __ __ __ __ __ __ __ __ __ __ __ __ __
 72
    65
 73
     2
 40
7.5
 49
6.0
 74
     0
 49
-1.5
 74
     0
  0
LTYPE
  5
612
330
5
100
AcDbSymbolTableRecord
100
AcDbLinetypeTableRecord
  2
AM_ISO08W050
 70
     0
  3
____ . ____ . ____ . ____ . ____ . ____ . ____
 72
    65
 73
     4
 40
18.0
 49
12.0
 74
     0
 49
-1.5
 74
     0
 49
3.0
 74
     0
 49
-1.5
 74
     0
  0
LTYPE
  5
613
330
5
100
AcDbSymbolTableRecord
100
AcDbLinetypeTableRecord
  2
AM_ISO09W050
 70
     0
  3
_____ . . _____ . . _____ . . ____ .. ____
 72
    65
 73
     6
 40
22.5
 49
12.0
 74
     0
 49
-1.5
 74
     0
 49
3.0
 74
     0
 49
-1.5
 74
     0
 49
3.0
 74
     0
 49
-1.5
 74
     0
  0
LTYPE
  5
614
330
5
100
AcDbSymbolTableRecord
100
AcDbLinetypeTableRecord
  2
Amconstr
 70
     0
  3
_______________________
 72
    65
 73
     2
 40
9999.0
 49
9999.0
 74
     0
 49
0.0
 74
     0
  0
LTYPE
  5
615
330
5
100
AcDbSymbolTableRecord
100
AcDbLinetypeTableRecord
  2
AM_ISO08W050x2
 70
     0
  3
__ . __ . __ . __ . __ . __
 72
    65
 73
     4
 40
9.0
 49
6.0
 74
     0
 49
-0.75
 74
     0
 49
1.5
 74
     0
 49
-0.75
 74
     0
  0
LTYPE
  5
616
330
5
100
AcDbSymbolTableRecord
100
AcDbLinetypeTableRecord
  2
AM_ISO02W050x2
 70
     0
  3
 _ _ _ _ _ _ _ _ _ _ _ _
 72
    65
 73
     2
 40
3.75
 49
3.0
 74
     0
 49
-0.75
 74
     0
  0
LTYPE
  5
617
330
5
100
AcDbSymbolTableRecord
100
AcDbLinetypeTableRecord
  2
Amzigzag
 70
     0
  3
/\/-/\/-/\/-/\/-/\/-/\/
 72
    65
 73
     2
 40
11.0001
 49
0.0001
 74
     4
 75
   136
340
618
 46
0.04
 50
0.0
 44
0.0
 45
0.0
 49
-11.0
 74
     0
  0
LTYPE
  5
62E
330
5
100
AcDbSymbolTableRecord
100
AcDbLinetypeTableRecord
  2
ACDINWELD
 70
     0
  3
_ _ _ _ _
 72
    65
 73
     2
 40
2.0
 49
2.0
 74
     0
 49
-1.0
 74
     0
  0
LTYPE
  5
631
330
5
100
AcDbSymbolTableRecord
100
AcDbLinetypeTableRecord
  2
ACDINTGB
 70
     0
  3
__ . . __ . .
 72
    65
 73
     6
 40
9.0
 49
4.0
 74
     0
 49
-1.0
 74
     0
 49
1.0
 74
     0
 49
-1.0
 74
     0
 49
1.0
 74
     0
 49
-1.0
 74
     0
  0
LTYPE
  5
632
330
5
100
AcDbSymbolTableRecord
100
AcDbLinetypeTableRecord
  2
ACDINTGL
 70
     0
  3
_ _ _ _ _
 72
    65
 73
     2
 40
3.0
 49
2.0
 74
     0
 49
-1.0
 74
     0
  0
LTYPE
  5
644
330
5
100
AcDbSymbolTableRecord
100
AcDbLinetypeTableRecord
  2
CENTER2
 70
     0
  3
Center (.5x) ___ _ ___ _ ___ _ ___ _ ___ _ ___
 72
    65
 73
     4
 40
1.125
 49
0.75
 74
     0
 49
-0.125
 74
     0
 49
0.125
 74
     0
 49
-0.125
 74
     0
  0
LTYPE
  5
645
330
5
100
AcDbSymbolTableRecord
100
AcDbLinetypeTableRecord
  2
HIDDEN2
 70
     0
  3
Hidden (.5x) _ _ _ _ _ _ _ _ _ _ _ _ _ _ _ _ _
 72
    65
 73
     2
 40
0.1875
 49
0.125
 74
     0
 49
-0.0625
 74
     0
  0
LTYPE
  5
659
330
5
100
AcDbSymbolTableRecord
100
AcDbLinetypeTableRecord
  2
ACISOWELD
 70
     0
  3
_ _ _ _ _
 72
    65
 73
     2
 40
2.0
 49
2.0
 74
     0
 49
-1.0
 74
     0
  0
LTYPE
  5
65C
330
5
100
AcDbSymbolTableRecord
100
AcDbLinetypeTableRecord
  2
ACISOTGB
 70
     0
  3
__ . . __ . .
 72
    65
 73
     6
 40
9.0
 49
4.0
 74
     0
 49
-1.0
 74
     0
 49
1.0
 74
     0
 49
-1.0
 74
     0
 49
1.0
 74
     0
 49
-1.0
 74
     0
  0
LTYPE
  5
65D
330
5
100
AcDbSymbolTableRecord
100
AcDbLinetypeTableRecord
  2
ACISOTGL
 70
     0
  3
_ _ _ _ _
 72
    65
 73
     2
 40
3.0
 49
2.0
 74
     0
 49
-1.0
 74
     0
  0
ENDTAB
  0
TABLE
  2
LAYER
  5
2
102
{ACAD_XDICTIONARY
360
680
102
}
330
0
100
AcDbSymbolTable
 70
    26
  0
LAYER
  5
10
102
{ACAD_XDICTIONARY
360
811
102
}
330
2
100
AcDbSymbolTableRecord
100
AcDbLayerTableRecord
  2
0
 70
     0
 62
     7
  6
CONTINUOUS
370
    -3
390
46C
  0
LAYER
  5
1FA
102
{ACAD_XDICTIONARY
360
813
102
}
330
2
100
AcDbSymbolTableRecord
100
AcDbLayerTableRecord
  2
DEFAULT_1
 70
     0
 62
     7
  6
CENTER
370
    -3
390
46C
  0
LAYER
  5
1FB
102
{ACAD_XDICTIONARY
360
815
102
}
330
2
100
AcDbSymbolTableRecord
100
AcDbLayerTableRecord
  2
DEFAULT_2
 70
     0
 62
     8
  6
HIDDEN
370
    -3
390
46C
  0
LAYER
  5
1FC
102
{ACAD_XDICTIONARY
360
817
102
}
330
2
100
AcDbSymbolTableRecord
100
AcDbLayerTableRecord
  2
DEFAULT_3
 70
     0
 62
     7
  6
PHANTOM
370
    -3
390
46C
  0
LAYER
  5
1FD
102
{ACAD_XDICTIONARY
360
819
102
}
330
2
100
AcDbSymbolTableRecord
100
AcDbLayerTableRecord
  2
$BLANKED__00
 70
     0
 62
     7
  6
CONTINUOUS
370
    -3
390
46C
  0
LAYER
  5
1FE
102
{ACAD_XDICTIONARY
360
81B
102
}
330
2
100
AcDbSymbolTableRecord
100
AcDbLayerTableRecord
  2
$BLANKED__02
 70
     0
 62
     7
  6
CONTINUOUS
370
    -3
390
46C
  0
LAYER
  5
200
102
{ACAD_XDICTIONARY
360
81D
102
}
330
2
100
AcDbSymbolTableRecord
100
AcDbLayerTableRecord
  2
07_NOTIZ
 70
     0
 62
     7
  6
CONTINUOUS
370
    -3
390
46C
  0
LAYER
  5
201
102
{ACAD_XDICTIONARY
360
81F
102
}
330
2
100
AcDbSymbolTableRecord
100
AcDbLayerTableRecord
  2
10
 70
     0
 62
     7
  6
CONTINUOUS
370
    -3
390
46C
  0
LAYER
  5
202
102
{ACAD_XDICTIONARY
360
821
102
}
330
2
100
AcDbSymbolTableRecord
100
AcDbLayerTableRecord
  2
10_ZEICH-ELEMENTE
 70
     0
 62
     7
  6
CONTINUOUS
370
    -3
390
46C
  0
LAYER
  5
203
102
{ACAD_XDICTIONARY
360
823
102
}
330
2
100
AcDbSymbolTableRecord
100
AcDbLayerTableRecord
  2
12
 70
     0
 62
     7
  6
CONTINUOUS
370
    -3
390
46C
  0
LAYER
  5
204
102
{ACAD_XDICTIONARY
360
825
102
}
330
2
100
AcDbSymbolTableRecord
100
AcDbLayerTableRecord
  2
13
 70
     0
 62
     7
  6
CONTINUOUS
370
    -3
390
46C
  0
LAYER
  5
205
102
{ACAD_XDICTIONARY
360
827
102
}
330
2
100
AcDbSymbolTableRecord
100
AcDbLayerTableRecord
  2
2
 70
     0
 62
     7
  6
CONTINUOUS
370
    -3
390
46C
  0
LAYER
  5
206
102
{ACAD_XDICTIONARY
360
829
102
}
330
2
100
AcDbSymbolTableRecord
100
AcDbLayerTableRecord
  2
210
 70
     0
 62
     7
  6
CONTINUOUS
370
    -3
390
46C
  0
LAYER
  5
207
102
{ACAD_XDICTIONARY
360
82B
102
}
330
2
100
AcDbSymbolTableRecord
100
AcDbLayerTableRecord
  2
300
 70
     0
 62
     7
  6
CONTINUOUS
370
    -3
390
46C
  0
LAYER
  5
208
102
{ACAD_XDICTIONARY
360
82D
102
}
330
2
100
AcDbSymbolTableRecord
100
AcDbLayerTableRecord
  2
302
 70
     0
 62
     7
  6
CONTINUOUS
370
    -3
390
46C
  0
LAYER
  5
209
102
{ACAD_XDICTIONARY
360
82F
102
}
330
2
100
AcDbSymbolTableRecord
100
AcDbLayerTableRecord
  2
40
 70
     0
 62
     7
  6
CONTINUOUS
370
    -3
390
46C
  0
LAYER
  5
20A
102
{ACAD_XDICTIONARY
360
831
102
}
330
2
100
AcDbSymbolTableRecord
100
AcDbLayerTableRecord
  2
5
 70
     0
 62
     7
  6
CONTINUOUS
370
    -3
390
46C
  0
LAYER
  5
20B
102
{ACAD_XDICTIONARY
360
833
102
}
330
2
100
AcDbSymbolTableRecord
100
AcDbLayerTableRecord
  2
6
 70
     0
 62
     7
  6
CONTINUOUS
370
    -3
390
46C
  0
LAYER
  5
20C
102
{ACAD_XDICTIONARY
360
835
102
}
330
2
100
AcDbSymbolTableRecord
100
AcDbLayerTableRecord
  2
60
 70
     0
 62
     7
  6
CONTINUOUS
370
    -3
390
46C
  0
LAYER
  5
20D
102
{ACAD_XDICTIONARY
360
837
102
}
330
2
100
AcDbSymbolTableRecord
100
AcDbLayerTableRecord
  2
DEFPOINTS_
 70
     0
 62
     7
  6
CONTINUOUS
370
    -3
390
46C
  0
LAYER
  5
55B
330
2
100
AcDbSymbolTableRecord
100
AcDbLayerTableRecord
  2
Defpoints
 70
     0
 62
     7
  6
CONTINUOUS
290
     0
370
    -3
390
46C
  0
LAYER
  5
67B
102
{ACAD_XDICTIONARY
360
67C
102
}
330
2
100
AcDbSymbolTableRecord
100
AcDbLayerTableRecord
  2
AM_2 ( Kontur 0.25)
 70
     0
 62
     5
  6
CONTINUOUS
370
    25
390
46C
1001
AcAecLayerStandard
1000

1000

  0
LAYER
  5
67F
102
{ACAD_XDICTIONARY
360
839
102
}
330
2
100
AcDbSymbolTableRecord
100
AcDbLayerTableRecord
  2
AM_0 ( Kontur 0.5 )
 70
     0
 62
     7
  6
CONTINUOUS
370
    50
390
46C
1001
AcAecLayerStandard
1000

1000

  0
LAYER
  5
6A4
102
{ACAD_XDICTIONARY
360
83B
102
}
330
2
100
AcDbSymbolTableRecord
100
AcDbLayerTableRecord
  2
AM_3 ( Verdeckt )
 70
     0
 62
     6
  6
AM_ISO02W050
370
    25
390
46C
1001
AcAecLayerStandard
1000

1000

  0
LAYER
  5
6CD
102
{ACAD_XDICTIONARY
360
83D
102
}
330
2
100
AcDbSymbolTableRecord
100
AcDbLayerTableRecord
  2
AM_7 (Mittellinie)
 70
     0
 62
     4
  6
AM_ISO08W050
370
    25
390
46C
1001
AcAecLayerStandard
1000

1000

  0
LAYER
  5
6CF
102
{ACAD_XDICTIONARY
360
83F
102
}
330
2
100
AcDbSymbolTableRecord
100
AcDbLayerTableRecord
  2
AM_5 ( Bemassung)
 70
     0
 62
     3
  6
CONTINUOUS
370
    25
390
46C
1001
AcAecLayerStandard
1000

1000

  0
ENDTAB
  0
TABLE
  2
STYLE
  5
3
330
0
100
AcDbSymbolTable
 70
    14
  0
STYLE
  5
11
330
3
100
AcDbSymbolTableRecord
100
AcDbTextStyleTableRecord
  2
STANDARD
 70
     0
 40
0.0
 41
1.0
 50
0.0
 71
     0
 42
3.5
  3
ARIALUNI.TTF
  4

1001
ACAD
1000
@Arial Unicode MS
1071
       34
  0
STYLE
  5
20E
330
3
100
AcDbSymbolTableRecord
100
AcDbTextStyleTableRecord
  2
TEXTSTYLE_1
 70
     0
 40
0.0
 41
1.0
 50
0.0
 71
     0
 42
0.2
  3
txt
  4

  0
STYLE
  5
20F
330
3
100
AcDbSymbolTableRecord
100
AcDbTextStyleTableRecord
  2
TEXTSTYLE_2
 70
     0
 40
0.0
 41
1.199999999999999
 50
0.0
 71
     0
 42
0.2
  3
txt
  4

  0
STYLE
  5
52D
330
3
100
AcDbSymbolTableRecord
100
AcDbTextStyleTableRecord
  2
ACANSTS
 70
     0
 40
1.0
 41
1.0
 50
0.0
 71
     0
 42
3.5
  3
romans.shx
  4

  0
STYLE
  5
53B
330
3
100
AcDbSymbolTableRecord
100
AcDbTextStyleTableRecord
  2
ACANSGDT
 70
     0
 40
0.0
 41
1.0
 50
0.0
 71
     0
 42
3.5
  3
amgdt.shx
  4

  0
STYLE
  5
618
330
3
100
AcDbSymbolTableRecord
100
AcDbTextStyleTableRecord
  2

 70
     1
 40
0.0
 41
1.0
 50
0.0
 71
     0
 42
2.5
  3
genltshp.shx
  4

  0
STYLE
  5
62C
330
3
100
AcDbSymbolTableRecord
100
AcDbTextStyleTableRecord
  2
ACDINGDT
 70
     0
 40
0.0
 41
1.0
 50
0.0
 71
     0
 42
3.5
  3
amgdt.shx
  4

  0
STYLE
  5
635
330
3
100
AcDbSymbolTableRecord
100
AcDbTextStyleTableRecord
  2
ACDINTS
 70
     0
 40
1.0
 41
1.0
 50
0.0
 71
     0
 42
3.5
  3
isocp.shx
  4

  0
STYLE
  5
653
330
3
100
AcDbSymbolTableRecord
100
AcDbTextStyleTableRecord
  2
ACISOTS
 70
     0
 40
1.0
 41
1.0
 50
0.0
 71
     0
 42
2.5
  3
ARIALN.TTF
  4

1001
ACAD
1000
Arial Narrow
1071
       34
  0
STYLE
  5
657
330
3
100
AcDbSymbolTableRecord
100
AcDbTextStyleTableRecord
  2
ACISOGDT
 70
     0
 40
0.0
 41
1.0
 50
0.0
 71
     0
 42
2.5
  3
amgdt.shx
  4

  0
STYLE
  5
677
330
3
100
AcDbSymbolTableRecord
100
AcDbTextStyleTableRecord
  2
Annotative
 70
     0
 40
0.0
 41
1.0
 50
0.0
 71
     0
 42
0.2
  3
@Arial Unicode MS
  4

1001
AcadAnnotative
1000
AnnotativeData
1002
{
1070
     1
1070
     1
1002
}
  0
STYLE
  5
678
330
3
100
AcDbSymbolTableRecord
100
AcDbTextStyleTableRecord
  2
USER1
 70
     0
 40
0.0
 41
1.0
 50
0.0
 71
     0
 42
3.5
  3
TXT.SHX
  4

  0
STYLE
  5
679
330
3
100
AcDbSymbolTableRecord
100
AcDbTextStyleTableRecord
  2
USER2
 70
     0
 40
0.0
 41
1.0
 50
0.0
 71
     0
 42
3.5
  3
SIMPLEX.SHX
  4

  0
STYLE
  5
67A
330
3
100
AcDbSymbolTableRecord
100
AcDbTextStyleTableRecord
  2
USER3
 70
     0
 40
0.0
 41
1.0
 50
0.0
 71
     0
 42
3.5
  3
ITALIC.SHX
  4

  0
ENDTAB
  0
TABLE
  2
VIEW
  5
6
330
0
100
AcDbSymbolTable
 70
     0
  0
ENDTAB
  0
TABLE
  2
UCS
  5
7
330
0
100
AcDbSymbolTable
 70
     0
  0
ENDTAB
  0
TABLE
  2
APPID
  5
9
330
0
100
AcDbSymbolTable
 70
    64
  0
APPID
  5
210
330
9
100
AcDbSymbolTableRecord
100
AcDbRegAppTableRecord
  2
ACAD
 70
     0
  0
APPID
  5
4BE
330
9
100
AcDbSymbolTableRecord
100
AcDbRegAppTableRecord
  2
ACAD_MLEADERVER
 70
     0
  0
APPID
  5
4CB
330
9
100
AcDbSymbolTableRecord
100
AcDbRegAppTableRecord
  2
MCAD_NO_VIS
 70
     0
  0
APPID
  5
4CC
330
9
100
AcDbSymbolTableRecord
100
AcDbRegAppTableRecord
  2
ACAD_TEMP_GRAPHIC
 70
     0
  0
APPID
  5
4FA
330
9
100
AcDbSymbolTableRecord
100
AcDbRegAppTableRecord
  2
AD_DRAW
 70
     0
  0
APPID
  5
4FD
330
9
100
AcDbSymbolTableRecord
100
AcDbRegAppTableRecord
  2
ACATTRIBSERVICES
 70
     0
  0
APPID
  5
51E
330
9
100
AcDbSymbolTableRecord
100
AcDbRegAppTableRecord
  2
DESIGNERASSEMBLIES
 70
     0
  0
APPID
  5
524
330
9
100
AcDbSymbolTableRecord
100
AcDbRegAppTableRecord
  2
ACADM_DIM_EDIT
 70
     0
  0
APPID
  5
525
330
9
100
AcDbSymbolTableRecord
100
AcDbRegAppTableRecord
  2
AMDT_DM_ADJ
 70
     0
  0
APPID
  5
5AA
330
9
100
AcDbSymbolTableRecord
100
AcDbRegAppTableRecord
  2
GENIUS_GENDIMSH_14
 70
     0
  0
APPID
  5
5BD
330
9
100
AcDbSymbolTableRecord
100
AcDbRegAppTableRecord
  2
AcadAnnotative
 70
     0
  0
APPID
  5
5BE
330
9
100
AcDbSymbolTableRecord
100
AcDbRegAppTableRecord
  2
ACAD_DSTYLE_DIMARC_LENGTH_SYMBOL
 70
     0
  0
APPID
  5
5BF
330
9
100
AcDbSymbolTableRecord
100
AcDbRegAppTableRecord
  2
AcAecLayerStandard
 70
     0
  0
APPID
  5
5C0
330
9
100
AcDbSymbolTableRecord
100
AcDbRegAppTableRecord
  2
ACAD_DSTYLE_DIMJOGGED_JOGANGLE_SYMBOL
 70
     0
  0
APPID
  5
5C1
330
9
100
AcDbSymbolTableRecord
100
AcDbRegAppTableRecord
  2
AcadAnnoPO
 70
     0
  0
APPID
  5
5C2
330
9
100
AcDbSymbolTableRecord
100
AcDbRegAppTableRecord
  2
ACAD_EXEMPT_FROM_CAD_STANDARDS
 70
     0
  0
APPID
  5
5C3
330
9
100
AcDbSymbolTableRecord
100
AcDbRegAppTableRecord
  2
GENIUS_GENODEF_13
 70
     0
  0
APPID
  5
5C4
330
9
100
AcDbSymbolTableRecord
100
AcDbRegAppTableRecord
  2
GENIUS_GENOBJ-N-CRS_13
 70
     0
  0
APPID
  5
5C5
330
9
100
AcDbSymbolTableRecord
100
AcDbRegAppTableRecord
  2
GENIUS_GENOENT_13
 70
     0
  0
APPID
  5
5C6
330
9
100
AcDbSymbolTableRecord
100
AcDbRegAppTableRecord
  2
GENIUS_GENOLIS_13
 70
     0
  0
APPID
  5
5C7
330
9
100
AcDbSymbolTableRecord
100
AcDbRegAppTableRecord
  2
GENIUS_GENOREF_13
 70
     0
  0
APPID
  5
5C8
330
9
100
AcDbSymbolTableRecord
100
AcDbRegAppTableRecord
  2
GEVID1190879659
 70
     0
  0
APPID
  5
5C9
330
9
100
AcDbSymbolTableRecord
100
AcDbRegAppTableRecord
  2
GEVDC
 70
     0
  0
APPID
  5
5CA
330
9
100
AcDbSymbolTableRecord
100
AcDbRegAppTableRecord
  2
GENIUS_GENBH_13
 70
     0
  0
APPID
  5
5CB
330
9
100
AcDbSymbolTableRecord
100
AcDbRegAppTableRecord
  2
GENIUS_GENOBJ-NBEHI-BHF_13
 70
     0
  0
APPID
  5
5CC
330
9
100
AcDbSymbolTableRecord
100
AcDbRegAppTableRecord
  2
GENIUS_GENOBJ-NBEHI-BHB_13
 70
     0
  0
APPID
  5
5CD
330
9
100
AcDbSymbolTableRecord
100
AcDbRegAppTableRecord
  2
GEVID1190879660
 70
     0
  0
APPID
  5
5CE
330
9
100
AcDbSymbolTableRecord
100
AcDbRegAppTableRecord
  2
GEVID1190879661
 70
     0
  0
APPID
  5
5CF
330
9
100
AcDbSymbolTableRecord
100
AcDbRegAppTableRecord
  2
ACAD_DSTYLE_DIMRADIAL_EXTENSION
 70
     0
  0
APPID
  5
5D0
330
9
100
AcDbSymbolTableRecord
100
AcDbRegAppTableRecord
  2
GEVID1190879662
 70
     0
  0
APPID
  5
5D1
330
9
100
AcDbSymbolTableRecord
100
AcDbRegAppTableRecord
  2
GEVID1190879663
 70
     0
  0
APPID
  5
5D2
330
9
100
AcDbSymbolTableRecord
100
AcDbRegAppTableRecord
  2
GEVID1190879664
 70
     0
  0
APPID
  5
5D3
330
9
100
AcDbSymbolTableRecord
100
AcDbRegAppTableRecord
  2
GEVID1190879665
 70
     0
  0
APPID
  5
5D4
330
9
100
AcDbSymbolTableRecord
100
AcDbRegAppTableRecord
  2
GEVID1190879666
 70
     0
  0
APPID
  5
5D5
330
9
100
AcDbSymbolTableRecord
100
AcDbRegAppTableRecord
  2
GENIUS_GENOBJ-N-CEN_13
 70
     0
  0
APPID
  5
5D6
330
9
100
AcDbSymbolTableRecord
100
AcDbRegAppTableRecord
  2
GENIUS_GENCEN_19
 70
     0
  0
APPID
  5
5D7
330
9
100
AcDbSymbolTableRecord
100
AcDbRegAppTableRecord
  2
GEVID1190879667
 70
     0
  0
APPID
  5
5D8
330
9
100
AcDbSymbolTableRecord
100
AcDbRegAppTableRecord
  2
GENIUS_GENOBJ-N-CRC_13
 70
     0
  0
APPID
  5
5D9
330
9
100
AcDbSymbolTableRecord
100
AcDbRegAppTableRecord
  2
GENIUS_GENCRC_14
 70
     0
  0
APPID
  5
5DA
330
9
100
AcDbSymbolTableRecord
100
AcDbRegAppTableRecord
  2
ACAD_PSEXT
 70
     0
  0
APPID
  5
5DB
330
9
100
AcDbSymbolTableRecord
100
AcDbRegAppTableRecord
  2
GEVID1190888456
 70
     0
  0
APPID
  5
5DC
330
9
100
AcDbSymbolTableRecord
100
AcDbRegAppTableRecord
  2
GEVID1190888457
 70
     0
  0
APPID
  5
5DD
330
9
100
AcDbSymbolTableRecord
100
AcDbRegAppTableRecord
  2
GEVID1190888458
 70
     0
  0
APPID
  5
5DE
330
9
100
AcDbSymbolTableRecord
100
AcDbRegAppTableRecord
  2
GEVID1190888459
 70
     0
  0
APPID
  5
5DF
330
9
100
AcDbSymbolTableRecord
100
AcDbRegAppTableRecord
  2
GEVID1190888460
 70
     0
  0
APPID
  5
5E0
330
9
100
AcDbSymbolTableRecord
100
AcDbRegAppTableRecord
  2
GEVID1190888461
 70
     0
  0
APPID
  5
5E1
330
9
100
AcDbSymbolTableRecord
100
AcDbRegAppTableRecord
  2
GEVID1190888462
 70
     0
  0
APPID
  5
5E2
330
9
100
AcDbSymbolTableRecord
100
AcDbRegAppTableRecord
  2
ACAD_DSTYLE_DIMJAG
 70
     0
  0
APPID
  5
5E3
330
9
100
AcDbSymbolTableRecord
100
AcDbRegAppTableRecord
  2
ACAD_DSTYLE_DIMTALN
 70
     0
  0
APPID
  5
5E4
330
9
100
AcDbSymbolTableRecord
100
AcDbRegAppTableRecord
  2
GENIUS_GENBLLY_14
 70
     0
  0
APPID
  5
5E5
330
9
100
AcDbSymbolTableRecord
100
AcDbRegAppTableRecord
  2
DCO15
 70
     0
  0
APPID
  5
5E6
330
9
100
AcDbSymbolTableRecord
100
AcDbRegAppTableRecord
  2
GENIUS_GENREC_14
 70
     0
  0
APPID
  5
5E7
330
9
100
AcDbSymbolTableRecord
100
AcDbRegAppTableRecord
  2
GENIUS_GENOBJ-N-REC_13
 70
     0
  0
APPID
  5
5E8
330
9
100
AcDbSymbolTableRecord
100
AcDbRegAppTableRecord
  2
GENIUS_GENOBJ-N-TIT_13
 70
     0
  0
APPID
  5
5E9
330
9
100
AcDbSymbolTableRecord
100
AcDbRegAppTableRecord
  2
GENIUS_GENTITLE_13
 70
     0
  0
APPID
  5
5EA
330
9
100
AcDbSymbolTableRecord
100
AcDbRegAppTableRecord
  2
GENIUS_GENSCREG_15
 70
     0
  0
APPID
  5
5EB
330
9
100
AcDbSymbolTableRecord
100
AcDbRegAppTableRecord
  2
GENIUS_GENOBJ-N-SDF_13
 70
     0
  0
APPID
  5
5EC
330
9
100
AcDbSymbolTableRecord
100
AcDbRegAppTableRecord
  2
ACAD_DSTYLE_DIMINSPECT
 70
     0
  0
APPID
  5
5ED
330
9
100
AcDbSymbolTableRecord
100
AcDbRegAppTableRecord
  2
GENIUS_GENOBJ-N-HTC_13
 70
     0
  0
APPID
  5
5EE
330
9
100
AcDbSymbolTableRecord
100
AcDbRegAppTableRecord
  2
GENIUS_GENHATCH_13
 70
     0
  0
APPID
  5
5EF
330
9
100
AcDbSymbolTableRecord
100
AcDbRegAppTableRecord
  2
ACAUTHENVIRON
 70
     0
  0
APPID
  5
5F0
330
9
100
AcDbSymbolTableRecord
100
AcDbRegAppTableRecord
  2
AcDbDynamicBlockTrueName
 70
     0
  0
APPID
  5
5F1
330
9
100
AcDbSymbolTableRecord
100
AcDbRegAppTableRecord
  2
AcDbDynamicBlockGUID
 70
     0
  0
APPID
  5
5F2
330
9
100
AcDbSymbolTableRecord
100
AcDbRegAppTableRecord
  2
ACDBBLOCKREPETAG
 70
     0
  0
ENDTAB
  0
TABLE
  2
DIMSTYLE
  5
A
330
0
100
AcDbSymbolTable
 70
    26
100
AcDbDimStyleTable
 71
     2
340
647
340
548
  0
DIMSTYLE
105
21B
330
A
100
AcDbSymbolTableRecord
100
AcDbDimStyleTableRecord
  2
STANDARD
 70
     0
 41
4.0
 47
0.001
 48
0.001
 71
     1
 73
     0
 74
     0
 77
     1
 78
     8
140
3.5
178
     5
271
     3
272
     3
284
     8
340
11
341
211
342
211
343
211
344
211
  0
DIMSTYLE
105
21C
330
A
100
AcDbSymbolTableRecord
100
AcDbDimStyleTableRecord
  2
DIMSTYLE_1
 70
     0
 41
4.0
 47
0.1
 48
0.1
 73
     0
 74
     0
 77
     1
 78
     8
140
3.5
271
     3
272
     3
284
     8
340
11
341
211
342
211
343
211
344
211
  0
DIMSTYLE
105
21D
330
A
100
AcDbSymbolTableRecord
100
AcDbDimStyleTableRecord
  2
DIMSTYLE_2
 70
     0
 41
4.0
 47
0.1
 48
0.1
 73
     0
 74
     0
 77
     1
 78
     8
140
3.5
271
     3
272
     3
284
     8
340
11
341
211
342
211
343
211
344
211
  0
DIMSTYLE
105
548
330
A
100
AcDbSymbolTableRecord
100
AcDbDimStyleTableRecord
  2
AM_ANSI
 70
     0
  4
mm
 40
20.0
 41
0.1
 42
0.05
 43
0.5
 44
0.1
 47
0.1
 48
0.1
 78
     7
 79
     2
140
0.12
141
0.0
146
0.71
147
0.06
176
   256
177
   256
178
     2
274
     4
284
     7
340
11
371
    -1
372
    -1
1001
ACAD_DSTYLE_DIMARC_LENGTH_SYMBOL
1070
   379
1070
     1
  0
DIMSTYLE
105
549
330
A
100
AcDbSymbolTableRecord
100
AcDbDimStyleTableRecord
  2
AM_ANSI$3
 70
     0
  4
mm
 40
20.0
 41
0.1
 42
0.05
 43
0.5
 44
0.1
 47
0.1
 48
0.1
 78
     7
 79
     2
140
0.12
141
0.0
146
0.71
147
0.06
176
   256
177
   256
178
     2
274
     4
284
     7
288
     1
289
     0
340
11
371
    -1
372
    -1
1001
ACAD_DSTYLE_DIMARC_LENGTH_SYMBOL
1070
   379
1070
     1
  0
DIMSTYLE
105
54A
330
A
100
AcDbSymbolTableRecord
100
AcDbDimStyleTableRecord
  2
AM_ANSI$4
 70
     0
  4
mm
 40
20.0
 41
0.1
 42
0.05
 43
0.5
 44
0.1
 47
0.1
 48
0.1
 78
     7
 79
     2
140
0.12
141
0.0
146
0.71
147
0.06
176
   256
177
   256
178
     2
274
     4
284
     7
288
     1
289
     0
340
11
371
    -1
372
    -1
1001
ACAD_DSTYLE_DIMARC_LENGTH_SYMBOL
1070
   379
1070
     1
  0
DIMSTYLE
105
54B
330
A
100
AcDbSymbolTableRecord
100
AcDbDimStyleTableRecord
  2
AM_ANSI$7
 70
     0
  4
mm
 40
20.0
 41
0.1
 42
0.05
 43
0.5
 44
0.1
 47
0.1
 48
0.1
 78
     7
 79
     2
140
0.24
141
0.0
146
0.71
147
0.06
176
   256
177
   256
178
     2
274
     4
284
     7
340
11
371
    -1
372
    -1
1001
ACAD_DSTYLE_DIMARC_LENGTH_SYMBOL
1070
   379
1070
     1
  0
DIMSTYLE
105
54C
330
A
100
AcDbSymbolTableRecord
100
AcDbDimStyleTableRecord
  2
AM_ANSI$SF
 70
     0
  4
mm
 40
20.0
 41
0.1
 42
0.05
 43
0.5
 44
0.1
 47
0.1
 48
0.1
 75
     1
 76
     1
 78
     7
 79
     2
140
0.12
141
0.0
146
0.71
147
0.06
176
   256
177
   256
178
     2
274
     4
284
     7
340
11
371
    -1
372
    -1
1001
ACAD_DSTYLE_DIMARC_LENGTH_SYMBOL
1070
   379
1070
     1
  0
DIMSTYLE
105
551
330
A
100
AcDbSymbolTableRecord
100
AcDbDimStyleTableRecord
  2
AM_ANSI$SH
 70
     0
  4
mm
 40
20.0
 41
0.1
 42
0.05
 43
0.5
 44
0.1
 47
0.1
 48
0.1
 75
     1
 76
     1
 78
     7
 79
     2
140
0.12
141
0.0
146
0.71
147
0.06
173
     1
176
   256
177
   256
178
     2
274
     4
284
     7
340
11
343
54D
371
    -1
372
    -1
1001
ACAD_DSTYLE_DIMARC_LENGTH_SYMBOL
1070
   379
1070
     1
  0
DIMSTYLE
105
647
102
{ACAD_REACTORS
330
628
102
}
330
A
100
AcDbSymbolTableRecord
100
AcDbDimStyleTableRecord
  2
AM_DIN
 70
     0
  4
"
 41
5.0
 42
1.0
 43
10.0
 44
1.0
 47
0.1
 48
0.1
 73
     0
 74
     0
 77
     1
 78
     8
 79
     2
140
5.0
141
0.0
143
0.0393701
146
0.71
147
1.5
172
     1
176
   256
177
   256
178
     2
271
     2
272
     2
283
     0
284
     8
340
11
371
    -1
372
    -1
1001
ACAD_DSTYLE_DIMJOGGED_JOGANGLE_SYMBOL
1070
   384
1040
1.570796326794896
  0
DIMSTYLE
105
648
102
{ACAD_REACTORS
330
719
330
42A
330
77F
330
7BC
330
84D
102
}
330
A
100
AcDbSymbolTableRecord
100
AcDbDimStyleTableRecord
  2
AM_DIN$0
 70
     0
  4
"
 41
4.0
 42
0.0
 43
10.0
 44
1.0
 47
0.1
 48
0.1
 73
     0
 74
     0
 77
     1
 78
     8
 79
     2
140
3.5
141
0.0
143
0.0393701
146
0.71
147
1.5
172
     1
176
   256
177
   256
178
     2
271
     2
272
     2
283
     0
284
     8
340
11
371
    -1
372
    -1
1001
ACAD_DSTYLE_DIMJOGGED_JOGANGLE_SYMBOL
1070
   384
1040
1.570796326794896
  0
DIMSTYLE
105
649
330
A
100
AcDbSymbolTableRecord
100
AcDbDimStyleTableRecord
  2
AM_DIN$2
 70
     0
  4
"
 41
4.0
 42
0.0
 43
10.0
 44
1.0
 47
0.1
 48
0.1
 73
     0
 74
     0
 77
     1
 78
     8
 79
     2
140
3.5
141
0.0
143
0.0393701
146
0.71
147
1.5
172
     1
176
   256
177
   256
178
     2
271
     2
272
     2
283
     0
284
     8
340
11
371
    -1
372
    -1
1001
ACAD_DSTYLE_DIMJOGGED_JOGANGLE_SYMBOL
1070
   384
1040
1.570796326794896
  0
DIMSTYLE
105
64A
330
A
100
AcDbSymbolTableRecord
100
AcDbDimStyleTableRecord
  2
AM_DIN$3
 70
     0
  4
"
 41
3.5
 42
1.0
 43
10.0
 44
1.0
 47
0.1
 48
0.1
 73
     0
 77
     1
 78
     8
 79
     2
140
3.5
141
0.0
143
0.0393701
146
0.71
147
1.5
176
   256
177
   256
178
     2
271
     2
272
     2
283
     0
284
     8
288
     1
289
     0
340
11
371
    -1
372
    -1
1001
ACAD_DSTYLE_DIMJOGGED_JOGANGLE_SYMBOL
1070
   384
1040
1.570796326794896
  0
DIMSTYLE
105
64B
330
A
100
AcDbSymbolTableRecord
100
AcDbDimStyleTableRecord
  2
AM_DIN$4
 70
     0
  4
"
 41
4.0
 42
1.0
 43
10.0
 44
1.0
 47
0.1
 48
0.1
 73
     0
 77
     1
 78
     8
 79
     2
140
3.5
141
0.0
143
0.0393701
146
0.71
147
1.5
176
   256
177
   256
178
     2
271
     2
272
     2
283
     0
284
     8
288
     1
289
     0
340
11
371
    -1
372
    -1
1001
ACAD_DSTYLE_DIMJOGGED_JOGANGLE_SYMBOL
1070
   384
1040
1.570796326794896
  0
DIMSTYLE
105
64C
330
A
100
AcDbSymbolTableRecord
100
AcDbDimStyleTableRecord
  2
AM_DIN$6
 70
     0
  4
"
 41
4.0
 42
0.0
 43
10.0
 44
1.0
 47
0.1
 48
0.1
 73
     0
 74
     0
 78
     8
 79
     2
140
3.5
141
0.0
143
0.0393701
146
0.71
147
1.5
172
     1
176
   256
177
   256
178
     2
271
     2
272
     2
283
     0
284
     8
340
11
371
    -1
372
    -1
1001
ACAD_DSTYLE_DIMJOGGED_JOGANGLE_SYMBOL
1070
   384
1040
1.570796326794896
  0
DIMSTYLE
105
64D
330
A
100
AcDbSymbolTableRecord
100
AcDbDimStyleTableRecord
  2
AM_DIN$7
 70
     0
  4
"
 41
5.0
 42
1.0
 43
10.0
 44
1.0
 47
0.1
 48
0.1
 73
     0
 74
     0
 77
     1
 78
     8
 79
     2
140
5.0
141
0.0
143
0.0393701
146
0.71
147
1.5
172
     1
176
   256
177
   256
178
     2
271
     2
272
     2
283
     0
284
     8
340
11
371
    -1
372
    -1
1001
ACAD_DSTYLE_DIMJOGGED_JOGANGLE_SYMBOL
1070
   384
1040
1.570796326794896
  0
DIMSTYLE
105
64E
330
A
100
AcDbSymbolTableRecord
100
AcDbDimStyleTableRecord
  2
AM_DIN$SF
 70
     0
  4
"
 41
4.0
 42
1.0
 43
10.0
 44
1.0
 47
0.1
 48
0.1
 73
     0
 74
     0
 75
     1
 76
     1
 77
     1
 78
     8
 79
     2
140
3.5
141
0.0
143
0.0393701
146
0.71
147
1.5
172
     1
176
   256
177
   256
178
     2
271
     2
272
     2
283
     0
284
     8
340
11
371
    -1
372
    -1
1001
ACAD_DSTYLE_DIMJOGGED_JOGANGLE_SYMBOL
1070
   384
1040
1.570796326794896
  0
DIMSTYLE
105
64F
330
A
100
AcDbSymbolTableRecord
100
AcDbDimStyleTableRecord
  2
AM_DIN$SH
 70
     0
  4
"
 41
4.0
 42
1.0
 43
10.0
 44
1.0
 47
0.1
 48
0.1
 73
     0
 74
     0
 75
     1
 76
     1
 77
     1
 78
     8
 79
     2
140
3.5
141
0.0
143
0.0393701
144
2.0
146
0.71
147
1.5
172
     1
173
     1
176
   256
177
   256
178
     2
271
     2
272
     2
283
     0
284
     8
340
11
343
54D
371
    -1
372
    -1
1001
ACAD_DSTYLE_DIMJOGGED_JOGANGLE_SYMBOL
1070
   384
1040
1.570796326794896
  0
DIMSTYLE
105
66B
330
A
100
AcDbSymbolTableRecord
100
AcDbDimStyleTableRecord
  2
AM_ISO
 70
     0
  4
"
 41
2.5
 42
1.0
 43
10.0
 44
1.0
 47
0.1
 48
0.1
 73
     0
 74
     0
 77
     1
 78
     8
 79
     2
140
3.5
141
0.0
143
0.0393701
146
0.71
147
1.5
172
     1
176
   256
177
   256
178
     2
271
     2
272
     3
274
     4
283
     0
284
     8
340
11
371
    -1
372
    -1
1001
ACAD_DSTYLE_DIMJOGGED_JOGANGLE_SYMBOL
1070
   384
1040
0.7853981633974483
1001
ACAD_DSTYLE_DIMARC_LENGTH_SYMBOL
1070
   379
1070
     1
  0
DIMSTYLE
105
66C
330
A
100
AcDbSymbolTableRecord
100
AcDbDimStyleTableRecord
  2
AM_ISO$3
 70
     0
  4
"
 41
2.5
 42
1.0
 43
10.0
 44
1.0
 47
0.1
 48
0.1
 73
     0
 77
     1
 78
     8
 79
     2
140
3.5
141
0.0
143
0.0393701
146
0.71
147
1.5
176
   256
177
   256
178
     2
271
     2
272
     3
274
     4
283
     0
284
     8
288
     1
289
     0
340
11
371
    -1
372
    -1
1001
ACAD_DSTYLE_DIMJOGGED_JOGANGLE_SYMBOL
1070
   384
1040
0.7853981633974483
1001
ACAD_DSTYLE_DIMARC_LENGTH_SYMBOL
1070
   379
1070
     1
  0
DIMSTYLE
105
66D
330
A
100
AcDbSymbolTableRecord
100
AcDbDimStyleTableRecord
  2
AM_ISO$4
 70
     0
  4
"
 41
2.5
 42
1.0
 43
10.0
 44
1.0
 47
0.1
 48
0.1
 73
     0
 77
     1
 78
     8
 79
     2
140
3.5
141
0.0
143
0.0393701
146
0.71
147
1.5
176
   256
177
   256
178
     2
271
     2
272
     3
274
     4
283
     0
284
     8
288
     1
289
     0
340
11
371
    -1
372
    -1
1001
ACAD_DSTYLE_DIMJOGGED_JOGANGLE_SYMBOL
1070
   384
1040
0.7853981633974483
1001
ACAD_DSTYLE_DIMARC_LENGTH_SYMBOL
1070
   379
1070
     1
  0
DIMSTYLE
105
66E
330
A
100
AcDbSymbolTableRecord
100
AcDbDimStyleTableRecord
  2
AM_ISO$6
 70
     0
  4
"
 41
2.5
 42
1.0
 43
10.0
 44
1.0
 47
0.1
 48
0.1
 73
     0
 74
     0
 78
     8
 79
     2
140
3.5
141
0.0
143
0.0393701
146
0.71
147
1.5
172
     1
176
   256
177
   256
178
     2
271
     2
272
     3
274
     4
283
     0
284
     8
340
11
371
    -1
372
    -1
1001
ACAD_DSTYLE_DIMJOGGED_JOGANGLE_SYMBOL
1070
   384
1040
0.7853981633974483
1001
ACAD_DSTYLE_DIMARC_LENGTH_SYMBOL
1070
   379
1070
     1
  0
DIMSTYLE
105
66F
330
A
100
AcDbSymbolTableRecord
100
AcDbDimStyleTableRecord
  2
AM_ISO$7
 70
     0
  4
"
 41
2.5
 42
1.0
 43
10.0
 44
1.0
 47
0.1
 48
0.1
 73
     0
 74
     0
 77
     1
 78
     8
 79
     2
140
5.0
141
0.0
143
0.0393701
146
0.71
147
1.5
172
     1
176
   256
177
   256
178
     2
271
     2
272
     3
274
     4
283
     0
284
     8
340
11
371
    -1
372
    -1
1001
ACAD_DSTYLE_DIMJOGGED_JOGANGLE_SYMBOL
1070
   384
1040
0.7853981633974483
1001
ACAD_DSTYLE_DIMARC_LENGTH_SYMBOL
1070
   379
1070
     1
  0
DIMSTYLE
105
670
330
A
100
AcDbSymbolTableRecord
100
AcDbDimStyleTableRecord
  2
AM_ISO$SF
 70
     0
  4
"
 41
2.5
 42
1.0
 43
10.0
 44
1.0
 47
0.1
 48
0.1
 73
     0
 74
     0
 75
     1
 76
     1
 77
     1
 78
     8
 79
     2
140
3.5
141
0.0
143
0.0393701
146
0.71
147
1.5
172
     1
176
   256
177
   256
178
     2
271
     2
272
     3
274
     4
283
     0
284
     8
340
11
371
    -1
372
    -1
1001
ACAD_DSTYLE_DIMJOGGED_JOGANGLE_SYMBOL
1070
   384
1040
0.7853981633974483
1001
ACAD_DSTYLE_DIMARC_LENGTH_SYMBOL
1070
   379
1070
     1
  0
DIMSTYLE
105
671
330
A
100
AcDbSymbolTableRecord
100
AcDbDimStyleTableRecord
  2
AM_ISO$SH
 70
     0
  4
"
 41
2.5
 42
1.0
 43
10.0
 44
1.0
 47
0.1
 48
0.1
 73
     0
 74
     0
 75
     1
 76
     1
 77
     1
 78
     8
 79
     2
140
3.5
141
0.0
143
0.0393701
144
2.0
146
0.71
147
1.5
172
     1
173
     1
176
   256
177
   256
178
     2
271
     2
272
     3
274
     4
283
     0
284
     8
340
11
343
54D
371
    -1
372
    -1
1001
ACAD_DSTYLE_DIMJOGGED_JOGANGLE_SYMBOL
1070
   384
1040
0.7853981633974483
1001
ACAD_DSTYLE_DIMARC_LENGTH_SYMBOL
1070
   379
1070
     1
  0
ENDTAB
  0
TABLE
  2
BLOCK_RECORD
  5
1
330
0
100
AcDbSymbolTable
 70
    20
  0
BLOCK_RECORD
  5
1F
330
1
100
AcDbSymbolTableRecord
100
AcDbBlockTableRecord
  2
*MODEL_SPACE
340
4C1
  0
BLOCK_RECORD
  5
1B
330
1
100
AcDbSymbolTableRecord
100
AcDbBlockTableRecord
  2
*PAPER_SPACE
340
4C2
  0
BLOCK_RECORD
  5
212
330
1
100
AcDbSymbolTableRecord
100
AcDbBlockTableRecord
  2
*D0
340
0
  0
BLOCK_RECORD
  5
213
330
1
100
AcDbSymbolTableRecord
100
AcDbBlockTableRecord
  2
*D1
340
0
  0
BLOCK_RECORD
  5
214
330
1
100
AcDbSymbolTableRecord
100
AcDbBlockTableRecord
  2
*D2
340
0
  0
BLOCK_RECORD
  5
215
330
1
100
AcDbSymbolTableRecord
100
AcDbBlockTableRecord
  2
*D3
340
0
  0
BLOCK_RECORD
  5
216
330
1
100
AcDbSymbolTableRecord
100
AcDbBlockTableRecord
  2
*D4
340
0
  0
BLOCK_RECORD
  5
217
330
1
100
AcDbSymbolTableRecord
100
AcDbBlockTableRecord
  2
*D5
340
0
  0
BLOCK_RECORD
  5
218
330
1
100
AcDbSymbolTableRecord
100
AcDbBlockTableRecord
  2
*D6
340
0
  0
BLOCK_RECORD
  5
219
330
1
100
AcDbSymbolTableRecord
100
AcDbBlockTableRecord
  2
*D7
340
0
  0
BLOCK_RECORD
  5
21A
330
1
100
AcDbSymbolTableRecord
100
AcDbBlockTableRecord
  2
*D8
340
0
  0
BLOCK_RECORD
  5
211
330
1
100
AcDbSymbolTableRecord
100
AcDbBlockTableRecord
  2
_FILLED
340
0
102
{BLKREFS
331
570
331
576
331
577
331
588
331
589
331
592
331
593
331
59B
331
59C
331
5A4
331
5A5
331
6B2
331
6B3
331
6C6
331
6C7
102
}
  0
BLOCK_RECORD
  5
54D
330
1
100
AcDbSymbolTableRecord
100
AcDbBlockTableRecord
  2
GENAXEH
340
0
  0
BLOCK_RECORD
  5
6D2
330
1
100
AcDbSymbolTableRecord
100
AcDbBlockTableRecord
  2
*D13
340
0
  0
BLOCK_RECORD
  5
6F9
330
1
100
AcDbSymbolTableRecord
100
AcDbBlockTableRecord
  2
*D14
340
0
  0
BLOCK_RECORD
  5
71A
330
1
100
AcDbSymbolTableRecord
100
AcDbBlockTableRecord
  2
*D15
340
0
  0
BLOCK_RECORD
  5
74D
330
1
100
AcDbSymbolTableRecord
100
AcDbBlockTableRecord
  2
*D16
340
0
  0
BLOCK_RECORD
  5
780
330
1
100
AcDbSymbolTableRecord
100
AcDbBlockTableRecord
  2
*D17
340
0
  0
BLOCK_RECORD
  5
7BD
330
1
100
AcDbSymbolTableRecord
100
AcDbBlockTableRecord
  2
*D18
340
0
  0
BLOCK_RECORD
  5
84E
330
1
100
AcDbSymbolTableRecord
100
AcDbBlockTableRecord
  2
*D19
340
0
  0
ENDTAB
  0
ENDSEC
  0
SECTION
  2
BLOCKS
  0
BLOCK
  5
20
330
1F
100
AcDbEntity
  8
0
100
AcDbBlockBegin
  2
*MODEL_SPACE
 70
     0
 10
0.0
 20
0.0
 30
0.0
  3
*MODEL_SPACE
  1

  0
ENDBLK
  5
21
330
1F
100
AcDbEntity
  8
0
100
AcDbBlockEnd
  0
BLOCK
  5
1C
330
1B
100
AcDbEntity
 67
     1
  8
0
100
AcDbBlockBegin
  2
*PAPER_SPACE
 70
     0
 10
0.0
 20
0.0
 30
0.0
  3
*PAPER_SPACE
  1

  0
ENDBLK
  5
1D
330
1B
100
AcDbEntity
 67
     1
  8
0
100
AcDbBlockEnd
  0
BLOCK
  5
21E
330
212
100
AcDbEntity
  8
60
  6
Continuous
 62
     1
100
AcDbBlockBegin
  2
*D0
 70
     1
 10
0.0
 20
0.0
 30
0.0
  3
*D0
  1

  0
LINE
  5
776
330
212
100
AcDbEntity
  8
AM_5 ( Bemassung)
100
AcDbLine
 10
340.2635269853
 20
319.1292051361001
 30
0.0
 11
340.2635269853
 21
351.913268862
 31
0.0
  0
LINE
  5
777
330
212
100
AcDbEntity
  8
AM_5 ( Bemassung)
100
AcDbLine
 10
190.2635269853
 20
319.1292051361001
 30
0.0
 11
190.2635269853
 21
351.913268862
 31
0.0
  0
LINE
  5
778
330
212
100
AcDbEntity
  8
AM_5 ( Bemassung)
100
AcDbLine
 10
332.2635269853
 20
349.913268862
 30
0.0
 11
198.2635269853
 21
349.913268862
 31
0.0
  0
SOLID
  5
779
330
212
100
AcDbEntity
  8
AM_5 ( Bemassung)
100
AcDbTrace
 10
332.2635269853
 20
351.2466021953334
 30
0.0
 11
332.2635269853
 21
348.5799355286667
 31
0.0
 12
340.2635269853
 22
349.913268862
 32
0.0
 13
340.2635269853
 23
349.913268862
 33
0.0
  0
SOLID
  5
77A
330
212
100
AcDbEntity
  8
AM_5 ( Bemassung)
100
AcDbTrace
 10
198.2635269853
 20
351.2466021953334
 30
0.0
 11
198.2635269853
 21
348.5799355286667
 31
0.0
 12
190.2635269853
 22
349.913268862
 32
0.0
 13
190.2635269853
 23
349.913268862
 33
0.0
  0
MTEXT
  5
77B
330
212
100
AcDbEntity
  8
AM_5 ( Bemassung)
 62
     2
100
AcDbMText
 10
269.1135269853
 20
356.5421910993807
 30
0.0
 40
7.0
 41
0.0
 71
     5
 72
     1
  1
%%c150
 73
     1
 44
1.0
  0
POINT
  5
77C
330
212
100
AcDbEntity
  8
Defpoints
 62
     0
100
AcDbPoint
 10
340.2635269853
 20
319.1292051361001
 30
0.0
  0
POINT
  5
77D
330
212
100
AcDbEntity
  8
Defpoints
 62
     0
100
AcDbPoint
 10
190.2635269853
 20
319.1292051361001
 30
0.0
  0
POINT
  5
77E
330
212
100
AcDbEntity
  8
Defpoints
 62
     0
100
AcDbPoint
 10
190.2635269853
 20
349.913268862
 30
0.0
  0
ENDBLK
  5
227
330
212
100
AcDbEntity
  8
0
  6
ByBlock
 62
     0
100
AcDbBlockEnd
  0
BLOCK
  5
228
330
213
100
AcDbEntity
  8
60
  6
Continuous
 62
     1
100
AcDbBlockBegin
  2
*D1
 70
     1
 10
0.0
 20
0.0
 30
0.0
  3
*D1
  1

  0
LINE
  5
6AF
330
213
100
AcDbEntity
  8
AM_0 ( Kontur 0.5 )
 62
     0
370
    -2
100
AcDbLine
 10
309.5135269853
 20
304.6013927765
 30
0.0
 11
309.5135269853
 21
276.6064474956432
 31
0.0
  0
LINE
  5
6B0
330
213
100
AcDbEntity
  8
AM_0 ( Kontur 0.5 )
 62
     0
370
    -2
100
AcDbLine
 10
221.0135269853001
 20
304.6013927765
 30
0.0
 11
221.0135269853001
 21
276.6064474956432
 31
0.0
  0
LINE
  5
6B1
330
213
100
AcDbEntity
  8
AM_0 ( Kontur 0.5 )
 62
     0
370
    -2
100
AcDbLine
 10
305.5135269853
 20
276.7864474956432
 30
0.0
 11
225.0135269853001
 21
276.7864474956432
 31
0.0
  0
INSERT
  5
6B2
330
213
100
AcDbEntity
  8
AM_0 ( Kontur 0.5 )
 62
     0
370
    -2
100
AcDbBlockReference
  2
_FILLED
 10
309.5135269853
 20
276.7864474956432
 30
0.0
 41
4.0
 42
4.0
 43
4.0
  0
INSERT
  5
6B3
330
213
100
AcDbEntity
  8
AM_0 ( Kontur 0.5 )
 62
     0
370
    -2
100
AcDbBlockReference
  2
_FILLED
 10
221.0135269853001
 20
276.7864474956432
 30
0.0
 41
4.0
 42
4.0
 43
4.0
 50
180.0
  0
MTEXT
  5
6B4
330
213
100
AcDbEntity
  8
AM_0 ( Kontur 0.5 )
 62
     0
100
AcDbMText
 10
265.7580102733566
 20
278.6646466770893
 30
0.0
 40
3.5
 41
0.0
 71
     5
 72
     1
  1
\A1;88.5
 73
     1
 44
1.0
  0
POINT
  5
6B5
330
213
100
AcDbEntity
  8
Defpoints
 62
     0
100
AcDbPoint
 10
309.5135269853
 20
304.6638927765
 30
0.0
  0
POINT
  5
6B6
330
213
100
AcDbEntity
  8
Defpoints
 62
     0
100
AcDbPoint
 10
221.0135269853001
 20
304.6638927765
 30
0.0
  0
POINT
  5
6B7
330
213
100
AcDbEntity
  8
Defpoints
 62
     0
100
AcDbPoint
 10
221.0135269853001
 20
276.7864474956432
 30
0.0
  0
ENDBLK
  5
230
330
213
100
AcDbEntity
  8
0
  6
ByBlock
 62
     0
100
AcDbBlockEnd
  0
BLOCK
  5
231
330
214
100
AcDbEntity
  8
60
  6
Continuous
 62
     1
100
AcDbBlockBegin
  2
*D2
 70
     1
 10
0.0
 20
0.0
 30
0.0
  3
*D2
  1

  0
LINE
  5
56E
330
214
100
AcDbEntity
  8
60
  6
Continuous
 62
     0
370
    -2
100
AcDbLine
 10
275.977861134014
 20
295.5287285526568
 30
0.0
 11
278.2499456416078
 21
329.4317416182395
 31
0.0
  0
MTEXT
  5
56F
330
214
100
AcDbEntity
  8
60
  6
Continuous
 62
     0
100
AcDbMText
 10
274.4600442146144
 20
300.3977848859684
 30
0.0
 40
3.5
 41
0.0
 71
     5
 72
     1
  1
\A1;R198
 11
0.0668671930730734
 21
0.9977618846651383
 31
0.0
 73
     1
 44
1.0
  0
INSERT
  5
570
330
214
100
AcDbEntity
  8
60
  6
Continuous
 62
     0
370
    -2
100
AcDbBlockReference
  2
_FILLED
 10
278.5174144139001
 20
333.4227891569001
 30
0.0
 41
4.0
 42
4.0
 43
4.0
 50
86.16593125932965
  0
POINT
  5
571
330
214
100
AcDbEntity
  8
Defpoints
  6
Continuous
 62
     0
100
AcDbPoint
 10
278.5174144139001
 20
333.4227891569001
 30
0.0
  0
POINT
  5
572
330
214
100
AcDbEntity
  8
Defpoints
  6
Continuous
 62
     0
100
AcDbPoint
 10
265.2635269853001
 20
135.6543007227
 30
0.0
  0
ENDBLK
  5
235
330
214
100
AcDbEntity
  8
0
  6
ByBlock
 62
     0
100
AcDbBlockEnd
  0
BLOCK
  5
236
330
215
100
AcDbEntity
  8
60
  6
Continuous
 62
     1
100
AcDbBlockBegin
  2
*D3
 70
     1
 10
0.0
 20
0.0
 30
0.0
  3
*D3
  1

  0
LINE
  5
573
330
215
100
AcDbEntity
  8
60
  6
Continuous
 62
     0
370
    -2
100
AcDbLine
 10
314.0135269853
 20
312.2458942698
 30
0.0
 11
314.0135269853
 21
300.1581426968
 31
0.0
  0
LINE
  5
574
330
215
100
AcDbEntity
  8
60
  6
Continuous
 62
     0
370
    -2
100
AcDbLine
 10
305.0135269853
 20
312.2458942698
 30
0.0
 11
305.0135269853
 21
300.1581426968
 31
0.0
  0
LINE
  5
575
330
215
100
AcDbEntity
  8
60
  6
Continuous
 62
     0
370
    -2
100
AcDbLine
 10
310.0135269853
 20
300.3381426968001
 30
0.0
 11
309.0135269853
 21
300.3381426968001
 31
0.0
  0
INSERT
  5
576
330
215
100
AcDbEntity
  8
60
  6
Continuous
 62
     0
370
    -2
100
AcDbBlockReference
  2
_FILLED
 10
314.0135269853
 20
300.3381426968001
 30
0.0
 41
4.0
 42
4.0
 43
4.0
  0
INSERT
  5
577
330
215
100
AcDbEntity
  8
60
  6
Continuous
 62
     0
370
    -2
100
AcDbBlockReference
  2
_FILLED
 10
305.0135269853
 20
300.3381426968001
 30
0.0
 41
4.0
 42
4.0
 43
4.0
 50
180.0
  0
MTEXT
  5
578
330
215
100
AcDbEntity
  8
60
  6
Continuous
 62
     0
100
AcDbMText
 10
311.9635269853
 20
302.1781426968
 30
0.0
 40
3.5
 41
0.0
 71
     5
 72
     1
  1
\A1;%%c9
 73
     1
 44
1.0
  0
POINT
  5
579
330
215
100
AcDbEntity
  8
Defpoints
  6
Continuous
 62
     0
100
AcDbPoint
 10
314.0135269853
 20
312.3083942698
 30
0.0
  0
POINT
  5
57A
330
215
100
AcDbEntity
  8
Defpoints
  6
Continuous
 62
     0
100
AcDbPoint
 10
305.0135269853
 20
312.3083942698
 30
0.0
  0
POINT
  5
57B
330
215
100
AcDbEntity
  8
Defpoints
  6
Continuous
 62
     0
100
AcDbPoint
 10
305.0135269853
 20
300.3381426968001
 30
0.0
  0
ENDBLK
  5
241
330
215
100
AcDbEntity
  8
0
  6
ByBlock
 62
     0
100
AcDbBlockEnd
  0
BLOCK
  5
242
330
216
100
AcDbEntity
  8
60
  6
Continuous
 62
     1
100
AcDbBlockBegin
  2
*D4
 70
     1
 10
0.0
 20
0.0
 30
0.0
  3
*D4
  1

  0
LINE
  5
6C3
330
216
100
AcDbEntity
  8
AM_0 ( Kontur 0.5 )
 62
     0
370
    -2
100
AcDbLine
 10
289.2326289026275
 20
316.2897571824513
 30
0.0
 11
289.2326289026275
 21
265.5324651184158
 31
0.0
  0
LINE
  5
6C4
330
216
100
AcDbEntity
  8
AM_0 ( Kontur 0.5 )
 62
     0
370
    -2
100
AcDbLine
 10
196.3777519661
 20
312.2458942698
 30
0.0
 11
196.3777519661
 21
265.5324651184158
 31
0.0
  0
LINE
  5
6C5
330
216
100
AcDbEntity
  8
AM_0 ( Kontur 0.5 )
 62
     0
370
    -2
100
AcDbLine
 10
285.2326289026276
 20
265.7124651184158
 30
0.0
 11
200.3777519661
 21
265.7124651184158
 31
0.0
  0
INSERT
  5
6C6
330
216
100
AcDbEntity
  8
AM_0 ( Kontur 0.5 )
 62
     0
370
    -2
100
AcDbBlockReference
  2
_FILLED
 10
289.2326289026275
 20
265.7124651184158
 30
0.0
 41
4.0
 42
4.0
 43
4.0
  0
INSERT
  5
6C7
330
216
100
AcDbEntity
  8
AM_0 ( Kontur 0.5 )
 62
     0
370
    -2
100
AcDbBlockReference
  2
_FILLED
 10
196.3777519661
 20
265.7124651184158
 30
0.0
 41
4.0
 42
4.0
 43
4.0
 50
180.0
  0
MTEXT
  5
6C8
330
216
100
AcDbEntity
  8
AM_0 ( Kontur 0.5 )
 62
     0
100
AcDbMText
 10
267.5385269853001
 20
267.590664299862
 30
0.0
 40
3.5
 41
0.0
 71
     5
 72
     1
  1
\A1;137
 73
     1
 44
1.0
  0
POINT
  5
6C9
330
216
100
AcDbEntity
  8
Defpoints
 62
     0
100
AcDbPoint
 10
289.2326289026275
 20
316.3522571824513
 30
0.0
  0
POINT
  5
6CA
330
216
100
AcDbEntity
  8
Defpoints
 62
     0
100
AcDbPoint
 10
196.3777519661
 20
312.3083942698
 30
0.0
  0
POINT
  5
6CB
330
216
100
AcDbEntity
  8
Defpoints
 62
     0
100
AcDbPoint
 10
196.3777519661
 20
265.7124651184158
 30
0.0
  0
ENDBLK
  5
24A
330
216
100
AcDbEntity
  8
0
  6
ByBlock
 62
     0
100
AcDbBlockEnd
  0
BLOCK
  5
24B
330
217
100
AcDbEntity
  8
60
  6
Continuous
 62
     1
100
AcDbBlockBegin
  2
*D5
 70
     1
 10
0.0
 20
0.0
 30
0.0
  3
*D5
  1

  0
LINE
  5
585
330
217
100
AcDbEntity
  8
60
  6
Continuous
 62
     0
370
    -2
100
AcDbLine
 10
265.2010476223001
 20
333.8664107198001
 30
0.0
 11
178.8870683646001
 21
333.8664107198001
 31
0.0
  0
LINE
  5
586
330
217
100
AcDbEntity
  8
60
  6
Continuous
 62
     0
370
    -2
100
AcDbLine
 10
190.2010269853
 20
319.1292051361001
 30
0.0
 11
178.8870683646001
 21
319.1292051361001
 31
0.0
  0
LINE
  5
587
330
217
100
AcDbEntity
  8
60
  6
Continuous
 62
     0
370
    -2
100
AcDbLine
 10
179.0670683646001
 20
329.8664107198001
 30
0.0
 11
179.0670683646001
 21
323.1292051361001
 31
0.0
  0
INSERT
  5
588
330
217
100
AcDbEntity
  8
60
  6
Continuous
 62
     0
370
    -2
100
AcDbBlockReference
  2
_FILLED
 10
179.0670683646001
 20
333.8664107198001
 30
0.0
 41
4.0
 42
4.0
 43
4.0
 50
90.0
  0
INSERT
  5
589
330
217
100
AcDbEntity
  8
60
  6
Continuous
 62
     0
370
    -2
100
AcDbBlockReference
  2
_FILLED
 10
179.0670683646001
 20
319.1292051361001
 30
0.0
 41
4.0
 42
4.0
 43
4.0
 50
270.0
  0
MTEXT
  5
58A
330
217
100
AcDbEntity
  8
60
  6
Continuous
 62
     0
100
AcDbMText
 10
177.2270683646
 20
323.3478079280001
 30
0.0
 40
3.5
 41
0.0
 71
     5
 72
     1
  1
\A1;14.7
 11
0.0000000000000001
 21
1.0
 31
0.0
 73
     1
 44
1.0
  0
POINT
  5
58B
330
217
100
AcDbEntity
  8
Defpoints
  6
Continuous
 62
     0
100
AcDbPoint
 10
265.2635476223001
 20
333.8664107198001
 30
0.0
  0
POINT
  5
58C
330
217
100
AcDbEntity
  8
Defpoints
  6
Continuous
 62
     0
100
AcDbPoint
 10
190.2635269853
 20
319.1292051361001
 30
0.0
  0
POINT
  5
58D
330
217
100
AcDbEntity
  8
Defpoints
  6
Continuous
 62
     0
100
AcDbPoint
 10
179.0670683646001
 20
319.1292051361001
 30
0.0
  0
ENDBLK
  5
253
330
217
100
AcDbEntity
  8
0
  6
ByBlock
 62
     0
100
AcDbBlockEnd
  0
BLOCK
  5
254
330
218
100
AcDbEntity
  8
60
  6
Continuous
 62
     1
100
AcDbBlockBegin
  2
*D6
 70
     1
 10
0.0
 20
0.0
 30
0.0
  3
*D6
  1

  0
LINE
  5
58E
330
218
100
AcDbEntity
  8
60
  6
Continuous
 62
     0
370
    -2
100
AcDbLine
 10
334.2118020046001
 20
318.3083942698
 30
0.0
 11
358.4840461654001
 21
318.3083942698
 31
0.0
  0
LINE
  5
58F
330
218
100
AcDbEntity
  8
60
  6
Continuous
 62
     0
370
    -2
100
AcDbLine
 10
334.2118020046001
 20
312.3083942698
 30
0.0
 11
358.4840461654001
 21
312.3083942698
 31
0.0
  0
LINE
  5
590
330
218
100
AcDbEntity
  8
60
  6
Continuous
 62
     0
370
    -2
100
AcDbLine
 10
358.3040461654001
 20
322.3083942698
 30
0.0
 11
358.3040461654001
 21
326.3083942698
 31
0.0
  0
LINE
  5
591
330
218
100
AcDbEntity
  8
60
  6
Continuous
 62
     0
370
    -2
100
AcDbLine
 10
358.3040461654001
 20
308.3083942698
 30
0.0
 11
358.3040461654001
 21
304.3083942698
 31
0.0
  0
INSERT
  5
592
330
218
100
AcDbEntity
  8
60
  6
Continuous
 62
     0
370
    -2
100
AcDbBlockReference
  2
_FILLED
 10
358.3040461654001
 20
318.3083942698
 30
0.0
 41
4.0
 42
4.0
 43
4.0
 50
270.0
  0
INSERT
  5
593
330
218
100
AcDbEntity
  8
60
  6
Continuous
 62
     0
370
    -2
100
AcDbBlockReference
  2
_FILLED
 10
358.3040461654001
 20
312.3083942698
 30
0.0
 41
4.0
 42
4.0
 43
4.0
 50
90.0
  0
MTEXT
  5
594
330
218
100
AcDbEntity
  8
60
  6
Continuous
 62
     0
100
AcDbMText
 10
356.4640461654001
 20
315.3083942698001
 30
0.0
 40
3.5
 41
0.0
 71
     5
 72
     1
  1
\A1;6
 11
0.0000000000000001
 21
1.0
 31
0.0
 73
     1
 44
1.0
  0
POINT
  5
595
330
218
100
AcDbEntity
  8
Defpoints
  6
Continuous
 62
     0
100
AcDbPoint
 10
334.1493020046
 20
318.3083942698
 30
0.0
  0
POINT
  5
596
330
218
100
AcDbEntity
  8
Defpoints
  6
Continuous
 62
     0
100
AcDbPoint
 10
334.1493020046
 20
312.3083942698
 30
0.0
  0
POINT
  5
597
330
218
100
AcDbEntity
  8
Defpoints
  6
Continuous
 62
     0
100
AcDbPoint
 10
358.3040461654001
 20
312.3083942698
 30
0.0
  0
ENDBLK
  5
25E
330
218
100
AcDbEntity
  8
0
  6
ByBlock
 62
     0
100
AcDbBlockEnd
  0
BLOCK
  5
25F
330
219
100
AcDbEntity
  8
60
  6
Continuous
 62
     1
100
AcDbBlockBegin
  2
*D7
 70
     1
 10
0.0
 20
0.0
 30
0.0
  3
*D7
  1

  0
LINE
  5
598
330
219
100
AcDbEntity
  8
60
  6
Continuous
 62
     0
370
    -2
100
AcDbLine
 10
334.2009135551
 20
158.5867072593
 30
0.0
 11
358.2783854920001
 21
158.5867072593
 31
0.0
  0
LINE
  5
599
330
219
100
AcDbEntity
  8
60
  6
Continuous
 62
     0
370
    -2
100
AcDbLine
 10
334.2009135551
 20
183.5867072593
 30
0.0
 11
358.2783854920001
 21
183.5867072593
 31
0.0
  0
LINE
  5
59A
330
219
100
AcDbEntity
  8
60
  6
Continuous
 62
     0
370
    -2
100
AcDbLine
 10
358.0983854920001
 20
162.5867072593
 30
0.0
 11
358.0983854920001
 21
179.5867072593
 31
0.0
  0
INSERT
  5
59B
330
219
100
AcDbEntity
  8
60
  6
Continuous
 62
     0
370
    -2
100
AcDbBlockReference
  2
_FILLED
 10
358.0983854920001
 20
158.5867072593
 30
0.0
 41
4.0
 42
4.0
 43
4.0
 50
270.0
  0
INSERT
  5
59C
330
219
100
AcDbEntity
  8
60
  6
Continuous
 62
     0
370
    -2
100
AcDbBlockReference
  2
_FILLED
 10
358.0983854920001
 20
183.5867072593
 30
0.0
 41
4.0
 42
4.0
 43
4.0
 50
90.0
  0
MTEXT
  5
59D
330
219
100
AcDbEntity
  8
60
  6
Continuous
 62
     0
100
AcDbMText
 10
356.2583854920001
 20
169.6867072593
 30
0.0
 40
3.5
 41
0.0
 71
     5
 72
     1
  1
\A1;25
 11
0.0000000000000001
 21
1.0
 31
0.0
 73
     1
 44
1.0
  0
POINT
  5
59E
330
219
100
AcDbEntity
  8
Defpoints
  6
Continuous
 62
     0
100
AcDbPoint
 10
334.1384135551
 20
158.5867072593
 30
0.0
  0
POINT
  5
59F
330
219
100
AcDbEntity
  8
Defpoints
  6
Continuous
 62
     0
100
AcDbPoint
 10
334.1384135551
 20
183.5867072593
 30
0.0
  0
POINT
  5
5A0
330
219
100
AcDbEntity
  8
Defpoints
  6
Continuous
 62
     0
100
AcDbPoint
 10
358.0983854920001
 20
183.5867072593
 30
0.0
  0
ENDBLK
  5
267
330
219
100
AcDbEntity
  8
0
  6
ByBlock
 62
     0
100
AcDbBlockEnd
  0
BLOCK
  5
268
330
21A
100
AcDbEntity
  8
60
  6
Continuous
 62
     1
100
AcDbBlockBegin
  2
*D8
 70
     1
 10
0.0
 20
0.0
 30
0.0
  3
*D8
  1

  0
LINE
  5
5A1
330
21A
100
AcDbEntity
  8
60
  6
Continuous
 62
     0
370
    -2
100
AcDbLine
 10
317.179862418619
 20
321.8256404575432
 30
0.0
 11
321.2726956246537
 21
337.1003019293687
 31
0.0
  0
LINE
  5
5A2
330
21A
100
AcDbEntity
  8
60
  6
Continuous
 62
     0
370
    -2
100
AcDbLine
 10
301.5954762516189
 20
325.4831723599431
 30
0.0
 11
305.8178824040494
 21
341.2414066510037
 31
0.0
  0
LINE
  5
5A3
330
21A
100
AcDbEntity
  8
60
  6
Continuous
 62
     0
370
    -2
100
AcDbLine
 10
317.362404891379
 20
337.9617114610468
 30
0.0
 11
309.6349982810872
 21
340.0322638218615
 31
0.0
  0
INSERT
  5
5A4
330
21A
100
AcDbEntity
  8
60
  6
Continuous
 62
     0
370
    -2
100
AcDbBlockReference
  2
_FILLED
 10
321.2261081965353
 20
336.9264352806366
 30
0.0
 41
4.0
 42
4.0
 43
4.0
 50
344.9999999999989
  0
INSERT
  5
5A5
330
21A
100
AcDbEntity
  8
60
  6
Continuous
 62
     0
370
    -2
100
AcDbBlockReference
  2
_FILLED
 10
305.771294975931
 20
341.0675400022717
 30
0.0
 41
4.0
 42
4.0
 43
4.0
 50
164.9999999999988
  0
MTEXT
  5
5A6
330
21A
100
AcDbEntity
  8
60
  6
Continuous
 62
     0
100
AcDbMText
 10
317.1866320015887
 20
339.9137178368718
 30
0.0
 40
3.5
 41
0.0
 71
     5
 72
     1
  1
\A1;%%c16
 11
0.9659258262890631
 21
-0.2588190451025402
 31
0.0
 73
     1
 44
1.0
  0
POINT
  5
5A7
330
21A
100
AcDbEntity
  8
Defpoints
  6
Continuous
 62
     0
100
AcDbPoint
 10
317.1636862283
 20
321.7652700934001
 30
0.0
  0
POINT
  5
5A8
330
21A
100
AcDbEntity
  8
Defpoints
  6
Continuous
 62
     0
100
AcDbPoint
 10
301.5793000613001
 20
325.4228019958
 30
0.0
  0
POINT
  5
5A9
330
21A
100
AcDbEntity
  8
Defpoints
  6
Continuous
 62
     0
100
AcDbPoint
 10
305.771294975931
 20
341.0675400022717
 30
0.0
  0
ENDBLK
  5
271
330
21A
100
AcDbEntity
  8
0
  6
ByBlock
 62
     0
100
AcDbBlockEnd
  0
BLOCK
  5
272
330
211
100
AcDbEntity
  8
0
100
AcDbBlockBegin
  2
_FILLED
 70
     0
 10
0.0
 20
0.0
 30
0.0
  3
_FILLED
  1

  0
SOLID
  5
273
330
211
100
AcDbEntity
  8
0
  6
ByBlock
 62
     0
100
AcDbTrace
 10
0.0
 20
0.0
 30
0.0
 11
-1.0
 21
0.1875
 31
0.0
 12
-1.0
 22
-0.1875
 32
0.0
 13
-1.0
 23
-0.1875
 33
0.0
  0
ENDBLK
  5
274
330
211
100
AcDbEntity
  8
0
  6
ByBlock
 62
     0
100
AcDbBlockEnd
  0
BLOCK
  5
623
330
54D
100
AcDbEntity
  8
0
100
AcDbBlockBegin
  2
GENAXEH
 70
     0
 10
0.0
 20
0.0
 30
0.0
  3
GENAXEH
  1

  0
LINE
  5
624
330
54D
100
AcDbEntity
  8
0
100
AcDbLine
 10
-1.0
 20
0.0
 30
0.0
 11
1.0
 21
0.0
 31
0.0
  0
ENDBLK
  5
625
330
54D
100
AcDbEntity
  8
0
100
AcDbBlockEnd
  0
BLOCK
  5
6D3
330
6D2
100
AcDbEntity
  8
0
100
AcDbBlockBegin
  2
*D13
 70
     1
 10
0.0
 20
0.0
 30
0.0
  3
*D13
  1

  0
LINE
  5
6ED
330
6D2
100
AcDbEntity
  8
AM_5 ( Bemassung)
100
AcDbLine
 10
190.2635269853
 20
172.3568868123257
 30
0.0
 11
190.2635269853
 21
275.4329338686666
 31
0.0
  0
LINE
  5
6EE
330
6D2
100
AcDbEntity
  8
AM_5 ( Bemassung)
100
AcDbLine
 10
340.2635269853
 20
171.0867072593
 30
0.0
 11
340.2635269853
 21
275.4329338686666
 31
0.0
  0
LINE
  5
6EF
330
6D2
100
AcDbEntity
  8
AM_5 ( Bemassung)
100
AcDbLine
 10
110.2635269853
 20
255.4329338686666
 30
0.0
 11
30.26352698530002
 21
255.4329338686666
 31
0.0
  0
LINE
  5
6F0
330
6D2
100
AcDbEntity
  8
AM_5 ( Bemassung)
100
AcDbLine
 10
420.2635269853
 20
255.4329338686666
 30
0.0
 11
708.1898571353682
 21
255.4329338686666
 31
0.0
  0
LINE
  5
6F1
330
6D2
100
AcDbEntity
  8
AM_5 ( Bemassung)
100
AcDbLine
 10
190.2635269853
 20
255.4329338686666
 30
0.0
 11
340.2635269853
 21
255.4329338686666
 31
0.0
  0
SOLID
  5
6F2
330
6D2
100
AcDbEntity
  8
AM_5 ( Bemassung)
100
AcDbTrace
 10
110.2635269853
 20
268.766267202
 30
0.0
 11
110.2635269853
 21
242.0996005353333
 31
0.0
 12
190.2635269853
 22
255.4329338686666
 32
0.0
 13
190.2635269853
 23
255.4329338686666
 33
0.0
  0
SOLID
  5
6F3
330
6D2
100
AcDbEntity
  8
AM_5 ( Bemassung)
100
AcDbTrace
 10
420.2635269853
 20
268.766267202
 30
0.0
 11
420.2635269853
 21
242.0996005353333
 31
0.0
 12
340.2635269853
 22
255.4329338686666
 32
0.0
 13
340.2635269853
 23
255.4329338686666
 33
0.0
  0
MTEXT
  5
6F4
330
6D2
100
AcDbEntity
  8
AM_5 ( Bemassung)
 62
     2
100
AcDbMText
 10
604.2266920603341
 20
321.1969174975889
 30
0.0
 40
70.0
 41
0.0
 71
     5
 72
     1
  1
150
 73
     1
 44
1.0
  0
POINT
  5
6F5
330
6D2
100
AcDbEntity
  8
Defpoints
 62
     0
100
AcDbPoint
 10
190.2635269853
 20
172.3568868123257
 30
0.0
  0
POINT
  5
6F6
330
6D2
100
AcDbEntity
  8
Defpoints
 62
     0
100
AcDbPoint
 10
340.2635269853
 20
171.0867072593
 30
0.0
  0
POINT
  5
6F7
330
6D2
100
AcDbEntity
  8
Defpoints
 62
     0
100
AcDbPoint
 10
340.2635269853
 20
255.4329338686666
 30
0.0
  0
ENDBLK
  5
6D4
330
6D2
100
AcDbEntity
  8
0
100
AcDbBlockEnd
  0
BLOCK
  5
6FA
330
6F9
100
AcDbEntity
  8
0
100
AcDbBlockBegin
  2
*D14
 70
     1
 10
0.0
 20
0.0
 30
0.0
  3
*D14
  1

  0
LINE
  5
710
330
6F9
100
AcDbEntity
  8
AM_5 ( Bemassung)
100
AcDbLine
 10
334.1384135551
 20
171.0867072593
 30
0.0
 11
334.1384135551
 21
44.08670624929996
 31
0.0
  0
LINE
  5
711
330
6F9
100
AcDbEntity
  8
AM_5 ( Bemassung)
100
AcDbLine
 10
196.3777519661
 20
171.0867072593
 30
0.0
 11
196.3777519661
 21
44.08670624929996
 31
0.0
  0
LINE
  5
712
330
6F9
100
AcDbEntity
  8
AM_5 ( Bemassung)
100
AcDbLine
 10
318.1384135551
 20
48.08670624929996
 30
0.0
 11
212.3777519661
 21
48.08670624929996
 31
0.0
  0
SOLID
  5
713
330
6F9
100
AcDbEntity
  8
AM_5 ( Bemassung)
100
AcDbTrace
 10
318.1384135551
 20
50.75337291596663
 30
0.0
 11
318.1384135551
 21
45.4200395826333
 31
0.0
 12
334.1384135551
 22
48.08670624929996
 32
0.0
 13
334.1384135551
 23
48.08670624929996
 33
0.0
  0
SOLID
  5
714
330
6F9
100
AcDbEntity
  8
AM_5 ( Bemassung)
100
AcDbTrace
 10
212.3777519661
 20
50.75337291596663
 30
0.0
 11
212.3777519661
 21
45.4200395826333
 31
0.0
 12
196.3777519661
 22
48.08670624929996
 32
0.0
 13
196.3777519661
 23
48.08670624929996
 33
0.0
  0
MTEXT
  5
715
330
6F9
100
AcDbEntity
  8
AM_5 ( Bemassung)
 62
     2
100
AcDbMText
 10
265.2580827606
 20
61.23950297508441
 30
0.0
 40
14.0
 41
0.0
 71
     5
 72
     1
  1
137.76
 73
     1
 44
1.0
  0
POINT
  5
716
330
6F9
100
AcDbEntity
  8
Defpoints
 62
     0
100
AcDbPoint
 10
334.1384135551
 20
171.0867072593
 30
0.0
  0
POINT
  5
717
330
6F9
100
AcDbEntity
  8
Defpoints
 62
     0
100
AcDbPoint
 10
196.3777519661
 20
171.0867072593
 30
0.0
  0
POINT
  5
718
330
6F9
100
AcDbEntity
  8
Defpoints
 62
     0
100
AcDbPoint
 10
196.3777519661
 20
48.08670624929996
 30
0.0
  0
ENDBLK
  5
6FB
330
6F9
100
AcDbEntity
  8
0
100
AcDbBlockEnd
  0
BLOCK
  5
71B
330
71A
100
AcDbEntity
  8
0
100
AcDbBlockBegin
  2
*D15
 70
     1
 10
0.0
 20
0.0
 30
0.0
  3
*D15
  1

  0
LINE
  5
76D
330
71A
100
AcDbEntity
  8
AM_5 ( Bemassung)
100
AcDbLine
 10
221.0135269853001
 20
312.3083942698
 30
0.0
 11
221.0135269853001
 21
275.4611909955845
 31
0.0
  0
LINE
  5
76E
330
71A
100
AcDbEntity
  8
AM_5 ( Bemassung)
100
AcDbLine
 10
309.5135269853
 20
312.3083942698
 30
0.0
 11
309.5135269853
 21
275.4611909955845
 31
0.0
  0
LINE
  5
76F
330
71A
100
AcDbEntity
  8
AM_5 ( Bemassung)
100
AcDbLine
 10
229.0135269853001
 20
277.4611909955845
 30
0.0
 11
301.5135269853
 21
277.4611909955845
 31
0.0
  0
SOLID
  5
770
330
71A
100
AcDbEntity
  8
AM_5 ( Bemassung)
100
AcDbTrace
 10
229.0135269853001
 20
278.7945243289178
 30
0.0
 11
229.0135269853001
 21
276.1278576622511
 31
0.0
 12
221.0135269853001
 22
277.4611909955845
 32
0.0
 13
221.0135269853001
 23
277.4611909955845
 33
0.0
  0
SOLID
  5
771
330
71A
100
AcDbEntity
  8
AM_5 ( Bemassung)
100
AcDbTrace
 10
301.5135269853
 20
278.7945243289178
 30
0.0
 11
301.5135269853
 21
276.1278576622511
 31
0.0
 12
309.5135269853
 22
277.4611909955845
 32
0.0
 13
309.5135269853
 23
277.4611909955845
 33
0.0
  0
MTEXT
  5
772
330
71A
100
AcDbEntity
  8
AM_5 ( Bemassung)
 62
     2
100
AcDbMText
 10
266.3668342744097
 20
284.0375893584767
 30
0.0
 40
7.0
 41
0.0
 71
     5
 72
     1
  1
88.5
 73
     1
 44
1.0
  0
POINT
  5
773
330
71A
100
AcDbEntity
  8
Defpoints
 62
     0
100
AcDbPoint
 10
221.0135269853001
 20
312.3083942698
 30
0.0
  0
POINT
  5
774
330
71A
100
AcDbEntity
  8
Defpoints
 62
     0
100
AcDbPoint
 10
309.5135269853
 20
312.3083942698
 30
0.0
  0
POINT
  5
775
330
71A
100
AcDbEntity
  8
Defpoints
 62
     0
100
AcDbPoint
 10
309.5135269853
 20
277.4611909955845
 30
0.0
  0
ENDBLK
  5
71C
330
71A
100
AcDbEntity
  8
0
100
AcDbBlockEnd
  0
BLOCK
  5
74E
330
74D
100
AcDbEntity
  8
0
100
AcDbBlockBegin
  2
*D16
 70
     1
 10
0.0
 20
0.0
 30
0.0
  3
*D16
  1

  0
LINE
  5
764
330
74D
100
AcDbEntity
  8
AM_5 ( Bemassung)
100
AcDbLine
 10
190.2635269853
 20
171.0867072593
 30
0.0
 11
190.2635269853
 21
260.0226432148286
 31
0.0
  0
LINE
  5
765
330
74D
100
AcDbEntity
  8
AM_5 ( Bemassung)
100
AcDbLine
 10
340.2635269853
 20
171.0867072593
 30
0.0
 11
340.2635269853
 21
260.0226432148286
 31
0.0
  0
LINE
  5
766
330
74D
100
AcDbEntity
  8
AM_5 ( Bemassung)
100
AcDbLine
 10
198.2635269853
 20
258.0226432148286
 30
0.0
 11
332.2635269853
 21
258.0226432148286
 31
0.0
  0
SOLID
  5
767
330
74D
100
AcDbEntity
  8
AM_5 ( Bemassung)
100
AcDbTrace
 10
198.2635269853
 20
259.3559765481619
 30
0.0
 11
198.2635269853
 21
256.6893098814952
 31
0.0
 12
190.2635269853
 22
258.0226432148286
 32
0.0
 13
190.2635269853
 23
258.0226432148286
 33
0.0
  0
SOLID
  5
768
330
74D
100
AcDbEntity
  8
AM_5 ( Bemassung)
100
AcDbTrace
 10
332.2635269853
 20
259.3559765481619
 30
0.0
 11
332.2635269853
 21
256.6893098814952
 31
0.0
 12
340.2635269853
 22
258.0226432148286
 32
0.0
 13
340.2635269853
 23
258.0226432148286
 33
0.0
  0
MTEXT
  5
769
330
74D
100
AcDbEntity
  8
AM_5 ( Bemassung)
 62
     2
100
AcDbMText
 10
265.2635269853
 20
264.5990415777208
 30
0.0
 40
7.0
 41
0.0
 71
     5
 72
     1
  1
150
 73
     1
 44
1.0
  0
POINT
  5
76A
330
74D
100
AcDbEntity
  8
Defpoints
 62
     0
100
AcDbPoint
 10
190.2635269853
 20
171.0867072593
 30
0.0
  0
POINT
  5
76B
330
74D
100
AcDbEntity
  8
Defpoints
 62
     0
100
AcDbPoint
 10
340.2635269853
 20
171.0867072593
 30
0.0
  0
POINT
  5
76C
330
74D
100
AcDbEntity
  8
Defpoints
 62
     0
100
AcDbPoint
 10
340.2635269853
 20
258.0226432148286
 30
0.0
  0
ENDBLK
  5
74F
330
74D
100
AcDbEntity
  8
0
100
AcDbBlockEnd
  0
BLOCK
  5
781
330
780
100
AcDbEntity
  8
0
100
AcDbBlockBegin
  2
*D17
 70
     1
 10
0.0
 20
0.0
 30
0.0
  3
*D17
  1

  0
LINE
  5
7B1
330
780
100
AcDbEntity
  8
AM_5 ( Bemassung)
100
AcDbLine
 10
265.2635269853
 20
312.3083942698
 30
0.0
 11
164.263525975197
 21
312.3083942698
 31
0.0
  0
LINE
  5
7B2
330
780
100
AcDbEntity
  8
AM_5 ( Bemassung)
100
AcDbLine
 10
265.2635269853
 20
333.8664107198001
 30
0.0
 11
164.263525975197
 21
333.8664107198001
 31
0.0
  0
LINE
  5
7B3
330
780
100
AcDbEntity
  8
AM_5 ( Bemassung)
100
AcDbLine
 10
166.263525975197
 20
304.3083942698
 30
0.0
 11
166.263525975197
 21
296.3083942698
 31
0.0
  0
LINE
  5
7B4
330
780
100
AcDbEntity
  8
AM_5 ( Bemassung)
100
AcDbLine
 10
166.263525975197
 20
341.8664107198001
 30
0.0
 11
166.263525975197
 21
349.8664107198
 31
0.0
  0
LINE
  5
7B5
330
780
100
AcDbEntity
  8
AM_5 ( Bemassung)
100
AcDbLine
 10
166.263525975197
 20
312.3083942698
 30
0.0
 11
166.263525975197
 21
333.8664107198001
 31
0.0
  0
SOLID
  5
7B6
330
780
100
AcDbEntity
  8
AM_5 ( Bemassung)
100
AcDbTrace
 10
164.9301926418636
 20
304.3083942698
 30
0.0
 11
167.5968593085303
 21
304.3083942698
 31
0.0
 12
166.263525975197
 22
312.3083942698
 32
0.0
 13
166.263525975197
 23
312.3083942698
 33
0.0
  0
SOLID
  5
7B7
330
780
100
AcDbEntity
  8
AM_5 ( Bemassung)
100
AcDbTrace
 10
164.9301926418637
 20
341.8664107198001
 30
0.0
 11
167.5968593085303
 21
341.8664107198001
 31
0.0
 12
166.263525975197
 22
333.8664107198001
 32
0.0
 13
166.263525975197
 23
333.8664107198001
 33
0.0
  0
MTEXT
  5
7B8
330
780
100
AcDbEntity
  8
AM_5 ( Bemassung)
 62
     2
100
AcDbMText
 10
159.7468138333143
 20
323.0874024948001
 30
0.0
 40
7.0
 41
0.0
 71
     5
 72
     1
  1
22
 11
0.0000000000000001
 21
1.0
 31
0.0
 73
     1
 44
1.0
  0
POINT
  5
7B9
330
780
100
AcDbEntity
  8
Defpoints
 62
     0
100
AcDbPoint
 10
265.2635269853
 20
312.3083942698
 30
0.0
  0
POINT
  5
7BA
330
780
100
AcDbEntity
  8
Defpoints
 62
     0
100
AcDbPoint
 10
265.2635269853
 20
333.8664107198001
 30
0.0
  0
POINT
  5
7BB
330
780
100
AcDbEntity
  8
Defpoints
 62
     0
100
AcDbPoint
 10
166.263525975197
 20
333.8664107198001
 30
0.0
  0
ENDBLK
  5
782
330
780
100
AcDbEntity
  8
0
100
AcDbBlockEnd
  0
BLOCK
  5
7BE
330
7BD
100
AcDbEntity
  8
0
100
AcDbBlockBegin
  2
*D18
 70
     1
 10
0.0
 20
0.0
 30
0.0
  3
*D18
  1

  0
LINE
  5
805
330
7BD
100
AcDbEntity
  8
AM_5 ( Bemassung)
100
AcDbLine
 10
216.5135269853001
 20
312.3083942698
 30
0.0
 11
216.5135269853001
 21
292.3201823024847
 31
0.0
  0
LINE
  5
806
330
7BD
100
AcDbEntity
  8
AM_5 ( Bemassung)
100
AcDbLine
 10
225.5135269853
 20
312.3083942698
 30
0.0
 11
225.5135269853
 21
292.3201823024847
 31
0.0
  0
LINE
  5
807
330
7BD
100
AcDbEntity
  8
AM_5 ( Bemassung)
100
AcDbLine
 10
208.5135269853001
 20
294.3201823024847
 30
0.0
 11
200.5135269853
 21
294.3201823024847
 31
0.0
  0
LINE
  5
808
330
7BD
100
AcDbEntity
  8
AM_5 ( Bemassung)
100
AcDbLine
 10
233.5135269853001
 20
294.3201823024847
 30
0.0
 11
262.6213032472373
 21
294.3201823024847
 31
0.0
  0
LINE
  5
809
330
7BD
100
AcDbEntity
  8
AM_5 ( Bemassung)
100
AcDbLine
 10
216.5135269853001
 20
294.3201823024847
 30
0.0
 11
225.5135269853
 21
294.3201823024847
 31
0.0
  0
SOLID
  5
80A
330
7BD
100
AcDbEntity
  8
AM_5 ( Bemassung)
100
AcDbTrace
 10
208.5135269853001
 20
295.653515635818
 30
0.0
 11
208.5135269853001
 21
292.9868489691514
 31
0.0
 12
216.5135269853001
 22
294.3201823024847
 32
0.0
 13
216.5135269853001
 23
294.3201823024847
 33
0.0
  0
SOLID
  5
80B
330
7BD
100
AcDbEntity
  8
AM_5 ( Bemassung)
100
AcDbTrace
 10
233.5135269853001
 20
295.653515635818
 30
0.0
 11
233.5135269853001
 21
292.9868489691514
 31
0.0
 12
225.5135269853
 22
294.3201823024847
 32
0.0
 13
225.5135269853
 23
294.3201823024847
 33
0.0
  0
MTEXT
  5
80C
330
7BD
100
AcDbEntity
  8
AM_5 ( Bemassung)
 62
     2
100
AcDbMText
 10
252.0674151162687
 20
300.9491045398653
 30
0.0
 40
7.0
 41
0.0
 71
     5
 72
     1
  1
%%c 9
 73
     1
 44
1.0
  0
POINT
  5
80D
330
7BD
100
AcDbEntity
  8
Defpoints
 62
     0
100
AcDbPoint
 10
216.5135269853001
 20
312.3083942698
 30
0.0
  0
POINT
  5
80E
330
7BD
100
AcDbEntity
  8
Defpoints
 62
     0
100
AcDbPoint
 10
225.5135269853
 20
312.3083942698
 30
0.0
  0
POINT
  5
80F
330
7BD
100
AcDbEntity
  8
Defpoints
 62
     0
100
AcDbPoint
 10
225.5135269853
 20
294.3201823024847
 30
0.0
  0
ENDBLK
  5
7BF
330
7BD
100
AcDbEntity
  8
0
100
AcDbBlockEnd
  0
BLOCK
  5
84F
330
84E
100
AcDbEntity
  8
0
100
AcDbBlockBegin
  2
*D19
 70
     1
 10
0.0
 20
0.0
 30
0.0
  3
*D19
  1

  0
LINE
  5
865
330
84E
100
AcDbEntity
  8
AM_5 ( Bemassung)
100
AcDbLine
 10
340.2635269853
 20
171.0867072593
 30
0.0
 11
340.2635269853
 21
259.9027052096071
 31
0.0
  0
LINE
  5
866
330
84E
100
AcDbEntity
  8
AM_5 ( Bemassung)
100
AcDbLine
 10
190.2635269853
 20
171.0867072593
 30
0.0
 11
190.2635269853
 21
259.9027052096071
 31
0.0
  0
LINE
  5
867
330
84E
100
AcDbEntity
  8
AM_5 ( Bemassung)
100
AcDbLine
 10
332.2635269853
 20
257.9027052096071
 30
0.0
 11
198.2635269853
 21
257.9027052096071
 31
0.0
  0
SOLID
  5
868
330
84E
100
AcDbEntity
  8
AM_5 ( Bemassung)
100
AcDbTrace
 10
332.2635269853
 20
259.2360385429405
 30
0.0
 11
332.2635269853
 21
256.5693718762738
 31
0.0
 12
340.2635269853
 22
257.9027052096071
 32
0.0
 13
340.2635269853
 23
257.9027052096071
 33
0.0
  0
SOLID
  5
869
330
84E
100
AcDbEntity
  8
AM_5 ( Bemassung)
100
AcDbTrace
 10
198.2635269853
 20
259.2360385429405
 30
0.0
 11
198.2635269853
 21
256.5693718762738
 31
0.0
 12
190.2635269853
 22
257.9027052096071
 32
0.0
 13
190.2635269853
 23
257.9027052096071
 33
0.0
  0
MTEXT
  5
86A
330
84E
100
AcDbEntity
  8
AM_5 ( Bemassung)
 62
     2
100
AcDbMText
 10
265.2635269853
 20
264.4791035724994
 30
0.0
 40
7.0
 41
0.0
 71
     5
 72
     1
  1
150
 73
     1
 44
1.0
  0
POINT
  5
86B
330
84E
100
AcDbEntity
  8
Defpoints
 62
     0
100
AcDbPoint
 10
340.2635269853
 20
171.0867072593
 30
0.0
  0
POINT
  5
86C
330
84E
100
AcDbEntity
  8
Defpoints
 62
     0
100
AcDbPoint
 10
190.2635269853
 20
171.0867072593
 30
0.0
  0
POINT
  5
86D
330
84E
100
AcDbEntity
  8
Defpoints
 62
     0
100
AcDbPoint
 10
190.2635269853
 20
257.9027052096071
 30
0.0
  0
ENDBLK
  5
850
330
84E
100
AcDbEntity
  8
0
100
AcDbBlockEnd
  0
ENDSEC
  0
SECTION
  2
ENTITIES
  0
LINE
  5
307
330
1F
100
AcDbEntity
  8
AM_0 ( Kontur 0.5 )
100
AcDbLine
 10
190.4160243708
 20
318.7561813869
 30
0.0
 11
191.1431327166
 21
319.4832897327001
 31
0.0
  0
LINE
  5
30C
102
{ACAD_REACTORS
330
727
102
}
330
1F
100
AcDbEntity
  8
AM_0 ( Kontur 0.5 )
100
AcDbLine
 10
309.5135269853
 20
320.8557077901001
 30
0.0
 11
309.5135269853
 21
304.6638927765
 31
0.0
  0
LINE
  5
30D
102
{ACAD_REACTORS
330
78F
102
}
330
1F
100
AcDbEntity
  8
AM_7 (Mittellinie)
  6
AM_ISO08W050x2
100
AcDbLine
 10
265.2635269853
 20
343.8367337365
 30
0.0
 11
265.2635269853
 21
304.8613836412001
 31
0.0
  0
ARC
  5
30E
330
1F
100
AcDbEntity
  8
AM_7 (Mittellinie)
  6
AM_ISO08W050x2
100
AcDbCircle
 10
265.2635269853
 20
171.0867072593
 30
0.0
 40
44.24999999999999
100
AcDbArc
 50
157.1517854351005
 51
202.5541713630996
  0
LINE
  5
30F
102
{ACAD_REACTORS
330
85B
102
}
330
1F
100
AcDbEntity
  8
AM_7 (Mittellinie)
  6
AM_ISO08W050x2
100
AcDbLine
 10
348.7331593579
 20
171.0867072593
 30
0.0
 11
180.2016053208
 21
171.0867072593
 31
0.0
  0
ARC
  5
310
330
1F
100
AcDbEntity
  8
AM_7 (Mittellinie)
  6
AM_ISO08W050x2
100
AcDbCircle
 10
265.2635269853
 20
171.0867072593
 30
0.0
 40
44.24999999999999
100
AcDbArc
 50
317.7640141896
 51
22.84821456489942
  0
LINE
  5
311
330
1F
100
AcDbEntity
  8
AM_7 (Mittellinie)
  6
AM_ISO08W050x2
100
AcDbLine
 10
265.2635269853
 20
91.86894543740004
 30
0.0
 11
265.2635269853
 21
253.5141830359
 31
0.0
  0
LINE
  5
313
330
1F
100
AcDbEntity
  8
AM_3 ( Verdeckt )
  6
AM_ISO02W050x2
100
AcDbLine
 10
213.9093645445
 20
183.5867072593
 30
0.0
 11
229.8058056824
 21
183.5867072593
 31
0.0
  0
LINE
  5
315
330
1F
100
AcDbEntity
  8
AM_3 ( Verdeckt )
  6
AM_ISO02W050x2
100
AcDbLine
 10
213.9093645445
 20
158.5867072593
 30
0.0
 11
229.8058056824
 21
158.5867072593
 31
0.0
  0
LINE
  5
317
330
1F
100
AcDbEntity
  8
AM_3 ( Verdeckt )
  6
AM_ISO02W050x2
100
AcDbLine
 10
208.7192965104
 20
183.5867072593
 30
0.0
 11
203.0059973203
 21
183.5867072593
 31
0.0
  0
LINE
  5
319
330
1F
100
AcDbEntity
  8
AM_3 ( Verdeckt )
  6
AM_ISO02W050x2
100
AcDbLine
 10
208.7192965104
 20
158.5867072593
 30
0.0
 11
203.0059973203
 21
158.5867072593
 31
0.0
  0
LINE
  5
31D
102
{ACAD_REACTORS
330
727
102
}
330
1F
100
AcDbEntity
  8
AM_0 ( Kontur 0.5 )
100
AcDbLine
 10
221.0135269853001
 20
316.3557800607001
 30
0.0
 11
221.0135269853001
 21
304.6638927765
 31
0.0
  0
LINE
  5
321
330
1F
100
AcDbEntity
  8
AM_3 ( Verdeckt )
  6
AM_ISO02W050x2
100
AcDbLine
 10
239.6510300356
 20
158.5867072593
 30
0.0
 11
234.1829864495
 21
158.5867072593
 31
0.0
  0
LINE
  5
322
330
1F
100
AcDbEntity
  8
AM_3 ( Verdeckt )
  6
AM_ISO02W050x2
100
AcDbLine
 10
239.6510300356
 20
183.5867072593
 30
0.0
 11
234.1829864495
 21
183.5867072593
 31
0.0
  0
LINE
  5
323
330
1F
100
AcDbEntity
  8
AM_3 ( Verdeckt )
  6
AM_ISO02W050x2
100
AcDbLine
 10
327.5210566504
 20
183.5867072593
 30
0.0
 11
321.5354537927
 21
183.5867072593
 31
0.0
  0
LINE
  5
324
330
1F
100
AcDbEntity
  8
AM_3 ( Verdeckt )
  6
AM_ISO02W050x2
100
AcDbLine
 10
327.5210566504
 20
158.5867072593
 30
0.0
 11
321.5354537927
 21
158.5867072593
 31
0.0
  0
LINE
  5
325
330
1F
100
AcDbEntity
  8
AM_3 ( Verdeckt )
  6
AM_ISO02W050x2
100
AcDbLine
 10
300.7212482883
 20
158.5867072593
 30
0.0
 11
316.6176894262
 21
158.5867072593
 31
0.0
  0
LINE
  5
326
330
1F
100
AcDbEntity
  8
AM_3 ( Verdeckt )
  6
AM_ISO02W050x2
100
AcDbLine
 10
296.3440675212
 20
183.5867072593
 30
0.0
 11
289.4967686175
 21
183.5867072593
 31
0.0
  0
LINE
  5
327
330
1F
100
AcDbEntity
  8
AM_3 ( Verdeckt )
  6
AM_ISO02W050x2
100
AcDbLine
 10
285.1632757275
 20
183.5867072593
 30
0.0
 11
245.3637782432
 21
183.5867072593
 31
0.0
  0
LINE
  5
328
330
1F
100
AcDbEntity
  8
AM_3 ( Verdeckt )
  6
AM_ISO02W050x2
100
AcDbLine
 10
296.3440675212
 20
158.5867072593
 30
0.0
 11
289.4967686175
 21
158.5867072593
 31
0.0
  0
LINE
  5
329
330
1F
100
AcDbEntity
  8
AM_3 ( Verdeckt )
  6
AM_ISO02W050x2
100
AcDbLine
 10
285.1632757275
 20
158.5867072593
 30
0.0
 11
245.3637782432
 21
158.5867072593
 31
0.0
  0
LINE
  5
32A
330
1F
100
AcDbEntity
  8
AM_3 ( Verdeckt )
  6
AM_ISO02W050x2
100
AcDbLine
 10
316.6176894262
 20
183.5867072593
 30
0.0
 11
300.7212482883
 21
183.5867072593
 31
0.0
  0
LINE
  5
32B
330
1F
100
AcDbEntity
  8
AM_3 ( Verdeckt )
  6
AM_ISO02W050x2
100
AcDbLine
 10
334.1384135551
 20
183.5867072593
 30
0.0
 11
332.6133599473
 21
183.5867072593
 31
0.0
  0
LINE
  5
32C
330
1F
100
AcDbEntity
  8
AM_3 ( Verdeckt )
  6
AM_ISO02W050x2
100
AcDbLine
 10
334.1384135551
 20
158.5867072593
 30
0.0
 11
332.6133599473
 21
158.5867072593
 31
0.0
  0
LINE
  5
32D
330
1F
100
AcDbEntity
  8
AM_3 ( Verdeckt )
  6
AM_ISO02W050x2
100
AcDbLine
 10
196.3777519661
 20
183.5867072593
 30
0.0
 11
197.9136940234
 21
183.5867072593
 31
0.0
  0
LINE
  5
32E
330
1F
100
AcDbEntity
  8
AM_3 ( Verdeckt )
  6
AM_ISO02W050x2
100
AcDbLine
 10
196.3777519661
 20
158.5867072593
 30
0.0
 11
197.9136940234
 21
158.5867072593
 31
0.0
  0
LINE
  5
32F
330
1F
100
AcDbEntity
  8
AM_3 ( Verdeckt )
  6
AM_ISO02W050x2
100
AcDbLine
 10
334.1384135551
 20
183.5867072593
 30
0.0
 11
334.1384135551
 21
158.5867072593
 31
0.0
  0
LINE
  5
330
330
1F
100
AcDbEntity
  8
AM_3 ( Verdeckt )
  6
AM_ISO02W050x2
100
AcDbLine
 10
196.3777519661
 20
183.5867072593
 30
0.0
 11
196.3777519661
 21
158.5867072593
 31
0.0
  0
ARC
  5
331
330
1F
100
AcDbEntity
  8
AM_0 ( Kontur 0.5 )
100
AcDbCircle
 10
265.2635269853
 20
171.0867072593
 30
0.0
 40
68.5
100
AcDbArc
 50
140.6519277148997
 51
172.1625205122987
  0
ARC
  5
332
330
1F
100
AcDbEntity
  8
AM_0 ( Kontur 0.5 )
100
AcDbCircle
 10
265.2635269853
 20
171.0867072593
 30
0.0
 40
63.5
100
AcDbArc
 50
140.6519279902004
 51
172.1625202368999
  0
CIRCLE
  5
333
330
1F
100
AcDbEntity
  8
AM_0 ( Kontur 0.5 )
100
AcDbCircle
 10
221.0135269853
 20
171.0867072593
 30
0.0
 40
8.0
  0
CIRCLE
  5
334
330
1F
100
AcDbEntity
  8
AM_0 ( Kontur 0.5 )
100
AcDbCircle
 10
221.0135269853
 20
171.0867072593
 30
0.0
 40
4.5
  0
CIRCLE
  5
335
102
{ACAD_REACTORS
330
85B
102
}
330
1F
100
AcDbEntity
  8
AM_0 ( Kontur 0.5 )
100
AcDbCircle
 10
265.2635269853
 20
171.0867072593
 30
0.0
 40
75.0
  0
ARC
  5
336
330
1F
100
AcDbEntity
  8
AM_0 ( Kontur 0.5 )
100
AcDbCircle
 10
214.2251645689
 20
212.9326815203
 30
0.0
 40
2.5
100
AcDbArc
 50
320.6519279902004
 51
140.6519355344008
  0
ARC
  5
337
330
1F
100
AcDbEntity
  8
AM_0 ( Kontur 0.5 )
100
AcDbCircle
 10
199.8800428322
 20
180.0867072593
 30
0.0
 40
2.5
100
AcDbArc
 50
172.1625126927009
 51
352.1625202368999
  0
ARC
  5
338
330
1F
100
AcDbEntity
  8
AM_0 ( Kontur 0.5 )
100
AcDbCircle
 10
265.2635269853
 20
171.0867072593
 30
0.0
 40
58.5
100
AcDbArc
 50
141.6654272561991
 51
165.576115904201
  0
ARC
  5
339
330
1F
100
AcDbEntity
  8
AM_0 ( Kontur 0.5 )
100
AcDbCircle
 10
265.2635269853
 20
171.0867072593
 30
0.0
 40
53.5
100
AcDbArc
 50
141.6654270494004
 51
165.5761159080987
  0
ARC
  5
33A
330
1F
100
AcDbEntity
  8
AM_0 ( Kontur 0.5 )
100
AcDbCircle
 10
221.3370011013
 20
205.8208449879
 30
0.0
 40
2.5
100
AcDbArc
 50
321.6654228297998
 51
141.6654272561991
  0
ARC
  5
33B
330
1F
100
AcDbEntity
  8
AM_0 ( Kontur 0.5 )
100
AcDbCircle
 10
211.028680087
 20
185.0359503182
 30
0.0
 40
2.5
100
AcDbArc
 50
165.5761148969993
 51
345.5761168289011
  0
ARC
  5
33C
330
1F
100
AcDbEntity
  8
AM_0 ( Kontur 0.5 )
100
AcDbCircle
 10
265.2635269853
 20
171.0867072593
 30
0.0
 40
43.5
100
AcDbArc
 50
143.1233302596
 51
159.8500695105989
  0
ARC
  5
33D
330
1F
100
AcDbEntity
  8
AM_0 ( Kontur 0.5 )
100
AcDbCircle
 10
265.2635269853
 20
171.0867072593
 30
0.0
 40
48.5
100
AcDbArc
 50
143.1233301808991
 51
159.8500693351009
  0
ARC
  5
33E
330
1F
100
AcDbEntity
  8
AM_0 ( Kontur 0.5 )
100
AcDbCircle
 10
228.466789434
 20
198.6910566552
 30
0.0
 40
2.5
100
AcDbArc
 50
323.1233302596
 51
143.1233287323995
  0
ARC
  5
33F
330
1F
100
AcDbEntity
  8
AM_0 ( Kontur 0.5 )
100
AcDbCircle
 10
222.0789840446
 20
186.9326925868
 30
0.0
 40
2.5
100
AcDbArc
 50
159.8500693351009
 51
339.8500723895999
  0
ARC
  5
340
330
1F
100
AcDbEntity
  8
AM_0 ( Kontur 0.5 )
100
AcDbCircle
 10
265.2635269853
 20
171.0867072593
 30
0.0
 40
33.5
100
AcDbArc
 50
145.4021206595009
 51
157.2137148691995
  0
ARC
  5
341
330
1F
100
AcDbEntity
  8
AM_0 ( Kontur 0.5 )
100
AcDbCircle
 10
265.2635269853
 20
171.0867072593
 30
0.0
 40
38.5
100
AcDbArc
 50
145.4021210089988
 51
157.2137152128
  0
ARC
  5
342
330
1F
100
AcDbEntity
  8
AM_0 ( Kontur 0.5 )
100
AcDbCircle
 10
235.6298609905
 20
191.5279850987
 30
0.0
 40
2.5
100
AcDbArc
 50
325.4021163264011
 51
145.4021210089988
  0
ARC
  5
343
330
1F
100
AcDbEntity
  8
AM_0 ( Kontur 0.5 )
100
AcDbCircle
 10
232.0731151384
 20
185.0293239947
 30
0.0
 40
2.5
100
AcDbArc
 50
157.2137201598999
 51
337.2137148691996
  0
ARC
  5
344
330
1F
100
AcDbEntity
  8
AM_0 ( Kontur 0.5 )
100
AcDbCircle
 10
265.2635269853
 20
171.0867072593
 30
0.0
 40
23.5
100
AcDbArc
 50
149.4775121859005
 51
210.5224886799004
  0
ARC
  5
345
330
1F
100
AcDbEntity
  8
AM_0 ( Kontur 0.5 )
100
AcDbCircle
 10
265.2635269853
 20
171.0867072593
 30
0.0
 40
28.5
100
AcDbArc
 50
149.4775116499999
 51
210.5224878140995
  0
ARC
  5
346
330
1F
100
AcDbEntity
  8
AM_0 ( Kontur 0.5 )
100
AcDbCircle
 10
242.8663497887
 20
184.2914963005
 30
0.0
 40
2.5
100
AcDbArc
 50
329.4775121859005
 51
149.4775060768006
  0
ARC
  5
347
330
1F
100
AcDbEntity
  8
AM_0 ( Kontur 0.5 )
100
AcDbCircle
 10
242.8663497887
 20
157.8819182181
 30
0.0
 40
2.5
100
AcDbArc
 50
210.5224878140995
 51
30.52249595320095
  0
ARC
  5
348
330
1F
100
AcDbEntity
  8
AM_0 ( Kontur 0.5 )
100
AcDbCircle
 10
199.8800428322
 20
162.0867072593
 30
0.0
 40
2.5
100
AcDbArc
 50
7.837479763100104
 51
187.837487307299
  0
ARC
  5
349
330
1F
100
AcDbEntity
  8
AM_0 ( Kontur 0.5 )
100
AcDbCircle
 10
214.2251645689
 20
129.2407329983
 30
0.0
 40
2.5
100
AcDbArc
 50
219.3480644655991
 51
39.34807200979959
  0
ARC
  5
34A
330
1F
100
AcDbEntity
  8
AM_0 ( Kontur 0.5 )
100
AcDbCircle
 10
265.2635269853
 20
171.0867072593
 30
0.0
 40
68.5
100
AcDbArc
 50
187.8374794877013
 51
219.3480722851003
  0
ARC
  5
34B
330
1F
100
AcDbEntity
  8
AM_0 ( Kontur 0.5 )
100
AcDbCircle
 10
265.2635269853
 20
171.0867072593
 30
0.0
 40
63.5
100
AcDbArc
 50
187.8374797631001
 51
219.3480720097996
  0
ARC
  5
34C
330
1F
100
AcDbEntity
  8
AM_0 ( Kontur 0.5 )
100
AcDbCircle
 10
211.028680087
 20
157.1374642003001
 30
0.0
 40
2.5
100
AcDbArc
 50
14.42388317109891
 51
194.4238851030007
  0
ARC
  5
34D
330
1F
100
AcDbEntity
  8
AM_0 ( Kontur 0.5 )
100
AcDbCircle
 10
221.3370011013
 20
136.3525695306001
 30
0.0
 40
2.5
100
AcDbArc
 50
218.3345727438009
 51
38.33457717020021
  0
ARC
  5
34E
330
1F
100
AcDbEntity
  8
AM_0 ( Kontur 0.5 )
100
AcDbCircle
 10
265.2635269853
 20
171.0867072593
 30
0.0
 40
58.5
100
AcDbArc
 50
194.423884095799
 51
218.3345727438009
  0
ARC
  5
34F
330
1F
100
AcDbEntity
  8
AM_0 ( Kontur 0.5 )
100
AcDbCircle
 10
265.2635269853
 20
171.0867072593
 30
0.0
 40
53.5
100
AcDbArc
 50
194.4238840919013
 51
218.3345729505996
  0
ARC
  5
350
330
1F
100
AcDbEntity
  8
AM_0 ( Kontur 0.5 )
100
AcDbCircle
 10
222.0789840446
 20
155.2407219318
 30
0.0
 40
2.5
100
AcDbArc
 50
20.14992761040003
 51
200.1499306648991
  0
ARC
  5
351
330
1F
100
AcDbEntity
  8
AM_0 ( Kontur 0.5 )
100
AcDbCircle
 10
228.466789434
 20
143.4823578633
 30
0.0
 40
2.5
100
AcDbArc
 50
216.8766712676005
 51
36.87666974039997
  0
ARC
  5
352
330
1F
100
AcDbEntity
  8
AM_0 ( Kontur 0.5 )
100
AcDbCircle
 10
265.2635269853
 20
171.0867072593
 30
0.0
 40
43.5
100
AcDbArc
 50
200.1499304894011
 51
216.8766697404
  0
ARC
  5
353
330
1F
100
AcDbEntity
  8
AM_0 ( Kontur 0.5 )
100
AcDbCircle
 10
265.2635269853
 20
171.0867072593
 30
0.0
 40
48.5
100
AcDbArc
 50
200.1499306648991
 51
216.8766698191009
  0
ARC
  5
354
330
1F
100
AcDbEntity
  8
AM_0 ( Kontur 0.5 )
100
AcDbCircle
 10
265.2635269853
 20
171.0867072593
 30
0.0
 40
33.5
100
AcDbArc
 50
202.7862851308004
 51
214.597879340499
  0
ARC
  5
355
330
1F
100
AcDbEntity
  8
AM_0 ( Kontur 0.5 )
100
AcDbCircle
 10
235.6298609905
 20
150.6454294199001
 30
0.0
 40
2.5
100
AcDbArc
 50
214.5978789910011
 51
34.59788367359892
  0
ARC
  5
356
330
1F
100
AcDbEntity
  8
AM_0 ( Kontur 0.5 )
100
AcDbCircle
 10
265.2635269853
 20
171.0867072593
 30
0.0
 40
38.5
100
AcDbArc
 50
202.7862847871999
 51
214.5978789910011
  0
ARC
  5
357
330
1F
100
AcDbEntity
  8
AM_0 ( Kontur 0.5 )
100
AcDbCircle
 10
232.0731151384
 20
157.1440905239
 30
0.0
 40
2.5
100
AcDbArc
 50
22.78628513080041
 51
202.7862798401001
  0
ARC
  5
358
330
1F
100
AcDbEntity
  8
AM_0 ( Kontur 0.5 )
100
AcDbCircle
 10
302.0602645367
 20
143.4823578633
 30
0.0
 40
2.5
100
AcDbArc
 50
143.1233302596
 51
323.1233287323995
  0
ARC
  5
359
330
1F
100
AcDbEntity
  8
AM_0 ( Kontur 0.5 )
100
AcDbCircle
 10
309.1900528694
 20
136.3525695306
 30
0.0
 40
2.5
100
AcDbArc
 50
141.6654228297998
 51
321.6654272561992
  0
ARC
  5
35A
330
1F
100
AcDbEntity
  8
AM_0 ( Kontur 0.5 )
100
AcDbCircle
 10
316.3018894018001
 20
129.2407329983
 30
0.0
 40
2.5
100
AcDbArc
 50
140.6519279902004
 51
320.6519355344009
  0
ARC
  5
35B
330
1F
100
AcDbEntity
  8
AM_0 ( Kontur 0.5 )
100
AcDbCircle
 10
265.2635269853
 20
171.0867072593
 30
0.0
 40
68.5
100
AcDbArc
 50
320.6519277148997
 51
352.1625205122987
  0
ARC
  5
35C
330
1F
100
AcDbEntity
  8
AM_0 ( Kontur 0.5 )
100
AcDbCircle
 10
330.6470111385
 20
162.0867072593
 30
0.0
 40
2.5
100
AcDbArc
 50
352.162512692701
 51
172.1625202368999
  0
ARC
  5
35D
330
1F
100
AcDbEntity
  8
AM_0 ( Kontur 0.5 )
100
AcDbCircle
 10
330.6470111385
 20
180.0867072593
 30
0.0
 40
2.5
100
AcDbArc
 50
187.8374797631001
 51
7.837487307299091
  0
ARC
  5
35E
330
1F
100
AcDbEntity
  8
AM_0 ( Kontur 0.5 )
100
AcDbCircle
 10
265.2635269853
 20
171.0867072593
 30
0.0
 40
68.5
100
AcDbArc
 50
7.837479487701315
 51
39.34807228510024
  0
ARC
  5
35F
330
1F
100
AcDbEntity
  8
AM_0 ( Kontur 0.5 )
100
AcDbCircle
 10
316.3018894018001
 20
212.9326815203
 30
0.0
 40
2.5
100
AcDbArc
 50
39.34806446559912
 51
219.3480720097996
  0
ARC
  5
360
330
1F
100
AcDbEntity
  8
AM_0 ( Kontur 0.5 )
100
AcDbCircle
 10
265.2635269853
 20
171.0867072593
 30
0.0
 40
63.5
100
AcDbArc
 50
7.837479763100104
 51
39.34807200979959
  0
ARC
  5
361
330
1F
100
AcDbEntity
  8
AM_0 ( Kontur 0.5 )
100
AcDbCircle
 10
309.1900528694
 20
205.8208449879
 30
0.0
 40
2.5
100
AcDbArc
 50
38.33457274380084
 51
218.3345771702002
  0
ARC
  5
362
330
1F
100
AcDbEntity
  8
AM_0 ( Kontur 0.5 )
100
AcDbCircle
 10
265.2635269853
 20
171.0867072593
 30
0.0
 40
48.5
100
AcDbArc
 50
20.14993066489908
 51
36.87666981910088
  0
ARC
  5
363
330
1F
100
AcDbEntity
  8
AM_0 ( Kontur 0.5 )
100
AcDbCircle
 10
302.0602645367
 20
198.6910566552
 30
0.0
 40
2.5
100
AcDbArc
 50
36.87667126760052
 51
216.8766697404
  0
ARC
  5
364
330
1F
100
AcDbEntity
  8
AM_0 ( Kontur 0.5 )
100
AcDbCircle
 10
294.8971929802
 20
191.5279850987
 30
0.0
 40
2.5
100
AcDbArc
 50
34.59787899100111
 51
214.5978836735989
  0
ARC
  5
365
330
1F
100
AcDbEntity
  8
AM_0 ( Kontur 0.5 )
100
AcDbCircle
 10
287.660704182
 20
157.8819182181
 30
0.0
 40
2.5
100
AcDbArc
 50
149.477504046799
 51
329.4775121859005
  0
ARC
  5
366
330
1F
100
AcDbEntity
  8
AM_0 ( Kontur 0.5 )
100
AcDbCircle
 10
287.660704182
 20
184.2914963005
 30
0.0
 40
2.5
100
AcDbArc
 50
30.52249392319942
 51
210.5224878140995
  0
ARC
  5
367
330
1F
100
AcDbEntity
  8
AM_0 ( Kontur 0.5 )
100
AcDbCircle
 10
265.2635269853
 20
171.0867072593
 30
0.0
 40
23.5
100
AcDbArc
 50
329.4775113200996
 51
30.52248781409953
  0
CIRCLE
  5
368
330
1F
100
AcDbEntity
  8
AM_0 ( Kontur 0.5 )
100
AcDbCircle
 10
309.5135269853
 20
171.0867072593
 30
0.0
 40
8.0
  0
CIRCLE
  5
369
330
1F
100
AcDbEntity
  8
AM_0 ( Kontur 0.5 )
100
AcDbCircle
 10
309.5135269853
 20
171.0867072593
 30
0.0
 40
4.5
  0
LINE
  5
36A
330
1F
100
AcDbEntity
  8
AM_0 ( Kontur 0.5 )
100
AcDbLine
 10
234.1829864495
 20
183.5867072593
 30
0.0
 11
229.8058056824
 21
183.5867072593
 31
0.0
  0
ARC
  5
36B
330
1F
100
AcDbEntity
  8
AM_0 ( Kontur 0.5 )
100
AcDbCircle
 10
265.2635269853
 20
171.0867072593
 30
0.0
 40
58.5
100
AcDbArc
 50
14.42388409579901
 51
38.33457274380084
  0
ARC
  5
36C
330
1F
100
AcDbEntity
  8
AM_0 ( Kontur 0.5 )
100
AcDbCircle
 10
265.2635269853
 20
171.0867072593
 30
0.0
 40
53.5
100
AcDbArc
 50
14.4238840919013
 51
38.33457295059957
  0
ARC
  5
36D
330
1F
100
AcDbEntity
  8
AM_0 ( Kontur 0.5 )
100
AcDbCircle
 10
319.4983738836
 20
185.0359503182
 30
0.0
 40
2.5
100
AcDbArc
 50
194.4238831710989
 51
14.42388510300071
  0
ARC
  5
36E
330
1F
100
AcDbEntity
  8
AM_0 ( Kontur 0.5 )
100
AcDbCircle
 10
265.2635269853
 20
171.0867072593
 30
0.0
 40
43.5
100
AcDbArc
 50
20.14993048940113
 51
36.87666974039997
  0
ARC
  5
36F
330
1F
100
AcDbEntity
  8
AM_0 ( Kontur 0.5 )
100
AcDbCircle
 10
308.4480699261001
 20
186.9326925868
 30
0.0
 40
2.5
100
AcDbArc
 50
340.2209339244
 51
20.14993066489908
  0
ARC
  5
370
330
1F
100
AcDbEntity
  8
AM_0 ( Kontur 0.5 )
100
AcDbCircle
 10
265.2635269853
 20
171.0867072593
 30
0.0
 40
33.5
100
AcDbArc
 50
22.78628513080041
 51
34.59787934049902
  0
ARC
  5
371
330
1F
100
AcDbEntity
  8
AM_0 ( Kontur 0.5 )
100
AcDbCircle
 10
265.2635269853
 20
171.0867072593
 30
0.0
 40
38.5
100
AcDbArc
 50
22.78628478719991
 51
34.59787899100111
  0
ARC
  5
372
330
1F
100
AcDbEntity
  8
AM_0 ( Kontur 0.5 )
100
AcDbCircle
 10
298.4539388323
 20
185.0293239947
 30
0.0
 40
2.5
100
AcDbArc
 50
202.7862851308004
 51
22.78627984010009
  0
ARC
  5
373
330
1F
100
AcDbEntity
  8
AM_0 ( Kontur 0.5 )
100
AcDbCircle
 10
265.2635269853
 20
171.0867072593
 30
0.0
 40
28.5
100
AcDbArc
 50
329.4775121859005
 51
30.52248835000011
  0
ARC
  5
374
330
1F
100
AcDbEntity
  8
AM_0 ( Kontur 0.5 )
100
AcDbCircle
 10
265.2635269853
 20
171.0867072593
 30
0.0
 40
63.5
100
AcDbArc
 50
320.6519279902004
 51
352.1625202368999
  0
ARC
  5
375
330
1F
100
AcDbEntity
  8
AM_0 ( Kontur 0.5 )
100
AcDbCircle
 10
319.4983738836
 20
157.1374642003
 30
0.0
 40
2.5
100
AcDbArc
 50
345.5761148969993
 51
165.5761168289011
  0
ARC
  5
376
330
1F
100
AcDbEntity
  8
AM_0 ( Kontur 0.5 )
100
AcDbCircle
 10
265.2635269853
 20
171.0867072593
 30
0.0
 40
58.5
100
AcDbArc
 50
321.6654272561992
 51
345.576115904201
  0
ARC
  5
377
330
1F
100
AcDbEntity
  8
AM_0 ( Kontur 0.5 )
100
AcDbCircle
 10
265.2635269853
 20
171.0867072593
 30
0.0
 40
53.5
100
AcDbArc
 50
321.6654270494004
 51
345.5761159080987
  0
ARC
  5
378
330
1F
100
AcDbEntity
  8
AM_0 ( Kontur 0.5 )
100
AcDbCircle
 10
308.4480699261001
 20
155.2407219318
 30
0.0
 40
2.5
100
AcDbArc
 50
339.8500693351009
 51
159.8500723896
  0
ARC
  5
379
330
1F
100
AcDbEntity
  8
AM_0 ( Kontur 0.5 )
100
AcDbCircle
 10
265.2635269853
 20
173.5867072593
 30
0.0
 40
43.5
100
AcDbArc
 50
339.8287286535998
 51
339.8500695105988
  0
ARC
  5
37A
330
1F
100
AcDbEntity
  8
AM_0 ( Kontur 0.5 )
100
AcDbCircle
 10
265.2635269853
 20
171.0867072593
 30
0.0
 40
48.5
100
AcDbArc
 50
323.1233301808991
 51
339.8500693351009
  0
ARC
  5
37B
330
1F
100
AcDbEntity
  8
AM_0 ( Kontur 0.5 )
100
AcDbCircle
 10
265.2635269853
 20
171.0867072593
 30
0.0
 40
33.5
100
AcDbArc
 50
325.402120659501
 51
337.2137148691996
  0
ARC
  5
37C
330
1F
100
AcDbEntity
  8
AM_0 ( Kontur 0.5 )
100
AcDbCircle
 10
294.8971929802
 20
150.6454294199
 30
0.0
 40
2.5
100
AcDbArc
 50
145.4021163264011
 51
325.4021210089989
  0
ARC
  5
37D
330
1F
100
AcDbEntity
  8
AM_0 ( Kontur 0.5 )
100
AcDbCircle
 10
265.2635269853
 20
171.0867072593
 30
0.0
 40
38.5
100
AcDbArc
 50
325.4021210089989
 51
337.2137152128001
  0
ARC
  5
37E
330
1F
100
AcDbEntity
  8
AM_0 ( Kontur 0.5 )
100
AcDbCircle
 10
298.4539388323
 20
157.1440905239
 30
0.0
 40
2.5
100
AcDbArc
 50
337.2137201598999
 51
157.2137148691995
  0
ARC
  5
37F
330
1F
100
AcDbEntity
  8
AM_0 ( Kontur 0.5 )
100
AcDbCircle
 10
285.7048048247
 20
141.4530412645
 30
0.0
 40
2.5
100
AcDbArc
 50
304.5978789909993
 51
124.5978836736005
  0
ARC
  5
380
330
1F
100
AcDbEntity
  8
AM_0 ( Kontur 0.5 )
100
AcDbCircle
 10
265.2635269853
 20
171.0867072593
 30
0.0
 40
33.5
100
AcDbArc
 50
270.0
 51
304.5978793405004
  0
ARC
  5
381
330
1F
100
AcDbEntity
  8
AM_0 ( Kontur 0.5 )
100
AcDbCircle
 10
265.2635269853
 20
171.0867072593
 30
0.0
 40
38.5
100
AcDbArc
 50
270.0
 51
304.5978789909993
  0
ARC
  5
382
330
1F
100
AcDbEntity
  8
AM_0 ( Kontur 0.5 )
100
AcDbCircle
 10
292.8678763813
 20
134.2899697079
 30
0.0
 40
2.5
100
AcDbArc
 50
306.8766712675994
 51
126.8766697404009
  0
ARC
  5
383
330
1F
100
AcDbEntity
  8
AM_0 ( Kontur 0.5 )
100
AcDbCircle
 10
265.2635269853
 20
171.0867072593
 30
0.0
 40
43.5
100
AcDbArc
 50
270.0
 51
306.8766697404009
  0
ARC
  5
384
330
1F
100
AcDbEntity
  8
AM_0 ( Kontur 0.5 )
100
AcDbCircle
 10
265.2635269853
 20
171.0867072593
 30
0.0
 40
48.5
100
AcDbArc
 50
270.0
 51
306.876669819099
  0
ARC
  5
385
330
1F
100
AcDbEntity
  8
AM_0 ( Kontur 0.5 )
100
AcDbCircle
 10
299.997664714
 20
127.1601813752
 30
0.0
 40
2.5
100
AcDbArc
 50
308.3345727438
 51
128.3345771701995
  0
ARC
  5
386
330
1F
100
AcDbEntity
  8
AM_0 ( Kontur 0.5 )
100
AcDbCircle
 10
265.2635269853
 20
171.0867072593
 30
0.0
 40
53.5
100
AcDbArc
 50
279.1522891534996
 51
308.3345729506012
  0
ARC
  5
387
330
1F
100
AcDbEntity
  8
AM_0 ( Kontur 0.5 )
100
AcDbCircle
 10
265.2635269853
 20
171.0867072593
 30
0.0
 40
58.5
100
AcDbArc
 50
279.1522886388997
 51
308.3345727438
  0
ARC
  5
388
330
1F
100
AcDbEntity
  8
AM_0 ( Kontur 0.5 )
100
AcDbCircle
 10
307.1095012463
 20
120.0483448429
 30
0.0
 40
2.5
100
AcDbArc
 50
309.3480644655993
 51
129.3480720097992
  0
ARC
  5
389
330
1F
100
AcDbEntity
  8
AM_0 ( Kontur 0.5 )
100
AcDbCircle
 10
265.2635269853
 20
171.0867072593
 30
0.0
 40
63.5
100
AcDbArc
 50
275.6519246465004
 51
309.3480720097992
  0
ARC
  5
38A
330
1F
100
AcDbEntity
  8
AM_0 ( Kontur 0.5 )
100
AcDbCircle
 10
265.2635269853
 20
171.0867072593
 30
0.0
 40
68.5
100
AcDbArc
 50
275.6519279902
 51
309.3480722851002
  0
ARC
  5
38B
330
1F
100
AcDbEntity
  8
AM_0 ( Kontur 0.5 )
100
AcDbCircle
 10
278.4683160266
 20
148.6895300626
 30
0.0
 40
2.5
100
AcDbArc
 50
300.5224939232005
 51
120.5224878140994
  0
ARC
  5
38C
330
1F
100
AcDbEntity
  8
AM_0 ( Kontur 0.5 )
100
AcDbCircle
 10
252.0587379441
 20
148.6895300626
 30
0.0
 40
2.5
100
AcDbArc
 50
59.47750404680018
 51
239.4775121859006
  0
ARC
  5
38D
330
1F
100
AcDbEntity
  8
AM_0 ( Kontur 0.5 )
100
AcDbCircle
 10
265.2635269853
 20
171.0867072593
 30
0.0
 40
23.5
100
AcDbArc
 50
239.4775113200994
 51
300.5224878140993
  0
ARC
  5
38E
330
1F
100
AcDbEntity
  8
AM_0 ( Kontur 0.5 )
100
AcDbCircle
 10
265.2635269853
 20
171.0867072593
 30
0.0
 40
28.5
100
AcDbArc
 50
239.4775121859006
 51
300.5224883499997
  0
ARC
  5
38F
330
1F
100
AcDbEntity
  8
AM_0 ( Kontur 0.5 )
100
AcDbCircle
 10
244.822249146
 20
141.4530412645001
 30
0.0
 40
2.5
100
AcDbArc
 50
55.40211632639948
 51
235.4021210090007
  0
ARC
  5
390
330
1F
100
AcDbEntity
  8
AM_0 ( Kontur 0.5 )
100
AcDbCircle
 10
265.2635269853
 20
171.0867072593
 30
0.0
 40
33.5
100
AcDbArc
 50
235.4021206594996
 51
270.0
  0
ARC
  5
391
330
1F
100
AcDbEntity
  8
AM_0 ( Kontur 0.5 )
100
AcDbCircle
 10
265.2635269853
 20
171.0867072593
 30
0.0
 40
38.5
100
AcDbArc
 50
235.4021210090007
 51
270.0
  0
ARC
  5
392
330
1F
100
AcDbEntity
  8
AM_0 ( Kontur 0.5 )
100
AcDbCircle
 10
237.6591775894
 20
134.2899697079001
 30
0.0
 40
2.5
100
AcDbArc
 50
53.12333025959905
 51
233.1233287324006
  0
ARC
  5
393
330
1F
100
AcDbEntity
  8
AM_0 ( Kontur 0.5 )
100
AcDbCircle
 10
265.2635269853
 20
171.0867072593
 30
0.0
 40
43.5
100
AcDbArc
 50
233.1233302595991
 51
270.0
  0
ARC
  5
394
330
1F
100
AcDbEntity
  8
AM_0 ( Kontur 0.5 )
100
AcDbCircle
 10
265.2635269853
 20
171.0867072593
 30
0.0
 40
48.5
100
AcDbArc
 50
233.1233301809009
 51
270.0
  0
ARC
  5
395
330
1F
100
AcDbEntity
  8
AM_0 ( Kontur 0.5 )
100
AcDbCircle
 10
230.5293892567
 20
127.1601813752
 30
0.0
 40
2.5
100
AcDbArc
 50
51.66542282980044
 51
231.6654272561999
  0
ARC
  5
396
330
1F
100
AcDbEntity
  8
AM_0 ( Kontur 0.5 )
100
AcDbCircle
 10
251.3142839264
 20
116.851860361
 30
0.0
 40
2.5
100
AcDbArc
 50
255.5761148970005
 51
75.57611682890009
  0
ARC
  5
397
330
1F
100
AcDbEntity
  8
AM_0 ( Kontur 0.5 )
100
AcDbCircle
 10
265.2635269853
 20
171.0867072593
 30
0.0
 40
58.5
100
AcDbArc
 50
231.6654272561999
 51
255.5761159042
  0
ARC
  5
398
330
1F
100
AcDbEntity
  8
AM_0 ( Kontur 0.5 )
100
AcDbCircle
 10
265.2635269853
 20
171.0867072593
 30
0.0
 40
53.5
100
AcDbArc
 50
231.6654270493988
 51
255.5761159081007
  0
ARC
  5
399
330
1F
100
AcDbEntity
  8
AM_0 ( Kontur 0.5 )
100
AcDbCircle
 10
223.4175527244
 20
120.0483448429
 30
0.0
 40
2.5
100
AcDbArc
 50
50.65192799020081
 51
230.6519355344006
  0
ARC
  5
39A
330
1F
100
AcDbEntity
  8
AM_0 ( Kontur 0.5 )
100
AcDbCircle
 10
265.2635269853
 20
171.0867072593
 30
0.0
 40
63.5
100
AcDbArc
 50
230.6519279902008
 51
264.3480753534996
  0
ARC
  5
39B
330
1F
100
AcDbEntity
  8
AM_0 ( Kontur 0.5 )
100
AcDbCircle
 10
265.2635269853
 20
171.0867072593
 30
0.0
 40
68.5
100
AcDbArc
 50
230.6519277148998
 51
264.3480752907003
  0
ARC
  5
39C
330
1F
100
AcDbEntity
  8
AM_0 ( Kontur 0.5 )
100
AcDbCircle
 10
274.170837924
 20
115.7996399484
 30
0.0
 40
2.5
100
AcDbArc
 50
99.15227762550024
 51
279.1522886388997
  0
ARC
  5
39D
330
1F
100
AcDbEntity
  8
AM_0 ( Kontur 0.5 )
100
AcDbCircle
 10
265.2635269853
 20
171.0867072593
 30
0.0
 40
68.5
100
AcDbArc
 50
95.65192837639999
 51
129.3480722851002
  0
ARC
  5
39E
330
1F
100
AcDbEntity
  8
AM_0 ( Kontur 0.5 )
100
AcDbCircle
 10
223.4175527244
 20
222.1250696757
 30
0.0
 40
2.5
100
AcDbArc
 50
129.3480644655993
 51
309.3480720097992
  0
ARC
  5
39F
330
1F
100
AcDbEntity
  8
AM_0 ( Kontur 0.5 )
100
AcDbCircle
 10
230.5293892567001
 20
215.0132331434
 30
0.0
 40
2.5
100
AcDbArc
 50
128.3345727438
 51
308.3345771701995
  0
ARC
  5
3A0
330
1F
100
AcDbEntity
  8
AM_0 ( Kontur 0.5 )
100
AcDbCircle
 10
237.6591775894
 20
207.8834448107
 30
0.0
 40
2.5
100
AcDbArc
 50
126.8766712675994
 51
306.8766697404009
  0
ARC
  5
3A1
330
1F
100
AcDbEntity
  8
AM_0 ( Kontur 0.5 )
100
AcDbCircle
 10
265.2635269853
 20
171.0867072593
 30
0.0
 40
23.5
100
AcDbArc
 50
59.4775121859006
 51
120.5224886799005
  0
ARC
  5
3A2
330
1F
100
AcDbEntity
  8
AM_0 ( Kontur 0.5 )
100
AcDbCircle
 10
299.997664714
 20
215.0132331434
 30
0.0
 40
2.5
100
AcDbArc
 50
231.6654228298005
 51
51.66542725619994
  0
ARC
  5
3A3
330
1F
100
AcDbEntity
  8
AM_0 ( Kontur 0.5 )
100
AcDbCircle
 10
307.1095012463
 20
222.1250696757
 30
0.0
 40
2.5
100
AcDbArc
 50
230.6519279902008
 51
50.65193553440066
  0
ARC
  5
3A4
330
1F
100
AcDbEntity
  8
AM_0 ( Kontur 0.5 )
100
AcDbCircle
 10
285.7048048247
 20
200.7203732541
 30
0.0
 40
2.5
100
AcDbArc
 50
235.4021163263995
 51
55.40212100900069
  0
ARC
  5
3A5
330
1F
100
AcDbEntity
  8
AM_0 ( Kontur 0.5 )
100
AcDbCircle
 10
265.2635269853
 20
171.0867072593
 30
0.0
 40
33.5
100
AcDbArc
 50
55.40212065949965
 51
90.0
  0
ARC
  5
3A6
330
1F
100
AcDbEntity
  8
AM_0 ( Kontur 0.5 )
100
AcDbCircle
 10
265.2635269853
 20
171.0867072593
 30
0.0
 40
38.5
100
AcDbArc
 50
55.40212100900069
 51
90.0
  0
ARC
  5
3A7
330
1F
100
AcDbEntity
  8
AM_0 ( Kontur 0.5 )
100
AcDbCircle
 10
292.8678763813
 20
207.8834448107
 30
0.0
 40
2.5
100
AcDbArc
 50
233.1233302595991
 51
53.12332873240062
  0
ARC
  5
3A8
330
1F
100
AcDbEntity
  8
AM_0 ( Kontur 0.5 )
100
AcDbCircle
 10
265.2635269853
 20
171.0867072593
 30
0.0
 40
43.5
100
AcDbArc
 50
53.12333025959905
 51
90.0
  0
ARC
  5
3A9
330
1F
100
AcDbEntity
  8
AM_0 ( Kontur 0.5 )
100
AcDbCircle
 10
265.2635269853
 20
171.0867072593
 30
0.0
 40
48.5
100
AcDbArc
 50
53.12333018090092
 51
90.0
  0
ARC
  5
3AA
330
1F
100
AcDbEntity
  8
AM_0 ( Kontur 0.5 )
100
AcDbCircle
 10
265.2635269853
 20
171.0867072593
 30
0.0
 40
53.5
100
AcDbArc
 50
51.66542704939878
 51
83.33457274380018
  0
ARC
  5
3AB
330
1F
100
AcDbEntity
  8
AM_0 ( Kontur 0.5 )
100
AcDbCircle
 10
265.2635269853
 20
171.0867072593
 30
0.0
 40
58.5
100
AcDbArc
 50
51.66542725619994
 51
83.3345723666002
  0
ARC
  5
3AC
330
1F
100
AcDbEntity
  8
AM_0 ( Kontur 0.5 )
100
AcDbCircle
 10
265.2635269853
 20
171.0867072593
 30
0.0
 40
63.5
100
AcDbArc
 50
50.65192799020081
 51
84.34807200979994
  0
ARC
  5
3AD
330
1F
100
AcDbEntity
  8
AM_0 ( Kontur 0.5 )
100
AcDbCircle
 10
265.2635269853
 20
171.0867072593
 30
0.0
 40
68.5
100
AcDbArc
 50
50.65192771489978
 51
84.3480716236
  0
ARC
  5
3AE
330
1F
100
AcDbEntity
  8
AM_0 ( Kontur 0.5 )
100
AcDbCircle
 10
278.4683160266
 20
193.4838844559
 30
0.0
 40
2.5
100
AcDbArc
 50
239.4775121859006
 51
59.47750607679946
  0
ARC
  5
3AF
330
1F
100
AcDbEntity
  8
AM_0 ( Kontur 0.5 )
100
AcDbCircle
 10
252.0587379441
 20
193.4838844559
 30
0.0
 40
2.5
100
AcDbArc
 50
120.5224878140994
 51
300.5224959531998
  0
ARC
  5
3B0
330
1F
100
AcDbEntity
  8
AM_0 ( Kontur 0.5 )
100
AcDbCircle
 10
265.2635269853
 20
171.0867072593
 30
0.0
 40
28.5
100
AcDbArc
 50
59.47751165000031
 51
120.5224878140994
  0
ARC
  5
3B1
330
1F
100
AcDbEntity
  8
AM_0 ( Kontur 0.5 )
100
AcDbCircle
 10
244.822249146
 20
200.7203732541
 30
0.0
 40
2.5
100
AcDbArc
 50
124.5978789909993
 51
304.5978836736005
  0
ARC
  5
3B2
330
1F
100
AcDbEntity
  8
AM_0 ( Kontur 0.5 )
100
AcDbCircle
 10
265.2635269853
 20
171.0867072593
 30
0.0
 40
33.5
100
AcDbArc
 50
90.0
 51
124.5978793405003
  0
ARC
  5
3B3
330
1F
100
AcDbEntity
  8
AM_0 ( Kontur 0.5 )
100
AcDbCircle
 10
265.2635269853
 20
171.0867072593
 30
0.0
 40
38.5
100
AcDbArc
 50
90.0
 51
124.5978789909993
  0
ARC
  5
3B4
330
1F
100
AcDbEntity
  8
AM_0 ( Kontur 0.5 )
100
AcDbCircle
 10
265.2635269853
 20
171.0867072593
 30
0.0
 40
43.5
100
AcDbArc
 50
90.0
 51
126.8766697404009
  0
ARC
  5
3B5
330
1F
100
AcDbEntity
  8
AM_0 ( Kontur 0.5 )
100
AcDbCircle
 10
265.2635269853
 20
171.0867072593
 30
0.0
 40
48.5
100
AcDbArc
 50
90.0
 51
126.876669819099
  0
ARC
  5
3B6
330
1F
100
AcDbEntity
  8
AM_0 ( Kontur 0.5 )
100
AcDbCircle
 10
265.2635269853
 20
171.0867072593
 30
0.0
 40
58.5
100
AcDbArc
 50
96.66542763339981
 51
128.3345727438
  0
ARC
  5
3B7
330
1F
100
AcDbEntity
  8
AM_0 ( Kontur 0.5 )
100
AcDbCircle
 10
265.2635269853
 20
171.0867072593
 30
0.0
 40
53.5
100
AcDbArc
 50
96.66542725619983
 51
128.3345729506012
  0
ARC
  5
3B8
330
1F
100
AcDbEntity
  8
AM_0 ( Kontur 0.5 )
100
AcDbCircle
 10
265.2635269853
 20
171.0867072593
 30
0.0
 40
63.5
100
AcDbArc
 50
95.65192799020005
 51
129.3480720097992
  0
LINE
  5
3C4
330
1F
100
AcDbEntity
  8
AM_0 ( Kontur 0.5 )
100
AcDbLine
 10
250.1533025578001
 20
328.3765568145001
 30
0.0
 11
260.4843812969
 21
328.3765568145001
 31
0.0
  0
LINE
  5
3C5
330
1F
100
AcDbEntity
  8
AM_0 ( Kontur 0.5 )
100
AcDbLine
 10
250.1533025578001
 20
326.8182654377
 30
0.0
 11
260.4843812969
 21
326.8182654377
 31
0.0
  0
ARC
  5
3C6
330
1F
100
AcDbEntity
  8
AM_0 ( Kontur 0.5 )
100
AcDbCircle
 10
260.4843812969
 20
327.5974111261001
 30
0.0
 40
0.7791456884
100
AcDbArc
 50
270.0
 51
90.0
  0
ARC
  5
3C7
330
1F
100
AcDbEntity
  8
AM_0 ( Kontur 0.5 )
100
AcDbCircle
 10
250.1533025578001
 20
327.5974111261001
 30
0.0
 40
0.7791456884
100
AcDbArc
 50
90.0
 51
270.0
  0
LINE
  5
3C8
330
1F
100
AcDbEntity
  8
AM_0 ( Kontur 0.5 )
100
AcDbLine
 10
243.0082251786001
 20
325.6970648902001
 30
0.0
 11
260.4843812969
 21
325.6970648902001
 31
0.0
  0
LINE
  5
3C9
330
1F
100
AcDbEntity
  8
AM_0 ( Kontur 0.5 )
100
AcDbLine
 10
243.0082251786001
 20
324.1387735134001
 30
0.0
 11
260.4843812969
 21
324.1387735134001
 31
0.0
  0
ARC
  5
3CA
330
1F
100
AcDbEntity
  8
AM_0 ( Kontur 0.5 )
100
AcDbCircle
 10
260.4843812969
 20
324.9179192018
 30
0.0
 40
0.7791456884
100
AcDbArc
 50
270.0
 51
90.0
  0
ARC
  5
3CB
330
1F
100
AcDbEntity
  8
AM_0 ( Kontur 0.5 )
100
AcDbCircle
 10
243.0082251786001
 20
324.9179192018
 30
0.0
 40
0.7791456884
100
AcDbArc
 50
90.0
 51
270.0
  0
LINE
  5
3CC
330
1F
100
AcDbEntity
  8
AM_0 ( Kontur 0.5 )
100
AcDbLine
 10
236.1057291252
 20
323.0175729659001
 30
0.0
 11
260.4843812969
 21
323.0175729659001
 31
0.0
  0
LINE
  5
3CD
330
1F
100
AcDbEntity
  8
AM_0 ( Kontur 0.5 )
100
AcDbLine
 10
236.1057291252
 20
321.4592815891001
 30
0.0
 11
260.4843812969
 21
321.4592815891001
 31
0.0
  0
ARC
  5
3CE
330
1F
100
AcDbEntity
  8
AM_0 ( Kontur 0.5 )
100
AcDbCircle
 10
236.1057291252
 20
322.2384272775
 30
0.0
 40
0.7791456884
100
AcDbArc
 50
90.0
 51
270.0
  0
ARC
  5
3CF
330
1F
100
AcDbEntity
  8
AM_0 ( Kontur 0.5 )
100
AcDbCircle
 10
260.4843812969
 20
322.2384272775
 30
0.0
 40
0.7791456884
100
AcDbArc
 50
270.0
 51
90.0
  0
LINE
  5
3D0
330
1F
100
AcDbEntity
  8
AM_0 ( Kontur 0.5 )
100
AcDbLine
 10
228.6367596176
 20
320.3392815891
 30
0.0
 11
260.4843812969
 21
320.3392815891
 31
0.0
  0
LINE
  5
3D1
330
1F
100
AcDbEntity
  8
AM_0 ( Kontur 0.5 )
100
AcDbLine
 10
228.6367596176
 20
318.7792815891
 30
0.0
 11
260.4843812969
 21
318.7792815891
 31
0.0
  0
ARC
  5
3D2
330
1F
100
AcDbEntity
  8
AM_0 ( Kontur 0.5 )
100
AcDbCircle
 10
260.4835269853
 20
319.5592815891
 30
0.0
 40
0.7800000000000001
100
AcDbArc
 50
269.9999346391002
 51
90.00006536089985
  0
ARC
  5
3D3
330
1F
100
AcDbEntity
  8
AM_0 ( Kontur 0.5 )
100
AcDbCircle
 10
228.6367589406001
 20
319.5592815891
 30
0.0
 40
0.7800000000000001
100
AcDbArc
 50
89.99995027099981
 51
270.0000497290002
  0
LINE
  5
3D4
330
1F
100
AcDbEntity
  8
AM_0 ( Kontur 0.5 )
100
AcDbLine
 10
193.2947949422805
 20
320.3392815891
 30
0.0
 11
223.3577244840001
 21
320.3392815891
 31
0.0
  0
LINE
  5
3D5
330
1F
100
AcDbEntity
  8
AM_0 ( Kontur 0.5 )
100
AcDbLine
 10
190.4065670708608
 20
318.7792815891
 30
0.0
 11
223.3577253268001
 21
318.7792815891
 31
0.0
  0
LINE
  5
3D6
330
1F
100
AcDbEntity
  8
AM_0 ( Kontur 0.5 )
100
AcDbLine
 10
200.5870647766806
 20
323.0175729659001
 30
0.0
 11
230.2508230434001
 21
323.0175729659001
 31
0.0
  0
LINE
  5
3D7
330
1F
100
AcDbEntity
  8
AM_0 ( Kontur 0.5 )
100
AcDbLine
 10
196.2378097870036
 20
321.4592815891001
 30
0.0
 11
230.2508219254001
 21
321.4592815891001
 31
0.0
  0
LINE
  5
3D8
330
1F
100
AcDbEntity
  8
AM_0 ( Kontur 0.5 )
100
AcDbLine
 10
208.9448947480161
 20
325.6970648902001
 30
0.0
 11
237.4876772116
 21
325.6970648902001
 31
0.0
  0
LINE
  5
3D9
330
1F
100
AcDbEntity
  8
AM_0 ( Kontur 0.5 )
100
AcDbLine
 10
203.9312837007572
 20
324.1387735134
 30
0.0
 11
237.4876776414001
 21
324.1387735134001
 31
0.0
  0
LINE
  5
3DA
330
1F
100
AcDbEntity
  8
AM_0 ( Kontur 0.5 )
100
AcDbLine
 10
212.8767047496967
 20
326.8182654377
 30
0.0
 11
244.5866876352
 21
326.8182654377
 31
0.0
  0
ARC
  5
3DB
330
1F
100
AcDbEntity
  8
AM_0 ( Kontur 0.5 )
100
AcDbCircle
 10
223.3577244840001
 20
319.5592815891
 30
0.0
 40
0.7800000000000001
100
AcDbArc
 50
269.9999380959
 51
90.0
  0
ARC
  5
3DC
330
1F
100
AcDbEntity
  8
AM_0 ( Kontur 0.5 )
100
AcDbCircle
 10
230.2508219254001
 20
322.2384272775
 30
0.0
 40
0.7791456884
100
AcDbArc
 50
270.0
 51
90.00008221399982
  0
ARC
  5
3DD
330
1F
100
AcDbEntity
  8
AM_0 ( Kontur 0.5 )
100
AcDbCircle
 10
237.4876772116
 20
324.9179192018
 30
0.0
 40
0.7791456884
100
AcDbArc
 50
269.9999683942999
 51
90.0
  0
ARC
  5
3DE
330
1F
100
AcDbEntity
  8
AM_0 ( Kontur 0.5 )
100
AcDbCircle
 10
244.5866876352
 20
327.5974111261001
 30
0.0
 40
0.7791456884
100
AcDbArc
 50
270.0
 51
90.0
  0
ARC
  5
3DF
330
1F
100
AcDbEntity
  8
AM_0 ( Kontur 0.5 )
100
AcDbCircle
 10
294.4213248455
 20
322.2384272775
 30
0.0
 40
0.7791456884
100
AcDbArc
 50
270.0
 51
90.0
  0
ARC
  5
3E0
330
1F
100
AcDbEntity
  8
AM_0 ( Kontur 0.5 )
100
AcDbCircle
 10
293.0393767591001
 20
324.9179192018
 30
0.0
 40
0.7791456884
100
AcDbArc
 50
90.0
 51
270.0000316057001
  0
LINE
  5
3E1
330
1F
100
AcDbEntity
  8
AM_0 ( Kontur 0.5 )
100
AcDbLine
 10
321.5821592225842
 20
325.6970648902
 30
0.0
 11
293.0393767591001
 21
325.6970648902
 31
0.0
  0
LINE
  5
3E2
330
1F
100
AcDbEntity
  8
AM_0 ( Kontur 0.5 )
100
AcDbLine
 10
326.5957702698429
 20
324.1387735134
 30
0.0
 11
293.0393763293
 21
324.1387735134
 31
0.0
  0
ARC
  5
3E3
330
1F
100
AcDbEntity
  8
AM_0 ( Kontur 0.5 )
100
AcDbCircle
 10
287.5188287921001
 20
324.9179192018
 30
0.0
 40
0.7791456884
100
AcDbArc
 50
270.0
 51
90.0
  0
LINE
  5
3E4
330
1F
100
AcDbEntity
  8
AM_0 ( Kontur 0.5 )
100
AcDbLine
 10
317.6503492209042
 20
326.8182654376998
 30
0.0
 11
285.9403663355
 21
326.8182654377
 31
0.0
  0
ARC
  5
3E5
330
1F
100
AcDbEntity
  8
AM_0 ( Kontur 0.5 )
100
AcDbCircle
 10
285.9403663355
 20
327.5974111261001
 30
0.0
 40
0.7791456884
100
AcDbArc
 50
90.0
 51
270.0
  0
ARC
  5
3E6
330
1F
100
AcDbEntity
  8
AM_0 ( Kontur 0.5 )
100
AcDbCircle
 10
280.3737514129
 20
327.5974111261001
 30
0.0
 40
0.7791456884
100
AcDbArc
 50
270.0
 51
90.0
  0
ARC
  5
3E7
330
1F
100
AcDbEntity
  8
AM_0 ( Kontur 0.5 )
100
AcDbCircle
 10
270.0426726738001
 20
327.5974111261001
 30
0.0
 40
0.7791456884
100
AcDbArc
 50
90.0
 51
270.0
  0
ARC
  5
3E8
330
1F
100
AcDbEntity
  8
AM_0 ( Kontur 0.5 )
100
AcDbCircle
 10
270.0426726738001
 20
324.9179192018
 30
0.0
 40
0.7791456884
100
AcDbArc
 50
90.0
 51
270.0
  0
ARC
  5
3E9
330
1F
100
AcDbEntity
  8
AM_0 ( Kontur 0.5 )
100
AcDbCircle
 10
270.0426726738001
 20
322.2384272775
 30
0.0
 40
0.7791456884
100
AcDbArc
 50
90.0
 51
270.0
  0
ARC
  5
3EA
330
1F
100
AcDbEntity
  8
AM_0 ( Kontur 0.5 )
100
AcDbCircle
 10
270.0435269853
 20
319.5592815891
 30
0.0
 40
0.7800000000000001
100
AcDbArc
 50
89.99993463910014
 51
270.0000653608999
  0
LINE
  5
3EB
330
1F
100
AcDbEntity
  8
AM_0 ( Kontur 0.5 )
100
AcDbLine
 10
301.8902950301001
 20
318.7792815891
 30
0.0
 11
270.0426726738001
 21
318.7792815891
 31
0.0
  0
LINE
  5
3EC
330
1F
100
AcDbEntity
  8
AM_0 ( Kontur 0.5 )
100
AcDbLine
 10
301.8902950301001
 20
320.3392815891
 30
0.0
 11
270.0426726738001
 21
320.3392815891
 31
0.0
  0
LINE
  5
3ED
330
1F
100
AcDbEntity
  8
AM_0 ( Kontur 0.5 )
100
AcDbLine
 10
294.4213248455
 20
321.4592815891001
 30
0.0
 11
270.0426726738001
 21
321.4592815891001
 31
0.0
  0
LINE
  5
3EE
330
1F
100
AcDbEntity
  8
AM_0 ( Kontur 0.5 )
100
AcDbLine
 10
294.4213248455
 20
323.0175729659001
 30
0.0
 11
270.0426726738001
 21
323.0175729659001
 31
0.0
  0
LINE
  5
3EF
330
1F
100
AcDbEntity
  8
AM_0 ( Kontur 0.5 )
100
AcDbLine
 10
287.5188287921001
 20
324.1387735134001
 30
0.0
 11
270.0426726738001
 21
324.1387735134001
 31
0.0
  0
LINE
  5
3F0
330
1F
100
AcDbEntity
  8
AM_0 ( Kontur 0.5 )
100
AcDbLine
 10
287.5188287921001
 20
325.6970648902001
 30
0.0
 11
270.0426726738001
 21
325.6970648902001
 31
0.0
  0
LINE
  5
3F1
330
1F
100
AcDbEntity
  8
AM_0 ( Kontur 0.5 )
100
AcDbLine
 10
280.3737514129
 20
326.8182654377
 30
0.0
 11
270.0426726738001
 21
326.8182654377
 31
0.0
  0
LINE
  5
3F2
330
1F
100
AcDbEntity
  8
AM_0 ( Kontur 0.5 )
100
AcDbLine
 10
280.3737514129
 20
328.3765568145001
 30
0.0
 11
270.0426726738001
 21
328.3765568145001
 31
0.0
  0
ARC
  5
3F3
330
1F
100
AcDbEntity
  8
AM_0 ( Kontur 0.5 )
100
AcDbCircle
 10
271.7635269853
 20
236.7658515899
 30
0.0
 40
2.5
100
AcDbArc
 50
84.34806142850005
 51
264.3480720097999
  0
ARC
  5
3F4
330
1F
100
AcDbEntity
  8
AM_0 ( Kontur 0.5 )
100
AcDbCircle
 10
271.7635269853
 20
226.7081959125
 30
0.0
 40
2.5
100
AcDbArc
 50
83.33456391720009
 51
263.3345727438002
  0
ARC
  5
3F5
330
1F
100
AcDbEntity
  8
AM_0 ( Kontur 0.5 )
100
AcDbCircle
 10
258.7635269853
 20
236.7658515899
 30
0.0
 40
2.5
100
AcDbArc
 50
275.6519279902
 51
95.65193857149996
  0
ARC
  5
3F6
330
1F
100
AcDbEntity
  8
AM_0 ( Kontur 0.5 )
100
AcDbCircle
 10
258.7635269853
 20
226.7081959125
 30
0.0
 40
2.5
100
AcDbArc
 50
276.6654272561999
 51
96.66543608279992
  0
LINE
  5
3F7
330
1F
100
AcDbEntity
  8
AM_0 ( Kontur 0.5 )
100
AcDbLine
 10
213.9093645445
 20
183.5867072593
 30
0.0
 11
208.7192965104
 21
183.5867072593
 31
0.0
  0
LINE
  5
3F8
330
1F
100
AcDbEntity
  8
AM_0 ( Kontur 0.5 )
100
AcDbLine
 10
213.9093645445
 20
158.5867072593
 30
0.0
 11
208.7192965104
 21
158.5867072593
 31
0.0
  0
ARC
  5
3FD
330
1F
100
AcDbEntity
  8
AM_0 ( Kontur 0.5 )
100
AcDbCircle
 10
271.7635269853
 20
105.4075629287
 30
0.0
 40
2.5
100
AcDbArc
 50
95.65201291979946
 51
275.6519279902
  0
ARC
  5
3FE
330
1F
100
AcDbEntity
  8
AM_0 ( Kontur 0.5 )
100
AcDbCircle
 10
258.7635269853
 20
105.4075629287
 30
0.0
 40
2.5
100
AcDbArc
 50
264.3481619076002
 51
84.34798708019972
  0
LINE
  5
3FF
330
1F
100
AcDbEntity
  8
AM_3 ( Verdeckt )
  6
AM_ISO02W050x2
100
AcDbLine
 10
225.5135269853
 20
316.3522571824664
 30
0.0
 11
225.5135269853
 21
312.3083942698
 31
0.0
  0
LINE
  5
400
330
1F
100
AcDbEntity
  8
AM_3 ( Verdeckt )
  6
AM_ISO02W050x2
100
AcDbLine
 10
216.5135269853001
 20
316.3522571824685
 30
0.0
 11
216.5135269853001
 21
312.3083942698
 31
0.0
  0
LINE
  5
401
330
1F
100
AcDbEntity
  8
AM_3 ( Verdeckt )
  6
AM_ISO02W050x2
100
AcDbLine
 10
305.0135269853
 20
316.3522571824476
 30
0.0
 11
305.0135269853
 21
312.3083942698
 31
0.0
  0
LINE
  5
402
330
1F
100
AcDbEntity
  8
AM_3 ( Verdeckt )
  6
AM_ISO02W050x2
100
AcDbLine
 10
314.0135269853
 20
316.3522571824454
 30
0.0
 11
314.0135269853
 21
312.3083942698
 31
0.0
  0
ARC
  5
403
330
1F
100
AcDbEntity
  8
AM_0 ( Kontur 0.5 )
100
AcDbCircle
 10
301.8902950301001
 20
319.5592815891
 30
0.0
 40
0.7800000000000001
100
AcDbArc
 50
269.9999502709998
 51
90.0
  0
LINE
  5
404
330
1F
100
AcDbEntity
  8
AM_0 ( Kontur 0.5 )
100
AcDbLine
 10
340.1204868997518
 20
318.7792815891
 30
0.0
 11
307.1693286439
 21
318.7792815891
 31
0.0
  0
LINE
  5
405
330
1F
100
AcDbEntity
  8
AM_0 ( Kontur 0.5 )
100
AcDbLine
 10
337.2322590283194
 20
320.3392815891
 30
0.0
 11
307.1693294867
 21
320.3392815891
 31
0.0
  0
ARC
  5
406
330
1F
100
AcDbEntity
  8
AM_0 ( Kontur 0.5 )
100
AcDbCircle
 10
307.1693294867
 20
319.5592815891
 30
0.0
 40
0.7800000000000001
100
AcDbArc
 50
90.0
 51
270.0000619041
  0
LINE
  5
407
330
1F
100
AcDbEntity
  8
AM_0 ( Kontur 0.5 )
100
AcDbLine
 10
334.2892441835964
 20
321.4592815891001
 30
0.0
 11
300.2762320453001
 21
321.4592815891001
 31
0.0
  0
ARC
  5
408
330
1F
100
AcDbEntity
  8
AM_0 ( Kontur 0.5 )
100
AcDbCircle
 10
300.2762320453001
 20
322.2384272775
 30
0.0
 40
0.7791456884
100
AcDbArc
 50
89.99991778600019
 51
270.0
  0
LINE
  5
409
330
1F
100
AcDbEntity
  8
AM_0 ( Kontur 0.5 )
100
AcDbLine
 10
329.9399891939195
 20
323.0175729659001
 30
0.0
 11
300.2762309273001
 21
323.0175729659001
 31
0.0
  0
LINE
  5
40B
330
1F
100
AcDbEntity
  8
AM_0 ( Kontur 0.5 )
100
AcDbLine
 10
234.1829864495
 20
158.5867072593
 30
0.0
 11
229.8058056824
 21
158.5867072593
 31
0.0
  0
LINE
  5
40D
330
1F
100
AcDbEntity
  8
AM_0 ( Kontur 0.5 )
100
AcDbLine
 10
245.3637782432
 20
158.5867072593
 30
0.0
 11
239.6510300356
 21
158.5867072593
 31
0.0
  0
LINE
  5
40F
330
1F
100
AcDbEntity
  8
AM_0 ( Kontur 0.5 )
100
AcDbLine
 10
245.3637782432
 20
183.5867072593
 30
0.0
 11
239.6510300356
 21
183.5867072593
 31
0.0
  0
LINE
  5
410
330
1F
100
AcDbEntity
  8
AM_0 ( Kontur 0.5 )
100
AcDbLine
 10
321.5354537927
 20
183.5867072593
 30
0.0
 11
316.6176894262
 21
183.5867072593
 31
0.0
  0
LINE
  5
412
330
1F
100
AcDbEntity
  8
AM_0 ( Kontur 0.5 )
100
AcDbLine
 10
321.5354537927
 20
158.5867072593
 30
0.0
 11
316.6176894262
 21
158.5867072593
 31
0.0
  0
LINE
  5
414
330
1F
100
AcDbEntity
  8
AM_0 ( Kontur 0.5 )
100
AcDbLine
 10
300.7212482883
 20
183.5867072593
 30
0.0
 11
296.3440675212
 21
183.5867072593
 31
0.0
  0
LINE
  5
416
330
1F
100
AcDbEntity
  8
AM_0 ( Kontur 0.5 )
100
AcDbLine
 10
300.7212482883
 20
158.5867072593
 30
0.0
 11
296.3440675212
 21
158.5867072593
 31
0.0
  0
LINE
  5
418
330
1F
100
AcDbEntity
  8
AM_0 ( Kontur 0.5 )
100
AcDbLine
 10
290.8760239351
 20
183.5867072593
 30
0.0
 11
285.1632757275
 21
183.5867072593
 31
0.0
  0
LINE
  5
419
330
1F
100
AcDbEntity
  8
AM_0 ( Kontur 0.5 )
100
AcDbLine
 10
290.8760239351
 20
158.5867072593
 30
0.0
 11
285.1632757275
 21
158.5867072593
 31
0.0
  0
ARC
  5
41A
330
1F
100
AcDbEntity
  8
AM_0 ( Kontur 0.5 )
100
AcDbCircle
 10
308.4480699261001
 20
186.9326925868
 30
0.0
 40
2.5
100
AcDbArc
 50
200.1499276104
 51
340.2209339244
  0
ARC
  5
41B
330
1F
100
AcDbEntity
  8
AM_0 ( Kontur 0.5 )
100
AcDbCircle
 10
265.2635269853
 20
171.0867072593
 30
0.0
 40
43.5
100
AcDbArc
 50
323.1233302596
 51
339.8287286535998
  0
LINE
  5
41C
330
1F
100
AcDbEntity
  8
AM_0 ( Kontur 0.5 )
100
AcDbLine
 10
340.2635269853
 20
319.1292051361001
 30
0.0
 11
339.1283793902001
 21
316.3522571825
 31
0.0
  0
ARC
  5
41D
102
{ACAD_REACTORS
330
78F
102
}
330
1F
100
AcDbEntity
  8
AM_0 ( Kontur 0.5 )
100
AcDbCircle
 10
265.2635269853
 20
135.6543007227
 30
0.0
 40
198.2121099971
100
AcDbArc
 50
67.76647111810047
 51
112.2335288818995
  0
LINE
  5
41E
330
1F
100
AcDbEntity
  8
AM_0 ( Kontur 0.5 )
100
AcDbLine
 10
190.2635269853
 20
319.1292051361001
 30
0.0
 11
191.3986745805
 21
316.3522571825001
 31
0.0
  0
LINE
  5
41F
330
1F
100
AcDbEntity
  8
AM_0 ( Kontur 0.5 )
100
AcDbLine
 10
332.6133599473
 20
158.5867072593
 30
0.0
 11
327.5210566504
 21
158.5867072593
 31
0.0
  0
LINE
  5
420
330
1F
100
AcDbEntity
  8
AM_0 ( Kontur 0.5 )
100
AcDbLine
 10
332.6133599473
 20
183.5867072593
 30
0.0
 11
327.5210566504
 21
183.5867072593
 31
0.0
  0
LINE
  5
421
330
1F
100
AcDbEntity
  8
AM_0 ( Kontur 0.5 )
100
AcDbLine
 10
197.9136940234
 20
158.5867072593
 30
0.0
 11
203.0059973203
 21
158.5867072593
 31
0.0
  0
LINE
  5
422
330
1F
100
AcDbEntity
  8
AM_0 ( Kontur 0.5 )
100
AcDbLine
 10
197.9136940234
 20
183.5867072593
 30
0.0
 11
203.0059973203
 21
183.5867072593
 31
0.0
  0
LINE
  5
424
330
1F
100
AcDbEntity
  8
AM_0 ( Kontur 0.5 )
100
AcDbLine
 10
218.9367252784142
 20
328.3765568145001
 30
0.0
 11
244.5866876352
 21
328.3765568145001
 31
0.0
  0
LINE
  5
425
102
{ACAD_REACTORS
330
727
330
78F
102
}
330
1F
100
AcDbEntity
  8
AM_0 ( Kontur 0.5 )
100
AcDbLine
 10
196.3777519661
 20
312.3083942698
 30
0.0
 11
334.1493020046
 21
312.3083942698
 31
0.0
  0
LINE
  5
426
330
1F
100
AcDbEntity
  8
AM_0 ( Kontur 0.5 )
100
AcDbLine
 10
196.3777519661
 20
316.3522571824733
 30
0.0
 11
196.3777519661
 21
312.3083942698
 31
0.0
  0
LINE
  5
427
330
1F
100
AcDbEntity
  8
AM_0 ( Kontur 0.5 )
100
AcDbLine
 10
334.1493020046
 20
316.3522571824406
 30
0.0
 11
334.1493020046
 21
312.3083942698
 31
0.0
  0
DIMENSION
  5
42A
330
1F
100
AcDbEntity
  8
AM_5 ( Bemassung)
100
AcDbDimension
  2
*D0
 10
190.2635269853
 20
349.913268862
 30
0.0
 11
269.1135269853
 21
349.913268862
 31
0.0
 70
   160
  1
%%c150
 71
     5
 42
150.0
  3
AM_DIN$0
100
AcDbAlignedDimension
 13
340.2635269853
 23
319.1292051361001
 33
0.0
 14
190.2635269853
 24
319.1292051361001
 34
0.0
 50
180.0
100
AcDbRotatedDimension
1001
ACAD
1000
DSTYLE
1002
{
1070
    40
1040
2.0
1002
}
  0
LINE
  5
6B8
330
1F
100
AcDbEntity
  8
AM_0 ( Kontur 0.5 )
100
AcDbLine
 10
191.3986745805105
 20
316.3522571824744
 30
0.0
 11
339.1283793901753
 21
316.3522571824394
 31
0.0
  0
LINE
  5
6B9
330
1F
100
AcDbEntity
  8
AM_0 ( Kontur 0.5 )
100
AcDbLine
 10
311.5903286921855
 20
328.3765568145002
 30
0.0
 11
285.9403663355
 21
328.3765568145
 31
0.0
  0
DIMENSION
  5
719
102
{ACAD_XDICTIONARY
360
726
102
}
102
{ACAD_REACTORS
330
727
102
}
330
1F
100
AcDbEntity
  8
AM_5 ( Bemassung)
100
AcDbDimension
  2
*D15
 10
309.5135269853
 20
277.4611909955845
 30
0.0
 11
266.3668342744097
 21
277.4611909955845
 31
0.0
 70
   160
 71
     5
 42
88.49999999999997
  3
AM_DIN$0
100
AcDbAlignedDimension
 13
221.0135269853001
 23
312.3083942698
 33
0.0
 14
309.5135269853
 24
312.3083942698
 34
0.0
 50
0.0000000000001132
100
AcDbRotatedDimension
1001
ACAD_DSTYLE_DIMINSPECT
1070
   396
1000
100%
1070
   395
1000

1070
   394
1070
    33
1070
   393
1070
     0
1001
ACAD
1000
DSTYLE
1002
{
1070
    40
1040
2.0
1002
}
  0
DIMENSION
  5
77F
102
{ACAD_XDICTIONARY
360
78E
102
}
102
{ACAD_REACTORS
330
78F
102
}
330
1F
100
AcDbEntity
  8
AM_5 ( Bemassung)
100
AcDbDimension
  2
*D17
 10
166.263525975197
 20
333.8664107198001
 30
0.0
 11
159.7468138333143
 21
323.0874024948001
 31
0.0
 70
    32
 71
     5
 42
21.55801645000003
  3
AM_DIN$0
100
AcDbAlignedDimension
 13
265.2635269853
 23
312.3083942698
 33
0.0
 14
265.2635269853
 24
333.8664107198001
 34
0.0
 50
90.00000000000003
100
AcDbRotatedDimension
1001
ACAD_DSTYLE_DIMINSPECT
1070
   396
1000
100%
1070
   395
1000

1070
   394
1070
    33
1070
   393
1070
     0
1001
ACAD
1000
DSTYLE
1002
{
1070
   271
1070
     0
1070
    40
1040
2.0
1002
}
  0
DIMENSION
  5
7BC
330
1F
100
AcDbEntity
  8
AM_5 ( Bemassung)
100
AcDbDimension
  2
*D18
 10
225.5135269853
 20
294.3201823024847
 30
0.0
 11
252.0674151162687
 21
300.9491045398653
 31
0.0
 70
    32
  1
%%c <>
 71
     5
 42
9.0
  3
AM_DIN$0
100
AcDbAlignedDimension
 13
216.5135269853001
 23
312.3083942698
 33
0.0
 14
225.5135269853
 24
312.3083942698
 34
0.0
 50
0.0000000000001132
100
AcDbRotatedDimension
1001
ACAD
1000
DSTYLE
1002
{
1070
    40
1040
2.0
1002
}
1001
ACAD_DSTYLE_DIMINSPECT
1070
   396
1000
100%
1070
   395
1000

1070
   394
1070
    33
1070
   393
1070
     0
  0
DIMENSION
  5
84D
102
{ACAD_XDICTIONARY
360
85A
102
}
102
{ACAD_REACTORS
330
85B
102
}
330
1F
100
AcDbEntity
  8
AM_5 ( Bemassung)
100
AcDbDimension
  2
*D19
 10
190.2635269853
 20
257.9027052096071
 30
0.0
 11
265.2635269853
 21
264.4791035724994
 31
0.0
 70
    32
 71
     5
 42
150.0
  3
AM_DIN$0
100
AcDbAlignedDimension
 13
340.2635269853
 23
171.0867072593
 33
0.0
 14
190.2635269853
 24
171.0867072593
 34
0.0
 50
360.0
100
AcDbRotatedDimension
1001
ACAD
1000
DSTYLE
1002
{
1070
    40
1040
2.0
1002
}
1001
ACAD_DSTYLE_DIMINSPECT
1070
   396
1000
100%
1070
   395
1000

1070
   394
1070
    33
1070
   393
1070
     0
  0
ENDSEC
  0
SECTION
  2
OBJECTS
  0
DICTIONARY
  5
463
330
0
100
AcDbDictionary
281
     1
  3
ACAD_2007HEADERVARS_RT
350
87E
  3
ACAD_COLOR
350
497
  3
ACAD_GROUP
350
464
  3
ACAD_LAYOUT
350
4BF
  3
ACAD_MATERIAL
350
46D
  3
ACAD_MLEADERSTYLE
350
4BC
  3
ACAD_MLINESTYLE
350
465
  3
ACAD_PLOTSETTINGS
350
4C0
  3
ACAD_PLOTSTYLENAME
350
46B
  3
ACAD_SCALELIST
350
49A
  3
ACAD_TABLESTYLE
350
498
  3
ACAD_VISUALSTYLE
350
486
  3
ACDB_RECOMPOSE_DATA
350
87D
  3
AcDbVariableDictionary
350
877
  3
AcmDictionary
350
51F
  3
AMG
350
4C6
  3
AMGSNAPSETTINGS
350
554
  3
ASE_INDEX_DICTIONARY
350
842
  0
DICTIONARY
  5
680
330
2
100
AcDbDictionary
280
     1
281
     1
  3
AMLAYER_GROUPCOLORS
360
681
  0
DICTIONARY
  5
811
330
10
100
AcDbDictionary
280
     1
281
     1
  3
ADSK_XREC_LAYER_RECONCILED
360
812
  0
DICTIONARY
  5
813
330
1FA
100
AcDbDictionary
280
     1
281
     1
  3
ADSK_XREC_LAYER_RECONCILED
360
814
  0
DICTIONARY
  5
815
330
1FB
100
AcDbDictionary
280
     1
281
     1
  3
ADSK_XREC_LAYER_RECONCILED
360
816
  0
DICTIONARY
  5
817
330
1FC
100
AcDbDictionary
280
     1
281
     1
  3
ADSK_XREC_LAYER_RECONCILED
360
818
  0
DICTIONARY
  5
819
330
1FD
100
AcDbDictionary
280
     1
281
     1
  3
ADSK_XREC_LAYER_RECONCILED
360
81A
  0
DICTIONARY
  5
81B
330
1FE
100
AcDbDictionary
280
     1
281
     1
  3
ADSK_XREC_LAYER_RECONCILED
360
81C
  0
DICTIONARY
  5
81D
330
200
100
AcDbDictionary
280
     1
281
     1
  3
ADSK_XREC_LAYER_RECONCILED
360
81E
  0
DICTIONARY
  5
81F
330
201
100
AcDbDictionary
280
     1
281
     1
  3
ADSK_XREC_LAYER_RECONCILED
360
820
  0
DICTIONARY
  5
821
330
202
100
AcDbDictionary
280
     1
281
     1
  3
ADSK_XREC_LAYER_RECONCILED
360
822
  0
DICTIONARY
  5
823
330
203
100
AcDbDictionary
280
     1
281
     1
  3
ADSK_XREC_LAYER_RECONCILED
360
824
  0
DICTIONARY
  5
825
330
204
100
AcDbDictionary
280
     1
281
     1
  3
ADSK_XREC_LAYER_RECONCILED
360
826
  0
DICTIONARY
  5
827
330
205
100
AcDbDictionary
280
     1
281
     1
  3
ADSK_XREC_LAYER_RECONCILED
360
828
  0
DICTIONARY
  5
829
330
206
100
AcDbDictionary
280
     1
281
     1
  3
ADSK_XREC_LAYER_RECONCILED
360
82A
  0
DICTIONARY
  5
82B
330
207
100
AcDbDictionary
280
     1
281
     1
  3
ADSK_XREC_LAYER_RECONCILED
360
82C
  0
DICTIONARY
  5
82D
330
208
100
AcDbDictionary
280
     1
281
     1
  3
ADSK_XREC_LAYER_RECONCILED
360
82E
  0
DICTIONARY
  5
82F
330
209
100
AcDbDictionary
280
     1
281
     1
  3
ADSK_XREC_LAYER_RECONCILED
360
830
  0
DICTIONARY
  5
831
330
20A
100
AcDbDictionary
280
     1
281
     1
  3
ADSK_XREC_LAYER_RECONCILED
360
832
  0
DICTIONARY
  5
833
330
20B
100
AcDbDictionary
280
     1
281
     1
  3
ADSK_XREC_LAYER_RECONCILED
360
834
  0
DICTIONARY
  5
835
330
20C
100
AcDbDictionary
280
     1
281
     1
  3
ADSK_XREC_LAYER_RECONCILED
360
836
  0
DICTIONARY
  5
837
330
20D
100
AcDbDictionary
280
     1
281
     1
  3
ADSK_XREC_LAYER_RECONCILED
360
838
  0
DICTIONARY
  5
67C
330
67B
100
AcDbDictionary
280
     1
281
     1
  3
ADSK_XREC_LAYER_RECONCILED
360
67D
  0
DICTIONARY
  5
839
330
67F
100
AcDbDictionary
280
     1
281
     1
  3
ADSK_XREC_LAYER_RECONCILED
360
83A
  0
DICTIONARY
  5
83B
330
6A4
100
AcDbDictionary
280
     1
281
     1
  3
ADSK_XREC_LAYER_RECONCILED
360
83C
  0
DICTIONARY
  5
83D
330
6CD
100
AcDbDictionary
280
     1
281
     1
  3
ADSK_XREC_LAYER_RECONCILED
360
83E
  0
DICTIONARY
  5
83F
330
6CF
100
AcDbDictionary
280
     1
281
     1
  3
ADSK_XREC_LAYER_RECONCILED
360
840
  0
DICTIONARY
  5
726
330
719
100
AcDbDictionary
280
     1
281
     1
  3
ACAD_DIMASSOC
360
727
  0
DICTIONARY
  5
78E
330
77F
100
AcDbDictionary
280
     1
281
     1
  3
ACAD_DIMASSOC
360
78F
  0
DICTIONARY
  5
85A
330
84D
100
AcDbDictionary
280
     1
281
     1
  3
ACAD_DIMASSOC
360
85B
  0
DICTIONARY
  5
87E
102
{ACAD_REACTORS
330
463
102
}
330
463
100
AcDbDictionary
281
     1
  3
DIMJOGANG
350
87F
  0
DICTIONARY
  5
497
102
{ACAD_REACTORS
330
463
102
}
330
463
100
AcDbDictionary
281
     1
  0
DICTIONARY
  5
464
102
{ACAD_REACTORS
330
463
102
}
330
463
100
AcDbDictionary
281
     1
  0
DICTIONARY
  5
4BF
102
{ACAD_REACTORS
330
463
102
}
330
463
100
AcDbDictionary
281
     1
  3
Layout1
350
4C2
  3
Model
350
4C1
  0
DICTIONARY
  5
46D
102
{ACAD_REACTORS
330
463
102
}
330
463
100
AcDbDictionary
281
     1
  3
ByBlock
350
476
  3
ByLayer
350
46E
  3
Global
350
47E
  0
DICTIONARY
  5
4BC
102
{ACAD_REACTORS
330
463
102
}
330
463
100
AcDbDictionary
281
     1
  3
Standard
350
4BD
  0
DICTIONARY
  5
465
102
{ACAD_REACTORS
330
463
102
}
330
463
100
AcDbDictionary
281
     1
  3
STANDARD
350
466
  0
DICTIONARY
  5
4C0
102
{ACAD_REACTORS
330
463
102
}
330
463
100
AcDbDictionary
281
     1
  0
ACDBDICTIONARYWDFLT
  5
46B
102
{ACAD_REACTORS
330
463
102
}
330
463
100
AcDbDictionary
281
     1
  3
Normal
350
46C
100
AcDbDictionaryWithDefault
340
46C
  0
DICTIONARY
  5
49A
102
{ACAD_REACTORS
330
463
102
}
330
463
100
AcDbDictionary
281
     1
  3
A0
350
49B
  3
A1
350
49C
  3
A2
350
49D
  3
A3
350
49E
  3
A4
350
49F
  3
A5
350
4A0
  3
A6
350
4A1
  3
A7
350
4A2
  3
A8
350
4A3
  3
A9
350
4A4
  3
B0
350
4A5
  3
B1
350
4A6
  3
B2
350
4A7
  3
B3
350
4A8
  3
B4
350
4A9
  3
B5
350
4AA
  3
B6
350
4AB
  3
B7
350
4AC
  3
B8
350
4AD
  3
B9
350
4AE
  3
C0
350
4AF
  3
C1
350
4B0
  3
C2
350
4B1
  3
C3
350
4B2
  3
C4
350
4B3
  3
C5
350
4B4
  3
C6
350
4B5
  3
C7
350
4B6
  3
C8
350
4B7
  3
C9
350
4B8
  3
D0
350
4B9
  3
D1
350
4BA
  3
D2
350
4BB
  0
DICTIONARY
  5
498
102
{ACAD_REACTORS
330
463
102
}
330
463
100
AcDbDictionary
281
     1
  3
Standard
350
499
  0
DICTIONARY
  5
486
102
{ACAD_REACTORS
330
463
102
}
330
463
100
AcDbDictionary
281
     1
  3
2dWireframe
350
48C
  3
3D Hidden
350
48E
  3
3dWireframe
350
48D
  3
Basic
350
48B
  3
Brighten
350
492
  3
ColorChange
350
496
  3
Conceptual
350
48F
  3
Dim
350
491
  3
Facepattern
350
495
  3
Flat
350
487
  3
FlatWithEdges
350
488
  3
Gouraud
350
489
  3
GouraudWithEdges
350
48A
  3
Linepattern
350
494
  3
Realistic
350
490
  3
Thicken
350
493
  0
XRECORD
  5
87D
102
{ACAD_REACTORS
330
463
102
}
330
463
100
AcDbXrecord
280
     1
 90
        1
330
499
  0
DICTIONARY
  5
877
102
{ACAD_REACTORS
330
463
102
}
330
463
100
AcDbDictionary
281
     1
  3
CANNOSCALE
350
87A
  3
CMLEADERSTYLE
350
879
  3
CTABLESTYLE
350
878
  0
DICTIONARY
  5
51F
102
{ACAD_REACTORS
330
463
102
}
330
463
100
AcDbDictionary
281
     1
  3
AcmStdDictionary
350
52A
  3
AMDTSECTSYM_ARROWCOLOR
350
53F
  0
DICTIONARY
  5
4C6
102
{ACAD_REACTORS
330
463
102
}
330
463
100
AcDbDictionary
281
     1
  0
DICTIONARY
  5
554
102
{ACAD_REACTORS
330
463
102
}
330
463
100
AcDbDictionary
281
     1
  0
DICTIONARY
  5
842
102
{ACAD_REACTORS
330
463
102
}
330
463
100
AcDbDictionary
281
     1
  3
ASEBlockHierarchyIndexRecord
350
843
1001
DCO15
1040
1634365711.245
  0
DICTIONARY
  5
681
102
{ACAD_REACTORS
330
680
102
}
330
680
100
AcDbDictionary
280
     1
281
     1
  0
XRECORD
  5
812
102
{ACAD_REACTORS
330
811
102
}
330
811
100
AcDbXrecord
280
     1
290
     1
  0
XRECORD
  5
814
102
{ACAD_REACTORS
330
813
102
}
330
813
100
AcDbXrecord
280
     1
290
     1
  0
XRECORD
  5
816
102
{ACAD_REACTORS
330
815
102
}
330
815
100
AcDbXrecord
280
     1
290
     1
  0
XRECORD
  5
818
102
{ACAD_REACTORS
330
817
102
}
330
817
100
AcDbXrecord
280
     1
290
     1
  0
XRECORD
  5
81A
102
{ACAD_REACTORS
330
819
102
}
330
819
100
AcDbXrecord
280
     1
290
     1
  0
XRECORD
  5
81C
102
{ACAD_REACTORS
330
81B
102
}
330
81B
100
AcDbXrecord
280
     1
290
     1
  0
XRECORD
  5
81E
102
{ACAD_REACTORS
330
81D
102
}
330
81D
100
AcDbXrecord
280
     1
290
     1
  0
XRECORD
  5
820
102
{ACAD_REACTORS
330
81F
102
}
330
81F
100
AcDbXrecord
280
     1
290
     1
  0
XRECORD
  5
822
102
{ACAD_REACTORS
330
821
102
}
330
821
100
AcDbXrecord
280
     1
290
     1
  0
XRECORD
  5
824
102
{ACAD_REACTORS
330
823
102
}
330
823
100
AcDbXrecord
280
     1
290
     1
  0
XRECORD
  5
826
102
{ACAD_REACTORS
330
825
102
}
330
825
100
AcDbXrecord
280
     1
290
     1
  0
XRECORD
  5
828
102
{ACAD_REACTORS
330
827
102
}
330
827
100
AcDbXrecord
280
     1
290
     1
  0
XRECORD
  5
82A
102
{ACAD_REACTORS
330
829
102
}
330
829
100
AcDbXrecord
280
     1
290
     1
  0
XRECORD
  5
82C
102
{ACAD_REACTORS
330
82B
102
}
330
82B
100
AcDbXrecord
280
     1
290
     1
  0
XRECORD
  5
82E
102
{ACAD_REACTORS
330
82D
102
}
330
82D
100
AcDbXrecord
280
     1
290
     1
  0
XRECORD
  5
830
102
{ACAD_REACTORS
330
82F
102
}
330
82F
100
AcDbXrecord
280
     1
290
     1
  0
XRECORD
  5
832
102
{ACAD_REACTORS
330
831
102
}
330
831
100
AcDbXrecord
280
     1
290
     1
  0
XRECORD
  5
834
102
{ACAD_REACTORS
330
833
102
}
330
833
100
AcDbXrecord
280
     1
290
     1
  0
XRECORD
  5
836
102
{ACAD_REACTORS
330
835
102
}
330
835
100
AcDbXrecord
280
     1
290
     1
  0
XRECORD
  5
838
102
{ACAD_REACTORS
330
837
102
}
330
837
100
AcDbXrecord
280
     1
290
     1
  0
XRECORD
  5
67D
102
{ACAD_REACTORS
330
67C
102
}
330
67C
100
AcDbXrecord
280
     1
290
     1
  0
XRECORD
  5
83A
102
{ACAD_REACTORS
330
839
102
}
330
839
100
AcDbXrecord
280
     1
290
     1
  0
XRECORD
  5
83C
102
{ACAD_REACTORS
330
83B
102
}
330
83B
100
AcDbXrecord
280
     1
290
     1
  0
XRECORD
  5
83E
102
{ACAD_REACTORS
330
83D
102
}
330
83D
100
AcDbXrecord
280
     1
290
     1
  0
XRECORD
  5
840
102
{ACAD_REACTORS
330
83F
102
}
330
83F
100
AcDbXrecord
280
     1
290
     1
  0
DIMASSOC
  5
727
102
{ACAD_REACTORS
330
726
102
}
330
726
100
AcDbDimAssoc
330
719
 90
        3
 70
     0
 71
     0
  1
AcDbOsnapPointRef
 72
     6
331
31D
 73
     0
 91
        0
 40
0.3461704421637299
 10
0.0
 20
0.0
 30
0.0
332
425
 74
     0
 92
        0
 75
     0
  1
AcDbOsnapPointRef
 72
     6
331
30C
 73
     0
 91
        0
 40
0.5278786543152105
 10
0.0
 20
0.0
 30
0.0
332
425
 74
     0
 92
        0
 75
     0
  0
DIMASSOC
  5
78F
102
{ACAD_REACTORS
330
78E
102
}
330
78E
100
AcDbDimAssoc
330
77F
 90
        3
 70
     0
 71
     0
  1
AcDbOsnapPointRef
 72
     6
331
30D
 73
     0
 91
        0
 40
0.8089302441057995
 10
0.0
 20
0.0
 30
0.0
332
425
 74
     0
 92
        0
 75
     0
  1
AcDbOsnapPointRef
 72
     6
331
30D
 73
     0
 91
        0
 40
0.2558109931616059
 10
0.0
 20
0.0
 30
0.0
332
41D
 74
     0
 92
        0
 75
     0
  0
DIMASSOC
  5
85B
102
{ACAD_REACTORS
330
85A
102
}
330
85A
100
AcDbDimAssoc
330
84D
 90
        3
 70
     0
 71
     0
  1
AcDbOsnapPointRef
 72
     6
331
30F
 73
     0
 91
        0
 40
0.0502554694934786
 10
0.0
 20
0.0
 30
0.0
332
335
 74
     0
 92
        0
 75
     0
  1
AcDbOsnapPointRef
 72
     6
331
30F
 73
     0
 91
        0
 40
0.9402965117007999
 10
0.0
 20
0.0
 30
0.0
332
335
 74
     0
 92
        0
 75
     0
  0
XRECORD
  5
87F
102
{ACAD_REACTORS
330
87E
102
}
330
87E
100
AcDbXrecord
280
     1
 40
1.570796326794896
  0
LAYOUT
  5
4C2
102
{ACAD_REACTORS
330
4BF
102
}
330
4BF
100
AcDbPlotSettings
  1

  2
C:\Dokumente und Einstellungen\guzb562\Anwendungsdaten\Autodesk\Autodesk Mechanical Desktop 2008\R17.1\deu\plotters\HP DesignJet 500 42+HPGL2 Card.pc3
  4

  6

 40
0.0
 41
0.0
 42
0.0
 43
0.0
 44
0.0
 45
0.0
 46
0.0
 47
0.0
 48
0.0
 49
0.0
140
0.0
141
0.0
142
1.0
143
1.0
 70
   688
 72
     0
 73
     0
 74
     5
  7
C:\Dokumente und Einstellungen\guzb562\Anwendungsdaten\Autodesk\Autodesk Mechanical Desktop 2008\R17.1\deu\Plot Styles\OASE.ctb
 75
    16
147
1.0
 76
     0
 77
     2
 78
   300
148
0.0
149
0.0
100
AcDbLayout
  1
Layout1
 70
     0
 71
     1
 10
0.0
 20
0.0
 11
12.0
 21
9.0
 12
0.0
 22
0.0
 32
0.0
 14
1.000000000000000E+20
 24
1.000000000000000E+20
 34
1.000000000000000E+20
 15
-1.000000000000000E+20
 25
-1.000000000000000E+20
 35
-1.000000000000000E+20
146
0.0
 13
0.0
 23
0.0
 33
0.0
 16
1.0
 26
0.0
 36
0.0
 17
0.0
 27
1.0
 37
0.0
 76
     0
330
1B
  0
LAYOUT
  5
4C1
102
{ACAD_REACTORS
330
4BF
102
}
330
4BF
100
AcDbPlotSettings
  1

  2
C:\Dokumente und Einstellungen\guzb562\Anwendungsdaten\Autodesk\Autodesk Mechanical Desktop 2008\R17.1\deu\plotters\HP DesignJet 500 42+HPGL2 Card.pc3
  4

  6

 40
0.0
 41
0.0
 42
0.0
 43
0.0
 44
0.0
 45
0.0
 46
0.0
 47
0.0
 48
0.0
 49
0.0
140
0.0
141
0.0
142
1.0
143
1.0
 70
  1712
 72
     0
 73
     0
 74
     0
  7
C:\Dokumente und Einstellungen\guzb562\Anwendungsdaten\Autodesk\Autodesk Mechanical Desktop 2008\R17.1\deu\Plot Styles\OASE.ctb
 75
     0
147
1.0
 76
     0
 77
     2
 78
   300
148
0.0
149
0.0
100
AcDbLayout
  1
Model
 70
     1
 71
     0
 10
0.0
 20
0.0
 11
12.0
 21
9.0
 12
0.0
 22
0.0
 32
0.0
 14
0.0
 24
0.0
 34
0.0
 15
0.0
 25
0.0
 35
0.0
146
0.0
 13
0.0
 23
0.0
 33
0.0
 16
1.0
 26
0.0
 36
0.0
 17
0.0
 27
1.0
 37
0.0
 76
     0
330
1F
331
1F4
  0
MATERIAL
  5
476
102
{ACAD_XDICTIONARY
360
477
102
}
102
{ACAD_REACTORS
330
46D
102
}
330
46D
100
AcDbMaterial
  1
ByBlock
 72
     0
 43
0.0208333333333333
 43
0.0
 43
0.0
 43
0.0
 43
0.0
 43
0.0208333333333333
 43
0.0
 43
0.0
 43
0.0
 43
0.0
 43
1.0
 43
0.0
 43
0.0
 43
0.0
 43
0.0
 43
1.0
 77
     0
 47
0.0208333333333333
 47
0.0
 47
0.0
 47
0.0
 47
0.0
 47
0.0208333333333333
 47
0.0
 47
0.0
 47
0.0
 47
0.0
 47
1.0
 47
0.0
 47
0.0
 47
0.0
 47
0.0
 47
1.0
171
     0
 49
0.0208333333333333
 49
0.0
 49
0.0
 49
0.0
 49
0.0
 49
0.0208333333333333
 49
0.0
 49
0.0
 49
0.0
 49
0.0
 49
1.0
 49
0.0
 49
0.0
 49
0.0
 49
0.0
 49
1.0
175
     0
142
0.0208333333333333
142
0.0
142
0.0
142
0.0
142
0.0
142
0.0208333333333333
142
0.0
142
0.0
142
0.0
142
0.0
142
1.0
142
0.0
142
0.0
142
0.0
142
0.0
142
1.0
179
     0
144
0.0208333333333333
144
0.0
144
0.0
144
0.0
144
0.0
144
0.0208333333333333
144
0.0
144
0.0
144
0.0
144
0.0
144
1.0
144
0.0
144
0.0
144
0.0
144
0.0
144
1.0
147
0.0208333333333333
147
0.0
147
0.0
147
0.0
147
0.0
147
0.0208333333333333
147
0.0
147
0.0
147
0.0
147
0.0
147
1.0
147
0.0
147
0.0
147
0.0
147
0.0
147
1.0
  0
MATERIAL
  5
46E
102
{ACAD_XDICTIONARY
360
46F
102
}
102
{ACAD_REACTORS
330
46D
102
}
330
46D
100
AcDbMaterial
  1
ByLayer
 72
     0
 43
0.0208333333333333
 43
0.0
 43
0.0
 43
0.0
 43
0.0
 43
0.0208333333333333
 43
0.0
 43
0.0
 43
0.0
 43
0.0
 43
1.0
 43
0.0
 43
0.0
 43
0.0
 43
0.0
 43
1.0
 77
     0
 47
0.0208333333333333
 47
0.0
 47
0.0
 47
0.0
 47
0.0
 47
0.0208333333333333
 47
0.0
 47
0.0
 47
0.0
 47
0.0
 47
1.0
 47
0.0
 47
0.0
 47
0.0
 47
0.0
 47
1.0
171
     0
 49
0.0208333333333333
 49
0.0
 49
0.0
 49
0.0
 49
0.0
 49
0.0208333333333333
 49
0.0
 49
0.0
 49
0.0
 49
0.0
 49
1.0
 49
0.0
 49
0.0
 49
0.0
 49
0.0
 49
1.0
175
     0
142
0.0208333333333333
142
0.0
142
0.0
142
0.0
142
0.0
142
0.0208333333333333
142
0.0
142
0.0
142
0.0
142
0.0
142
1.0
142
0.0
142
0.0
142
0.0
142
0.0
142
1.0
179
     0
144
0.0208333333333333
144
0.0
144
0.0
144
0.0
144
0.0
144
0.0208333333333333
144
0.0
144
0.0
144
0.0
144
0.0
144
1.0
144
0.0
144
0.0
144
0.0
144
0.0
144
1.0
147
0.0208333333333333
147
0.0
147
0.0
147
0.0
147
0.0
147
0.0208333333333333
147
0.0
147
0.0
147
0.0
147
0.0
147
1.0
147
0.0
147
0.0
147
0.0
147
0.0
147
1.0
  0
MATERIAL
  5
47E
102
{ACAD_XDICTIONARY
360
47F
102
}
102
{ACAD_REACTORS
330
46D
102
}
330
46D
100
AcDbMaterial
  1
Global
 72
     0
 43
0.0208333333333333
 43
0.0
 43
0.0
 43
0.0
 43
0.0
 43
0.0208333333333333
 43
0.0
 43
0.0
 43
0.0
 43
0.0
 43
1.0
 43
0.0
 43
0.0
 43
0.0
 43
0.0
 43
1.0
 77
     0
 47
0.0208333333333333
 47
0.0
 47
0.0
 47
0.0
 47
0.0
 47
0.0208333333333333
 47
0.0
 47
0.0
 47
0.0
 47
0.0
 47
1.0
 47
0.0
 47
0.0
 47
0.0
 47
0.0
 47
1.0
171
     0
 49
0.0208333333333333
 49
0.0
 49
0.0
 49
0.0
 49
0.0
 49
0.0208333333333333
 49
0.0
 49
0.0
 49
0.0
 49
0.0
 49
1.0
 49
0.0
 49
0.0
 49
0.0
 49
0.0
 49
1.0
175
     0
142
0.0208333333333333
142
0.0
142
0.0
142
0.0
142
0.0
142
0.0208333333333333
142
0.0
142
0.0
142
0.0
142
0.0
142
1.0
142
0.0
142
0.0
142
0.0
142
0.0
142
1.0
179
     0
144
0.0208333333333333
144
0.0
144
0.0
144
0.0
144
0.0
144
0.0208333333333333
144
0.0
144
0.0
144
0.0
144
0.0
144
1.0
144
0.0
144
0.0
144
0.0
144
0.0
144
1.0
147
0.0208333333333333
147
0.0
147
0.0
147
0.0
147
0.0
147
0.0208333333333333
147
0.0
147
0.0
147
0.0
147
0.0
147
1.0
147
0.0
147
0.0
147
0.0
147
0.0
147
1.0
  0
MLEADERSTYLE
  5
4BD
102
{ACAD_REACTORS
330
4BC
102
}
330
4BC
100
AcDbMLeaderStyle
170
     2
171
     1
172
     0
 90
        2
 40
0.0
 41
0.0
173
     1
 91
-1056964608
340
14
 92
       -2
290
     1
 42
0.09
291
     1
 43
0.36
  3
Standard
 44
0.18
300

342
11
174
     1
178
     6
175
     1
176
     0
 93
-1056964608
 45
0.18
292
     0
297
     0
 46
0.18
 94
-1056964608
 47
1.0
 49
1.0
140
1.0
293
     1
141
0.0
294
     1
177
     0
142
1.0
295
     0
296
     0
143
0.125
1001
ACAD_MLEADERVER
1070
     2
  0
MLINESTYLE
  5
466
102
{ACAD_REACTORS
330
465
102
}
330
465
100
AcDbMlineStyle
  2
STANDARD
 70
     0
  3

 62
   256
 51
90.0
 52
90.0
 71
     2
 49
0.5
 62
   256
  6
BYLAYER
 49
-0.5
 62
   256
  6
BYLAYER
  0
ACDBPLACEHOLDER
  5
46C
102
{ACAD_REACTORS
330
46B
102
}
330
46B
  0
SCALE
  5
49B
102
{ACAD_REACTORS
330
49A
102
}
330
49A
100
AcDbScale
 70
     0
300
1:1
140
1.0
141
1.0
290
     1
  0
SCALE
  5
49C
102
{ACAD_REACTORS
330
49A
102
}
330
49A
100
AcDbScale
 70
     0
300
1:2
140
1.0
141
2.0
290
     0
  0
SCALE
  5
49D
102
{ACAD_REACTORS
330
49A
102
}
330
49A
100
AcDbScale
 70
     0
300
1:4
140
1.0
141
4.0
290
     0
  0
SCALE
  5
49E
102
{ACAD_REACTORS
330
49A
102
}
330
49A
100
AcDbScale
 70
     0
300
1:5
140
1.0
141
5.0
290
     0
  0
SCALE
  5
49F
102
{ACAD_REACTORS
330
49A
102
}
330
49A
100
AcDbScale
 70
     0
300
1:8
140
1.0
141
8.0
290
     0
  0
SCALE
  5
4A0
102
{ACAD_REACTORS
330
49A
102
}
330
49A
100
AcDbScale
 70
     0
300
1:10
140
1.0
141
10.0
290
     0
  0
SCALE
  5
4A1
102
{ACAD_REACTORS
330
49A
102
}
330
49A
100
AcDbScale
 70
     0
300
1:16
140
1.0
141
16.0
290
     0
  0
SCALE
  5
4A2
102
{ACAD_REACTORS
330
49A
102
}
330
49A
100
AcDbScale
 70
     0
300
1:20
140
1.0
141
20.0
290
     0
  0
SCALE
  5
4A3
102
{ACAD_REACTORS
330
49A
102
}
330
49A
100
AcDbScale
 70
     0
300
1:30
140
1.0
141
30.0
290
     0
  0
SCALE
  5
4A4
102
{ACAD_REACTORS
330
49A
102
}
330
49A
100
AcDbScale
 70
     0
300
1:40
140
1.0
141
40.0
290
     0
  0
SCALE
  5
4A5
102
{ACAD_REACTORS
330
49A
102
}
330
49A
100
AcDbScale
 70
     0
300
1:50
140
1.0
141
50.0
290
     0
  0
SCALE
  5
4A6
102
{ACAD_REACTORS
330
49A
102
}
330
49A
100
AcDbScale
 70
     0
300
1:100
140
1.0
141
100.0
290
     0
  0
SCALE
  5
4A7
102
{ACAD_REACTORS
330
49A
102
}
330
49A
100
AcDbScale
 70
     0
300
2:1
140
2.0
141
1.0
290
     0
  0
SCALE
  5
4A8
102
{ACAD_REACTORS
330
49A
102
}
330
49A
100
AcDbScale
 70
     0
300
4:1
140
4.0
141
1.0
290
     0
  0
SCALE
  5
4A9
102
{ACAD_REACTORS
330
49A
102
}
330
49A
100
AcDbScale
 70
     0
300
8:1
140
8.0
141
1.0
290
     0
  0
SCALE
  5
4AA
102
{ACAD_REACTORS
330
49A
102
}
330
49A
100
AcDbScale
 70
     0
300
10:1
140
10.0
141
1.0
290
     0
  0
SCALE
  5
4AB
102
{ACAD_REACTORS
330
49A
102
}
330
49A
100
AcDbScale
 70
     0
300
100:1
140
100.0
141
1.0
290
     0
  0
SCALE
  5
4AC
102
{ACAD_REACTORS
330
49A
102
}
330
49A
100
AcDbScale
 70
     0
300
1/128" = 1'-0"
140
0.0078125
141
12.0
290
     0
  0
SCALE
  5
4AD
102
{ACAD_REACTORS
330
49A
102
}
330
49A
100
AcDbScale
 70
     0
300
1/64" = 1'-0"
140
0.015625
141
12.0
290
     0
  0
SCALE
  5
4AE
102
{ACAD_REACTORS
330
49A
102
}
330
49A
100
AcDbScale
 70
     0
300
1/32" = 1'-0"
140
0.03125
141
12.0
290
     0
  0
SCALE
  5
4AF
102
{ACAD_REACTORS
330
49A
102
}
330
49A
100
AcDbScale
 70
     0
300
1/16" = 1'-0"
140
0.0625
141
12.0
290
     0
  0
SCALE
  5
4B0
102
{ACAD_REACTORS
330
49A
102
}
330
49A
100
AcDbScale
 70
     0
300
3/32" = 1'-0"
140
0.09375
141
12.0
290
     0
  0
SCALE
  5
4B1
102
{ACAD_REACTORS
330
49A
102
}
330
49A
100
AcDbScale
 70
     0
300
1/8" = 1'-0"
140
0.125
141
12.0
290
     0
  0
SCALE
  5
4B2
102
{ACAD_REACTORS
330
49A
102
}
330
49A
100
AcDbScale
 70
     0
300
3/16" = 1'-0"
140
0.1875
141
12.0
290
     0
  0
SCALE
  5
4B3
102
{ACAD_REACTORS
330
49A
102
}
330
49A
100
AcDbScale
 70
     0
300
1/4" = 1'-0"
140
0.25
141
12.0
290
     0
  0
SCALE
  5
4B4
102
{ACAD_REACTORS
330
49A
102
}
330
49A
100
AcDbScale
 70
     0
300
3/8" = 1'-0"
140
0.375
141
12.0
290
     0
  0
SCALE
  5
4B5
102
{ACAD_REACTORS
330
49A
102
}
330
49A
100
AcDbScale
 70
     0
300
1/2" = 1'-0"
140
0.5
141
12.0
290
     0
  0
SCALE
  5
4B6
102
{ACAD_REACTORS
330
49A
102
}
330
49A
100
AcDbScale
 70
     0
300
3/4" = 1'-0"
140
0.75
141
12.0
290
     0
  0
SCALE
  5
4B7
102
{ACAD_REACTORS
330
49A
102
}
330
49A
100
AcDbScale
 70
     0
300
1" = 1'-0"
140
1.0
141
12.0
290
     0
  0
SCALE
  5
4B8
102
{ACAD_REACTORS
330
49A
102
}
330
49A
100
AcDbScale
 70
     0
300
1-1/2" = 1'-0"
140
1.5
141
12.0
290
     0
  0
SCALE
  5
4B9
102
{ACAD_REACTORS
330
49A
102
}
330
49A
100
AcDbScale
 70
     0
300
3" = 1'-0"
140
3.0
141
12.0
290
     0
  0
SCALE
  5
4BA
102
{ACAD_REACTORS
330
49A
102
}
330
49A
100
AcDbScale
 70
     0
300
6" = 1'-0"
140
6.0
141
12.0
290
     0
  0
SCALE
  5
4BB
102
{ACAD_REACTORS
330
49A
102
}
330
49A
100
AcDbScale
 70
     0
300
1'-0" = 1'-0"
140
12.0
141
12.0
290
     0
  0
TABLESTYLE
  5
499
102
{ACAD_XDICTIONARY
360
87B
102
}
102
{ACAD_REACTORS
330
498
102
}
330
498
100
AcDbTableStyle
  3
Standard
 70
     0
 71
     0
 40
0.06
 41
0.06
280
     0
281
     0
  7
STANDARD
140
0.18
170
     2
 62
     0
 63
     7
283
     0
274
    -2
284
     1
 64
     0
275
    -2
285
     1
 65
     0
276
    -2
286
     1
 66
     0
277
    -2
287
     1
 67
     0
278
    -2
288
     1
 68
     0
279
    -2
289
     1
 69
     0
  7
STANDARD
140
0.25
170
     5
 62
     0
 63
     7
283
     0
274
    -2
284
     1
 64
     0
275
    -2
285
     1
 65
     0
276
    -2
286
     1
 66
     0
277
    -2
287
     1
 67
     0
278
    -2
288
     1
 68
     0
279
    -2
289
     1
 69
     0
  7
STANDARD
140
0.18
170
     5
 62
     0
 63
     7
283
     0
274
    -2
284
     1
 64
     0
275
    -2
285
     1
 65
     0
276
    -2
286
     1
 66
     0
277
    -2
287
     1
 67
     0
278
    -2
288
     1
 68
     0
279
    -2
289
     1
 69
     0
  0
VISUALSTYLE
  5
48C
102
{ACAD_REACTORS
330
486
102
}
330
486
100
AcDbVisualStyle
  2
2dWireframe
 70
     4
 71
     0
 72
     2
 73
     0
 90
        0
 40
-0.6
 41
-30.0
 62
     5
 63
     7
421
 16777215
 74
     1
 91
        4
 64
     7
 65
   257
 75
     1
175
     1
 42
1.0
 92
        0
 66
   257
 43
1.0
 76
     1
 77
     6
 78
     2
 67
     7
 79
     5
170
     0
171
     0
290
     0
174
     0
 93
        1
 44
0.0
173
     0
291
     0
 45
0.0
1001
ACAD
1000
AcDbSavedByObjectVersion
1070
     0
  0
VISUALSTYLE
  5
48E
102
{ACAD_REACTORS
330
486
102
}
330
486
100
AcDbVisualStyle
  2
3D Hidden
 70
     6
 71
     1
 72
     2
 73
     2
 90
        0
 40
-0.6
 41
-30.0
 62
     5
 63
     7
421
 16777215
 74
     2
 91
        2
 64
     7
 65
   257
 75
     2
175
     1
 42
40.0
 92
        0
 66
   257
 43
1.0
 76
     1
 77
     6
 78
     2
 67
     7
 79
     3
170
     0
171
     0
290
     0
174
     0
 93
        1
 44
0.0
173
     0
291
     0
 45
0.0
1001
ACAD
1000
AcDbSavedByObjectVersion
1070
     0
  0
VISUALSTYLE
  5
48D
102
{ACAD_REACTORS
330
486
102
}
330
486
100
AcDbVisualStyle
  2
3dWireframe
 70
     5
 71
     0
 72
     2
 73
     0
 90
        0
 40
-0.6
 41
-30.0
 62
     5
 63
     7
421
 16777215
 74
     1
 91
        4
 64
     7
 65
   257
 75
     1
175
     1
 42
1.0
 92
        0
 66
   257
 43
1.0
 76
     1
 77
     6
 78
     2
 67
     7
 79
     5
170
     0
171
     0
290
     0
174
     0
 93
        1
 44
0.0
173
     0
291
     0
 45
0.0
1001
ACAD
1000
AcDbSavedByObjectVersion
1070
     0
  0
VISUALSTYLE
  5
48B
102
{ACAD_REACTORS
330
486
102
}
330
486
100
AcDbVisualStyle
  2
Basic
 70
     7
 71
     1
 72
     0
 73
     1
 90
        0
 40
-0.6
 41
-30.0
 62
     5
 63
     7
421
 16777215
 74
     0
 91
        4
 64
     7
 65
   257
 75
     1
175
     1
 42
1.0
 92
        8
 66
     7
 43
1.0
 76
     1
 77
     6
 78
     2
 67
     7
 79
     5
170
     0
171
     0
290
     0
174
     0
 93
        1
 44
0.0
173
     0
291
     1
 45
0.0
1001
ACAD
1000
AcDbSavedByObjectVersion
1070
     0
  0
VISUALSTYLE
  5
492
102
{ACAD_REACTORS
330
486
102
}
330
486
100
AcDbVisualStyle
  2
Brighten
 70
    12
 71
     2
 72
     2
 73
     0
 90
        0
 40
-0.6
 41
-30.0
 62
     5
 63
     7
421
 16777215
 74
     1
 91
        4
 64
     7
 65
   257
 75
     1
175
     1
 42
1.0
 92
        8
 66
     7
 43
1.0
 76
     1
 77
     6
 78
     2
 67
     7
 79
     5
170
     0
171
     0
290
     0
174
     0
 93
        1
 44
50.0
173
     0
291
     1
 45
0.0
1001
ACAD
1000
AcDbSavedByObjectVersion
1070
     0
  0
VISUALSTYLE
  5
496
102
{ACAD_REACTORS
330
486
102
}
330
486
100
AcDbVisualStyle
  2
ColorChange
 70
    16
 71
     2
 72
     2
 73
     3
 90
        0
 40
-0.6
 41
-30.0
 62
     5
 63
     8
421
  8421504
 74
     1
 91
        4
 64
     7
 65
   257
 75
     1
175
     1
 42
1.0
 92
        8
 66
     8
424
  8421504
 43
1.0
 76
     1
 77
     6
 78
     2
 67
     7
 79
     5
170
     0
171
     0
290
     0
174
     0
 93
        1
 44
0.0
173
     0
291
     1
 45
0.0
1001
ACAD
1000
AcDbSavedByObjectVersion
1070
     0
  0
VISUALSTYLE
  5
48F
102
{ACAD_REACTORS
330
486
102
}
330
486
100
AcDbVisualStyle
  2
Conceptual
 70
     9
 71
     3
 72
     2
 73
     0
 90
        0
 40
-0.6
 41
-30.0
 62
     5
 63
     7
421
 16777215
 74
     2
 91
        2
 64
     7
 65
   257
 75
     1
175
     1
 42
40.0
 92
        8
 66
     7
 43
1.0
 76
     1
 77
     6
 78
     2
 67
     7
 79
     3
170
     0
171
     0
290
     0
174
     0
 93
        1
 44
0.0
173
     0
291
     0
 45
0.0
1001
ACAD
1000
AcDbSavedByObjectVersion
1070
     0
  0
VISUALSTYLE
  5
491
102
{ACAD_REACTORS
330
486
102
}
330
486
100
AcDbVisualStyle
  2
Dim
 70
    11
 71
     2
 72
     2
 73
     0
 90
        0
 40
-0.6
 41
-30.0
 62
     5
 63
     7
421
 16777215
 74
     1
 91
        4
 64
     7
 65
   257
 75
     1
175
     1
 42
1.0
 92
        8
 66
     7
 43
1.0
 76
     1
 77
     6
 78
     2
 67
     7
 79
     5
170
     0
171
     0
290
     0
174
     0
 93
        1
 44
-50.0
173
     0
291
     1
 45
0.0
1001
ACAD
1000
AcDbSavedByObjectVersion
1070
     0
  0
VISUALSTYLE
  5
495
102
{ACAD_REACTORS
330
486
102
}
330
486
100
AcDbVisualStyle
  2
Facepattern
 70
    15
 71
     2
 72
     2
 73
     0
 90
        0
 40
-0.6
 41
-30.0
 62
     5
 63
     7
421
 16777215
 74
     1
 91
        4
 64
     7
 65
   257
 75
     1
175
     1
 42
1.0
 92
        8
 66
     7
 43
1.0
 76
     1
 77
     6
 78
     2
 67
     7
 79
     5
170
     0
171
     0
290
     0
174
     0
 93
        1
 44
0.0
173
     0
291
     1
 45
0.0
1001
ACAD
1000
AcDbSavedByObjectVersion
1070
     0
  0
VISUALSTYLE
  5
487
102
{ACAD_REACTORS
330
486
102
}
330
486
100
AcDbVisualStyle
  2
Flat
 70
     0
 71
     2
 72
     1
 73
     1
 90
        2
 40
-0.6
 41
30.0
 62
     5
 63
     7
421
 16777215
 74
     0
 91
        4
 64
     7
 65
   257
 75
     1
175
     1
 42
1.0
 92
        8
 66
     7
 43
1.0
 76
     1
 77
     6
 78
     2
 67
     7
 79
     5
170
     0
171
     0
290
     0
174
     0
 93
       13
 44
0.0
173
     0
291
     1
 45
0.0
1001
ACAD
1000
AcDbSavedByObjectVersion
1070
     0
  0
VISUALSTYLE
  5
488
102
{ACAD_REACTORS
330
486
102
}
330
486
100
AcDbVisualStyle
  2
FlatWithEdges
 70
     1
 71
     2
 72
     1
 73
     1
 90
        2
 40
-0.6
 41
30.0
 62
     5
 63
     7
421
 16777215
 74
     1
 91
        4
 64
     7
 65
   257
 75
     1
175
     1
 42
1.0
 92
        0
 66
   257
 43
1.0
 76
     1
 77
     6
 78
     2
 67
     7
 79
     5
170
     0
171
     0
290
     0
174
     0
 93
       13
 44
0.0
173
     0
291
     1
 45
0.0
1001
ACAD
1000
AcDbSavedByObjectVersion
1070
     0
  0
VISUALSTYLE
  5
489
102
{ACAD_REACTORS
330
486
102
}
330
486
100
AcDbVisualStyle
  2
Gouraud
 70
     2
 71
     2
 72
     2
 73
     1
 90
        2
 40
-0.6
 41
30.0
 62
     5
 63
     7
421
 16777215
 74
     0
 91
        4
 64
     7
 65
   257
 75
     1
175
     1
 42
1.0
 92
        0
 66
     7
 43
1.0
 76
     1
 77
     6
 78
     2
 67
     7
 79
     5
170
     0
171
     0
290
     0
174
     0
 93
       13
 44
0.0
173
     0
291
     1
 45
0.0
1001
ACAD
1000
AcDbSavedByObjectVersion
1070
     0
  0
VISUALSTYLE
  5
48A
102
{ACAD_REACTORS
330
486
102
}
330
486
100
AcDbVisualStyle
  2
GouraudWithEdges
 70
     3
 71
     2
 72
     2
 73
     1
 90
        2
 40
-0.6
 41
30.0
 62
     5
 63
     7
421
 16777215
 74
     1
 91
        4
 64
     7
 65
   257
 75
     1
175
     1
 42
1.0
 92
        0
 66
   257
 43
1.0
 76
     1
 77
     6
 78
     2
 67
     7
 79
     5
170
     0
171
     0
290
     0
174
     0
 93
       13
 44
0.0
173
     0
291
     1
 45
0.0
1001
ACAD
1000
AcDbSavedByObjectVersion
1070
     0
  0
VISUALSTYLE
  5
494
102
{ACAD_REACTORS
330
486
102
}
330
486
100
AcDbVisualStyle
  2
Linepattern
 70
    14
 71
     2
 72
     2
 73
     0
 90
        0
 40
-0.6
 41
-30.0
 62
     5
 63
     7
421
 16777215
 74
     1
 91
        4
 64
     7
 65
   257
 75
     7
175
     7
 42
1.0
 92
        8
 66
     7
 43
1.0
 76
     1
 77
     6
 78
     2
 67
     7
 79
     5
170
     0
171
     0
290
     0
174
     0
 93
        1
 44
0.0
173
     0
291
     1
 45
0.0
1001
ACAD
1000
AcDbSavedByObjectVersion
1070
     0
  0
VISUALSTYLE
  5
490
102
{ACAD_REACTORS
330
486
102
}
330
486
100
AcDbVisualStyle
  2
Realistic
 70
     8
 71
     2
 72
     2
 73
     0
 90
        0
 40
-0.6
 41
-30.0
 62
     5
 63
     7
421
 16777215
 74
     1
 91
        0
 64
     7
 65
   257
 75
     1
175
     1
 42
1.0
 92
        8
 66
     8
424
  7895160
 43
1.0
 76
     1
 77
     6
 78
     2
 67
     7
 79
     5
170
     0
171
     0
290
     0
174
     0
 93
       13
 44
0.0
173
     0
291
     0
 45
0.0
1001
ACAD
1000
AcDbSavedByObjectVersion
1070
     0
  0
VISUALSTYLE
  5
493
102
{ACAD_REACTORS
330
486
102
}
330
486
100
AcDbVisualStyle
  2
Thicken
 70
    13
 71
     2
 72
     2
 73
     0
 90
        0
 40
-0.6
 41
-30.0
 62
     5
 63
     7
421
 16777215
 74
     1
 91
        4
 64
     7
 65
   257
 75
     1
175
     1
 42
1.0
 92
       12
 66
     7
 43
1.0
 76
     1
 77
     6
 78
     2
 67
     7
 79
     5
170
     0
171
     0
290
     0
174
     0
 93
        1
 44
0.0
173
     0
291
     1
 45
0.0
1001
ACAD
1000
AcDbSavedByObjectVersion
1070
     0
  0
DICTIONARYVAR
  5
87A
102
{ACAD_REACTORS
330
877
102
}
330
877
100
DictionaryVariables
280
     0
  1
1:2
  0
DICTIONARYVAR
  5
879
102
{ACAD_REACTORS
330
877
102
}
330
877
100
DictionaryVariables
280
     0
  1
STANDARD
  0
DICTIONARYVAR
  5
878
102
{ACAD_REACTORS
330
877
102
}
330
877
100
DictionaryVariables
280
     0
  1
STANDARD
  0
DICTIONARY
  5
52A
102
{ACAD_REACTORS
330
51F
102
}
330
51F
100
AcDbDictionary
281
     1
  0
XRECORD
  5
53F
102
{ACAD_REACTORS
330
51F
102
}
330
51F
100
AcDbXrecord
280
     1
 90
-1023410169
  0
XRECORD
  5
843
102
{ACAD_REACTORS
330
842
102
}
330
842
100
AcDbXrecord
280
     1
330
6B2
330
6B3
330
570
330
576
330
577
330
6C6
330
6C7
330
588
330
589
330
592
330
593
330
59B
330
59C
330
5A4
330
5A5
  0
DICTIONARY
  5
477
330
476
100
AcDbDictionary
280
     1
281
     1
  3
ACAD_XREC_ROUNDTRIP
360
881
  3
BUMPTILE
360
479
  3
DIFFUSETILE
360
478
  3
OPACITYTILE
360
47C
  3
REFLECTIONTILE
360
47B
  3
REFRACTIONTILE
360
47D
  3
SPECULARTILE
360
47A
  0
DICTIONARY
  5
46F
330
46E
100
AcDbDictionary
280
     1
281
     1
  3
ACAD_XREC_ROUNDTRIP
360
880
  3
BUMPTILE
360
471
  3
DIFFUSETILE
360
470
  3
OPACITYTILE
360
474
  3
REFLECTIONTILE
360
473
  3
REFRACTIONTILE
360
475
  3
SPECULARTILE
360
472
  0
DICTIONARY
  5
47F
330
47E
100
AcDbDictionary
280
     1
281
     1
  3
ACAD_XREC_ROUNDTRIP
360
882
  3
BUMPTILE
360
481
  3
DIFFUSETILE
360
480
  3
OPACITYTILE
360
484
  3
REFLECTIONTILE
360
483
  3
REFRACTIONTILE
360
485
  3
SPECULARTILE
360
482
  0
DICTIONARY
  5
87B
330
499
100
AcDbDictionary
280
     1
281
     1
  3
ACAD_ROUNDTRIP_2008_TABLESTYLE_CELLSTYLEMAP
360
87C
  3
ACAD_XREC_ROUNDTRIP
360
883
  0
XRECORD
  5
881
102
{ACAD_REACTORS
330
477
102
}
330
477
100
AcDbXrecord
280
     1
102
MATERIAL
148
0.0
149
0.0
149
0.0
 93
        0
 94
      127
282
     0
 72
     0
 77
     0
171
     0
175
     0
179
     0
273
     0
  0
XRECORD
  5
479
102
{ACAD_REACTORS
330
477
102
}
330
477
100
AcDbXrecord
280
     1
270
     1
271
     1
  0
XRECORD
  5
478
102
{ACAD_REACTORS
330
477
102
}
330
477
100
AcDbXrecord
280
     1
270
     1
271
     1
  0
XRECORD
  5
47C
102
{ACAD_REACTORS
330
477
102
}
330
477
100
AcDbXrecord
280
     1
270
     1
271
     1
  0
XRECORD
  5
47B
102
{ACAD_REACTORS
330
477
102
}
330
477
100
AcDbXrecord
280
     1
270
     1
271
     1
  0
XRECORD
  5
47D
102
{ACAD_REACTORS
330
477
102
}
330
477
100
AcDbXrecord
280
     1
270
     1
271
     1
  0
XRECORD
  5
47A
102
{ACAD_REACTORS
330
477
102
}
330
477
100
AcDbXrecord
280
     1
270
     1
271
     1
  0
XRECORD
  5
880
102
{ACAD_REACTORS
330
46F
102
}
330
46F
100
AcDbXrecord
280
     1
102
MATERIAL
148
0.0
149
0.0
149
0.0
 93
        0
 94
      127
282
     0
 72
     0
 77
     0
171
     0
175
     0
179
     0
273
     0
  0
XRECORD
  5
471
102
{ACAD_REACTORS
330
46F
102
}
330
46F
100
AcDbXrecord
280
     1
270
     1
271
     1
  0
XRECORD
  5
470
102
{ACAD_REACTORS
330
46F
102
}
330
46F
100
AcDbXrecord
280
     1
270
     1
271
     1
  0
XRECORD
  5
474
102
{ACAD_REACTORS
330
46F
102
}
330
46F
100
AcDbXrecord
280
     1
270
     1
271
     1
  0
XRECORD
  5
473
102
{ACAD_REACTORS
330
46F
102
}
330
46F
100
AcDbXrecord
280
     1
270
     1
271
     1
  0
XRECORD
  5
475
102
{ACAD_REACTORS
330
46F
102
}
330
46F
100
AcDbXrecord
280
     1
270
     1
271
     1
  0
XRECORD
  5
472
102
{ACAD_REACTORS
330
46F
102
}
330
46F
100
AcDbXrecord
280
     1
270
     1
271
     1
  0
XRECORD
  5
882
102
{ACAD_REACTORS
330
47F
102
}
330
47F
100
AcDbXrecord
280
     1
102
MATERIAL
148
0.0
149
0.0
149
0.0
 93
        0
 94
      127
282
     0
 72
     0
 77
     0
171
     0
175
     0
179
     0
273
     0
  0
XRECORD
  5
481
102
{ACAD_REACTORS
330
47F
102
}
330
47F
100
AcDbXrecord
280
     1
270
     1
271
     1
  0
XRECORD
  5
480
102
{ACAD_REACTORS
330
47F
102
}
330
47F
100
AcDbXrecord
280
     1
270
     1
271
     1
  0
XRECORD
  5
484
102
{ACAD_REACTORS
330
47F
102
}
330
47F
100
AcDbXrecord
280
     1
270
     1
271
     1
  0
XRECORD
  5
483
102
{ACAD_REACTORS
330
47F
102
}
330
47F
100
AcDbXrecord
280
     1
270
     1
271
     1
  0
XRECORD
  5
485
102
{ACAD_REACTORS
330
47F
102
}
330
47F
100
AcDbXrecord
280
     1
270
     1
271
     1
  0
XRECORD
  5
482
102
{ACAD_REACTORS
330
47F
102
}
330
47F
100
AcDbXrecord
280
     1
270
     1
271
     1
  0
CELLSTYLEMAP
  5
87C
102
{ACAD_REACTORS
330
87B
102
}
330
87B
100
AcDbCellStyleMap
 90
        3
300
CELLSTYLE
  1
TABLEFORMAT_BEGIN
 90
        5
170
     1
 91
        0
 92
    32768
 62
   257
 93
        1
300
CONTENTFORMAT
  1
CONTENTFORMAT_BEGIN
 90
        0
 91
        0
 92
      512
 93
        0
300

 40
0.0
140
1.0
 94
        5
 62
     0
340
11
144
0.25
309
CONTENTFORMAT_END
171
     0
 94
        0
309
TABLEFORMAT_END
  1
CELLSTYLE_BEGIN
 90
        1
 91
        1
300
_TITLE
309
CELLSTYLE_END
300
CELLSTYLE
  1
TABLEFORMAT_BEGIN
 90
        5
170
     1
 91
        0
 92
        0
 62
   257
 93
        1
300
CONTENTFORMAT
  1
CONTENTFORMAT_BEGIN
 90
        0
 91
        0
 92
      512
 93
        0
300

 40
0.0
140
1.0
 94
        5
 62
     0
340
11
144
0.18
309
CONTENTFORMAT_END
171
     0
 94
        0
309
TABLEFORMAT_END
  1
CELLSTYLE_BEGIN
 90
        2
 91
        1
300
_HEADER
309
CELLSTYLE_END
300
CELLSTYLE
  1
TABLEFORMAT_BEGIN
 90
        5
170
     1
 91
        0
 92
        0
 62
   257
 93
        1
300
CONTENTFORMAT
  1
CONTENTFORMAT_BEGIN
 90
        0
 91
        0
 92
      512
 93
        0
300

 40
0.0
140
1.0
 94
        2
 62
     0
340
11
144
0.18
309
CONTENTFORMAT_END
171
     0
 94
        0
309
TABLEFORMAT_END
  1
CELLSTYLE_BEGIN
 90
        3
 91
        2
300
_DATA
309
CELLSTYLE_END
  0
XRECORD
  5
883
102
{ACAD_REACTORS
330
87B
102
}
330
87B
100
AcDbXrecord
280
     1
102
ACAD_ROUNDTRIP_PRE2007_TABLESTYLE
 90
      512
 91
        0
  1

 92
      512
 93
        0
  2

 94
      512
 95
        0
  3

  0
ENDSEC
  0
EOF
