  0
SECTION
  2
HEADER
  9
$ACADVER
  1
AC1027
  9
$ACADMAINTVER
 70
   105
  9
$DWGCODEPAGE
  3
ANSI_1252
  9
$LASTSAVEDBY
  1
guzb562
  9
$REQUIREDVERSIONS
160
                 0
  9
$INSBASE
 10
0.0
 20
0.0
 30
0.0
  9
$EXTMIN
 10
11620.98898718081
 20
-2469.744180756535
 30
-0.0015258207003583
  9
$EXTMAX
 10
13845.48639609434
 20
-731.826319913328
 30
0.0000000349246037
  9
$LIMMIN
 10
0.0
 20
0.0
  9
$LIMMAX
 10
410.0
 20
287.0
  9
$ORTHOMODE
 70
     0
  9
$REGENMODE
 70
     1
  9
$FILLMODE
 70
     1
  9
$QTEXTMODE
 70
     0
  9
$MIRRTEXT
 70
     1
  9
$LTSCALE
 40
25.0
  9
$ATTMODE
 70
     1
  9
$TEXTSIZE
 40
3.17499995231628
  9
$TRACEWID
 40
1.0
  9
$TEXTSTYLE
  7
STANDARD
  9
$CLAYER
  8
AM_8 ( Schraffur)
  9
$CELTYPE
  6
ByLayer
  9
$CECOLOR
 62
   256
  9
$CELTSCALE
 40
1.0
  9
$DISPSILH
 70
     0
  9
$DIMSCALE
 40
1.0
  9
$DIMASZ
 40
5.0
  9
$DIMEXO
 40
1.0
  9
$DIMDLI
 40
10.0
  9
$DIMRND
 40
0.0
  9
$DIMDLE
 40
0.0
  9
$DIMEXE
 40
1.0
  9
$DIMTP
 40
0.1
  9
$DIMTM
 40
0.1
  9
$DIMTXT
 40
5.0
  9
$DIMCEN
 40
0.0
  9
$DIMTSZ
 40
0.0
  9
$DIMTOL
 70
     0
  9
$DIMLIM
 70
     0
  9
$DIMTIH
 70
     0
  9
$DIMTOH
 70
     0
  9
$DIMSE1
 70
     0
  9
$DIMSE2
 70
     0
  9
$DIMTAD
 70
     1
  9
$DIMZIN
 70
     8
  9
$DIMBLK
  1

  9
$DIMASO
 70
     1
  9
$DIMSHO
 70
     1
  9
$DIMPOST
  1

  9
$DIMAPOST
  1
"
  9
$DIMALT
 70
     0
  9
$DIMALTD
 70
     2
  9
$DIMALTF
 40
0.0393701
  9
$DIMLFAC
 40
1.0
  9
$DIMTOFL
 70
     1
  9
$DIMTVP
 40
0.0
  9
$DIMTIX
 70
     0
  9
$DIMSOXD
 70
     0
  9
$DIMSAH
 70
     0
  9
$DIMBLK1
  1

  9
$DIMBLK2
  1

  9
$DIMSTYLE
  2
AM_DIN
  9
$DIMCLRD
 70
   256
  9
$DIMCLRE
 70
   256
  9
$DIMCLRT
 70
     2
  9
$DIMTFAC
 40
0.71
  9
$DIMGAP
 40
1.5
  9
$DIMJUST
 70
     0
  9
$DIMSD1
 70
     0
  9
$DIMSD2
 70
     0
  9
$DIMTOLJ
 70
     0
  9
$DIMTZIN
 70
     8
  9
$DIMALTZ
 70
     0
  9
$DIMALTTZ
 70
     0
  9
$DIMUPT
 70
     0
  9
$DIMDEC
 70
     2
  9
$DIMTDEC
 70
     3
  9
$DIMALTU
 70
     2
  9
$DIMALTTD
 70
     4
  9
$DIMTXSTY
  7
STANDARD
  9
$DIMAUNIT
 70
     0
  9
$DIMADEC
 70
     0
  9
$DIMALTRND
 40
0.0
  9
$DIMAZIN
 70
     2
  9
$DIMDSEP
 70
    46
  9
$DIMATFIT
 70
     3
  9
$DIMFRAC
 70
     0
  9
$DIMLDRBLK
  1

  9
$DIMLUNIT
 70
     2
  9
$DIMLWD
 70
    -1
  9
$DIMLWE
 70
    -1
  9
$DIMTMOVE
 70
     0
  9
$DIMFXL
 40
1.0
  9
$DIMFXLON
 70
     0
  9
$DIMJOGANG
 40
1.570796326794896
  9
$DIMTFILL
 70
     0
  9
$DIMTFILLCLR
 70
     0
  9
$DIMARCSYM
 70
     0
  9
$DIMLTYPE
  6

  9
$DIMLTEX1
  6

  9
$DIMLTEX2
  6

  9
$DIMTXTDIRECTION
 70
     0
  9
$LUNITS
 70
     2
  9
$LUPREC
 70
     2
  9
$SKETCHINC
 40
1.0
  9
$FILLETRAD
 40
2.5
  9
$AUNITS
 70
     0
  9
$AUPREC
 70
     0
  9
$MENU
  1
ACAD
  9
$ELEVATION
 40
0.0
  9
$PELEVATION
 40
0.0
  9
$THICKNESS
 40
0.0
  9
$LIMCHECK
 70
     0
  9
$CHAMFERA
 40
2.5
  9
$CHAMFERB
 40
2.5
  9
$CHAMFERC
 40
0.0
  9
$CHAMFERD
 40
0.0
  9
$SKPOLY
 70
     0
  9
$TDCREATE
 40
2448793.749559954
  9
$TDUCREATE
 40
2448793.666226620
  9
$TDUPDATE
 40
2457897.417631933
  9
$TDUUPDATE
 40
2457897.334298599
  9
$TDINDWG
 40
0.1285787963
  9
$TDUSRTIMER
 40
0.1285782639
  9
$USRTIMER
 70
     1
  9
$ANGBASE
 50
0.0
  9
$ANGDIR
 70
     0
  9
$PDMODE
 70
     0
  9
$PDSIZE
 40
0.0
  9
$PLINEWID
 40
0.0
  9
$SPLFRAME
 70
     0
  9
$SPLINETYPE
 70
     6
  9
$SPLINESEGS
 70
     8
  9
$HANDSEED
  5
7557
  9
$SURFTAB1
 70
     6
  9
$SURFTAB2
 70
     6
  9
$SURFTYPE
 70
     6
  9
$SURFU
 70
     6
  9
$SURFV
 70
     6
  9
$UCSBASE
  2

  9
$UCSNAME
  2

  9
$UCSORG
 10
0.0
 20
0.0
 30
0.0
  9
$UCSXDIR
 10
1.0
 20
0.0
 30
0.0
  9
$UCSYDIR
 10
0.0
 20
1.0
 30
0.0
  9
$UCSORTHOREF
  2

  9
$UCSORTHOVIEW
 70
     0
  9
$UCSORGTOP
 10
0.0
 20
0.0
 30
0.0
  9
$UCSORGBOTTOM
 10
0.0
 20
0.0
 30
0.0
  9
$UCSORGLEFT
 10
0.0
 20
0.0
 30
0.0
  9
$UCSORGRIGHT
 10
0.0
 20
0.0
 30
0.0
  9
$UCSORGFRONT
 10
0.0
 20
0.0
 30
0.0
  9
$UCSORGBACK
 10
0.0
 20
0.0
 30
0.0
  9
$PUCSBASE
  2

  9
$PUCSNAME
  2

  9
$PUCSORG
 10
0.0
 20
0.0
 30
0.0
  9
$PUCSXDIR
 10
1.0
 20
0.0
 30
0.0
  9
$PUCSYDIR
 10
0.0
 20
1.0
 30
0.0
  9
$PUCSORTHOREF
  2

  9
$PUCSORTHOVIEW
 70
     0
  9
$PUCSORGTOP
 10
0.0
 20
0.0
 30
0.0
  9
$PUCSORGBOTTOM
 10
0.0
 20
0.0
 30
0.0
  9
$PUCSORGLEFT
 10
0.0
 20
0.0
 30
0.0
  9
$PUCSORGRIGHT
 10
0.0
 20
0.0
 30
0.0
  9
$PUCSORGFRONT
 10
0.0
 20
0.0
 30
0.0
  9
$PUCSORGBACK
 10
0.0
 20
0.0
 30
0.0
  9
$USERI1
 70
     0
  9
$USERI2
 70
     0
  9
$USERI3
 70
     0
  9
$USERI4
 70
     0
  9
$USERI5
 70
     0
  9
$USERR1
 40
0.0
  9
$USERR2
 40
0.0
  9
$USERR3
 40
0.0
  9
$USERR4
 40
0.0
  9
$USERR5
 40
0.0
  9
$WORLDVIEW
 70
     1
  9
$SHADEDGE
 70
     3
  9
$SHADEDIF
 70
    70
  9
$TILEMODE
 70
     1
  9
$MAXACTVP
 70
    64
  9
$PINSBASE
 10
0.0
 20
0.0
 30
0.0
  9
$PLIMCHECK
 70
     0
  9
$PEXTMIN
 10
1.000000000000000E+20
 20
1.000000000000000E+20
 30
1.000000000000000E+20
  9
$PEXTMAX
 10
-1.000000000000000E+20
 20
-1.000000000000000E+20
 30
-1.000000000000000E+20
  9
$PLIMMIN
 10
0.0
 20
0.0
  9
$PLIMMAX
 10
12.0
 20
9.0
  9
$UNITMODE
 70
     0
  9
$VISRETAIN
 70
     1
  9
$PLINEGEN
 70
     0
  9
$PSLTSCALE
 70
     1
  9
$TREEDEPTH
 70
  3020
  9
$CMLSTYLE
  2
Standard
  9
$CMLJUST
 70
     0
  9
$CMLSCALE
 40
1.0
  9
$PROXYGRAPHICS
 70
     1
  9
$MEASUREMENT
 70
     1
  9
$CELWEIGHT
370
    -1
  9
$ENDCAPS
280
     0
  9
$JOINSTYLE
280
     0
  9
$LWDISPLAY
290
     0
  9
$INSUNITS
 70
     4
  9
$HYPERLINKBASE
  1

  9
$STYLESHEET
  1
OASE.ctb
  9
$XEDIT
290
     1
  9
$CEPSNTYPE
380
     0
  9
$PSTYLEMODE
290
     1
  9
$FINGERPRINTGUID
  2
{977CA2A3-6324-4876-92D9-8159C260E83C}
  9
$VERSIONGUID
  2
{788B913E-8863-47F3-9A46-95919D3DFE7A}
  9
$EXTNAMES
290
     1
  9
$PSVPSCALE
 40
0.0
  9
$OLESTARTUP
290
     0
  9
$SORTENTS
280
   127
  9
$INDEXCTL
280
     0
  9
$HIDETEXT
280
     0
  9
$XCLIPFRAME
280
     0
  9
$HALOGAP
280
     0
  9
$OBSCOLOR
 70
   257
  9
$OBSLTYPE
280
     0
  9
$INTERSECTIONDISPLAY
280
     0
  9
$INTERSECTIONCOLOR
 70
   257
  9
$DIMASSOC
280
     2
  9
$PROJECTNAME
  1

  9
$CAMERADISPLAY
290
     0
  9
$LENSLENGTH
 40
50.0
  9
$CAMERAHEIGHT
 40
0.0
  9
$STEPSPERSEC
 40
2.0
  9
$STEPSIZE
 40
6.0
  9
$3DDWFPREC
 40
2.0
  9
$PSOLWIDTH
 40
0.25
  9
$PSOLHEIGHT
 40
4.0
  9
$LOFTANG1
 40
1.570796326794896
  9
$LOFTANG2
 40
1.570796326794896
  9
$LOFTMAG1
 40
0.0
  9
$LOFTMAG2
 40
0.0
  9
$LOFTPARAM
 70
     7
  9
$LOFTNORMALS
280
     1
  9
$LATITUDE
 40
37.795
  9
$LONGITUDE
 40
-122.394
  9
$NORTHDIRECTION
 40
0.0
  9
$TIMEZONE
 70
 -8000
  9
$LIGHTGLYPHDISPLAY
280
     1
  9
$TILEMODELIGHTSYNCH
280
     1
  9
$CMATERIAL
347
11
  9
$SOLIDHIST
280
     1
  9
$SHOWHIST
280
     1
  9
$DWFFRAME
280
     2
  9
$DGNFRAME
280
     0
  9
$REALWORLDSCALE
290
     1
  9
$INTERFERECOLOR
 62
     1
  9
$INTERFEREOBJVS
345
33
  9
$INTERFEREVPVS
346
733A
  9
$CSHADOW
280
     0
  9
$SHADOWPLANELOCATION
 40
0.0
  0
ENDSEC
  0
SECTION
  2
CLASSES
  0
CLASS
  1
ACDBDICTIONARYWDFLT
  2
AcDbDictionaryWithDefault
  3
ObjectDBX Classes
 90
        0
 91
        1
280
     0
281
     0
  0
CLASS
  1
MATERIAL
  2
AcDbMaterial
  3
ObjectDBX Classes
 90
     1153
 91
        3
280
     0
281
     0
  0
CLASS
  1
VISUALSTYLE
  2
AcDbVisualStyle
  3
ObjectDBX Classes
 90
     4095
 91
       26
280
     0
281
     0
  0
CLASS
  1
SCALE
  2
AcDbScale
  3
ObjectDBX Classes
 90
     1153
 91
       33
280
     0
281
     0
  0
CLASS
  1
TABLESTYLE
  2
AcDbTableStyle
  3
ObjectDBX Classes
 90
     4095
 91
        1
280
     0
281
     0
  0
CLASS
  1
MLEADERSTYLE
  2
AcDbMLeaderStyle
  3
ACDB_MLEADERSTYLE_CLASS
 90
     4095
 91
        1
280
     0
281
     0
  0
CLASS
  1
AMGSETTINGSOBJ
  2
AmgSettingsObj
  3
"AcadM|Product Description: AutoCAD Mechanical|Company: Autodesk, Inc."
 90
     1024
 91
        2
280
     0
281
     0
  0
CLASS
  1
ACME_DOCUMENT
  2
AcMeDbDoc
  3
AcMeServices
 90
     1024
 91
        2
280
     0
281
     0
  0
CLASS
  1
ACMESCOPE
  2
AcMeScope
  3
AcMeServices
 90
     1024
 91
        1
280
     0
281
     0
  0
CLASS
  1
ACMECOMMANDHISTORY
  2
AcMeCommandHistory
  3
AcMeServices
 90
     1024
 91
        1
280
     0
281
     0
  0
CLASS
  1
ACIMSYSVARMAN
  2
AcImSysVarManager
  3
AcMeServices
 90
     1024
 91
        5
280
     0
281
     0
  0
CLASS
  1
ACIMINTSYSVAR
  2
AcImIntSysVar
  3
AcMeServices
 90
     1024
 91
       29
280
     0
281
     0
  0
CLASS
  1
ACMEDRAWINGMAN
  2
AcMeDrawingMan
  3
AcMeServices
 90
     1024
 91
        0
280
     0
281
     0
  0
CLASS
  1
ACMEVIEW
  2
AcMeView
  3
AcMeServices
 90
     1024
 91
        0
280
     0
281
     0
  0
CLASS
  1
ACDBENTITYCACHE
  2
AcMeEntityCache
  3
AcMeServices
 90
     1024
 91
        1
280
     0
281
     0
  0
CLASS
  1
GSMANAGER
  2
AcMeGSManager
  3
AcMeServices
 90
     1024
 91
        0
280
     0
281
     0
  0
CLASS
  1
AMDTINTERNALREACTOR
  2
AmdtInternalReactor
  3
AcMeServices
 90
     1024
 91
        1
280
     0
281
     0
  0
CLASS
  1
ACMESTATEMGR
  2
AcMeStateMgr
  3
AcMeServices
 90
     1024
 91
        1
280
     0
281
     0
  0
CLASS
  1
ACGREFMASTER
  2
AcGrefMaster
  3
AcAttribServices
 90
     1024
 91
        1
280
     0
281
     0
  0
CLASS
  1
AM_DRAWING_MGR
  2
AcDmDwgMgr
  3
AcMechDwgViewMgmt
 90
     1024
 91
        1
280
     0
281
     0
  0
CLASS
  1
AM_DWG_DOCUMENT
  2
AcDmDwgDocument
  3
AcMechDwgViewMgmt
 90
     1024
 91
        1
280
     0
281
     0
  0
CLASS
  1
AM_DWG_SHEET
  2
AcDmSheet
  3
AcMechDwgViewMgmt
 90
     1024
 91
        1
280
     0
281
     0
  0
CLASS
  1
AM_VIEWDIMPARMAP
  2
AcDmViewDimParMap
  3
AcMechDwgViewMgmt
 90
     1024
 91
        1
280
     0
281
     0
  0
CLASS
  1
ACIMREALSYSVAR
  2
AcImRealSysVar
  3
AcMeServices
 90
     1024
 91
        1
280
     0
281
     0
  0
CLASS
  1
AM_DWGMGR_NAME
  2
AcDmDwgMgrName
  3
AcMechDwgViewMgmt
 90
     1024
 91
        1
280
     0
281
     0
  0
CLASS
  1
ACME_DATABASE
  2
AcMeDbDatabase
  3
AcMeServices
 90
     1024
 91
        1
280
     0
281
     0
  0
CLASS
  1
ACRFINSADJUSTERMGR
  2
AcRfInsAdjusterMgr
  3
AcMeServices
 90
     1024
 91
        1
280
     0
281
     0
  0
CLASS
  1
ACGREFACADMASTER
  2
AcGrefacadMaster
  3
AcGrefServices
 90
     1024
 91
        1
280
     0
281
     0
  0
CLASS
  1
AMDTMENUSTATEMGR
  2
AmdtMenuStateMgr
  3
McadcomServices
 90
     1024
 91
        1
280
     0
281
     0
  0
CLASS
  1
AMDTMCOMMENUSTATE
  2
AmdtMcomMenuState
  3
McadcomServices
 90
     1024
 91
        1
280
     0
281
     0
  0
CLASS
  1
AMIMASTER
  2
AmiMaster
  3
AmiServices
 90
     1024
 91
        1
280
     0
281
     0
  0
CLASS
  1
MAPIAMMOUDLE
  2
MApiAmModule
  3
MApiAmServices
 90
     1024
 91
        1
280
     0
281
     0
  0
CLASS
  1
ACIMSTRSYSVAR
  2
AcImStrSysVar
  3
AcMeServices
 90
     1024
 91
        5
280
     0
281
     0
  0
CLASS
  1
AMDTADMENUSTATE
  2
AmdtAdMenuState
  3
DesignerServices
 90
     1024
 91
        0
280
     0
281
     0
  0
CLASS
  1
ADAPPL
  2
AcAdAppl
  3
DesignerAssemblies
 90
     1024
 91
        0
280
     0
281
     0
  0
CLASS
  1
DEPMGR
  2
AcAdDepMgr
  3
DesignerAssemblies
 90
     1024
 91
        0
280
     0
281
     0
  0
CLASS
  1
PARAMMGR
  2
AcAdParamMgr
  3
DesignerAssemblies
 90
     1024
 91
        0
280
     0
281
     0
  0
CLASS
  1
PARAMSCOPE
  2
AcAdParamScope
  3
DesignerAssemblies
 90
     1024
 91
        0
280
     0
281
     0
  0
CLASS
  1
NAMEDAPPL
  2
AcAdNamedAppl
  3
DesignerAssemblies
 90
     1024
 91
        0
280
     0
281
     0
  0
CLASS
  1
AMDTDMMENUSTATE
  2
AmdtDmMenuState
  3
AcMechDwgViewMgmt
 90
     1024
 91
        0
280
     0
281
     0
  0
CLASS
  1
AMDTAMMENUSTATE
  2
AmdtAmMenuState
  3
DesignerAssemblies
 90
     1024
 91
        1
280
     0
281
     0
  0
CLASS
  1
ACAMPROJECT
  2
AcAmProject
  3
DesignerAssemblies
 90
     1024
 91
        1
280
     0
281
     0
  0
CLASS
  1
ACAMGRCOMPDEF
  2
AcAmGrCompDef
  3
DesignerAssemblies
 90
     1024
 91
        1
280
     0
281
     0
  0
CLASS
  1
ACCMCONTEXT
  2
AcCmContext
  3
DesignerAssemblies
 90
     1024
 91
        1
280
     0
281
     0
  0
CLASS
  1
ACAMCOMPDEF
  2
AcAmCompDef
  3
DesignerAssemblies
 90
     1024
 91
        1
280
     0
281
     0
  0
CLASS
  1
ACAMCOMPDEFMGR
  2
AcAmCompDefMgr
  3
DesignerAssemblies
 90
     1024
 91
        1
280
     0
281
     0
  0
CLASS
  1
AMCONTEXTMGR
  2
AcAmContextMgr
  3
DesignerAssemblies
 90
     1024
 91
        1
280
     0
281
     0
  0
CLASS
  1
ACAMCONTEXTMODELER
  2
AcAmContextModeler
  3
DesignerAssemblies
 90
     1024
 91
        1
280
     0
281
     0
  0
CLASS
  1
ACMDATADICTIONARY
  2
AcmDataDictionary
  3
"AcmSymBB|Product Description: AutoCAD Mechanical|Company: Autodesk, Inc."
 90
     1024
 91
        1
280
     0
281
     0
  0
CLASS
  1
CATALOGSTATE
  2
AcAmCatalogState
  3
DesignerAssemblies
 90
     1024
 91
        0
280
     0
281
     0
  0
CLASS
  1
ACAMGRCOMPDEFSET
  2
AcAmGrCompDefSet
  3
DesignerAssemblies
 90
     1024
 91
        1
280
     0
281
     0
  0
CLASS
  1
AMDTBROWSERDBTAB
  2
AmdtBrowserDbTab
  3
McadcomServices
 90
     1024
 91
        1
280
     0
281
     0
  0
CLASS
  1
CBROWSERAPPOBJECT
  2
CBrowserAppObject
  3
McadcomServices
 90
     1024
 91
        2
280
     0
281
     0
  0
CLASS
  1
DM_PLACEHOLDER
  2
AcDmSelsetPlaceholder
  3
McadcomServices
 90
     1024
 91
        1
280
     0
281
     0
  0
CLASS
  1
ACMSTANDARDANSI
  2
AcmStandardANSI
  3
"Amdt_StdImp|Product Description: AutoCAD Mechanical|Company: Autodesk, Inc."
 90
     1024
 91
        1
280
     0
281
     0
  0
CLASS
  1
AMGOBJPROPCFG
  2
AmgObjPropCfg
  3
"AmgLay|Product Description: AutoCAD Mechanical|Company: Autodesk, Inc."
 90
     1024
 91
        1
280
     0
281
     0
  0
CLASS
  1
ACMSURFSTANDARDANSI
  2
AcmSurfTextStdANSI
  3
"Amdt_StdImp|Product Description: AutoCAD Mechanical|Company: Autodesk, Inc."
 90
     1024
 91
        1
280
     0
281
     0
  0
CLASS
  1
ACMFCFSTANDARDANSI
  2
AcmFCFStdANSI
  3
"Amdt_StdImp|Product Description: AutoCAD Mechanical|Company: Autodesk, Inc."
 90
     1024
 91
        1
280
     0
281
     0
  0
CLASS
  1
ACMWELDSTANDARDANSI
  2
AcmWeldingStdANSI
  3
"Amdt_StdImp|Product Description: AutoCAD Mechanical|Company: Autodesk, Inc."
 90
     1024
 91
        1
280
     0
281
     0
  0
CLASS
  1
ACMIDSTANDARDANSI
  2
AcmIdStdANSI
  3
"Amdt_StdImp|Product Description: AutoCAD Mechanical|Company: Autodesk, Inc."
 90
     1024
 91
        1
280
     0
281
     0
  0
CLASS
  1
ACMDATUMSTANDARDANSI
  2
AcmDatumStdANSI
  3
"Amdt_StdImp|Product Description: AutoCAD Mechanical|Company: Autodesk, Inc."
 90
     1024
 91
        1
280
     0
281
     0
  0
CLASS
  1
ACMBOMSTANDARDANSI
  2
AcmBOMStdANSI
  3
"Amdt_StdImp|Product Description: AutoCAD Mechanical|Company: Autodesk, Inc."
 90
     1024
 91
        1
280
     0
281
     0
  0
CLASS
  1
ACMDETAILSTANDARDANSI
  2
AmdtDetailSymStdANSI
  3
"Amdt_StdImp|Product Description: AutoCAD Mechanical|Company: Autodesk, Inc."
 90
     1024
 91
        1
280
     0
281
     0
  0
CLASS
  1
ACMSECTIONSTANDARDANSI
  2
AmdtSectionSymStdANSI
  3
"Amdt_StdImp|Product Description: AutoCAD Mechanical|Company: Autodesk, Inc."
 90
     1024
 91
        1
280
     0
281
     0
  0
CLASS
  1
ACMCENTERLINESTANDARDANSI
  2
AmdtCenterLineStdANSI
  3
"Amdt_StdImp|Product Description: AutoCAD Mechanical|Company: Autodesk, Inc."
 90
     1024
 91
        1
280
     0
281
     0
  0
CLASS
  1
ACMTHREADLINESTANDARDANSI
  2
AmdtThreadLineStdANSI
  3
"Amdt_StdImp|Product Description: AutoCAD Mechanical|Company: Autodesk, Inc."
 90
     1024
 91
        1
280
     0
281
     0
  0
CLASS
  1
ACMNOTESTANDARDANSI
  2
AmdtNoteStdANSI
  3
"Amdt_StdImp|Product Description: AutoCAD Mechanical|Company: Autodesk, Inc."
 90
     1024
 91
        1
280
     0
281
     0
  0
CLASS
  1
ACMTAPERSTANDARDANSI
  2
AcmTaperStdANSI
  3
"Amdt_StdImp|Product Description: AutoCAD Mechanical|Company: Autodesk, Inc."
 90
     1024
 91
        1
280
     0
281
     0
  0
CLASS
  1
ACMANOOTATIONVIEWSTANDARDANSI
  2
AmdtAnViewStdANSI
  3
"Amdt_StdImp|Product Description: AutoCAD Mechanical|Company: Autodesk, Inc."
 90
     1024
 91
        1
280
     0
281
     0
  0
CLASS
  1
AMDTNOTETEMPLATEDB
  2
AmdtNoteTemplateDB
  3
AcmSymBB|Product Description: AutoCAD Mechanical|Company: Autodesk, Inc.
 90
     1024
 91
       18
280
     0
281
     0
  0
CLASS
  1
ACAMGLAYSTD
  2
AcAmgLayStd
  3
"AmgLay|Product Description: AutoCAD Mechanical|Company: Autodesk, Inc."
 90
     1024
 91
        3
280
     0
281
     0
  0
CLASS
  1
ACAMGDIMSTD
  2
AcAmgDimStd
  3
"AmgDim|Product Description: AutoCAD Mechanical|Company: Autodesk, Inc."
 90
     1024
 91
        3
280
     0
281
     0
  0
CLASS
  1
ACAMGHOLECHARTSTDANSI
  2
AcAmgHoleChartStdANSI
  3
AmgDim|Product Description: AutoCAD Mechanical|Company: Autodesk, Inc.
 90
     1024
 91
        1
280
     0
281
     0
  0
CLASS
  1
ACAMGTITLESTD
  2
AcAmgTitleStd
  3
"AmgTitle|Product Description: AutoCAD Mechanical|Company: Autodesk, Inc."
 90
     1024
 91
        3
280
     0
281
     0
  0
CLASS
  1
ACAMGFILTERDAT
  2
AcAmgFilterDat
  3
"AcadM|Product Description: AutoCAD Mechanical|Company: Autodesk, Inc."
 90
     1024
 91
        0
280
     0
281
     0
  0
CLASS
  1
CELLSTYLEMAP
  2
AcDbCellStyleMap
  3
ObjectDBX Classes
 90
     1152
 91
        2
280
     0
281
     0
  0
CLASS
  1
DICTIONARYVAR
  2
AcDbDictionaryVar
  3
ObjectDBX Classes
 90
        0
 91
       12
280
     0
281
     0
  0
CLASS
  1
SORTENTSTABLE
  2
AcDbSortentsTable
  3
ObjectDBX Classes
 90
        0
 91
        1
280
     0
281
     0
  0
CLASS
  1
ACMSTANDARDDIN
  2
AcmStandardDIN
  3
"Amdt_StdImp|Product Description: AutoCAD Mechanical|Company: Autodesk, Inc."
 90
     1024
 91
        1
280
     0
281
     0
  0
CLASS
  1
AMDTEDGESTANDARDDIN13715
  2
AmdtEdgeStdDIN13715
  3
"Amdt_StdImp|Product Description: AutoCAD Mechanical|Company: Autodesk, Inc."
 90
     1024
 91
        1
280
     0
281
     0
  0
CLASS
  1
ACMSURFSTANDARDDIN2002
  2
AcmSurfTextStdDIN2002
  3
"Amdt_StdImp|Product Description: AutoCAD Mechanical|Company: Autodesk, Inc."
 90
     1024
 91
        1
280
     0
281
     0
  0
CLASS
  1
ACMFCFSTANDARDDIN
  2
AcmFCFStdDIN
  3
"Amdt_StdImp|Product Description: AutoCAD Mechanical|Company: Autodesk, Inc."
 90
     1024
 91
        1
280
     0
281
     0
  0
CLASS
  1
ACMWELDSTANDARDDIN
  2
AcmWeldingStdDIN
  3
"Amdt_StdImp|Product Description: AutoCAD Mechanical|Company: Autodesk, Inc."
 90
     1024
 91
        1
280
     0
281
     0
  0
CLASS
  1
ACMIDSTANDARDDIN
  2
AcmIdStdDIN
  3
"Amdt_StdImp|Product Description: AutoCAD Mechanical|Company: Autodesk, Inc."
 90
     1024
 91
        1
280
     0
281
     0
  0
CLASS
  1
ACMDATUMSTANDARDDIN
  2
AcmDatumStdDIN
  3
"Amdt_StdImp|Product Description: AutoCAD Mechanical|Company: Autodesk, Inc."
 90
     1024
 91
        1
280
     0
281
     0
  0
CLASS
  1
ACMBOMSTANDARDDIN
  2
AcmBOMStdDIN
  3
"Amdt_StdImp|Product Description: AutoCAD Mechanical|Company: Autodesk, Inc."
 90
     1024
 91
        1
280
     0
281
     0
  0
CLASS
  1
ACMDETAILSTANDARDDIN
  2
AmdtDetailSymStdDIN
  3
"Amdt_StdImp|Product Description: AutoCAD Mechanical|Company: Autodesk, Inc."
 90
     1024
 91
        1
280
     0
281
     0
  0
CLASS
  1
ACMSECTIONSTANDARDDIN
  2
AmdtSectionSymStdDIN
  3
"Amdt_StdImp|Product Description: AutoCAD Mechanical|Company: Autodesk, Inc."
 90
     1024
 91
        1
280
     0
281
     0
  0
CLASS
  1
ACMCENTERLINESTANDARDDIN
  2
AmdtCenterLineStdDIN
  3
"Amdt_StdImp|Product Description: AutoCAD Mechanical|Company: Autodesk, Inc."
 90
     1024
 91
        1
280
     0
281
     0
  0
CLASS
  1
ACMTHREADLINESTANDARDDIN
  2
AmdtThreadLineStdDIN
  3
"Amdt_StdImp|Product Description: AutoCAD Mechanical|Company: Autodesk, Inc."
 90
     1024
 91
        1
280
     0
281
     0
  0
CLASS
  1
ACMNOTESTANDARDDIN
  2
AmdtNoteStdDIN
  3
"Amdt_StdImp|Product Description: AutoCAD Mechanical|Company: Autodesk, Inc."
 90
     1024
 91
        1
280
     0
281
     0
  0
CLASS
  1
ACMTAPERSTANDARDDIN
  2
AcmTaperStdDIN
  3
"Amdt_StdImp|Product Description: AutoCAD Mechanical|Company: Autodesk, Inc."
 90
     1024
 91
        1
280
     0
281
     0
  0
CLASS
  1
ACMANOOTATIONVIEWSTANDARDDIN
  2
AmdtAnViewStdDIN
  3
"Amdt_StdImp|Product Description: AutoCAD Mechanical|Company: Autodesk, Inc."
 90
     1024
 91
        1
280
     0
281
     0
  0
CLASS
  1
ACAMGHOLECHARTSTDDIN
  2
AcAmgHoleChartStdDIN
  3
AmgDim|Product Description: AutoCAD Mechanical|Company: Autodesk, Inc.
 90
     1024
 91
        1
280
     0
281
     0
  0
CLASS
  1
ACMDATAENTRYPART
  2
AcmDataEntryPart
  3
AcmSymBB|Product Description: AutoCAD Mechanical|Company: Autodesk, Inc.
 90
     1024
 91
        0
280
     0
281
     0
  0
CLASS
  1
ACMPARTREF
  2
AcmPartRef
  3
"AcmSymBB|Product Description: AutoCAD Mechanical|Company: Autodesk, Inc."
 90
     1024
 91
        0
280
     0
281
     1
  0
CLASS
  1
ACDBLINERES
  2
AcDbLineRes
  3
AcGrefServices
 90
     1024
 91
        0
280
     0
281
     0
  0
CLASS
  1
CAMSSTRUCTBTNSTATE
  2
StructBtnState
  3
DesignerAssemblies
 90
     1024
 91
        1
280
     0
281
     0
  0
CLASS
  1
ACMDATAENTRYBLOCK
  2
AcmDataEntryBlock
  3
AcmSymBB|Product Description: AutoCAD Mechanical|Company: Autodesk, Inc.
 90
     1024
 91
        1
280
     0
281
     0
  0
CLASS
  1
ACMBOM
  2
AcmBom
  3
"AcmSymBB|Product Description: AutoCAD Mechanical|Company: Autodesk, Inc."
 90
     1024
 91
        1
280
     0
281
     0
  0
CLASS
  1
AMDTFORMULAUPDATEDISPATCHER
  2
AmdtFormulaUpdateDispatcher
  3
AcMeServices
 90
     1024
 91
        1
280
     0
281
     0
  0
CLASS
  1
ACMBOMROW
  2
AcmBomRow
  3
"AcmSymBB|Product Description: AutoCAD Mechanical|Company: Autodesk, Inc."
 90
     1024
 91
        0
280
     0
281
     0
  0
CLASS
  1
ACMSTANDARDISO
  2
AcmStandardISO
  3
"Amdt_StdImp|Product Description: AutoCAD Mechanical|Company: Autodesk, Inc."
 90
     1024
 91
        1
280
     0
281
     0
  0
CLASS
  1
AMDTEDGESTANDARDISO
  2
AmdtEdgeStdISO
  3
"Amdt_StdImp|Product Description: AutoCAD Mechanical|Company: Autodesk, Inc."
 90
     1024
 91
        1
280
     0
281
     0
  0
CLASS
  1
ACMSURFSTANDARDISO2002
  2
AcmSurfTextStdISO2002
  3
"Amdt_StdImp|Product Description: AutoCAD Mechanical|Company: Autodesk, Inc."
 90
     1024
 91
        1
280
     0
281
     0
  0
CLASS
  1
ACMFCFSTANDARDISO
  2
AcmFCFStdISO
  3
"Amdt_StdImp|Product Description: AutoCAD Mechanical|Company: Autodesk, Inc."
 90
     1024
 91
        1
280
     0
281
     0
  0
CLASS
  1
ACMWELDSTANDARDISO
  2
AcmWeldingStdISO
  3
"Amdt_StdImp|Product Description: AutoCAD Mechanical|Company: Autodesk, Inc."
 90
     1024
 91
        1
280
     0
281
     0
  0
CLASS
  1
ACMIDSTANDARDISO
  2
AcmIdStdISO
  3
"Amdt_StdImp|Product Description: AutoCAD Mechanical|Company: Autodesk, Inc."
 90
     1024
 91
        1
280
     0
281
     0
  0
CLASS
  1
ACMDATUMSTANDARDISO
  2
AcmDatumStdISO
  3
"Amdt_StdImp|Product Description: AutoCAD Mechanical|Company: Autodesk, Inc."
 90
     1024
 91
        1
280
     0
281
     0
  0
CLASS
  1
ACMBOMSTANDARDISO
  2
AcmBOMStdISO
  3
"Amdt_StdImp|Product Description: AutoCAD Mechanical|Company: Autodesk, Inc."
 90
     1024
 91
        1
280
     0
281
     0
  0
CLASS
  1
ACMDETAILSTANDARDISO
  2
AmdtDetailSymStdISO
  3
"Amdt_StdImp|Product Description: AutoCAD Mechanical|Company: Autodesk, Inc."
 90
     1024
 91
        1
280
     0
281
     0
  0
CLASS
  1
ACMSECTIONSTANDARDISO2001
  2
AmdtSectionSymStdISO2001
  3
"Amdt_StdImp|Product Description: AutoCAD Mechanical|Company: Autodesk, Inc."
 90
     1024
 91
        1
280
     0
281
     0
  0
CLASS
  1
ACMCENTERLINESTANDARDISO
  2
AmdtCenterLineStdISO
  3
"Amdt_StdImp|Product Description: AutoCAD Mechanical|Company: Autodesk, Inc."
 90
     1024
 91
        1
280
     0
281
     0
  0
CLASS
  1
ACMNOTESTANDARDISO
  2
AmdtNoteStdISO
  3
"Amdt_StdImp|Product Description: AutoCAD Mechanical|Company: Autodesk, Inc."
 90
     1024
 91
        1
280
     0
281
     0
  0
CLASS
  1
ACAMGHOLECHARTSTDISO
  2
AcAmgHoleChartStdISO
  3
AmgDim|Product Description: AutoCAD Mechanical|Company: Autodesk, Inc.
 90
     1024
 91
        1
280
     0
281
     0
  0
CLASS
  1
ACMTHREADLINESTANDARDISO
  2
AmdtThreadLineStdISO
  3
"Amdt_StdImp|Product Description: AutoCAD Mechanical|Company: Autodesk, Inc."
 90
     1024
 91
        1
280
     0
281
     0
  0
CLASS
  1
ACMTAPERSTANDARDISO
  2
AcmTaperStdISO
  3
"Amdt_StdImp|Product Description: AutoCAD Mechanical|Company: Autodesk, Inc."
 90
     1024
 91
        1
280
     0
281
     0
  0
CLASS
  1
ACMANOOTATIONVIEWSTANDARDISO
  2
AmdtAnViewStdISO
  3
"Amdt_StdImp|Product Description: AutoCAD Mechanical|Company: Autodesk, Inc."
 90
     1024
 91
        1
280
     0
281
     0
  0
CLASS
  1
DIMASSOC
  2
AcDbDimAssoc
  3
"AcDbDimAssoc|Product Desc:     AcDim ARX App For Dimension|Company:          Autodesk, Inc.|WEB Address:      www.autodesk.com"
 90
        0
 91
       10
280
     0
281
     0
  0
CLASS
  1
ACDBSECTIONVIEWSTYLE
  2
AcDbSectionViewStyle
  3
ObjectDBX Classes
 90
     1025
 91
        4
280
     0
281
     0
  0
CLASS
  1
ACDBDETAILVIEWSTYLE
  2
AcDbDetailViewStyle
  3
ObjectDBX Classes
 90
     1025
 91
        4
280
     0
281
     0
  0
CLASS
  1
ACRFATTGENMGR
  2
AcRfAttGeneralMgr
  3
AcAttribServices
 90
     1024
 91
        1
280
     0
281
     0
  0
CLASS
  1
ACRFOBJATTMGR
  2
AcRfObjAttGroupMgr
  3
AcAttribServices
 90
     1024
 91
        1
280
     0
281
     0
  0
CLASS
  1
ACRFMCADAPIATTHOLDER
  2
AcRfMCADAPIAttHolder
  3
AcAttribServices
 90
     1024
 91
        1
280
     0
281
     0
  0
CLASS
  1
AMDTSYSATTR
  2
AmdtSystemAttribute
  3
AcAttribServices
 90
     1024
 91
        1
280
     0
281
     0
  0
CLASS
  1
ACMSECTIONSTANDARDCUSTOM
  2
AmdtSectionSymStdCustom
  3
"Amdt_StdImp|Product Description: AutoCAD Mechanical|Company: Autodesk, Inc."
 90
     1024
 91
        3
280
     0
281
     0
  0
CLASS
  1
ACMDETAILTANDARDCUSTOM
  2
AmdtDetailSymStdCustom
  3
"Amdt_StdImp|Product Description: AutoCAD Mechanical|Company: Autodesk, Inc."
 90
     1024
 91
        3
280
     0
281
     0
  0
CLASS
  1
FIELD
  2
AcDbField
  3
ObjectDBX Classes
 90
     1152
 91
       16
280
     0
281
     0
  0
CLASS
  1
FIELDLIST
  2
AcDbFieldList
  3
ObjectDBX Classes
 90
     1152
 91
        1
280
     0
281
     0
  0
CLASS
  1
EXACXREFPANELOBJECT
  2
ExAcXREFPanelObject
  3
EXAC_ESW
 90
     1025
 91
        1
280
     0
281
     0
  0
CLASS
  1
NPOCOLLECTION
  2
AcDbImpNonPersistentObjectsCollection
  3
ObjectDBX Classes
 90
     1153
 91
        1
280
     0
281
     0
  0
CLASS
  1
RAPIDRTRENDERSETTINGS
  2
AcDbRapidRTRenderSettings
  3
ObjectDBX Classes
 90
     1024
 91
        6
280
     0
281
     0
  0
ENDSEC
  0
SECTION
  2
TABLES
  0
TABLE
  2
VPORT
  5
8
102
{ACAD_XDICTIONARY
360
3477
102
}
330
0
100
AcDbSymbolTable
 70
     1
  0
VPORT
  5
84
330
8
100
AcDbSymbolTableRecord
100
AcDbViewportTableRecord
  2
*Active
 70
     0
 10
0.0
 20
0.0
 11
1.0
 21
1.0
 12
12733.23769163757
 22
-1600.785250334932
 13
0.0
 23
0.0
 14
2.5
 24
2.5
 15
10.0
 25
10.0
 16
0.0
 26
0.0
 36
1.0
 17
0.0
 27
0.0
 37
0.0
 40
1752.440851323791
 41
1.986052998605299
 42
50.0
 43
0.0
 44
0.0
 50
0.0
 51
0.0
 71
     0
 72
   100
 73
     1
 74
     1
 75
     0
 76
     0
 77
     0
 78
     0
281
     0
 65
     1
110
0.0
120
0.0
130
0.0
111
1.0
121
0.0
131
0.0
112
0.0
122
1.0
132
0.0
 79
     0
146
0.0
348
2F
 60
     3
 61
     5
292
     1
282
     1
141
0.0
142
0.0
 63
   250
421
  3355443
1001
ACAD_NAV_VCDISPLAY
1070
     3
  0
ENDTAB
  0
TABLE
  2
LTYPE
  5
5
330
0
100
AcDbSymbolTable
 70
    22
  0
LTYPE
  5
62
330
5
100
AcDbSymbolTableRecord
100
AcDbLinetypeTableRecord
  2
ByBlock
 70
     0
  3

 72
    65
 73
     0
 40
0.0
  0
LTYPE
  5
63
330
5
100
AcDbSymbolTableRecord
100
AcDbLinetypeTableRecord
  2
ByLayer
 70
     0
  3

 72
    65
 73
     0
 40
0.0
  0
LTYPE
  5
64
330
5
100
AcDbSymbolTableRecord
100
AcDbLinetypeTableRecord
  2
CONTINUOUS
 70
     0
  3
Solid line
 72
    65
 73
     0
 40
0.0
  0
LTYPE
  5
78
330
5
100
AcDbSymbolTableRecord
100
AcDbLinetypeTableRecord
  2
DASHED
 70
     0
  3
Dashed line
 72
    65
 73
     2
 40
0.75
 49
0.5
 74
     0
 49
-0.25
 74
     0
  0
LTYPE
  5
79
330
5
100
AcDbSymbolTableRecord
100
AcDbLinetypeTableRecord
  2
CENTER
 70
     0
  3
Center line
 72
    65
 73
     4
 40
2.0
 49
1.25
 74
     0
 49
-0.25
 74
     0
 49
0.25
 74
     0
 49
-0.25
 74
     0
  0
LTYPE
  5
33FB
330
5
100
AcDbSymbolTableRecord
100
AcDbLinetypeTableRecord
  2
HIDDEN
 70
     0
  3
Verdeckt
 72
    65
 73
     2
 40
0.375
 49
0.25
 74
     0
 49
-0.125
 74
     0
  0
LTYPE
  5
33FC
330
5
100
AcDbSymbolTableRecord
100
AcDbLinetypeTableRecord
  2
PHANTOM2
 70
     0
  3
Phantom (.5x) ___ _ _ ___ _ _ ___ _ _ ___ _ _
 72
    65
 73
     6
 40
1.25
 49
0.625
 74
     0
 49
-0.125
 74
     0
 49
0.125
 74
     0
 49
-0.125
 74
     0
 49
0.125
 74
     0
 49
-0.125
 74
     0
  0
LTYPE
  5
3440
330
5
100
AcDbSymbolTableRecord
100
AcDbLinetypeTableRecord
  2
ACANSTGB
 70
     0
  3
__ . . __ . .
 72
    65
 73
     6
 40
0.35433070866
 49
0.15748031496
 74
     0
 49
-0.03937007874
 74
     0
 49
0.03937007874
 74
     0
 49
-0.03937007874
 74
     0
 49
0.03937007874
 74
     0
 49
-0.03937007874
 74
     0
  0
LTYPE
  5
3441
330
5
100
AcDbSymbolTableRecord
100
AcDbLinetypeTableRecord
  2
ACANSTGL
 70
     0
  3
_ _ _ _ _
 72
    65
 73
     2
 40
0.11811023622
 49
0.07874015748
 74
     0
 49
-0.03937007874
 74
     0
  0
LTYPE
  5
353E
330
5
100
AcDbSymbolTableRecord
100
AcDbLinetypeTableRecord
  2
AM_ISO02W050
 70
     0
  3
__ __ __ __ __ __ __ __ __ __ __ __ __ __ __
 72
    65
 73
     2
 40
7.5
 49
6.0
 74
     0
 49
-1.5
 74
     0
  0
LTYPE
  5
353F
330
5
100
AcDbSymbolTableRecord
100
AcDbLinetypeTableRecord
  2
ACDINWELD
 70
     0
  3
_ _ _ _ _
 72
    65
 73
     2
 40
2.0
 49
2.0
 74
     0
 49
-1.0
 74
     0
  0
LTYPE
  5
3540
330
5
100
AcDbSymbolTableRecord
100
AcDbLinetypeTableRecord
  2
ACISOTGB
 70
     0
  3
__ . . __ . .
 72
    65
 73
     6
 40
9.0
 49
4.0
 74
     0
 49
-1.0
 74
     0
 49
1.0
 74
     0
 49
-1.0
 74
     0
 49
1.0
 74
     0
 49
-1.0
 74
     0
  0
LTYPE
  5
3541
330
5
100
AcDbSymbolTableRecord
100
AcDbLinetypeTableRecord
  2
Amconstr
 70
     0
  3
_______________________
 72
    65
 73
     2
 40
9999.0
 49
9999.0
 74
     0
 49
0.0
 74
     0
  0
LTYPE
  5
3542
330
5
100
AcDbSymbolTableRecord
100
AcDbLinetypeTableRecord
  2
Amzigzag
 70
     0
  3
/\/-/\/-/\/-/\/-/\/-/\/
 72
    65
 73
     2
 40
11.0001
 49
0.0001
 74
     4
 75
   136
340
3543
 46
0.04
 50
0.0
 44
0.0
 45
0.0
 49
-11.0
 74
     0
  0
LTYPE
  5
49E8
330
5
100
AcDbSymbolTableRecord
100
AcDbLinetypeTableRecord
  2
CENTER2
 70
     0
  3
Center (.5x) ___ _ ___ _ ___ _ ___ _ ___ _ ___
 72
    65
 73
     4
 40
1.125
 49
0.75
 74
     0
 49
-0.125
 74
     0
 49
0.125
 74
     0
 49
-0.125
 74
     0
  0
LTYPE
  5
49E9
330
5
100
AcDbSymbolTableRecord
100
AcDbLinetypeTableRecord
  2
HIDDEN2
 70
     0
  3
Hidden (.5x) _ _ _ _ _ _ _ _ _ _ _ _ _ _ _ _ _
 72
    65
 73
     2
 40
0.1875
 49
0.125
 74
     0
 49
-0.0625
 74
     0
  0
LTYPE
  5
49FB
330
5
100
AcDbSymbolTableRecord
100
AcDbLinetypeTableRecord
  2
ACDINTGB
 70
     0
  3
__ . . __ . .
 72
    65
 73
     6
 40
9.0
 49
4.0
 74
     0
 49
-1.0
 74
     0
 49
1.0
 74
     0
 49
-1.0
 74
     0
 49
1.0
 74
     0
 49
-1.0
 74
     0
  0
LTYPE
  5
49FC
330
5
100
AcDbSymbolTableRecord
100
AcDbLinetypeTableRecord
  2
ACDINTGL
 70
     0
  3
_ _ _ _ _
 72
    65
 73
     2
 40
3.0
 49
2.0
 74
     0
 49
-1.0
 74
     0
  0
LTYPE
  5
6FE9
330
5
100
AcDbSymbolTableRecord
100
AcDbLinetypeTableRecord
  2
AM_ISO08W050
 70
     0
  3
____ . ____ . ____ . ____ . ____ . ____ . ____
 72
    65
 73
     4
 40
18.0
 49
12.0
 74
     0
 49
-1.5
 74
     0
 49
3.0
 74
     0
 49
-1.5
 74
     0
  0
LTYPE
  5
6FEA
330
5
100
AcDbSymbolTableRecord
100
AcDbLinetypeTableRecord
  2
AM_ISO09W050
 70
     0
  3
_____ . . _____ . . _____ . . ____ .. ____
 72
    65
 73
     6
 40
22.5
 49
12.0
 74
     0
 49
-1.5
 74
     0
 49
3.0
 74
     0
 49
-1.5
 74
     0
 49
3.0
 74
     0
 49
-1.5
 74
     0
  0
LTYPE
  5
6FEB
330
5
100
AcDbSymbolTableRecord
100
AcDbLinetypeTableRecord
  2
AM_ISO08W050x2
 70
     0
  3
__ . __ . __ . __ . __ . __
 72
    65
 73
     4
 40
9.0
 49
6.0
 74
     0
 49
-0.75
 74
     0
 49
1.5
 74
     0
 49
-0.75
 74
     0
  0
LTYPE
  5
6FEC
330
5
100
AcDbSymbolTableRecord
100
AcDbLinetypeTableRecord
  2
AM_ISO02W050x2
 70
     0
  3
 _ _ _ _ _ _ _ _ _ _ _ _
 72
    65
 73
     2
 40
3.75
 49
3.0
 74
     0
 49
-0.75
 74
     0
  0
LTYPE
  5
7085
330
5
100
AcDbSymbolTableRecord
100
AcDbLinetypeTableRecord
  2
ACISOWELD
 70
     0
  3
_ _ _ _ _
 72
    65
 73
     2
 40
2.0
 49
2.0
 74
     0
 49
-1.0
 74
     0
  0
LTYPE
  5
7089
330
5
100
AcDbSymbolTableRecord
100
AcDbLinetypeTableRecord
  2
ACISOTGL
 70
     0
  3
_ _ _ _ _
 72
    65
 73
     2
 40
3.0
 49
2.0
 74
     0
 49
-1.0
 74
     0
  0
ENDTAB
  0
TABLE
  2
LAYER
  5
2
102
{ACAD_XDICTIONARY
360
3512
102
}
330
0
100
AcDbSymbolTable
 70
    10
  0
LAYER
  5
5C
102
{ACAD_XDICTIONARY
360
345F
102
}
330
2
100
AcDbSymbolTableRecord
100
AcDbLayerTableRecord
  2
0
 70
     0
 62
     7
  6
CONTINUOUS
370
    -3
390
F
347
21
348
0
  0
LAYER
  5
7A
102
{ACAD_XDICTIONARY
360
3461
102
}
330
2
100
AcDbSymbolTableRecord
100
AcDbLayerTableRecord
  2
2
 70
     0
 62
     7
  6
CONTINUOUS
370
    -3
390
F
347
21
348
0
  0
LAYER
  5
3517
330
2
100
AcDbSymbolTableRecord
100
AcDbLayerTableRecord
  2
Defpoints
 70
     0
 62
     7
  6
CONTINUOUS
290
     0
370
    -3
390
F
347
21
348
0
  0
LAYER
  5
354E
330
2
100
AcDbSymbolTableRecord
100
AcDbLayerTableRecord
  2
Linie 0_15
 70
     0
 62
     5
  6
CONTINUOUS
370
    15
390
F
347
21
348
0
1001
AcAecLayerStandard
1000

1000

  0
LAYER
  5
4A11
330
2
100
AcDbSymbolTableRecord
100
AcDbLayerTableRecord
  2
AM_0 ( Kontur 0.5 )
 70
     0
 62
     7
  6
CONTINUOUS
370
    50
390
F
347
21
348
0
1001
AcAecLayerStandard
1000

1000

  0
LAYER
  5
4A15
330
2
100
AcDbSymbolTableRecord
100
AcDbLayerTableRecord
  2
AM_3 ( Verdeckt )
 70
     0
 62
     6
  6
DASHED
370
    25
390
F
347
21
348
0
1001
AcAecLayerStandard
1000

1000

  0
LAYER
  5
4A17
330
2
100
AcDbSymbolTableRecord
100
AcDbLayerTableRecord
  2
AM_7 (Mittellinie)
 70
     0
 62
     4
  6
CENTER
370
    25
390
F
347
21
348
0
1001
AcAecLayerStandard
1000

1000

  0
LAYER
  5
4A19
330
2
100
AcDbSymbolTableRecord
100
AcDbLayerTableRecord
  2
AM_6 ( Text)
 70
     0
 62
     6
  6
CONTINUOUS
370
    25
390
F
347
21
348
0
1001
AcAecLayerStandard
1000

1000

  0
LAYER
  5
4A21
330
2
100
AcDbSymbolTableRecord
100
AcDbLayerTableRecord
  2
AM_5 ( Bemassung)
 70
     0
 62
     3
  6
CONTINUOUS
370
    25
390
F
347
21
348
0
1001
AcAecLayerStandard
1000

1000

  0
LAYER
  5
4A2C
330
2
100
AcDbSymbolTableRecord
100
AcDbLayerTableRecord
  2
AM_8 ( Schraffur)
 70
     0
 62
     1
  6
CONTINUOUS
370
    25
390
F
347
21
348
0
1001
AcAecLayerStandard
1000

1000

  0
ENDTAB
  0
TABLE
  2
STYLE
  5
3
330
0
100
AcDbSymbolTable
 70
     9
  0
STYLE
  5
5D
330
3
100
AcDbSymbolTableRecord
100
AcDbTextStyleTableRecord
  2
STANDARD
 70
     0
 40
0.0
 41
1.0
 50
0.0
 71
     0
 42
3.17499995231628
  3
ARIALUNI.TTF
  4

1001
ACAD
1000
@Arial Unicode MS
1071
       34
  0
STYLE
  5
3431
330
3
100
AcDbSymbolTableRecord
100
AcDbTextStyleTableRecord
  2
ACANSTS
 70
     0
 40
1.0
 41
1.0
 50
0.0
 71
     0
 42
3.5
  3
romans.shx
  4

  0
STYLE
  5
343F
330
3
100
AcDbSymbolTableRecord
100
AcDbTextStyleTableRecord
  2
ACANSGDT
 70
     0
 40
0.0
 41
1.0
 50
0.0
 71
     0
 42
3.5
  3
amgdt.shx
  4

  0
STYLE
  5
3543
330
3
100
AcDbSymbolTableRecord
100
AcDbTextStyleTableRecord
  2

 70
     1
 40
0.0
 41
1.0
 50
0.0
 71
     0
 42
2.5
  3
genltshp.shx
  4

  0
STYLE
  5
49EB
330
3
100
AcDbSymbolTableRecord
100
AcDbTextStyleTableRecord
  2
ACDINTS
 70
     0
 40
1.0
 41
1.0
 50
0.0
 71
     0
 42
3.5
  3
isocp.shx
  4

  0
STYLE
  5
49FA
330
3
100
AcDbSymbolTableRecord
100
AcDbTextStyleTableRecord
  2
ACDINGDT
 70
     0
 40
0.0
 41
1.0
 50
0.0
 71
     0
 42
3.5
  3
amgdt.shx
  4

  0
STYLE
  5
707F
330
3
100
AcDbSymbolTableRecord
100
AcDbTextStyleTableRecord
  2
ACISOTS
 70
     0
 40
1.0
 41
1.0
 50
0.0
 71
     0
 42
2.5
  3
ARIALN.TTF
  4

1001
ACAD
1000
Arial Narrow
1071
       34
  0
STYLE
  5
7083
330
3
100
AcDbSymbolTableRecord
100
AcDbTextStyleTableRecord
  2
ACISOGDT
 70
     0
 40
0.0
 41
1.0
 50
0.0
 71
     0
 42
2.5
  3
amgdt.shx
  4

  0
ENDTAB
  0
TABLE
  2
VIEW
  5
6
330
0
100
AcDbSymbolTable
 70
     2
  0
ENDTAB
  0
TABLE
  2
UCS
  5
7
330
0
100
AcDbSymbolTable
 70
     0
  0
ENDTAB
  0
TABLE
  2
APPID
  5
9
330
0
100
AcDbSymbolTable
 70
    70
  0
APPID
  5
5E
330
9
100
AcDbSymbolTableRecord
100
AcDbRegAppTableRecord
  2
ACAD
 70
     0
  0
APPID
  5
3401
330
9
100
AcDbSymbolTableRecord
100
AcDbRegAppTableRecord
  2
ACATTRIBSERVICES
 70
     0
  0
APPID
  5
3511
330
9
100
AcDbSymbolTableRecord
100
AcDbRegAppTableRecord
  2
AcAecLayerStandard
 70
     0
  0
APPID
  5
3518
330
9
100
AcDbSymbolTableRecord
100
AcDbRegAppTableRecord
  2
ACAD_DSTYLE_DIMJOGGED_JOGANGLE_SYMBOL
 70
     0
  0
APPID
  5
49DD
330
9
100
AcDbSymbolTableRecord
100
AcDbRegAppTableRecord
  2
DCO15
 70
     0
  0
APPID
  5
49E4
330
9
100
AcDbSymbolTableRecord
100
AcDbRegAppTableRecord
  2
ACAD_DSTYLE_DIMINSPECT
 70
     0
  0
APPID
  5
739A
330
9
100
AcDbSymbolTableRecord
100
AcDbRegAppTableRecord
  2
ACAD_NAV_VCDISPLAY
 70
     0
  0
APPID
  5
73DA
330
9
100
AcDbSymbolTableRecord
100
AcDbRegAppTableRecord
  2
ACAD_PSEXT
 70
     0
  0
APPID
  5
7415
330
9
100
AcDbSymbolTableRecord
100
AcDbRegAppTableRecord
  2
GENIUS_GENDTOL_13
 70
     0
  0
ENDTAB
  0
TABLE
  2
DIMSTYLE
  5
A
330
0
100
AcDbSymbolTable
 70
    24
100
AcDbDimStyleTable
 71
     1
340
4A06
  0
DIMSTYLE
105
5F
330
A
100
AcDbSymbolTableRecord
100
AcDbDimStyleTableRecord
  2
STANDARD
 70
     0
 41
2.68
140
3.5
178
     6
340
5D
  0
DIMSTYLE
105
344C
330
A
100
AcDbSymbolTableRecord
100
AcDbDimStyleTableRecord
  2
AM_ANSI
 70
     0
  4
mm
 41
0.1
 42
0.05
 43
0.5
 44
0.1
 47
0.1
 48
0.1
 78
     7
 79
     2
 90
     1
140
0.12
141
0.0
146
0.71
147
0.06
176
   256
177
   256
178
     2
274
     4
284
     7
340
5D
371
    -1
372
    -1
  0
DIMSTYLE
105
344D
330
A
100
AcDbSymbolTableRecord
100
AcDbDimStyleTableRecord
  2
AM_ANSI$3
 70
     0
  4
mm
 41
0.1
 42
0.05
 43
0.5
 44
0.1
 47
0.1
 48
0.1
 78
     7
 79
     2
 90
     1
140
0.12
141
0.0
146
0.71
147
0.06
176
   256
177
   256
178
     2
274
     4
284
     7
288
     1
289
     0
340
5D
371
    -1
372
    -1
  0
DIMSTYLE
105
344E
330
A
100
AcDbSymbolTableRecord
100
AcDbDimStyleTableRecord
  2
AM_ANSI$4
 70
     0
  4
mm
 41
0.1
 42
0.05
 43
0.5
 44
0.1
 47
0.1
 48
0.1
 78
     7
 79
     2
 90
     1
140
0.12
141
0.0
146
0.71
147
0.06
176
   256
177
   256
178
     2
274
     4
284
     7
288
     1
289
     0
340
5D
371
    -1
372
    -1
  0
DIMSTYLE
105
344F
330
A
100
AcDbSymbolTableRecord
100
AcDbDimStyleTableRecord
  2
AM_ANSI$7
 70
     0
  4
mm
 41
0.1
 42
0.05
 43
0.5
 44
0.1
 47
0.1
 48
0.1
 78
     7
 79
     2
 90
     1
140
0.24
141
0.0
146
0.71
147
0.06
176
   256
177
   256
178
     2
274
     4
284
     7
340
5D
371
    -1
372
    -1
  0
DIMSTYLE
105
3450
330
A
100
AcDbSymbolTableRecord
100
AcDbDimStyleTableRecord
  2
AM_ANSI$SF
 70
     0
  4
mm
 41
0.1
 42
0.05
 43
0.5
 44
0.1
 47
0.1
 48
0.1
 75
     1
 76
     1
 78
     7
 79
     2
 90
     1
140
0.12
141
0.0
146
0.71
147
0.06
176
   256
177
   256
178
     2
274
     4
284
     7
340
5D
371
    -1
372
    -1
  0
DIMSTYLE
105
3455
330
A
100
AcDbSymbolTableRecord
100
AcDbDimStyleTableRecord
  2
AM_ANSI$SH
 70
     0
  4
mm
 41
0.1
 42
0.05
 43
0.5
 44
0.1
 47
0.1
 48
0.1
 75
     1
 76
     1
 78
     7
 79
     2
 90
     1
140
0.12
141
0.0
146
0.71
147
0.06
173
     1
176
   256
177
   256
178
     2
274
     4
284
     7
340
5D
343
3451
371
    -1
372
    -1
  0
DIMSTYLE
105
4A06
330
A
100
AcDbSymbolTableRecord
100
AcDbDimStyleTableRecord
  2
AM_DIN
 70
     0
  4
"
 41
5.0
 42
1.0
 43
10.0
 44
1.0
 47
0.1
 48
0.1
 50
90.0
 73
     0
 74
     0
 77
     1
 78
     8
 79
     2
140
5.0
141
0.0
143
0.0393701
146
0.71
147
1.5
172
     1
176
   256
177
   256
178
     2
271
     2
272
     2
283
     0
284
     8
340
5D
371
    -1
372
    -1
1001
ACAD_DSTYLE_DIMJOGGED_JOGANGLE_SYMBOL
1070
   384
1040
1.570796326794896
  0
DIMSTYLE
105
4A07
330
A
100
AcDbSymbolTableRecord
100
AcDbDimStyleTableRecord
  2
AM_DIN$3
 70
     0
  4
"
 41
3.5
 42
1.0
 43
10.0
 44
1.0
 47
0.1
 48
0.1
 50
90.0
 73
     0
 77
     1
 78
     8
 79
     2
140
3.5
141
0.0
143
0.0393701
146
0.71
147
1.5
176
   256
177
   256
178
     2
271
     2
272
     2
283
     0
284
     8
288
     1
289
     0
340
5D
371
    -1
372
    -1
1001
ACAD_DSTYLE_DIMJOGGED_JOGANGLE_SYMBOL
1070
   384
1040
1.570796326794896
  0
DIMSTYLE
105
4A08
330
A
100
AcDbSymbolTableRecord
100
AcDbDimStyleTableRecord
  2
AM_DIN$4
 70
     0
  4
"
 41
4.0
 42
1.0
 43
10.0
 44
1.0
 47
0.1
 48
0.1
 50
90.0
 73
     0
 77
     1
 78
     8
 79
     2
140
3.5
141
0.0
143
0.0393701
146
0.71
147
1.5
176
   256
177
   256
178
     2
271
     2
272
     2
283
     0
284
     8
288
     1
289
     0
340
5D
371
    -1
372
    -1
1001
ACAD_DSTYLE_DIMJOGGED_JOGANGLE_SYMBOL
1070
   384
1040
1.570796326794896
  0
DIMSTYLE
105
4A09
330
A
100
AcDbSymbolTableRecord
100
AcDbDimStyleTableRecord
  2
AM_DIN$6
 70
     0
  4
"
 41
4.0
 42
0.0
 43
10.0
 44
1.0
 47
0.1
 48
0.1
 50
90.0
 73
     0
 74
     0
 78
     8
 79
     2
140
3.5
141
0.0
143
0.0393701
146
0.71
147
1.5
172
     1
176
   256
177
   256
178
     2
271
     2
272
     2
283
     0
284
     8
340
5D
371
    -1
372
    -1
1001
ACAD_DSTYLE_DIMJOGGED_JOGANGLE_SYMBOL
1070
   384
1040
1.570796326794896
  0
DIMSTYLE
105
4A0A
330
A
100
AcDbSymbolTableRecord
100
AcDbDimStyleTableRecord
  2
AM_DIN$7
 70
     0
  4
"
 41
4.0
 42
1.0
 43
10.0
 44
1.0
 47
0.1
 48
0.1
 50
90.0
 73
     0
 74
     0
 77
     1
 78
     8
 79
     2
140
5.0
141
0.0
143
0.0393701
146
0.71
147
1.5
172
     1
176
   256
177
   256
178
     2
271
     2
272
     2
283
     0
284
     8
340
5D
371
    -1
372
    -1
1001
ACAD_DSTYLE_DIMJOGGED_JOGANGLE_SYMBOL
1070
   384
1040
1.570796326794896
  0
DIMSTYLE
105
4A0B
330
A
100
AcDbSymbolTableRecord
100
AcDbDimStyleTableRecord
  2
AM_DIN$SF
 70
     0
  4
"
 41
4.0
 42
1.0
 43
10.0
 44
1.0
 47
0.1
 48
0.1
 50
90.0
 73
     0
 74
     0
 75
     1
 76
     1
 77
     1
 78
     8
 79
     2
140
3.5
141
0.0
143
0.0393701
146
0.71
147
1.5
172
     1
176
   256
177
   256
178
     2
271
     2
272
     2
283
     0
284
     8
340
5D
371
    -1
372
    -1
1001
ACAD_DSTYLE_DIMJOGGED_JOGANGLE_SYMBOL
1070
   384
1040
1.570796326794896
  0
DIMSTYLE
105
4A0C
330
A
100
AcDbSymbolTableRecord
100
AcDbDimStyleTableRecord
  2
AM_DIN$SH
 70
     0
  4
"
 41
4.0
 42
1.0
 43
10.0
 44
1.0
 47
0.1
 48
0.1
 50
90.0
 73
     0
 74
     0
 75
     1
 76
     1
 77
     1
 78
     8
 79
     2
140
3.5
141
0.0
143
0.0393701
144
2.0
146
0.71
147
1.5
172
     1
173
     1
176
   256
177
   256
178
     2
271
     2
272
     2
283
     0
284
     8
340
5D
343
3451
371
    -1
372
    -1
1001
ACAD_DSTYLE_DIMJOGGED_JOGANGLE_SYMBOL
1070
   384
1040
1.570796326794896
  0
DIMSTYLE
105
7074
102
{ACAD_REACTORS
330
70C6
330
70E8
330
73F9
330
7421
330
7442
330
7469
330
7490
330
74B3
330
7504
330
752B
102
}
330
A
100
AcDbSymbolTableRecord
100
AcDbDimStyleTableRecord
  2
AM_DIN$0
 70
     0
  4
"
 41
4.0
 42
0.0
 43
10.0
 44
1.0
 47
0.1
 48
0.1
 50
90.0
 73
     0
 74
     0
 77
     1
 78
     8
 79
     2
140
3.5
141
0.0
143
0.0393701
146
0.71
147
1.5
172
     1
176
   256
177
   256
178
     2
271
     2
272
     2
283
     0
284
     8
340
5D
371
    -1
372
    -1
1001
ACAD_DSTYLE_DIMJOGGED_JOGANGLE_SYMBOL
1070
   384
1040
1.570796326794896
  0
DIMSTYLE
105
7075
330
A
100
AcDbSymbolTableRecord
100
AcDbDimStyleTableRecord
  2
AM_DIN$2
 70
     0
  4
"
 41
4.0
 42
0.0
 43
10.0
 44
1.0
 47
0.1
 48
0.1
 50
90.0
 73
     0
 74
     0
 77
     1
 78
     8
 79
     2
140
3.5
141
0.0
143
0.0393701
146
0.71
147
1.5
172
     1
176
   256
177
   256
178
     2
271
     2
272
     2
283
     0
284
     8
340
5D
371
    -1
372
    -1
1001
ACAD_DSTYLE_DIMJOGGED_JOGANGLE_SYMBOL
1070
   384
1040
1.570796326794896
  0
DIMSTYLE
105
7097
330
A
100
AcDbSymbolTableRecord
100
AcDbDimStyleTableRecord
  2
AM_ISO
 70
     0
  4
"
 41
2.5
 42
1.0
 43
10.0
 44
1.0
 47
0.1
 48
0.1
 73
     0
 74
     0
 77
     1
 78
     8
 79
     2
 90
     1
140
3.5
141
0.0
143
0.0393701
146
0.71
147
1.5
172
     1
176
   256
177
   256
178
     2
271
     2
272
     3
274
     4
283
     0
284
     8
340
5D
371
    -1
372
    -1
1001
ACAD_DSTYLE_DIMJOGGED_JOGANGLE_SYMBOL
1070
   384
1040
0.7853981633974483
  0
DIMSTYLE
105
7098
330
A
100
AcDbSymbolTableRecord
100
AcDbDimStyleTableRecord
  2
AM_ISO$3
 70
     0
  4
"
 41
2.5
 42
1.0
 43
10.0
 44
1.0
 47
0.1
 48
0.1
 73
     0
 77
     1
 78
     8
 79
     2
 90
     1
140
3.5
141
0.0
143
0.0393701
146
0.71
147
1.5
176
   256
177
   256
178
     2
271
     2
272
     3
274
     4
283
     0
284
     8
288
     1
289
     0
340
5D
371
    -1
372
    -1
1001
ACAD_DSTYLE_DIMJOGGED_JOGANGLE_SYMBOL
1070
   384
1040
0.7853981633974483
  0
DIMSTYLE
105
7099
330
A
100
AcDbSymbolTableRecord
100
AcDbDimStyleTableRecord
  2
AM_ISO$4
 70
     0
  4
"
 41
2.5
 42
1.0
 43
10.0
 44
1.0
 47
0.1
 48
0.1
 73
     0
 77
     1
 78
     8
 79
     2
 90
     1
140
3.5
141
0.0
143
0.0393701
146
0.71
147
1.5
176
   256
177
   256
178
     2
271
     2
272
     3
274
     4
283
     0
284
     8
288
     1
289
     0
340
5D
371
    -1
372
    -1
1001
ACAD_DSTYLE_DIMJOGGED_JOGANGLE_SYMBOL
1070
   384
1040
0.7853981633974483
  0
DIMSTYLE
105
709A
330
A
100
AcDbSymbolTableRecord
100
AcDbDimStyleTableRecord
  2
AM_ISO$6
 70
     0
  4
"
 41
2.5
 42
1.0
 43
10.0
 44
1.0
 47
0.1
 48
0.1
 73
     0
 74
     0
 78
     8
 79
     2
 90
     1
140
3.5
141
0.0
143
0.0393701
146
0.71
147
1.5
172
     1
176
   256
177
   256
178
     2
271
     2
272
     3
274
     4
283
     0
284
     8
340
5D
371
    -1
372
    -1
1001
ACAD_DSTYLE_DIMJOGGED_JOGANGLE_SYMBOL
1070
   384
1040
0.7853981633974483
  0
DIMSTYLE
105
709B
330
A
100
AcDbSymbolTableRecord
100
AcDbDimStyleTableRecord
  2
AM_ISO$7
 70
     0
  4
"
 41
2.5
 42
1.0
 43
10.0
 44
1.0
 47
0.1
 48
0.1
 73
     0
 74
     0
 77
     1
 78
     8
 79
     2
 90
     1
140
5.0
141
0.0
143
0.0393701
146
0.71
147
1.5
172
     1
176
   256
177
   256
178
     2
271
     2
272
     3
274
     4
283
     0
284
     8
340
5D
371
    -1
372
    -1
1001
ACAD_DSTYLE_DIMJOGGED_JOGANGLE_SYMBOL
1070
   384
1040
0.7853981633974483
  0
DIMSTYLE
105
709C
330
A
100
AcDbSymbolTableRecord
100
AcDbDimStyleTableRecord
  2
AM_ISO$SF
 70
     0
  4
"
 41
2.5
 42
1.0
 43
10.0
 44
1.0
 47
0.1
 48
0.1
 73
     0
 74
     0
 75
     1
 76
     1
 77
     1
 78
     8
 79
     2
 90
     1
140
3.5
141
0.0
143
0.0393701
146
0.71
147
1.5
172
     1
176
   256
177
   256
178
     2
271
     2
272
     3
274
     4
283
     0
284
     8
340
5D
371
    -1
372
    -1
1001
ACAD_DSTYLE_DIMJOGGED_JOGANGLE_SYMBOL
1070
   384
1040
0.7853981633974483
  0
DIMSTYLE
105
709D
330
A
100
AcDbSymbolTableRecord
100
AcDbDimStyleTableRecord
  2
AM_ISO$SH
 70
     0
  4
"
 41
2.5
 42
1.0
 43
10.0
 44
1.0
 47
0.1
 48
0.1
 73
     0
 74
     0
 75
     1
 76
     1
 77
     1
 78
     8
 79
     2
 90
     1
140
3.5
141
0.0
143
0.0393701
144
2.0
146
0.71
147
1.5
172
     1
173
     1
176
   256
177
   256
178
     2
271
     2
272
     3
274
     4
283
     0
284
     8
340
5D
343
3451
371
    -1
372
    -1
1001
ACAD_DSTYLE_DIMJOGGED_JOGANGLE_SYMBOL
1070
   384
1040
0.7853981633974483
  0
ENDTAB
  0
TABLE
  2
BLOCK_RECORD
  5
1
330
0
100
AcDbSymbolTable
 70
    16
  0
BLOCK_RECORD
  5
74
102
{ACAD_XDICTIONARY
360
38EF
102
}
330
1
100
AcDbSymbolTableRecord
100
AcDbBlockTableRecord
  2
*Model_Space
340
77
 70
     0
280
     1
281
     0
  0
BLOCK_RECORD
  5
70
330
1
100
AcDbSymbolTableRecord
100
AcDbBlockTableRecord
  2
*Paper_Space
340
73
 70
     0
280
     1
281
     0
  0
BLOCK_RECORD
  5
3451
330
1
100
AcDbSymbolTableRecord
100
AcDbBlockTableRecord
  2
GENAXEH
340
0
 70
     0
280
     1
281
     0
  0
BLOCK_RECORD
  5
70C8
330
1
100
AcDbSymbolTableRecord
100
AcDbBlockTableRecord
  2
*D1
340
0
 70
     0
280
     1
281
     0
  0
BLOCK_RECORD
  5
70E9
330
1
100
AcDbSymbolTableRecord
100
AcDbBlockTableRecord
  2
*D2
340
0
 70
     0
280
     1
281
     0
  0
BLOCK_RECORD
  5
7366
330
1
100
AcDbSymbolTableRecord
100
AcDbBlockTableRecord
  2
_ACMFILLED
340
0
 70
     0
280
     1
281
     0
  0
BLOCK_RECORD
  5
7371
330
1
100
AcDbSymbolTableRecord
100
AcDbBlockTableRecord
  2
_ACMFILLEDHALF
340
0
 70
     0
280
     1
281
     0
  0
BLOCK_RECORD
  5
737D
330
1
100
AcDbSymbolTableRecord
100
AcDbBlockTableRecord
  2
_ACMFILLED15
340
0
 70
     0
280
     1
281
     0
  0
BLOCK_RECORD
  5
73FA
330
1
100
AcDbSymbolTableRecord
100
AcDbBlockTableRecord
  2
*D8
340
0
 70
     0
280
     1
281
     0
  0
BLOCK_RECORD
  5
7422
330
1
100
AcDbSymbolTableRecord
100
AcDbBlockTableRecord
  2
*D9
340
0
 70
     0
280
     1
281
     0
  0
BLOCK_RECORD
  5
7443
330
1
100
AcDbSymbolTableRecord
100
AcDbBlockTableRecord
  2
*D10
340
0
 70
     0
280
     1
281
     0
  0
BLOCK_RECORD
  5
746A
330
1
100
AcDbSymbolTableRecord
100
AcDbBlockTableRecord
  2
*D11
340
0
 70
     0
280
     1
281
     0
  0
BLOCK_RECORD
  5
7491
330
1
100
AcDbSymbolTableRecord
100
AcDbBlockTableRecord
  2
*D12
340
0
 70
     0
280
     1
281
     0
  0
BLOCK_RECORD
  5
74B4
330
1
100
AcDbSymbolTableRecord
100
AcDbBlockTableRecord
  2
*D13
340
0
 70
     0
280
     1
281
     0
  0
BLOCK_RECORD
  5
7505
330
1
100
AcDbSymbolTableRecord
100
AcDbBlockTableRecord
  2
*D14
340
0
 70
     0
280
     1
281
     0
  0
BLOCK_RECORD
  5
752C
330
1
100
AcDbSymbolTableRecord
100
AcDbBlockTableRecord
  2
*D15
340
0
 70
     0
280
     1
281
     0
  0
ENDTAB
  0
ENDSEC
  0
SECTION
  2
BLOCKS
  0
BLOCK
  5
75
330
74
100
AcDbEntity
  8
0
100
AcDbBlockBegin
  2
*Model_Space
 70
     0
 10
0.0
 20
0.0
 30
0.0
  3
*Model_Space
  1

  0
ENDBLK
  5
76
330
74
100
AcDbEntity
  8
0
100
AcDbBlockEnd
  0
BLOCK
  5
71
330
70
100
AcDbEntity
 67
     1
  8
0
100
AcDbBlockBegin
  2
*Paper_Space
 70
     0
 10
0.0
 20
0.0
 30
0.0
  3
*Paper_Space
  1

  0
ENDBLK
  5
72
330
70
100
AcDbEntity
 67
     1
  8
0
100
AcDbBlockEnd
  0
BLOCK
  5
72BC
330
3451
100
AcDbEntity
  8
0
100
AcDbBlockBegin
  2
GENAXEH
 70
     0
 10
0.0
 20
0.0
 30
0.0
  3
GENAXEH
  1

  0
LINE
  5
72BD
330
3451
100
AcDbEntity
  8
0
100
AcDbLine
 10
-1.0
 20
0.0
 30
0.0
 11
1.0
 21
0.0
 31
0.0
  0
ENDBLK
  5
72BE
330
3451
100
AcDbEntity
  8
0
100
AcDbBlockEnd
  0
BLOCK
  5
70C9
330
70C8
100
AcDbEntity
  8
0
100
AcDbBlockBegin
  2
*D1
 70
     1
 10
0.0
 20
0.0
 30
0.0
  3
*D1
  1

  0
LINE
  5
722C
330
70C8
100
AcDbEntity
  8
AM_5 ( Bemassung)
440
 16777216
100
AcDbLine
 10
13137.05132749862
 20
-1546.899064698952
 30
0.0
 11
13137.05132749862
 21
-1170.399065438608
 31
0.0
  0
LINE
  5
722D
330
70C8
100
AcDbEntity
  8
AM_5 ( Bemassung)
440
 16777216
100
AcDbLine
 10
11926.05134568601
 20
-1552.94197347845
 30
0.0
 11
11926.05134568601
 21
-1170.399065438608
 31
0.0
  0
LINE
  5
722E
330
70C8
100
AcDbEntity
  8
AM_5 ( Bemassung)
440
 16777216
100
AcDbLine
 10
13057.05132749862
 20
-1190.399065438608
 30
0.0
 11
12006.05134568601
 21
-1190.399065438608
 31
0.0
  0
SOLID
  5
722F
330
70C8
100
AcDbEntity
  8
AM_5 ( Bemassung)
440
 16777216
100
AcDbTrace
 10
13057.05132749862
 20
-1177.065732105274
 30
0.0
 11
13057.05132749862
 21
-1203.732398771941
 31
0.0
 12
13137.05132749862
 22
-1190.399065438608
 32
0.0
 13
13137.05132749862
 23
-1190.399065438608
 33
0.0
  0
SOLID
  5
7230
330
70C8
100
AcDbEntity
  8
AM_5 ( Bemassung)
440
 16777216
100
AcDbTrace
 10
12006.05134568601
 20
-1177.065732105274
 30
0.0
 11
12006.05134568601
 21
-1203.732398771941
 31
0.0
 12
11926.05134568601
 22
-1190.399065438608
 32
0.0
 13
11926.05134568601
 23
-1190.399065438608
 33
0.0
  0
MTEXT
  5
7231
330
70C8
100
AcDbEntity
  8
AM_5 ( Bemassung)
 62
     2
440
 16777216
100
AcDbMText
 10
12531.55133659231
 20
-1125.231944019781
 30
0.0
 40
70.0
 41
0.0
 46
0.0
 71
     5
 72
     1
  1
1211
 73
     1
 44
1.0
  0
POINT
  5
7232
330
70C8
100
AcDbEntity
  8
Defpoints
 62
     0
440
 16777216
100
AcDbPoint
 10
13137.05132749862
 20
-1546.899064698952
 30
0.0
  0
POINT
  5
7233
330
70C8
100
AcDbEntity
  8
Defpoints
 62
     0
440
 16777216
100
AcDbPoint
 10
11926.05134568601
 20
-1552.94197347845
 30
0.0
  0
POINT
  5
7234
330
70C8
100
AcDbEntity
  8
Defpoints
 62
     0
440
 16777216
100
AcDbPoint
 10
11926.05134568601
 20
-1190.399065438608
 30
0.0
  0
ENDBLK
  5
70CA
330
70C8
100
AcDbEntity
  8
0
100
AcDbBlockEnd
  0
BLOCK
  5
70EA
330
70E9
100
AcDbEntity
  8
0
100
AcDbBlockBegin
  2
*D2
 70
     1
 10
0.0
 20
0.0
 30
0.0
  3
*D2
  1

  0
LINE
  5
74F9
330
70E9
100
AcDbEntity
  8
AM_5 ( Bemassung)
440
 16777216
100
AcDbLine
 10
11942.5737491589
 20
-1502.449065366532
 30
0.0
 11
11736.78415103927
 21
-1502.449065366532
 31
0.0
  0
LINE
  5
74FA
330
70E9
100
AcDbEntity
  8
AM_5 ( Bemassung)
440
 16777216
100
AcDbLine
 10
11952.73277268539
 20
-1591.349064031382
 30
0.0
 11
11736.78415103927
 21
-1591.349064031382
 31
0.0
  0
LINE
  5
74FB
330
70E9
100
AcDbEntity
  8
AM_5 ( Bemassung)
440
 16777216
100
AcDbLine
 10
11756.78415103927
 20
-1422.449065366532
 30
0.0
 11
11756.78415103927
 21
-1342.449065366532
 31
0.0
  0
LINE
  5
74FC
330
70E9
100
AcDbEntity
  8
AM_5 ( Bemassung)
440
 16777216
100
AcDbLine
 10
11756.78415103927
 20
-1671.349064031382
 30
0.0
 11
11756.78415103927
 21
-1751.349064031382
 31
0.0
  0
LINE
  5
74FD
330
70E9
100
AcDbEntity
  8
AM_5 ( Bemassung)
440
 16777216
100
AcDbLine
 10
11756.78415103927
 20
-1502.449065366532
 30
0.0
 11
11756.78415103927
 21
-1591.349064031382
 31
0.0
  0
SOLID
  5
74FE
330
70E9
100
AcDbEntity
  8
AM_5 ( Bemassung)
440
 16777216
100
AcDbTrace
 10
11743.45081770593
 20
-1422.449065366532
 30
0.0
 11
11770.1174843726
 21
-1422.449065366532
 31
0.0
 12
11756.78415103927
 22
-1502.449065366532
 32
0.0
 13
11756.78415103927
 23
-1502.449065366532
 33
0.0
  0
SOLID
  5
74FF
330
70E9
100
AcDbEntity
  8
AM_5 ( Bemassung)
440
 16777216
100
AcDbTrace
 10
11743.45081770593
 20
-1671.349064031382
 30
0.0
 11
11770.1174843726
 21
-1671.349064031382
 31
0.0
 12
11756.78415103927
 22
-1591.349064031382
 32
0.0
 13
11756.78415103927
 23
-1591.349064031382
 33
0.0
  0
MTEXT
  5
7500
330
70E9
100
AcDbEntity
  8
AM_5 ( Bemassung)
 62
     2
440
 16777216
100
AcDbMText
 10
11691.02016741035
 20
-1546.899064698955
 30
0.0
 40
70.0
 41
0.0
 46
0.0
 71
     5
 72
     1
  1
3"\P
 11
0.0000000000000001
 21
1.0
 31
0.0
 73
     1
 44
1.0
  0
POINT
  5
7501
330
70E9
100
AcDbEntity
  8
Defpoints
 62
     0
440
 16777216
100
AcDbPoint
 10
11942.5737491589
 20
-1502.449065366532
 30
0.0
  0
POINT
  5
7502
330
70E9
100
AcDbEntity
  8
Defpoints
 62
     0
440
 16777216
100
AcDbPoint
 10
11952.73277268539
 20
-1591.349064031382
 30
0.0
  0
POINT
  5
7503
330
70E9
100
AcDbEntity
  8
Defpoints
 62
     0
440
 16777216
100
AcDbPoint
 10
11756.78415103927
 20
-1591.349064031382
 30
0.0
  0
ENDBLK
  5
70EB
330
70E9
100
AcDbEntity
  8
0
100
AcDbBlockEnd
  0
BLOCK
  5
7367
330
7366
100
AcDbEntity
  8
0
100
AcDbBlockBegin
  2
_ACMFILLED
 70
     0
 10
0.0
 20
0.0
 30
0.0
  3
_ACMFILLED
  1

  0
TRACE
  5
7369
330
7366
100
AcDbEntity
  8
AM_8 ( Schraffur)
 62
     0
100
AcDbTrace
 10
-1.0
 20
-0.166666666
 30
0.0
 11
-1.0
 21
0.166666666
 31
0.0
 12
0.0
 22
0.0
 32
0.0
 13
0.0
 23
0.0
 33
0.0
  0
ENDBLK
  5
7368
330
7366
100
AcDbEntity
  8
0
100
AcDbBlockEnd
  0
BLOCK
  5
7372
330
7371
100
AcDbEntity
  8
0
100
AcDbBlockBegin
  2
_ACMFILLEDHALF
 70
     0
 10
0.0
 20
0.0
 30
0.0
  3
_ACMFILLEDHALF
  1

  0
TRACE
  5
7374
330
7371
100
AcDbEntity
  8
AM_8 ( Schraffur)
 62
     0
100
AcDbTrace
 10
-0.8
 20
0.0
 30
0.0
 11
-1.0
 21
0.166666666
 31
0.0
 12
0.0
 22
0.0
 32
0.0
 13
0.0
 23
0.0
 33
0.0
  0
LINE
  5
7375
330
7371
100
AcDbEntity
  8
AM_8 ( Schraffur)
 62
     0
100
AcDbLine
 10
-1.0
 20
0.0
 30
0.0
 11
-0.8
 21
0.0
 31
0.0
  0
ENDBLK
  5
7373
330
7371
100
AcDbEntity
  8
0
100
AcDbBlockEnd
  0
BLOCK
  5
737E
330
737D
100
AcDbEntity
  8
0
100
AcDbBlockBegin
  2
_ACMFILLED15
 70
     0
 10
0.0
 20
0.0
 30
0.0
  3
_ACMFILLED15
  1

  0
TRACE
  5
7380
330
737D
100
AcDbEntity
  8
AM_8 ( Schraffur)
 62
     0
100
AcDbTrace
 10
-1.0
 20
-0.131652497
 30
0.0
 11
-1.0
 21
0.131652497
 31
0.0
 12
0.0
 22
0.0
 32
0.0
 13
0.0
 23
0.0
 33
0.0
  0
ENDBLK
  5
737F
330
737D
100
AcDbEntity
  8
0
100
AcDbBlockEnd
  0
BLOCK
  5
73FB
330
73FA
100
AcDbEntity
  8
0
100
AcDbBlockBegin
  2
*D8
 70
     1
 10
0.0
 20
0.0
 30
0.0
  3
*D8
  1

  0
LINE
  5
74EE
330
73FA
100
AcDbEntity
  8
AM_5 ( Bemassung)
440
 16777216
100
AcDbLine
 10
11926.05134568601
 20
-1546.899064698957
 30
0.0
 11
11926.05134568601
 21
-1806.143922328827
 31
0.0
  0
LINE
  5
74EF
330
73FA
100
AcDbEntity
  8
AM_5 ( Bemassung)
440
 16777216
100
AcDbLine
 10
11983.05134482996
 20
-1675.098835478332
 30
0.0
 11
11983.05134482996
 21
-1806.143922328827
 31
0.0
  0
LINE
  5
74F0
330
73FA
100
AcDbEntity
  8
AM_5 ( Bemassung)
440
 16777216
100
AcDbLine
 10
11846.05134568601
 20
-1786.143922328827
 30
0.0
 11
11766.05134568601
 21
-1786.143922328827
 31
0.0
  0
LINE
  5
74F1
330
73FA
100
AcDbEntity
  8
AM_5 ( Bemassung)
440
 16777216
100
AcDbLine
 10
12063.05134482996
 20
-1786.143922328827
 30
0.0
 11
12303.324196126
 21
-1786.143922328827
 31
0.0
  0
LINE
  5
74F2
330
73FA
100
AcDbEntity
  8
AM_5 ( Bemassung)
440
 16777216
100
AcDbLine
 10
11926.05134568601
 20
-1786.143922328827
 30
0.0
 11
11983.05134482996
 21
-1786.143922328827
 31
0.0
  0
SOLID
  5
74F3
330
73FA
100
AcDbEntity
  8
AM_5 ( Bemassung)
440
 16777216
100
AcDbTrace
 10
11846.05134568601
 20
-1772.810588995494
 30
0.0
 11
11846.05134568601
 21
-1799.47725566216
 31
0.0
 12
11926.05134568601
 22
-1786.143922328827
 32
0.0
 13
11926.05134568601
 23
-1786.143922328827
 33
0.0
  0
SOLID
  5
74F4
330
73FA
100
AcDbEntity
  8
AM_5 ( Bemassung)
440
 16777216
100
AcDbTrace
 10
12063.05134482996
 20
-1772.810588995494
 30
0.0
 11
12063.05134482996
 21
-1799.47725566216
 31
0.0
 12
11983.05134482996
 22
-1786.143922328827
 32
0.0
 13
11983.05134482996
 23
-1786.143922328827
 33
0.0
  0
MTEXT
  5
74F5
330
73FA
100
AcDbEntity
  8
AM_5 ( Bemassung)
 62
     2
440
 16777216
100
AcDbMText
 10
12223.18777047798
 20
-1720.547060118732
 30
0.0
 40
70.0
 41
0.0
 46
0.0
 71
     5
 72
     1
  1
57
 73
     1
 44
1.0
  0
POINT
  5
74F6
330
73FA
100
AcDbEntity
  8
Defpoints
 62
     0
440
 16777216
100
AcDbPoint
 10
11926.05134568601
 20
-1546.899064698957
 30
0.0
  0
POINT
  5
74F7
330
73FA
100
AcDbEntity
  8
Defpoints
 62
     0
440
 16777216
100
AcDbPoint
 10
11983.05134482996
 20
-1675.098835478332
 30
0.0
  0
POINT
  5
74F8
330
73FA
100
AcDbEntity
  8
Defpoints
 62
     0
440
 16777216
100
AcDbPoint
 10
11983.05134482996
 20
-1786.143922328827
 30
0.0
  0
ENDBLK
  5
73FC
330
73FA
100
AcDbEntity
  8
0
100
AcDbBlockEnd
  0
BLOCK
  5
7423
330
7422
100
AcDbEntity
  8
0
100
AcDbBlockBegin
  2
*D9
 70
     1
 10
0.0
 20
0.0
 30
0.0
  3
*D9
  1

  0
LINE
  5
7439
330
7422
100
AcDbEntity
  8
AM_5 ( Bemassung)
440
 16777216
100
AcDbLine
 10
11983.05134482996
 20
-1906.962362692363
 30
0.0
 11
11983.05134482996
 21
-1821.443105371054
 31
0.0
  0
LINE
  5
743A
330
7422
100
AcDbEntity
  8
AM_5 ( Bemassung)
440
 16777216
100
AcDbLine
 10
12787.05133275509
 20
-1902.49674007399
 30
0.0
 11
12787.05133275509
 21
-1821.443105371054
 31
0.0
  0
LINE
  5
743B
330
7422
100
AcDbEntity
  8
AM_5 ( Bemassung)
440
 16777216
100
AcDbLine
 10
12063.05134482996
 20
-1841.443105371054
 30
0.0
 11
12707.05133275509
 21
-1841.443105371054
 31
0.0
  0
SOLID
  5
743C
330
7422
100
AcDbEntity
  8
AM_5 ( Bemassung)
440
 16777216
100
AcDbTrace
 10
12063.05134482996
 20
-1828.109772037721
 30
0.0
 11
12063.05134482996
 21
-1854.776438704387
 31
0.0
 12
11983.05134482996
 22
-1841.443105371054
 32
0.0
 13
11983.05134482996
 23
-1841.443105371054
 33
0.0
  0
SOLID
  5
743D
330
7422
100
AcDbEntity
  8
AM_5 ( Bemassung)
440
 16777216
100
AcDbTrace
 10
12707.05133275509
 20
-1828.109772037721
 30
0.0
 11
12707.05133275509
 21
-1854.776438704387
 31
0.0
 12
12787.05133275509
 22
-1841.443105371054
 32
0.0
 13
12787.05133275509
 23
-1841.443105371054
 33
0.0
  0
MTEXT
  5
743E
330
7422
100
AcDbEntity
  8
AM_5 ( Bemassung)
 62
     2
440
 16777216
100
AcDbMText
 10
12385.05133879252
 20
-1775.679121742132
 30
0.0
 40
70.0
 41
0.0
 46
0.0
 71
     5
 72
     1
  1
804
 73
     1
 44
1.0
  0
POINT
  5
743F
330
7422
100
AcDbEntity
  8
Defpoints
 62
     0
440
 16777216
100
AcDbPoint
 10
11983.05134482996
 20
-1906.962362692363
 30
0.0
  0
POINT
  5
7440
330
7422
100
AcDbEntity
  8
Defpoints
 62
     0
440
 16777216
100
AcDbPoint
 10
12787.05133275509
 20
-1902.49674007399
 30
0.0
  0
POINT
  5
7441
330
7422
100
AcDbEntity
  8
Defpoints
 62
     0
440
 16777216
100
AcDbPoint
 10
12787.05133275509
 20
-1841.443105371054
 30
0.0
  0
ENDBLK
  5
7424
330
7422
100
AcDbEntity
  8
0
100
AcDbBlockEnd
  0
BLOCK
  5
7444
330
7443
100
AcDbEntity
  8
0
100
AcDbBlockBegin
  2
*D10
 70
     1
 10
0.0
 20
0.0
 30
0.0
  3
*D10
  1

  0
LINE
  5
745E
330
7443
100
AcDbEntity
  8
AM_5 ( Bemassung)
440
 16777216
100
AcDbLine
 10
12796.73835870714
 20
-1912.462362609761
 30
0.0
 11
13387.0513286488
 21
-1912.462362609761
 31
0.0
  0
LINE
  5
745F
330
7443
100
AcDbEntity
  8
AM_5 ( Bemassung)
440
 16777216
100
AcDbLine
 10
12796.73835870714
 20
-2101.462359771272
 30
0.0
 11
13387.0513286488
 21
-2101.462359771272
 31
0.0
  0
LINE
  5
7460
330
7443
100
AcDbEntity
  8
AM_5 ( Bemassung)
440
 16777216
100
AcDbLine
 10
13367.0513286488
 20
-1832.462362609761
 30
0.0
 11
13367.0513286488
 21
-1752.462362609761
 31
0.0
  0
LINE
  5
7461
330
7443
100
AcDbEntity
  8
AM_5 ( Bemassung)
440
 16777216
100
AcDbLine
 10
13367.0513286488
 20
-2181.462359771273
 30
0.0
 11
13367.0513286488
 21
-2469.579685828572
 31
0.0
  0
LINE
  5
7462
330
7443
100
AcDbEntity
  8
AM_5 ( Bemassung)
440
 16777216
100
AcDbLine
 10
13367.0513286488
 20
-1912.462362609761
 30
0.0
 11
13367.0513286488
 21
-2101.462359771272
 31
0.0
  0
SOLID
  5
7463
330
7443
100
AcDbEntity
  8
AM_5 ( Bemassung)
440
 16777216
100
AcDbTrace
 10
13353.71799531546
 20
-1832.462362609761
 30
0.0
 11
13380.38466198213
 21
-1832.462362609761
 31
0.0
 12
13367.0513286488
 22
-1912.462362609761
 32
0.0
 13
13367.0513286488
 23
-1912.462362609761
 33
0.0
  0
SOLID
  5
7464
330
7443
100
AcDbEntity
  8
AM_5 ( Bemassung)
440
 16777216
100
AcDbTrace
 10
13353.71799531546
 20
-2181.462359771273
 30
0.0
 11
13380.38466198213
 21
-2181.462359771273
 31
0.0
 12
13367.0513286488
 22
-2101.462359771272
 32
0.0
 13
13367.0513286488
 23
-2101.462359771272
 33
0.0
  0
MTEXT
  5
7465
330
7443
100
AcDbEntity
  8
AM_5 ( Bemassung)
 62
     2
440
 16777216
100
AcDbMText
 10
13301.28734501987
 20
-2365.521022799919
 30
0.0
 40
70.0
 41
0.0
 46
0.0
 71
     5
 72
     1
  1
189
 11
0.0000000000000001
 21
1.0
 31
0.0
 73
     1
 44
1.0
  0
POINT
  5
7466
330
7443
100
AcDbEntity
  8
Defpoints
 62
     0
440
 16777216
100
AcDbPoint
 10
12796.73835870714
 20
-1912.462362609761
 30
0.0
  0
POINT
  5
7467
330
7443
100
AcDbEntity
  8
Defpoints
 62
     0
440
 16777216
100
AcDbPoint
 10
12796.73835870714
 20
-2101.462359771272
 30
0.0
  0
POINT
  5
7468
330
7443
100
AcDbEntity
  8
Defpoints
 62
     0
440
 16777216
100
AcDbPoint
 10
13367.0513286488
 20
-2101.462359771272
 30
0.0
  0
ENDBLK
  5
7445
330
7443
100
AcDbEntity
  8
0
100
AcDbBlockEnd
  0
BLOCK
  5
746B
330
746A
100
AcDbEntity
  8
0
100
AcDbBlockBegin
  2
*D11
 70
     1
 10
0.0
 20
0.0
 30
0.0
  3
*D11
  1

  0
LINE
  5
74E3
330
746A
100
AcDbEntity
  8
AM_5 ( Bemassung)
440
 16777216
100
AcDbLine
 10
13511.0901808764
 20
-1669.399062859193
 30
0.0
 11
13700.45827157995
 21
-1669.399062859193
 31
0.0
  0
LINE
  5
74E4
330
746A
100
AcDbEntity
  8
AM_5 ( Bemassung)
440
 16777216
100
AcDbLine
 10
13396.59018259602
 20
-1546.899064698952
 30
0.0
 11
13700.45827157995
 21
-1546.899064698952
 31
0.0
  0
LINE
  5
74E5
330
746A
100
AcDbEntity
  8
AM_5 ( Bemassung)
440
 16777216
100
AcDbLine
 10
13680.45827157995
 20
-1466.899064698952
 30
0.0
 11
13680.45827157995
 21
-1386.899064698952
 31
0.0
  0
LINE
  5
74E6
330
746A
100
AcDbEntity
  8
AM_5 ( Bemassung)
440
 16777216
100
AcDbLine
 10
13680.45827157995
 20
-1749.399062859193
 30
0.0
 11
13680.45827157995
 21
-2119.358135164787
 31
0.0
  0
LINE
  5
74E7
330
746A
100
AcDbEntity
  8
AM_5 ( Bemassung)
440
 16777216
100
AcDbLine
 10
13680.45827157995
 20
-1546.899064698952
 30
0.0
 11
13680.45827157995
 21
-1669.399062859193
 31
0.0
  0
SOLID
  5
74E8
330
746A
100
AcDbEntity
  8
AM_5 ( Bemassung)
440
 16777216
100
AcDbTrace
 10
13667.12493824662
 20
-1466.899064698952
 30
0.0
 11
13693.79160491329
 21
-1466.899064698952
 31
0.0
 12
13680.45827157995
 22
-1546.899064698952
 32
0.0
 13
13680.45827157995
 23
-1546.899064698952
 33
0.0
  0
SOLID
  5
74E9
330
746A
100
AcDbEntity
  8
AM_5 ( Bemassung)
440
 16777216
100
AcDbTrace
 10
13667.12493824662
 20
-1749.399062859193
 30
0.0
 11
13693.79160491329
 21
-1749.399062859193
 31
0.0
 12
13680.45827157995
 22
-1669.399062859193
 32
0.0
 13
13680.45827157995
 23
-1669.399062859193
 33
0.0
  0
MTEXT
  5
74EA
330
746A
100
AcDbEntity
  8
AM_5 ( Bemassung)
 62
     2
440
 16777216
100
AcDbMText
 10
13614.69428795103
 20
-1974.378599011988
 30
0.0
 40
70.0
 41
0.0
 46
0.0
 71
     5
 72
     1
  1
122.5
 11
0.0000000000000001
 21
1.0
 31
0.0
 73
     1
 44
1.0
  0
POINT
  5
74EB
330
746A
100
AcDbEntity
  8
Defpoints
 62
     0
440
 16777216
100
AcDbPoint
 10
13511.0901808764
 20
-1669.399062859193
 30
0.0
  0
POINT
  5
74EC
330
746A
100
AcDbEntity
  8
Defpoints
 62
     0
440
 16777216
100
AcDbPoint
 10
13396.59018259602
 20
-1546.899064698952
 30
0.0
  0
POINT
  5
74ED
330
746A
100
AcDbEntity
  8
Defpoints
 62
     0
440
 16777216
100
AcDbPoint
 10
13680.45827157995
 20
-1546.899064698952
 30
0.0
  0
ENDBLK
  5
746C
330
746A
100
AcDbEntity
  8
0
100
AcDbBlockEnd
  0
BLOCK
  5
7492
330
7491
100
AcDbEntity
  8
0
100
AcDbBlockBegin
  2
*D12
 70
     1
 10
0.0
 20
0.0
 30
0.0
  3
*D12
  1

  0
LINE
  5
74DA
330
7491
100
AcDbEntity
  8
AM_5 ( Bemassung)
440
 16777216
100
AcDbLine
 10
13511.0901808764
 20
-1669.399062859193
 30
0.0
 11
13845.38980957036
 21
-1669.399062859193
 31
0.0
  0
LINE
  5
74DB
330
7491
100
AcDbEntity
  8
AM_5 ( Bemassung)
440
 16777216
100
AcDbLine
 10
13396.59018259602
 20
-1432.399066418569
 30
0.0
 11
13845.38980957036
 21
-1432.399066418569
 31
0.0
  0
LINE
  5
74DC
330
7491
100
AcDbEntity
  8
AM_5 ( Bemassung)
440
 16777216
100
AcDbLine
 10
13825.38980957036
 20
-1589.399062859193
 30
0.0
 11
13825.38980957036
 21
-1512.399066418569
 31
0.0
  0
SOLID
  5
74DD
330
7491
100
AcDbEntity
  8
AM_5 ( Bemassung)
440
 16777216
100
AcDbTrace
 10
13812.05647623703
 20
-1589.399062859193
 30
0.0
 11
13838.72314290369
 21
-1589.399062859193
 31
0.0
 12
13825.38980957036
 22
-1669.399062859193
 32
0.0
 13
13825.38980957036
 23
-1669.399062859193
 33
0.0
  0
SOLID
  5
74DE
330
7491
100
AcDbEntity
  8
AM_5 ( Bemassung)
440
 16777216
100
AcDbTrace
 10
13812.05647623703
 20
-1512.399066418569
 30
0.0
 11
13838.72314290369
 21
-1512.399066418569
 31
0.0
 12
13825.38980957036
 22
-1432.399066418569
 32
0.0
 13
13825.38980957036
 23
-1432.399066418569
 33
0.0
  0
MTEXT
  5
74DF
330
7491
100
AcDbEntity
  8
AM_5 ( Bemassung)
 62
     2
440
 16777216
100
AcDbMText
 10
13759.62582594144
 20
-1573.42047998466
 30
0.0
 40
70.0
 41
0.0
 46
0.0
 71
     5
 72
     1
  1
237
 11
0.0000000000000001
 21
1.0
 31
0.0
 73
     1
 44
1.0
  0
POINT
  5
74E0
330
7491
100
AcDbEntity
  8
Defpoints
 62
     0
440
 16777216
100
AcDbPoint
 10
13511.0901808764
 20
-1669.399062859193
 30
0.0
  0
POINT
  5
74E1
330
7491
100
AcDbEntity
  8
Defpoints
 62
     0
440
 16777216
100
AcDbPoint
 10
13396.59018259602
 20
-1432.399066418569
 30
0.0
  0
POINT
  5
74E2
330
7491
100
AcDbEntity
  8
Defpoints
 62
     0
440
 16777216
100
AcDbPoint
 10
13825.38980957036
 20
-1432.399066418569
 30
0.0
  0
ENDBLK
  5
7493
330
7491
100
AcDbEntity
  8
0
100
AcDbBlockEnd
  0
BLOCK
  5
74B5
330
74B4
100
AcDbEntity
  8
0
100
AcDbBlockBegin
  2
*D13
 70
     1
 10
0.0
 20
0.0
 30
0.0
  3
*D13
  1

  0
LINE
  5
74CF
330
74B4
100
AcDbEntity
  8
AM_5 ( Bemassung)
440
 16777216
100
AcDbLine
 10
13491.09018117677
 20
-1686.466187661343
 30
0.0
 11
13491.09018117677
 21
-1757.869610943725
 31
0.0
  0
LINE
  5
74D0
330
74B4
100
AcDbEntity
  8
AM_5 ( Bemassung)
440
 16777216
100
AcDbLine
 10
13302.09018401527
 20
-1686.466187661343
 30
0.0
 11
13302.09018401527
 21
-1757.869610943725
 31
0.0
  0
LINE
  5
74D1
330
74B4
100
AcDbEntity
  8
AM_5 ( Bemassung)
440
 16777216
100
AcDbLine
 10
13571.09018117677
 20
-1737.869610943725
 30
0.0
 11
13651.09018117677
 21
-1737.869610943725
 31
0.0
  0
LINE
  5
74D2
330
74B4
100
AcDbEntity
  8
AM_5 ( Bemassung)
440
 16777216
100
AcDbLine
 10
13222.09018401527
 20
-1737.869610943725
 30
0.0
 11
12933.97285795797
 21
-1737.869610943725
 31
0.0
  0
LINE
  5
74D3
330
74B4
100
AcDbEntity
  8
AM_5 ( Bemassung)
440
 16777216
100
AcDbLine
 10
13491.09018117677
 20
-1737.869610943725
 30
0.0
 11
13302.09018401527
 21
-1737.869610943725
 31
0.0
  0
SOLID
  5
74D4
330
74B4
100
AcDbEntity
  8
AM_5 ( Bemassung)
440
 16777216
100
AcDbTrace
 10
13571.09018117677
 20
-1724.536277610392
 30
0.0
 11
13571.09018117677
 21
-1751.202944277058
 31
0.0
 12
13491.09018117677
 22
-1737.869610943725
 32
0.0
 13
13491.09018117677
 23
-1737.869610943725
 33
0.0
  0
SOLID
  5
74D5
330
74B4
100
AcDbEntity
  8
AM_5 ( Bemassung)
440
 16777216
100
AcDbTrace
 10
13222.09018401527
 20
-1724.536277610392
 30
0.0
 11
13222.09018401527
 21
-1751.202944277058
 31
0.0
 12
13302.09018401527
 22
-1737.869610943725
 32
0.0
 13
13302.09018401527
 23
-1737.869610943725
 33
0.0
  0
MTEXT
  5
74D6
330
74B4
100
AcDbEntity
  8
AM_5 ( Bemassung)
 62
     2
440
 16777216
100
AcDbMText
 10
13038.03152098662
 20
-1672.105627314803
 30
0.0
 40
70.0
 41
0.0
 46
0.0
 71
     5
 72
     1
  1
189
 73
     1
 44
1.0
  0
POINT
  5
74D7
330
74B4
100
AcDbEntity
  8
Defpoints
 62
     0
440
 16777216
100
AcDbPoint
 10
13491.09018117677
 20
-1686.466187661343
 30
0.0
  0
POINT
  5
74D8
330
74B4
100
AcDbEntity
  8
Defpoints
 62
     0
440
 16777216
100
AcDbPoint
 10
13302.09018401527
 20
-1686.466187661343
 30
0.0
  0
POINT
  5
74D9
330
74B4
100
AcDbEntity
  8
Defpoints
 62
     0
440
 16777216
100
AcDbPoint
 10
13302.09018401527
 20
-1737.869610943725
 30
0.0
  0
ENDBLK
  5
74B6
330
74B4
100
AcDbEntity
  8
0
100
AcDbBlockEnd
  0
BLOCK
  5
7506
330
7505
100
AcDbEntity
  8
0
100
AcDbBlockBegin
  2
*D14
 70
     1
 10
0.0
 20
0.0
 30
0.0
  3
*D14
  1

  0
LINE
  5
7520
330
7505
100
AcDbEntity
  8
AM_5 ( Bemassung)
440
 16777216
100
AcDbLine
 10
11926.05134568601
 20
-1497.307981713839
 30
0.0
 11
11926.05134568601
 21
-1336.509124732199
 31
0.0
  0
LINE
  5
7521
330
7505
100
AcDbEntity
  8
AM_5 ( Bemassung)
440
 16777216
100
AcDbLine
 10
12006.05134448453
 20
-1432.399066418572
 30
0.0
 11
12006.05134448453
 21
-1336.509124732199
 31
0.0
  0
LINE
  5
7522
330
7505
100
AcDbEntity
  8
AM_5 ( Bemassung)
440
 16777216
100
AcDbLine
 10
11846.05134568601
 20
-1356.509124732199
 30
0.0
 11
11766.05134568601
 21
-1356.509124732199
 31
0.0
  0
LINE
  5
7523
330
7505
100
AcDbEntity
  8
AM_5 ( Bemassung)
440
 16777216
100
AcDbLine
 10
12086.05134448453
 20
-1356.509124732199
 30
0.0
 11
12326.32419578057
 21
-1356.509124732199
 31
0.0
  0
LINE
  5
7524
330
7505
100
AcDbEntity
  8
AM_5 ( Bemassung)
440
 16777216
100
AcDbLine
 10
11926.05134568601
 20
-1356.509124732199
 30
0.0
 11
12006.05134448453
 21
-1356.509124732199
 31
0.0
  0
SOLID
  5
7525
330
7505
100
AcDbEntity
  8
AM_5 ( Bemassung)
440
 16777216
100
AcDbTrace
 10
11846.05134568601
 20
-1343.175791398866
 30
0.0
 11
11846.05134568601
 21
-1369.842458065532
 31
0.0
 12
11926.05134568601
 22
-1356.509124732199
 32
0.0
 13
11926.05134568601
 23
-1356.509124732199
 33
0.0
  0
SOLID
  5
7526
330
7505
100
AcDbEntity
  8
AM_5 ( Bemassung)
440
 16777216
100
AcDbTrace
 10
12086.05134448453
 20
-1343.175791398866
 30
0.0
 11
12086.05134448453
 21
-1369.842458065532
 31
0.0
 12
12006.05134448453
 22
-1356.509124732199
 32
0.0
 13
12006.05134448453
 23
-1356.509124732199
 33
0.0
  0
MTEXT
  5
7527
330
7505
100
AcDbEntity
  8
AM_5 ( Bemassung)
 62
     2
440
 16777216
100
AcDbMText
 10
12246.18777013255
 20
-1290.745141103277
 30
0.0
 40
70.0
 41
0.0
 46
0.0
 71
     5
 72
     1
  1
80
 73
     1
 44
1.0
  0
POINT
  5
7528
330
7505
100
AcDbEntity
  8
Defpoints
 62
     0
440
 16777216
100
AcDbPoint
 10
11926.05134568601
 20
-1497.307981713839
 30
0.0
  0
POINT
  5
7529
330
7505
100
AcDbEntity
  8
Defpoints
 62
     0
440
 16777216
100
AcDbPoint
 10
12006.05134448453
 20
-1432.399066418572
 30
0.0
  0
POINT
  5
752A
330
7505
100
AcDbEntity
  8
Defpoints
 62
     0
440
 16777216
100
AcDbPoint
 10
12006.05134448453
 20
-1356.509124732199
 30
0.0
  0
ENDBLK
  5
7507
330
7505
100
AcDbEntity
  8
0
100
AcDbBlockEnd
  0
BLOCK
  5
752D
330
752C
100
AcDbEntity
  8
0
100
AcDbBlockBegin
  2
*D15
 70
     1
 10
0.0
 20
0.0
 30
0.0
  3
*D15
  1

  0
LINE
  5
7543
330
752C
100
AcDbEntity
  8
AM_5 ( Bemassung)
440
 16777216
100
AcDbLine
 10
13137.05132749862
 20
-1510.899065239622
 30
0.0
 11
13137.05132749862
 21
-1333.481869223273
 31
0.0
  0
LINE
  5
7544
330
752C
100
AcDbEntity
  8
AM_5 ( Bemassung)
440
 16777216
100
AcDbLine
 10
12764.05133310051
 20
-1432.399066418572
 30
0.0
 11
12764.05133310051
 21
-1333.481869223273
 31
0.0
  0
LINE
  5
7545
330
752C
100
AcDbEntity
  8
AM_5 ( Bemassung)
440
 16777216
100
AcDbLine
 10
13057.05132749862
 20
-1353.481869223273
 30
0.0
 11
12844.05133310051
 21
-1353.481869223273
 31
0.0
  0
SOLID
  5
7546
330
752C
100
AcDbEntity
  8
AM_5 ( Bemassung)
440
 16777216
100
AcDbTrace
 10
13057.05132749862
 20
-1340.148535889939
 30
0.0
 11
13057.05132749862
 21
-1366.815202556606
 31
0.0
 12
13137.05132749862
 22
-1353.481869223273
 32
0.0
 13
13137.05132749862
 23
-1353.481869223273
 33
0.0
  0
SOLID
  5
7547
330
752C
100
AcDbEntity
  8
AM_5 ( Bemassung)
440
 16777216
100
AcDbTrace
 10
12844.05133310051
 20
-1340.148535889939
 30
0.0
 11
12844.05133310051
 21
-1366.815202556606
 31
0.0
 12
12764.05133310051
 22
-1353.481869223273
 32
0.0
 13
12764.05133310051
 23
-1353.481869223273
 33
0.0
  0
MTEXT
  5
7548
330
752C
100
AcDbEntity
  8
AM_5 ( Bemassung)
 62
     2
440
 16777216
100
AcDbMText
 10
12950.55133029956
 20
-1287.71788559435
 30
0.0
 40
70.0
 41
0.0
 46
0.0
 71
     5
 72
     1
  1
373
 73
     1
 44
1.0
  0
POINT
  5
7549
330
752C
100
AcDbEntity
  8
Defpoints
 62
     0
440
 16777216
100
AcDbPoint
 10
13137.05132749862
 20
-1510.899065239622
 30
0.0
  0
POINT
  5
754A
330
752C
100
AcDbEntity
  8
Defpoints
 62
     0
440
 16777216
100
AcDbPoint
 10
12764.05133310051
 20
-1432.399066418572
 30
0.0
  0
POINT
  5
754B
330
752C
100
AcDbEntity
  8
Defpoints
 62
     0
440
 16777216
100
AcDbPoint
 10
12764.05133310051
 20
-1353.481869223273
 30
0.0
  0
ENDBLK
  5
752E
330
752C
100
AcDbEntity
  8
0
100
AcDbBlockEnd
  0
ENDSEC
  0
SECTION
  2
ENTITIES
  0
TEXT
  5
51EF
330
74
100
AcDbEntity
  8
AM_6 ( Text)
100
AcDbText
 10
11896.47250254697
 20
-918.6111313229375
 30
0.0
 40
125.0
  1
SPA35-43
 41
1.200000017881389
100
AcDbText
  0
LINE
  5
5D51
102
{ACAD_REACTORS
330
70D5
102
}
330
74
100
AcDbEntity
  8
AM_7 (Mittellinie)
100
AcDbLine
 10
12075.07791185994
 20
-1546.899064698952
 30
0.0
 11
13177.73118478124
 21
-1546.899064698952
 31
0.0
  0
LINE
  5
5D52
102
{ACAD_REACTORS
330
69FB
102
}
330
74
100
AcDbEntity
  8
AM_0 ( Kontur 0.5 )
100
AcDbLine
 10
12010.05134442446
 20
-1434.399066388532
 30
0.0
 11
12760.05133316059
 21
-1434.399066388532
 31
0.0
  0
LINE
  5
5D53
102
{ACAD_REACTORS
330
69FB
102
}
330
74
100
AcDbEntity
  8
AM_0 ( Kontur 0.5 )
100
AcDbLine
 10
12010.05134442446
 20
-1662.399062964322
 30
0.0
 11
12010.05134442446
 21
-1434.399066388532
 31
0.0
  0
LINE
  5
5D54
102
{ACAD_REACTORS
330
69FB
102
}
330
74
100
AcDbEntity
  8
AM_0 ( Kontur 0.5 )
100
AcDbLine
 10
12760.05133316059
 20
-1659.399063009372
 30
0.0
 11
12010.05134442446
 21
-1659.399063009372
 31
0.0
  0
LINE
  5
5D55
102
{ACAD_REACTORS
330
69FB
102
}
330
74
100
AcDbEntity
  8
AM_0 ( Kontur 0.5 )
100
AcDbLine
 10
12760.05133316059
 20
-1432.399066418572
 30
0.0
 11
12760.05133316059
 21
-1661.399062979332
 31
0.0
  0
LINE
  5
5D56
330
74
100
AcDbEntity
  8
AM_0 ( Kontur 0.5 )
100
AcDbLine
 10
12764.05133310051
 20
-1500.899065389802
 30
0.0
 11
13127.0513276488
 21
-1500.899065389802
 31
0.0
  0
LINE
  5
5D57
330
74
100
AcDbEntity
  8
AM_3 ( Verdeckt )
100
AcDbLine
 10
11926.05134568601
 20
-1589.649064056912
 30
0.0
 11
12006.05134448453
 21
-1589.649064056912
 31
0.0
  0
LINE
  5
5D58
102
{ACAD_REACTORS
330
70D5
330
7409
330
7514
102
}
330
74
100
AcDbEntity
  8
AM_0 ( Kontur 0.5 )
100
AcDbLine
 10
11926.05134568601
 20
-1602.399063865433
 30
0.0
 11
11926.05134568601
 21
-1491.399065532482
 31
0.0
  0
ARC
  5
5D59
330
74
100
AcDbEntity
  8
AM_0 ( Kontur 0.5 )
100
AcDbCircle
 10
13127.0513276488
 20
-1582.899064158293
 30
0.0
 40
9.99999984981507
100
AcDbArc
 50
270.0
 51
0.0
  0
LINE
  5
5D5A
330
74
100
AcDbEntity
  8
AM_0 ( Kontur 0.5 )
100
AcDbLine
 10
13127.0513276488
 20
-1500.899065389802
 30
0.0
 11
13127.0513276488
 21
-1592.899064008103
 31
0.0
  0
LINE
  5
5D5B
330
74
100
AcDbEntity
  8
AM_7 (Mittellinie)
100
AcDbLine
 10
12018.85319553135
 20
-1462.899065960512
 30
0.0
 11
11990.14970388857
 21
-1462.899065960512
 31
0.0
  0
LINE
  5
5D5C
330
74
100
AcDbEntity
  8
AM_0 ( Kontur 0.5 )
100
AcDbLine
 10
12764.05133310051
 20
-1592.899064008103
 30
0.0
 11
13127.0513276488
 21
-1592.899064008103
 31
0.0
  0
LINE
  5
5D5D
330
74
100
AcDbEntity
  8
AM_3 ( Verdeckt )
100
AcDbLine
 10
11926.05134568601
 20
-1504.149065340993
 30
0.0
 11
12006.05134448453
 21
-1504.149065340993
 31
0.0
  0
LINE
  5
5D5E
102
{ACAD_REACTORS
330
70F8
102
}
330
74
100
AcDbEntity
  8
AM_3 ( Verdeckt )
100
AcDbLine
 10
11926.05134568601
 20
-1591.349064031382
 30
0.0
 11
12006.05134448453
 21
-1591.349064031382
 31
0.0
  0
TEXT
  5
5D5F
330
74
100
AcDbEntity
  8
2
 62
     2
100
AcDbText
 10
11958.76443441067
 20
-1567.404661771572
 30
0.0
 40
8.74999986858819
  1
3"
 41
1.199999999999999
100
AcDbText
  0
LINE
  5
5D60
102
{ACAD_REACTORS
330
70D5
330
7539
102
}
330
74
100
AcDbEntity
  8
AM_0 ( Kontur 0.5 )
100
AcDbLine
 10
13137.05132749862
 20
-1582.899064158293
 30
0.0
 11
13137.05132749862
 21
-1510.899065239622
 31
0.0
  0
LINE
  5
5D61
330
74
100
AcDbEntity
  8
AM_0 ( Kontur 0.5 )
100
AcDbLine
 10
11936.05134553583
 20
-1612.399063715242
 30
0.0
 11
12006.05134448453
 21
-1612.399063715242
 31
0.0
  0
ARC
  5
5D63
330
74
100
AcDbEntity
  8
AM_0 ( Kontur 0.5 )
100
AcDbCircle
 10
11936.05134553583
 20
-1491.399065532482
 30
0.0
 40
9.99999984981507
100
AcDbArc
 50
90.0
 51
180.0
  0
LINE
  5
5D64
330
74
100
AcDbEntity
  8
AM_0 ( Kontur 0.5 )
100
AcDbLine
 10
12006.05134448453
 20
-1587.899064083192
 30
0.0
 11
12006.05134448453
 21
-1505.899065314713
 31
0.0
  0
LINE
  5
5D65
330
74
100
AcDbEntity
  8
AM_0 ( Kontur 0.5 )
100
AcDbLine
 10
11936.05134553583
 20
-1481.399065682662
 30
0.0
 11
12006.05134448453
 21
-1481.399065682662
 31
0.0
  0
LINE
  5
5D66
330
74
100
AcDbEntity
  8
AM_7 (Mittellinie)
100
AcDbLine
 10
12016.42825221145
 20
-1630.899063437402
 30
0.0
 11
11997.53844441056
 21
-1630.899063437402
 31
0.0
  0
LINE
  5
5D67
330
74
100
AcDbEntity
  8
AM_0 ( Kontur 0.5 )
100
AcDbLine
 10
12728.55133363367
 20
-1660.399062994352
 30
0.0
 11
12738.55133348349
 21
-1660.399062994352
 31
0.0
  0
LINE
  5
5D68
330
74
100
AcDbEntity
  8
AM_0 ( Kontur 0.5 )
100
AcDbLine
 10
11999.82531649694
 20
-1459.146289379862
 30
0.0
 11
12004.45134450856
 21
-1459.146289379862
 31
0.0
  0
LINE
  5
5D69
330
74
100
AcDbEntity
  8
AM_0 ( Kontur 0.5 )
100
AcDbLine
 10
11999.82531649693
 20
-1455.393512799212
 30
0.0
 11
12004.45134450856
 21
-1455.393512799212
 31
0.0
  0
LINE
  5
5D6A
330
74
100
AcDbEntity
  8
AM_0 ( Kontur 0.5 )
100
AcDbLine
 10
11999.15134474736
 20
-1457.268512679252
 30
0.0
 11
11999.15134474736
 21
-1468.529619266042
 31
0.0
  0
LINE
  5
5D6B
330
74
100
AcDbEntity
  8
AM_0 ( Kontur 0.5 )
100
AcDbLine
 10
12004.45134450856
 20
-1471.399065832852
 30
0.0
 11
12004.45134450856
 21
-1454.399066088162
 31
0.0
  0
ARC
  5
5D6C
330
74
100
AcDbEntity
  8
AM_0 ( Kontur 0.5 )
100
AcDbCircle
 10
-12003.05134452959
 20
-1662.399062964322
 30
0.0
 40
6.999999894870548
210
0.0
220
0.0
230
-1.0
100
AcDbArc
 50
180.0
 51
270.0
  0
LINE
  5
5D6D
330
74
100
AcDbEntity
  8
AM_0 ( Kontur 0.5 )
100
AcDbLine
 10
12003.05134452959
 20
-1665.399062919262
 30
0.0
 11
11966.05134508527
 21
-1665.399062919262
 31
0.0
  0
LINE
  5
5D6E
330
74
100
AcDbEntity
  8
AM_0 ( Kontur 0.5 )
100
AcDbLine
 10
12003.05134452959
 20
-1669.399062859192
 30
0.0
 11
11966.05134508527
 21
-1669.399062859192
 31
0.0
  0
LINE
  5
5D6F
330
74
100
AcDbEntity
  8
AM_0 ( Kontur 0.5 )
100
AcDbLine
 10
11966.05134508527
 20
-1669.399062859192
 30
0.0
 11
11966.05134508527
 21
-1665.399062919262
 31
0.0
  0
LINE
  5
5D70
330
74
100
AcDbEntity
  8
AM_0 ( Kontur 0.5 )
100
AcDbLine
 10
12006.05134448453
 20
-1662.399062964322
 30
0.0
 11
12006.05134448453
 21
-1432.399066418572
 31
0.0
  0
LINE
  5
5D71
102
{ACAD_REACTORS
330
7409
102
}
330
74
100
AcDbEntity
  8
AM_7 (Mittellinie)
100
AcDbLine
 10
11983.05134482996
 20
-1675.098835478332
 30
0.0
 11
11983.05134482996
 21
-1661.406284328313
 31
0.0
  0
LINE
  5
5D72
330
74
100
AcDbEntity
  8
AM_3 ( Verdeckt )
100
AcDbLine
 10
11977.55134491256
 20
-1669.399062859192
 30
0.0
 11
11977.55134491256
 21
-1665.399062919262
 31
0.0
  0
LINE
  5
5D73
330
74
100
AcDbEntity
  8
AM_0 ( Kontur 0.5 )
100
AcDbLine
 10
12033.90134406627
 20
-1434.399066388532
 30
0.0
 11
12033.90134406627
 21
-1433.399066403552
 31
0.0
  0
LINE
  5
5D74
330
74
100
AcDbEntity
  8
AM_0 ( Kontur 0.5 )
100
AcDbLine
 10
12039.20134398667
 20
-1434.399066388532
 30
0.0
 11
12039.20134398667
 21
-1433.399066403552
 31
0.0
  0
LINE
  5
5D75
330
74
100
AcDbEntity
  8
AM_0 ( Kontur 0.5 )
100
AcDbLine
 10
12031.55134410156
 20
-1434.399066388532
 30
0.0
 11
12031.55134410156
 21
-1433.399066403552
 31
0.0
  0
LINE
  5
5D76
330
74
100
AcDbEntity
  8
AM_0 ( Kontur 0.5 )
100
AcDbLine
 10
12041.55134395138
 20
-1434.399066388532
 30
0.0
 11
12041.55134395138
 21
-1433.399066403552
 31
0.0
  0
LINE
  5
5D77
330
74
100
AcDbEntity
  8
AM_0 ( Kontur 0.5 )
100
AcDbLine
 10
12036.05134403398
 20
-1432.431812088802
 30
0.0
 11
12037.05134401896
 21
-1432.431812088802
 31
0.0
  0
LINE
  5
5D78
330
74
100
AcDbEntity
  8
AM_0 ( Kontur 0.5 )
100
AcDbLine
 10
12037.05134401896
 20
-1432.431812088802
 30
0.0
 11
12037.05134401896
 21
-1430.399066448612
 31
0.0
  0
ARC
  5
5D79
330
74
100
AcDbEntity
  8
AM_0 ( Kontur 0.5 )
100
AcDbCircle
 10
-12036.55134402647
 20
-1442.180316271672
 30
0.0
 40
11.7812498230634
210
0.0
220
0.0
230
-1.0
100
AcDbArc
 50
66.22268392073879
 51
113.7773160792612
  0
LINE
  5
5D7A
330
74
100
AcDbEntity
  8
AM_0 ( Kontur 0.5 )
100
AcDbLine
 10
12036.05134403398
 20
-1432.431812088802
 30
0.0
 11
12036.05134403398
 21
-1430.399066448612
 31
0.0
  0
LINE
  5
5D7B
330
74
100
AcDbEntity
  8
AM_0 ( Kontur 0.5 )
100
AcDbLine
 10
12031.80134409781
 20
-1433.399066403552
 30
0.0
 11
12041.30134395513
 21
-1433.399066403552
 31
0.0
  0
LINE
  5
5D7C
330
74
100
AcDbEntity
  8
AM_0 ( Kontur 0.5 )
100
AcDbLine
 10
12031.80134409781
 20
-1433.399066403552
 30
0.0
 11
12031.80134409781
 21
-1431.399066433592
 31
0.0
  0
LINE
  5
5D7D
330
74
100
AcDbEntity
  8
AM_0 ( Kontur 0.5 )
100
AcDbLine
 10
12041.30134395513
 20
-1433.399066403552
 30
0.0
 11
12041.30134395513
 21
-1431.399066433592
 31
0.0
  0
LINE
  5
5D7E
330
74
100
AcDbEntity
  8
AM_0 ( Kontur 0.5 )
100
AcDbLine
 10
12041.55134395138
 20
-1433.399066403552
 30
0.0
 11
12031.55134410156
 21
-1433.399066403552
 31
0.0
  0
LINE
  5
5D7F
330
74
100
AcDbEntity
  8
AM_0 ( Kontur 0.5 )
100
AcDbLine
 10
12730.90133359838
 20
-1434.399066388532
 30
0.0
 11
12730.90133359838
 21
-1433.399066403552
 31
0.0
  0
LINE
  5
5D80
330
74
100
AcDbEntity
  8
AM_0 ( Kontur 0.5 )
100
AcDbLine
 10
12736.20133351878
 20
-1434.399066388532
 30
0.0
 11
12736.20133351878
 21
-1433.399066403552
 31
0.0
  0
LINE
  5
5D81
330
74
100
AcDbEntity
  8
AM_0 ( Kontur 0.5 )
100
AcDbLine
 10
12728.55133363367
 20
-1434.399066388532
 30
0.0
 11
12728.55133363367
 21
-1433.399066403552
 31
0.0
  0
LINE
  5
5D82
330
74
100
AcDbEntity
  8
AM_0 ( Kontur 0.5 )
100
AcDbLine
 10
12738.55133348349
 20
-1434.399066388532
 30
0.0
 11
12738.55133348349
 21
-1433.399066403552
 31
0.0
  0
LINE
  5
5D83
330
74
100
AcDbEntity
  8
AM_0 ( Kontur 0.5 )
100
AcDbLine
 10
12033.90134406627
 20
-1659.399063009372
 30
0.0
 11
12033.90134406627
 21
-1660.399062994352
 31
0.0
  0
LINE
  5
5D84
330
74
100
AcDbEntity
  8
AM_0 ( Kontur 0.5 )
100
AcDbLine
 10
12039.20134398667
 20
-1659.399063009372
 30
0.0
 11
12039.20134398667
 21
-1660.399062994352
 31
0.0
  0
LINE
  5
5D85
330
74
100
AcDbEntity
  8
AM_0 ( Kontur 0.5 )
100
AcDbLine
 10
12031.55134410156
 20
-1659.399063009372
 30
0.0
 11
12031.55134410156
 21
-1660.399062994352
 31
0.0
  0
LINE
  5
5D86
330
74
100
AcDbEntity
  8
AM_0 ( Kontur 0.5 )
100
AcDbLine
 10
12041.55134395138
 20
-1659.399063009372
 30
0.0
 11
12041.55134395138
 21
-1660.399062994352
 31
0.0
  0
LINE
  5
5D87
330
74
100
AcDbEntity
  8
AM_0 ( Kontur 0.5 )
100
AcDbLine
 10
12036.05134403398
 20
-1661.366317309112
 30
0.0
 11
12037.05134401896
 21
-1661.366317309112
 31
0.0
  0
LINE
  5
5D88
330
74
100
AcDbEntity
  8
AM_0 ( Kontur 0.5 )
100
AcDbLine
 10
12037.05134401896
 20
-1661.366317309112
 30
0.0
 11
12037.05134401896
 21
-1663.399062949302
 31
0.0
  0
ARC
  5
5D89
330
74
100
AcDbEntity
  8
AM_0 ( Kontur 0.5 )
100
AcDbCircle
 10
12036.55134402647
 20
-1651.617813126232
 30
0.0
 40
11.7812498230634
100
AcDbArc
 50
246.2226839207388
 51
293.7773160792612
  0
LINE
  5
5D8A
330
74
100
AcDbEntity
  8
AM_0 ( Kontur 0.5 )
100
AcDbLine
 10
12036.05134403398
 20
-1661.366317309112
 30
0.0
 11
12036.05134403398
 21
-1663.399062949302
 31
0.0
  0
LINE
  5
5D8B
330
74
100
AcDbEntity
  8
AM_0 ( Kontur 0.5 )
100
AcDbLine
 10
12031.80134409781
 20
-1660.399062994352
 30
0.0
 11
12041.30134395513
 21
-1660.399062994352
 31
0.0
  0
LINE
  5
5D8C
330
74
100
AcDbEntity
  8
AM_0 ( Kontur 0.5 )
100
AcDbLine
 10
12031.80134409781
 20
-1660.399062994352
 30
0.0
 11
12031.80134409781
 21
-1662.399062964322
 31
0.0
  0
LINE
  5
5D8D
330
74
100
AcDbEntity
  8
AM_0 ( Kontur 0.5 )
100
AcDbLine
 10
12041.30134395513
 20
-1660.399062994352
 30
0.0
 11
12041.30134395513
 21
-1662.399062964322
 31
0.0
  0
LINE
  5
5D8E
330
74
100
AcDbEntity
  8
AM_0 ( Kontur 0.5 )
100
AcDbLine
 10
12041.55134395138
 20
-1660.399062994352
 30
0.0
 11
12031.55134410156
 21
-1660.399062994352
 31
0.0
  0
LINE
  5
5D8F
330
74
100
AcDbEntity
  8
AM_0 ( Kontur 0.5 )
100
AcDbLine
 10
12770.27736108811
 20
-1639.151839950462
 30
0.0
 11
12765.65133307649
 21
-1639.151839950462
 31
0.0
  0
LINE
  5
5D90
330
74
100
AcDbEntity
  8
AM_0 ( Kontur 0.5 )
100
AcDbLine
 10
12770.27736108812
 20
-1631.646286789182
 30
0.0
 11
12765.65133307649
 21
-1631.646286789182
 31
0.0
  0
LINE
  5
5D91
330
74
100
AcDbEntity
  8
AM_0 ( Kontur 0.5 )
100
AcDbLine
 10
12770.27736108812
 20
-1627.893510208522
 30
0.0
 11
12765.65133307649
 21
-1627.893510208522
 31
0.0
  0
ARC
  5
5D92
330
74
100
AcDbEntity
  8
AM_0 ( Kontur 0.5 )
100
AcDbCircle
 10
12760.16633332361
 20
-1635.399063369822
 30
0.0
 40
10.7849995140768
100
AcDbArc
 50
339.6372502232605
 51
20.36274977678836
  0
ARC
  5
5D93
330
74
100
AcDbEntity
  8
AM_0 ( Kontur 0.5 )
100
AcDbCircle
 10
12768.00234498313
 20
-1629.769898498852
 30
0.0
 40
2.948988181389498
100
AcDbArc
 50
320.4848621641892
 51
39.51513783581079
  0
ARC
  5
5D94
330
74
100
AcDbEntity
  8
AM_0 ( Kontur 0.5 )
100
AcDbCircle
 10
12768.00234498313
 20
-1641.028228240793
 30
0.0
 40
2.948988181389498
100
AcDbArc
 50
320.4848621641892
 51
39.51513783581079
  0
LINE
  5
5D95
330
74
100
AcDbEntity
  8
AM_7 (Mittellinie)
100
AcDbLine
 10
12763.63981561227
 20
-1635.399063369822
 30
0.0
 11
12766.47249055984
 21
-1635.399063369822
 31
0.0
  0
LINE
  5
5D96
330
74
100
AcDbEntity
  8
AM_0 ( Kontur 0.5 )
100
AcDbLine
 10
12764.05133310051
 20
-1631.199063432902
 30
0.0
 11
12765.65133307649
 21
-1631.199063432902
 31
0.0
  0
LINE
  5
5D97
330
74
100
AcDbEntity
  8
AM_0 ( Kontur 0.5 )
100
AcDbLine
 10
12764.05133310051
 20
-1639.599063306752
 30
0.0
 11
12765.65133307649
 21
-1639.599063306752
 31
0.0
  0
LINE
  5
5D98
330
74
100
AcDbEntity
  8
AM_0 ( Kontur 0.5 )
100
AcDbLine
 10
11995.47134464343
 20
-1624.458786681532
 30
0.0
 11
11995.47134464343
 21
-1654.458786230983
 31
0.0
  0
ARC
  5
5D99
330
74
100
AcDbEntity
  8
AM_0 ( Kontur 0.5 )
100
AcDbCircle
 10
-12003.05134452959
 20
-1662.399062964322
 30
0.0
 40
2.99999995494452
210
0.0
220
0.0
230
-1.0
100
AcDbArc
 50
180.0
 51
270.0
  0
LINE
  5
5D9A
330
74
100
AcDbEntity
  8
AM_0 ( Kontur 0.5 )
100
AcDbLine
 10
11994.55134465724
 20
-1625.378786667712
 30
0.0
 11
11995.47134464343
 21
-1624.458786681532
 31
0.0
  0
LINE
  5
5D9B
330
74
100
AcDbEntity
  8
AM_0 ( Kontur 0.5 )
100
AcDbLine
 10
11994.55134465724
 20
-1653.538786244792
 30
0.0
 11
11995.47134464343
 21
-1654.458786230983
 31
0.0
  0
LINE
  5
5D9C
330
74
100
AcDbEntity
  8
AM_0 ( Kontur 0.5 )
100
AcDbLine
 10
11994.55134465724
 20
-1625.378786667712
 30
0.0
 11
11994.55134465724
 21
-1653.538786244792
 31
0.0
  0
LINE
  5
5D9D
102
{ACAD_REACTORS
330
69FB
102
}
330
74
100
AcDbEntity
  8
AM_0 ( Kontur 0.5 )
100
AcDbLine
 10
12010.05134442446
 20
-1458.899066140742
 30
0.0
 11
12010.05134442446
 21
-1432.399066418572
 31
0.0
  0
LINE
  5
5D9E
330
74
100
AcDbEntity
  8
AM_0 ( Kontur 0.5 )
100
AcDbLine
 10
12770.27736108812
 20
-1642.904616531112
 30
0.0
 11
12765.65133307649
 21
-1642.904616531112
 31
0.0
  0
LINE
  5
5D9F
330
74
100
AcDbEntity
  8
AM_0 ( Kontur 0.5 )
100
AcDbLine
 10
12764.05133310051
 20
-1643.899063242163
 30
0.0
 11
12765.65133307649
 21
-1643.899063242163
 31
0.0
  0
LINE
  5
5DA0
330
74
100
AcDbEntity
  8
AM_0 ( Kontur 0.5 )
100
AcDbLine
 10
12770.95133283769
 20
-1641.029616651072
 30
0.0
 11
12770.95133283769
 21
-1629.768510064283
 31
0.0
  0
LINE
  5
5DA1
330
74
100
AcDbEntity
  8
AM_0 ( Kontur 0.5 )
100
AcDbLine
 10
12764.05133310051
 20
-1626.899063497472
 30
0.0
 11
12765.65133307649
 21
-1626.899063497472
 31
0.0
  0
LINE
  5
5DA2
330
74
100
AcDbEntity
  8
AM_0 ( Kontur 0.5 )
100
AcDbLine
 10
12765.65133307649
 20
-1643.899063242163
 30
0.0
 11
12765.65133307649
 21
-1626.899063497472
 31
0.0
  0
LINE
  5
5DA3
330
74
100
AcDbEntity
  8
AM_0 ( Kontur 0.5 )
100
AcDbLine
 10
12804.05133249977
 20
-1669.399062859192
 30
0.0
 11
12804.05133249977
 21
-1665.399062919262
 31
0.0
  0
ARC
  5
5DA4
330
74
100
AcDbEntity
  8
AM_0 ( Kontur 0.5 )
100
AcDbCircle
 10
12767.05133305546
 20
-1662.399062964322
 30
0.0
 40
6.999999894870548
100
AcDbArc
 50
180.0
 51
270.0
  0
LINE
  5
5DA5
330
74
100
AcDbEntity
  8
AM_0 ( Kontur 0.5 )
100
AcDbLine
 10
12767.05133305546
 20
-1665.399062919262
 30
0.0
 11
12804.05133249977
 21
-1665.399062919262
 31
0.0
  0
LINE
  5
5DA6
330
74
100
AcDbEntity
  8
AM_0 ( Kontur 0.5 )
100
AcDbLine
 10
12767.05133305546
 20
-1669.399062859192
 30
0.0
 11
12804.05133249977
 21
-1669.399062859192
 31
0.0
  0
LINE
  5
5DA7
330
74
100
AcDbEntity
  8
AM_0 ( Kontur 0.5 )
100
AcDbLine
 10
12764.05133310051
 20
-1662.399062964322
 30
0.0
 11
12764.05133310051
 21
-1432.399066418572
 31
0.0
  0
LINE
  5
5DA8
330
74
100
AcDbEntity
  8
AM_7 (Mittellinie)
100
AcDbLine
 10
12036.55134402647
 20
-1438.624370140543
 30
0.0
 11
12036.55134402647
 21
-1426.949239404122
 31
0.0
  0
LINE
  5
5DA9
330
74
100
AcDbEntity
  8
AM_0 ( Kontur 0.5 )
100
AcDbLine
 10
12006.05134448453
 20
-1471.399065832852
 30
0.0
 11
12004.45134450856
 21
-1471.399065832852
 31
0.0
  0
LINE
  5
5DAA
330
74
100
AcDbEntity
  8
AM_0 ( Kontur 0.5 )
100
AcDbLine
 10
12006.05134448453
 20
-1454.399066088162
 30
0.0
 11
12004.45134450856
 21
-1454.399066088162
 31
0.0
  0
LINE
  5
5DAB
330
74
100
AcDbEntity
  8
AM_0 ( Kontur 0.5 )
100
AcDbLine
 10
12006.05134448453
 20
-1467.099065897433
 30
0.0
 11
12004.45134450856
 21
-1467.099065897433
 31
0.0
  0
LINE
  5
5DAC
330
74
100
AcDbEntity
  8
AM_0 ( Kontur 0.5 )
100
AcDbLine
 10
12006.05134448453
 20
-1458.699066023592
 30
0.0
 11
12004.45134450856
 21
-1458.699066023592
 31
0.0
  0
LINE
  5
5DAD
330
74
100
AcDbEntity
  8
AM_7 (Mittellinie)
100
AcDbLine
 10
12006.46286197278
 20
-1462.899065960512
 30
0.0
 11
12003.6301870252
 21
-1462.899065960512
 31
0.0
  0
ARC
  5
5DAE
330
74
100
AcDbEntity
  8
AM_0 ( Kontur 0.5 )
100
AcDbCircle
 10
12002.10033260192
 20
-1457.269901089532
 30
0.0
 40
2.948988181389498
100
AcDbArc
 50
140.4848621641892
 51
219.5151378358108
  0
ARC
  5
5DAF
330
74
100
AcDbEntity
  8
AM_0 ( Kontur 0.5 )
100
AcDbCircle
 10
12002.10033260192
 20
-1468.528230831483
 30
0.0
 40
2.948988181389498
100
AcDbArc
 50
140.4848621641892
 51
219.5151378358108
  0
ARC
  5
5DB0
330
74
100
AcDbEntity
  8
AM_0 ( Kontur 0.5 )
100
AcDbCircle
 10
12009.93634426144
 20
-1462.899065960512
 30
0.0
 40
10.7849995140768
100
AcDbArc
 50
159.6372502232605
 51
200.3627497767884
  0
LINE
  5
5DB1
330
74
100
AcDbEntity
  8
AM_0 ( Kontur 0.5 )
100
AcDbLine
 10
11999.82531649693
 20
-1470.404619121802
 30
0.0
 11
12004.45134450856
 21
-1470.404619121802
 31
0.0
  0
LINE
  5
5DB2
330
74
100
AcDbEntity
  8
AM_0 ( Kontur 0.5 )
100
AcDbLine
 10
11999.82531649693
 20
-1466.651842541152
 30
0.0
 11
12004.45134450856
 21
-1466.651842541152
 31
0.0
  0
LINE
  5
5DB3
330
74
100
AcDbEntity
  8
AM_0 ( Kontur 0.5 )
100
AcDbLine
 10
12736.20133351878
 20
-1659.399063009372
 30
0.0
 11
12736.20133351878
 21
-1660.399062994352
 31
0.0
  0
LINE
  5
5DB4
330
74
100
AcDbEntity
  8
AM_0 ( Kontur 0.5 )
100
AcDbLine
 10
12760.05133316059
 20
-1454.399066208322
 30
0.0
 11
12760.05133316059
 21
-1432.399066418572
 31
0.0
  0
ARC
  5
5DB5
330
74
100
AcDbEntity
  8
AM_0 ( Kontur 0.5 )
100
AcDbCircle
 10
12767.05133305546
 20
-1662.399062964322
 30
0.0
 40
2.99999995494452
100
AcDbArc
 50
180.0
 51
270.0
  0
LINE
  5
5DB6
330
74
100
AcDbEntity
  8
AM_0 ( Kontur 0.5 )
100
AcDbLine
 10
12734.05133355107
 20
-1661.366317309112
 30
0.0
 11
12734.05133355107
 21
-1663.399062949302
 31
0.0
  0
LINE
  5
5DB7
330
74
100
AcDbEntity
  8
AM_0 ( Kontur 0.5 )
100
AcDbLine
 10
12006.05134448453
 20
-1622.399063565062
 30
0.0
 11
12004.45134450856
 21
-1622.399063565062
 31
0.0
  0
LINE
  5
5DB8
330
74
100
AcDbEntity
  8
AM_0 ( Kontur 0.5 )
100
AcDbLine
 10
12006.05134448453
 20
-1639.399063309743
 30
0.0
 11
12004.45134450856
 21
-1639.399063309743
 31
0.0
  0
LINE
  5
5DB9
330
74
100
AcDbEntity
  8
AM_0 ( Kontur 0.5 )
100
AcDbLine
 10
12006.05134448453
 20
-1626.699063500492
 30
0.0
 11
12004.45134450856
 21
-1626.699063500492
 31
0.0
  0
LINE
  5
5DBA
330
74
100
AcDbEntity
  8
AM_0 ( Kontur 0.5 )
100
AcDbLine
 10
12006.05134448453
 20
-1635.099063374333
 30
0.0
 11
12004.45134450856
 21
-1635.099063374333
 31
0.0
  0
LINE
  5
5DBB
330
74
100
AcDbEntity
  8
AM_7 (Mittellinie)
100
AcDbLine
 10
12006.46286197278
 20
-1630.899063437402
 30
0.0
 11
12003.6301870252
 21
-1630.899063437402
 31
0.0
  0
ARC
  5
5DBC
330
74
100
AcDbEntity
  8
AM_0 ( Kontur 0.5 )
100
AcDbCircle
 10
-12002.10033260192
 20
-1636.528228308382
 30
0.0
 40
2.948988181389498
210
0.0
220
0.0
230
-1.0
100
AcDbArc
 50
320.4848621641892
 51
39.51513783581079
  0
ARC
  5
5DBD
330
74
100
AcDbEntity
  8
AM_0 ( Kontur 0.5 )
100
AcDbCircle
 10
-12002.10033260192
 20
-1625.269898566433
 30
0.0
 40
2.948988181389498
210
0.0
220
0.0
230
-1.0
100
AcDbArc
 50
320.4848621641892
 51
39.51513783581079
  0
ARC
  5
5DBE
330
74
100
AcDbEntity
  8
AM_0 ( Kontur 0.5 )
100
AcDbCircle
 10
-12009.93634426144
 20
-1630.899063437402
 30
0.0
 40
10.7849995140768
210
0.0
220
0.0
230
-1.0
100
AcDbArc
 50
339.6372502232605
 51
20.36274977678836
  0
LINE
  5
5DBF
330
74
100
AcDbEntity
  8
AM_0 ( Kontur 0.5 )
100
AcDbLine
 10
11999.82531649693
 20
-1623.393510276102
 30
0.0
 11
12004.45134450856
 21
-1623.393510276102
 31
0.0
  0
LINE
  5
5DC0
330
74
100
AcDbEntity
  8
AM_0 ( Kontur 0.5 )
100
AcDbLine
 10
11999.82531649693
 20
-1627.146286856762
 30
0.0
 11
12004.45134450856
 21
-1627.146286856762
 31
0.0
  0
LINE
  5
5DC1
330
74
100
AcDbEntity
  8
AM_0 ( Kontur 0.5 )
100
AcDbLine
 10
11999.82531649694
 20
-1634.651840018052
 30
0.0
 11
12004.45134450856
 21
-1634.651840018052
 31
0.0
  0
LINE
  5
5DC2
330
74
100
AcDbEntity
  8
AM_0 ( Kontur 0.5 )
100
AcDbLine
 10
11999.82531649693
 20
-1638.404616598702
 30
0.0
 11
12004.45134450856
 21
-1638.404616598702
 31
0.0
  0
LINE
  5
5DC3
330
74
100
AcDbEntity
  8
AM_0 ( Kontur 0.5 )
100
AcDbLine
 10
11999.15134474736
 20
-1636.529616718652
 30
0.0
 11
11999.15134474736
 21
-1625.268510131862
 31
0.0
  0
LINE
  5
5DC4
330
74
100
AcDbEntity
  8
AM_0 ( Kontur 0.5 )
100
AcDbLine
 10
12004.45134450856
 20
-1622.399063565062
 30
0.0
 11
12004.45134450856
 21
-1639.399063309743
 31
0.0
  0
LINE
  5
5DC5
330
74
100
AcDbEntity
  8
AM_0 ( Kontur 0.5 )
100
AcDbLine
 10
12738.30133348724
 20
-1660.399062994352
 30
0.0
 11
12728.80133362992
 21
-1660.399062994352
 31
0.0
  0
LINE
  5
5DC6
330
74
100
AcDbEntity
  8
AM_3 ( Verdeckt )
100
AcDbLine
 10
12781.55133283769
 20
-1669.399062859192
 30
0.0
 11
12781.55133283769
 21
-1665.399062919262
 31
0.0
  0
LINE
  5
5DC7
330
74
100
AcDbEntity
  8
AM_7 (Mittellinie)
100
AcDbLine
 10
12733.55133355858
 20
-1427.237009920633
 30
0.0
 11
12733.55133355858
 21
-1440.093159570202
 31
0.0
  0
ARC
  5
5DC8
330
74
100
AcDbEntity
  8
AM_0 ( Kontur 0.5 )
100
AcDbCircle
 10
-12733.55133355858
 20
-1651.617813126232
 30
0.0
 40
11.7812498230634
210
0.0
220
0.0
230
-1.0
100
AcDbArc
 50
246.2226839207388
 51
293.7773160792612
  0
LINE
  5
5DC9
330
74
100
AcDbEntity
  8
AM_7 (Mittellinie)
100
AcDbLine
 10
12036.55134402647
 20
-1655.736160431993
 30
0.0
 11
12036.55134402647
 21
-1676.758085152973
 31
0.0
  0
LINE
  5
5DCA
330
74
100
AcDbEntity
  8
AM_0 ( Kontur 0.5 )
100
AcDbLine
 10
11999.15134474736
 20
-1624.458786681532
 30
0.0
 11
11995.47134464343
 21
-1624.458786681532
 31
0.0
  0
LINE
  5
5DCB
330
74
100
AcDbEntity
  8
Linie 0_15
100
AcDbLine
 10
11999.15134474736
 20
-1625.378786667712
 30
0.0
 11
11994.55134465724
 21
-1625.378786667712
 31
0.0
  0
LINE
  5
5DCC
330
74
100
AcDbEntity
  8
Linie 0_15
100
AcDbLine
 10
12000.55134456713
 20
-1653.538786244792
 30
0.0
 11
11994.55134465724
 21
-1653.538786244792
 31
0.0
  0
LINE
  5
5DCD
330
74
100
AcDbEntity
  8
AM_0 ( Kontur 0.5 )
100
AcDbLine
 10
11999.63134458095
 20
-1654.458786230983
 30
0.0
 11
11995.47134464343
 21
-1654.458786230983
 31
0.0
  0
LINE
  5
5DCE
330
74
100
AcDbEntity
  8
AM_0 ( Kontur 0.5 )
100
AcDbLine
 10
12000.55134456713
 20
-1653.538786244792
 30
0.0
 11
11999.63134458095
 21
-1654.458786230983
 31
0.0
  0
LINE
  5
5DCF
330
74
100
AcDbEntity
  8
AM_0 ( Kontur 0.5 )
100
AcDbLine
 10
12002.5513445371
 20
-1653.538786244792
 30
0.0
 11
12000.55134456713
 21
-1653.538786244792
 31
0.0
  0
LINE
  5
5DD0
330
74
100
AcDbEntity
  8
AM_0 ( Kontur 0.5 )
100
AcDbLine
 10
12000.55134456713
 20
-1653.538786244792
 30
0.0
 11
12000.55134456713
 21
-1638.404616598702
 31
0.0
  0
LINE
  5
5DD1
330
74
100
AcDbEntity
  8
AM_0 ( Kontur 0.5 )
100
AcDbLine
 10
12760.05133316059
 20
-1662.399062964322
 30
0.0
 11
12760.05133316059
 21
-1639.399063189593
 31
0.0
  0
LINE
  5
5DD2
330
74
100
AcDbEntity
  8
AM_0 ( Kontur 0.5 )
100
AcDbLine
 10
12006.05134448453
 20
-1655.458786215962
 30
0.0
 11
12002.5513445371
 21
-1655.458786215962
 31
0.0
  0
LINE
  5
5DD3
330
74
100
AcDbEntity
  8
AM_7 (Mittellinie)
100
AcDbLine
 10
12754.31738552531
 20
-1635.399063369822
 30
0.0
 11
12786.43330112065
 21
-1635.399063369822
 31
0.0
  0
LINE
  5
5DD4
330
74
100
AcDbEntity
  8
AM_7 (Mittellinie)
100
AcDbLine
 10
12754.90455209137
 20
-1458.399066028092
 30
0.0
 11
12778.63449724956
 21
-1458.399066028092
 31
0.0
  0
LINE
  5
5DD5
330
74
100
AcDbEntity
  8
AM_0 ( Kontur 0.5 )
100
AcDbLine
 10
12733.05133356609
 20
-1661.366317309112
 30
0.0
 11
12733.05133356609
 21
-1663.399062949302
 31
0.0
  0
LINE
  5
5DD6
330
74
100
AcDbEntity
  8
AM_0 ( Kontur 0.5 )
100
AcDbLine
 10
12734.05133355107
 20
-1432.431812088802
 30
0.0
 11
12733.05133356609
 21
-1432.431812088802
 31
0.0
  0
LINE
  5
5DD7
330
74
100
AcDbEntity
  8
AM_0 ( Kontur 0.5 )
100
AcDbLine
 10
12733.05133356609
 20
-1432.431812088802
 30
0.0
 11
12733.05133356609
 21
-1430.399066448612
 31
0.0
  0
ARC
  5
5DD8
330
74
100
AcDbEntity
  8
AM_0 ( Kontur 0.5 )
100
AcDbCircle
 10
12733.55133355858
 20
-1442.180316271672
 30
0.0
 40
11.7812498230634
100
AcDbArc
 50
66.22268392073879
 51
113.7773160792612
  0
LINE
  5
5DD9
330
74
100
AcDbEntity
  8
AM_0 ( Kontur 0.5 )
100
AcDbLine
 10
12734.05133355107
 20
-1432.431812088802
 30
0.0
 11
12734.05133355107
 21
-1430.399066448612
 31
0.0
  0
LINE
  5
5DDA
330
74
100
AcDbEntity
  8
AM_0 ( Kontur 0.5 )
100
AcDbLine
 10
12738.30133348724
 20
-1433.399066403552
 30
0.0
 11
12728.80133362992
 21
-1433.399066403552
 31
0.0
  0
LINE
  5
5DDB
330
74
100
AcDbEntity
  8
AM_0 ( Kontur 0.5 )
100
AcDbLine
 10
12738.30133348724
 20
-1433.399066403552
 30
0.0
 11
12738.30133348724
 21
-1431.399066433592
 31
0.0
  0
LINE
  5
5DDC
330
74
100
AcDbEntity
  8
AM_0 ( Kontur 0.5 )
100
AcDbLine
 10
12728.80133362992
 20
-1433.399066403552
 30
0.0
 11
12728.80133362992
 21
-1431.399066433592
 31
0.0
  0
LINE
  5
5DDD
330
74
100
AcDbEntity
  8
AM_0 ( Kontur 0.5 )
100
AcDbLine
 10
12728.55133363367
 20
-1433.399066403552
 30
0.0
 11
12738.55133348349
 21
-1433.399066403552
 31
0.0
  0
LINE
  5
5DDE
330
74
100
AcDbEntity
  8
AM_0 ( Kontur 0.5 )
100
AcDbLine
 10
12002.5513445371
 20
-1638.404616598702
 30
0.0
 11
12002.5513445371
 21
-1655.458786215962
 31
0.0
  0
LINE
  5
5DDF
330
74
100
AcDbEntity
  8
AM_0 ( Kontur 0.5 )
100
AcDbLine
 10
12764.05133310051
 20
-1449.899066155752
 30
0.0
 11
12765.65133307649
 21
-1449.899066155752
 31
0.0
  0
LINE
  5
5DE0
330
74
100
AcDbEntity
  8
AM_0 ( Kontur 0.5 )
100
AcDbLine
 10
12764.05133310051
 20
-1466.899065900433
 30
0.0
 11
12765.65133307649
 21
-1466.899065900433
 31
0.0
  0
LINE
  5
5DE1
330
74
100
AcDbEntity
  8
AM_0 ( Kontur 0.5 )
100
AcDbLine
 10
12764.05133310051
 20
-1454.199066091182
 30
0.0
 11
12765.65133307649
 21
-1454.199066091182
 31
0.0
  0
LINE
  5
5DE2
330
74
100
AcDbEntity
  8
AM_0 ( Kontur 0.5 )
100
AcDbLine
 10
12764.05133310051
 20
-1462.599065965012
 30
0.0
 11
12765.65133307649
 21
-1462.599065965012
 31
0.0
  0
LINE
  5
5DE3
330
74
100
AcDbEntity
  8
AM_7 (Mittellinie)
100
AcDbLine
 10
12763.63981561227
 20
-1458.399066028092
 30
0.0
 11
12766.47249055984
 21
-1458.399066028092
 31
0.0
  0
ARC
  5
5DE4
330
74
100
AcDbEntity
  8
AM_0 ( Kontur 0.5 )
100
AcDbCircle
 10
-12768.00234498313
 20
-1452.769901157112
 30
0.0
 40
2.948988181389498
210
0.0
220
0.0
230
-1.0
100
AcDbArc
 50
140.4848621641892
 51
219.5151378358108
  0
ARC
  5
5DE5
330
74
100
AcDbEntity
  8
AM_0 ( Kontur 0.5 )
100
AcDbCircle
 10
-12768.00234498313
 20
-1464.028230899073
 30
0.0
 40
2.948988181389498
210
0.0
220
0.0
230
-1.0
100
AcDbArc
 50
140.4848621641892
 51
219.5151378358108
  0
ARC
  5
5DE6
330
74
100
AcDbEntity
  8
AM_0 ( Kontur 0.5 )
100
AcDbCircle
 10
-12760.16633332361
 20
-1458.399066028092
 30
0.0
 40
10.7849995140768
210
0.0
220
0.0
230
-1.0
100
AcDbArc
 50
159.6372502232605
 51
200.3627497767884
  0
LINE
  5
5DE7
330
74
100
AcDbEntity
  8
AM_0 ( Kontur 0.5 )
100
AcDbLine
 10
12770.27736108812
 20
-1465.904619189393
 30
0.0
 11
12765.65133307649
 21
-1465.904619189393
 31
0.0
  0
LINE
  5
5DE8
330
74
100
AcDbEntity
  8
AM_0 ( Kontur 0.5 )
100
AcDbLine
 10
12770.27736108812
 20
-1462.151842608742
 30
0.0
 11
12765.65133307649
 21
-1462.151842608742
 31
0.0
  0
LINE
  5
5DE9
330
74
100
AcDbEntity
  8
AM_0 ( Kontur 0.5 )
100
AcDbLine
 10
12770.27736108811
 20
-1454.646289447442
 30
0.0
 11
12765.65133307649
 21
-1454.646289447442
 31
0.0
  0
LINE
  5
5DEA
330
74
100
AcDbEntity
  8
AM_0 ( Kontur 0.5 )
100
AcDbLine
 10
12770.27736108812
 20
-1450.893512866793
 30
0.0
 11
12765.65133307649
 21
-1450.893512866793
 31
0.0
  0
LINE
  5
5DEB
330
74
100
AcDbEntity
  8
AM_0 ( Kontur 0.5 )
100
AcDbLine
 10
12770.95133283769
 20
-1452.768512746833
 30
0.0
 11
12770.95133283769
 21
-1464.029619333622
 31
0.0
  0
LINE
  5
5DEC
330
74
100
AcDbEntity
  8
AM_0 ( Kontur 0.5 )
100
AcDbLine
 10
12765.65133307649
 20
-1449.899066155752
 30
0.0
 11
12765.65133307649
 21
-1466.899065900433
 31
0.0
  0
LINE
  5
5DED
330
74
100
AcDbEntity
  8
AM_0 ( Kontur 0.5 )
100
AcDbLine
 10
12010.05134442446
 20
-1661.399062979332
 30
0.0
 11
12006.05134448453
 21
-1661.399062979332
 31
0.0
  0
LINE
  5
5DEE
102
{ACAD_REACTORS
330
7514
102
}
330
74
100
AcDbEntity
  8
AM_0 ( Kontur 0.5 )
100
AcDbLine
 10
12010.05134442446
 20
-1432.399066418572
 30
0.0
 11
12006.05134448453
 21
-1432.399066418572
 31
0.0
  0
LINE
  5
5DEF
330
74
100
AcDbEntity
  8
AM_0 ( Kontur 0.5 )
100
AcDbLine
 10
12010.05134442446
 20
-1659.399063009372
 30
0.0
 11
12010.05134442446
 21
-1634.899063257172
 31
0.0
  0
LINE
  5
5DF0
330
74
100
AcDbEntity
  8
AM_0 ( Kontur 0.5 )
100
AcDbLine
 10
12728.55133363367
 20
-1659.399063009372
 30
0.0
 11
12728.55133363367
 21
-1660.399062994352
 31
0.0
  0
LINE
  5
5DF1
330
74
100
AcDbEntity
  8
AM_0 ( Kontur 0.5 )
100
AcDbLine
 10
12760.05133316059
 20
-1661.399062979332
 30
0.0
 11
12764.05133310051
 21
-1661.399062979332
 31
0.0
  0
LINE
  5
5DF2
102
{ACAD_REACTORS
330
69FB
102
}
330
74
100
AcDbEntity
  8
AM_0 ( Kontur 0.5 )
100
AcDbLine
 10
12760.05133316059
 20
-1659.399063009372
 30
0.0
 11
12760.05133316059
 21
-1639.399063189593
 31
0.0
  0
LINE
  5
5DF3
330
74
100
AcDbEntity
  8
AM_3 ( Verdeckt )
100
AcDbLine
 10
11988.55134474736
 20
-1669.399062859192
 30
0.0
 11
11988.55134474736
 21
-1665.399062919262
 31
0.0
  0
LINE
  5
5DF4
330
74
100
AcDbEntity
  8
AM_0 ( Kontur 0.5 )
100
AcDbLine
 10
12738.55133348349
 20
-1659.399063009372
 30
0.0
 11
12738.55133348349
 21
-1660.399062994352
 31
0.0
  0
LINE
  5
5DF5
330
74
100
AcDbEntity
  8
AM_7 (Mittellinie)
100
AcDbLine
 10
12787.05133275509
 20
-1675.098835478332
 30
0.0
 11
12787.05133275509
 21
-1661.406284328313
 31
0.0
  0
LINE
  5
5DF6
330
74
100
AcDbEntity
  8
AM_3 ( Verdeckt )
100
AcDbLine
 10
12792.55133267249
 20
-1669.399062859192
 30
0.0
 11
12792.55133267249
 21
-1665.399062919262
 31
0.0
  0
LINE
  5
5DF7
102
{ACAD_REACTORS
330
7539
102
}
330
74
100
AcDbEntity
  8
AM_0 ( Kontur 0.5 )
100
AcDbLine
 10
12760.05133316059
 20
-1432.399066418572
 30
0.0
 11
12764.05133310051
 21
-1432.399066418572
 31
0.0
  0
ARC
  5
5DF8
330
74
100
AcDbEntity
  8
AM_0 ( Kontur 0.5 )
100
AcDbCircle
 10
13127.0513276488
 20
-1510.899065239622
 30
0.0
 40
9.99999984981507
100
AcDbArc
 50
0.0
 51
90.0
  0
LINE
  5
5DF9
330
74
100
AcDbEntity
  8
AM_0 ( Kontur 0.5 )
100
AcDbLine
 10
12730.90133359838
 20
-1659.399063009372
 30
0.0
 11
12730.90133359838
 21
-1660.399062994352
 31
0.0
  0
LINE
  5
5DFA
330
74
100
AcDbEntity
  8
AM_0 ( Kontur 0.5 )
100
AcDbLine
 10
12728.80133362992
 20
-1660.399062994352
 30
0.0
 11
12728.80133362992
 21
-1662.399062964322
 31
0.0
  0
LINE
  5
5DFB
330
74
100
AcDbEntity
  8
AM_0 ( Kontur 0.5 )
100
AcDbLine
 10
12738.30133348724
 20
-1660.399062994352
 30
0.0
 11
12738.30133348724
 21
-1662.399062964322
 31
0.0
  0
LINE
  5
5DFC
330
74
100
AcDbEntity
  8
AM_0 ( Kontur 0.5 )
100
AcDbLine
 10
12734.05133355107
 20
-1661.366317309112
 30
0.0
 11
12733.05133356609
 21
-1661.366317309112
 31
0.0
  0
LINE
  5
5DFD
330
74
100
AcDbEntity
  8
AM_7 (Mittellinie)
100
AcDbLine
 10
12733.55133355858
 20
-1671.432727237673
 30
0.0
 11
12733.55133355858
 21
-1655.603701628562
 31
0.0
  0
LINE
  5
5DFE
102
{ACAD_REACTORS
330
70F8
102
}
330
74
100
AcDbEntity
  8
AM_3 ( Verdeckt )
100
AcDbLine
 10
11926.05134568601
 20
-1502.449065366532
 30
0.0
 11
12006.05134448453
 21
-1502.449065366532
 31
0.0
  0
ARC
  5
5DFF
330
74
100
AcDbEntity
  8
AM_0 ( Kontur 0.5 )
100
AcDbCircle
 10
11936.05134553583
 20
-1602.399063865433
 30
0.0
 40
9.99999984981507
100
AcDbArc
 50
180.0
 51
270.0
  0
LINE
  5
5E01
330
74
100
AcDbEntity
  8
AM_7 (Mittellinie)
100
AcDbLine
 10
13340.59989350947
 20
-1546.899064698952
 30
0.0
 11
13452.08688850318
 21
-1546.899064698952
 31
0.0
  0
ARC
  5
5E02
330
74
100
AcDbEntity
  8
Linie 0_15
100
AcDbCircle
 10
13396.59018259602
 20
-1546.899064698952
 30
0.0
 40
44.449999332428
100
AcDbArc
 50
82.87055096108314
 51
347.8107371535767
  0
LINE
  5
5E03
330
74
100
AcDbEntity
  8
AM_0 ( Kontur 0.5 )
100
AcDbLine
 10
13471.09018147714
 20
-1669.399062859193
 30
0.0
 11
13471.09018147714
 21
-1663.884344316252
 31
0.0
  0
ARC
  5
5E04
330
74
100
AcDbEntity
  8
AM_7 (Mittellinie)
100
AcDbCircle
 10
-13396.59018259602
 20
-1546.899064698952
 30
0.0
 40
98.49999852068121
210
0.0
220
0.0
230
-1.0
100
AcDbArc
 50
281.6169278180924
 51
297.4504802963598
  0
ARC
  5
5E05
330
74
100
AcDbEntity
  8
AM_7 (Mittellinie)
100
AcDbCircle
 10
13396.59018259602
 20
-1546.899064698952
 30
0.0
 40
98.49999852068121
100
AcDbArc
 50
281.6169278180924
 51
297.4504802963598
  0
ARC
  5
5E06
330
74
100
AcDbEntity
  8
AM_0 ( Kontur 0.5 )
100
AcDbCircle
 10
-13465.09018156726
 20
-1663.884344316252
 30
0.0
 40
5.99999990988904
210
0.0
220
0.0
230
-1.0
100
AcDbArc
 50
135.0000000000092
 51
180.0
  0
LINE
  5
5E07
330
74
100
AcDbEntity
  8
AM_0 ( Kontur 0.5 )
100
AcDbLine
 10
13511.0901808764
 20
-1669.399062859193
 30
0.0
 11
13511.0901808764
 21
-1546.899064698952
 31
0.0
  0
LINE
  5
5E08
330
74
100
AcDbEntity
  8
AM_0 ( Kontur 0.5 )
100
AcDbLine
 10
13502.59018100407
 20
-1622.399063565052
 30
0.0
 11
13507.59018092897
 21
-1622.399063565052
 31
0.0
  0
ARC
  5
5E09
330
74
100
AcDbEntity
  8
AM_0 ( Kontur 0.5 )
100
AcDbCircle
 10
13339.14794566448
 20
-1652.826582276563
 30
0.0
 40
5.99999990988904
100
AcDbArc
 50
61.52996600820031
 51
135.0000000000092
  0
ARC
  5
5E0A
330
74
100
AcDbEntity
  8
AM_0 ( Kontur 0.5 )
100
AcDbCircle
 10
13396.59018259602
 20
-1546.899064698952
 30
0.0
 40
114.499998280383
100
AcDbArc
 50
266.233832228193
 51
270.0
  0
CIRCLE
  5
5E0B
330
74
100
AcDbEntity
  8
AM_3 ( Verdeckt )
100
AcDbCircle
 10
13430.27916620765
 20
-1639.458786456253
 30
0.0
 40
12.4999998122688
  0
LINE
  5
5E0C
330
74
100
AcDbEntity
  8
AM_0 ( Kontur 0.5 )
100
AcDbLine
 10
13469.33282219066
 20
-1659.641703692852
 30
0.0
 11
13458.27506015099
 21
-1648.583941653163
 31
0.0
  0
ARC
  5
5E0D
330
74
100
AcDbEntity
  8
AM_0 ( Kontur 0.5 )
100
AcDbCircle
 10
-13454.03241952758
 20
-1652.826582276563
 30
0.0
 40
5.99999990988904
210
0.0
220
0.0
230
-1.0
100
AcDbArc
 50
61.52996600820031
 51
135.0000000000092
  0
LINE
  5
5E0E
330
74
100
AcDbEntity
  8
AM_0 ( Kontur 0.5 )
100
AcDbLine
 10
13323.84754300139
 20
-1659.641703692852
 30
0.0
 11
13334.90530504108
 21
-1648.583941653163
 31
0.0
  0
LINE
  5
5E0F
330
74
100
AcDbEntity
  8
AM_0 ( Kontur 0.5 )
100
AcDbLine
 10
13282.09018431564
 20
-1665.399062919262
 30
0.0
 11
13322.0901837149
 21
-1665.399062919262
 31
0.0
  0
ARC
  5
5E10
330
74
100
AcDbEntity
  8
AM_0 ( Kontur 0.5 )
100
AcDbCircle
 10
-13368.29025600092
 20
-1656.814321909982
 30
0.0
 40
0.999999984981507
210
0.0
220
0.0
230
-1.0
100
AcDbArc
 50
284.4383752766755
 51
19.99999999998031
  0
CIRCLE
  5
5E11
330
74
100
AcDbEntity
  8
AM_0 ( Kontur 0.5 )
100
AcDbCircle
 10
-13362.9011989844
 20
-1639.458786456253
 30
0.0
 40
14.9999997747226
210
0.0
220
0.0
230
-1.0
  0
ARC
  5
5E12
330
74
100
AcDbEntity
  8
AM_0 ( Kontur 0.5 )
100
AcDbCircle
 10
13396.59018259602
 20
-1546.899064698952
 30
0.0
 40
114.499998280383
100
AcDbArc
 50
295.5616242734782
 51
298.4700339917996
  0
LINE
  5
5E13
330
74
100
AcDbEntity
  8
AM_3 ( Verdeckt )
100
AcDbLine
 10
13296.59018409788
 20
-1669.399062859193
 30
0.0
 11
13296.59018409788
 21
-1665.399062919262
 31
0.0
  0
CIRCLE
  5
5E14
330
74
100
AcDbEntity
  8
AM_0 ( Kontur 0.5 )
100
AcDbCircle
 10
-13362.9011989844
 20
-1639.458786456253
 30
0.0
 40
12.9999998047596
210
0.0
220
0.0
230
-1.0
  0
CIRCLE
  5
5E15
330
74
100
AcDbEntity
  8
AM_0 ( Kontur 0.5 )
100
AcDbCircle
 10
13430.27916620765
 20
-1639.458786456253
 30
0.0
 40
14.9999997747226
  0
ARC
  5
5E16
330
74
100
AcDbEntity
  8
AM_0 ( Kontur 0.5 )
100
AcDbCircle
 10
-13347.6170186541
 20
-1649.289878869822
 30
0.0
 40
0.999999984981507
210
0.0
220
0.0
230
-1.0
100
AcDbArc
 50
199.9999999999803
 51
295.5615929610995
  0
LINE
  5
5E17
330
74
100
AcDbEntity
  8
AM_7 (Mittellinie)
100
AcDbLine
 10
13435.75148841867
 20
-1654.493868163032
 30
0.0
 11
13426.85896482576
 21
-1630.061860389522
 31
0.0
  0
CIRCLE
  5
5E18
330
74
100
AcDbEntity
  8
AM_3 ( Verdeckt )
100
AcDbCircle
 10
13396.59018259602
 20
-1546.899064698952
 30
0.0
 40
112.49999831042
  0
CIRCLE
  5
5E19
330
74
100
AcDbEntity
  8
AM_0 ( Kontur 0.5 )
100
AcDbCircle
 10
13396.59018259602
 20
-1546.899064698952
 30
0.0
 40
65.49999901628869
  0
ARC
  5
5E1A
330
74
100
AcDbEntity
  8
AM_0 ( Kontur 0.5 )
100
AcDbCircle
 10
-13386.65442807202
 20
-1660.465258575822
 30
0.0
 40
1.49999997747226
210
0.0
220
0.0
230
-1.0
100
AcDbArc
 50
17.15321076888356
 51
172.8468158064861
  0
ARC
  5
5E1B
330
74
100
AcDbEntity
  8
AM_0 ( Kontur 0.5 )
100
AcDbCircle
 10
-13384.26562912051
 20
-1659.727939525772
 30
0.0
 40
0.999999984981507
210
0.0
220
0.0
230
-1.0
100
AcDbArc
 50
197.153177519149
 51
276.2338164583984
  0
ARC
  5
5E1C
330
74
100
AcDbEntity
  8
AM_0 ( Kontur 0.5 )
100
AcDbCircle
 10
-13389.13496990924
 20
-1660.153951643632
 30
0.0
 40
0.999999984981507
210
0.0
220
0.0
230
-1.0
100
AcDbArc
 50
273.7661835416874
 51
352.8467826177489
  0
ARC
  5
5E1D
330
74
100
AcDbEntity
  8
AM_0 ( Kontur 0.5 )
100
AcDbCircle
 10
13406.52593712003
 20
-1660.465258575822
 30
0.0
 40
1.49999997747226
100
AcDbArc
 50
17.15321076888356
 51
172.8468158064861
  0
ARC
  5
5E1E
330
74
100
AcDbEntity
  8
AM_0 ( Kontur 0.5 )
100
AcDbCircle
 10
13404.0453952828
 20
-1660.153951643632
 30
0.0
 40
0.999999984981507
100
AcDbArc
 50
273.7661835415834
 51
352.8467826177489
  0
ARC
  5
5E1F
330
74
100
AcDbEntity
  8
AM_0 ( Kontur 0.5 )
100
AcDbCircle
 10
13408.91473607153
 20
-1659.727939525772
 30
0.0
 40
0.999999984981507
100
AcDbArc
 50
197.153177519149
 51
276.2338164583984
  0
ARC
  5
5E20
330
74
100
AcDbEntity
  8
AM_0 ( Kontur 0.5 )
100
AcDbCircle
 10
13396.59018259602
 20
-1546.899064698952
 30
0.0
 40
114.499998280383
100
AcDbArc
 50
270.0
 51
273.7661678392799
  0
ARC
  5
5E21
330
74
100
AcDbEntity
  8
AM_0 ( Kontur 0.5 )
100
AcDbCircle
 10
13396.59018259602
 20
-1546.899064698952
 30
0.0
 40
114.499998280383
100
AcDbArc
 50
255.5616247233278
 51
263.7661678745776
  0
CIRCLE
  5
5E22
330
74
100
AcDbEntity
  8
AM_0 ( Kontur 0.5 )
100
AcDbCircle
 10
13496.09018110168
 20
-1635.399063369812
 30
0.0
 40
4.99999992490753
  0
LINE
  5
5E23
330
74
100
AcDbEntity
  8
AM_7 (Mittellinie)
100
AcDbLine
 10
13491.09018117677
 20
-1635.399063369812
 30
0.0
 11
13501.0901810266
 21
-1635.399063369812
 31
0.0
  0
LINE
  5
5E24
330
74
100
AcDbEntity
  8
AM_7 (Mittellinie)
100
AcDbLine
 10
13496.09018110168
 20
-1640.399063294722
 30
0.0
 11
13496.09018110168
 21
-1630.399063444913
 31
0.0
  0
ARC
  5
5E25
330
74
100
AcDbEntity
  8
AM_0 ( Kontur 0.5 )
100
AcDbCircle
 10
13506.590180944
 20
-1625.399063520003
 30
0.0
 40
0.499999992490753
100
AcDbArc
 50
270.0
 51
90.0
  0
LINE
  5
5E26
330
74
100
AcDbEntity
  8
AM_0 ( Kontur 0.5 )
100
AcDbLine
 10
13504.59018097402
 20
-1619.899063602603
 30
0.0
 11
13504.59018097402
 21
-1613.899063692713
 31
0.0
  0
LINE
  5
5E27
330
74
100
AcDbEntity
  8
AM_0 ( Kontur 0.5 )
100
AcDbLine
 10
13505.59018095901
 20
-1619.899063602603
 30
0.0
 11
13505.59018095901
 21
-1613.899063692713
 31
0.0
  0
ARC
  5
5E28
330
74
100
AcDbEntity
  8
AM_0 ( Kontur 0.5 )
100
AcDbCircle
 10
13505.09018096652
 20
-1613.899063692713
 30
0.0
 40
0.499999992490753
100
AcDbArc
 50
0.0
 51
180.0
  0
LINE
  5
5E29
330
74
100
AcDbEntity
  8
AM_0 ( Kontur 0.5 )
100
AcDbLine
 10
13501.59018101908
 20
-1619.899063602603
 30
0.0
 11
13504.59018097402
 21
-1619.899063602603
 31
0.0
  0
LINE
  5
5E2A
330
74
100
AcDbEntity
  8
AM_0 ( Kontur 0.5 )
100
AcDbLine
 10
13501.59018101908
 20
-1620.899063587583
 30
0.0
 11
13508.59018091395
 21
-1620.899063587583
 31
0.0
  0
ARC
  5
5E2B
330
74
100
AcDbEntity
  8
AM_0 ( Kontur 0.5 )
100
AcDbCircle
 10
-13501.59018101908
 20
-1620.399063595092
 30
0.0
 40
0.499999992490753
210
0.0
220
0.0
230
-1.0
100
AcDbArc
 50
270.0
 51
90.0
  0
LINE
  5
5E2C
330
74
100
AcDbEntity
  8
AM_0 ( Kontur 0.5 )
100
AcDbLine
 10
13505.59018095901
 20
-1619.899063602603
 30
0.0
 11
13508.59018091395
 21
-1619.899063602603
 31
0.0
  0
CIRCLE
  5
5E2D
330
74
100
AcDbEntity
  8
AM_3 ( Verdeckt )
100
AcDbCircle
 10
13430.27916620765
 20
-1639.458786456253
 30
0.0
 40
9.99999984981507
  0
CIRCLE
  5
5E2E
330
74
100
AcDbEntity
  8
AM_3 ( Verdeckt )
100
AcDbCircle
 10
-13362.9011989844
 20
-1639.458786456253
 30
0.0
 40
12.4999998122688
210
0.0
220
0.0
230
-1.0
  0
CIRCLE
  5
5E2F
330
74
100
AcDbEntity
  8
AM_0 ( Kontur 0.5 )
100
AcDbCircle
 10
-13362.9011989844
 20
-1639.458786456253
 30
0.0
 40
15.9999997597041
210
0.0
220
0.0
230
-1.0
  0
CIRCLE
  5
5E30
330
74
100
AcDbEntity
  8
AM_3 ( Verdeckt )
100
AcDbCircle
 10
-13362.9011989844
 20
-1639.458786456253
 30
0.0
 40
9.99999984981507
210
0.0
220
0.0
230
-1.0
  0
CIRCLE
  5
5E31
330
74
100
AcDbEntity
  8
AM_3 ( Verdeckt )
100
AcDbCircle
 10
-13362.9011989844
 20
-1639.458786456253
 30
0.0
 40
8.99999986483356
210
0.0
220
0.0
230
-1.0
  0
LINE
  5
5E32
102
{ACAD_REACTORS
330
74C3
102
}
330
74
100
AcDbEntity
  8
AM_7 (Mittellinie)
100
AcDbLine
 10
13302.09018401527
 20
-1686.466187661343
 30
0.0
 11
13302.09018401527
 21
-1657.398893027012
 31
0.0
  0
ARC
  5
5E33
330
74
100
AcDbEntity
  8
AM_0 ( Kontur 0.5 )
100
AcDbCircle
 10
13328.09018362479
 20
-1663.884344316252
 30
0.0
 40
5.99999990988904
100
AcDbArc
 50
135.0
 51
180.0
  0
LINE
  5
5E34
330
74
100
AcDbEntity
  8
AM_0 ( Kontur 0.5 )
100
AcDbLine
 10
13322.0901837149
 20
-1669.399062859193
 30
0.0
 11
13322.0901837149
 21
-1663.884344316252
 31
0.0
  0
LINE
  5
5E35
330
74
100
AcDbEntity
  8
AM_3 ( Verdeckt )
100
AcDbLine
 10
13307.59018393267
 20
-1669.399062859193
 30
0.0
 11
13307.59018393267
 21
-1665.399062919262
 31
0.0
  0
CIRCLE
  5
5E36
330
74
100
AcDbEntity
  8
AM_0 ( Kontur 0.5 )
100
AcDbCircle
 10
13469.33631542137
 20
-1588.899064068172
 30
0.0
 40
6.499999804759589
  0
LINE
  5
5E37
330
74
100
AcDbEntity
  8
AM_0 ( Kontur 0.5 )
100
AcDbLine
 10
13473.08909205838
 20
-1582.399064263413
 30
0.0
 11
13465.58353878436
 21
-1582.399064263413
 31
0.0
  0
LINE
  5
5E38
330
74
100
AcDbEntity
  8
AM_0 ( Kontur 0.5 )
100
AcDbLine
 10
13465.58353878436
 20
-1582.399064263413
 30
0.0
 11
13461.83076214735
 21
-1588.899064068172
 31
0.0
  0
LINE
  5
5E39
330
74
100
AcDbEntity
  8
AM_0 ( Kontur 0.5 )
100
AcDbLine
 10
13461.83076214735
 20
-1588.899064068172
 30
0.0
 11
13465.58353878436
 21
-1595.399063872932
 31
0.0
  0
LINE
  5
5E3A
330
74
100
AcDbEntity
  8
AM_0 ( Kontur 0.5 )
100
AcDbLine
 10
13465.58353878436
 20
-1595.399063872932
 30
0.0
 11
13473.08909205838
 21
-1595.399063872932
 31
0.0
  0
LINE
  5
5E3B
330
74
100
AcDbEntity
  8
AM_0 ( Kontur 0.5 )
100
AcDbLine
 10
13473.08909205838
 20
-1595.399063872932
 30
0.0
 11
13476.84186869539
 21
-1588.899064068172
 31
0.0
  0
LINE
  5
5E3C
330
74
100
AcDbEntity
  8
AM_0 ( Kontur 0.5 )
100
AcDbLine
 10
13476.84186869539
 20
-1588.899064068172
 30
0.0
 11
13473.08909205838
 21
-1582.399064263413
 31
0.0
  0
LINE
  5
5E3D
330
74
100
AcDbEntity
  8
AM_7 (Mittellinie)
100
AcDbLine
 10
13480.87760151883
 20
-1588.899064068172
 30
0.0
 11
13459.06679638702
 21
-1588.899064068172
 31
0.0
  0
LINE
  5
5E3E
330
74
100
AcDbEntity
  8
AM_7 (Mittellinie)
100
AcDbLine
 10
13469.33631542137
 20
-1579.901312096893
 30
0.0
 11
13469.33631542137
 21
-1599.899849163822
 31
0.0
  0
CIRCLE
  5
5E3F
330
74
100
AcDbEntity
  8
AM_0 ( Kontur 0.5 )
100
AcDbCircle
 10
13396.59018259602
 20
-1630.899063437403
 30
0.0
 40
6.499999804759589
  0
LINE
  5
5E40
330
74
100
AcDbEntity
  8
AM_0 ( Kontur 0.5 )
100
AcDbLine
 10
13400.34295923303
 20
-1624.399063632642
 30
0.0
 11
13392.83740595901
 21
-1624.399063632642
 31
0.0
  0
LINE
  5
5E41
330
74
100
AcDbEntity
  8
AM_0 ( Kontur 0.5 )
100
AcDbLine
 10
13392.83740595901
 20
-1624.399063632642
 30
0.0
 11
13389.08462932201
 21
-1630.899063437403
 31
0.0
  0
LINE
  5
5E42
330
74
100
AcDbEntity
  8
AM_0 ( Kontur 0.5 )
100
AcDbLine
 10
13389.08462932201
 20
-1630.899063437403
 30
0.0
 11
13392.83740595901
 21
-1637.399063242163
 31
0.0
  0
LINE
  5
5E43
330
74
100
AcDbEntity
  8
AM_0 ( Kontur 0.5 )
100
AcDbLine
 10
13392.83740595901
 20
-1637.399063242163
 30
0.0
 11
13400.34295923303
 21
-1637.399063242163
 31
0.0
  0
LINE
  5
5E44
330
74
100
AcDbEntity
  8
AM_0 ( Kontur 0.5 )
100
AcDbLine
 10
13400.34295923303
 20
-1637.399063242163
 30
0.0
 11
13404.09573587004
 21
-1630.899063437403
 31
0.0
  0
LINE
  5
5E45
330
74
100
AcDbEntity
  8
AM_0 ( Kontur 0.5 )
100
AcDbLine
 10
13404.09573587004
 20
-1630.899063437403
 30
0.0
 11
13400.34295923303
 21
-1624.399063632642
 31
0.0
  0
LINE
  5
5E46
330
74
100
AcDbEntity
  8
AM_7 (Mittellinie)
100
AcDbLine
 10
13408.13146869348
 20
-1630.899063437403
 30
0.0
 11
13386.32066356165
 21
-1630.899063437403
 31
0.0
  0
LINE
  5
5E47
330
74
100
AcDbEntity
  8
AM_7 (Mittellinie)
100
AcDbLine
 10
13396.59018259602
 20
-1621.901311466113
 30
0.0
 11
13396.59018259602
 21
-1641.899848533032
 31
0.0
  0
CIRCLE
  5
5E48
330
74
100
AcDbEntity
  8
AM_0 ( Kontur 0.5 )
100
AcDbCircle
 10
13323.84404977067
 20
-1588.899064068172
 30
0.0
 40
6.499999804759589
  0
LINE
  5
5E49
330
74
100
AcDbEntity
  8
AM_0 ( Kontur 0.5 )
100
AcDbLine
 10
13327.59682640768
 20
-1582.399064263413
 30
0.0
 11
13320.09127313366
 21
-1582.399064263413
 31
0.0
  0
LINE
  5
5E4A
330
74
100
AcDbEntity
  8
AM_0 ( Kontur 0.5 )
100
AcDbLine
 10
13320.09127313366
 20
-1582.399064263413
 30
0.0
 11
13316.33849649664
 21
-1588.899064068172
 31
0.0
  0
LINE
  5
5E4B
330
74
100
AcDbEntity
  8
AM_0 ( Kontur 0.5 )
100
AcDbLine
 10
13316.33849649664
 20
-1588.899064068172
 30
0.0
 11
13320.09127313366
 21
-1595.399063872932
 31
0.0
  0
LINE
  5
5E4C
330
74
100
AcDbEntity
  8
AM_0 ( Kontur 0.5 )
100
AcDbLine
 10
13320.09127313366
 20
-1595.399063872932
 30
0.0
 11
13327.59682640768
 21
-1595.399063872932
 31
0.0
  0
LINE
  5
5E4D
330
74
100
AcDbEntity
  8
AM_0 ( Kontur 0.5 )
100
AcDbLine
 10
13327.59682640768
 20
-1595.399063872932
 30
0.0
 11
13331.34960304469
 21
-1588.899064068172
 31
0.0
  0
LINE
  5
5E4E
330
74
100
AcDbEntity
  8
AM_0 ( Kontur 0.5 )
100
AcDbLine
 10
13331.34960304469
 20
-1588.899064068172
 30
0.0
 11
13327.59682640768
 21
-1582.399064263413
 31
0.0
  0
LINE
  5
5E4F
330
74
100
AcDbEntity
  8
AM_7 (Mittellinie)
100
AcDbLine
 10
13335.38533586812
 20
-1588.899064068172
 30
0.0
 11
13313.5745307363
 21
-1588.899064068172
 31
0.0
  0
LINE
  5
5E50
330
74
100
AcDbEntity
  8
AM_7 (Mittellinie)
100
AcDbLine
 10
13323.84404977067
 20
-1579.901312096893
 30
0.0
 11
13323.84404977067
 21
-1599.899849163822
 31
0.0
  0
CIRCLE
  5
5E51
330
74
100
AcDbEntity
  8
AM_0 ( Kontur 0.5 )
100
AcDbCircle
 10
13323.84404977067
 20
-1504.899065329732
 30
0.0
 40
6.499999804759589
  0
CIRCLE
  5
5E52
330
74
100
AcDbEntity
  8
AM_0 ( Kontur 0.5 )
100
AcDbCircle
 10
13430.27916620765
 20
-1639.458786456253
 30
0.0
 40
15.9999997597041
  0
LINE
  5
5E53
330
74
100
AcDbEntity
  8
AM_7 (Mittellinie)
100
AcDbLine
 10
13469.33631542137
 20
-1495.901313358442
 30
0.0
 11
13469.33631542137
 21
-1515.899850425362
 31
0.0
  0
LINE
  5
5E54
330
74
100
AcDbEntity
  8
AM_0 ( Kontur 0.5 )
100
AcDbLine
 10
13327.59682640768
 20
-1498.399065524972
 30
0.0
 11
13320.09127313365
 21
-1498.399065524972
 31
0.0
  0
LINE
  5
5E55
330
74
100
AcDbEntity
  8
AM_0 ( Kontur 0.5 )
100
AcDbLine
 10
13320.09127313365
 20
-1498.399065524972
 30
0.0
 11
13316.33849649664
 21
-1504.899065329732
 31
0.0
  0
LINE
  5
5E56
330
74
100
AcDbEntity
  8
AM_0 ( Kontur 0.5 )
100
AcDbLine
 10
13316.33849649664
 20
-1504.899065329732
 30
0.0
 11
13320.09127313365
 21
-1511.399065134493
 31
0.0
  0
LINE
  5
5E57
330
74
100
AcDbEntity
  8
AM_0 ( Kontur 0.5 )
100
AcDbLine
 10
13320.09127313365
 20
-1511.399065134493
 30
0.0
 11
13327.59682640768
 21
-1511.399065134493
 31
0.0
  0
LINE
  5
5E58
330
74
100
AcDbEntity
  8
AM_0 ( Kontur 0.5 )
100
AcDbLine
 10
13327.59682640768
 20
-1511.399065134493
 30
0.0
 11
13331.34960304469
 21
-1504.899065329732
 31
0.0
  0
LINE
  5
5E59
330
74
100
AcDbEntity
  8
AM_0 ( Kontur 0.5 )
100
AcDbLine
 10
13331.34960304469
 20
-1504.899065329732
 30
0.0
 11
13327.59682640768
 21
-1498.399065524972
 31
0.0
  0
LINE
  5
5E5A
330
74
100
AcDbEntity
  8
AM_7 (Mittellinie)
100
AcDbLine
 10
13335.38533586812
 20
-1504.899065329732
 30
0.0
 11
13313.5745307363
 21
-1504.899065329732
 31
0.0
  0
LINE
  5
5E5B
330
74
100
AcDbEntity
  8
AM_7 (Mittellinie)
100
AcDbLine
 10
13323.84404977067
 20
-1495.901313358442
 30
0.0
 11
13323.84404977067
 21
-1515.899850425372
 31
0.0
  0
CIRCLE
  5
5E5C
330
74
100
AcDbEntity
  8
AM_0 ( Kontur 0.5 )
100
AcDbCircle
 10
13396.59018259602
 20
-1462.899065960503
 30
0.0
 40
6.499999804759589
  0
LINE
  5
5E5D
330
74
100
AcDbEntity
  8
AM_0 ( Kontur 0.5 )
100
AcDbLine
 10
13400.34295923303
 20
-1456.399066155743
 30
0.0
 11
13392.83740595901
 21
-1456.399066155743
 31
0.0
  0
LINE
  5
5E5E
330
74
100
AcDbEntity
  8
AM_0 ( Kontur 0.5 )
100
AcDbLine
 10
13392.83740595901
 20
-1456.399066155743
 30
0.0
 11
13389.08462932201
 21
-1462.899065960503
 31
0.0
  0
LINE
  5
5E5F
330
74
100
AcDbEntity
  8
AM_0 ( Kontur 0.5 )
100
AcDbLine
 10
13389.08462932201
 20
-1462.899065960503
 30
0.0
 11
13392.83740595901
 21
-1469.399065765263
 31
0.0
  0
LINE
  5
5E60
330
74
100
AcDbEntity
  8
AM_0 ( Kontur 0.5 )
100
AcDbLine
 10
13392.83740595901
 20
-1469.399065765263
 30
0.0
 11
13400.34295923303
 21
-1469.399065765263
 31
0.0
  0
LINE
  5
5E61
330
74
100
AcDbEntity
  8
AM_0 ( Kontur 0.5 )
100
AcDbLine
 10
13400.34295923303
 20
-1469.399065765263
 30
0.0
 11
13404.09573587004
 21
-1462.899065960503
 31
0.0
  0
LINE
  5
5E62
330
74
100
AcDbEntity
  8
AM_0 ( Kontur 0.5 )
100
AcDbLine
 10
13404.09573587004
 20
-1462.899065960503
 30
0.0
 11
13400.34295923303
 21
-1456.399066155743
 31
0.0
  0
LINE
  5
5E63
330
74
100
AcDbEntity
  8
AM_7 (Mittellinie)
100
AcDbLine
 10
13408.13146869348
 20
-1462.899065960503
 30
0.0
 11
13386.32066356165
 21
-1462.899065960503
 31
0.0
  0
LINE
  5
5E64
330
74
100
AcDbEntity
  8
AM_7 (Mittellinie)
100
AcDbLine
 10
13357.42887677336
 20
-1654.493868163032
 30
0.0
 11
13366.32140036629
 21
-1630.061860389522
 31
0.0
  0
LINE
  5
5E65
330
74
100
AcDbEntity
  8
AM_0 ( Kontur 0.5 )
100
AcDbLine
 10
13282.09018431564
 20
-1669.399062859193
 30
0.0
 11
13282.09018431564
 21
-1546.899064698952
 31
0.0
  0
ARC
  5
5E66
330
74
100
AcDbEntity
  8
AM_7 (Mittellinie)
100
AcDbCircle
 10
-13396.59018259602
 20
-1546.899064698952
 30
0.0
 40
98.49999852068121
210
0.0
220
0.0
230
-1.0
100
AcDbArc
 50
270.0
 51
297.4504802963598
  0
LINE
  5
5E67
330
74
100
AcDbEntity
  8
AM_3 ( Verdeckt )
100
AcDbLine
 10
13348.55671126079
 20
-1649.631899008023
 30
0.0
 11
13353.50427291768
 21
-1636.038585074372
 31
0.0
  0
LINE
  5
5E68
330
74
100
AcDbEntity
  8
AM_3 ( Verdeckt )
100
AcDbLine
 10
13367.35056339426
 20
-1656.472301771793
 30
0.0
 11
13372.2981250511
 21
-1642.878987838142
 31
0.0
  0
ARC
  5
5E69
330
74
100
AcDbEntity
  8
AM_0 ( Kontur 0.5 )
100
AcDbCircle
 10
13396.59018259602
 20
-1546.899064698952
 30
0.0
 40
114.499998280383
100
AcDbArc
 50
241.5299660082003
 51
244.4383752767543
  0
ARC
  5
5E6A
330
74
100
AcDbEntity
  8
AM_0 ( Kontur 0.5 )
100
AcDbCircle
 10
13396.59018259602
 20
-1546.899064698952
 30
0.0
 40
114.499998280383
100
AcDbArc
 50
276.2338321503758
 51
284.4383752766755
  0
ARC
  5
5E6B
330
74
100
AcDbEntity
  8
AM_0 ( Kontur 0.5 )
100
AcDbCircle
 10
13424.89010919114
 20
-1656.814321909982
 30
0.0
 40
0.999999984981507
100
AcDbArc
 50
284.4383752766755
 51
19.99999999998031
  0
ARC
  5
5E6C
330
74
100
AcDbEntity
  8
AM_0 ( Kontur 0.5 )
100
AcDbCircle
 10
13445.56334653794
 20
-1649.289878869822
 30
0.0
 40
0.999999984981507
100
AcDbArc
 50
199.9999999999803
 51
295.5615929610995
  0
LINE
  5
5E6D
330
74
100
AcDbEntity
  8
AM_7 (Mittellinie)
100
AcDbLine
 10
13435.75148841867
 20
-1654.493868163032
 30
0.0
 11
13426.85896482576
 21
-1630.061860389522
 31
0.0
  0
LINE
  5
5E6E
330
74
100
AcDbEntity
  8
AM_7 (Mittellinie)
100
AcDbLine
 10
13396.59018259602
 20
-1594.457121808313
 30
0.0
 11
13396.59018259602
 21
-1497.780677870213
 31
0.0
  0
LINE
  5
5E6F
330
74
100
AcDbEntity
  8
AM_3 ( Verdeckt )
100
AcDbLine
 10
13444.62365393126
 20
-1649.631899008023
 30
0.0
 11
13439.67609227437
 21
-1636.038585074372
 31
0.0
  0
LINE
  5
5E70
330
74
100
AcDbEntity
  8
AM_3 ( Verdeckt )
100
AcDbLine
 10
13425.82980179781
 20
-1656.472301771793
 30
0.0
 11
13420.88224014093
 21
-1642.878987838142
 31
0.0
  0
LINE
  5
5E71
330
74
100
AcDbEntity
  8
AM_7 (Mittellinie)
100
AcDbLine
 10
13396.59018259602
 20
-1453.901313989222
 30
0.0
 11
13396.59018259602
 21
-1473.899851056143
 31
0.0
  0
CIRCLE
  5
5E72
330
74
100
AcDbEntity
  8
AM_0 ( Kontur 0.5 )
100
AcDbCircle
 10
13469.33631542137
 20
-1504.899065329732
 30
0.0
 40
6.499999804759589
  0
LINE
  5
5E73
330
74
100
AcDbEntity
  8
AM_0 ( Kontur 0.5 )
100
AcDbLine
 10
13473.08909205838
 20
-1498.399065524972
 30
0.0
 11
13465.58353878436
 21
-1498.399065524972
 31
0.0
  0
LINE
  5
5E74
330
74
100
AcDbEntity
  8
AM_0 ( Kontur 0.5 )
100
AcDbLine
 10
13465.58353878436
 20
-1498.399065524972
 30
0.0
 11
13461.83076214735
 21
-1504.899065329732
 31
0.0
  0
LINE
  5
5E75
330
74
100
AcDbEntity
  8
AM_0 ( Kontur 0.5 )
100
AcDbLine
 10
13461.83076214735
 20
-1504.899065329732
 30
0.0
 11
13465.58353878436
 21
-1511.399065134493
 31
0.0
  0
LINE
  5
5E76
330
74
100
AcDbEntity
  8
AM_0 ( Kontur 0.5 )
100
AcDbLine
 10
13465.58353878436
 20
-1511.399065134493
 30
0.0
 11
13473.08909205838
 21
-1511.399065134493
 31
0.0
  0
LINE
  5
5E77
330
74
100
AcDbEntity
  8
AM_0 ( Kontur 0.5 )
100
AcDbLine
 10
13473.08909205838
 20
-1511.399065134493
 30
0.0
 11
13476.8418686954
 21
-1504.899065329732
 31
0.0
  0
LINE
  5
5E78
330
74
100
AcDbEntity
  8
AM_0 ( Kontur 0.5 )
100
AcDbLine
 10
13503.59018098905
 20
-1625.899063512493
 30
0.0
 11
13506.590180944
 21
-1625.899063512493
 31
0.0
  0
ARC
  5
5E79
330
74
100
AcDbEntity
  8
AM_0 ( Kontur 0.5 )
100
AcDbCircle
 10
13503.59018098905
 20
-1625.399063520003
 30
0.0
 40
0.499999992490753
100
AcDbArc
 50
90.0
 51
270.0
  0
LINE
  5
5E7A
330
74
100
AcDbEntity
  8
AM_0 ( Kontur 0.5 )
100
AcDbLine
 10
13503.59018098905
 20
-1624.899063527513
 30
0.0
 11
13506.590180944
 21
-1624.899063527513
 31
0.0
  0
ARC
  5
5E7B
330
74
100
AcDbEntity
  8
AM_0 ( Kontur 0.5 )
100
AcDbCircle
 10
-13502.59018100407
 20
-1622.899063557543
 30
0.0
 40
0.499999992490753
210
0.0
220
0.0
230
-1.0
100
AcDbArc
 50
270.0
 51
90.0
  0
LINE
  5
5E7C
330
74
100
AcDbEntity
  8
AM_0 ( Kontur 0.5 )
100
AcDbLine
 10
13502.59018100407
 20
-1623.399063550033
 30
0.0
 11
13507.59018092897
 21
-1623.399063550033
 31
0.0
  0
LINE
  5
5E7D
330
74
100
AcDbEntity
  8
AM_7 (Mittellinie)
100
AcDbLine
 10
13396.59018259602
 20
-1636.399063354792
 30
0.0
 11
13396.59018259602
 21
-1457.399066043113
 31
0.0
  0
LINE
  5
5E7E
330
74
100
AcDbEntity
  8
AM_7 (Mittellinie)
100
AcDbLine
 10
13344.1429452659
 20
-1546.899064698952
 30
0.0
 11
13443.30062873474
 21
-1546.899064698952
 31
0.0
  0
CIRCLE
  5
5E7F
330
74
100
AcDbEntity
  8
AM_7 (Mittellinie)
100
AcDbCircle
 10
13396.59018259602
 20
-1546.899064698952
 30
0.0
 40
83.9999987384467
  0
LINE
  5
5E80
330
74
100
AcDbEntity
  8
AM_0 ( Kontur 0.5 )
100
AcDbLine
 10
13476.8418686954
 20
-1504.899065329732
 30
0.0
 11
13473.08909205838
 21
-1498.399065524972
 31
0.0
  0
ARC
  5
5E81
330
74
100
AcDbEntity
  8
AM_0 ( Kontur 0.5 )
100
AcDbCircle
 10
13507.59018092897
 20
-1622.899063557543
 30
0.0
 40
0.499999992490753
100
AcDbArc
 50
270.0
 51
90.0
  0
ARC
  5
5E82
330
74
100
AcDbEntity
  8
AM_0 ( Kontur 0.5 )
100
AcDbCircle
 10
13508.59018091395
 20
-1620.399063595092
 30
0.0
 40
0.499999992490753
100
AcDbArc
 50
270.0
 51
90.0
  0
LINE
  5
5E83
330
74
100
AcDbEntity
  8
AM_7 (Mittellinie)
100
AcDbLine
 10
13357.42887677337
 20
-1654.493868163032
 30
0.0
 11
13366.32140036629
 21
-1630.061860389522
 31
0.0
  0
LINE
  5
5E84
102
{ACAD_REACTORS
330
74C3
102
}
330
74
100
AcDbEntity
  8
AM_7 (Mittellinie)
100
AcDbLine
 10
13491.09018117677
 20
-1686.466187661343
 30
0.0
 11
13491.09018117677
 21
-1657.398893027012
 31
0.0
  0
LINE
  5
5E85
330
74
100
AcDbEntity
  8
AM_3 ( Verdeckt )
100
AcDbLine
 10
13485.59018125937
 20
-1669.399062859193
 30
0.0
 11
13485.59018125937
 21
-1665.399062919262
 31
0.0
  0
LINE
  5
5E86
102
{ACAD_REACTORS
330
7479
330
74A0
102
}
330
74
100
AcDbEntity
  8
AM_0 ( Kontur 0.5 )
100
AcDbLine
 10
13471.09018147714
 20
-1669.399062859193
 30
0.0
 11
13511.0901808764
 21
-1669.399062859193
 31
0.0
  0
LINE
  5
5E87
330
74
100
AcDbEntity
  8
AM_3 ( Verdeckt )
100
AcDbLine
 10
13496.59018109417
 20
-1669.399062859193
 30
0.0
 11
13496.59018109417
 21
-1665.399062919262
 31
0.0
  0
LINE
  5
5E88
330
74
100
AcDbEntity
  8
AM_0 ( Kontur 0.5 )
100
AcDbLine
 10
13282.09018431564
 20
-1669.399062859193
 30
0.0
 11
13322.0901837149
 21
-1669.399062859193
 31
0.0
  0
CIRCLE
  5
5E89
330
74
100
AcDbEntity
  8
AM_0 ( Kontur 0.5 )
100
AcDbCircle
 10
13396.59018259602
 20
-1546.899064698952
 30
0.0
 40
42.74999935795938
  0
LINE
  5
5E8A
102
{ACAD_REACTORS
330
7479
102
}
330
74
100
AcDbEntity
  8
AM_7 (Mittellinie)
100
AcDbLine
 10
13334.84018352341
 20
-1546.899064698952
 30
0.0
 11
13458.34018166863
 21
-1546.899064698952
 31
0.0
  0
LINE
  5
5E8B
330
74
100
AcDbEntity
  8
AM_7 (Mittellinie)
100
AcDbLine
 10
13480.87760151883
 20
-1504.899065329732
 30
0.0
 11
13459.06679638702
 21
-1504.899065329732
 31
0.0
  0
LINE
  5
5E8C
330
74
100
AcDbEntity
  8
AM_7 (Mittellinie)
100
AcDbLine
 10
13396.59018259602
 20
-1635.399063369812
 30
0.0
 11
13396.59018259602
 21
-1458.399066028102
 31
0.0
  0
ARC
  5
5E8D
102
{ACAD_REACTORS
330
74A0
102
}
330
74
100
AcDbEntity
  8
AM_0 ( Kontur 0.5 )
100
AcDbCircle
 10
13396.59018259602
 20
-1546.899064698952
 30
0.0
 40
114.499998280383
100
AcDbArc
 50
0.0
 51
180.0
  0
ARC
  5
5E8E
330
74
100
AcDbEntity
  8
AM_7 (Mittellinie)
100
AcDbCircle
 10
13396.59018259602
 20
-1546.899064698952
 30
0.0
 40
98.49999852068121
100
AcDbArc
 50
270.0
 51
297.4504802963598
  0
LINE
  5
5E8F
330
74
100
AcDbEntity
  8
AM_7 (Mittellinie)
100
AcDbLine
 10
13396.59018259602
 20
-1604.966006885752
 30
0.0
 11
13396.59018259602
 21
-1485.045197429243
 31
0.0
  0
LINE
  5
5E90
330
74
100
AcDbEntity
  8
AM_0 ( Kontur 0.5 )
100
AcDbLine
 10
13511.0901808764
 20
-1665.399062919262
 30
0.0
 11
13471.09018147714
 21
-1665.399062919262
 31
0.0
  0
CIRCLE
  5
5E91
330
74
100
AcDbEntity
  8
AM_3 ( Verdeckt )
100
AcDbCircle
 10
13430.27916620765
 20
-1639.458786456253
 30
0.0
 40
8.99999986483356
  0
CIRCLE
  5
5E92
330
74
100
AcDbEntity
  8
AM_3 ( Verdeckt )
100
AcDbCircle
 10
13396.59018259602
 20
-1546.899064698952
 30
0.0
 40
111.499998325438
  0
CIRCLE
  5
5E93
330
74
100
AcDbEntity
  8
AM_0 ( Kontur 0.5 )
100
AcDbCircle
 10
13430.27916620765
 20
-1639.458786456253
 30
0.0
 40
12.9999998047596
  0
LINE
  5
5E94
102
{ACAD_REACTORS
330
6A00
102
}
330
74
100
AcDbEntity
  8
AM_0 ( Kontur 0.5 )
100
AcDbLine
 10
12010.05134442446
 20
-1894.462362880091
 30
0.0
 11
12760.05133316059
 21
-1894.462362880091
 31
0.0
  0
LINE
  5
5E95
102
{ACAD_REACTORS
330
6A00
102
}
330
74
100
AcDbEntity
  8
AM_0 ( Kontur 0.5 )
100
AcDbLine
 10
12760.05133316059
 20
-2121.462359470901
 30
0.0
 11
12760.05133316059
 21
-1892.462362910131
 31
0.0
  0
LINE
  5
5E96
102
{ACAD_REACTORS
330
6A00
102
}
330
74
100
AcDbEntity
  8
AM_0 ( Kontur 0.5 )
100
AcDbLine
 10
12760.05133316059
 20
-2119.462359500931
 30
0.0
 11
12010.05134442446
 21
-2119.462359500931
 31
0.0
  0
LINE
  5
5E97
102
{ACAD_REACTORS
330
6A00
102
}
330
74
100
AcDbEntity
  8
AM_0 ( Kontur 0.5 )
100
AcDbLine
 10
12010.05134442446
 20
-2121.462359470901
 30
0.0
 11
12010.05134442446
 21
-1892.462362910131
 31
0.0
  0
LINE
  5
5E98
330
74
100
AcDbEntity
  8
AM_0 ( Kontur 0.5 )
100
AcDbLine
 10
12764.05133310052
 20
-1960.962361881361
 30
0.0
 11
13127.0513276488
 21
-1960.962361881361
 31
0.0
  0
LINE
  5
5E99
330
74
100
AcDbEntity
  8
AM_3 ( Verdeckt )
100
AcDbLine
 10
11926.05134568601
 20
-1962.512361858101
 30
0.0
 11
12006.05134448453
 21
-1962.512361858101
 31
0.0
  0
LINE
  5
5E9A
330
74
100
AcDbEntity
  8
AM_3 ( Verdeckt )
100
AcDbLine
 10
11926.05134568601
 20
-1964.212361832551
 30
0.0
 11
12006.05134448453
 21
-1964.212361832551
 31
0.0
  0
LINE
  5
5E9B
330
74
100
AcDbEntity
  8
AM_3 ( Verdeckt )
100
AcDbLine
 10
11926.05134568601
 20
-2049.71236054847
 30
0.0
 11
12006.05134448453
 21
-2049.71236054847
 31
0.0
  0
TEXT
  5
5E9C
330
74
100
AcDbEntity
  8
2
 62
     2
100
AcDbText
 10
11956.71777864914
 20
-1992.948452978961
 30
0.0
 40
8.74999986858819
  1
3"
 41
1.199999999999999
100
AcDbText
  0
ARC
  5
5E9D
330
74
100
AcDbEntity
  8
AM_0 ( Kontur 0.5 )
100
AcDbCircle
 10
13127.0513276488
 20
-1970.962361731181
 30
0.0
 40
9.99999984981507
100
AcDbArc
 50
0.0
 51
90.0
  0
LINE
  5
5E9E
330
74
100
AcDbEntity
  8
AM_0 ( Kontur 0.5 )
100
AcDbLine
 10
13127.0513276488
 20
-1960.962361881361
 30
0.0
 11
13127.0513276488
 21
-2052.962360499662
 31
0.0
  0
ARC
  5
5E9F
330
74
100
AcDbEntity
  8
AM_0 ( Kontur 0.5 )
100
AcDbCircle
 10
13127.0513276488
 20
-2042.962360649851
 30
0.0
 40
9.99999984981507
100
AcDbArc
 50
270.0
 51
0.0
  0
LINE
  5
5EA0
330
74
100
AcDbEntity
  8
AM_0 ( Kontur 0.5 )
100
AcDbLine
 10
12010.05134442446
 20
-1892.462362910131
 30
0.0
 11
12006.05134448453
 21
-1892.462362910131
 31
0.0
  0
LINE
  5
5EA1
330
74
100
AcDbEntity
  8
AM_0 ( Kontur 0.5 )
100
AcDbLine
 10
12006.05134448453
 20
-2121.462359470901
 30
0.0
 11
12006.05134448453
 21
-1892.462362910131
 31
0.0
  0
LINE
  5
5EA2
330
74
100
AcDbEntity
  8
AM_0 ( Kontur 0.5 )
100
AcDbLine
 10
11926.05134568601
 20
-2062.462360356991
 30
0.0
 11
11926.05134568601
 21
-1951.462362024041
 31
0.0
  0
LINE
  5
5EA3
330
74
100
AcDbEntity
  8
AM_0 ( Kontur 0.5 )
100
AcDbLine
 10
11936.05134553583
 20
-1941.46236217422
 30
0.0
 11
12006.05134448453
 21
-1941.46236217422
 31
0.0
  0
LINE
  5
5EA4
330
74
100
AcDbEntity
  8
AM_0 ( Kontur 0.5 )
100
AcDbLine
 10
12006.05134448453
 20
-2047.962360574761
 30
0.0
 11
12006.05134448453
 21
-1965.962361806271
 31
0.0
  0
ARC
  5
5EA5
330
74
100
AcDbEntity
  8
AM_0 ( Kontur 0.5 )
100
AcDbCircle
 10
11936.05134553583
 20
-1951.462362024041
 30
0.0
 40
9.99999984981507
100
AcDbArc
 50
90.0
 51
180.0
  0
LINE
  5
5EA6
330
74
100
AcDbEntity
  8
AM_0 ( Kontur 0.5 )
100
AcDbLine
 10
11936.05134553583
 20
-2072.462360206801
 30
0.0
 11
12006.05134448453
 21
-2072.462360206801
 31
0.0
  0
LINE
  5
5EA7
330
74
100
AcDbEntity
  8
AM_3 ( Verdeckt )
100
AcDbLine
 10
11926.05134568601
 20
-2051.412360522942
 30
0.0
 11
12006.05134448453
 21
-2051.412360522942
 31
0.0
  0
LINE
  5
5EA8
330
74
100
AcDbEntity
  8
AM_0 ( Kontur 0.5 )
100
AcDbLine
 10
12764.05133310052
 20
-2052.962360499662
 30
0.0
 11
13127.0513276488
 21
-2052.962360499662
 31
0.0
  0
ARC
  5
5EA9
330
74
100
AcDbEntity
  8
AM_0 ( Kontur 0.5 )
100
AcDbCircle
 10
11936.05134553583
 20
-2062.462360356991
 30
0.0
 40
9.99999984981507
100
AcDbArc
 50
180.0
 51
270.0
  0
LINE
  5
5EAA
330
74
100
AcDbEntity
  8
AM_0 ( Kontur 0.5 )
100
AcDbLine
 10
12804.05133249978
 20
-1934.46236227935
 30
0.0
 11
12804.05133249978
 21
-1894.462362880091
 31
0.0
  0
LINE
  5
5EAB
330
74
100
AcDbEntity
  8
AM_0 ( Kontur 0.5 )
100
AcDbLine
 10
12764.05133310052
 20
-1934.46236227935
 30
0.0
 11
12804.05133249978
 21
-1934.46236227935
 31
0.0
  0
LINE
  5
5EAC
330
74
100
AcDbEntity
  8
AM_0 ( Kontur 0.5 )
100
AcDbLine
 10
13137.05132749862
 20
-2042.962360649851
 30
0.0
 11
13137.05132749862
 21
-1970.962361731181
 31
0.0
  0
LINE
  5
5EAD
330
74
100
AcDbEntity
  8
AM_0 ( Kontur 0.5 )
100
AcDbLine
 10
12804.05133249978
 20
-2079.46236010167
 30
0.0
 11
12804.05133249978
 21
-2119.462359500931
 31
0.0
  0
LINE
  5
5EAE
330
74
100
AcDbEntity
  8
AM_0 ( Kontur 0.5 )
100
AcDbLine
 10
12764.05133310052
 20
-2079.46236010167
 30
0.0
 11
12804.05133249978
 21
-2079.46236010167
 31
0.0
  0
LINE
  5
5EAF
330
74
100
AcDbEntity
  8
AM_0 ( Kontur 0.5 )
100
AcDbLine
 10
12764.05133310052
 20
-2119.462359500931
 30
0.0
 11
12804.05133249978
 21
-2119.462359500931
 31
0.0
  0
LINE
  5
5EB0
330
74
100
AcDbEntity
  8
AM_0 ( Kontur 0.5 )
100
AcDbLine
 10
12760.05133316059
 20
-2121.462359470901
 30
0.0
 11
12764.05133310052
 21
-2121.462359470901
 31
0.0
  0
LINE
  5
5EB1
102
{ACAD_REACTORS
330
7452
102
}
330
74
100
AcDbEntity
  8
AM_7 (Mittellinie)
100
AcDbLine
 10
12777.63039127587
 20
-1912.462362609761
 30
0.0
 11
12796.73835870714
 21
-1912.462362609761
 31
0.0
  0
LINE
  5
5EB2
102
{ACAD_REACTORS
330
742F
102
}
330
74
100
AcDbEntity
  8
AM_7 (Mittellinie)
100
AcDbLine
 10
12787.05133275509
 20
-1923.220804253191
 30
0.0
 11
12787.05133275509
 21
-1902.49674007399
 31
0.0
  0
LINE
  5
5EB3
102
{ACAD_REACTORS
330
7452
102
}
330
74
100
AcDbEntity
  8
AM_7 (Mittellinie)
100
AcDbLine
 10
12777.63039127587
 20
-2101.462359771272
 30
0.0
 11
12796.73835870714
 21
-2101.462359771272
 31
0.0
  0
LINE
  5
5EB4
330
74
100
AcDbEntity
  8
AM_7 (Mittellinie)
100
AcDbLine
 10
12787.05133275509
 20
-2115.441252740911
 30
0.0
 11
12787.05133275509
 21
-2091.770188609641
 31
0.0
  0
CIRCLE
  5
5EB5
330
74
100
AcDbEntity
  8
AM_0 ( Kontur 0.5 )
100
AcDbCircle
 10
12787.05133275509
 20
-1912.462362609761
 30
0.0
 40
5.49999991739829
  0
CIRCLE
  5
5EB6
330
74
100
AcDbEntity
  8
AM_0 ( Kontur 0.5 )
100
AcDbCircle
 10
12787.05133275509
 20
-2101.462359771272
 30
0.0
 40
5.49999991739829
  0
LINE
  5
5EB7
330
74
100
AcDbEntity
  8
AM_0 ( Kontur 0.5 )
100
AcDbLine
 10
12006.05134448453
 20
-2119.462359500931
 30
0.0
 11
11966.05134508527
 21
-2119.462359500931
 31
0.0
  0
LINE
  5
5EB8
330
74
100
AcDbEntity
  8
AM_7 (Mittellinie)
100
AcDbLine
 10
11992.47228630918
 20
-2101.462359771272
 30
0.0
 11
11973.36431887791
 21
-2101.462359771272
 31
0.0
  0
LINE
  5
5EB9
330
74
100
AcDbEntity
  8
AM_0 ( Kontur 0.5 )
100
AcDbLine
 10
12006.05134448453
 20
-2079.46236010167
 30
0.0
 11
11966.05134508527
 21
-2079.46236010167
 31
0.0
  0
LINE
  5
5EBA
330
74
100
AcDbEntity
  8
AM_0 ( Kontur 0.5 )
100
AcDbLine
 10
11966.05134508527
 20
-2079.46236010167
 30
0.0
 11
11966.05134508527
 21
-2119.462359500931
 31
0.0
  0
LINE
  5
5EBB
330
74
100
AcDbEntity
  8
AM_7 (Mittellinie)
100
AcDbLine
 10
11983.05134482996
 20
-2115.441252740911
 30
0.0
 11
11983.05134482996
 21
-2091.770188609641
 31
0.0
  0
CIRCLE
  5
5EBC
330
74
100
AcDbEntity
  8
AM_0 ( Kontur 0.5 )
100
AcDbCircle
 10
-11983.05134482996
 20
-2101.462359771272
 30
0.0
 40
5.49999991739829
210
0.0
220
0.0
230
-1.0
  0
LINE
  5
5EBD
330
74
100
AcDbEntity
  8
AM_0 ( Kontur 0.5 )
100
AcDbLine
 10
12006.05134448453
 20
-1934.46236227935
 30
0.0
 11
11966.05134508527
 21
-1934.46236227935
 31
0.0
  0
LINE
  5
5EBE
330
74
100
AcDbEntity
  8
AM_0 ( Kontur 0.5 )
100
AcDbLine
 10
12006.05134448453
 20
-1894.462362880091
 30
0.0
 11
11966.05134508527
 21
-1894.462362880091
 31
0.0
  0
LINE
  5
5EBF
330
74
100
AcDbEntity
  8
AM_7 (Mittellinie)
100
AcDbLine
 10
11992.47228630918
 20
-1912.462362609761
 30
0.0
 11
11973.36431887791
 21
-1912.462362609761
 31
0.0
  0
LINE
  5
5EC0
102
{ACAD_REACTORS
330
742F
102
}
330
74
100
AcDbEntity
  8
AM_7 (Mittellinie)
100
AcDbLine
 10
11983.05134482996
 20
-1923.220804253191
 30
0.0
 11
11983.05134482996
 21
-1902.49674007399
 31
0.0
  0
LINE
  5
5EC1
330
74
100
AcDbEntity
  8
AM_0 ( Kontur 0.5 )
100
AcDbLine
 10
11966.05134508527
 20
-1934.46236227935
 30
0.0
 11
11966.05134508527
 21
-1894.462362880091
 31
0.0
  0
CIRCLE
  5
5EC2
102
{ACAD_REACTORS
330
742F
102
}
330
74
100
AcDbEntity
  8
AM_0 ( Kontur 0.5 )
100
AcDbCircle
 10
-11983.05134482996
 20
-1912.462362609761
 30
0.0
 40
5.49999991739829
210
0.0
220
0.0
230
-1.0
  0
LINE
  5
5EC3
330
74
100
AcDbEntity
  8
AM_7 (Mittellinie)
100
AcDbLine
 10
12046.60528549743
 20
-2006.962361190512
 30
0.0
 11
13177.73118478124
 21
-2006.962361190512
 31
0.0
  0
LINE
  5
5EC4
330
74
100
AcDbEntity
  8
AM_0 ( Kontur 0.5 )
100
AcDbLine
 10
12010.05134442446
 20
-2121.462359470901
 30
0.0
 11
12006.05134448453
 21
-2121.462359470901
 31
0.0
  0
LINE
  5
5EC5
330
74
100
AcDbEntity
  8
AM_0 ( Kontur 0.5 )
100
AcDbLine
 10
12764.05133310052
 20
-2121.462359470901
 30
0.0
 11
12764.05133310052
 21
-1892.462362910131
 31
0.0
  0
LINE
  5
5EC6
330
74
100
AcDbEntity
  8
AM_0 ( Kontur 0.5 )
100
AcDbLine
 10
12760.05133316059
 20
-1892.462362910131
 30
0.0
 11
12764.05133310052
 21
-1892.462362910131
 31
0.0
  0
LINE
  5
5EC7
330
74
100
AcDbEntity
  8
AM_0 ( Kontur 0.5 )
100
AcDbLine
 10
12764.05133310052
 20
-1894.462362880091
 30
0.0
 11
12804.05133249978
 21
-1894.462362880091
 31
0.0
  0
HATCH
  5
69FB
330
74
100
AcDbEntity
  8
AM_8 ( Schraffur)
100
AcDbHatch
 10
0.0
 20
0.0
 30
0.0
210
0.0
220
0.0
230
1.0
  2
ANSI37
 70
     0
 71
     1
 91
        1
 92
        7
 72
     0
 73
     1
 93
        6
 10
12760.05133316059
 20
-1434.399066388532
 10
12010.05134442446
 20
-1434.399066388532
 10
12010.05134442446
 20
-1458.899066140742
 10
12010.05134442446
 20
-1659.399063009372
 10
12760.05133316059
 20
-1659.399063009372
 10
12760.05133316059
 20
-1639.399063189593
 97
        6
330
5D52
330
5D9D
330
5D53
330
5D54
330
5DF2
330
5D55
 75
     0
 76
     1
 52
0.0
 41
4.0
 77
     0
 78
     2
 53
45.0
 43
0.0
 44
0.0
 45
-8.98025612106915
 46
8.98025612106915
 79
     0
 53
135.0
 43
0.0
 44
0.0
 45
-8.98025612106915
 46
-8.98025612106915
 79
     0
 47
4.907006446308217
 98
        1
 10
12370.60985007901
 20
-1535.529513684811
1001
ACAD
1010
0.0
1020
0.0
1030
0.0
  0
HATCH
  5
6A00
330
74
100
AcDbEntity
  8
AM_8 ( Schraffur)
100
AcDbHatch
 10
0.0
 20
0.0
 30
0.0
210
0.0
220
0.0
230
1.0
  2
ANSI37
 70
     0
 71
     1
 91
        1
 92
        7
 72
     0
 73
     1
 93
        4
 10
12010.05134442446
 20
-1894.462362880091
 10
12010.05134442446
 20
-2119.462359500931
 10
12760.05133316059
 20
-2119.462359500931
 10
12760.05133316059
 20
-1894.462362880091
 97
        4
330
5E94
330
5E97
330
5E96
330
5E95
 75
     0
 76
     1
 52
0.0
 41
4.0
 77
     0
 78
     2
 53
45.0
 43
-4.748822307285081
 44
-60.18751495498236
 45
-8.98025612106915
 46
8.98025612106915
 79
     0
 53
135.0
 43
-4.748822307285081
 44
-60.18751495498236
 45
-8.98025612106915
 46
-8.98025612106915
 79
     0
 47
4.907006446308217
 98
        1
 10
12424.76903988088
 20
-1963.742494239254
1001
ACAD
1010
0.0
1020
0.0
1030
0.0
  0
DIMENSION
  5
70C6
102
{ACAD_XDICTIONARY
360
70D4
102
}
102
{ACAD_REACTORS
330
70D5
102
}
330
74
100
AcDbEntity
  8
AM_5 ( Bemassung)
100
AcDbDimension
280
     0
  2
*D1
 10
11926.05134568601
 20
-1190.399065438608
 30
0.0
 11
12531.55133659231
 21
-1125.231944019781
 31
0.0
 70
    32
 71
     5
 42
1210.999981812612
 73
     0
 74
     0
 75
     0
  3
AM_DIN$0
100
AcDbAlignedDimension
 13
13137.05132749862
 23
-1546.899064698952
 33
0.0
 14
11926.05134568601
 24
-1552.94197347845
 34
0.0
100
AcDbRotatedDimension
1001
ACAD
1000
DSTYLE
1002
{
1070
    40
1040
20.0
1002
}
1001
ACAD_DSTYLE_DIMINSPECT
1070
   396
1000
100%
1070
   395
1000

1070
   394
1070
    33
1070
   393
1070
     0
  0
DIMENSION
  5
70E8
102
{ACAD_XDICTIONARY
360
70F7
102
}
102
{ACAD_REACTORS
330
70F8
102
}
330
74
100
AcDbEntity
  8
AM_5 ( Bemassung)
100
AcDbDimension
280
     0
  2
*D2
 10
11756.78415103927
 20
-1591.349064031382
 30
0.0
 11
11756.78415103927
 21
-1546.899064698955
 31
0.0
 70
   160
  1
3"\P
 71
     5
 42
88.89999866485004
 73
     0
 74
     0
 75
     0
  3
AM_DIN$0
100
AcDbAlignedDimension
 13
11942.5737491589
 23
-1502.449065366532
 33
0.0
 14
11952.73277268539
 24
-1591.349064031382
 34
0.0
 50
90.00000000000005
100
AcDbRotatedDimension
1001
ACAD_DSTYLE_DIMINSPECT
1070
   396
1000
100%
1070
   395
1000

1070
   394
1070
    33
1070
   393
1070
     0
1001
ACAD
1000
DSTYLE
1002
{
1070
    40
1040
20.0
1002
}
  0
DIMENSION
  5
73F9
102
{ACAD_XDICTIONARY
360
7408
102
}
102
{ACAD_REACTORS
330
7409
102
}
330
74
100
AcDbEntity
  8
AM_5 ( Bemassung)
100
AcDbDimension
280
     0
  2
*D8
 10
11983.05134482996
 20
-1786.143922328827
 30
0.0
 11
12223.18777047798
 21
-1786.143922328827
 31
0.0
 70
   160
 71
     5
 42
56.99999914395085
 73
     0
 74
     0
 75
     0
  3
AM_DIN$0
100
AcDbAlignedDimension
 13
11926.05134568601
 23
-1546.899064698957
 33
0.0
 14
11983.05134482996
 24
-1675.098835478332
 34
0.0
 50
0.0000000000001132
100
AcDbRotatedDimension
1001
ACAD_DSTYLE_DIMINSPECT
1070
   396
1000
100%
1070
   395
1000

1070
   394
1070
    33
1070
   393
1070
     0
1001
ACAD
1000
DSTYLE
1002
{
1070
    40
1040
20.0
1002
}
  0
DIMENSION
  5
7421
102
{ACAD_XDICTIONARY
360
742E
102
}
102
{ACAD_REACTORS
330
742F
102
}
330
74
100
AcDbEntity
  8
AM_5 ( Bemassung)
100
AcDbDimension
280
     0
  2
*D9
 10
12787.05133275509
 20
-1841.443105371054
 30
0.0
 11
12385.05133879252
 21
-1775.679121742132
 31
0.0
 70
    32
 71
     5
 42
803.9999879251318
 73
     0
 74
     0
 75
     0
  3
AM_DIN$0
100
AcDbAlignedDimension
 13
11983.05134482996
 23
-1906.962362692363
 33
0.0
 14
12787.05133275509
 24
-1902.49674007399
 34
0.0
100
AcDbRotatedDimension
1001
ACAD
1000
DSTYLE
1002
{
1070
    40
1040
20.0
1002
}
1001
ACAD_DSTYLE_DIMINSPECT
1070
   396
1000
100%
1070
   395
1000

1070
   394
1070
    33
1070
   393
1070
     0
  0
DIMENSION
  5
7442
102
{ACAD_XDICTIONARY
360
7451
102
}
102
{ACAD_REACTORS
330
7452
102
}
330
74
100
AcDbEntity
  8
AM_5 ( Bemassung)
100
AcDbDimension
280
     0
  2
*D10
 10
13367.0513286488
 20
-2101.462359771272
 30
0.0
 11
13301.28734501987
 21
-2365.521022799919
 31
0.0
 70
    32
 71
     5
 42
188.9999971615109
 73
     0
 74
     0
 75
     0
  3
AM_DIN$0
100
AcDbAlignedDimension
 13
12796.73835870714
 23
-1912.462362609761
 33
0.0
 14
12796.73835870714
 24
-2101.462359771272
 34
0.0
 50
90.00000000000003
100
AcDbRotatedDimension
1001
ACAD
1000
DSTYLE
1002
{
1070
    40
1040
20.0
1002
}
1001
ACAD_DSTYLE_DIMINSPECT
1070
   396
1000
100%
1070
   395
1000

1070
   394
1070
    33
1070
   393
1070
     0
  0
DIMENSION
  5
7469
102
{ACAD_XDICTIONARY
360
7478
102
}
102
{ACAD_REACTORS
330
7479
102
}
330
74
100
AcDbEntity
  8
AM_5 ( Bemassung)
100
AcDbDimension
280
     0
  2
*D11
 10
13680.45827157995
 20
-1546.899064698952
 30
0.0
 11
13680.45827157995
 21
-1974.378599011988
 31
0.0
 70
   160
 71
     5
 42
122.4999981602409
 73
     0
 74
     0
 75
     0
  3
AM_DIN$0
100
AcDbAlignedDimension
 13
13511.0901808764
 23
-1669.399062859193
 33
0.0
 14
13396.59018259602
 24
-1546.899064698952
 34
0.0
 50
90.00000000000003
100
AcDbRotatedDimension
1001
ACAD_DSTYLE_DIMINSPECT
1070
   396
1000
100%
1070
   395
1000

1070
   394
1070
    33
1070
   393
1070
     0
1001
ACAD
1000
DSTYLE
1002
{
1070
    40
1040
20.0
1002
}
  0
DIMENSION
  5
7490
102
{ACAD_XDICTIONARY
360
749F
102
}
102
{ACAD_REACTORS
330
74A0
102
}
330
74
100
AcDbEntity
  8
AM_5 ( Bemassung)
100
AcDbDimension
280
     0
  2
*D12
 10
13825.38980957036
 20
-1432.399066418569
 30
0.0
 11
13825.38980957036
 21
-1573.42047998466
 31
0.0
 70
   160
 71
     5
 42
236.9999964406238
 73
     0
 74
     0
 75
     0
  3
AM_DIN$0
100
AcDbAlignedDimension
 13
13511.0901808764
 23
-1669.399062859193
 33
0.0
 14
13396.59018259602
 24
-1432.399066418569
 34
0.0
 50
90.00000000000003
100
AcDbRotatedDimension
1001
ACAD_DSTYLE_DIMINSPECT
1070
   396
1000
100%
1070
   395
1000

1070
   394
1070
    33
1070
   393
1070
     0
1001
ACAD
1000
DSTYLE
1002
{
1070
    40
1040
20.0
1002
}
  0
DIMENSION
  5
74B3
102
{ACAD_XDICTIONARY
360
74C2
102
}
102
{ACAD_REACTORS
330
74C3
102
}
330
74
100
AcDbEntity
  8
AM_5 ( Bemassung)
100
AcDbDimension
280
     0
  2
*D13
 10
13302.09018401527
 20
-1737.869610943725
 30
0.0
 11
13038.03152098662
 21
-1672.105627314803
 31
0.0
 70
    32
 71
     5
 42
188.9999971614997
 73
     0
 74
     0
 75
     0
  3
AM_DIN$0
100
AcDbAlignedDimension
 13
13491.09018117677
 23
-1686.466187661343
 33
0.0
 14
13302.09018401527
 24
-1686.466187661343
 34
0.0
 50
0.0000000000001132
100
AcDbRotatedDimension
1001
ACAD
1000
DSTYLE
1002
{
1070
    40
1040
20.0
1002
}
1001
ACAD_DSTYLE_DIMINSPECT
1070
   396
1000
100%
1070
   395
1000

1070
   394
1070
    33
1070
   393
1070
     0
  0
DIMENSION
  5
7504
102
{ACAD_XDICTIONARY
360
7513
102
}
102
{ACAD_REACTORS
330
7514
102
}
330
74
100
AcDbEntity
  8
AM_5 ( Bemassung)
100
AcDbDimension
280
     0
  2
*D14
 10
12006.05134448453
 20
-1356.509124732199
 30
0.0
 11
12246.18777013255
 21
-1290.745141103277
 31
0.0
 70
    32
 71
     5
 42
79.99999879852111
 73
     0
 74
     0
 75
     0
  3
AM_DIN$0
100
AcDbAlignedDimension
 13
11926.05134568601
 23
-1497.307981713839
 33
0.0
 14
12006.05134448453
 24
-1432.399066418572
 34
0.0
100
AcDbRotatedDimension
1001
ACAD
1000
DSTYLE
1002
{
1070
    40
1040
20.0
1002
}
1001
ACAD_DSTYLE_DIMINSPECT
1070
   396
1000
100%
1070
   395
1000

1070
   394
1070
    33
1070
   393
1070
     0
  0
DIMENSION
  5
752B
102
{ACAD_XDICTIONARY
360
7538
102
}
102
{ACAD_REACTORS
330
7539
102
}
330
74
100
AcDbEntity
  8
AM_5 ( Bemassung)
100
AcDbDimension
280
     0
  2
*D15
 10
12764.05133310051
 20
-1353.481869223273
 30
0.0
 11
12950.55133029956
 21
-1287.71788559435
 31
0.0
 70
    32
 71
     5
 42
372.9999943981111
 73
     0
 74
     0
 75
     0
  3
AM_DIN$0
100
AcDbAlignedDimension
 13
13137.05132749862
 23
-1510.899065239622
 33
0.0
 14
12764.05133310051
 24
-1432.399066418572
 34
0.0
100
AcDbRotatedDimension
1001
ACAD
1000
DSTYLE
1002
{
1070
    40
1040
20.0
1002
}
1001
ACAD_DSTYLE_DIMINSPECT
1070
   396
1000
100%
1070
   395
1000

1070
   394
1070
    33
1070
   393
1070
     0
  0
ENDSEC
  0
SECTION
  2
OBJECTS
  0
DICTIONARY
  5
C
330
0
100
AcDbDictionary
281
     1
  3
ACAD_CIP_PREVIOUS_PRODUCT_INFO
350
7352
  3
ACAD_COLOR
350
6A
  3
ACAD_DETAILVIEWSTYLE
350
7346
  3
ACAD_FIELDLIST
350
736E
  3
ACAD_GROUP
350
D
  3
ACAD_LAYOUT
350
69
  3
ACAD_MATERIAL
350
10
  3
ACAD_MLEADERSTYLE
350
6D
  3
ACAD_MLINESTYLE
350
66
  3
ACAD_PLOTSETTINGS
350
68
  3
ACAD_PLOTSTYLENAME
350
E
  3
ACAD_RENDER_RAPIDRT_SETTINGS
350
73DB
  3
ACAD_SCALELIST
350
3A
  3
ACAD_SECTIONVIEWSTYLE
350
7344
  3
ACAD_TABLESTYLE
350
6B
  3
ACAD_VISUALSTYLE
350
29
  3
ACDB_RECOMPOSE_DATA
350
7556
  3
AcDbVariableDictionary
350
348C
  3
AcmDictionary
350
3423
  3
AMG
350
33C9
  3
AMGSNAPSETTINGS
350
3458
  3
ASE_INDEX_DICTIONARY
350
7127
  0
DICTIONARY
  5
3477
330
8
100
AcDbDictionary
280
     1
281
     1
  0
DICTIONARY
  5
3512
330
2
100
AcDbDictionary
280
     1
281
     1
  3
ACAD_LAYERSTATES
360
73C8
  3
AMLAYER_GROUPCOLORS
360
3513
  0
DICTIONARY
  5
345F
330
5C
100
AcDbDictionary
280
     1
281
     1
  3
ADSK_XREC_LAYER_RECONCILED
360
3460
  0
DICTIONARY
  5
3461
330
7A
100
AcDbDictionary
280
     1
281
     1
  3
ADSK_XREC_LAYER_RECONCILED
360
3462
  0
DICTIONARY
  5
38EF
330
74
100
AcDbDictionary
280
     1
281
     1
  3
ACAD_SORTENTS
360
38F0
  0
DICTIONARY
  5
70D4
330
70C6
100
AcDbDictionary
280
     1
281
     1
  3
ACAD_DIMASSOC
360
70D5
  0
DICTIONARY
  5
70F7
330
70E8
100
AcDbDictionary
280
     1
281
     1
  3
ACAD_DIMASSOC
360
70F8
  0
DICTIONARY
  5
7408
330
73F9
100
AcDbDictionary
280
     1
281
     1
  3
ACAD_DIMASSOC
360
7409
  0
DICTIONARY
  5
742E
330
7421
100
AcDbDictionary
280
     1
281
     1
  3
ACAD_DIMASSOC
360
742F
  0
DICTIONARY
  5
7451
330
7442
100
AcDbDictionary
280
     1
281
     1
  3
ACAD_DIMASSOC
360
7452
  0
DICTIONARY
  5
7478
330
7469
100
AcDbDictionary
280
     1
281
     1
  3
ACAD_DIMASSOC
360
7479
  0
DICTIONARY
  5
749F
330
7490
100
AcDbDictionary
280
     1
281
     1
  3
ACAD_DIMASSOC
360
74A0
  0
DICTIONARY
  5
74C2
330
74B3
100
AcDbDictionary
280
     1
281
     1
  3
ACAD_DIMASSOC
360
74C3
  0
DICTIONARY
  5
7513
330
7504
100
AcDbDictionary
280
     1
281
     1
  3
ACAD_DIMASSOC
360
7514
  0
DICTIONARY
  5
7538
330
752B
100
AcDbDictionary
280
     1
281
     1
  3
ACAD_DIMASSOC
360
7539
  0
XRECORD
  5
7352
102
{ACAD_REACTORS
330
C
102
}
330
C
100
AcDbXrecord
280
     1
300
AMECH_PP
300
2016
300
PDSU_F_S
  0
DICTIONARY
  5
6A
102
{ACAD_REACTORS
330
C
102
}
330
C
100
AcDbDictionary
281
     1
  0
DICTIONARY
  5
7346
102
{ACAD_REACTORS
330
C
102
}
330
C
100
AcDbDictionary
281
     1
  3
Metric50
350
7347
  0
FIELDLIST
  5
736E
102
{ACAD_REACTORS
330
C
102
}
330
C
100
AcDbIdSet
 90
       16
330
736C
330
736D
330
736F
330
7370
330
7379
330
737A
330
737B
330
7383
330
7384
330
7385
330
7389
330
738A
330
738B
330
7390
330
7391
330
7392
100
AcDbFieldList
  0
DICTIONARY
  5
D
102
{ACAD_REACTORS
330
C
102
}
330
C
100
AcDbDictionary
281
     1
  0
DICTIONARY
  5
69
102
{ACAD_REACTORS
330
C
102
}
330
C
100
AcDbDictionary
281
     1
  3
Layout1
350
73
  3
Model
350
77
  0
DICTIONARY
  5
10
102
{ACAD_REACTORS
330
C
102
}
330
C
100
AcDbDictionary
281
     1
  3
ByBlock
350
19
  3
ByLayer
350
11
  3
Global
350
21
  0
DICTIONARY
  5
6D
102
{ACAD_REACTORS
330
C
102
}
330
C
100
AcDbDictionary
281
     1
  3
Standard
350
6E
  0
DICTIONARY
  5
66
102
{ACAD_REACTORS
330
C
102
}
330
C
100
AcDbDictionary
281
     1
  3
Standard
350
67
  0
DICTIONARY
  5
68
102
{ACAD_REACTORS
330
C
102
}
330
C
100
AcDbDictionary
281
     1
  0
ACDBDICTIONARYWDFLT
  5
E
102
{ACAD_REACTORS
330
C
102
}
330
C
100
AcDbDictionary
281
     1
  3
Normal
350
F
100
AcDbDictionaryWithDefault
340
F
  0
DICTIONARY
  5
73DB
102
{ACAD_REACTORS
330
C
102
}
330
C
100
AcDbDictionary
281
     1
  3
Hoch
350
73DE
  3
Mittagsqualität
350
73E0
  3
Mittel
350
73DD
  3
Morgenqualität
350
73DF
  3
Nachtqualität
350
73E1
  3
Niedrig
350
73DC
  0
DICTIONARY
  5
3A
102
{ACAD_REACTORS
330
C
102
}
330
C
100
AcDbDictionary
281
     1
  3
A0
350
3B
  0
DICTIONARY
  5
7344
102
{ACAD_REACTORS
330
C
102
}
330
C
100
AcDbDictionary
281
     1
  3
Metric50
350
7345
  0
DICTIONARY
  5
6B
102
{ACAD_REACTORS
330
C
102
}
330
C
100
AcDbDictionary
281
     1
  3
Standard
350
6C
  0
DICTIONARY
  5
29
102
{ACAD_REACTORS
330
C
102
}
330
C
100
AcDbDictionary
281
     1
  3
2dWireframe
350
2F
  3
3D Hidden
350
31
  3
3dWireframe
350
30
  3
Basic
350
2E
  3
Brighten
350
35
  3
ColorChange
350
39
  3
Conceptual
350
32
  3
Dim
350
34
  3
EdgeColorOff
350
7343
  3
Facepattern
350
38
  3
Flat
350
2A
  3
FlatWithEdges
350
2B
  3
Gouraud
350
2C
  3
GouraudWithEdges
350
2D
  3
Hidden
350
733B
  3
JitterOff
350
7341
  3
Linepattern
350
37
  3
OverhangOff
350
7342
  3
Realistic
350
33
  3
Shaded
350
7340
  3
Shaded with edges
350
733F
  3
Shades of Gray
350
733C
  3
Sketchy
350
733D
  3
Thicken
350
36
  3
Wireframe
350
733A
  3
X-Ray
350
733E
  0
XRECORD
  5
7556
102
{ACAD_REACTORS
330
C
102
}
330
C
100
AcDbXrecord
280
     1
 90
        1
330
6C
330
7345
330
7347
  0
DICTIONARY
  5
348C
102
{ACAD_REACTORS
330
C
102
}
330
C
100
AcDbDictionary
281
     1
  3
CANNOSCALE
350
348F
  3
CMLEADERSTYLE
350
348E
  3
CTABLESTYLE
350
348D
  3
CVIEWDETAILSTYLE
350
73A7
  3
CVIEWSECTIONSTYLE
350
73A8
  3
DIMASSOC
350
3492
  3
INDEXCTL
350
3491
  3
LAYEREVAL
350
73A9
  3
LAYERNOTIFY
350
73AA
  3
LIGHTINGUNITS
350
4ACA
  3
MSLTSCALE
350
4AC9
  3
SORTENTS
350
3490
  0
DICTIONARY
  5
3423
102
{ACAD_REACTORS
330
C
102
}
330
C
100
AcDbDictionary
281
     1
  3
AcmBOM
350
7333
  3
AcmStdDictionary
350
342E
  3
AMDTSECTSYM_ARROWCOLOR
350
3443
  0
DICTIONARY
  5
33C9
102
{ACAD_REACTORS
330
C
102
}
330
C
100
AcDbDictionary
281
     1
  0
DICTIONARY
  5
3458
102
{ACAD_REACTORS
330
C
102
}
330
C
100
AcDbDictionary
281
     1
  0
DICTIONARY
  5
7127
102
{ACAD_REACTORS
330
C
102
}
330
C
100
AcDbDictionary
281
     1
  3
ASEBlockHierarchyIndexRecord
350
7128
1001
DCO15
1040
1634625311.688
  0
DICTIONARY
  5
73C8
102
{ACAD_REACTORS
330
3512
102
}
330
3512
100
AcDbDictionary
281
     1
  0
DICTIONARY
  5
3513
102
{ACAD_REACTORS
330
3512
102
}
330
3512
100
AcDbDictionary
280
     1
281
     1
  0
XRECORD
  5
3460
102
{ACAD_REACTORS
330
345F
102
}
330
345F
100
AcDbXrecord
280
     1
290
     1
  0
XRECORD
  5
3462
102
{ACAD_REACTORS
330
3461
102
}
330
3461
100
AcDbXrecord
280
     1
290
     1
  0
SORTENTSTABLE
  5
38F0
102
{ACAD_REACTORS
330
38EF
102
}
330
38EF
100
AcDbSortentsTable
330
74
331
5DEF
  5
6A90
331
5DEB
  5
6A57
331
5DAC
  5
6906
331
5D75
  5
68CF
331
5DE7
  5
6A0C
331
5DA8
  5
6902
331
5D71
  5
68CB
331
5E9C
  5
67EA
331
5E26
  5
683C
331
5E65
  5
687B
331
5DA4
  5
68FE
331
5D6D
  5
68C7
331
5DE3
  5
69EC
331
5E22
  5
6838
331
5E61
  5
6877
331
5E98
  5
67E6
331
5DA0
  5
68FA
331
5D69
  5
68C3
331
5E94
  5
67E2
331
5E1E
  5
6834
331
5E5D
  5
6873
331
5E90
  5
68A6
331
5E1A
  5
6830
331
5E59
  5
686F
331
5DDF
  5
69C5
331
5DDB
  5
6935
331
5D9C
  5
68F6
331
5D65
  5
68BF
331
5DD7
  5
6931
331
5D98
  5
68F2
331
5D61
  5
68BB
331
5E8C
  5
68A2
331
5E16
  5
682C
331
5E55
  5
686B
331
69FB
  5
68AB
331
5DD3
  5
692D
331
5D94
  5
68EE
331
5D5D
  5
68B7
331
5E88
  5
689E
331
5E12
  5
6828
331
5E51
  5
6867
331
5EC7
  5
6816
331
5D90
  5
68EA
331
5D59
  5
68B3
331
5E84
  5
689A
331
5E0E
  5
6824
331
5E4D
  5
6863
331
5EC3
  5
6812
331
5E80
  5
6896
331
5E0A
  5
6820
331
5E49
  5
685F
331
5DCF
  5
6929
331
5DCB
  5
6925
331
5D8C
  5
68E6
331
5D55
  5
68AF
331
5EBF
  5
680E
331
5DC7
  5
6921
331
5D88
  5
68E2
331
5D51
  5
68AA
331
5E7C
  5
6892
331
5E06
  5
681C
331
5E45
  5
685B
331
5EBB
  5
680A
331
5DC3
  5
691D
331
5D84
  5
68DE
331
5E78
  5
688E
331
5E02
  5
6818
331
5E41
  5
6857
331
5EB7
  5
6806
331
5D80
  5
68DA
331
5E74
  5
688A
331
5DFE
  5
6BBE
331
5E3D
  5
6853
331
5EB3
  5
6802
331
5E39
  5
684F
331
5DFA
  5
6B77
331
5E70
  5
6886
331
5DBF
  5
6919
331
5DBB
  5
6915
331
5EAF
  5
67FE
331
5DF6
  5
6B23
331
5DB7
  5
6911
331
5E35
  5
684B
331
5EAB
  5
67FA
331
5DF2
  5
6AD8
331
5D7C
  5
68D6
331
5DB3
  5
690D
331
5E31
  5
6847
331
5EA7
  5
67F5
331
5D78
  5
68D2
331
5E2D
  5
6843
331
5E6C
  5
6882
331
5EA3
  5
67F1
331
5E29
  5
683F
331
5E68
  5
687E
331
5DEE
  5
6A84
331
5DAF
  5
6909
331
5DEA
  5
6A3F
331
5D74
  5
68CE
331
5DAB
  5
6905
331
5E9F
  5
67ED
331
5DA7
  5
6901
331
5D70
  5
68CA
331
5DE6
  5
6A01
331
5E25
  5
683B
331
5E64
  5
687A
331
5E9B
  5
67E9
331
5D6C
  5
68C6
331
5DA3
  5
68FD
331
5DE2
  5
69E1
331
5E97
  5
67E5
331
5E21
  5
6837
331
5E60
  5
6876
331
5D68
  5
68C2
331
5E93
  5
68A9
331
5E1D
  5
6833
331
5E5C
  5
6872
331
5E19
  5
682F
331
5E58
  5
686E
331
5DDE
  5
69BC
331
5D9F
  5
68F9
331
5DDA
  5
6934
331
5D64
  5
68BE
331
5D9B
  5
68F5
331
5E8F
  5
68A5
331
5DD6
  5
6930
331
5D97
  5
68F1
331
5D60
  5
68BA
331
5E8B
  5
68A1
331
5E15
  5
682B
331
5E54
  5
686A
331
5DD2
  5
692C
331
5D5C
  5
68B6
331
5D93
  5
68ED
331
5E87
  5
689D
331
5E11
  5
6827
331
5E50
  5
6866
331
5EC6
  5
6815
331
5D58
  5
68B2
331
5E83
  5
6899
331
5E0D
  5
6823
331
5E4C
  5
6862
331
5EC2
  5
6811
331
5E09
  5
681F
331
5E48
  5
685E
331
5DCE
  5
6928
331
5D8F
  5
68E9
331
5DCA
  5
6924
331
5D54
  5
68AE
331
5D8B
  5
68E5
331
5E7F
  5
6895
331
5EBE
  5
680D
331
5D87
  5
68E1
331
5DC6
  5
6920
331
5E7B
  5
6891
331
5E05
  5
681B
331
5E44
  5
685A
331
5EBA
  5
6809
331
5D83
  5
68DD
331
5DC2
  5
691C
331
5E77
  5
688D
331
5E01
  5
6817
331
5E40
  5
6856
331
5EB6
  5
6805
331
5E73
  5
6889
331
5DFD
  5
6BA3
331
5E3C
  5
6852
331
5EB2
  5
6801
331
5DF9
  5
6B65
331
5E38
  5
684E
331
5DBE
  5
6918
331
5DBA
  5
6914
331
5EAE
  5
67FD
331
5DF5
  5
6B11
331
5D7F
  5
68D9
331
5DB6
  5
6910
331
5E34
  5
684A
331
5EAA
  5
67F9
331
5DF1
  5
6AB4
331
5D7B
  5
68D5
331
5DB2
  5
690C
331
5E30
  5
6846
331
5E6F
  5
6885
331
5EA6
  5
67F4
331
5EA2
  5
67F0
331
5E2C
  5
6842
331
5E6B
  5
6881
331
5E28
  5
683E
331
5DED
  5
6A78
331
5DAE
  5
6908
331
5D77
  5
68D1
331
5DE9
  5
6A2A
331
5DAA
  5
6904
331
5D73
  5
68CD
331
5E9E
  5
67EC
331
5E67
  5
687D
331
5DA6
  5
6900
331
5D6F
  5
68C9
331
5DE5
  5
69FC
331
5E9A
  5
67E8
331
5E24
  5
683A
331
5E63
  5
6879
331
5DA2
  5
68FC
331
5D6B
  5
68C5
331
5DE1
  5
69D8
331
5E96
  5
67E4
331
5E20
  5
6836
331
5E5F
  5
6875
331
5E92
  5
68A8
331
5E1C
  5
6832
331
5E5B
  5
6871
331
5E18
  5
682E
331
5DDD
  5
69B3
331
5D9E
  5
68F8
331
5D67
  5
68C1
331
5DD9
  5
6933
331
5D9A
  5
68F4
331
5D63
  5
68BD
331
5E8E
  5
68A4
331
5E57
  5
686D
331
5DD5
  5
692F
331
5D96
  5
68F0
331
5D5F
  5
68B9
331
5E8A
  5
68A0
331
5E14
  5
682A
331
5E53
  5
6869
331
5DD1
  5
692B
331
5D92
  5
68EC
331
5D5B
  5
68B5
331
5E86
  5
689C
331
5E10
  5
6826
331
5E4F
  5
6865
331
5EC5
  5
6814
331
5E82
  5
6898
331
5E0C
  5
6822
331
5E4B
  5
6861
331
5EC1
  5
6810
331
5E08
  5
681E
331
5DCD
  5
6927
331
5D8E
  5
68E8
331
5D57
  5
68B1
331
5DC9
  5
6923
331
5D8A
  5
68E4
331
5D53
  5
68AD
331
5E7E
  5
6894
331
5E47
  5
685D
331
5EBD
  5
680C
331
5D86
  5
68E0
331
51EF
  5
6208
331
5DC5
  5
691F
331
5E7A
  5
6890
331
5E04
  5
681A
331
5E43
  5
6859
331
5EB9
  5
6808
331
5D82
  5
68DC
331
5DC1
  5
691B
331
5E76
  5
688C
331
5E3F
  5
6855
331
5EB5
  5
6804
331
5E72
  5
6888
331
5DFC
  5
6B8B
331
5E3B
  5
6851
331
5EB1
  5
6800
331
5DF8
  5
6B53
331
5DBD
  5
6917
331
5DB9
  5
6913
331
5E37
  5
684D
331
5EAD
  5
67FC
331
5DF4
  5
6AFF
331
5D7E
  5
68D8
331
5DB5
  5
690F
331
5E33
  5
6849
331
5EA9
  5
67F8
331
5DF0
  5
6A9F
331
5D7A
  5
68D4
331
5DB1
  5
690B
331
5E2F
  5
6845
331
5E6E
  5
6884
331
5EA5
  5
67F3
331
5E2B
  5
6841
331
5E6A
  5
6880
331
5EA1
  5
67EF
331
5DEC
  5
6A6C
331
5DAD
  5
6907
331
5D76
  5
68D0
331
5DE8
  5
6A15
331
5DA9
  5
6903
331
5D72
  5
68CC
331
5E27
  5
683D
331
5E66
  5
687C
331
5E9D
  5
67EB
331
5DA5
  5
68FF
331
5D6E
  5
68C8
331
5DE4
  5
69F5
331
5E23
  5
6839
331
5E62
  5
6878
331
5E99
  5
67E7
331
5DA1
  5
68FB
331
5D6A
  5
68C4
331
5DE0
  5
69CF
331
5E95
  5
67E3
331
5E1F
  5
6835
331
5E5E
  5
6874
331
6A00
  5
67E1
331
5E91
  5
68A7
331
5E1B
  5
6831
331
5E5A
  5
6870
331
5DDC
  5
69A2
331
5D9D
  5
68F7
331
5D66
  5
68C0
331
5DD8
  5
6932
331
5D99
  5
68F3
331
5E8D
  5
68A3
331
5E17
  5
682D
331
5E56
  5
686C
331
5DD4
  5
692E
331
5D95
  5
68EF
331
5D5E
  5
68B8
331
5E89
  5
689F
331
5E13
  5
6829
331
5E52
  5
6868
331
5DD0
  5
692A
331
5D91
  5
68EB
331
5D5A
  5
68B4
331
5E85
  5
689B
331
5E0F
  5
6825
331
5E4E
  5
6864
331
5EC4
  5
6813
331
5E81
  5
6897
331
5E0B
  5
6821
331
5E4A
  5
6860
331
5EC0
  5
680F
331
5DCC
  5
6926
331
5D8D
  5
68E7
331
5D56
  5
68B0
331
5DC8
  5
6922
331
5D89
  5
68E3
331
5D52
  5
68AC
331
5E7D
  5
6893
331
5E07
  5
681D
331
5E46
  5
685C
331
5EBC
  5
680B
331
5DC4
  5
691E
331
5D85
  5
68DF
331
5E79
  5
688F
331
5E03
  5
6819
331
5E42
  5
6858
331
5EB8
  5
6807
331
5D81
  5
68DB
331
5DC0
  5
691A
331
5E75
  5
688B
331
5DFF
  5
6BD9
331
5E3E
  5
6854
331
5EB4
  5
6803
331
5E71
  5
6887
331
5DFB
  5
6B82
331
5E3A
  5
6850
331
5EB0
  5
67FF
331
5DBC
  5
6916
331
5DF7
  5
6B3B
331
5DB8
  5
6912
331
5E36
  5
684C
331
5EAC
  5
67FB
331
5DF3
  5
6AED
331
5DB4
  5
690E
331
5D7D
  5
68D7
331
5E32
  5
6848
331
5EA8
  5
67F6
331
5D79
  5
68D3
331
5DB0
  5
690A
331
5EA4
  5
67F2
331
5E2E
  5
6844
331
5E6D
  5
6883
331
5EA0
  5
67EE
331
5E2A
  5
6840
331
5E69
  5
687F
  0
DIMASSOC
  5
70D5
102
{ACAD_REACTORS
330
70D4
102
}
330
70D4
100
AcDbDimAssoc
330
70C6
 90
        3
 70
     0
 71
     0
  1
AcDbOsnapPointRef
 72
     6
331
5D51
 73
     0
 91
        0
 40
0.9631072992012759
 10
0.0
 20
0.0
 30
0.0
332
5D60
 74
     0
 92
        0
 75
     0
  1
AcDbOsnapPointRef
 72
    10
331
5D58
 73
     0
 91
        0
 40
0.4455593795473189
 10
0.0
 20
0.0
 30
0.0
 75
     0
  0
DIMASSOC
  5
70F8
102
{ACAD_REACTORS
330
70F7
102
}
330
70F7
100
AcDbDimAssoc
330
70E8
 90
        3
 70
     0
 71
     0
  1
AcDbOsnapPointRef
 72
    10
331
5DFE
 73
     0
 91
        0
 40
0.2065300465129946
 10
0.0
 20
0.0
 30
0.0
 75
     0
  1
AcDbOsnapPointRef
 72
    10
331
5D5E
 73
     0
 91
        0
 40
0.3335178425012646
 10
0.0
 20
0.0
 30
0.0
 75
     0
  0
DIMASSOC
  5
7409
102
{ACAD_REACTORS
330
7408
102
}
330
7408
100
AcDbDimAssoc
330
73F9
 90
        3
 70
     0
 71
     0
  1
AcDbOsnapPointRef
 72
     2
331
5D58
 73
     0
 91
        0
 40
0.0
 10
0.0
 20
0.0
 30
0.0
 75
     0
  1
AcDbOsnapPointRef
 72
    13
331
5D71
 73
     0
 91
        0
 40
0.0
 10
0.0
 20
0.0
 30
2.000000000000000E+50
 75
     0
  0
DIMASSOC
  5
742F
102
{ACAD_REACTORS
330
742E
102
}
330
742E
100
AcDbDimAssoc
330
7421
 90
        3
 70
     0
 71
     0
  1
AcDbOsnapPointRef
 72
     6
331
5EC2
 73
     0
 91
        0
 40
1.570796326794896
 10
0.0
 20
0.0
 30
0.0
332
5EC0
 74
     0
 92
        0
 75
     0
  1
AcDbOsnapPointRef
 72
     1
331
5EB2
 73
     0
 91
        0
 40
0.0
 10
0.0
 20
0.0
 30
2.000000000000000E+50
 75
     0
  0
DIMASSOC
  5
7452
102
{ACAD_REACTORS
330
7451
102
}
330
7451
100
AcDbDimAssoc
330
7442
 90
        3
 70
     0
 71
     0
  1
AcDbOsnapPointRef
 72
     1
331
5EB1
 73
     0
 91
        0
 40
0.0
 10
0.0
 20
0.0
 30
2.000000000000000E+50
 75
     0
  1
AcDbOsnapPointRef
 72
     1
331
5EB3
 73
     0
 91
        0
 40
0.0
 10
0.0
 20
0.0
 30
2.000000000000000E+50
 75
     0
  0
DIMASSOC
  5
7479
102
{ACAD_REACTORS
330
7478
102
}
330
7478
100
AcDbDimAssoc
330
7469
 90
        3
 70
     0
 71
     0
  1
AcDbOsnapPointRef
 72
     1
331
5E86
 73
     0
 91
        0
 40
0.0
 10
0.0
 20
0.0
 30
2.000000000000000E+50
 75
     0
  1
AcDbOsnapPointRef
 72
     2
331
5E8A
 73
     0
 91
        0
 40
0.0
 10
0.0
 20
0.0
 30
0.0
 75
     0
  0
DIMASSOC
  5
74A0
102
{ACAD_REACTORS
330
749F
102
}
330
749F
100
AcDbDimAssoc
330
7490
 90
        3
 70
     0
 71
     0
  1
AcDbOsnapPointRef
 72
     1
331
5E86
 73
     0
 91
        0
 40
0.0
 10
0.0
 20
0.0
 30
2.000000000000000E+50
 75
     0
  1
AcDbOsnapPointRef
 72
     2
331
5E8D
 73
     0
 91
        0
 40
0.0
 10
0.0
 20
0.0
 30
0.0
 75
     0
  0
DIMASSOC
  5
74C3
102
{ACAD_REACTORS
330
74C2
102
}
330
74C2
100
AcDbDimAssoc
330
74B3
 90
        3
 70
     0
 71
     0
  1
AcDbOsnapPointRef
 72
    13
331
5E84
 73
     0
 91
        0
 40
0.0
 10
0.0
 20
0.0
 30
2.000000000000000E+50
 75
     0
  1
AcDbOsnapPointRef
 72
    13
331
5E32
 73
     0
 91
        0
 40
0.0
 10
0.0
 20
0.0
 30
2.000000000000000E+50
 75
     0
  0
DIMASSOC
  5
7514
102
{ACAD_REACTORS
330
7513
102
}
330
7513
100
AcDbDimAssoc
330
7504
 90
        3
 70
     0
 71
     0
  1
AcDbOsnapPointRef
 72
     1
331
5D58
 73
     0
 91
        0
 40
0.946766520089193
 10
0.0
 20
0.0
 30
2.000000000000000E+50
 75
     0
  1
AcDbOsnapPointRef
 72
     1
331
5DEE
 73
     0
 91
        0
 40
0.0
 10
0.0
 20
0.0
 30
2.000000000000000E+50
 75
     0
  0
DIMASSOC
  5
7539
102
{ACAD_REACTORS
330
7538
102
}
330
7538
100
AcDbDimAssoc
330
752B
 90
        3
 70
     0
 71
     0
  1
AcDbOsnapPointRef
 72
     1
331
5D60
 73
     0
 91
        0
 40
0.0
 10
0.0
 20
0.0
 30
2.000000000000000E+50
 75
     0
  1
AcDbOsnapPointRef
 72
     1
331
5DF7
 73
     0
 91
        0
 40
0.0
 10
0.0
 20
0.0
 30
2.000000000000000E+50
 75
     0
  0
ACDBDETAILVIEWSTYLE
  5
7347
102
{ACAD_XDICTIONARY
360
739D
102
}
102
{ACAD_REACTORS
330
7346
330
7360
330
7362
330
7364
102
}
330
7346
100
AcDbModelDocViewStyle
 70
     0
  3
Metric50
290
     0
100
AcDbDetailViewStyle
 70
     0
 71
     0
 90
        3
 71
     1
340
5D
 62
   256
 40
5.0
340
0
 62
   256
 40
5.0
300

 40
0.0
280
     1
 71
     2
340
64
 90
       25
 62
   256
 71
     3
340
5D
 62
   256
 40
5.0
 90
        0
 40
15.0
 90
        1
300
%<\AcVar ViewDetailId>% (%<\AcVar ViewScale \f "%sn">%)
 71
     4
340
64
 90
       25
 62
   256
340
64
 90
       25
 62
   256
280
     0
  0
LAYOUT
  5
73
102
{ACAD_REACTORS
330
69
102
}
330
69
100
AcDbPlotSettings
  1

  2
\\OASE42\HP DesignJet 500 42+HPGL2 Card
  4

  6

 40
0.0
 41
0.0
 42
0.0
 43
0.0
 44
0.0
 45
0.0
 46
0.0
 47
0.0
 48
0.0
 49
0.0
140
0.0
141
0.0
142
1.0
143
1.0
 70
   688
 72
     0
 73
     0
 74
     5
  7
C:\Dokumente und Einstellungen\guzb562\Anwendungsdaten\Autodesk\Autodesk Mechanical Desktop 2008\R17.1\deu\Plot Styles\OASE.ctb
 75
    16
147
1.0
 76
     0
 77
     2
 78
   300
148
0.0
149
0.0
100
AcDbLayout
  1
Layout1
 70
     1
 71
     1
 10
0.0
 20
0.0
 11
12.0
 21
9.0
 12
0.0
 22
0.0
 32
0.0
 14
1.000000000000000E+20
 24
1.000000000000000E+20
 34
1.000000000000000E+20
 15
-1.000000000000000E+20
 25
-1.000000000000000E+20
 35
-1.000000000000000E+20
146
0.0
 13
0.0
 23
0.0
 33
0.0
 16
1.0
 26
0.0
 36
0.0
 17
0.0
 27
1.0
 37
0.0
 76
     0
330
70
  0
LAYOUT
  5
77
102
{ACAD_REACTORS
330
69
102
}
330
69
100
AcDbPlotSettings
  1

  2
Kein
  4
ISO_A4_(210.00_x_297.00_MM)
  6

 40
7.5
 41
20.0
 42
7.5
 43
20.0
 44
210.0
 45
297.0
 46
0.0
 47
0.0
 48
0.0
 49
0.0
140
0.0
141
0.0
142
1.0
143
19.14259595361059
 70
 11952
 72
     1
 73
     1
 74
     0
  7
C:\Dokumente und Einstellungen\guzb562\Anwendungsdaten\Autodesk\Autodesk Mechanical Desktop 2008\R17.1\deu\Plot Styles\OASE.ctb
 75
     0
147
0.0522395187373416
 76
     0
 77
     2
 78
   300
148
-11001.00096121507
149
2896.354034708128
100
AcDbLayout
  1
Model
 70
     1
 71
     0
 10
0.0
 20
0.0
 11
12.0
 21
9.0
 12
0.0
 22
0.0
 32
0.0
 14
0.0
 24
0.0
 34
0.0
 15
0.0
 25
0.0
 35
0.0
146
0.0
 13
0.0
 23
0.0
 33
0.0
 16
1.0
 26
0.0
 36
0.0
 17
0.0
 27
1.0
 37
0.0
 76
     0
330
74
331
84
1001
ACAD_PSEXT
1000
Kein
1000
Kein
1000
Nicht anwendbar
1000
Das Layout wird erst geplottet, wenn ein neuer Plotter-Konfigurationsname ausgewählt wird.
1070
     0
  0
MATERIAL
  5
19
102
{ACAD_XDICTIONARY
360
1A
102
}
102
{ACAD_REACTORS
330
10
102
}
330
10
100
AcDbMaterial
  1
ByBlock
 72
     0
 43
0.0208333333333333
 43
0.0
 43
0.0
 43
0.0
 43
0.0
 43
0.0208333333333333
 43
0.0
 43
0.0
 43
0.0
 43
0.0
 43
1.0
 43
0.0
 43
0.0
 43
0.0
 43
0.0
 43
1.0
 77
     0
 47
0.0208333333333333
 47
0.0
 47
0.0
 47
0.0
 47
0.0
 47
0.0208333333333333
 47
0.0
 47
0.0
 47
0.0
 47
0.0
 47
1.0
 47
0.0
 47
0.0
 47
0.0
 47
0.0
 47
1.0
171
     0
 49
0.0208333333333333
 49
0.0
 49
0.0
 49
0.0
 49
0.0
 49
0.0208333333333333
 49
0.0
 49
0.0
 49
0.0
 49
0.0
 49
1.0
 49
0.0
 49
0.0
 49
0.0
 49
0.0
 49
1.0
175
     0
142
0.0208333333333333
142
0.0
142
0.0
142
0.0
142
0.0
142
0.0208333333333333
142
0.0
142
0.0
142
0.0
142
0.0
142
1.0
142
0.0
142
0.0
142
0.0
142
0.0
142
1.0
179
     0
144
0.0208333333333333
144
0.0
144
0.0
144
0.0
144
0.0
144
0.0208333333333333
144
0.0
144
0.0
144
0.0
144
0.0
144
1.0
144
0.0
144
0.0
144
0.0
144
0.0
144
1.0
147
0.0208333333333333
147
0.0
147
0.0
147
0.0
147
0.0
147
0.0208333333333333
147
0.0
147
0.0
147
0.0
147
0.0
147
1.0
147
0.0
147
0.0
147
0.0
147
0.0
147
1.0
  0
MATERIAL
  5
11
102
{ACAD_XDICTIONARY
360
12
102
}
102
{ACAD_REACTORS
330
10
102
}
330
10
100
AcDbMaterial
  1
ByLayer
 72
     0
 43
0.0208333333333333
 43
0.0
 43
0.0
 43
0.0
 43
0.0
 43
0.0208333333333333
 43
0.0
 43
0.0
 43
0.0
 43
0.0
 43
1.0
 43
0.0
 43
0.0
 43
0.0
 43
0.0
 43
1.0
 77
     0
 47
0.0208333333333333
 47
0.0
 47
0.0
 47
0.0
 47
0.0
 47
0.0208333333333333
 47
0.0
 47
0.0
 47
0.0
 47
0.0
 47
1.0
 47
0.0
 47
0.0
 47
0.0
 47
0.0
 47
1.0
171
     0
 49
0.0208333333333333
 49
0.0
 49
0.0
 49
0.0
 49
0.0
 49
0.0208333333333333
 49
0.0
 49
0.0
 49
0.0
 49
0.0
 49
1.0
 49
0.0
 49
0.0
 49
0.0
 49
0.0
 49
1.0
175
     0
142
0.0208333333333333
142
0.0
142
0.0
142
0.0
142
0.0
142
0.0208333333333333
142
0.0
142
0.0
142
0.0
142
0.0
142
1.0
142
0.0
142
0.0
142
0.0
142
0.0
142
1.0
179
     0
144
0.0208333333333333
144
0.0
144
0.0
144
0.0
144
0.0
144
0.0208333333333333
144
0.0
144
0.0
144
0.0
144
0.0
144
1.0
144
0.0
144
0.0
144
0.0
144
0.0
144
1.0
147
0.0208333333333333
147
0.0
147
0.0
147
0.0
147
0.0
147
0.0208333333333333
147
0.0
147
0.0
147
0.0
147
0.0
147
1.0
147
0.0
147
0.0
147
0.0
147
0.0
147
1.0
  0
MATERIAL
  5
21
102
{ACAD_XDICTIONARY
360
22
102
}
102
{ACAD_REACTORS
330
10
102
}
330
10
100
AcDbMaterial
  1
Global
 72
     0
 43
0.0208333333333333
 43
0.0
 43
0.0
 43
0.0
 43
0.0
 43
0.0208333333333333
 43
0.0
 43
0.0
 43
0.0
 43
0.0
 43
1.0
 43
0.0
 43
0.0
 43
0.0
 43
0.0
 43
1.0
 77
     0
 47
0.0208333333333333
 47
0.0
 47
0.0
 47
0.0
 47
0.0
 47
0.0208333333333333
 47
0.0
 47
0.0
 47
0.0
 47
0.0
 47
1.0
 47
0.0
 47
0.0
 47
0.0
 47
0.0
 47
1.0
171
     0
 49
0.0208333333333333
 49
0.0
 49
0.0
 49
0.0
 49
0.0
 49
0.0208333333333333
 49
0.0
 49
0.0
 49
0.0
 49
0.0
 49
1.0
 49
0.0
 49
0.0
 49
0.0
 49
0.0
 49
1.0
175
     0
142
0.0208333333333333
142
0.0
142
0.0
142
0.0
142
0.0
142
0.0208333333333333
142
0.0
142
0.0
142
0.0
142
0.0
142
1.0
142
0.0
142
0.0
142
0.0
142
0.0
142
1.0
179
     0
144
0.0208333333333333
144
0.0
144
0.0
144
0.0
144
0.0
144
0.0208333333333333
144
0.0
144
0.0
144
0.0
144
0.0
144
1.0
144
0.0
144
0.0
144
0.0
144
0.0
144
1.0
147
0.0208333333333333
147
0.0
147
0.0
147
0.0
147
0.0
147
0.0208333333333333
147
0.0
147
0.0
147
0.0
147
0.0
147
1.0
147
0.0
147
0.0
147
0.0
147
0.0
147
1.0
  0
MLEADERSTYLE
  5
6E
102
{ACAD_REACTORS
330
6D
102
}
330
6D
100
AcDbMLeaderStyle
179
     2
170
     2
171
     1
172
     0
 90
        2
 40
0.0
 41
0.0
173
     1
 91
-1056964608
340
62
 92
       -2
290
     1
 42
0.09
291
     1
 43
0.36
  3
Standard
 44
0.18
300

342
5D
174
     1
178
     6
175
     1
176
     0
 93
-1056964608
 45
0.18
292
     0
297
     0
 46
0.18
 94
-1056964608
 47
1.0
 49
1.0
140
1.0
293
     1
141
0.0
294
     1
177
     0
142
1.0
295
     0
296
     0
143
0.125
271
     0
272
     9
273
     9
298
     0
  0
MLINESTYLE
  5
67
102
{ACAD_REACTORS
330
66
102
}
330
66
100
AcDbMlineStyle
  2
STANDARD
 70
     0
  3

 62
   256
 51
90.0
 52
90.0
 71
     2
 49
0.5
 62
   256
  6
BYLAYER
 49
-0.5
 62
   256
  6
BYLAYER
  0
ACDBPLACEHOLDER
  5
F
102
{ACAD_REACTORS
330
E
102
}
330
E
  0
RAPIDRTRENDERSETTINGS
  5
73DE
102
{ACAD_REACTORS
330
73DB
102
}
330
73DB
100
AcDbRenderSettings
 90
        2
  1
Hoch
290
     1
290
     0
290
     1
290
     1
  1

  1
Wendet 10 Render-Ebenen an
 90
        2
100
AcDbRapidRTRenderSettings
 90
        3
 70
     0
 90
       10
 90
        1
 70
     2
 70
     2
 40
3.0
 40
3.0
290
     1
  0
RAPIDRTRENDERSETTINGS
  5
73E0
102
{ACAD_REACTORS
330
73DB
102
}
330
73DB
100
AcDbRenderSettings
 90
        2
  1
Mittagsqualität
290
     1
290
     0
290
     1
290
     1
  1

  1
Rendert für 60 Minuten
 90
        4
100
AcDbRapidRTRenderSettings
 90
        3
 70
     1
 90
        1
 90
       60
 70
     2
 70
     2
 40
3.0
 40
3.0
290
     1
  0
RAPIDRTRENDERSETTINGS
  5
73DD
102
{ACAD_REACTORS
330
73DB
102
}
330
73DB
100
AcDbRenderSettings
 90
        2
  1
Mittel
290
     1
290
     0
290
     1
290
     1
  1

  1
Wendet 5 Render-Ebenen an
 90
        1
100
AcDbRapidRTRenderSettings
 90
        3
 70
     0
 90
        5
 90
        1
 70
     1
 70
     2
 40
3.0
 40
3.0
290
     1
  0
RAPIDRTRENDERSETTINGS
  5
73DF
102
{ACAD_REACTORS
330
73DB
102
}
330
73DB
100
AcDbRenderSettings
 90
        2
  1
Morgenqualität
290
     1
290
     0
290
     1
290
     1
  1

  1
Rendert für 10 Minuten
 90
        3
100
AcDbRapidRTRenderSettings
 90
        3
 70
     1
 90
        1
 90
       10
 70
     1
 70
     2
 40
3.0
 40
3.0
290
     1
  0
RAPIDRTRENDERSETTINGS
  5
73E1
102
{ACAD_REACTORS
330
73DB
102
}
330
73DB
100
AcDbRenderSettings
 90
        2
  1
Nachtqualität
290
     1
290
     0
290
     1
290
     1
  1

  1
Rendert für 12 Stunden
 90
        5
100
AcDbRapidRTRenderSettings
 90
        3
 70
     1
 90
        1
 90
      720
 70
     2
 70
     2
 40
3.0
 40
3.0
290
     1
  0
RAPIDRTRENDERSETTINGS
  5
73DC
102
{ACAD_REACTORS
330
73DB
102
}
330
73DB
100
AcDbRenderSettings
 90
        2
  1
Niedrig
290
     1
290
     0
290
     1
290
     1
  1

  1
Wendet 1 Render-Ebene an
 90
        0
100
AcDbRapidRTRenderSettings
 90
        3
 70
     0
 90
        1
 90
        1
 70
     0
 70
     2
 40
3.0
 40
3.0
290
     1
  0
SCALE
  5
3B
102
{ACAD_REACTORS
330
3A
102
}
330
3A
100
AcDbScale
 70
     0
300
1:1
140
1.0
141
1.0
290
     1
  0
ACDBSECTIONVIEWSTYLE
  5
7345
102
{ACAD_XDICTIONARY
360
739B
102
}
102
{ACAD_REACTORS
330
7344
330
735F
330
7361
330
7363
102
}
330
7344
100
AcDbModelDocViewStyle
 70
     0
  3
Metric50
290
     0
100
AcDbSectionViewStyle
 70
     0
 71
     0
 90
      102
 71
     1
340
5D
 62
   256
 40
5.0
340
0
340
0
 62
   256
 40
5.0
300
I, O, Q, S, X, Z
 40
10.0
 90
        0
 40
2.5
 90
        0
 71
     2
340
64
 90
       25
 62
   256
340
64
 90
       50
 62
   256
 40
5.0
 40
2.5
 40
5.0
 71
     3
340
5D
 62
   256
 40
5.0
 90
        0
 40
15.0
 90
        1
300
%<\AcVar ViewSectionStartId>%-%<\AcVar ViewSectionEndId>% (%<\AcVar ViewScale \f "%sn">%)
 71
     4
 62
   256
 62
   257
300
ANSI31
 40
1.0
 90
        0
290
     0
290
     0
 90
        6
 40
0.0
 40
1.570796326794896
 40
0.2617993877991494
 40
1.308996938995747
 40
-0.2617993877991494
 40
1.832595714594046
  0
TABLESTYLE
  5
6C
102
{ACAD_XDICTIONARY
360
3473
102
}
102
{ACAD_REACTORS
330
6B
102
}
330
6B
100
AcDbTableStyle
280
     0
  3
Standard
 70
     0
 71
     0
 40
0.06
 41
0.06
280
     0
281
     0
  7
STANDARD
140
0.18
170
     2
 62
     0
 63
     7
283
     0
 90
      512
 91
        0
  1

274
    -2
284
     1
 64
     0
275
    -2
285
     1
 65
     0
276
    -2
286
     1
 66
     0
277
    -2
287
     1
 67
     0
278
    -2
288
     1
 68
     0
279
    -2
289
     1
 69
     0
  7
STANDARD
140
0.25
170
     5
 62
     0
 63
     7
283
     0
 90
      512
 91
        0
  1

274
    -2
284
     1
 64
     0
275
    -2
285
     1
 65
     0
276
    -2
286
     1
 66
     0
277
    -2
287
     1
 67
     0
278
    -2
288
     1
 68
     0
279
    -2
289
     1
 69
     0
  7
STANDARD
140
0.18
170
     5
 62
     0
 63
     7
283
     0
 90
      512
 91
        0
  1

274
    -2
284
     1
 64
     0
275
    -2
285
     1
 65
     0
276
    -2
286
     1
 66
     0
277
    -2
287
     1
 67
     0
278
    -2
288
     1
 68
     0
279
    -2
289
     1
 69
     0
  0
VISUALSTYLE
  5
2F
102
{ACAD_REACTORS
330
29
102
}
330
29
100
AcDbVisualStyle
  2
2dWireframe
 70
     4
177
     3
291
     0
 70
    58
 90
        0
176
     1
 90
        2
176
     1
 90
        0
176
     1
 90
        0
176
     1
 40
0.6
176
     1
 40
30.0
176
     1
 62
     7
176
     1
 90
        1
176
     1
 90
        4
176
     1
 62
     7
176
     1
 62
   257
176
     1
 90
        1
176
     1
 90
        1
176
     1
 40
1.0
176
     1
 90
        0
176
     1
 62
   257
176
     1
 40
1.0
176
     1
 90
        1
176
     1
 90
        6
176
     1
 90
        2
176
     1
 62
     7
176
     1
 90
        5
176
     1
 90
        0
176
     1
 90
        0
176
     1
290
     0
176
     1
 90
        1
176
     1
 40
0.0
176
     1
 90
        0
176
     1
290
     1
176
     1
290
     1
176
     1
290
     0
176
     1
290
     0
176
     1
290
     0
176
     1
290
     0
176
     1
290
     0
176
     1
290
     0
176
     1
290
     0
176
     1
 90
       50
176
     1
 40
0.0
176
     1
 40
1.0
176
     1
 90
        0
176
     1
 62
    18
420
        0
176
     1
 90
       50
176
     1
 90
        3
176
     1
 62
     5
420
      255
176
     1
290
     0
176
     1
 90
       50
176
     1
 90
       50
176
     1
 90
       50
176
     1
290
     0
176
     1
 90
       50
176
     1
 62
   256
176
     0
 40
1.0
176
     0
 90
        2
176
     1
  1
strokes_ogs.tif
176
     1
290
     0
176
     1
 40
1.0
176
     1
 40
1.0
176
     1
1001
ACAD
1000
AcDbSavedByObjectVersion
1070
     0
  0
VISUALSTYLE
  5
31
102
{ACAD_REACTORS
330
29
102
}
330
29
100
AcDbVisualStyle
  2
3D Hidden
 70
     6
177
     3
291
     0
 70
    58
 90
        1
176
     1
 90
        2
176
     1
 90
        2
176
     1
 90
        0
176
     1
 40
0.6
176
     1
 40
30.0
176
     1
 62
     7
176
     1
 90
        2
176
     1
 90
        2
176
     1
 62
     7
176
     1
 62
   257
176
     1
 90
        2
176
     1
 90
        1
176
     1
 40
40.0
176
     1
 90
        0
176
     1
 62
   257
176
     1
 40
1.0
176
     1
 90
        1
176
     1
 90
        6
176
     1
 90
        2
176
     1
 62
     7
176
     1
 90
        3
176
     1
 90
        0
176
     1
 90
        0
176
     1
290
     0
176
     1
 90
        1
176
     1
 40
0.0
176
     1
 90
        0
176
     1
290
     0
176
     1
290
     1
176
     1
290
     1
176
     1
290
     0
176
     1
290
     0
176
     1
290
     0
176
     1
290
     0
176
     1
290
     0
176
     1
290
     0
176
     1
 90
       50
176
     1
 40
0.0
176
     1
 40
1.0
176
     1
 90
        0
176
     1
 62
    18
420
        0
176
     1
 90
       50
176
     1
 90
        3
176
     1
 62
     5
420
      255
176
     1
290
     0
176
     1
 90
       50
176
     1
 90
       50
176
     1
 90
       50
176
     1
290
     0
176
     1
 90
       50
176
     1
 62
   256
176
     0
 40
1.0
176
     0
 90
        2
176
     1
  1
strokes_ogs.tif
176
     1
290
     0
176
     1
 40
1.0
176
     1
 40
1.0
176
     1
1001
ACAD
1000
AcDbSavedByObjectVersion
1070
     0
  0
VISUALSTYLE
  5
30
102
{ACAD_REACTORS
330
29
102
}
330
29
100
AcDbVisualStyle
  2
3dWireframe
 70
     5
177
     3
291
     0
 70
    58
 90
        0
176
     1
 90
        2
176
     1
 90
        0
176
     1
 90
        0
176
     1
 40
0.6
176
     1
 40
30.0
176
     1
 62
     7
176
     1
 90
        1
176
     1
 90
        4
176
     1
 62
     7
176
     1
 62
   257
176
     1
 90
        1
176
     1
 90
        1
176
     1
 40
1.0
176
     1
 90
        0
176
     1
 62
   257
176
     1
 40
1.0
176
     1
 90
        1
176
     1
 90
        6
176
     1
 90
        2
176
     1
 62
     7
176
     1
 90
        5
176
     1
 90
        0
176
     1
 90
        0
176
     1
290
     0
176
     1
 90
        1
176
     1
 40
0.0
176
     1
 90
        0
176
     1
290
     0
176
     1
290
     1
176
     1
290
     1
176
     1
290
     0
176
     1
290
     0
176
     1
290
     0
176
     1
290
     0
176
     1
290
     0
176
     1
290
     0
176
     1
 90
       50
176
     1
 40
0.0
176
     1
 40
1.0
176
     1
 90
        0
176
     1
 62
    18
420
        0
176
     1
 90
       50
176
     1
 90
        3
176
     1
 62
     5
420
      255
176
     1
290
     0
176
     1
 90
       50
176
     1
 90
       50
176
     1
 90
       50
176
     1
290
     0
176
     1
 90
       50
176
     1
 62
   256
176
     0
 40
1.0
176
     0
 90
        2
176
     1
  1
strokes_ogs.tif
176
     1
290
     0
176
     1
 40
1.0
176
     1
 40
1.0
176
     1
1001
ACAD
1000
AcDbSavedByObjectVersion
1070
     0
  0
VISUALSTYLE
  5
2E
102
{ACAD_REACTORS
330
29
102
}
330
29
100
AcDbVisualStyle
  2
Basic
 70
     7
177
     3
291
     1
 70
    58
 90
        1
176
     1
 90
        0
176
     1
 90
        1
176
     1
 90
        0
176
     1
 40
0.6
176
     1
 40
30.0
176
     1
 62
     7
176
     1
 90
        0
176
     1
 90
        4
176
     1
 62
     7
176
     1
 62
   257
176
     1
 90
        1
176
     1
 90
        1
176
     1
 40
1.0
176
     1
 90
        8
176
     1
 62
     7
176
     1
 40
1.0
176
     1
 90
        1
176
     1
 90
        6
176
     1
 90
        2
176
     1
 62
     7
176
     1
 90
        5
176
     1
 90
        0
176
     1
 90
        0
176
     1
290
     0
176
     1
 90
        1
176
     1
 40
0.0
176
     1
 90
        0
176
     1
290
     0
176
     1
290
     1
176
     1
290
     1
176
     1
290
     0
176
     1
290
     0
176
     1
290
     0
176
     1
290
     0
176
     1
290
     0
176
     1
290
     0
176
     1
 90
       50
176
     1
 40
0.0
176
     1
 40
1.0
176
     1
 90
        0
176
     1
 62
    18
420
        0
176
     1
 90
       50
176
     1
 90
        3
176
     1
 62
     5
420
      255
176
     1
290
     0
176
     1
 90
       50
176
     1
 90
       50
176
     1
 90
       50
176
     1
290
     0
176
     1
 90
       50
176
     1
 62
   256
176
     0
 40
1.0
176
     0
 90
        2
176
     1
  1
strokes_ogs.tif
176
     1
290
     0
176
     1
 40
1.0
176
     1
 40
1.0
176
     1
1001
ACAD
1000
AcDbSavedByObjectVersion
1070
     0
  0
VISUALSTYLE
  5
35
102
{ACAD_REACTORS
330
29
102
}
330
29
100
AcDbVisualStyle
  2
Brighten
 70
    12
177
     3
291
     1
 70
    58
 90
        2
176
     1
 90
        2
176
     1
 90
        0
176
     1
 90
        0
176
     1
 40
0.6
176
     1
 40
30.0
176
     1
 62
     7
176
     1
 90
        1
176
     1
 90
        4
176
     1
 62
     7
176
     1
 62
   257
176
     1
 90
        1
176
     1
 90
        1
176
     1
 40
1.0
176
     1
 90
        8
176
     1
 62
     7
176
     1
 40
1.0
176
     1
 90
        1
176
     1
 90
        6
176
     1
 90
        2
176
     1
 62
     7
176
     1
 90
        5
176
     1
 90
        0
176
     1
 90
        0
176
     1
290
     0
176
     1
 90
        1
176
     1
 40
50.0
176
     1
 90
        0
176
     1
290
     0
176
     1
290
     1
176
     1
290
     1
176
     1
290
     0
176
     1
290
     0
176
     1
290
     0
176
     1
290
     0
176
     1
290
     0
176
     1
290
     0
176
     1
 90
       50
176
     1
 40
0.0
176
     1
 40
1.0
176
     1
 90
        0
176
     1
 62
    18
420
        0
176
     1
 90
       50
176
     1
 90
        3
176
     1
 62
     5
420
      255
176
     1
290
     0
176
     1
 90
       50
176
     1
 90
       50
176
     1
 90
       50
176
     1
290
     0
176
     1
 90
       50
176
     1
 62
   256
176
     0
 40
1.0
176
     0
 90
        2
176
     1
  1
strokes_ogs.tif
176
     1
290
     0
176
     1
 40
1.0
176
     1
 40
1.0
176
     1
1001
ACAD
1000
AcDbSavedByObjectVersion
1070
     0
  0
VISUALSTYLE
  5
39
102
{ACAD_REACTORS
330
29
102
}
330
29
100
AcDbVisualStyle
  2
ColorChange
 70
    16
177
     3
291
     1
 70
    58
 90
        2
176
     1
 90
        2
176
     1
 90
        3
176
     1
 90
        0
176
     1
 40
0.6
176
     1
 40
30.0
176
     1
 62
     8
176
     1
 90
        1
176
     1
 90
        4
176
     1
 62
     7
176
     1
 62
   257
176
     1
 90
        1
176
     1
 90
        1
176
     1
 40
1.0
176
     1
 90
        8
176
     1
 62
     8
176
     1
 40
1.0
176
     1
 90
        1
176
     1
 90
        6
176
     1
 90
        2
176
     1
 62
     7
176
     1
 90
        5
176
     1
 90
        0
176
     1
 90
        0
176
     1
290
     0
176
     1
 90
        1
176
     1
 40
0.0
176
     1
 90
        0
176
     1
290
     0
176
     1
290
     1
176
     1
290
     1
176
     1
290
     0
176
     1
290
     0
176
     1
290
     0
176
     1
290
     0
176
     1
290
     0
176
     1
290
     0
176
     1
 90
       50
176
     1
 40
0.0
176
     1
 40
1.0
176
     1
 90
        0
176
     1
 62
    18
420
        0
176
     1
 90
       50
176
     1
 90
        3
176
     1
 62
     5
420
      255
176
     1
290
     0
176
     1
 90
       50
176
     1
 90
       50
176
     1
 90
       50
176
     1
290
     0
176
     1
 90
       50
176
     1
 62
   256
176
     0
 40
1.0
176
     0
 90
        2
176
     1
  1
strokes_ogs.tif
176
     1
290
     0
176
     1
 40
1.0
176
     1
 40
1.0
176
     1
1001
ACAD
1000
AcDbSavedByObjectVersion
1070
     0
  0
VISUALSTYLE
  5
32
102
{ACAD_REACTORS
330
29
102
}
330
29
100
AcDbVisualStyle
  2
Conceptual
 70
     9
177
     3
291
     0
 70
    58
 90
        3
176
     1
 90
        2
176
     1
 90
        0
176
     1
 90
        0
176
     1
 40
0.6
176
     1
 40
30.0
176
     1
 62
     7
176
     1
 90
        2
176
     1
 90
        2
176
     1
 62
     7
176
     1
 62
   257
176
     1
 90
        1
176
     1
 90
        1
176
     1
 40
40.0
176
     1
 90
        8
176
     1
 62
     7
176
     1
 40
1.0
176
     1
 90
        1
176
     1
 90
        6
176
     1
 90
        2
176
     1
 62
     7
176
     1
 90
        3
176
     1
 90
        0
176
     1
 90
        0
176
     1
290
     0
176
     1
 90
        1
176
     1
 40
0.0
176
     1
 90
        0
176
     1
290
     0
176
     1
290
     1
176
     1
290
     1
176
     1
290
     0
176
     1
290
     0
176
     1
290
     0
176
     1
290
     0
176
     1
290
     0
176
     1
290
     0
176
     1
 90
       50
176
     1
 40
0.0
176
     1
 40
1.0
176
     1
 90
        0
176
     1
 62
    18
420
        0
176
     1
 90
       50
176
     1
 90
        3
176
     1
 62
     5
420
      255
176
     1
290
     0
176
     1
 90
       50
176
     1
 90
       50
176
     1
 90
       50
176
     1
290
     0
176
     1
 90
       50
176
     1
 62
   256
176
     0
 40
1.0
176
     0
 90
        2
176
     1
  1
strokes_ogs.tif
176
     1
290
     0
176
     1
 40
1.0
176
     1
 40
1.0
176
     1
1001
ACAD
1000
AcDbSavedByObjectVersion
1070
     0
  0
VISUALSTYLE
  5
34
102
{ACAD_REACTORS
330
29
102
}
330
29
100
AcDbVisualStyle
  2
Dim
 70
    11
177
     3
291
     1
 70
    58
 90
        2
176
     1
 90
        2
176
     1
 90
        0
176
     1
 90
        0
176
     1
 40
0.6
176
     1
 40
30.0
176
     1
 62
     7
176
     1
 90
        1
176
     1
 90
        4
176
     1
 62
     7
176
     1
 62
   257
176
     1
 90
        1
176
     1
 90
        1
176
     1
 40
1.0
176
     1
 90
        8
176
     1
 62
     7
176
     1
 40
1.0
176
     1
 90
        1
176
     1
 90
        6
176
     1
 90
        2
176
     1
 62
     7
176
     1
 90
        5
176
     1
 90
        0
176
     1
 90
        0
176
     1
290
     0
176
     1
 90
        1
176
     1
 40
-50.0
176
     1
 90
        0
176
     1
290
     0
176
     1
290
     1
176
     1
290
     1
176
     1
290
     0
176
     1
290
     0
176
     1
290
     0
176
     1
290
     0
176
     1
290
     0
176
     1
290
     0
176
     1
 90
       50
176
     1
 40
0.0
176
     1
 40
1.0
176
     1
 90
        0
176
     1
 62
    18
420
        0
176
     1
 90
       50
176
     1
 90
        3
176
     1
 62
     5
420
      255
176
     1
290
     0
176
     1
 90
       50
176
     1
 90
       50
176
     1
 90
       50
176
     1
290
     0
176
     1
 90
       50
176
     1
 62
   256
176
     0
 40
1.0
176
     0
 90
        2
176
     1
  1
strokes_ogs.tif
176
     1
290
     0
176
     1
 40
1.0
176
     1
 40
1.0
176
     1
1001
ACAD
1000
AcDbSavedByObjectVersion
1070
     0
  0
VISUALSTYLE
  5
7343
102
{ACAD_REACTORS
330
29
102
}
330
29
100
AcDbVisualStyle
  2
EdgeColorOff
 70
    22
177
     3
291
     1
 70
    58
 90
        2
176
     0
 90
        2
176
     0
 90
        0
176
     0
 90
        0
176
     0
 40
0.6
176
     0
 40
30.0
176
     0
 62
     7
420
 16777215
176
     0
 90
        1
176
     0
 90
        4
176
     0
 62
     7
176
     0
 62
   257
176
     0
 90
        1
176
     0
 90
        1
176
     0
 40
1.0
176
     0
 90
        8
176
     2
 62
     7
176
     0
 40
1.0
176
     0
 90
        1
176
     0
 90
        6
176
     0
 90
        2
176
     0
 62
     7
176
     0
 90
        5
176
     0
 90
        0
176
     0
 90
        0
176
     0
290
     0
176
     0
 90
        1
176
     0
 40
0.0
176
     0
 90
        0
176
     0
290
     0
176
     0
290
     1
176
     0
290
     1
176
     0
290
     0
176
     0
290
     0
176
     0
290
     0
176
     0
290
     0
176
     0
290
     0
176
     0
290
     0
176
     0
 90
       50
176
     0
 40
0.0
176
     0
 40
1.0
176
     0
 90
        0
176
     0
 62
    18
420
        0
176
     0
 90
       50
176
     0
 90
        3
176
     0
 62
     5
420
      255
176
     0
290
     0
176
     0
 90
       50
176
     0
 90
       50
176
     0
 90
       50
176
     0
290
     0
176
     0
 90
       50
176
     0
 62
   256
176
     0
 40
1.0
176
     0
 90
        2
176
     0
  1
strokes_ogs.tif
176
     0
290
     0
176
     0
 40
1.0
176
     0
 40
1.0
176
     0
  0
VISUALSTYLE
  5
38
102
{ACAD_REACTORS
330
29
102
}
330
29
100
AcDbVisualStyle
  2
Facepattern
 70
    15
177
     3
291
     1
 70
    58
 90
        2
176
     1
 90
        2
176
     1
 90
        0
176
     1
 90
        0
176
     1
 40
0.6
176
     1
 40
30.0
176
     1
 62
     7
176
     1
 90
        1
176
     1
 90
        4
176
     1
 62
     7
176
     1
 62
   257
176
     1
 90
        1
176
     1
 90
        1
176
     1
 40
1.0
176
     1
 90
        8
176
     1
 62
     7
176
     1
 40
1.0
176
     1
 90
        1
176
     1
 90
        6
176
     1
 90
        2
176
     1
 62
     7
176
     1
 90
        5
176
     1
 90
        0
176
     1
 90
        0
176
     1
290
     0
176
     1
 90
        1
176
     1
 40
0.0
176
     1
 90
        0
176
     1
290
     0
176
     1
290
     1
176
     1
290
     1
176
     1
290
     0
176
     1
290
     0
176
     1
290
     0
176
     1
290
     0
176
     1
290
     0
176
     1
290
     0
176
     1
 90
       50
176
     1
 40
0.0
176
     1
 40
1.0
176
     1
 90
        0
176
     1
 62
    18
420
        0
176
     1
 90
       50
176
     1
 90
        3
176
     1
 62
     5
420
      255
176
     1
290
     0
176
     1
 90
       50
176
     1
 90
       50
176
     1
 90
       50
176
     1
290
     0
176
     1
 90
       50
176
     1
 62
   256
176
     0
 40
1.0
176
     0
 90
        2
176
     1
  1
strokes_ogs.tif
176
     1
290
     0
176
     1
 40
1.0
176
     1
 40
1.0
176
     1
1001
ACAD
1000
AcDbSavedByObjectVersion
1070
     0
  0
VISUALSTYLE
  5
2A
102
{ACAD_REACTORS
330
29
102
}
330
29
100
AcDbVisualStyle
  2
Flat
 70
     0
177
     3
291
     1
 70
    58
 90
        2
176
     1
 90
        1
176
     1
 90
        1
176
     1
 90
        2
176
     1
 40
0.6
176
     1
 40
30.0
176
     1
 62
     7
176
     1
 90
        0
176
     1
 90
        4
176
     1
 62
     7
176
     1
 62
   257
176
     1
 90
        1
176
     1
 90
        1
176
     1
 40
1.0
176
     1
 90
        8
176
     1
 62
     7
176
     1
 40
1.0
176
     1
 90
        1
176
     1
 90
        6
176
     1
 90
        2
176
     1
 62
     7
176
     1
 90
        5
176
     1
 90
        0
176
     1
 90
        0
176
     1
290
     0
176
     1
 90
       13
176
     1
 40
0.0
176
     1
 90
        0
176
     1
290
     0
176
     1
290
     1
176
     1
290
     1
176
     1
290
     0
176
     1
290
     0
176
     1
290
     0
176
     1
290
     0
176
     1
290
     0
176
     1
290
     0
176
     1
 90
       50
176
     1
 40
0.0
176
     1
 40
1.0
176
     1
 90
        0
176
     1
 62
    18
420
        0
176
     1
 90
       50
176
     1
 90
        3
176
     1
 62
     5
420
      255
176
     1
290
     0
176
     1
 90
       50
176
     1
 90
       50
176
     1
 90
       50
176
     1
290
     0
176
     1
 90
       50
176
     1
 62
   256
176
     0
 40
1.0
176
     0
 90
        2
176
     1
  1
strokes_ogs.tif
176
     1
290
     0
176
     1
 40
1.0
176
     1
 40
1.0
176
     1
1001
ACAD
1000
AcDbSavedByObjectVersion
1070
     0
  0
VISUALSTYLE
  5
2B
102
{ACAD_REACTORS
330
29
102
}
330
29
100
AcDbVisualStyle
  2
FlatWithEdges
 70
     1
177
     3
291
     1
 70
    58
 90
        2
176
     1
 90
        1
176
     1
 90
        1
176
     1
 90
        2
176
     1
 40
0.6
176
     1
 40
30.0
176
     1
 62
     7
176
     1
 90
        1
176
     1
 90
        4
176
     1
 62
     7
176
     1
 62
   257
176
     1
 90
        1
176
     1
 90
        1
176
     1
 40
1.0
176
     1
 90
        0
176
     1
 62
   257
176
     1
 40
1.0
176
     1
 90
        1
176
     1
 90
        6
176
     1
 90
        2
176
     1
 62
     7
176
     1
 90
        5
176
     1
 90
        0
176
     1
 90
        0
176
     1
290
     0
176
     1
 90
       13
176
     1
 40
0.0
176
     1
 90
        0
176
     1
290
     0
176
     1
290
     1
176
     1
290
     1
176
     1
290
     0
176
     1
290
     0
176
     1
290
     0
176
     1
290
     0
176
     1
290
     0
176
     1
290
     0
176
     1
 90
       50
176
     1
 40
0.0
176
     1
 40
1.0
176
     1
 90
        0
176
     1
 62
    18
420
        0
176
     1
 90
       50
176
     1
 90
        3
176
     1
 62
     5
420
      255
176
     1
290
     0
176
     1
 90
       50
176
     1
 90
       50
176
     1
 90
       50
176
     1
290
     0
176
     1
 90
       50
176
     1
 62
   256
176
     0
 40
1.0
176
     0
 90
        2
176
     1
  1
strokes_ogs.tif
176
     1
290
     0
176
     1
 40
1.0
176
     1
 40
1.0
176
     1
1001
ACAD
1000
AcDbSavedByObjectVersion
1070
     0
  0
VISUALSTYLE
  5
2C
102
{ACAD_REACTORS
330
29
102
}
330
29
100
AcDbVisualStyle
  2
Gouraud
 70
     2
177
     3
291
     1
 70
    58
 90
        2
176
     1
 90
        2
176
     1
 90
        1
176
     1
 90
        2
176
     1
 40
0.6
176
     1
 40
30.0
176
     1
 62
     7
176
     1
 90
        0
176
     1
 90
        4
176
     1
 62
     7
176
     1
 62
   257
176
     1
 90
        1
176
     1
 90
        1
176
     1
 40
1.0
176
     1
 90
        0
176
     1
 62
     7
176
     1
 40
1.0
176
     1
 90
        1
176
     1
 90
        6
176
     1
 90
        2
176
     1
 62
     7
176
     1
 90
        5
176
     1
 90
        0
176
     1
 90
        0
176
     1
290
     0
176
     1
 90
       13
176
     1
 40
0.0
176
     1
 90
        0
176
     1
290
     0
176
     1
290
     1
176
     1
290
     1
176
     1
290
     0
176
     1
290
     0
176
     1
290
     0
176
     1
290
     0
176
     1
290
     0
176
     1
290
     0
176
     1
 90
       50
176
     1
 40
0.0
176
     1
 40
1.0
176
     1
 90
        0
176
     1
 62
    18
420
        0
176
     1
 90
       50
176
     1
 90
        3
176
     1
 62
     5
420
      255
176
     1
290
     0
176
     1
 90
       50
176
     1
 90
       50
176
     1
 90
       50
176
     1
290
     0
176
     1
 90
       50
176
     1
 62
   256
176
     0
 40
1.0
176
     0
 90
        2
176
     1
  1
strokes_ogs.tif
176
     1
290
     0
176
     1
 40
1.0
176
     1
 40
1.0
176
     1
1001
ACAD
1000
AcDbSavedByObjectVersion
1070
     0
  0
VISUALSTYLE
  5
2D
102
{ACAD_REACTORS
330
29
102
}
330
29
100
AcDbVisualStyle
  2
GouraudWithEdges
 70
     3
177
     3
291
     1
 70
    58
 90
        2
176
     1
 90
        2
176
     1
 90
        1
176
     1
 90
        2
176
     1
 40
0.6
176
     1
 40
30.0
176
     1
 62
     7
176
     1
 90
        1
176
     1
 90
        4
176
     1
 62
     7
176
     1
 62
   257
176
     1
 90
        1
176
     1
 90
        1
176
     1
 40
1.0
176
     1
 90
        0
176
     1
 62
   257
176
     1
 40
1.0
176
     1
 90
        1
176
     1
 90
        6
176
     1
 90
        2
176
     1
 62
     7
176
     1
 90
        5
176
     1
 90
        0
176
     1
 90
        0
176
     1
290
     0
176
     1
 90
       13
176
     1
 40
0.0
176
     1
 90
        0
176
     1
290
     0
176
     1
290
     1
176
     1
290
     1
176
     1
290
     0
176
     1
290
     0
176
     1
290
     0
176
     1
290
     0
176
     1
290
     0
176
     1
290
     0
176
     1
 90
       50
176
     1
 40
0.0
176
     1
 40
1.0
176
     1
 90
        0
176
     1
 62
    18
420
        0
176
     1
 90
       50
176
     1
 90
        3
176
     1
 62
     5
420
      255
176
     1
290
     0
176
     1
 90
       50
176
     1
 90
       50
176
     1
 90
       50
176
     1
290
     0
176
     1
 90
       50
176
     1
 62
   256
176
     0
 40
1.0
176
     0
 90
        2
176
     1
  1
strokes_ogs.tif
176
     1
290
     0
176
     1
 40
1.0
176
     1
 40
1.0
176
     1
1001
ACAD
1000
AcDbSavedByObjectVersion
1070
     0
  0
VISUALSTYLE
  5
733B
102
{ACAD_REACTORS
330
29
102
}
330
29
100
AcDbVisualStyle
  2
Hidden
 70
     6
177
     3
291
     0
 70
    58
 90
        1
176
     1
 90
        2
176
     1
 90
        2
176
     1
 90
        0
176
     1
 40
0.6
176
     1
 40
30.0
176
     1
 62
     7
420
 16777215
176
     1
 90
        2
176
     1
 90
        2
176
     1
 62
     7
176
     1
 62
   257
176
     1
 90
        2
176
     1
 90
        1
176
     1
 40
40.0
176
     1
 90
        0
176
     1
 62
   257
176
     1
 40
1.0
176
     1
 90
        1
176
     1
 90
        6
176
     1
 90
        2
176
     1
 62
     7
176
     1
 90
        3
176
     1
 90
        0
176
     1
 90
        0
176
     1
290
     0
176
     1
 90
        1
176
     1
 40
0.0
176
     1
 90
        0
176
     1
290
     0
176
     1
290
     1
176
     1
290
     1
176
     1
290
     0
176
     1
290
     0
176
     1
290
     0
176
     1
290
     0
176
     1
290
     0
176
     1
290
     0
176
     1
 90
       50
176
     1
 40
0.0
176
     1
 40
1.0
176
     1
 90
        0
176
     1
 62
    18
420
        0
176
     1
 90
       50
176
     1
 90
        3
176
     1
 62
     5
420
      255
176
     1
290
     0
176
     1
 90
       50
176
     1
 90
       50
176
     1
 90
       50
176
     1
290
     0
176
     1
 90
       50
176
     1
 62
   256
176
     0
 40
1.0
176
     0
 90
        2
176
     1
  1
strokes_ogs.tif
176
     1
290
     0
176
     1
 40
1.0
176
     1
 40
1.0
176
     1
  0
VISUALSTYLE
  5
7341
102
{ACAD_REACTORS
330
29
102
}
330
29
100
AcDbVisualStyle
  2
JitterOff
 70
    20
177
     3
291
     1
 70
    58
 90
        2
176
     0
 90
        2
176
     0
 90
        0
176
     0
 90
        0
176
     0
 40
0.6
176
     0
 40
30.0
176
     0
 62
     7
420
 16777215
176
     0
 90
        1
176
     0
 90
        4
176
     0
 62
     7
176
     0
 62
   257
176
     0
 90
        1
176
     0
 90
        1
176
     0
 40
1.0
176
     0
 90
       10
176
     2
 62
     7
176
     0
 40
1.0
176
     0
 90
        1
176
     0
 90
        6
176
     0
 90
        2
176
     0
 62
     7
176
     0
 90
        5
176
     0
 90
        0
176
     0
 90
        0
176
     0
290
     0
176
     0
 90
        1
176
     0
 40
0.0
176
     0
 90
        0
176
     0
290
     0
176
     0
290
     1
176
     0
290
     1
176
     0
290
     0
176
     0
290
     0
176
     0
290
     0
176
     0
290
     0
176
     0
290
     0
176
     0
290
     0
176
     0
 90
       50
176
     0
 40
0.0
176
     0
 40
1.0
176
     0
 90
        0
176
     0
 62
    18
420
        0
176
     0
 90
       50
176
     0
 90
        3
176
     0
 62
     5
420
      255
176
     0
290
     0
176
     0
 90
       50
176
     0
 90
       50
176
     0
 90
       50
176
     0
290
     0
176
     0
 90
       50
176
     0
 62
   256
176
     0
 40
1.0
176
     0
 90
        2
176
     0
  1
strokes_ogs.tif
176
     0
290
     0
176
     0
 40
1.0
176
     0
 40
1.0
176
     0
  0
VISUALSTYLE
  5
37
102
{ACAD_REACTORS
330
29
102
}
330
29
100
AcDbVisualStyle
  2
Linepattern
 70
    14
177
     3
291
     1
 70
    58
 90
        2
176
     1
 90
        2
176
     1
 90
        0
176
     1
 90
        0
176
     1
 40
0.6
176
     1
 40
30.0
176
     1
 62
     7
176
     1
 90
        1
176
     1
 90
        4
176
     1
 62
     7
176
     1
 62
   257
176
     1
 90
        7
176
     1
 90
        7
176
     1
 40
1.0
176
     1
 90
        8
176
     1
 62
     7
176
     1
 40
1.0
176
     1
 90
        1
176
     1
 90
        6
176
     1
 90
        2
176
     1
 62
     7
176
     1
 90
        5
176
     1
 90
        0
176
     1
 90
        0
176
     1
290
     0
176
     1
 90
        1
176
     1
 40
0.0
176
     1
 90
        0
176
     1
290
     0
176
     1
290
     1
176
     1
290
     1
176
     1
290
     0
176
     1
290
     0
176
     1
290
     0
176
     1
290
     0
176
     1
290
     0
176
     1
290
     0
176
     1
 90
       50
176
     1
 40
0.0
176
     1
 40
1.0
176
     1
 90
        0
176
     1
 62
    18
420
        0
176
     1
 90
       50
176
     1
 90
        3
176
     1
 62
     5
420
      255
176
     1
290
     0
176
     1
 90
       50
176
     1
 90
       50
176
     1
 90
       50
176
     1
290
     0
176
     1
 90
       50
176
     1
 62
   256
176
     0
 40
1.0
176
     0
 90
        2
176
     1
  1
strokes_ogs.tif
176
     1
290
     0
176
     1
 40
1.0
176
     1
 40
1.0
176
     1
1001
ACAD
1000
AcDbSavedByObjectVersion
1070
     0
  0
VISUALSTYLE
  5
7342
102
{ACAD_REACTORS
330
29
102
}
330
29
100
AcDbVisualStyle
  2
OverhangOff
 70
    21
177
     3
291
     1
 70
    58
 90
        2
176
     0
 90
        2
176
     0
 90
        0
176
     0
 90
        0
176
     0
 40
0.6
176
     0
 40
30.0
176
     0
 62
     7
420
 16777215
176
     0
 90
        1
176
     0
 90
        4
176
     0
 62
     7
176
     0
 62
   257
176
     0
 90
        1
176
     0
 90
        1
176
     0
 40
1.0
176
     0
 90
        9
176
     2
 62
     7
176
     0
 40
1.0
176
     0
 90
        1
176
     0
 90
        6
176
     0
 90
        2
176
     0
 62
     7
176
     0
 90
        5
176
     0
 90
        0
176
     0
 90
        0
176
     0
290
     0
176
     0
 90
        1
176
     0
 40
0.0
176
     0
 90
        0
176
     0
290
     0
176
     0
290
     1
176
     0
290
     1
176
     0
290
     0
176
     0
290
     0
176
     0
290
     0
176
     0
290
     0
176
     0
290
     0
176
     0
290
     0
176
     0
 90
       50
176
     0
 40
0.0
176
     0
 40
1.0
176
     0
 90
        0
176
     0
 62
    18
420
        0
176
     0
 90
       50
176
     0
 90
        3
176
     0
 62
     5
420
      255
176
     0
290
     0
176
     0
 90
       50
176
     0
 90
       50
176
     0
 90
       50
176
     0
290
     0
176
     0
 90
       50
176
     0
 62
   256
176
     0
 40
1.0
176
     0
 90
        2
176
     0
  1
strokes_ogs.tif
176
     0
290
     0
176
     0
 40
1.0
176
     0
 40
1.0
176
     0
  0
VISUALSTYLE
  5
33
102
{ACAD_REACTORS
330
29
102
}
330
29
100
AcDbVisualStyle
  2
Realistic
 70
     8
177
     3
291
     0
 70
    58
 90
        2
176
     1
 90
        2
176
     1
 90
        0
176
     1
 90
        0
176
     1
 40
0.6
176
     1
 40
30.0
176
     1
 62
     7
176
     1
 90
        1
176
     1
 90
        0
176
     1
 62
     7
176
     1
 62
   257
176
     1
 90
        1
176
     1
 90
        1
176
     1
 40
1.0
176
     1
 90
        8
176
     1
 62
     8
176
     1
 40
1.0
176
     1
 90
        1
176
     1
 90
        6
176
     1
 90
        2
176
     1
 62
     7
176
     1
 90
        5
176
     1
 90
        0
176
     1
 90
        0
176
     1
290
     0
176
     1
 90
       13
176
     1
 40
0.0
176
     1
 90
        0
176
     1
290
     0
176
     1
290
     1
176
     1
290
     1
176
     1
290
     0
176
     1
290
     0
176
     1
290
     0
176
     1
290
     0
176
     1
290
     0
176
     1
290
     0
176
     1
 90
       50
176
     1
 40
0.0
176
     1
 40
1.0
176
     1
 90
        0
176
     1
 62
    18
420
        0
176
     1
 90
       50
176
     1
 90
        3
176
     1
 62
     5
420
      255
176
     1
290
     0
176
     1
 90
       50
176
     1
 90
       50
176
     1
 90
       50
176
     1
290
     0
176
     1
 90
       50
176
     1
 62
   256
176
     0
 40
1.0
176
     0
 90
        2
176
     1
  1
strokes_ogs.tif
176
     1
290
     0
176
     1
 40
1.0
176
     1
 40
1.0
176
     1
1001
ACAD
1000
AcDbSavedByObjectVersion
1070
     0
  0
VISUALSTYLE
  5
7340
102
{ACAD_REACTORS
330
29
102
}
330
29
100
AcDbVisualStyle
  2
Shaded
 70
    27
177
     3
291
     0
 70
    58
 90
        2
176
     1
 90
        2
176
     1
 90
        1
176
     1
 90
        2
176
     1
 40
0.6
176
     1
 40
30.0
176
     1
 62
     7
420
 16777215
176
     1
 90
        0
176
     1
 90
        4
176
     1
 62
     7
176
     1
 62
   257
176
     1
 90
        1
176
     1
 90
        1
176
     1
 40
1.0
176
     1
 90
        8
176
     1
 62
   257
176
     1
 40
1.0
176
     1
 90
        1
176
     1
 90
        6
176
     1
 90
        2
176
     1
 62
     8
420
  7895160
176
     1
 90
        3
176
     1
 90
        0
176
     1
 90
        0
176
     1
290
     0
176
     1
 90
        5
176
     1
 40
0.0
176
     1
 90
        0
176
     1
290
     0
176
     1
290
     1
176
     1
290
     1
176
     1
290
     0
176
     1
290
     0
176
     1
290
     0
176
     1
290
     0
176
     1
290
     0
176
     1
290
     0
176
     1
 90
       50
176
     1
 40
0.0
176
     1
 40
1.0
176
     1
 90
        0
176
     1
 62
    18
420
        0
176
     1
 90
       50
176
     1
 90
        3
176
     1
 62
     5
420
      255
176
     1
290
     0
176
     1
 90
       50
176
     1
 90
       50
176
     1
 90
       50
176
     1
290
     0
176
     1
 90
       50
176
     1
 62
   256
176
     0
 40
1.0
176
     0
 90
        2
176
     1
  1
strokes_ogs.tif
176
     1
290
     0
176
     1
 40
1.0
176
     1
 40
1.0
176
     1
  0
VISUALSTYLE
  5
733F
102
{ACAD_REACTORS
330
29
102
}
330
29
100
AcDbVisualStyle
  2
Shaded with edges
 70
    26
177
     3
291
     0
 70
    58
 90
        2
176
     1
 90
        2
176
     1
 90
        1
176
     1
 90
        2
176
     1
 40
0.6
176
     1
 40
30.0
176
     1
 62
     7
420
 16777215
176
     1
 90
        1
176
     1
 90
       10
176
     1
 62
     7
176
     1
 62
   257
176
     1
 90
        2
176
     1
 90
        1
176
     1
 40
1.0
176
     1
 90
        8
176
     1
 62
   257
176
     1
 40
1.0
176
     1
 90
        1
176
     1
 90
        6
176
     1
 90
        2
176
     1
 62
     7
176
     1
 90
        3
176
     1
 90
        0
176
     1
 90
        0
176
     1
290
     0
176
     1
 90
        5
176
     1
 40
0.0
176
     1
 90
        0
176
     1
290
     0
176
     1
290
     1
176
     1
290
     1
176
     1
290
     0
176
     1
290
     0
176
     1
290
     0
176
     1
290
     0
176
     1
290
     0
176
     1
290
     0
176
     1
 90
       50
176
     1
 40
0.0
176
     1
 40
1.0
176
     1
 90
        0
176
     1
 62
    18
420
        0
176
     1
 90
       50
176
     1
 90
        3
176
     1
 62
     5
420
      255
176
     1
290
     0
176
     1
 90
       50
176
     1
 90
       50
176
     1
 90
       50
176
     1
290
     0
176
     1
 90
       50
176
     1
 62
   256
176
     0
 40
1.0
176
     0
 90
        2
176
     1
  1
strokes_ogs.tif
176
     1
290
     0
176
     1
 40
1.0
176
     1
 40
1.0
176
     1
  0
VISUALSTYLE
  5
733C
102
{ACAD_REACTORS
330
29
102
}
330
29
100
AcDbVisualStyle
  2
Shades of Gray
 70
    23
177
     3
291
     0
 70
    58
 90
        2
176
     1
 90
        2
176
     1
 90
        3
176
     1
 90
        0
176
     1
 40
0.6
176
     1
 40
30.0
176
     1
 62
     7
420
 16777215
176
     1
 90
        2
176
     1
 90
        2
176
     1
 62
     7
176
     1
 62
     7
176
     1
 90
        1
176
     1
 90
        1
176
     1
 40
40.0
176
     1
 90
        8
176
     1
 62
     7
176
     1
 40
1.0
176
     1
 90
        1
176
     1
 90
        6
176
     1
 90
        2
176
     1
 62
     7
176
     1
 90
        3
176
     1
 90
        0
176
     1
 90
        0
176
     1
290
     0
176
     1
 90
        1
176
     1
 40
0.0
176
     1
 90
        0
176
     1
290
     0
176
     1
290
     1
176
     1
290
     1
176
     1
290
     0
176
     1
290
     0
176
     1
290
     0
176
     1
290
     0
176
     1
290
     0
176
     1
290
     0
176
     1
 90
       50
176
     1
 40
0.0
176
     1
 40
1.0
176
     1
 90
        0
176
     1
 62
    18
420
        0
176
     1
 90
       50
176
     1
 90
        3
176
     1
 62
     5
420
      255
176
     1
290
     0
176
     1
 90
       50
176
     1
 90
       50
176
     1
 90
       50
176
     1
290
     0
176
     1
 90
       50
176
     1
 62
   256
176
     0
 40
1.0
176
     0
 90
        2
176
     1
  1
strokes_ogs.tif
176
     1
290
     0
176
     1
 40
1.0
176
     1
 40
1.0
176
     1
  0
VISUALSTYLE
  5
733D
102
{ACAD_REACTORS
330
29
102
}
330
29
100
AcDbVisualStyle
  2
Sketchy
 70
    24
177
     3
291
     0
 70
    58
 90
        1
176
     1
 90
        2
176
     1
 90
        2
176
     1
 90
        0
176
     1
 40
0.6
176
     1
 40
30.0
176
     1
 62
     7
420
 16777215
176
     1
 90
        2
176
     1
 90
        2
176
     1
 62
     7
176
     1
 62
     7
176
     1
 90
        1
176
     1
 90
        1
176
     1
 40
40.0
176
     1
 90
       11
176
     1
 62
     7
176
     1
 40
1.0
176
     1
 90
        1
176
     1
 90
        6
176
     1
 90
        2
176
     1
 62
     7
176
     1
 90
        6
176
     1
 90
        0
176
     1
 90
        0
176
     1
290
     0
176
     1
 90
        1
176
     1
 40
0.0
176
     1
 90
        0
176
     1
290
     0
176
     1
290
     1
176
     1
290
     1
176
     1
290
     0
176
     1
290
     0
176
     1
290
     0
176
     1
290
     0
176
     1
290
     0
176
     1
290
     0
176
     1
 90
       50
176
     1
 40
0.0
176
     1
 40
1.0
176
     1
 90
        0
176
     1
 62
    18
420
        0
176
     1
 90
       50
176
     1
 90
        3
176
     1
 62
     5
420
      255
176
     1
290
     0
176
     1
 90
       50
176
     1
 90
       50
176
     1
 90
       50
176
     1
290
     0
176
     1
 90
       50
176
     1
 62
   256
176
     0
 40
1.0
176
     0
 90
        2
176
     1
  1
strokes_ogs.tif
176
     1
290
     0
176
     1
 40
1.0
176
     1
 40
1.0
176
     1
  0
VISUALSTYLE
  5
36
102
{ACAD_REACTORS
330
29
102
}
330
29
100
AcDbVisualStyle
  2
Thicken
 70
    13
177
     3
291
     1
 70
    58
 90
        2
176
     1
 90
        2
176
     1
 90
        0
176
     1
 90
        0
176
     1
 40
0.6
176
     1
 40
30.0
176
     1
 62
     7
176
     1
 90
        1
176
     1
 90
        4
176
     1
 62
     7
176
     1
 62
   257
176
     1
 90
        1
176
     1
 90
        1
176
     1
 40
1.0
176
     1
 90
       12
176
     1
 62
     7
176
     1
 40
1.0
176
     1
 90
        1
176
     1
 90
        6
176
     1
 90
        2
176
     1
 62
     7
176
     1
 90
        5
176
     1
 90
        0
176
     1
 90
        0
176
     1
290
     0
176
     1
 90
        1
176
     1
 40
0.0
176
     1
 90
        0
176
     1
290
     0
176
     1
290
     1
176
     1
290
     1
176
     1
290
     0
176
     1
290
     0
176
     1
290
     0
176
     1
290
     0
176
     1
290
     0
176
     1
290
     0
176
     1
 90
       50
176
     1
 40
0.0
176
     1
 40
1.0
176
     1
 90
        0
176
     1
 62
    18
420
        0
176
     1
 90
       50
176
     1
 90
        3
176
     1
 62
     5
420
      255
176
     1
290
     0
176
     1
 90
       50
176
     1
 90
       50
176
     1
 90
       50
176
     1
290
     0
176
     1
 90
       50
176
     1
 62
   256
176
     0
 40
1.0
176
     0
 90
        2
176
     1
  1
strokes_ogs.tif
176
     1
290
     0
176
     1
 40
1.0
176
     1
 40
1.0
176
     1
1001
ACAD
1000
AcDbSavedByObjectVersion
1070
     0
  0
VISUALSTYLE
  5
733A
102
{ACAD_REACTORS
330
29
102
}
330
29
100
AcDbVisualStyle
  2
Wireframe
 70
     5
177
     3
291
     0
 70
    58
 90
        0
176
     1
 90
        2
176
     1
 90
        0
176
     1
 90
        0
176
     1
 40
0.6
176
     1
 40
30.0
176
     1
 62
     7
420
 16777215
176
     1
 90
        1
176
     1
 90
        4
176
     1
 62
     7
176
     1
 62
   257
176
     1
 90
        1
176
     1
 90
        1
176
     1
 40
1.0
176
     1
 90
        0
176
     1
 62
   257
176
     1
 40
1.0
176
     1
 90
        1
176
     1
 90
        6
176
     1
 90
        2
176
     1
 62
     7
176
     1
 90
        3
176
     1
 90
        0
176
     1
 90
        0
176
     1
290
     0
176
     1
 90
        1
176
     1
 40
0.0
176
     1
 90
        0
176
     1
290
     0
176
     1
290
     1
176
     1
290
     1
176
     1
290
     0
176
     1
290
     0
176
     1
290
     0
176
     1
290
     0
176
     1
290
     0
176
     1
290
     0
176
     1
 90
       50
176
     1
 40
0.0
176
     1
 40
1.0
176
     1
 90
        0
176
     1
 62
    18
420
        0
176
     1
 90
       50
176
     1
 90
        3
176
     1
 62
     5
420
      255
176
     1
290
     0
176
     1
 90
       50
176
     1
 90
       50
176
     1
 90
       50
176
     1
290
     0
176
     1
 90
       50
176
     1
 62
   256
176
     0
 40
1.0
176
     0
 90
        2
176
     1
  1
strokes_ogs.tif
176
     1
290
     0
176
     1
 40
1.0
176
     1
 40
1.0
176
     1
  0
VISUALSTYLE
  5
733E
102
{ACAD_REACTORS
330
29
102
}
330
29
100
AcDbVisualStyle
  2
X-Ray
 70
    25
177
     3
291
     0
 70
    58
 90
        2
176
     1
 90
        2
176
     1
 90
        1
176
     1
 90
        1
176
     1
 40
0.5
176
     1
 40
30.0
176
     1
 62
     7
420
 16777215
176
     1
 90
        1
176
     1
 90
        0
176
     1
 62
     7
176
     1
 62
   257
176
     1
 90
        1
176
     1
 90
        1
176
     1
 40
1.0
176
     1
 90
        8
176
     1
 62
     7
176
     1
 40
1.0
176
     1
 90
        1
176
     1
 90
        6
176
     1
 90
        2
176
     1
 62
     7
176
     1
 90
        3
176
     1
 90
        0
176
     1
 90
        0
176
     1
290
     0
176
     1
 90
       13
176
     1
 40
0.0
176
     1
 90
        0
176
     1
290
     0
176
     1
290
     1
176
     1
290
     1
176
     1
290
     0
176
     1
290
     0
176
     1
290
     0
176
     1
290
     0
176
     1
290
     0
176
     1
290
     0
176
     1
 90
       50
176
     1
 40
0.0
176
     1
 40
1.0
176
     1
 90
        0
176
     1
 62
    18
420
        0
176
     1
 90
       50
176
     1
 90
        3
176
     1
 62
     5
420
      255
176
     1
290
     0
176
     1
 90
       50
176
     1
 90
       50
176
     1
 90
       50
176
     1
290
     0
176
     1
 90
       50
176
     1
 62
   256
176
     0
 40
1.0
176
     0
 90
        2
176
     1
  1
strokes_ogs.tif
176
     1
290
     0
176
     1
 40
1.0
176
     1
 40
1.0
176
     1
  0
DICTIONARYVAR
  5
348F
102
{ACAD_REACTORS
330
348C
102
}
330
348C
100
DictionaryVariables
280
     0
  1
1:1
  0
DICTIONARYVAR
  5
348E
102
{ACAD_REACTORS
330
348C
102
}
330
348C
100
DictionaryVariables
280
     0
  1
STANDARD
  0
DICTIONARYVAR
  5
348D
102
{ACAD_REACTORS
330
348C
102
}
330
348C
100
DictionaryVariables
280
     0
  1
STANDARD
  0
DICTIONARYVAR
  5
73A7
102
{ACAD_REACTORS
330
348C
102
}
330
348C
100
DictionaryVariables
280
     0
  1
Metric50
  0
DICTIONARYVAR
  5
73A8
102
{ACAD_REACTORS
330
348C
102
}
330
348C
100
DictionaryVariables
280
     0
  1
Metric50
  0
DICTIONARYVAR
  5
3492
102
{ACAD_REACTORS
330
348C
102
}
330
348C
100
DictionaryVariables
280
     0
  1
1
  0
DICTIONARYVAR
  5
3491
102
{ACAD_REACTORS
330
348C
102
}
330
348C
100
DictionaryVariables
280
     0
  1
0
  0
DICTIONARYVAR
  5
73A9
102
{ACAD_REACTORS
330
348C
102
}
330
348C
100
DictionaryVariables
280
     0
  1
1
  0
DICTIONARYVAR
  5
73AA
102
{ACAD_REACTORS
330
348C
102
}
330
348C
100
DictionaryVariables
280
     0
  1
15
  0
DICTIONARYVAR
  5
4ACA
102
{ACAD_REACTORS
330
348C
102
}
330
348C
100
DictionaryVariables
280
     0
  1
0
  0
DICTIONARYVAR
  5
4AC9
102
{ACAD_REACTORS
330
348C
102
}
330
348C
100
DictionaryVariables
280
     0
  1
0
  0
DICTIONARYVAR
  5
3490
102
{ACAD_REACTORS
330
348C
102
}
330
348C
100
DictionaryVariables
280
     0
  1
127
  0
DICTIONARY
  5
7333
102
{ACAD_REACTORS
330
3423
102
}
330
3423
100
AcDbDictionary
281
     1
  0
DICTIONARY
  5
342E
102
{ACAD_REACTORS
330
3423
102
}
330
3423
100
AcDbDictionary
281
     1
  0
XRECORD
  5
3443
102
{ACAD_REACTORS
330
3423
102
}
330
3423
100
AcDbXrecord
280
     1
 90
-1023410169
  0
XRECORD
  5
7128
102
{ACAD_REACTORS
330
7127
102
}
330
7127
100
AcDbXrecord
280
     1
330
0
330
0
330
0
330
0
330
0
330
0
330
0
330
0
330
0
330
0
330
0
330
0
330
0
330
0
  0
DICTIONARY
  5
739D
330
7347
100
AcDbDictionary
280
     1
281
     1
  3
ACAD_XREC_ROUNDTRIP
360
7555
  0
DICTIONARY
  5
1A
330
19
100
AcDbDictionary
280
     1
281
     1
  3
ACAD_XREC_ROUNDTRIP
360
6F9B
  3
BUMPTILE
360
1C
  3
DIFFUSETILE
360
1B
  3
OPACITYTILE
360
1F
  3
REFLECTIONTILE
360
1E
  3
REFRACTIONTILE
360
20
  3
SPECULARTILE
360
1D
  0
DICTIONARY
  5
12
330
11
100
AcDbDictionary
280
     1
281
     1
  3
ACAD_XREC_ROUNDTRIP
360
6F9A
  3
BUMPTILE
360
14
  3
DIFFUSETILE
360
13
  3
OPACITYTILE
360
17
  3
REFLECTIONTILE
360
16
  3
REFRACTIONTILE
360
18
  3
SPECULARTILE
360
15
  0
DICTIONARY
  5
22
330
21
100
AcDbDictionary
280
     1
281
     1
  3
ACAD_XREC_ROUNDTRIP
360
6F9C
  3
BUMPTILE
360
24
  3
DIFFUSETILE
360
23
  3
FBXASSET
360
73EB
  3
OPACITYTILE
360
27
  3
REFLECTIONTILE
360
26
  3
REFRACTIONTILE
360
28
  3
SPECULARTILE
360
25
  0
DICTIONARY
  5
739B
330
7345
100
AcDbDictionary
280
     1
281
     1
  3
ACAD_XREC_ROUNDTRIP
360
7554
  0
DICTIONARY
  5
3473
330
6C
100
AcDbDictionary
280
     1
281
     1
  3
ACAD_ROUNDTRIP_2008_TABLESTYLE_CELLSTYLEMAP
360
7553
  0
XRECORD
  5
7555
102
{ACAD_REACTORS
330
739D
102
}
330
739D
100
AcDbXrecord
280
     1
102
DISPLAYNAME
  1
Metric50
102
FLAGS
 90
        0
  0
XRECORD
  5
6F9B
102
{ACAD_REACTORS
330
1A
102
}
330
1A
100
AcDbXrecord
280
     1
102
MATERIAL
148
0.0
149
0.0
149
0.0
 93
        0
 94
      127
282
     0
 72
     0
 77
     0
171
     0
175
     0
179
     0
273
     0
  0
XRECORD
  5
1C
102
{ACAD_REACTORS
330
1A
102
}
330
1A
100
AcDbXrecord
280
     1
270
     1
271
     1
  0
XRECORD
  5
1B
102
{ACAD_REACTORS
330
1A
102
}
330
1A
100
AcDbXrecord
280
     1
270
     1
271
     1
  0
XRECORD
  5
1F
102
{ACAD_REACTORS
330
1A
102
}
330
1A
100
AcDbXrecord
280
     1
270
     1
271
     1
  0
XRECORD
  5
1E
102
{ACAD_REACTORS
330
1A
102
}
330
1A
100
AcDbXrecord
280
     1
270
     1
271
     1
  0
XRECORD
  5
20
102
{ACAD_REACTORS
330
1A
102
}
330
1A
100
AcDbXrecord
280
     1
270
     1
271
     1
  0
XRECORD
  5
1D
102
{ACAD_REACTORS
330
1A
102
}
330
1A
100
AcDbXrecord
280
     1
270
     1
271
     1
  0
XRECORD
  5
6F9A
102
{ACAD_REACTORS
330
12
102
}
330
12
100
AcDbXrecord
280
     1
102
MATERIAL
148
0.0
149
0.0
149
0.0
 93
        0
 94
      127
282
     0
 72
     0
 77
     0
171
     0
175
     0
179
     0
273
     0
  0
XRECORD
  5
14
102
{ACAD_REACTORS
330
12
102
}
330
12
100
AcDbXrecord
280
     1
270
     1
271
     1
  0
XRECORD
  5
13
102
{ACAD_REACTORS
330
12
102
}
330
12
100
AcDbXrecord
280
     1
270
     1
271
     1
  0
XRECORD
  5
17
102
{ACAD_REACTORS
330
12
102
}
330
12
100
AcDbXrecord
280
     1
270
     1
271
     1
  0
XRECORD
  5
16
102
{ACAD_REACTORS
330
12
102
}
330
12
100
AcDbXrecord
280
     1
270
     1
271
     1
  0
XRECORD
  5
18
102
{ACAD_REACTORS
330
12
102
}
330
12
100
AcDbXrecord
280
     1
270
     1
271
     1
  0
XRECORD
  5
15
102
{ACAD_REACTORS
330
12
102
}
330
12
100
AcDbXrecord
280
     1
270
     1
271
     1
  0
XRECORD
  5
6F9C
102
{ACAD_REACTORS
330
22
102
}
330
22
100
AcDbXrecord
280
     1
102
MATERIAL
148
0.0
149
0.0
149
0.0
 93
        0
 94
      127
282
     0
 72
     0
 77
     0
171
     0
175
     0
179
     0
273
     0
  0
XRECORD
  5
24
102
{ACAD_REACTORS
330
22
102
}
330
22
100
AcDbXrecord
280
     1
270
     1
271
     1
  0
XRECORD
  5
23
102
{ACAD_REACTORS
330
22
102
}
330
22
100
AcDbXrecord
280
     1
270
     1
271
     1
  0
XRECORD
  5
73EB
102
{ACAD_REACTORS
330
22
102
}
330
22
100
AcDbXrecord
280
     1
 70
     1
 90
652598616
 71
     1
  1
84659542-AD94-4C1D-A61C-E50CE250799F
311
504B0304140006080800CE4DB74AD78FC1F210010000A80100004F00000036433841443636332D394431342D344531422D383345382D3139353439393236463245352F4173736574446174612F446566696E6974696F6E4974657261746F7250726F706572746965732E62696E7550C14EC3300C0D1C403BEC80C40780C435
311
A4499B902021689B941317F80094956CAB94B5D3D28AEBC4893FE133C119459A40587AB6F3ECD84F7E47087D8E06293A006CC14F21DEBBD66D9AFAA95EBA95454791F1DDCCFA0BC804A3AC486585992C129C51CAB12A35C7524A5EB2847166F243E83B066837B783EFE3C88726D4CE7BDBBA6E0827408C3BCE56B6875DD65F
311
C64F138462D802D04F21C4498B6F4551E42BC0BEACAF6F6D08AEBF21A294B91622C54AD30C67861658A64662AA78A6141315339C3CBAD00D9BDA052233C1A1C270AE15B49754E35CD0121B9E9486F1E44AA98AF4CB219EE634CA98B5B6F12421A384E775BB00FA8FEDDF72BF78078F1C309F9EEFE8B7C9C72EFEE77ECFF902
311
504B0304140006080800CE4DB74A8F321B26F6000000300200004500000036433841443636332D394431342D344531422D383345382D3139353439393236463245352F4173736574446174612F496E7374616E636550726F706572746965732E62696EEB606060F80F0540260323103700495E20ED9E9A975A94991C9C9C91
311
9A9BA80214B0303133B5343531D27574B134D135713674D175343374D6753535707635323530B7B474634768046931363471014A59EA9A9A9818EB9A981919EA3AB939B9E81A9A1B1B389B393B5B3ABA5A029581ED65D08CE93FF455E38A3D9066028A3500318C0FA6817C20F8600F51CDC020E0C020001602132A0E083656
311
16502304C01958950105E10A3E3003790D400CD5FA004AF300853001281C113270433014A6EC74C0104311C0D40A325A0349CD077B16200F145B7C401C5C9E58929CA1EB54949897929A02922116EC002A04E119400C0A73420000504B0304140006080800CE4DB74A88E57597CD3F0000904100006B000000364338414436
311
36332D394431342D344531422D383345382D3139353439393236463245352F5265736F75726365732F38343635393534322D414439342D344331442D413631432D4535304345323530373939462F7468756D626E61696C2F302F67656E657269635F706E67355B773CD4FF1FBF73E71C0E67EF7576C9DEF3EC995D46C6A1EC
311
5046649CBDF79E192942562825CE965D8A868C2842C8DE9FDFD1F7E7F138F7078FCF6B3F5FCFD7EBFDFEC41B196891913091804020321D6D7513FC77D8C5070EC3FFEE51B21F068154CC75D455CC028A3EA68992803810109FDDE5D5CEC5521B28A1B422BF80741695D5B529DA1C2D058AD2388BDA9F476F7C2CADC9393041
311
73DBF48A452BF8A700C0C70C3D121C1AA15A5270C22E2B9E28763651F7DA0D12CE11077B2ECD0D560B5E3DE2368B1E65C5E1C87384A4CC5F2D9FB8BE39E9B77C753783A37998F5CEF1B4FEE553463245C9712270880DF339E0B882A6BA713D865F6F384C842D440934EF264F4A304F8DE4EEFA1E2BF5E2D91F5ADD9613D6E3
311
1DDB33ED31DB1D7916CAF091286EA3D31B9CFECB78BB0060245B943C4C040119FF780A74DD308BA9D028678674EB5504ECF284EE814DAED07440BAF649BE4B55DA2890F4D73E2D489A59EE54FDB0A85B59F2F52C4858A02705C4815A792B0C4A996A2023ECB195073E115E3E3647F64243A8338F2000BCB58DA5692C7E7C3D
311
413F963FEDF3CF00FBB0F831A9D51360FECA43819F527B89FA260EB63C5DA676830AA3626A3693B23F1A17A0DFFCE3EE164E31B5365EDF0C89EF64D8E38AB0BA9A1117D7C3A0EC44F44F4023095E80BA610DE336D0F99593A88BFC5306E72DF98F7FD132ED95878DF2964EA7E43071359FD83B2BDF9C6B5BDF768F0F3C0FC3
311
51199526F53D9460A34511F75D1B63E488178569472C91A94497807A3FD4A390C6558F26D416365C3656DE6E769DA9D8FC73774E1709812842DD8EF96AED1960F79D21B395CDDFE6F92CB4EB962A4668C76990E2EF29798C8941D67DA50F4A5F947872460F1F6FDB794E8A29FD7AC0C0D6E0714339CE258FB17AE8535221E3
311
464A10F29A0BE5EEECEFC5675926A89F49EB14E5711894F6586DB5754EB4D5DA9C6437EBA57DB97A24F8B8A8DB295FFD73266CF57E82694DF5166DDF93573AFE9C9C5EB05F8FEF8E89E0A8917B0B3724DB7BEBB53252581EFC3E38166BA131A3A5B42FE2AD00A769BBFA4458D2DE7822F8C4F63D0B8E21B285AE13325F3410
311
A435C648C9D91FDEB109E73CEDA7BC796961AF79175E1A3CE4C5E8B0D009B0C9E29EFD98BC8E97554E3D8D838424E270F7685226E5AC268E021EDE3522D583E8F20C0BDE2959EF5BBFEEDAB32FE9A3ED0E39F211A86AA9DEBFC68182EDED132AB8BB794442D2D7EA9F4D8BFF52BC4D55BB165124EE90A42D101E67BBBB292F
311
FB4F66DE5BF2300E44546757DA7CEF8932BFC9F92A0707953491A55C5A5ACEDABD9FA1AEA01BAC3DC5A24E22E7C47213493996EFBC369D086ED9397C9BA6C7F9855C7BD5E15BFC8C53DB3D2A4C5901A57ACD2FBDF4D1676E95338B2C2BCE65FDA4C64F5FEFDC7D9CA5AA1FCF11E193F2FDABF0F4916BF13FB916A224380E64
311
62A9815F2300DC49CC4DF8D055CEF76462F4B7A7ACA7365C2707891370BC1D0AA6203C44CCAB47084FEC057F27FFCD57F89B8B9852459798A675C66BD7CE572CAF71FF7E6D7ECF7BF62CAB7B3F1107DCD04DC55A3F9961700286141C94A4F771FEB2BCDA2DDEE0CB0BAE402FF1DB0100F8E475DFFFC074DDB4498AB7D186A7
311
654DDB1CB680D703D47CEB4E72F8CB13D86A4AA68116E26387B93FD6738779B34FEDB8E517EDF2BAF28D9BE93A1D3A164320E07D42E514725C29515FF361754213EDE06B079A2E99EB1CA82A02019EADEEB87B9AF005BD04BBCECB14AACD6B24EFBE482194A97DD32400685FF1FEF1544D1B14EFB1E7F08E6D2CD2AF52DE75
311
7F35F5E62332EE88EA26417AD5C3E0E319D68F25414E6D672BD4522B278C57D18F0113921C71D96527E091F00CEB15AE23D24667369BD3CEFA10C7549D930890BA4366F4EBC55F01F746109F98ABCDD5A3EE06619C6AD78AB33E48E4C9BD21BF7478B385EC05C4F8987E2C1BFA0A60EBEDAA0AE0B015C2720ECE180FB6F2DE
311
FBEB822D96338C9B63822183BBF52FB664A7AE57003AABCE512BF77E7E31BDA2E739AC4C131657DDFE5225E900FB56CC01CDE808FA4A9C9DA16AC679656BB64796283D89812B8F91136AE18EE5EBBAF47A73BE3C153EB5D4CD491B4BFB4FE690A4CF9ABA08C0D8AA64220C438C96EA6CA80B58FE5761E697B3A292EB9FBDA5
311
02FA863E49FE694ADDFFF9D62C520BDD1A22014147A0903A05B9B729F54272EF83931FEEC057BFF8C8055C279EAC5C0011804828734024F6CFA319C9CC6867C727184465CD9BB7ED386AFFD96B294A85E3802FAE47244602D8273615952B98C4F23F7EAE4463D9D638EEE374A20959E0FE519C4CFB0FBFE5DD80C2AA3F9DB9
311
61D1BDE57E67C9BB47B77FDD74EE3094F5DBBE3EBC1FBDB7393F5116263009E2EFE1AF9A221B2AE234C902BF70E9F280ED23E73908361565964333A3F01D0B006AF32FB21AA1316744B489D5A198E85299241735BE559675130955C902A8ED761FC0DBE337A9F91919AF5CE32AF902ADF9AB2615E00E8A94586BA1A90839B6
311
1832FF1BFB76D2EFADE6DB1BA04CCAD3DA649E7E2A0219F592E22F2AD54847EEA8E42271011E9074F8F3DD9FBA6CDF88FFC9FC7E811AD1CA8F4557CE4AFC7BBEDCF0114A48689F20A584520C74DA8127124B767E2FB91A6B186246727BE63C9445BAE02088D58B8EFDC0F1072407CD9B89A13F6303B4A928F593AD489B58E6
311
869325790ADC406036C591729FE14021F94B7796BB11848D463536A092A26F077F94639F7CEEE2A724C66EC885F4A24F8B8A0AC321F8FD149BA529460FAA34E4663C02D41FDF80BCA222D42F0ABFF8490F4FA74C673807C2051D8E467B47B616072860069A9A303ABA9B319D58404461401B0A0F9BE5E1E151C14BC33B32AB
311
E03DDE91708DFAEB15E7C0D593C86BB7D7EC17BE56E57975F077BFD5525F3A1A361D584A75E08CF29FC7B44B2B3085014F3A5A14517377C3F6B8F37E59514C3B12F8AACDEDDA4DFC49BE5710101534CD6FB6DE15B50F11A09472AABA727F0C49D9CB906B158030065F48EB3625E010CEC1D511D0053474B11E6A4F01C0D6EF
311
1BED3A944FDEC70E0DDCDC756C86545910E0DAE3BE3AA9A404574C2995CD5CAF9549226BC94B4F4F0F5F9086F418F6B32346464610D8BC7391D3C3A3CCF04CFC1FB2A3A3170E369511868F14EEA4E5E438CC73DB1F3248AA94B6B2FF33B222FF3D1E7BF146CAD229770158063BCE4F5391964DF62F7E52A7BE0EEA829C9E13
311
C4C147D6F93FE59E111DAB5E4594D6F3CD1AD375EE039930EFE5AF2BB2D41C83C7DABD8C659BAFBE8FAB392CA634F3D15C1D945DB4588D2B0824A4EC928AAC565557CA2F0DAA588CA5BE30B3A8004F7BF005E96CBF891D7F18112A3619FDF530DC8AA64954258E1811789B5189B49B4EB53F5F89F7D37523894F3EB57B3737
311
63C91E502F52CC99EB7BDDF933FC324C4FFC2561DFFA7339FAFDD0A4BFBE6D3A8FF9ED1FC49898139864602458968913181918F719CCF5A68B2EE9C1FF050E34E63107003B8120FA982C21B30A874E4F5E4B38D5A8290C4B8D9BE48A0BE31EA995BDC37AC6DE90BA17D259DEF53605D55922FEB1855D915B659FBEB350EE0D
311
FB2F9F766E1C84CC8964B75D08667445EAB966015F63A18A9E0A325C1B3DC628C0D3CB60F767FA93CC65F25458BD23C3B312716E5F40E5858AC06EBA9AB14F95DB99147B832069201541D09A0D856E12C629CF32683760EE855537D1901988D5EBC156676C7DD51D7207CF3267AF1D76C2AD867315E44618015313A98B1994
311
1C696FED3461CAA9B5415F918556D7802EDACEFD6B2E45853A9735DFC9DBF7E440F9319F8B6805A973BCCDC76C069A9144E51F187EDCC12FC31B5DEAAF0A76137199B106EC84ADA6B6EE697D4E6A96E007417F4E880E8B1E89B4BCE9D81EF611E2ED8F0C1A6C25F620FAFAAB656A7C42D464880E8AFAB0E0FC8EA38CA9A8AE
311
EAEE3E4648BA4680270A89743CDD3E6C6CBF34B7B640EFA285ABC7EA0A1E28F3CC963D114A80123EE66D0AF7D5380EB41909B605AB4765B709B808590458157E69BA1378FEC4B48CAF6A730E3BE3C5EF2DD1A5EAF94B1DDE50CEB55DDFD7EE9A16747FA4B223359FB1FCC69E1194892BABB93A1D5C4E807AC0EA2E30180811
311
E77A2291F6E7F7FAA5E0F60215BC6024E48DE436C511F0628B8CA189982D4D83CCA17D305A7E923C37941CFDFDCD93ACAF735EF5F0E61BBD3E6C41A59B242790D3A3BAC7064DCD89AA2E37214EC839820949D5CAA31E240D2948E48F690298974A96BA9A8432BC90F5071D6537C9666EA4564796B7AFFFA548077BEEA75F63
311
083435074BA182F3699557397F71548383FDA8CA34D99B981E72835ECDA5DDDC151315173D05A21F651AAF8524E88209E2E7A737ED1045800CE3390050BCFB8BE588DF111617874C62575039CA588EEFDEFEFE319B739DE2EDC147092A262611E159650E787917885EF08F1F51B8F2D8A71D60B58B190FEF9541A1BE94BC19
311
FEA50784DA1419FE4B0FB51B8D36B5FF8E1286FD8AF42B91E59A5F1CC4D60174E764045FD8C57B18209B217F89A62252BD20BE0E63E12B8E8F029FE19E0E8D0870F58721A557082250D5424F7909369376E41666C0EE77CD87CB283F661D5FB6D0DA023CB67320A20DC7BE661E9E1BFE5463085C557DA1FF9BE835733766C3
311
D139F2CF9E2208873AD0EB4814DE9E6BF2CAF81614D4D43906ED1C05A3265CABBFE192770FC2F64F940CB6B17B5F166F133C9AEEAD2641807C3E69515171DD74C4A85311513D6EC9530B3B601B6BA3EBFF3B5C3D2F7D69765141E345F75433953D013ADDF8F6AA7DC3F4A7563FE5C7D367937E2900D7EAD0F9FC9A4A1A9B5B
311
DF1FEF08532660C01C5D6DE22199AA774383E306DAB87E301ABB7D213887F9869D4942D0D71E94B27EDF216A318BD488D45DF84529EF575AF3C3938C0AAA0215B01994153E2054A0B894DA5C784980633AAD48576957CF4AEAEAFADC7C587368551C73DBE1E57C58AC713303A8BFC258BD04B51724459FF9E24C03A81E0E06
311
79CEB9B348C0DC998FEB9C6D6EFA77D247CC8F92D3848599ED89A23218D0636465AD1CEEB7DC140D7426F83491C4E8E8281C2FB35240918FFECE880CA2A42D70E8B20B34DF5221C7DB0CF90ECCB9C745B37A47E9B716FF7A97B7A252C1F3814DC7B1E1A7F72B8751D524EF7CAE45B0C73B3BE7D08ED39781B380DDFC9AA4A4
311
749C9493DB5BAD07A6EA6C092FBD0E85DB004DF06B8C9D3089C5320187E4CE1846158C7EA7DDAE8AD9AFFF21AA3A1026BB06A259845E8232DEE62811A4DA9CEAB3A4887320B76E2AE5615EAB7BDF738CBDD01F1E64064BC13D9EC53576751CA8CACD58B3CEB0E6CA585BD089B2A59B9FC101403387AADBDBE70586B93D64BF
311
3AD4453EF9C3B6A93817E8346991798601344F79A83C51F3D50F7BF2683A3605F51A72449489E0EE6169C749C60B1035651103AEE24D24E51A759C840DD3FC6504DA6FE107510E447B43461C79D22970B75DE5E1BD3007D1AFC619A4A4A69B5626AF5E9B8374E20677F77E2F8E73DF868E8BEC7EBA7B6A75EEF7205E1AB948
311
6CB642741D6E03FF13FCCEDB1C4AC129886268B01CDF4B124AF797CF784F3C6DEC97A17D4B558070A0F1C04DA4FF9BDBF34159AEFE958479824B3F58EBD1E19088A2AFDE501B6F2052368A3FD0E650A179EFAB1561E1D27527077136E652676C3670F42DCB3352F48F6BC86D2C3B0051727E41A0A4DC6CE2BE9D47F5CAA293
311
5A3C0539AF080665997194ABECD723B08129CC5B6B21D2E7D54CD4D12610E7E9FB8306771A89576C7A982002775ED44F3F744CF21EEBB27A631671D921938AAEE3EB0D19CD1E083727F607823E817BF599DCED5394E37EEBC2E88782E638920CA641EF74D4CDFCDEF06F4278ECB18E31E7E9876F2D783C8BF429C75395F57E
311
98C2B495A3DA077EB3AC3C158608B6B57FE3EA48484D9A480096FCEE0DE880950E7E5A5714131C5C41AAA29FD19AE81AC145FA1B9E85C7169A5AB837B213493DF7E9AA4B5FBF9CDEB36EBD21EF1181B7CF7366AB2A951D01E37AF4EB835D1BE8C117CFBE7625D2EBCDB0B20C5A4B45CED0BCDE3EE8DA9DA78C2E21DEAAFFD1
311
197E463C33CC6A80FB785669B856EFF7A8CCCA2841B5A5369173320B1170C368B2748D81062EA0296E5E2D95D7667A4A46D98A6FF475C76AAB0A8C8D45E226FAFC9FE0133EA9F60111F99CA81ACE03A1D14C89E8B0D69079C91464FA1D99E651D0EAF606F345C42A8A1AA9BA391031582B96D5B4176A77AADB01F12FD298A7
311
5DEEBB2C82F0B8650E880722F8DDD90C56A7A058E5FDEF1AC93545BA27367C76F5D8F9690CB6F8DAE141EDD7971F0FB548A2AE435F224D6E5954CA155512F7332029D5A1230854B79F258EC5FFDB09F5F6343A8EB193229B7F7E79B3E48F8E183860B38C8269D1B53738FF1E0BACF6AADA6D4869E9DE708E79B5DADCC09B1B
311
C76F649731CFAF59A83FD8BAE4C749D66FA87A3810D4D62FFE826FA400C0F325D2BC0F3CA35F5847B82A2ACC7961745C823E4D863D54460AF792CE6F79B5C7A33B25C3AEA6CDE15A919B6367D781E9D44F61BF828672594A3E1D9EDD6DF179A81F27EAC05B936575D73E05C209DDD2115CFB705DF9BBF3C911589B3640735E
311
9E618FC9C36A7326C82B2205E244C55D56FDB9D5DC93CE958D4BF8174D2B3DA54CB3C09F2C2A6DFF73D23B2197355761AD421EC581284A7EF8DE2CE3497C0C804D49B41DFD6A7360844E5BEFFB495CFCDB97A4595911CDBA623274CE852B5E278AF0BEB1770E9D37CD977B2766A7DED0E94B840E1E95E8C77DE5CB6354AF78
311
71427C28ADBEEF7BA0A28E19DE9ACD75F379FE373EAE6DDDAE3834692F9C2B03B4FCA8FCA9ABE8EEEBEBB725B88A7C90941E850682CA04061A7DF0CE82ED49BFAFFD42C309818FAE14755CAAE78B0F73243ECCCAD7DF58FCB9CDFAE7A4D3E6671A613639130D056C8383C8F4FCF4808C331E544DD26E4755D09EA05253B304
311
9A1E32587CC25D72E073E2CD96D04A71BBCB0038FEC3F53D254199C3CDC67CD66640269431860225392B2CB3ECD0B4498AAE78BA1994246AE1EE78F2EDFB79F6C6CB6B5E279C4D373FBC21CB2698C9ACBBEB6A4BB6B39E16AB0E421CCBFC7654D81ED86022F9BB522146F9F4772E2D0E4FA70120C95A85A417BF5078B232F4
311
754363EB1750B2AC2148EB46B1EA72AD9B4D23ADCBC589D70106C3EC2ABEEED84DFE28E718C6C83502C28E9FDD3B09DA0A6F6F7B72B706A31C9E2A331EE70DA56A083D2177BFD63C55B11D8D949FAFCF90B23A1E24B9B5018B9A17E99F2890EC302F330FE7936E2C23F0D237EC8916F5166AB84B62A21BB0B950146962D754
311
F92CC2C8877BED8FC7B7B25726DD19545392570B3A2C66B58F027BEF412E552D12A588C4A3CC5C3193FCB3485EFFF700D0B9EEC077754A33DC1FB9E25AF814628F91DDFECB667D3F7690803F38D13F8AE39353523BB08FC6760144AFA2CE28236F65EDBB3D5F59A57D612B99E3D7E5F8A851666BF9B5A6658EFC96EEB37A37
311
8ABB0EB3FDDF1303AF32C41BD1C8560745D7BD81066B0D6313359CF488563D3BA3F8E2185D1FAA3EBA1397C9D0E3DD232180A4DCADB6AF25DB3AC3CC26589C8239E66E81547BC7E2F328F9884764CA37EB5DBE390DFC03A5246B456A7C3684C4377D0EEF9A350680FA9A077E8B2957B489E09AB1AD41316944C2254B598483
311
0F691C93CAA767EECF976FA5647538830B5E63236A6F0365C1E0F3E327F24FE35EDDBD7360B0F7374837409F7A6311BECC12B7026D4FA1AE204FA3F5FE904B1F420C7A9044AE58E403E7C4848E7DA25DC9EDAC79DD756FAA26B9EA83ACE8A214A2612A22AFA19DAE7DBAC5F8CDE1292A485F98DAC731A29FE01A3966E96BCB
311
9FB5A4C8830E1B9AF0C54B87FBE221A097036E5D28D1F869F810C06A9BB0AC0612F69AEBAF893C6E7AD59460208BAB3A6B09CA4F6BDDAB8CF0D1F84B72487498395A70DCD754796E271099A567A55CF242BBED64696378BB6CF25EF0FCDB589F3A82F1116D010A9AB9FA4358809EE0C973A2B4229BAA876A70B03AB49CBA7F
311
BE71DB1832FFD32F9BF2C8E98075CACAFB36921235D0F552B6A67E94E094097A5D7DF681B40623DA535ADA7A9AD8E9A62407D7C9A5AE51D62A17A83A23728DE86BB56115804D3F2675F2C6B87541A0FC497BF0CA86420F558C9859EBE9FAD62747E323E3AADC03FDCDDFE7407B09DA90B44E3185723C5381EAEF589765E2F7
311
A099BA46695BAD60CEF3491B8A171F5F56444F7CE9455312C3498C74173AEA0214EC029833B34B650CBB5A5508D5091665309642791708ECF27CF11DB3D797D6CFE474453BD4BFADB768094B2147814D81C7CBAF8228DCAF5564B5891F5EF6A860EB2E323CB82AB868D8EA048880D63B0DE5341F1B3D53297B928A11E15F25
311
E5148990F710747C3509ED14909C552EBE3973246FCE55D00564D8310BC3EBC5085D08D806799B77D6C57FDF5E55837F9E934F09C03C729271B64F12D0A9F9E938107CAF7BF1EC8CF1BB9B42363D33070F4CACB425E605DDB0A34A12BB936DE286B9887A4E2E558F0886498BFF49C311D96C277CF6A9FC0D75AD0ECC5226D7
311
E0E3572012E56D7FDE4410CEC7A6D0F997F225A2055B8B92E3956E875AE4993CB3D4C9063AF98FD45E1BAB165640A43439A2C9181A7C355B297C0A0CCFFAE19B6FA3C2BA238A885FBC98B8F6DAF4B94B97304878DF4D8BFF6A4AEDF79E90ED4E68F00CD7299F4E0D83E35601AF0CBEF18C1E870E74758FA91F5131075004DB
311
3CFCF09AE1DABC11957FD9808C92E8A678CE9DBE40DDA0E0D1D505AAFBCBA208232BFB6FB3704E8985E61ADE53DE74152F5C7DE74B1DEDCD37DC3E8FB30D7EBA8B9EFFC3606BF90B8D438279CB7709FC7C00D327F41817EEA71CD9E49FE9C8C9A81C70915D9F0F15958EC5AA4C3BBFAF46986B90F188BDB24B89DE3C6F29EC
311
3E6F66D84856EE96A35E657CA41B41EFD8DBFA16AD6E91439EA92B40B21C053249F51AE50EB0B24C770FFAF40DF12C8436366819C48E36547D4E7B72FE2BBF10828583057814A668BDF183F6B2E58DFB151103E56303E63D00F39C27C4661605DB644D19175D02E3F0241E8FC3458D17AAAADB117CE9EEA690D0DB01E63487
311
8C04C2C9310B69FCAB831151E3AD293BEF6E46B0ABCECB50F5939B39C613D41E81FAE8D34CAE3C4566B761D37185FE864AC32FCB71AEF39DAA5BAB88609BB980CD2F07A8F941653B529567726E2B2A58D079DD57E1E5E31426CF184A04D7B03B985F276D47406AF276FE32E3328BA866EB1FD39BEF57863A317634AA5FE467
311
409B3873F5069EF0D71AF00AD189D17BA1974ECDB2D623E9E14086386A6AAB5807825C37B015BFE892AFD154920EC437EB945D958E18622E1E0FE2FA06557CE4BB9BBD05A2D40E774DA2B65473791E314B7D6C886820B2FCFE4AA272B3B8B15E7344A145E8AF919B5454D89D36D413E87211186BF6F645E5EC94DCCE8E1C79
311
9022E4EC9BC86D7A0F2AFB1FC4B2CE48F84B3F49ECE65BAD24CADCC07EFF39AB06BE9E6B27A059938EA7208838455383DDBCFCD967DDE4650EF92A14FF933C975DB20BD7FEEBC4487576485963D757D16340D9599FEB362F775F38CA4185A86F74B629C81B133644A3B18FD056E997E0734F9BE26D11C0AAFC669E2AC9FC41
311
D281F8B2E1C35AE27BCE05F3DA295488096688719D974DF1B5D182DB7792288697F8763CFB43562C1CDEE11C4AABD5C22B6E33F6F389CFC3477C5919DC0D533F8A7A1846B7ADB60ABDC26C43D0CFC8910B7C15EE22675BD02702ED39DB77A87A192CA7A543E6205B979B9F5A6B512A3CA799E198B2D5797C0AF8D1D872CA45
311
5D4D431A7879D4DD76110B5FF7F4176B54477A9EB5E4A5D11214FDA585F0382751D8E2582BA5D2075053298FEB8F1537304E32CB22C2E2B693DC0A760B1DFCA751BDC445AFDCBB12820ED85F6D5298933C7EF1211E9E057684056CDA3FEF3BB6052355E162DF27C59E965A8DDB7F9437EB72CDDA3A090DE65A5B2F50326247
311
B7EC67B73ACC7047FC9B353D6EE990F772207C6EC52B39DC2F3C0754821DAB559F7C1809C7D0DD5B0499D0442E0A6E391B3D5DB46D11E731E6794EC77523FBDAA242ED67F9FA1FB684255671F63C9BCFE6E7E896D51001A6113EF2298BA494E0B0980D1FA5B9D60796554C02256B1E0345FB7C6186B6A19D2DCA2704162628
311
45FA4F42DB5D9B0A0B6F07FCA2E56C242522E001E0CEB734AF310FC8BFB57E38E03AACE93B3326A2197891E68452B26A6307FDABFEE0223D3C03C3C73D2D5BC054C8311F12004CAE488E5C29287F8156A2CAA4AD0D7BE6B97264E4139F437CE73ADF52E5134C52B819777C18B323A5924E4F67AFD13B1CDC3A61793A79FAF5
311
C0CEB718E441071E797C6DCCB9EFCF7E4A1E9F3DF3C2F9C9E8294E9586868788C972857FB0556D7A26941A7EEB9B580AD78EC40B85DC906B4120A563CA3B87797ED612D3B035962BB75F6515A393F4CB057F564CDF54F2E5A024514E6A1F901DB80C7E70B1FC05E356A7E72FABF4775B3E3FB8F70A2A8E7B6A94542BB30415
311
7978CCC999E707A29CC795E67A59CC546A5D47B368954CA7B6E75EC9E1F6FC73CE3B4F71F8CB1A6B15923D61EAAEB14626AAA9D04A26EB9C66CD1BE86CA31A5D8703DE04CD1EBCE4F5CCB62F93909AD11E55799A781A956ED27D3E738F4538CB04ADABC7DAEF20BC35BA6A90BCC1DC61BA05F20D8832FFB9BC9B15E2DB838A
311
0AFBB7E0C82A562127E0446894F427794C3037186F622BF24DE1B00AA10A23BFA47B2A180D6DA5AD6F7326FEB8C100C2D7142EB2A0B2A9D1008A09BA343D70E054AB69E2A7EDB783CBD92537FAF4A44D1296AC2792729104B3276C276C951D0CF3CF3F1E6B017720A7B8505A5FF9589365979678C36F1BAF759EAF57C60F1F
311
F5FE9DCF5F8E764FF25A2D06CF25117A8FED51884C13B2B750DB0E4F5E3D64124FCF11F0AD8F1CC3B3DA4B38ED22BF1CB2585EE6BFEBBA63FBFD44F9537B9B37BDD6B358720F98A8125AED4349CCFEB0E135F19E208A04CA7E2B10711185D72E381F448036EF57C9F874E54A971CA37A639E986AC0226DC5AA00D5B14FEA91
311
92234B3DE617814FC221C92F33F1D392F297731B567FD98FD91D989379AF567A65B8ADF177591DB90FBEA99BF4ED11B16E50A0AB1DBF1156D034BBE04D69D08F939D8E92BF525A1DDAFF80ECBC95D8F45D3FDD289FD23F7D8B452F8EBB34EC082DEEE68E18EDDF072060FAD2AB1504DD4879BF67099FC58F6E9DEFBF645D16
311
334A3E9A127C6F1AF6132CF287E433B43A0EE93812B4AA0B194E03EE3FF91EF9C6ED0074A2F6EB18A96A7C9890B1FCDA1F2095E944DB911ED54C60DF16FB74C8CE9BDC7C54C4F14078CF73C2FFF1F1BBCCD7CF64F71407EA1683DBC410D226627F66E509060D5C0AFD611DE681D509DB8DD12FB1265B03C6F5C55FF4C30BD9
311
4187FF692B4F152982502F193098A789526A038AB529A52BC0DC4FB6285CBAC10A8B8DB75DCD9BDABBB221E27D1F8DA9F5EE5926A1C8AA9BA9BC09239C6A7F12914EA3B59EFF7AAEC3FFCCE56F1C5C2980AD072793527565E774F4631DB178CEEC691B1F367BEA0CF2907E1D6B854D527065979DDEF002D8B2ACEA7CE21AE2
311
97737EDE1D45B31233B73FEA35BCFDD0B09721FDBAF6432681F2FD10C3E9EFB246FD6E854B344ACC9D8A0EEF876A7314B49B6A499FC650B099D650DBFEC7638ADFD245E2B7839DA5AC5F7D5623FC0ECEEC8653FC9B2BDD1AD4D00A566FBA7186DD3C9CD26512551637498CADB950FEC71ADB9A5524285DE328B8EC7EC75D23
311
45AEC6A27C42AF6D9B92155315C80DBFCABBB7DA0FAE425C4FB896B15C9BFAC4FE67DF5A23D30C93DA4D8F36FB15D100050DA6062E22AEC5F4DAC4F6FEEF97AE05DE63C6D38F9E068A20BC5E3B6BCD75320C5090924E7F93640A7735B1A43451C2D91EE62C6238B797349E59890AF3A520DF4A87095F3ABEC2E61F0593416C
311
E46CDCBE0E00E2523FCCD04408588B5B6C9DB6459C786CE378770B54F51DA3A5E1DF2A3349BEAAC234A6CF8993B598B3B25B4B113E353A4D750FA7534749430F3EBF2512E7EA3FD43C6AB9A1F765A58463B306721A15D224FAFE8C6F5E3432D57EE697DA0DD5A9D4866A8BCCAAA9DFF1F06047851408FEC060471D0E3EB86B
311
FAF46E4B5E60311DC3E3CEA147C75CF971BE74689507154FF2D2E92F15CDB2B9182B11459FD8ACAC5A85F174BC94A7F4EE4C4F5CAFA7C02E37BF0BC77B7DCD0C047BC316F562A01A441AFA7931CC84A28CB9F4AA367EB515778F29BFE61195FA671F4352E5E46E3A64773F1F76EE5EB36D7BCE9BCEAD837A4D77F8DB8C92AE
311
EF6711920D7C7D0F76B0FD0EB7AB83724CD35BCA7D36DDDF5FBB7FF6F04A91F3E2BB3B8F1A43CD659639507FF6331C5F697BCC782AE57D757A27D97F1AB9E0AEDB43F92F1B2AACDF5FEC8ADBAF9F814E2027003BA2F9E144B1938A7A04050AE5D953B82C45619165C813A10E76DD6906B3C16438064D14CDA713AEC4200346
311
13E1AC7241904A49FBF87409AFB1FCB9B72FE7933A87D8FBEDACECE4EDCF6A4FE9FB94D5DEB74FAB7CFEAE17EE965DF980DCCA2D04134994F9A2E94D2265DA4FE6AA7B7AC15FACAC2B5ABBCD7DFF542C5314FDAB2E1B9D8B65220B8E2B638BE008E8DCA22678C820C5053664D15E89F2D735B51A84955E81A443545E9FF787
311
BE0FA700A76D136C27DA179A7C6E8939E01BE756E19CB292798063D8B97F44E8A27BCF3A614FEB8BE974A718E86F7EC99B53CA35FA24F61F2B07266684623A3D4CF073E511F3A10A8FDAFAF0078C577F4DF9D339FE7862E5FA47CF4344209E5BF76D783B1B48E152AD281B15FCB934DCDA49CEC5706B1EE8B460F435324A5C
311
AD154725E21AB8044B75A557A79F6C807B9340AA3D92503E866F4274412926C8C504E4D5EF8C0E68DD0B028781A6B4054F11CF18941F101C57CCC796773ABC8DED9CD91FE5788806C05E548895354AEAC96546D55B0E94A59F148D061F42AA398D822CDECA4CDE79E13469BDCC44FDC990F366BA5978C15F97ED80CBFD73B0
311
CD9B8B83A4F6845BDFBFAF034019473FB9A63BD55D3A4A7284757071574029A4D016DCCBE95DD679EF3C4880BF169422F8C89B68A988D2B13793CAED4F74DE7486C72DC94DF46B8E93D8E02EFCB1FF9B3BA10C8AE7F653DF94F4AF466CDDCEF5776687F7C4C14B63E4EED1719DC2EC482D7DBCC7AE518CDE3D5FF86D39000E
311
C3673C0044E1D308BF05F74D1B5F033A7D1BE7F74BC55BBE3E4A20F920946CA0271EB17BD2B80E5660ACB8A29A79F5E4BBA49D4D945B6EEF4A7EFEAA65E5555BBB57A7E15D2F83C69F30BBB978D2B39F1F26FC097424D39BB33CA3D87ABF64E307938B685BAD44F71556A30B7E712CA4FE600613C3E554B69ADE949A7CFE21
311
4DF1FFF05CB82151EC6FC31950239F94CF7AD39DC473F6EA356E5EC2C4EFA04383CEFE985A127484366FBEE3C0EC4FEA363E4F6632AE781392FD45D67B63FB8DF70E82734F431FD3443172A0E30A83D60982D55FA6A2CF86DBA8382502ACC6CDEF3B907982EED1160E14863FA242F9757347E1544275CCDCF71ECD5F8621CB
311
EA326B8BA884AD7F825781923E66971F04010D574C541D8427A438A37EEF8AF88240EED7362C953F5A81DE2D56109CDE2524EA0F5D2F87308C0C47BD97AD605878AB8589E17CA83930CB5E0DCCD75853D68B1AB136594926DE426C367428E9334AFAFF90ECE221BB5DC9E5BB53D2CDEF954EAA9CD814F0E5725F1965DD458E
311
5F8487683AD86B9D0076BE3EE91EB1CECC5331A67A3F79D8B27587C12EC2A6A70474749F27B4C0BBAFB94B34189E88DC18964BE4121B9137FD516C7755356E50D6714E31ACD222621EBBCD1CFF81D87479056A9DA0E0B8EA19D24CF937DA89F78E8650CCBDC110AAB6C4E46DCBFD0446BA9E2060E81F314AC2031E88135E54
311
76AC0160EF5C0DD2EEF1B8B5CB2D198BE9A554A9093B5F7D7E4B5407DDFCA1D9C152FD97F55BFFFDFE802954DFEC8995B983E28AC92F1971E28F531DC407A1280EB125F64A72E617EFB27DFBCEDCDA2D6F2BDADA36873EE46B9BE1782998C63DA7182BC383FB6FD15DA472B175D7E8B4FC88F38D6E07FEAA3FA3CBB8F6B449
311
ECF14D2175E5C5CCA3A42ABF24CA6C9395AF74535F4DDB38CB84F56614B0FD32D7E19CA5CF988DB4449C40E23DF2B16772594554579094450F56F253CD25EA7F77366FB1CFE79696C428BB64D5A41E986189427E5E4D7E2DAE3D5BB4972B3DC44EAABDDDD63A2264ECFA5C786EB0EE1FDC5BE34FA0F08376869FD1E61EA06C
311
AE15191135445EE8F0394161C3266A596AA035572BB0C8876180D8B9C77D307DF9DCDF7365ABDA6F3A2366436457A4DFC1F259666569A9E4A79C817BDD5610E5200FCE894A358EC72858D50EF67545DA81C6FACE3D457BAF70367E1E6BDD9A952FB4F56247F58F523B97E640246051A72F79BE42FFA0B3187F63097F91C48B
311
868586F714B0EBD5A00A8412C1236E1298F60C72BE6C96B82B404CADAA304AE9F303176B14BA53FBC2D5E86377E35542019E24D97B96A49B2C0E5006E7795954DEAF5DA58958839043C6C70BD3B1B33B6DC5C31316D8A6923F142E26F6711A2258AF977DDF1F970ECC4F1F2B434B96D81BEB6E89BF3BBB3C7C8CC805050707
311
23D6D7D7D3C8CA27CA164A26024FED94B12A86031867241DA53D929636DA600F050BC40CE48B8BA03D69224720DEE2ED2127390BDF5E6EA64527BBD4C4C63FA76BB801FEEC0E61218EC98A8A86CD8313781617877E66692839B9468CF4DB8E50A73986E558E309C0D6F676F921BE02F1185454DC75B111572FF9D27D85EA14
311
C05AD7271225B391C4275659CA4A43759D0BA44639BE4C30A84DB7F67A41399FB95CBF923B1B1672ABC807C1590557FB18D811983FA97F5E609516D62281D38B1281F68FC75528C35E4CD7DF0F7DBB5E5DD69C414EBEA2F4A5B241B996BA77AE6C772E367408C633EA3E438B68563EA8BE7667F3A4C4FDEEA52ABD78A2820F
311
443B7914A15F180018D231E64519C56A12F6CA7C8DAE18F06F6B769DBF92329EF6A5D18FBCE600F36BD8E8198DE5CDAA96181F3A756EBA5501CEE58F497EA4F418A2B82565B9BCC611713C0B708CCA1F398B78C5F7D03B3437CC18F13061F55C7BEDADD5ACB1DB0E36D3CE47FF6EA1A563A57E9649EA5D14D1A50EAA457463
311
381C073777EF1600607BAF6428A7DDC079D47A204EF1E1F1F0589FB054D45E02CE623B3823C317C601E589E22B1E88B448524B86A82828E32345EC18AE17214B42F8C41C6D428016D9BA31DDCB47572561E5A402E5BA4FCE55F78AF7268524AA04130F3A20BA5D1E9F9948EA48FC8F5314FDB35E21898198060034ACE5E3E2
311
BBCA34092518F275190AF65F45867FF0900AA4B81F25427414C372BF51DC29AA855C5428EE1EEDD6B849AD60F6E73475C2D2523F8A2772C840A478DED18A8C5C91B085F255DC4F54EA7AA8947354FD17ECF8FB3B4A0DE7B483CAF3A1165EE05BBA413E5C1FEF3DE1D6B8F2F3F3251C17D9FCAB48A9AAF63AC773A0E413BBC4
311
6A9ADF84A566FC920E4D8C52C9769EE3301CADEEEDD92B312E02E2A7E35B7F1E7D203FE5A7D75578B06E99D0E46FFADB8FDA17ED8880390DA29094202D6F645F76F6F96409CDA05495A96E84B04A00D1A6C6C81D7F3DE9376E828CCF144EE50E364ACCE7237EA0BFB5607ED1AC3CFE73794E5B61739D14DF1743441B1AC98F
311
00ECEDE9E7301FA29755FBEFA68C91EF2B314CF510537EF1ABFC9A762496280B546F5EDAAF8A5B387D469FC9A878A92828C88608453ACEC6094DCA54111E7AD5B2663DFE2DD151B7F123B9F4FEF8EE36AB125FD7AD52A59B1B765B3E3F73E3F73DEA93875004D2AFFE3CDE9493B87A9904DD052028949041A91DC0E1BA47BA
311
714343FD5B25E0A6A09503AFC17C790058A836A324FE31D7893512E28230332F153181C1E018E1124EBE1BA262AA428A518237D1EA7275E48C5C561BD19ED6912EDD8367DA0F31E40EEAE9683DA9257525AEA7B632B97119E17145A90231768A4F3B9120FF32E8319B015E3CBE26F1A754177D8185345817C096B0CE443A95
311
5D13AC15E1FB5DEEA0239EC32A3C92241A237B0B02FFCB4F93CF2B02570C8D192E2F2A68CEEB42F12E6F8CEEFF46C251E22B4341C56FB08CCE550E7A9D6F4D6564B9EA52A83D5BF2C6E03FA19D2775E15A8A7ACF30A13C259EE7F5EF2AC3BA354F1500E1A07FC63FB4686E2F12EC69719F9ECF5FE3F35598DF2CE944008CE7
311
8F0911BA5BE5D0A34E0098FF038669C26030BA9B300303039852A8F6F496341737CA7E0D2E3AAA36DE0A70AA7D9CA0D54D9AD84B18A44C9E625475E1C97B93BEBB38DCE7D227E67A2D00F531436136355F243D1FC0D712C5765754FA22FCFFAE97919161F46D6E61ACB37D83777B385889770B50765B127768443A5C4D3A4E
311
35A3151111F146B7CA116F918A049F1C272F2CD7976C69A0068773451659A97E0F4A08FE604C3FF6CE7385DB19F4D3ABC8A0D80DA8A42096AC377DB49382B36E270B6FA7570188B4B7D1DDDDA82ACA487CCA5D38BD3BD039ADBAFA4ACFF27809239B722081E2EB9F145320553D183F28471C388BC8814E5045676767AB58A8
311
E72D1CED2CA731379515D2E533E4CF0B39DFC625F97AC4836831A4DE330E87A8126FA17EBE583D614E71E22A8DBF2825599743E0640037303E8E1B1E8EA4E1ABFA4F62907B5E4E0E5DCFDAB417C36C6848A2B8D15F1E505434C0707E16B1CFC2A1C36A42BBF55734F8F4301DDC2A5110CEE8C0747F69519265012A2174BF4E
311
955ECD4FDE095A3ABC70536B7AD0B9D7892F81287D667C108703C9B66A221E9A0929D030008F77FF6F5D2108EF5706FC87A3069B976F7C9FC3239D13D283CDEA83597461079FEEE049B0F392889898B7D87D31F8D60ED7B56B91823A8E4EDDB36C6172ECEE42BD42B12CD67994FA0F0DFAE9389356F4CD4425A4B8AA55CBF7
311
ECD585C6A2C2316791E43D5C06841ADBB226A87FD61515FFBB0167B74E56BD7F3E90A57A97FEDCBDF483A0D6699A8C0849CAEB4947FAA90D8E332D9DEBD9F4738C37DA0CAF9CF3DAA68BCB67C420459C7A64498D6E848E5CADE92BB6901F607AA331104A67F7CD650EE169B1DAE94D2C31C2F993632259B6957E246EFE4C54
311
81107B07118607700040E5812A2A2A38DA0076875258C753F60E0F2662C748EDD5F3F3686B8FC3BD6FE631ECCAA1E8B1C1E565AD117E54893E79F4672E32F9E46B2A183DFDCF3EECB4D4D077DBEA0DA254D256045109670050129E9B9B1A9E4A11344D61497A992778095151510C4BB7EF2009B63AA4360635312E4CF668B7
311
E0D3D85A8688E2BD83B569439892ADB63461930D428E0DE42E4AC57CE48DA5CC1449530D8BD3D6A0F08DF20C8E8F570F2CFFFCEA286E30969B4654D498A58D9DA782E19FE3F002181838925592C4A1EF0B332D88B61A92C644547BED490D3A42CFFAB70E36D961F694F6307F72FF15A1C79D5B1B5CEFD353D9E2B52566DEC8
311
F8F09CB3E8359C0F68EBBB7898243E34E12A015B2685AB303C04D3A9E00671FF3DFF0A184E4A2ABEB2B666AF5B3A209C73D8EF29DCDB069C9F391EEE9DD0F74C7BCDE16F8F02E3B8816122BBEB50665775B600549D8BB33A54A6BF940C028118BC6878C79958D6784F9DEAA6E26748386FFAF8D0D0101E2847B6563F5D8DC1
311
D78F787BE00E2C941AE12148D4A81599FE8F68D4DA5CDED75530ADE138240300EE13B0FC13A1687FED6774662C05A2B7DFB186732F0D7A93545D8B0A6390AE5054D9CB582DA846D7A061B3358B45E2B52DDE63E114397EDB7E09233A579155D795BE76102CF277F4DF8B188C4F2879BEAE3C08347124BF9ED23B128259FE10
311
7D31E34A652F090B30B39E0D9AF917B76A2806135621A8A60681F16AF216514BBD02711585B5B1AE823F4B2D0369EA5B6BCB863072727FFC871CA6C9AB79A814D989057E9470A3D238BC87CBB4A0EA49AFE2B86F22E499793CAA9047080450166BDC357524561E258C77CB697F1ABB32562CF87C3B7AA12F911EF19FB3E5C0
311
2222E887D08202A60A17151F5E053A86B437771088B4FEE14D652C43E8D939995D34545E12E2FF93D4E366EAD25F10CB7DED141563C3D0C447AF06078A91135FD4B9611583CB4BF3BD167F2399CEAB0E0100F8FFC305F00F1711717173138B4B48C83022295DE657EFEDD97F238ECA80F528AFB4F8D67AD4E2594B9A3AA86D
311
7487EFC313BA95745C186F0CDD84CC12DC9CB0424B42203D351FD9C0A3AF10CC7F388E0329279087386421F194F4A29464C1DEF7EF8BE515E4A199DCD5B909342598D8FE6A231F71336248D5CEC5454455C7BE383B3BC7B260FED27F703FDC39A170F3827239102F59D4DEE7FEF82EAA1A5E4BA94DCC4CC44E7E2EDE20F242
311
44E4454369D2E87C3F823F193FD4FD27E1C23984B01898D15ABC20711A8A558054951A6AE280096BA36CBA439603B7B0B4C45F248C14B2383B4B5CD8ECECE4FF859AD4A6CA2326D020EF090F4041D28DB66E5256B56232CC52829DE8060BAE6BBF37D4B7469B822454FE93210A3E8D15E69FFCF01123222611C51C4FD0A041
311
A0CFA2471CF6BE38D2B20FA4C3525B5B8B586759475CF80ADFE67A284AC24651E52B8E683D24C2622642F27E7C3C22783BCF63648BC398BD6CD0D9C97E7E7E3EACB6126DB7A6C1FD9F1031302EE67ED96F22B77C7CA0239BB324207559B105E4693EB26EC46182A92C9C0DBD24F29B31C5C5AC1F84300E0E17CEEAC15F5736
311
FA4A98971E2F1423BFCD68D4BBD5F86E74B40A369F39507C88FCDB35D2DD8DEBEA4AF999E23CF2816D204200DF6E611781B9884C1AC8888B4DE397320472959434323A5A36B22A8E1F721A270DF3BD65E4A31C11FF048AFB0D8B7B6881423793963A23CFCE935FC189ED36FAE35C46DA3574C979E4394BE52084F3081837BE
311
033396D2EBD80F1F691B273F660D2B32FA27A33B1DE4ADA5F0FA4651511102DFA410DDA86E065272CA314D5249DF91B06BB92807B28EFD54F08F7B525252782CD276DD02E6B0319B13DF87B1F6361AD6B28FC0D711CF445429B9E5A433CD493051C49A9E03DDB1B147D880253514A5DED88009018620EE229101C041950E2D
311
8AA8E1F5F5438E0C0C0C60EEDEE9E3E0C051948C69F84BB7B2A48A1F3C8EB9E6864687F4F4F6F6E2FA87608ADAF9C5E117B7C1A737E710769DA1D15ECE6A84502AA855398712D5FB51BE92E4EF824969CE18278798AC303C2C7980DD2500ADF8FB1E6D6C2FAAFF9987178923334A244758BAA01A9A1B70FA5097D01E1CC2A5
311
8DAD0EC94CE6430AA9B0C10D75E3C6BAC670EFBADEE1607739CE0FC18A2587E3EC3058562014C64219C69BC269082D5C2F4A659278D585755912176D78A1B641719C2A394CED495A1AC5D583FD2F5EDD93308EA7EAE8A6DD396598BDBD3D4CFED62D18A5BDFDE0DD5C80D1A89BA62697B131AE7CE9A6594138582F1B37D68F
311
1749AC7CB67A70695D48A4A056AC1FBD4E82358CEAE38F54B95A9016F9000F9879C0D9D131768635CA798895F27D6F1614F11F2838A83611AA51C9A3DDB539D42979C29F10465655C17BEC3E2760B80DCBF609198C7B171A531905F3EC218D696025975E986C6B4C666666787271F202805577DD5A3EF0CAFAF91B62DC4B2D
311
B4217A7606282F31D8DDBC290593BAA93EA6353AFA9939B877978481E15CFC9F2755CDC00C538F63A4BA3E80AE009B73CA0185687D339A507D165B74290D6EE46D5C58148F020C3668ABE9EF2F7549170DC80DB41FFC1D678FF19AEB10C7133832B104B80F691B3138F97A92D26E551F1F110400D45AC71A9B9AC41A1A1B1D
311
AEED0B0810638EFFB511D46B121C6FEA0F38CD00E03CFFEB9713FE1F9C263E4DDEC160D0497FA9A132BA608584057FB15380825DE6C7FC3C667EE947D488A09898D8E939C4953BF4EC9836344D2CC6B2971B2A21A572B06096F4982D2CC7232D46E8EA69DC83722E267754D777F97F96D5DA74E1E75178084D0E70F12AD33E
311
5F71EF2AFA599B2BEBF60A5BE475F444F240CBFE8143C334E7ED9150FEEFEF7EB020C4DBED388DD1D6A167A76F3CBF119B578AE8CFA7736ACAFA4440A1C47185638A0D2F3EB5BDDEFDA958FB13CE4AA4923D5BF840392D45544329525749734866684BF7F8D9D54D892E19BCA9F829A0F8BFCBEEA6CFDFC61D74EA1A645ED7
311
A1FF241739F15694BD835B66FEC5677E40FE69BD3F91AE402F036537218A401CB0828604AD189E575015C6F3F6BBC8AC79CF6C70653847254B31551EFCBEB5978B9DB85D58D0FA41A9DFE9C624834AA04949D24B5AE6D299E072D152D12097920F14AA92C31C3B97E28B6C2E6E9C23D63043ECBBC0A60FDF5BD0C33C127EA8
311
A3308B8B6AFFEB28B4455BF6E7AF4FC6222728357EB8E46E85053E6A8843AB23295BF838ABDA94658FEF3F832F147046B4ACD6F7D48E8FCC9618582961C898D1C7A253C91BFECBDA6BA18A1FCF70755DCCEE2222F41B76D23CA98D0CB3D95F0CF66D57FFF65E2A90F5DF40FC3187621E981BD0BC1D992787212688976B94A8
311
F0C6EF646624B570B78E068826F87CE27041A95C9A4871FF65CC17FCB1639629AD6A9517000D63AC231F3D741CB8430777E7ECF80CE7A3F73C0F162F7E56AA71F4DA80A33CD6ACEE78E2C11FAC03DAFCE929B106F8F6B3ED2DC71FF994BD9CEF4E9A94896EF1B6E2B7B4978168BCF0847A3D2A4F1B0500B926E634B174548E
311
9FBAD27153FB5FC36799B1E6C7C38A94E1F9E996796D7B485E635D5287A2AE76FBD11A341DB3F8F810385BB7296391973DC6C37C452A9305AEBBE0CDB6C566DB59FE60C8E94B1FD090354BF51439FFD1B48D725228FFA88C84F686F547107A7A235665A4593B7C34D748C1AC8D56DD5DA861EEFBADDECBBD65117E65851F90
311
351AEB65F0EFCFF4BCFEF24CB7A5879699FAC437A7AF9099186CF006BB923A59E37D7A36A29FD8D2CBB914A5E9D0A8FD212FBF796AE9A67958FF1D5D8B85F78F96219D4714EB919929241B6C018AAE0C02069F8D919961EC5DDFBFB7573E3AC8E08BFB7C8534BE6DE045B3CD63DBD71F7638BA2309CAE398EA3A7D8F98BBBC
311
7AEB367EFA5CFA27A9F8F2F52FE878058E6209C026453F8E7E8A237DFC389E9590F6059B397CFD65183BBF936E86896612A5B5FEE49DAC8455D026218AFEBEC12B3523A45B57B82C9C97E02ACFA1184DB18E48CF615DBF39C3CC6F0B4AE6BBEEA2E39D944E290302FA3DE33FA7E40296E2EF7BF1CD855BBECFAD0FD622BEE9
311
746FC4FDFDE545AE6E3BC234CADF83A0FB76DFB145BF3828AE3436368AC24989454F8FF70A177672C711CAA1A76107218CF948CA01F873520E7A2B118EBB161ABAD432932029628B6761590C98AB590C8C8C79798CE9F715BA696E839E9131A4BB68BE923F1747FBFF165331FFDD4D05997ACD168F12CA75348DAC04C7F509
311
FE83898A8B421181AF492861CE81E4A2DD0A30850CFA95E05F097FF70F9E777310D584A75BA7018922E271DAB1D785671157685B7D383D3E074DDB4F1E44EF04B07BAAC75A062077C54B9752C738C9D804D402E02851F3F89605AF189738C18C021D2139EAF72513824E10DDD3047BACC8521ED7E98B257D1166903B1B08FA
311
6F918FD7E162913FEC7D0EF4787E29C35FBA8C6E2C9C20E9AB30AE42CA2A01A090E7D010C1B5BF9CEE2A304BF3A987FB40D836979B79E18D70F257DA61E808472DD85B82761825779D6B90CAEB0F23360C6F80A7D7D77545E95B3DFF0CF96A827F9B5BCECD2C9698718417EF80FEEDEE938AFF55859D0D540B7FE09435583A
311
6F04874A0C7E8CF234DF4879722000167F5872CEC6BF3EF7E5A8CC8121E6A359227C8A29C95212F9F735BC72A887D56B8F309FC525BFB4FD767AAEC4AEFF249CFBBD2DE1AB9969A6155C7D8DABC307E47324C1F916C7BCFF40ABA5644E9FFB9238D19ADADA49D9610F01ABBA57E4DFCBDCCBB2B93C8953206C91DE01B0E265
311
1A6D6C31721915B31F7B7CBCE55466F6D70402788FA91D73BE4ADCBA99A35F17D6B83383704917D6833F0FA3CD45C926ADB8BC17999A4A0AFBCE2541F7B8CF4C2F5FBA611B3E626D64407CB32C122DFF4EF8674D6EDBB86C8F7C6A16D50FA685E2CCA34F8F7D1D8265BB0042E9D7F1F666F7BE5FAA5184DF58E12122A42EF0
311
2F461B3F369AC746F96528AD208512AB56844CF75B97F352DF7995024FB02855385854F3798670D01CAC771AC3E1889EC25F61A20C1F8CAB46898817F9C47E2CDA1F286BF2F358298709FE567C91133E2638C8B53975E753EA8BFD3578B5F7186B7BF084EBA3F77BAC3132A5779902EC22AF2D2E79F42D324E083386DAEE98
311
10D1B44A5DAA54513C7A71E52A4AB9257D975B621308FE4D2141CC3DCFE946C154A3C1DFCCA7629EC69ACFA831634ADDA93C0388D2A9A2DDAFCF957C6995BCE7FBB6DC4EBAE79E63EB08E9A25F52F67076F7093CA545CA3053B5BF576DEAD4E0017143C5F759F32B2D6F145B52B67B48909B7C7FCA6586EE385A2189C16932
311
CB6DDFD9152AE317C430492A578ED27B72D85D40C7C93C097939E1B50F4D67F05334FE9DC362C30B7FF561B95259138ECFD9274C8D695C31B14D4EAA9F3D7FA8DDF652F8C5DEFA23284C799B7D94416DEE81E05A866302DC70192A5368EA65E1CED8BF107A1E2D3119A71E85DC1A7B0C1E93274CE04DD0F2ABC8AC7C987FDB
311
002B6F81757B43502EF7A0D92E416494FAEEA4C9C090CD9557AA4D532F4996A272B94355C5A0E4974EEA9627476F30809B94D8D8D860062E02204643BEC7D0438AF800FC7E2B26955D595421E83C69E1A07E0E3122285835F014AD538188CF9737CE76D464A353FA55A001AB2526B84E985083693BC76FE211CA1D000679C8
311
89E3C009832C87E1AC2EDD05C302557422DF0800E316FCAC86978A371F025A6C7DAA9F333E7BD160403A1A06EA75AA9888FF01504B0304140006080800CE4DB74A28BB58AF800100009E0500003D00000036433841443636332D394431342D344531422D383345382D3139353439393236463245352F536368656D61732F43
311
6F6D6D6F6E536368656D612E786D6CBD544D4FC23018BEFB2B96DE15493C78601010A34B880709DEDFB52FD0D8B54BD70DF6EFED3AC0B12E6442E2716BFB3CEFF3D18E26FB440405EA8C2B1992E1C323095052C5B8DC842437EBFB673219DF8DA659866649B798C078B48AE6410122242F2A4994AC7F93815DF85C049C8564
311
CA0A901499DD886B2EB9B1E02448F358701A9235880C49A0119892A20C89D1B9FD768815CAD268CB5E0355B40B1E47F3E37A2020464BED06AA57CE8FCC20C3C3446D46761A2632A8C1283D07031EFF2AE7CCB1BFEEE916E406DFAC8E36FFD99A9D60A6944090EEDC3B670C7DC13DE86B6B2C5C240D6E503BB85ACD579D513F
311
1B9F9A69DC9CC22AFA80C426D40AF0B21EA168559156B6276F0F726A6BFF04DCD513A87A62CAD41FB24FCB2858B3952E3D852084DA25B9303C15687973CC8E8AAE11DF2836C38C6A9E765E8C1BA1BFB1DC29CDFE518C8B5A7655A4ED7E77291ABEB80DBD82EC866ADE1B8D05AF9E35CF09D7A061F38A986D9EC412B8F0F65E
311
5D81534D9B231D1E5A8FE577A241F3A5FD01504B0304140006080800CE4DB74A2CCEBD668A040000E01200003E00000036433841443636332D394431342D344531422D383345382D3139353439393236463245352F536368656D61732F47656E65726963536368656D612E786D6CD5586D6FDB380CFE7EBF42F0F7A649B70E
311
1B90744856B4970F450FCD7A5F05459613EDE4174872DADCAF3F522F8ED3B88D2F1D06AC4050DBA2493EE4438AF2F8EB73AEC8466823CB62928C06C384888297A92C5693A4B6D9D9E7E4EBD51FE3A931C22EF85AE4EC6AFC38BF261BA626C9AD288496DC3F4FCEAFC63366845F7A10452AF41DB320C0D44EC26EAB20918735
311
565582695670811A6A49643A49A6E9069FA4604A64B29016DC4B48552F95E4932463CA888468C1D2B250DB4962750DF7CE273069CE8363F1FF4EDB00E0A21999574AE4A2B00C353B93F3BD4777B8A61ED8F604ABFEDD79CE56A2B7BDFBDBC50996E0ADDE16FED26223C5D30956C29BDF4A55EA686E5E58B112DA45CE67F76F
311
4FA27EFA3FB672FD7372FC388FAECDCA5209E693CAD167BADCD272F943701B3812F8A3D852008B1D2E32DB927B2F833C6EA95879925356D254582695095A3CE982924720BE5774A3CB9CDCDB350427D2DF20DA1B5532EBE2D5D6288D75D4F7E4FD9890A0EF8E3D93EBB8F8BA4758158EF6FB90A6F9520281C93DE7AAC6D246
311
07DA296BB96018123F821A7D6A5C5884050C475DA4865442732C8B95684A50165CBB3A32F25F783A4A480ED59AD7F924B968AEA50131F46303223E6A397B0E52976030DC1DCA81D7E7C1EDEEA42C19FF27635C505E2BD5198A599020DF50A2330FCB3AAF28CB0124108429553EF1B228802E2265D8F7CC2401042B155BCC70
311
70F1E5C55F13B4A9577362CCCE46C32174E010C3C378C44841A4BDA00FE3A12006CE11EE6AEC59894D3526DDE1CD59D503ECC324017F8061B7F162162FA62EDD81AE3308617770796DCBDAD2B2625C5AE8A63DE20B2C8AA5E95E76E5730823955956E33E705425A2187C185D36489A1B44D3DCEC2172F6BA2105C3546287A7
311
194B2331768EBBE64F6E70A9930ABE0ADEA89E9E2C38523B810287AD67A54A039C1606EAFE68F8304610BB9093DBDDABC0B2AE4E290DCDA15376D7E39F72B556F0B32EAB5D3D498B4C41ABADEC3A1434C422D87E8025A84BDCB2B1417ED750FAE4DA8976863974C577C7F902D3F156AD354DEA3540DE6BEAE2BEA52F7A2EB4
311
CA43802ECE5BF2CE2EDC9347179FFB023CE412E60BE16DA0BE29B374988A553F561DC04615DD35F7D2C8979F60E5955CE93DF29DED8AFA1EE6642D53418086C03C47C377910F75F7E8F5EF665F70B60FFB22AEDF897D119E8423C773E819A3C1E55E550599EE6EDCA34D0C86FD72057DF2CD46F16A470682471C164E4346D5
311
306BF12D7D12D82CFF673D41636C347443FEB51B50D72EA171A8E4A58623A4A16E0FA2B8B10A0D23268D87C33896EE8FB73305A74BF224EDBADFA0BD674AB354D63DB7BD5D83426761C077DE767728235446A552754EB93B755891C3C4CC6CADE37CF0E912A7BB38DBA010F9DE1282EDF470CA69A9CDA482E334C4A6EA4107
311
987980B17E72F31730EBF88BBD39E7C629F56797A3C0009C2C5AE7951D9A05A02773440F02EEB4DE396A3B6A570C72CCFBCD823B0B8ED3F1D5CEDDFED772FA70236C83FB7D86C385D570B87107535572A60A96035F8F7C6A7192F13007246BBE0521855E6AC46F3E27689CEE7D186A6FD679D98CDCAD13333E04EBE7ED6F55
311
FF01504B0304140006080800CE4DB74A6180134D5F0100006B0300004500000036433841443636332D394431342D344531422D383345382D3139353439393236463245352F536368656D61732F52656E6465724D6174657269616C536368656D612E786D6CA5934D6FC2300C86EFFB1551EEE343DBA41D1A103009551ADAD4
311
0EAE28A4A68D9426284961FCFBE5A340113B2071746D3F765EBF4DC6BFB5407BD0862B49F0B037C0082453059725C18DDD3EBFE3F1E829991803366715D474942CD30FB4A782E00C64017A412D684E454CE3FE28995203B162A6EA5AC94B66997D225E109CD63B0135484BAD1B3C07E9080CA35DB3119C11BCA5C200461A68
311
A1A438126C75E3E230D40FF81FB3F03C91D1E3A3A0AF79FE28E25BC39EC3E17E4C2A2D94A0833A51AF55BCCA7D88572FCBAC529C4140B020FC3AAFA886621DCED7EAD7664CC86024E806DC297DA1BB393E4156543457A4537DB8817349A70F8ACBF09B3EEE2CB2F33E91B65D60786E4E3B39B77E3FEEEF5650424525DA657F
311
B8B46BE6BF064646F0A0F7327C0BC1BC1B4CBBC1C419FA3CCB23500007872A2580CAAE5461865565294E4EDB4617B62FF579DF9A5B2F54E834076A597573A020912FED777F9B3F504B0304140006080800CE4DB74A593BC2E251000000570000004700000036433841443636332D394431342D344531422D383345382D3139
311
353439393236463245352F4173736574446174612F41737365745461626C654F66436F6E74656E74732E62696E53616060B0303133B5343531D27574B134D135713674D175343374D6753535707635323530B7B4741302AACB4D2C492DCA4CCC492C28484D2C4ACC4B4E050A82012F90744FCD03CA26072767A4E626020050
311
4B0304140006080800CE4DB74AF865834058000000680000004500000036433841443636332D394431342D344531422D383345382D3139353439393236463245352F4173736574446174612F53747265616D56657273696F6E5461626C652E696E66558CBD0A80300C06F73E4B117FB66E451741D041DC5BF98480A492E4FD
311
D18EAEC7DD4555D89EF28DF51A0B1BD8340C4DE7DD848B988C0ACF0649566493F2408C508DDEBB99D5129FF8F1AF8CF5B9503E20FAE5A16B5AF702504B0304140006080800CE4DB74AAA231EE138010000A20400003600000036433841443636332D394431342D344531422D383345382D3139353439393236463245352F41
311
73736574446174612F636E782E786D6CCD943F4FC33010C5BF4A648931761AFE95CA718560E904121503DBD5B914AB8E1DD91704DF1EBBCD002A62EAD0F5F4BBBBE727BF93CBCFDE161F18A2F1AE61335EB1029DF6AD71DB868DD49573562C950CDED30F8C150E7A6C582E3325B7C18FC3546AB183D1E6AA356E3715EF6344
311
5AC3C6E253F7E01DA1A3C80A6D21C68645FD8E3D7018C9B71877BC05023EE301A31F83C634894C8FD3241D10085BA6EA6A765B56D7657DB9AEEE1657378B7AFE26452695DC786F27DEA465C10F1775A50F7B99AAA4C88092633013955FC3D45F2AF9C6382912A964A4905C993AE86B481D300CD668A0649EF09A90CA0421F4
311
521C60254576E197178FD8196772CB2A4903F2E13909C44006CFD093FFD49EDE9B958B044EE3393B72ACF1F43EBCEC7FD1EB2196FBDC9C5F5A8E3572E3BA136445ECCF498A4EBE2EEA1B504B0304140006080800CE4DB74AEE871A85E8000000600100006700000036433841443636332D394431342D344531422D38334538
311
2D3139353439393236463245352F5265736F75726365732F38343635393534322D414439342D344331442D413631432D4535304345323530373939462F7468756D626E61696C2F302F636E782E786D6C4D90CD6EC4200C845F25B2D463029BFE6D57847D899E7AA928F1A668094660AAF6ED0B2D873D8D35FE6479469DBF77
311
3F7C61CA8EC2028749C280C1D2EAC2B640E1CB7884E1AC5522E21B0C8660765CA0D9A0D596A8C46EAD7831C537D7BB70EDE6860193B3EF316C30586F725E20DB4FDCCD640AD38AF93AAD86CD749812662AC9623DC06EC77EC026348C2BE8591E9E47F938CEF7AFF2E5F4F0749A8F6F4A3452AB0F22DF79171813C5BB595AAA
311
63A8FF48251AA05549AE532D04E89BE794A84BAD32A79ABF43FC132B6462F4CE1AAE3509B28C3C5608CDAEC43FAC956879ABFC9551B575A37F01504B0304140006080800CE4DB74AA233C2345D000000800000006500000036433841443636332D394431342D344531422D383345382D3139353439393236463245352F5265
311
736F75726365732F38343635393534322D414439342D344331442D413631432D4535304345323530373939462F7468756D626E61696C2F636E782E786D6C4D8B490E80201004BF42E6EE76F3C0F216234B883063108CCF170C074F95AE5473F5C4C06E932E4F28601967600677D21E9D8092EDB002539227A2FCCB80E1168D
311
80A6417297A89C5D6963B7129A0D1E8F2EE73AA7B62BBEB8B27DE50B504B0304140006080800CE4DB74ABE89762363000000880000005B00000036433841443636332D394431342D344531422D383345382D3139353439393236463245352F5265736F75726365732F38343635393534322D414439342D344331442D413631
311
432D4535304345323530373939462F636E782E786D6C4DCC3B0E80201004D0AB90EDFD75167CCE820A4A845D83603CBE602CAC26799919AEEEE0D965E2E908050C6D0FCCE04C8BC355404EB6198129C92351FAD580A10E464065907C8D948F8F166375F655BDC3FDC3B4E530A176BE7057BDC43B2A593FE403504B03041400
311
06080800CE4DB74A85C2EB477E000000A30000003600000036433841443636332D394431342D344531422D383345382D3139353439393236463245352F5265736F75726365732F636E782E786D6C4D8CD10A832018465F45FE7B370D6D096A84B5F78865212B0D97638F3F1D5DECEA83C3778E6C3FDB8ADE36BE5CF00AE885
311
00B2FE1126E71705E9987103A8D5328670FCDD00F971B30A0A062D9718D27EA2C9CE635A0B5D9D7F9EB06135179C55B8EB05C3CCD01E77353578E0C40C15273721EED9B81625CFAF97B7E4F517504B0304140006080800CE4DB74ABCADC9470C010000550300003400000036433841443636332D394431342D344531422D38
311
3345382D3139353439393236463245352F536368656D61732F636E782E786D6CCD933B4F04211485FFCA84C47260667CAD1B862D2CAC6CD4CA0EE1EE4A16B8131E46FFBDB052EC26765A6C07275F6ECE3970F9E6D3D9EE034234E86732D28174E0156AE37733C969DBAF48B7113C20A6238C745E3A98499589E0BB80796992
311
86ADCCB6AAD6F87D13EFD139F4CFEA1D9C249DB232C699C4C395CA9C5043DC532D93A4230D103107056542320EDA04154026D0444CC378DB0FD7FD74F932DCADAF6ED6D3EA95B34A0AFE86681B6F7C8280CBC534282C475F0C0D9C5540F01C4CA36A0A228EDDD1D2076785103CA6505A6864FA5A0A2997C51A2553298B1DC0
311
1F467056C39E447E000FC1A873CD7C62EFDF423F81D7101ECB4B0523EDB966FFCDE5DF2A60870D28DFA02E84F806504B0304140006080800CE4DB74AE3603EBE7A000000C20000002C00000036433841443636332D394431342D344531422D383345382D3139353439393236463245352F636E782E786D6C6DCD410EC22010
311
85E1AB90D9DBEACE05D09878023D01A1D34A8419C380F1F82DA68B9AB8FDFEC93C3D7C52546FCC12980C9CBA232824CF63A0D9402DD3E10C6AB03A3397DD192872090D3406ABE7CCF5B5D18893ABB1690CF4DCF02282E5EA8A5BB96FFE536F285CB347F95BEFFE81C9ED5AFF9D5B1FB575BB00504B0304140006080800CE4D
311
B74A21E739F27E000000A300000007000000636E782E786D6C4D8CD10AC22018465F45FE7B2B37270AEAA866EF319A1B92D3B0193D7E1ABBE8EA83C3778EEC3FAB476F9B5E2E0605E4700264C33D4E2E2C0AF236630EA8D732C5B8FDDD008571B50A2A062D9714F37347939DC7EC2BF52E3C76C8AEFC3C30D66231108AA921
311
17CC5BC331111D15A261B7C674C53856A5CCAF57B6E6F517504B0304140006080800CE4DB74ACA1DF9C9A900000073010000130000005B436F6E74656E745F54797065735D2E786D6CA590410EC2300C04BF12E5DEBA70400835E500FC800F84E0B411AD13252E2ABF27A55740421CEDDDD9B55CEFA7A117778CC979527255
311
565220197F75D42A39B22DB652EC9BFAFC089844F65252B2630E3B80643A1C742A7D40CA8AF571D09CC7D842D0E6A65B8475556DC07862242E78CE904D7D44ABC79EC569CAEBA537E3521C16DF5CA5A40EA17746733E0B6615DE7217475F386F18B9481C510F1F021CD9FF027EA0E1F5C4E609504B0304140006080800CE4D
311
B74A3DEE336E64000000790000001B0000006175746F6465736B2D64657369676E2D7061636B6167652E786D6C35CBC10E83200C00D05F21DCA56CA76D41FC96062B120735B69A7DBE268BB7777961F8D5AF396893C2ADB70FE7ADA196782C2DF776D7A97B5933C430F15651E5469C55D70F80A4992A3ADC954792C525AE70
311
A1E4D6AD9816CC044FEFDF01FE3FDE907802504B0304140006080800CE4DB74AC8EDBEA4F9000000960100003700000036433841443636332D394431342D344531422D383345382D3139353439393236463245352F4173736574446174612F636F72652E786D6C8550CB6E833010FC15B477F3863891715420F9829E7AB38C
311
43AC041BF951F5F36B072AB5A79E76353B33BB3BE4FCB53C934F61ACD4AA8322CD21118AEB49AAB903EF6E084372A6C468ED7ED120516C111D441828998DF6EB0E71AD9C5011557A123BC8AC150E12FE0C4D0796DFC5C252E65D60D847BA32FE60B3488B74E351E2BD9C76A99C829BBC4961803675DF96974B83FAA1BDA2FA
311
5A6074C4C71EE55533603C8CCD581F4816C59438B9FC6CE746302726A0655E1C50DEA0B27ACF8FA7BA3D95F883649149897526FCBC2F8DDF017D8B578FCC31926DD33FAE7E9DFE77F552B9AADC5D3785055A84235F034AB2985228AF08438D89D26F504B0304140006080800CE4DB74A0697D5E9F40000008E010000680000
311
0036433841443636332D394431342D344531422D383345382D3139353439393236463245352F5265736F75726365732F38343635393534322D414439342D344331442D413631432D4535304345323530373939462F7468756D626E61696C2F302F636F72652E786D6C8550CB6EC32010FC156BEFD8F819126122D949BEA0A7
311
DE10262E4A0C168FAA9F5F885DA93DF5B4ABD999D9DDA1E7AFE5997D4AEB94D13D9439864C6A6126A5E71E82BF2302D999516B8CFF45834CF345F690606074B626AC3B248CF65227549B49EE20774E7AC8C433363D38F121179EF3E023C33DF2958B079F655EE61B8FD110D4B44BD514DDD45D490BAC6D86AEBA5E5B348CDD
311
0D35B792A023390E08D7ED48C878692FCD811649CCA857CBCF766125F7720256E1F280708BAAFA0D1F4F4D77AAC83B2D129351E76DFC795F9ABE038669B1A17FDCC23AFDEF1694F675B5BB6D0A07AC8CC7BD068C16299D585ED1C59A9264DF504B0304140006080800CE4DB74AA8238FA6FA00000096010000660000003643
311
3841443636332D394431342D344531422D383345382D3139353439393236463245352F5265736F75726365732F38343635393534322D414439342D344331442D413631432D4535304345323530373939462F7468756D626E61696C2F636F72652E786D6C8550CB6E833010FC15B477F3863891712448F2053DF5E61A875801
311
1BF951F5F36B072AB5A79E76353B33BB3BE4FCB5CCC9A730566AD54191E69008C5F528D5D48177778421395362B476BF689028B6880E220C944C46FB7587B8564EA8882A3D8A1D64D60A07099F43D381E50FB1B094791718F699AE8C3FD924D222DD7894782FC75D2AC7E026EF5218A04DDDB7E5F5DAA07E686FA8BE15181D
311
F1B14779D50C180F97E6521F4816C59438B9FC6CE746302746A0655E1C50DEA0B27ACB8FA7BA3D95F89D649149897526FCBC2F8DDF01750FBF7C282667926DD33FAE7E1DFF77F552B9AADC5D3785055A84235F034AB2985228AF08438D89D26F504B0304140006080800CE4DB74ABAB2A7360E010000B10100005C00000036
311
433841443636332D394431342D344531422D383345382D3139353439393236463245352F5265736F75726365732F38343635393534322D414439342D344331442D413631432D4535304345323530373939462F636F72652E786D6C85904D6EC3201484AF62B1C706020E8E3051E29F1374D51DB2498A124364A0EAF10B892B
311
B5ABAE1E1A66F878238E5FCBBDF8D4AB37CEB600970814DA4E6E36F6DA82182E9083E228C5EA5CF8650385558B6E41968114D7D5C5C7264DCE066DB36ADDAC375179AF0328A67B3AB4C04F1F7A51A58A2139FCAD7CA8E9A6AEBAC4E5CB27458C66DEA2664EAF998BD12B908C9E6B320C0C9EBB7A8474C41C36BC3943B4631D
311
E75DCF7ABA17550E4B11CCF2439F56AD829E812408EF216290ECDE5073A0F581F0775165A7143EAC69E70D9AB70392D39A358C1278EA1B0A69877B78AA71070786BA8130B46F9A5154AFE01F607CCCFF03A3B1614736E02BE181C4E9FFCF0B29AA5C601ACF76D3CC65CB6F504B0304140006080800CE4DB74A5CB1D9F9FA00
311
0000960100003700000036433841443636332D394431342D344531422D383345382D3139353439393236463245352F5265736F75726365732F636F72652E786D6C8550496EC3300CFC8AC1BBBC3B510259019CE501454FBD0932E3088925434BD1E7574A5CA03DF54462383324871DBEE647F689D629A37BA8F21232D4D28C
311
4A4F3D047F2514B20367D618FF8B06991633F69060E06CB2262C2B248DF6A813AACD882B289C430F997CC4A607276F388B5C041F19EE9E2F42DEC5847995BF789C85A0C655AAC6E8A6AE0A2DF0AE1D36F5F9DC91E1B8B990F65251B2A3BB81944D77A4F478EA4EED961549CC9957F3CF766951781C81D765B5256547EAE6BD
311
DCEDDBCDBEA61FAC484CCE9CB7F1E77569FA0EF81B3A13AC44C78AD7F48F6B58C6FF5D83D2BEA957D797C201AFE291CF0167454A29966784B1A644F937504B0304140006080800CE4DB74AE3548995F8000000940100003500000036433841443636332D394431342D344531422D383345382D313935343939323646324535
311
2F536368656D61732F636F72652E786D6C8550CB6E833010FC15B477F3863891712448F203EDA937CB38C44AB0911F553FBF3650A93DF5B4ABD999D9DD21E7AFF9957C0A63A5561D14690E89505C8F524D1D78774718923325466BF78B068962B3E820C240C964B45F76886BE5848AA8D2A3D84166AD7090F057683AB0FC21
311
669632EF02C33ED385F1279B445AA41B8F12EFE5B84BE518DCE45D0A03B4A9FBB6BC5E1BD40FED0DD5B702A3233EF628AF9A01E3E1D25CEA03C9A2981227E79FEDDC08E6C408B4CC8B03CA1B5456EFF9F154B7A7127F902C3229B1CE849FF7A5F13BA06FEB9D9664DBEC8FA75FC6FF3DBD54AE2A77CF4D618116E1C4754049
311
16330A650D30D49827FD06504B0304140006080800CE4DB74A6773B51102010000D80100002D00000036433841443636332D394431342D344531422D383345382D3139353439393236463245352F636F72652E786D6C95914D6EC3201085AF62CD1EDBF8AF768489DAC63D4157DD51983828315806573D7EA176A574D7AE40
311
8FF7CDF066D8F173BA251FB8386D4D0F34CD214123ADD266EC61F567D24272E46CB1D6DFD9203162C21EA20C9C8D8B5DE75D92D67834513556E12E0AE7D043226FE1D28393179C442A561F1CEE9ACE425EC588294D371F675E4F3FA85C507854C08B9C3E90BC2645F99A7787AA3914ED1BCBA293B3551B5F167B339CDE5125
311
76F62152C028CBB6E7605BB5DA4D5A854FEAB3C60578F3DC3E9E9AA624DD8956A41AE81369CBA125B4ABABAE2B9A9762A843910073E6FC1246B3178943F82BBE81BFA2ADB3FA67B48D70C0EF426571CE9C65DF4B0867DC09FF02504B0304140006080800CE4DB74ACA28B49F08010000B201000008000000636F72652E786D
311
6C8D50CB6EC32010FC15B477FCB66347984876922FE8A9376A8883628305386AFFBE10BB527BEB69D1CCECCE30E4F4394FE8298C955AB590460920A106CDA51A5B58DD0DD7804E9418ADDD2F1920C566D142808192D1E875D9A1412B27544095E6620799B5C2011A26FF68C10E7731B388ADCE2BEC235AD8F060A388D268D3
311
51E2E4FCB33A18C19CE040B3243DE0A4C459FE9634C7A23A66F53B8983929275957CB792DCBBCB9B14066859745576B994B8EBAB2B2EAE698D9BBAE97092977D5DF7E7F25C1C481C9629B1CEF83FEF477C4E872C7B065F126F14251F5A4FBBC087E248ABE90B6842E240FC09BD2EFC1FA1A57279B61FDC362CD0D4077A11DE
311
3834E8C7AB5E3F43DBF41B504B01021400140006080800CE4DB74AD78FC1F210010000A80100004F000000000000000000000000000000000036433841443636332D394431342D344531422D383345382D3139353439393236463245352F4173736574446174612F446566696E6974696F6E4974657261746F7250726F7065
311
72746965732E62696E504B01021400140006080800CE4DB74A8F321B26F60000003002000045000000000000000000000000007D01000036433841443636332D394431342D344531422D383345382D3139353439393236463245352F4173736574446174612F496E7374616E636550726F706572746965732E62696E504B01
311
021400140006080800CE4DB74A88E57597CD3F0000904100006B00000000000000000000000000D602000036433841443636332D394431342D344531422D383345382D3139353439393236463245352F5265736F75726365732F38343635393534322D414439342D344331442D413631432D4535304345323530373939462F
311
7468756D626E61696C2F302F67656E657269635F706E67504B01021400140006080800CE4DB74A28BB58AF800100009E0500003D000000000000000000000000002C43000036433841443636332D394431342D344531422D383345382D3139353439393236463245352F536368656D61732F436F6D6D6F6E536368656D612E
311
786D6C504B01021400140006080800CE4DB74A2CCEBD668A040000E01200003E000000000000000000000000000745000036433841443636332D394431342D344531422D383345382D3139353439393236463245352F536368656D61732F47656E65726963536368656D612E786D6C504B01021400140006080800CE4DB74A
311
6180134D5F0100006B0300004500000000000000000000000000ED49000036433841443636332D394431342D344531422D383345382D3139353439393236463245352F536368656D61732F52656E6465724D6174657269616C536368656D612E786D6C504B01021400140006080800CE4DB74A593BC2E25100000057000000
311
4700000000000000000000000000AF4B000036433841443636332D394431342D344531422D383345382D3139353439393236463245352F4173736574446174612F41737365745461626C654F66436F6E74656E74732E62696E504B01021400140006080800CE4DB74AF8658340580000006800000045000000000000000000
311
00000000654C000036433841443636332D394431342D344531422D383345382D3139353439393236463245352F4173736574446174612F53747265616D56657273696F6E5461626C652E696E66504B01021400140006080800CE4DB74AAA231EE138010000A20400003600000000000000000000000000204D000036433841
311
443636332D394431342D344531422D383345382D3139353439393236463245352F4173736574446174612F636E782E786D6C504B01021400140006080800CE4DB74AEE871A85E8000000600100006700000000000000000000000000AC4E000036433841443636332D394431342D344531422D383345382D31393534393932
311
36463245352F5265736F75726365732F38343635393534322D414439342D344331442D413631432D4535304345323530373939462F7468756D626E61696C2F302F636E782E786D6C504B01021400140006080800CE4DB74AA233C2345D0000008000000065000000000000000000000000001950000036433841443636332D
311
394431342D344531422D383345382D3139353439393236463245352F5265736F75726365732F38343635393534322D414439342D344331442D413631432D4535304345323530373939462F7468756D626E61696C2F636E782E786D6C504B01021400140006080800CE4DB74ABE89762363000000880000005B000000000000
311
00000000000000F950000036433841443636332D394431342D344531422D383345382D3139353439393236463245352F5265736F75726365732F38343635393534322D414439342D344331442D413631432D4535304345323530373939462F636E782E786D6C504B01021400140006080800CE4DB74A85C2EB477E000000A3
311
0000003600000000000000000000000000D551000036433841443636332D394431342D344531422D383345382D3139353439393236463245352F5265736F75726365732F636E782E786D6C504B01021400140006080800CE4DB74ABCADC9470C010000550300003400000000000000000000000000A7520000364338414436
311
36332D394431342D344531422D383345382D3139353439393236463245352F536368656D61732F636E782E786D6C504B01021400140006080800CE4DB74AE3603EBE7A000000C20000002C000000000000000000000000000554000036433841443636332D394431342D344531422D383345382D3139353439393236463245
311
352F636E782E786D6C504B01021400140006080800CE4DB74A21E739F27E000000A30000000700000000000000000000000000C9540000636E782E786D6C504B01021400140006080800CE4DB74ACA1DF9C9A90000007301000013000000000000000000000000006C5500005B436F6E74656E745F54797065735D2E786D6C
311
504B01021400140006080800CE4DB74A3DEE336E64000000790000001B00000000000000000000000000465600006175746F6465736B2D64657369676E2D7061636B6167652E786D6C504B01021400140006080800CE4DB74AC8EDBEA4F9000000960100003700000000000000000000000000E35600003643384144363633
311
2D394431342D344531422D383345382D3139353439393236463245352F4173736574446174612F636F72652E786D6C504B01021400140006080800CE4DB74A0697D5E9F40000008E01000068000000000000000000000000003158000036433841443636332D394431342D344531422D383345382D31393534393932364632
311
45352F5265736F75726365732F38343635393534322D414439342D344331442D413631432D4535304345323530373939462F7468756D626E61696C2F302F636F72652E786D6C504B01021400140006080800CE4DB74AA8238FA6FA000000960100006600000000000000000000000000AB59000036433841443636332D3944
311
31342D344531422D383345382D3139353439393236463245352F5265736F75726365732F38343635393534322D414439342D344331442D413631432D4535304345323530373939462F7468756D626E61696C2F636F72652E786D6C504B01021400140006080800CE4DB74ABAB2A7360E010000B10100005C00000000000000
311
000000000000295B000036433841443636332D394431342D344531422D383345382D3139353439393236463245352F5265736F75726365732F38343635393534322D414439342D344331442D413631432D4535304345323530373939462F636F72652E786D6C504B01021400140006080800CE4DB74A5CB1D9F9FA00000096
311
0100003700000000000000000000000000B15C000036433841443636332D394431342D344531422D383345382D3139353439393236463245352F5265736F75726365732F636F72652E786D6C504B01021400140006080800CE4DB74AE3548995F8000000940100003500000000000000000000000000005E00003643384144
311
3636332D394431342D344531422D383345382D3139353439393236463245352F536368656D61732F636F72652E786D6C504B01021400140006080800CE4DB74A6773B51102010000D80100002D000000000000000000000000004B5F000036433841443636332D394431342D344531422D383345382D313935343939323646
311
3245352F636F72652E786D6C504B01021400140006080800CE4DB74ACA28B49F08010000B2010000080000000000000000000000000098600000636F72652E786D6C504B0506000000001A001A00210B0000C66100000000
310
504B0304140006080800CE4DB74A000000000000000000000000370000006662782F34354135393635362D384143352D343046432D383131322D3545393335374637444245452F617474726962757465732E62696E504B0304140006080800CE4DB74A000000000000000000000000350000006662782F3435413539363536
310
2D384143352D343046432D383131322D3545393335374637444245452F76657274696365732E62696E504B0304140006080800CE4DB74AF270F1330600000004000000360000006662782F34354135393635362D384143352D343046432D383131322D3545393335374637444245452F747269616E676C65732E62696E6366
310
60600000504B0304140006080800CE4DB74A88E57597CD3F000090410000420000006662782F34354135393635362D384143352D343046432D383131322D3545393335374637444245452F7265736F75726365732F322F305F67656E657269632E706E67355B773CD4FF1FBF73E71C0E67EF7576C9DEF3EC995D46C6A1EC50
310
46649CBDF79E192942562825CE965D8A868C2842C8DE9FDFD1F7E7F138F7078FCF6B3F5FCFD7EBFDFEC41B196891913091804020321D6D7513FC77D8C5070EC3FFEE51B21F068154CC75D455CC028A3EA68992803810109FDDE5D5CEC5521B28A1B422BF80741695D5B529DA1C2D058AD2388BDA9F476F7C2CADC939304173
310
DBF48A452BF8A700C0C70C3D121C1AA15A5270C22E2B9E28763651F7DA0D12CE11077B2ECD0D560B5E3DE2368B1E65C5E1C87384A4CC5F2D9FB8BE39E9B77C753783A37998F5CEF1B4FEE553463245C9712270880DF339E0B882A6BA713D865F6F384C842D440934EF264F4A304F8DE4EEFA1E2BF5E2D91F5ADD9613D6E31D
310
DB33ED31DB1D7916CAF091286EA3D31B9CFECB78BB0060245B943C4C040119FF780A74DD308BA9D028678674EB5504ECF284EE814DAED07440BAF649BE4B55DA2890F4D73E2D489A59EE54FDB0A85B59F2F52C4858A02705C4815A792B0C4A996A2023ECB195073E115E3E3647F64243A8338F2000BCB58DA5692C7E7C3D41
310
3F963FEDF3CF00FBB0F831A9D51360FECA43819F527B89FA260EB63C5DA676830AA3626A3693B23F1A17A0DFFCE3EE164E31B5365EDF0C89EF64D8E38AB0BA9A1117D7C3A0EC44F44F4023095E80BA610DE336D0F99593A88BFC5306E72DF98F7FD132ED95878DF2964EA7E43071359FD83B2BDF9C6B5BDF768F0F3C0FC351
310
199526F53D9460A34511F75D1B63E488178569472C91A94497807A3FD4A390C6558F26D416365C3656DE6E769DA9D8FC73774E1709812842DD8EF96AED1960F79D21B395CDDFE6F92CB4EB962A4668C76990E2EF29798C8941D67DA50F4A5F947872460F1F6FDB794E8A29FD7AC0C0D6E0714339CE258FB17AE8535221E346
310
4A10F29A0BE5EEECEFC5675926A89F49EB14E5711894F6586DB5754EB4D5DA9C6437EBA57DB97A24F8B8A8DB295FFD73266CF57E82694DF5166DDF93573AFE9C9C5EB05F8FEF8E89E0A8917B0B3724DB7BEBB53252581EFC3E38166BA131A3A5B42FE2AD00A769BBFA4458D2DE7822F8C4F63D0B8E21B285AE13325F3410A4
310
35C648C9D91FDEB109E73CEDA7BC796961AF79175E1A3CE4C5E8B0D009B0C9E29EFD98BC8E97554E3D8D838424E270F7685226E5AC268E021EDE3522D583E8F20C0BDE2959EF5BBFEEDAB32FE9A3ED0E39F211A86AA9DEBFC68182EDED132AB8BB794442D2D7EA9F4D8BFF52BC4D55BB165124EE90A42D101E67BBBB292FFB
310
4F66DE5BF2300E44546757DA7CEF8932BFC9F92A0707953491A55C5A5ACEDABD9FA1AEA01BAC3DC5A24E22E7C47213493996EFBC369D086ED9397C9BA6C7F9855C7BD5E15BFC8C53DB3D2A4C5901A57ACD2FBDF4D1676E95338B2C2BCE65FDA4C64F5FEFDC7D9CA5AA1FCF11E193F2FDABF0F4916BF13FB916A224380E6462
310
A9815F2300DC49CC4DF8D055CEF76462F4B7A7ACA7365C2707891370BC1D0AA6203C44CCAB47084FEC057F27FFCD57F89B8B9852459798A675C66BD7CE572CAF71FF7E6D7ECF7BF62CAB7B3F1107DCD04DC55A3F9961700286141C94A4F771FEB2BCDA2DDEE0CB0BAE402FF1DB0100F8E475DFFFC074DDB4498AB7D186A765
310
4DDB1CB680D703D47CEB4E72F8CB13D86A4AA68116E26387B93FD6738779B34FEDB8E517EDF2BAF28D9BE93A1D3A164320E07D42E514725C29515FF361754213EDE06B079A2E99EB1CA82A02019EADEEB87B9AF005BD04BBCECB14AACD6B24EFBE482194A97DD32400685FF1FEF1544D1B14EFB1E7F08E6D2CD2AF52DE757F
310
35F5E62332EE88EA26417AD5C3E0E319D68F25414E6D672BD4522B278C57D18F0113921C71D96527E091F00CEB15AE23D24667369BD3CEFA10C7549D930890BA4366F4EBC55F01F746109F98ABCDD5A3EE06619C6AD78AB33E48E4C9BD21BF7478B385EC05C4F8987E2C1BFA0A60EBEDAA0AE0B015C2720ECE180FB6F2DEFB
310
EB822D96338C9B63822183BBF52FB664A7AE57003AABCE512BF77E7E31BDA2E739AC4C131657DDFE5225E900FB56CC01CDE808FA4A9C9DA16AC679656BB64796283D89812B8F91136AE18EE5EBBAF47A73BE3C153EB5D4CD491B4BFB4FE690A4CF9ABA08C0D8AA64220C438C96EA6CA80B58FE5761E697B3A292EB9FBDA502
310
FA863E49FE694ADDFFF9D62C520BDD1A22014147A0903A05B9B729F54272EF83931FEEC057BFF8C8055C279EAC5C0011804828734024F6CFA319C9CC6867C727184465CD9BB7ED386AFFD96B294A85E3802FAE47244602D8273615952B98C4F23F7EAE4463D9D638EEE374A20959E0FE519C4CFB0FBFE5DD80C2AA3F9DB961
310
D1BDE57E67C9BB47B77FDD74EE3094F5DBBE3EBC1FBDB7393F5116263009E2EFE1AF9A221B2AE234C902BF70E9F280ED23E73908361565964333A3F01D0B006AF32FB21AA1316744B489D5A198E85299241735BE559675130955C902A8ED761FC0DBE337A9F91919AF5CE32AF902ADF9AB2615E00E8A94586BA1A90839B618
310
32FF1BFB76D2EFADE6DB1BA04CCAD3DA649E7E2A0219F592E22F2AD54847EEA8E42271011E9074F8F3DD9FBA6CDF88FFC9FC7E811AD1CA8F4557CE4AFC7BBEDCF0114A48689F20A584520C74DA8127124B767E2FB91A6B186246727BE63C9445BAE02088D58B8EFDC0F1072407CD9B89A13F6303B4A928F593AD489B58E686
310
9325790ADC406036C591729FE14021F94B7796BB11848D463536A092A26F077F94639F7CEEE2A724C66EC885F4A24F8B8A0AC321F8FD149BA529460FAA34E4663C02D41FDF80BCA222D42F0ABFF8490F4FA74C673807C2051D8E467B47B616072860069A9A303ABA9B319D58404461401B0A0F9BE5E1E151C14BC33B32ABE0
310
3DDE91708DFAEB15E7C0D593C86BB7D7EC17BE56E57975F077BFD5525F3A1A361D584A75E08CF29FC7B44B2B3085014F3A5A14517377C3F6B8F37E59514C3B12F8AACDEDDA4DFC49BE5710101534CD6FB6DE15B50F11A09472AABA727F0C49D9CB906B158030065F48EB3625E010CEC1D511D0053474B11E6A4F01C0D6EF1B
310
ED3A944FDEC70E0DDCDC756C86545910E0DAE3BE3AA9A404574C2995CD5CAF9549226BC94B4F4F0F5F9086F418F6B32346464610D8BC7391D3C3A3CCF04CFC1FB2A3A3170E369511868F14EEA4E5E438CC73DB1F3248AA94B6B2FF33B222FF3D1E7BF146CAD229770158063BCE4F5391964DF62F7E52A7BE0EEA829C9E13C4
310
C147D6F93FE59E111DAB5E4594D6F3CD1AD375EE039930EFE5AF2BB2D41C83C7DABD8C659BAFBE8FAB392CA634F3D15C1D945DB4588D2B0824A4EC928AAC565557CA2F0DAA588CA5BE30B3A8004F7BF005E96CBF891D7F18112A3619FDF530DC8AA64954258E1811789B5189B49B4EB53F5F89F7D37523894F3EB57B373763
310
C91E502F52CC99EB7BDDF933FC324C4FFC2561DFFA7339FAFDD0A4BFBE6D3A8FF9ED1FC49898139864602458968913181918F719CCF5A68B2EE9C1FF050E34E63107003B8120FA982C21B30A874E4F5E4B38D5A8290C4B8D9BE48A0BE31EA995BDC37AC6DE90BA17D259DEF53605D55922FEB1855D915B659FBEB350EE0DFB
310
2F9F766E1C84CC8964B75D08667445EAB966015F63A18A9E0A325C1B3DC628C0D3CB60F767FA93CC65F25458BD23C3B312716E5F40E5858AC06EBA9AB14F95DB99147B832069201541D09A0D856E12C629CF32683760EE855537D1901988D5EBC156676C7DD51D7207CF3267AF1D76C2AD867315E44618015313A98B19941C
310
696FED3461CAA9B5415F918556D7802EDACEFD6B2E45853A9735DFC9DBF7E440F9319F8B6805A973BCCDC76C069A9144E51F187EDCC12FC31B5DEAAF0A76137199B106EC84ADA6B6EE697D4E6A96E007417F4E880E8B1E89B4BCE9D81EF611E2ED8F0C1A6C25F620FAFAAB656A7C42D464880E8AFAB0E0FC8EA38CA9A8AEEA
310
EE3E4648BA4680270A89743CDD3E6C6CBF34B7B640EFA285ABC7EA0A1E28F3CC963D114A80123EE66D0AF7D5380EB41909B605AB4765B709B808590458157E69BA1378FEC4B48CAF6A730E3BE3C5EF2DD1A5EAF94B1DDE50CEB55DDFD7EE9A16747FA4B223359FB1FCC69E1194892BABB93A1D5C4E807AC0EA2E30180811E7
310
7A2291F6E7F7FAA5E0F60215BC6024E48DE436C511F0628B8CA189982D4D83CCA17D305A7E923C37941CFDFDCD93ACAF735EF5F0E61BBD3E6C41A59B242790D3A3BAC7064DCD89AA2E37214EC839820949D5CAA31E240D2948E48F690298974A96BA9A8432BC90F5071D6537C9666EA4564796B7AFFFA548077BEEA75F6308
310
3435074BA182F3699557397F71548383FDA8CA34D99B981E72835ECDA5DDDC151315173D05A21F651AAF8524E88209E2E7A737ED1045800CE3390050BCFB8BE588DF111617874C62575039CA588EEFDEFEFE319B739DE2EDC147092A262611E159650E787917885EF08F1F51B8F2D8A71D60B58B190FEF9541A1BE94BC19FE
310
A50784DA1419FE4B0FB51B8D36B5FF8E1286FD8AF42B91E59A5F1CC4D60174E764045FD8C57B18209B217F89A62252BD20BE0E63E12B8E8F029FE19E0E8D0870F58721A557082250D5424F7909369376E41666C0EE77CD87CB283F661D5FB6D0DA023CB67320A20DC7BE661E9E1BFE5463085C557DA1FF9BE835733766C3D1
310
39F2CF9E2208873AD0EB4814DE9E6BF2CAF81614D4D43906ED1C05A3265CABBFE192770FC2F64F940CB6B17B5F166F133C9AEEAD2641807C3E69515171DD74C4A85311513D6EC9530B3B601B6BA3EBFF3B5C3D2F7D69765141E345F75433953D013ADDF8F6AA7DC3F4A7563FE5C7D367937E2900D7EAD0F9FC9A4A1A9B5BDF
310
1FEF08532660C01C5D6DE22199AA774383E306DAB87E301ABB7D213887F9869D4942D0D71E94B27EDF216A318BD488D45DF84529EF575AF3C3938C0AAA0215B01994153E2054A0B894DA5C784980633AAD48576957CF4AEAEAFADC7C587368551C73DBE1E57C58AC713303A8BFC258BD04B51724459FF9E24C03A81E0E0679
310
CEB9B348C0DC998FEB9C6D6EFA77D247CC8F92D3848599ED89A23218D0636465AD1CEEB7DC140D7426F83491C4E8E8281C2FB35240918FFECE880CA2A42D70E8B20B34DF5221C7DB0CF90ECCB9C745B37A47E9B716FF7A97B7A252C1F3814DC7B1E1A7F72B8751D524EF7CAE45B0C73B3BE7D08ED39781B380DDFC9AA4A474
310
9C9493DB5BAD07A6EA6C092FBD0E85DB004DF06B8C9D3089C5320187E4CE1846158C7EA7DDAE8AD9AFFF21AA3A1026BB06A259845E8232DEE62811A4DA9CEAB3A4887320B76E2AE5615EAB7BDF738CBDD01F1E64064BC13D9EC53576751CA8CACD58B3CEB0E6CA585BD089B2A59B9FC101403387AADBDBE70586B93D64BF3A
310
D4453EF9C3B6A93817E8346991798601344F79A83C51F3D50F7BF2683A3605F51A72449489E0EE6169C749C60B1035651103AEE24D24E51A759C840DD3FC6504DA6FE107510E447B43461C79D22970B75DE5E1BD3007D1AFC619A4A4A69B5626AF5E9B8374E20677F77E2F8E73DF868E8BEC7EBA7B6A75EEF7205E1AB9486C
310
B642741D6E03FF13FCCEDB1C4AC129886268B01CDF4B124AF797CF784F3C6DEC97A17D4B558070A0F1C04DA4FF9BDBF34159AEFE958479824B3F58EBD1E19088A2AFDE501B6F2052368A3FD0E650A179EFAB1561E1D27527077136E652676C3670F42DCB3352F48F6BC86D2C3B0051727E41A0A4DC6CE2BE9D47F5CAA2935A
310
3C0539AF080665997194ABECD723B08129CC5B6B21D2E7D54CD4D12610E7E9FB8306771A89576C7A982002775ED44F3F744CF21EEBB27A631671D921938AAEE3EB0D19CD1E083727F607823E817BF599DCED5394E37EEBC2E88782E638920CA641EF74D4CDFCDEF06F4278ECB18E31E7E9876F2D783C8BF429C75395F57E98
310
C2B495A3DA077EB3AC3C158608B6B57FE3EA48484D9A480096FCEE0DE880950E7E5A5714131C5C41AAA29FD19AE81AC145FA1B9E85C7169A5AB837B213493DF7E9AA4B5FBF9CDEB36EBD21EF1181B7CF7366AB2A951D01E37AF4EB835D1BE8C117CFBE7625D2EBCDB0B20C5A4B45CED0BCDE3EE8DA9DA78C2E21DEAAFFD119
310
7E463C33CC6A80FB785669B856EFF7A8CCCA2841B5A5369173320B1170C368B2748D81062EA0296E5E2D95D7667A4A46D98A6FF475C76AAB0A8C8D45E226FAFC9FE0133EA9F60111F99CA81ACE03A1D14C89E8B0D69079C91464FA1D99E651D0EAF606F345C42A8A1AA9BA391031582B96D5B4176A77AADB01F12FD298A75D
310
EEBB2C82F0B8650E880722F8DDD90C56A7A058E5FDEF1AC93545BA27367C76F5D8F9690CB6F8DAE141EDD7971F0FB548A2AE435F224D6E5954CA155512F7332029D5A1230854B79F258EC5FFDB09F5F6343A8EB193229B7F7E79B3E48F8E183860B38C8269D1B53738FF1E0BACF6AADA6D4869E9DE708E79B5DADCC09B1BC7
310
6F649731CFAF59A83FD8BAE4C749D66FA87A3810D4D62FFE826FA400C0F325D2BC0F3CA35F5847B82A2ACC7961745C823E4D863D54460AF792CE6F79B5C7A33B25C3AEA6CDE15A919B6367D781E9D44F61BF828672594A3E1D9EDD6DF179A81F27EAC05B936575D73E05C209DDD2115CFB705DF9BBF3C911589B3640735E9E
310
618FC9C36A7326C82B2205E244C55D56FDB9D5DC93CE958D4BF8174D2B3DA54CB3C09F2C2A6DFF73D23B2197355761AD421EC581284A7EF8DE2CE3497C0C804D49B41DFD6A7360844E5BEFFB495CFCDB97A4595911CDBA623274CE852B5E278AF0BEB1770E9D37CD977B2766A7DED0E94B840E1E95E8C77DE5CB6354AF7871
310
427C28ADBEEF7BA0A28E19DE9ACD75F379FE373EAE6DDDAE3834692F9C2B03B4FCA8FCA9ABE8EEEBEBB725B88A7C90941E850682CA04061A7DF0CE82ED49BFAFFD42C309818FAE14755CAAE78B0F73243ECCCAD7DF58FCB9CDFAE7A4D3E6671A613639130D056C8383C8F4FCF4808C331E544DD26E4755D09EA05253B3049A
310
1E32587CC25D72E073E2CD96D04A71BBCB0038FEC3F53D254199C3CDC67CD66640269431860225392B2CB3ECD0B4498AAE78BA1994246AE1EE78F2EDFB79F6C6CB6B5E279C4D373FBC21CB2698C9ACBBEB6A4BB6B39E16AB0E421CCBFC7654D81ED86022F9BB522146F9F4772E2D0E4FA70120C95A85A417BF5078B232F475
310
4363EB1750B2AC2148EB46B1EA72AD9B4D23ADCBC589D70106C3EC2ABEEED84DFE28E718C6C83502C28E9FDD3B09DA0A6F6F7B72B706A31C9E2A331EE70DA56A083D2177BFD63C55B11D8D949FAFCF90B23A1E24B9B5018B9A17E99F2890EC302F330FE7936E2C23F0D237EC8916F5166AB84B62A21BB0B950146962D754F9
310
2CC2C8877BED8FC7B7B25726DD19545392570B3A2C66B58F027BEF412E552D12A588C4A3CC5C3193FCB3485EFFF700D0B9EEC077754A33DC1FB9E25AF814628F91DDFECB667D3F7690803F38D13F8AE39353523BB08FC6760144AFA2CE28236F65EDBB3D5F59A57D612B99E3D7E5F8A851666BF9B5A6658EFC96EEB37A378A
310
BB0EB3FDDF1303AF32C41BD1C8560745D7BD81066B0D6313359CF488563D3BA3F8E2185D1FAA3EBA1397C9D0E3DD232180A4DCADB6AF25DB3AC3CC26589C8239E66E81547BC7E2F328F9884764CA37EB5DBE390DFC03A5246B456A7C3684C4377D0EEF9A350680FA9A077E8B2957B489E09AB1AD41316944C2254B5984830F
310
691C93CAA767EECF976FA5647538830B5E63236A6F0365C1E0F3E327F24FE35EDDBD7360B0F7374837409F7A6311BECC12B7026D4FA1AE204FA3F5FE904B1F420C7A9044AE58E403E7C4848E7DA25DC9EDAC79DD756FAA26B9EA83ACE8A214A2612A22AFA19DAE7DBAC5F8CDE1292A485F98DAC731A29FE01A3966E96BCB9F
310
B5A4C8830E1B9AF0C54B87FBE221A097036E5D28D1F869F810C06A9BB0AC0612F69AEBAF893C6E7AD59460208BAB3A6B09CA4F6BDDAB8CF0D1F84B72487498395A70DCD754796E271099A567A55CF242BBED64696378BB6CF25EF0FCDB589F3A82F1116D010A9AB9FA4358809EE0C973A2B4229BAA876A70B03AB49CBA7FBE
310
71DB1832FFD32F9BF2C8E98075CACAFB36921235D0F552B6A67E94E094097A5D7DF681B40623DA535ADA7A9AD8E9A62407D7C9A5AE51D62A17A83A23728DE86BB56115804D3F2675F2C6B87541A0FC497BF0CA86420F558C9859EBE9FAD62747E323E3AADC03FDCDDFE7407B09DA90B44E3185723C5381EAEF589765E2F7A0
310
99BA46695BAD60CEF3491B8A171F5F56444F7CE9455312C3498C74173AEA0214EC029833B34B650CBB5A5508D5091665309642791708ECF27CF11DB3D797D6CFE474453BD4BFADB768094B2147814D81C7CBAF8228DCAF5564B5891F5EF6A860EB2E323CB82AB868D8EA048880D63B0DE5341F1B3D53297B928A11E15F25E5
310
148990F710747C3509ED14909C552EBE3973246FCE55D00564D8310BC3EBC5085D08D806799B77D6C57FDF5E55837F9E934F09C03C729271B64F12D0A9F9E938107CAF7BF1EC8CF1BB9B42363D33070F4CACB425E605DDB0A34A12BB936DE286B9887A4E2E558F0886498BFF49C311D96C277CF6A9FC0D75AD0ECC5226D7E0
310
E3572012E56D7FDE4410CEC7A6D0F997F225A2055B8B92E3956E875AE4993CB3D4C9063AF98FD45E1BAB165640A43439A2C9181A7C355B297C0A0CCFFAE19B6FA3C2BA238A885FBC98B8F6DAF4B94B97304878DF4D8BFF6A4AEDF79E90ED4E68F00CD7299F4E0D83E35601AF0CBEF18C1E870E74758FA91F5131075004DB3C
310
FCF09AE1DABC11957FD9808C92E8A678CE9DBE40DDA0E0D1D505AAFBCBA208232BFB6FB3704E8985E61ADE53DE74152F5C7DE74B1DEDCD37DC3E8FB30D7EBA8B9EFFC3606BF90B8D438279CB7709FC7C00D327F41817EEA71CD9E49FE9C8C9A81C70915D9F0F15958EC5AA4C3BBFAF46986B90F188BDB24B89DE3C6F29EC3E
310
6F66D84856EE96A35E657CA41B41EFD8DBFA16AD6E91439EA92B40B21C053249F51AE50EB0B24C770FFAF40DF12C8436366819C48E36547D4E7B72FE2BBF10828583057814A668BDF183F6B2E58DFB151103E56303E63D00F39C27C4661605DB644D19175D02E3F0241E8FC3458D17AAAADB117CE9EEA690D0DB01E634878C
310
04C2C9310B69FCAB831151E3AD293BEF6E46B0ABCECB50F5939B39C613D41E81FAE8D34CAE3C4566B761D37185FE864AC32FCB71AEF39DAA5BAB88609BB980CD2F07A8F941653B529567726E2B2A58D079DD57E1E5E31426CF184A04D7B03B985F276D47406AF276FE32E3328BA866EB1FD39BEF57863A317634AA5FE46740
310
9B3873F5069EF0D71AF00AD189D17BA1974ECDB2D623E9E14086386A6AAB5807825C37B015BFE892AFD154920EC437EB945D958E18622E1E0FE2FA06557CE4BB9BBD05A2D40E774DA2B65473791E314B7D6C886820B2FCFE4AA272B3B8B15E7344A145E8AF919B5454D89D36D413E87211186BF6F645E5EC94DCCE8E1C7990
310
22E4EC9BC86D7A0F2AFB1FC4B2CE48F84B3F49ECE65BAD24CADCC07EFF39AB06BE9E6B27A059938EA7208838455383DDBCFCD967DDE4650EF92A14FF933C975DB20BD7FEEBC4487576485963D757D16340D9599FEB362F775F38CA4185A86F74B629C81B133644A3B18FD056E997E0734F9BE26D11C0AAFC669E2AC9FC41D2
310
81F8B2E1C35AE27BCE05F3DA295488096688719D974DF1B5D182DB7792288697F8763CFB43562C1CDEE11C4AABD5C22B6E33F6F389CFC3477C5919DC0D533F8A7A1846B7ADB60ABDC26C43D0CFC8910B7C15EE22675BD02702ED39DB77A87A192CA7A543E6205B979B9F5A6B512A3CA799E198B2D5797C0AF8D1D872CA455D
310
4D431A7879D4DD76110B5FF7F4176B54477A9EB5E4A5D11214FDA585F0382751D8E2582BA5D2075053298FEB8F1537304E32CB22C2E2B693DC0A760B1DFCA751BDC445AFDCBB12820ED85F6D5298933C7EF1211E9E057684056CDA3FEF3BB6052355E162DF27C59E965A8DDB7F9437EB72CDDA3A090DE65A5B2F50326247B7
310
EC67B73ACC7047FC9B353D6EE990F772207C6EC52B39DC2F3C0754821DAB559F7C1809C7D0DD5B0499D0442E0A6E391B3D5DB46D11E731E6794EC77523FBDAA242ED67F9FA1FB684255671F63C9BCFE6E7E896D51001A6113EF2298BA494E0B0980D1FA5B9D60796554C02256B1E0345FB7C6186B6A19D2DCA270416262845
310
FA4F42DB5D9B0A0B6F07FCA2E56C242522E001E0CEB734AF310FC8BFB57E38E03AACE93B3326A2197891E68452B26A6307FDABFEE0223D3C03C3C73D2D5BC054C8311F12004CAE488E5C29287F8156A2CAA4AD0D7BE6B97264E4139F437CE73ADF52E5134C52B819777C18B323A5924E4F67AFD13B1CDC3A61793A79FAF5C0
310
CEB718E441071E797C6DCCB9EFCF7E4A1E9F3DF3C2F9C9E8294E9586868788C972857FB0556D7A26941A7EEB9B580AD78EC40B85DC906B4120A563CA3B87797ED612D3B035962BB75F6515A393F4CB057F564CDF54F2E5A024514E6A1F901DB80C7E70B1FC05E356A7E72FABF4775B3E3FB8F70A2A8E7B6A94542BB3041579
310
78CCC999E707A29CC795E67A59CC546A5D47B368954CA7B6E75EC9E1F6FC73CE3B4F71F8CB1A6B15923D61EAAEB14626AAA9D04A26EB9C66CD1BE86CA31A5D8703DE04CD1EBCE4F5CCB62F93909AD11E55799A781A956ED27D3E738F4538CB04ADABC7DAEF20BC35BA6A90BCC1DC61BA05F20D8832FFB9BC9B15E2DB838A0A
310
FBB7E0C82A562127E0446894F427794C3037186F622BF24DE1B00AA10A23BFA47B2A180D6DA5AD6F7326FEB8C100C2D7142EB2A0B2A9D1008A09BA343D70E054AB69E2A7EDB783CBD92537FAF4A44D1296AC2792729104B3276C276C951D0CF3CF3F1E6B017720A7B8505A5FF9589365979678C36F1BAF759EAF57C60F1FF5
310
FE9DCF5F8E764FF25A2D06CF25117A8FED51884C13B2B750DB0E4F5E3D64124FCF11F0AD8F1CC3B3DA4B38ED22BF1CB2585EE6BFEBBA63FBFD44F9537B9B37BDD6B358720F98A8125AED4349CCFEB0E135F19E208A04CA7E2B10711185D72E381F448036EF57C9F874E54A971CA37A639E986AC0226DC5AA00D5B14FEA9192
310
234B3DE617814FC221C92F33F1D392F297731B567FD98FD91D989379AF567A65B8ADF177591DB90FBEA99BF4ED11B16E50A0AB1DBF1156D034BBE04D69D08F939D8E92BF525A1DDAFF80ECBC95D8F45D3FDD289FD23F7D8B452F8EBB34EC082DEEE68E18EDDF072060FAD2AB1504DD4879BF67099FC58F6E9DEFBF645D1633
310
4A3E9A127C6F1AF6132CF287E433B43A0EE93812B4AA0B194E03EE3FF91EF9C6ED0074A2F6EB18A96A7C9890B1FCDA1F2095E944DB911ED54C60DF16FB74C8CE9BDC7C54C4F14078CF73C2FFF1F1BBCCD7CF64F71407EA1683DBC410D226627F66E509060D5C0AFD611DE681D509DB8DD12FB1265B03C6F5C55FF4C30BD941
310
87FF692B4F152982502F193098A789526A038AB529A52BC0DC4FB6285CBAC10A8B8DB75DCD9BDABBB221E27D1F8DA9F5EE5926A1C8AA9BA9BC09239C6A7F12914EA3B59EFF7AAEC3FFCCE56F1C5C2980AD072793527565E774F4631DB178CEEC691B1F367BEA0CF2907E1D6B854D527065979DDEF002D8B2ACEA7CE21AE297
310
737EDE1D45B31233B73FEA35BCFDD0B09721FDBAF6432681F2FD10C3E9EFB246FD6E854B344ACC9D8A0EEF876A7314B49B6A499FC650B099D650DBFEC7638ADFD245E2B7839DA5AC5F7D5623FC0ECEEC8653FC9B2BDD1AD4D00A566FBA7186DD3C9CD26512551637498CADB950FEC71ADB9A5524285DE328B8EC7EC75D2345
310
AEC6A27C42AF6D9B92155315C80DBFCABBB7DA0FAE425C4FB896B15C9BFAC4FE67DF5A23D30C93DA4D8F36FB15D100050DA6062E22AEC5F4DAC4F6FEEF97AE05DE63C6D38F9E068A20BC5E3B6BCD75320C5090924E7F93640A7735B1A43451C2D91EE62C6238B797349E59890AF3A520DF4A87095F3ABEC2E61F0593416CE4
310
6CDCBE0E00E2523FCCD04408588B5B6C9DB6459C786CE378770B54F51DA3A5E1DF2A3349BEAAC234A6CF8993B598B3B25B4B113E353A4D750FA7534749430F3EBF2512E7EA3FD43C6AB9A1F765A58463B306721A15D224FAFE8C6F5E3432D57EE697DA0DD5A9D4866A8BCCAAA9DFF1F06047851408FEC060471D0E3EB86BFA
310
F46E4B5E60311DC3E3CEA147C75CF971BE74689507154FF2D2E92F15CDB2B9182B11459FD8ACAC5A85F174BC94A7F4EE4C4F5CAFA7C02E37BF0BC77B7DCD0C047BC316F562A01A441AFA7931CC84A28CB9F4AA367EB515778F29BFE61195FA671F4352E5E46E3A64773F1F76EE5EB36D7BCE9BCEAD837A4D77F8DB8C92AEEF
310
6711920D7C7D0F76B0FD0EB7AB83724CD35BCA7D36DDDF5FBB7FF6F04A91F3E2BB3B8F1A43CD659639507FF6331C5F697BCC782AE57D757A27D97F1AB9E0AEDB43F92F1B2AACDF5FEC8ADBAF9F814E2027003BA2F9E144B1938A7A04050AE5D953B82C45619165C813A10E76DD6906B3C16438064D14CDA713AEC420034613
310
E1AC7241904A49FBF87409AFB1FCB9B72FE7933A87D8FBEDACECE4EDCF6A4FE9FB94D5DEB74FAB7CFEAE17EE965DF980DCCA2D04134994F9A2E94D2265DA4FE6AA7B7AC15FACAC2B5ABBCD7DFF542C5314FDAB2E1B9D8B65220B8E2B638BE008E8DCA22678C820C5053664D15E89F2D735B51A84955E81A443545E9FF787BE
310
0FA700A76D136C27DA179A7C6E8939E01BE756E19CB292798063D8B97F44E8A27BCF3A614FEB8BE974A718E86F7EC99B53CA35FA24F61F2B07266684623A3D4CF073E511F3A10A8FDAFAF0078C577F4DF9D339FE7862E5FA47CF4344209E5BF76D783B1B48E152AD281B15FCB934DCDA49CEC5706B1EE8B460F435324A5CAD
310
154725E21AB8044B75A557A79F6C807B9340AA3D92503E866F4274412926C8C504E4D5EF8C0E68DD0B028781A6B4054F11CF18941F101C57CCC796773ABC8DED9CD91FE5788806C05E548895354AEAC96546D55B0E94A59F148D061F42AA398D822CDECA4CDE79E13469BDCC44FDC990F366BA5978C15F97ED80CBFD73B0CD
310
9B8B83A4F6845BDFBFAF034019473FB9A63BD55D3A4A7284757071574029A4D016DCCBE95DD679EF3C4880BF169422F8C89B68A988D2B13793CAED4F74DE7486C72DC94DF46B8E93D8E02EFCB1FF9B3BA10C8AE7F653DF94F4AF466CDDCEF5776687F7C4C14B63E4EED1719DC2EC482D7DBCC7AE518CDE3D5FF86D39000EC3
310
673C0044E1D308BF05F74D1B5F033A7D1BE7F74BC55BBE3E4A20F920946CA0271EB17BD2B80E5660ACB8A29A79F5E4BBA49D4D945B6EEF4A7EFEAA65E5555BBB57A7E15D2F83C69F30BBB978D2B39F1F26FC097424D39BB33CA3D87ABF64E307938B685BAD44F71556A30B7E712CA4FE600613C3E554B69ADE949A7CFE214D
310
F1FFF05CB82151EC6FC31950239F94CF7AD39DC473F6EA356E5EC2C4EFA04383CEFE985A127484366FBEE3C0EC4FEA363E4F6632AE781392FD45D67B63FB8DF70E82734F431FD3443172A0E30A83D60982D55FA6A2CF86DBA8382502ACC6CDEF3B907982EED1160E14863FA242F9757347E1544275CCDCF71ECD5F8621CBEA
310
326B8BA884AD7F825781923E66971F04010D574C541D8427A438A37EEF8AF88240EED7362C953F5A81DE2D56109CDE2524EA0F5D2F87308C0C47BD97AD605878AB8589E17CA83930CB5E0DCCD75853D68B1AB136594926DE426C367428E9334AFAFF90ECE221BB5DC9E5BB53D2CDEF954EAA9CD814F0E5725F1965DD458E5F
310
8487683AD86B9D0076BE3EE91EB1CECC5331A67A3F79D8B27587C12EC2A6A70474749F27B4C0BBAFB94B34189E88DC18964BE4121B9137FD516C7755356E50D6714E31ACD222621EBBCD1CFF81D87479056A9DA0E0B8EA19D24CF937DA89F78E8650CCBDC110AAB6C4E46DCBFD0446BA9E2060E81F314AC2031E88135E5476
310
AC0160EF5C0DD2EEF1B8B5CB2D198BE9A554A9093B5F7D7E4B5407DDFCA1D9C152FD97F55BFFFDFE802954DFEC8995B983E28AC92F1971E28F531DC407A1280EB125F64A72E617EFB27DFBCEDCDA2D6F2BDADA36873EE46B9BE1782998C63DA7182BC383FB6FD15DA472B175D7E8B4FC88F38D6E07FEAA3FA3CBB8F6B449EC
310
F14D2175E5C5CCA3A42ABF24CA6C9395AF74535F4DDB38CB84F56614B0FD32D7E19CA5CF988DB4449C40E23DF2B16772594554579094450F56F253CD25EA7F77366FB1CFE79696C428BB64D5A41E986189427E5E4D7E2DAE3D5BB4972B3DC44EAABDDDD63A2264ECFA5C786EB0EE1FDC5BE34FA0F08376869FD1E61EA06CAE
310
15191135445EE8F0394161C3266A596AA035572BB0C8876180D8B9C77D307DF9DCDF7365ABDA6F3A2366436457A4DFC1F259666569A9E4A79C817BDD5610E5200FCE894A358EC72858D50EF67545DA81C6FACE3D457BAF70367E1E6BDD9A952FB4F56247F58F523B97E640246051A72F79BE42FFA0B3187F63097F91C48B86
310
8586F714B0EBD5A00A8412C1236E1298F60C72BE6C96B82B404CADAA304AE9F303176B14BA53FBC2D5E86377E35542019E24D97B96A49B2C0E5006E7795954DEAF5DA58958839043C6C70BD3B1B33B6DC5C31316D8A6923F142E26F6711A2258AF977DDF1F970ECC4F1F2B434B96D81BEB6E89BF3BBB3C7C8CC80505070723
310
D6D7D7D3C8CA27CA164A26024FED94B12A86031867241DA53D929636DA600F050BC40CE48B8BA03D69224720DEE2ED2127390BDF5E6EA64527BBD4C4C63FA76BB801FEEC0E61218EC98A8A86CD8313781617877E66692839B9468CF4DB8E50A73986E558E309C0D6F676F921BE02F1185454DC75B111572FF9D27D85EA14C0
310
5AD7271225B391C4275659CA4A43759D0BA44639BE4C30A84DB7F67A41399FB95CBF923B1B1672ABC807C1590557FB18D811983FA97F5E609516D62281D38B1281F68FC75528C35E4CD7DF0F7DBB5E5DD69C414EBEA2F4A5B241B996BA77AE6C772E367408C633EA3E438B68563EA8BE7667F3A4C4FDEEA52ABD78A2820F44
310
3B7914A15F180018D231E64519C56A12F6CA7C8DAE18F06F6B769DBF92329EF6A5D18FBCE600F36BD8E8198DE5CDAA96181F3A756EBA5501CEE58F497EA4F418A2B82565B9BCC611713C0B708CCA1F398B78C5F7D03B3437CC18F13061F55C7BEDADD5ACB1DB0E36D3CE47FF6EA1A563A57E9649EA5D14D1A50EAA45746338
310
1C073777EF1600607BAF6428A7DDC079D47A204EF1E1F1F0589FB054D45E02CE623B3823C317C601E589E22B1E88B448524B86A82828E32345EC18AE17214B42F8C41C6D428016D9BA31DDCB47572561E5A402E5BA4FCE55F78AF7268524AA04130F3A20BA5D1E9F9948EA48FC8F5314FDB35E21898198060034ACE5E3E2BB
310
CA34092518F275190AF65F45867FF0900AA4B81F25427414C372BF51DC29AA855C5428EE1EEDD6B849AD60F6E73475C2D2523F8A2772C840A478DED18A8C5C91B085F255DC4F54EA7AA8947354FD17ECF8FB3B4A0DE7B483CAF3A1165EE05BBA413E5C1FEF3DE1D6B8F2F3F3251C17D9FCAB48A9AAF63AC773A0E413BBC46A
310
9ADF84A566FC920E4D8C52C9769EE3301CADEEEDD92B312E02E2A7E35B7F1E7D203FE5A7D75578B06E99D0E46FFADB8FDA17ED8880390DA29094202D6F645F76F6F96409CDA05495A96E84B04A00D1A6C6C81D7F3DE9376E828CCF144EE50E364ACCE7237EA0BFB5607ED1AC3CFE73794E5B61739D14DF1743441B1AC98F00
310
ECEDE9E7301FA29755FBEFA68C91EF2B314CF510537EF1ABFC9A762496280B546F5EDAAF8A5B387D469FC9A878A92828C88608453ACEC6094DCA54111E7AD5B2663DFE2DD151B7F123B9F4FEF8EE36AB125FD7AD52A59B1B765B3E3F73E3F73DEA93875004D2AFFE3CDE9493B87A9904DD052028949041A91DC0E1BA47BA71
310
4343FD5B25E0A6A09503AFC17C790058A836A324FE31D7893512E28230332F153181C1E018E1124EBE1BA262AA428A518237D1EA7275E48C5C561BD19ED6912EDD8367DA0F31E40EEAE9683DA9257525AEA7B632B97119E17145A90231768A4F3B9120FF32E8319B015E3CBE26F1A754177D8185345817C096B0CE443A955D
310
13AC15E1FB5DEEA0239EC32A3C92241A237B0B02FFCB4F93CF2B02570C8D192E2F2A68CEEB42F12E6F8CEEFF46C251E22B4341C56FB08CCE550E7A9D6F4D6564B9EA52A83D5BF2C6E03FA19D2775E15A8A7ACF30A13C259EE7F5EF2AC3BA354F1500E1A07FC63FB4686E2F12EC69719F9ECF5FE3F35598DF2CE944008CE78F
310
0911BA5BE5D0A34E0098FF038669C26030BA9B300303039852A8F6F496341737CA7E0D2E3AAA36DE0A70AA7D9CA0D54D9AD84B18A44C9E625475E1C97B93BEBB38DCE7D227E67A2D00F531436136355F243D1FC0D712C5765754FA22FCFFAE97919161F46D6E61ACB37D83777B385889770B50765B127768443A5C4D3A4E35
310
A3151111F146B7CA116F918A049F1C272F2CD7976C69A0068773451659A97E0F4A08FE604C3FF6CE7385DB19F4D3ABC8A0D80DA8A42096AC377DB49382B36E270B6FA7570188B4B7D1DDDDA82ACA487CCA5D38BD3BD039ADBAFA4ACFF27809239B722081E2EB9F145320553D183F28471C388BC8814E5045676767AB58A8E7
310
2D1CED2CA731379515D2E533E4CF0B39DFC625F97AC4836831A4DE330E87A8126FA17EBE583D614E71E22A8DBF2825599743E0640037303E8E1B1E8EA4E1ABFA4F62907B5E4E0E5DCFDAB417C36C6848A2B8D15F1E505434C0707E16B1CFC2A1C36A42BBF55734F8F4301DDC2A5110CEE8C0747F69519265012A2174BF4E95
310
5ECD4FDE095A3ABC70536B7AD0B9D7892F81287D667C108703C9B66A221E9A0929D030008F77FF6F5D2108EF5706FC87A3069B976F7C9FC3239D13D283CDEA83597461079FEEE049B0F392889898B7D87D31F8D60ED7B56B91823A8E4EDDB36C6172ECEE42BD42B12CD67994FA0F0DFAE9389356F4CD4425A4B8AA55CBF7EC
310
D585C6A2C2316791E43D5C06841ADBB226A87FD61515FFBB0167B74E56BD7F3E90A57A97FEDCBDF483A0D6699A8C0849CAEB4947FAA90D8E332D9DEBD9F4738C37DA0CAF9CF3DAA68BCB67C420459C7A64498D6E848E5CADE92BB6901F607AA331104A67F7CD650EE169B1DAE94D2C31C2F993632259B6957E246EFE4C5481
310
107B07118607700040E5812A2A2A38DA0076875258C753F60E0F2662C748EDD5F3F3686B8FC3BD6FE631ECCAA1E8B1C1E565AD117E54893E79F4672E32F9E46B2A183DFDCF3EECB4D4D077DBEA0DA254D256045109670050129E9B9B1A9E4A11344D61497A992778095151510C4BB7EF2009B63AA4360635312E4CF668B7E0
310
D3D85A8688E2BD83B569439892ADB63461930D428E0DE42E4AC57CE48DA5CC1449530D8BD3D6A0F08DF20C8E8F570F2CFFFCEA286E30969B4654D498A58D9DA782E19FE3F002181838925592C4A1EF0B332D88B61A92C644547BED490D3A42CFFAB70E36D961F694F6307F72FF15A1C79D5B1B5CEFD353D9E2B52566DEC8F8
310
F09CB3E8359C0F68EBBB7898243E34E12A015B2685AB303C04D3A9E00671FF3DFF0A184E4A2ABEB2B666AF5B3A209C73D8EF29DCDB069C9F391EEE9DD0F74C7BCDE16F8F02E3B8816122BBEB50665775B600549D8BB33A54A6BF940C028118BC6878C79958D6784F9DEAA6E26748386FFAF8D0D0101E2847B6563F5D8DC1D7
310
8F787BE00E2C941AE12148D4A81599FE8F68D4DA5CDED75530ADE138240300EE13B0FC13A1687FED6774662C05A2B7DFB186732F0D7A93545D8B0A6390AE5054D9CB582DA846D7A061B3358B45E2B52DDE63E114397EDB7E09233A579155D795BE76102CF277F4DF8B188C4F2879BEAE3C08347124BF9ED23B128259FE107D
310
31E34A652F090B30B39E0D9AF917B76A2806135621A8A60681F16AF216514BBD02711585B5B1AE823F4B2D0369EA5B6BCB863072727FFC871CA6C9AB79A814D989057E9470A3D238BC87CBB4A0EA49AFE2B86F22E499793CAA9047080450166BDC357524561E258C77CB697F1ABB32562CF87C3B7AA12F911EF19FB3E5C022
310
22E887D08202A60A17151F5E053A86B437771088B4FEE14D652C43E8D939995D34545E12E2FF93D4E366EAD25F10CB7DED141563C3D0C447AF06078A91135FD4B9611583CB4BF3BD167F2399CEAB0E0100F8FFC305F00F1711717173138B4B48C83022295DE657EFEDD97F238ECA80F528AFB4F8D67AD4E2594B9A3AA86D74
310
87EFC313BA95745C186F0CDD84CC12DC9CB0424B42203D351FD9C0A3AF10CC7F388E0329279087386421F194F4A29464C1DEF7EF8BE515E4A199DCD5B909342598D8FE6A231F71336248D5CEC5454455C7BE383B3BC7B260FED27F703FDC39A170F3827239102F59D4DEE7FEF82EAA1A5E4BA94DCC4CC44E7E2EDE20F24244
310
E4454369D2E87C3F823F193FD4FD27E1C23984B01898D15ABC20711A8A558054951A6AE280096BA36CBA439603B7B0B4C45F248C14B2383B4B5CD8ECECE4FF859AD4A6CA2326D020EF090F4041D28DB66E5256B56232CC52829DE8060BAE6BBF37D4B7469B822454FE93210A3E8D15E69FFCF01123222611C51C4FD0A041A0
310
CFA2471CF6BE38D2B20FA4C3525B5B8B586759475CF80ADFE67A284AC24651E52B8E683D24C2622642F27E7C3C22783BCF63648BC398BD6CD0D9C97E7E7E3EACB6126DB7A6C1FD9F1031302EE67ED96F22B77C7CA0239BB324207559B105E4693EB26EC46182A92C9C0DBD24F29B31C5C5AC1F84300E0E17CEEAC15F5736FA
310
4A98971E2F1423BFCD68D4BBD5F86E74B40A369F39507C88FCDB35D2DD8DEBEA4AF999E23CF2816D204200DF6E611781B9884C1AC8888B4DE397320472959434323A5A36B22A8E1F721A270DF3BD65E4A31C11FF048AFB0D8B7B6881423793963A23CFCE935FC189ED36FAE35C46DA3574C979E4394BE52084F3081837BE03
310
3396D2EBD80F1F691B273F660D2B32FA27A33B1DE4ADA5F0FA4651511102DFA410DDA86E065272CA314D5249DF91B06BB92807B28EFD54F08F7B525252782CD276DD02E6B0319B13DF87B1F6361AD6B28FC0D711CF445429B9E5A433CD493051C49A9E03DDB1B147D880253514A5DED88009018620EE229101C041950E2D8A
310
A8E1F5F5438E0C0C0C60EEDEE9E3E0C051948C69F84BB7B2A48A1F3C8EB9E6864687F4F4F6F6E2FA87608ADAF9C5E117B7C1A737E710769DA1D15ECE6A84502AA855398712D5FB51BE92E4EF824969CE18278798AC303C2C7980DD2500ADF8FB1E6D6C2FAAFF9987178923334A244758BAA01A9A1B70FA5097D01E1CC2A58D
310
AD0EC94CE6430AA9B0C10D75E3C6BAC670EFBADEE1607739CE0FC18A2587E3EC3058562014C64219C69BC269082D5C2F4A659278D585755912176D78A1B641719C2A394CED495A1AC5D583FD2F5EDD93308EA7EAE8A6DD396598BDBD3D4CFED62D18A5BDFDE0DD5C80D1A89BA62697B131AE7CE9A6594138582F1B37D68F17
310
49AC7CB67A70695D48A4A056AC1FBD4E82358CEAE38F54B95A9016F9000F9879C0D9D131768635CA798895F27D6F1614F11F2838A83611AA51C9A3DDB539D42979C29F10465655C17BEC3E2760B80DCBF609198C7B171A531905F3EC218D696025975E986C6B4C666666787271F202805577DD5A3EF0CAFAF91B62DC4B2DB4
310
217A7606282F31D8DDBC290593BAA93EA6353AFA9939B877978481E15CFC9F2755CDC00C538F63A4BA3E80AE009B73CA0185687D339A507D165B74290D6EE46D5C58148F020C3668ABE9EF2F7549170DC80DB41FFC1D678FF19AEB10C7133832B104B80F691B3138F97A92D26E551F1F110400D45AC71A9B9AC41A1A1B1DAE
310
ED0B0810638EFFB511D46B121C6FEA0F38CD00E03CFFEB9713FE1F9C263E4DDEC160D0497FA9A132BA608584057FB15380825DE6C7FC3C667EE947D488A09898D8E939C4953BF4EC9836344D2CC6B2971B2A21A572B06096F4982D2CC7232D46E8EA69DC83722E267754D777F97F96D5DA74E1E75178084D0E70F12AD33E5F
310
71EF2AFA599B2BEBF60A5BE475F444F240CBFE8143C334E7ED9150FEEFEF7EB020C4DBED388DD1D6A167A76F3CBF119B578AE8CFA7736ACAFA4440A1C47185638A0D2F3EB5BDDEFDA958FB13CE4AA4923D5BF840392D45544329525749734866684BF7F8D9D54D892E19BCA9F829A0F8BFCBEEA6CFDFC61D74EA1A645ED7A1
310
FF241739F15694BD835B66FEC5677E40FE69BD3F91AE402F036537218A401CB0828604AD189E575015C6F3F6BBC8AC79CF6C70653847254B31551EFCBEB5978B9DB85D58D0FA41A9DFE9C624834AA04949D24B5AE6D299E072D152D12097920F14AA92C31C3B97E28B6C2E6E9C23D63043ECBBC0A60FDF5BD0C33C127EA8A3
310
308B8B6AFFEB28B4455BF6E7AF4FC6222728357EB8E46E85053E6A8843AB23295BF838ABDA94658FEF3F832F147046B4ACD6F7D48E8FCC9618582961C898D1C7A253C91BFECBDA6BA18A1FCF70755DCCEE2222F41B76D23CA98D0CB3D95F0CF66D57FFF65E2A90F5DF40FC3187621E981BD0BC1D992787212688976B94A8F0
310
C6EF646624B570B78E068826F87CE27041A95C9A4871FF65CC17FCB1639629AD6A9517000D63AC231F3D741CB8430777E7ECF80CE7A3F73C0F162F7E56AA71F4DA80A33CD6ACEE78E2C11FAC03DAFCE929B106F8F6B3ED2DC71FF994BD9CEF4E9A94896EF1B6E2B7B4978168BCF0847A3D2A4F1B0500B926E634B174548E9F
310
BAD27153FB5FC36799B1E6C7C38A94E1F9E996796D7B485E635D5287A2AE76FBD11A341DB3F8F810385BB7296391973DC6C37C452A9305AEBBE0CDB6C566DB59FE60C8E94B1FD090354BF51439FFD1B48D725228FFA88C84F686F547107A7A235665A4593B7C34D748C1AC8D56DD5DA861EEFBADDECBBD65117E65851F9035
310
1AEB65F0EFCFF4BCFEF24CB7A5879699FAC437A7AF9099186CF006BB923A59E37D7A36A29FD8D2CBB914A5E9D0A8FD212FBF796AE9A67958FF1D5D8B85F78F96219D4714EB919929241B6C018AAE0C02069F8D919961EC5DDFBFB7573E3AC8E08BFB7C8534BE6DE045B3CD63DBD71F7638BA2309CAE398EA3A7D8F98BBBC7A
310
EB367EFA5CFA27A9F8F2F52FE878058E6209C026453F8E7E8A237DFC389E9590F6059B397CFD65183BBF936E86896612A5B5FEE49DAC8455D026218AFEBEC12B3523A45B57B82C9C97E02ACFA1184DB18E48CF615DBF39C3CC6F0B4AE6BBEEA2E39D944E290302FA3DE33FA7E40296E2EF7BF1CD855BBECFAD0FD622BEE974
310
6FC4FDFDE545AE6E3BC234CADF83A0FB76DFB145BF3828AE3436368AC24989454F8FF70A177672C711CAA1A76107218CF948CA01F873520E7A2B118EBB161ABAD432932029628B6761590C98AB590C8C8C79798CE9F715BA696E839E9131A4BB68BE923F1747FBFF165331FFDD4D05997ACD168F12CA75348DAC04C7F509FE
310
83898A8B421181AF492861CE81E4A2DD0A30850CFA95E05F097FF70F9E777310D584A75BA7018922E271DAB1D785671157685B7D383D3E074DDB4F1E44EF04B07BAAC75A062077C54B9752C738C9D804D402E02851F3F89605AF189738C18C021D2139EAF72513824E10DDD3047BACC8521ED7E98B257D1166903B1B08FA6F
310
918FD7E162913FEC7D0EF4787E29C35FBA8C6E2C9C20E9AB30AE42CA2A01A090E7D010C1B5BF9CEE2A304BF3A987FB40D836979B79E18D70F257DA61E808472DD85B82761825779D6B90CAEB0F23360C6F80A7D7D77545E95B3DFF0CF96A827F9B5BCECD2C9698718417EF80FEEDEE938AFF55859D0D540B7FE09435583A6F
310
04874A0C7E8CF234DF4879722000167F5872CEC6BF3EF7E5A8CC8121E6A359227C8A29C95212F9F735BC72A887D56B8F309FC525BFB4FD767AAEC4AEFF249CFBBD2DE1AB9969A6155C7D8DABC307E47324C1F916C7BCFF40ABA5644E9FFB9238D19ADADA49D9610F01ABBA57E4DFCBDCCBB2B93C8953206C91DE01B0E2651A
310
6D6C31721915B31F7B7CBCE55466F6D70402788FA91D73BE4ADCBA99A35F17D6B83383704917D6833F0FA3CD45C926ADB8BC17999A4A0AFBCE2541F7B8CF4C2F5FBA611B3E626D64407CB32C122DFF4EF8674D6EDBB86C8F7C6A16D50FA685E2CCA34F8F7D1D8265BB0042E9D7F1F666F7BE5FAA5184DF58E12122A42EF02F
310
461B3F369AC746F96528AD208512AB56844CF75B97F352DF7995024FB02855385854F3798670D01CAC771AC3E1889EC25F61A20C1F8CAB46898817F9C47E2CDA1F286BF2F358298709FE567C91133E2638C8B53975E753EA8BFD3578B5F7186B7BF084EBA3F77BAC3132A5779902EC22AF2D2E79F42D324E083386DAEE9810
310
D1B44A5DAA54513C7A71E52A4AB9257D975B621308FE4D2141CC3DCFE946C154A3C1DFCCA7629EC69ACFA831634ADDA93C0388D2A9A2DDAFCF957C6995BCE7FBB6DC4EBAE79E63EB08E9A25F52F67076F7093CA545CA3053B5BF576DEAD4E0017143C5F759F32B2D6F145B52B67B48909B7C7FCA6586EE385A2189C16932CB
310
6DDFD9152AE317C430492A578ED27B72D85D40C7C93C097939E1B50F4D67F05334FE9DC362C30B7FF561B95259138ECFD9274C8D695C31B14D4EAA9F3D7FA8DDF652F8C5DEFA23284C799B7D94416DEE81E05A866302DC70192A5368EA65E1CED8BF107A1E2D3119A71E85DC1A7B0C1E93274CE04DD0F2ABC8AC7C987FDB00
310
2B6F81757B43502EF7A0D92E416494FAEEA4C9C090CD9557AA4D532F4996A272B94355C5A0E4974EEA9627476F30809B94D8D8D860062E02204643BEC7D0438AF800FC7E2B26955D595421E83C69E1A07E0E3122285835F014AD538188CF9737CE76D464A353FA55A001AB2526B84E985083693BC76FE211CA1D000679C889
310
E3C009832C87E1AC2EDD05C302557422DF0800E316FCAC86978A371F025A6C7DAA9F333E7BD160403A1A06EA75AA9888FF01504B0304140006080800CE4DB74A51464CB48900000043010000360000006662782F34354135393635362D384143352D343046432D383131322D3545393335374637444245452F646972656374
310
6F72792E786D6C9D8F310EC2300C45AF127987122606C71DD918B841D4B851A43646695A717C52A85029031293A5A76FBF6FACEF7DA7264E43906840EF0FA03836E242F406C6DCEE4EA06AC22492573150D1F66C60C640E8938CB705396EEDD86DE9B5042FE27813D640EA63BB001C722AF6E55CB61E4863F58284D5D3F53D
310
D715CE1C3985E63FD7F1B7EBDD617E9F1E504B0304140006080800CE4DB74AE5F0D28D3B070000201C0000340000006662782F34354135393635362D384143352D343046432D383131322D3545393335374637444245452F6F626A656374732E786D6CDD59596FDB3810FE2B84F665F74197AFD885E3C2B193C228D21635BA
310
D837819669871BEA002525CEFEFA1D52A42C2AB2ADF400169B00B14391C3996FEED1F4FD2162E889F08C26F1B5E53B9E85481C265B1AEFAFAD22DFD9630BBD9FA1294F92BCB6CF42318EC8B52596ADD974CF9322554B5BB2C3056BAEDEDDFC85B290C4C44221C359766D65E10389B0838B3CD992ECD1D9E21C3BFBDDC1F19D
310
72A34976CF71FAD0B82AC59CC439B00AEB3150511CF8E6BF20923B9BBA6283B1ADDF6D5BEFCC36570A6E324AE32CC771F88AABC675BD135C35AEEBFB83E56D6F38B1878341DF1E8C7ABE7D7377B3B4FDABBEB7182D1693F9EDC442B3E9264958A58094C45BD0E28B35F3A7AE785289AF5068E33B4CE298840ACDB60D5BA2E8
310
529235313180F5A568358594B2D616FA1D853FB1AD1328064B06DA5A38FD59B7DE64F337809075B1529E1161E559CE41D70AFBD21FBCA95BAE1A7AA1198A704E38C50C31BAE1988382606BA920838CF016410A09CCA41635BD3AAF60D8977DA98DCB5DC198F05F6B263D2D007F24792639A3FF107EE4BE7E1BF004D21634CE
310
C74AD8FC25051293A92B17CB67FD9E7A580289760CEFC15A404CB1A9DF6BE0B510B160B5B4661FEF3687B5880FED97A73C4909CF85E54967567EA73558332D30BE0EA094B89ABA3BA2F215A0FF04C857BCA029688ED3C3E030D0B2731C67BB8447A01DE421DB833F1E125F5F7D9BBAD5E1194246AC3C8529B8ED4FC2D410C3
310
B8BB06E96CFA04469FF0BE126E1D6206367D4F63E1E760288825B004F17EB73958B31504535884539881F4F03B75C557041F251D88370D0DB585DF0E8AD20ED3F4B3A3AE3E80CD701A56AA32643C85EFF0A7E03B5FAE3FAE0BBEC321B9578EBD243B1AD31C92693B4306E886CB7F5B7D921EF981251BCC8EA78D4D215CB34F
310
44DC6851CB5AA90549BD0027220D979A912BF714BC9D311C93A4C8D47A5B9C0A1396F060F312942EDC7AD79FDA06CACB9401B4C63248EE21A7A9C0C49A296D5581D0A9090A1686B9B2C07DA9D56053446980A3A48845A87D6D8A4D3E20CE084B04AA929A366CEDB59AEC96EE764506C1AB95E4C20052F9B3265C5AF800E258
310
1BBF9CEC3886249AC401851C0CCED27A83714105DE799E33C2760165AC88821D6590478208A727E87794A09EB91EC9CB73C2B7AD044DCBD23EA96D4800AE80D520E96C55C67CA5534E9EA82833653ED3D9C0D8A1EA506B3638912E44A66801541BA334F3F160349C0C073D7BBE9C0CECC1C25FDAF391BFB06F87DE022A29EF
310
6A32B96BF2A9A3553DDF812A459963F85FFE50449B1853060F84D8789BBE7B2FB3E7B50BA1D11D0CE7C3C96838B2C7F3C5D01E78770B7BECFB3D7B783BE90FAFEEAE9637B7B72E275952F090646ECFF5026D9269BC3FC595E6EE750C85B2E672B2D3FA6A0AF33F8EA1CD9C6028F1BF1A44ABD8D55210760DA2E2683384E2F0
310
51A4A82084AAAFD57D1A41B4C9475B9C7B635CF69CBE277F7C7FD2F326BDF1645419FBD9402DEFF9E138D72641087D679107498A439AB727D4062E1DE3F49B728BD3F78708D0A9FE56979CCF33EA928046784F821D165D424B60BC24416B0EDBB324CB684C32D9E5BDAAFE1A343D078A2933E7B61821CD8288E4F87BEC4FB6
310
0D0D9B86D8CC02E847733111B858155406AD3A90531445F70B895BCAFF1264384A59D9E95EC2C0EF6908D40DADB80AA6C5154F606F01CE036F4BE4E0E212F58A7D5D1F74A23EF96EF227E0D175CD2F84475FD1BD747286FE44FC8C21A88C867EFF4A2BE21256FAAA5CF471AC80CE337C099E09DD3F742A34BBE9A456B29545
310
754E226863715EF04EFE3A1A7AAF2E5271A1E110B59BDE581CCAFE4D7770809E6CE04E95B7B56BA00EA531CCB93A09F24A8A561396BA90333D31BA7A835F9F55769DEA0FC7CB5F5E31D79D2F92C39FCB3840B55C0660157D8C9ABAB5EA36EAA1EC19E72104D2B5FCB46FC023B6647B6CCC0C726D25BAAE4F2F55CF2B115023
310
98D8621167EFC517F61583AAA17BCEDC0F65D1E696EB2B91D81C184E1FF9309836697DFEB06E508195CEA7BF088CC87383825A5D886EF80CA96FAB63CFDFA0A024FAB63A73FC3FD1516805D6C668300DCE124661284FB6684F12C8DE3076E8D06DF08864322B83F1AA20A5DF087438FD54CE5473BC61FA74F8806130CD542F
310
56843014858C796DA975F41B8C41C524520EA79C4768C3540CB350C1E9B505169B53E8B69C0D8CB3E4F050526F8C2BC1B171BC17F9BE3C55FD7F3C26D081A87494ABDAD305172599E14C50D8A6F23D01547DE583D9F4FB45D7EC209CC3D74D9157C21C178ED22810F40B81523898FA3D2A780F50AE9C97CB77E41E03924E93
310
F9B3765052B573CCF772BC5EC37BBEFCE28AC9F8EA334A59B117EA3CD7FD1A946CD175B3A29C424DC1309498291635E4E29DFB8527F08A294277148C00FD7E188FFE701749142571B9E4CED58B2AB47E80D74E5B578FFCA08DF7FC912BA7006AAC1F6C70461CBCCD1E610154CBA9988D96101B065045D39A01688D085DC031
310
63FF6A89546D549B90D4C3AE8047CEF4113892789723DCA6BEA13680045F00AEE4C3E317BD3075390CC167FF02504B0304140006080800CE4DB74A2182BB3EE2000000550100003C0000006662782F34354135393635362D384143352D343046432D383131322D3545393335374637444245452F7265736F75726365732F32
310
2F636E782E786D6C4D90CD4E042110845F8590781C60C6BF75C3B02FE1C9CB06A177240BF4841FA36F2FAC9878EA4ED5974E75C9D357F0E413527618573A3341094483D6C56DA5B55CA6032527251362F987511275809576992AB925ACFB902C5C74F55DF52E5E8728CE1B4448CE9CF7B85162BCCE79A5D97C40D04CD78216
310
F295595D349B59828C351968278A0B304E9804BA80A56A11F3F3241EA7E5FE55BC1C1F9E8ECBE14DF24E2AF98EE807EF628184FBDD220CB635B64442F20E2859931B547FA3197FF1588B2779B395CC25B50E0656BEF786B9A037E037E4D75592F727DBB835D0662F44FD00504B0304140006080800CE4DB74AFF15A4A45D00
310
0000800000003A0000006662782F34354135393635362D384143352D343046432D383131322D3545393335374637444245452F7265736F75726365732F636E782E786D6C4D8B3B0E80201005AF42B6F75B59F0390B113044D83508C6E30BC6C26AF226F3B8BA6360974DA7271430F523308B2B198F9B80925DB700539227A2
310
FCCB80A18E5640D320F996A81C9F32D6E9129A0D1EF74FCE750E6D57BC7165FBCA07504B0304140006080800CE4DB74AECFDFC3C4401000056050000300000006662782F34354135393635362D384143352D343046432D383131322D3545393335374637444245452F636E782E786D6CCD94CB6EC32010457FC542EAD2F8D1
310
571A612275D12FE8A2EA0EE3894B83C182A16AFEBE903A49AB2A6A1691921D1A0ED2BD3397618BCF41671FE0BCB2A621152D490646DA4E99BE210197F98C640BCE9CB5F803239911033424950967BDB3619C4A1D2C45D0A9AA95594D4581E8541B103CC9A416DE37C4CB37180415016D077E453B818256D481B7C14988EF51
310
0D30BD970E044247785D56F779799BD7D7CFE5C3FCE66E5ECF5E599148CE5A6BF5C42B83E0EC785597D2C6A389724A562480B3E0D444250F84EFB5D1561956C47BCE7CD46BFA89C3F598B871D44A0A8C8D2AAC44C03C422006567CC39C15C9F12FDF4F8F2F7B0DF1D4290712AD5B9FAD0DD5A136ECA4D19888E3BAB001FF33
310
6FDBF768F97C733F6878127632BBDBE4FA18DDBF49887912A6D797F80176D24E9FFFB85850C94B34BD557622CFC56605C6C1A78DC8BF00504B0304140006080800CE4DB74ABB0785E07F000000A30000000B0000006662782F636E782E786D6C4D8CD10E822018465F85FDF79494286E8033C3F770898E89D0485A8F1F342F
310
BAFAB6B3EF1CDE7E368BDE3ABC8C7702C8A900A4DDC34FC62D02E23E6306A8953C78BFFFDD00B971D3023206C997E0E3F340939EC76833B5C6AD072C69479B8A5698753DC56531F4981172C15435575A0FF5FDA65432CE5949F3EBA5CD79F905504B0304140006080800CE4DB74AA6D797065F000000820000000700000063
310
6E782E786D6C4DCB3B0E80201045D1AD90E9FD7516806B51190811670C8A61F982B1B0BAC9C97B72CA7B1037C6D3332918DA1E04D2CAC69353902EDB8C20262D23F3F59B81A079470595414B17391D1F19B4730A5583A7ED43BBE4025D9592775E5ADFFA01504B0304140006080800CE4DB74AECFD112DA800000026010000
310
130000005B436F6E74656E745F54797065735D2E786D6C7D4F4B0EC22010BD0A61DF525D18634ABB506FE00510A79458060253536F2FD89D5197F3FED3F68B9BD80362B21E25DFD40D6780DADF2C1AC9671AAA3D677DD75E9E0112CB5A4C928F44E12044D22338956A1F003333F8E814E5331A1194BE2B0362DB343BA13D12
310
2055543278D79E6050F344ECBC6478EDCD76CE8EABAE5449AE4298AC56946789C28AAFBEABC53F3EAF09A84A1441B91F0101CD4780756578C173A578FFDDBD00504B0304140006080800CE4DB74A3DEE336E64000000790000001B0000006175746F6465736B2D64657369676E2D7061636B6167652E786D6C35CBC10E8320
310
0C00D05F21DCA56CA76D41FC96062B120735B69A7DBE268BB7777961F8D5AF396893C2ADB70FE7ADA196782C2DF776D7A97B5933C430F15651E5469C55D70F80A4992A3ADC954792C525AE70A1E4D6AD9816CC044FEFDF01FE3FDE907802504B0304140006080800CE4DB74A152F254AF40000008E0100003D000000666278
310
2F34354135393635362D384143352D343046432D383131322D3545393335374637444245452F7265736F75726365732F322F636F72652E786D6C8550496EC3300CFC8AC1BBBC2F71202B8803E7053DF526488A2B24960C2D459E1F297681F6D41389E1CC901C7C7A2E8FE45B182BB51AA048734884629A4B350FE0DD0D1D20
310
39116CB476BF689028BA8801220C04CF46FB758798564EA8882ACDC50E526B8583843D423380655F62A129F52E30EC3D5D29BBD359A445BAF108F65EF25D2A79709337290C90766A9BB6693AD4E5538FEABE19D1B91E47345DCAEE52D4D77375ED7116C5043BB9FC6C674650273890322F3A9437A8AC3EF2FE58B7C7F2F089
310
B3C824D83A137EDE97C6EF021D671BFAC7CDAFFC7F372F95ABCADD6D5358204538EE3D20388BE984F28E2ED498247901504B0304140006080800CE4DB74ACD78B911F9000000960100003B0000006662782F34354135393635362D384143352D343046432D383131322D3545393335374637444245452F7265736F75726365
310
732F636F72652E786D6C8550496EC3300CFC8AC1BBBC2F71202B8803E7053DF526C88C2B24960C2D459F5F297181F6D41389E1CC901C7AFA5A1FC9271A2BB51AA048734850093D4BB50CE0DD8D1C2039316AB476BF689028BEE20011064617A3FDB643422B872AA24ACFB883DC5A749088476806B0E203579E72EF02C3DED3
310
8D8B3B5F302DD2178F51EFE5BC4BE51CDCE44DA201D64E6DD3364D47BA7CEA49DD372339D7E348A64BD95D8AFA7AAEAE3DCDA2985127D79FEDC2207738032BF3A2237943CAEA2DEF8F757B2C0FEF348B4C46AD33E1E77D69FC0E9841ABBD116869F69AFE71F5DBFCBFAB97CA55E5EEFA5258604538F23960348B2985F28C30
310
D49828FB06504B0304140006080800CE4DB74A51948854F3000000B1010000310000006662782F34354135393635362D384143352D343046432D383131322D3545393335374637444245452F636F72652E786D6C8D504B6EC32014BC8AC51EDBD8C69F0813A5A97382AEBA43401C94182C3E558F5F885DA9DD65F5D0BC1966
310
DE90E3F7F2C8BEA475CAE811A0BC0499D4DC08A5E711047F853DC88E945863FC1F1AC8345BE408120C2899AD09EB0E71A3BDD409D546C81D64CE490F32FE888F11387E930BCB59F091E1EEF9CAF89DCD3247F9C6A3C4ABE557CAAD645E0A40AB1275B0C4B0AA3FCAE1D0B487AAFF24456252128212BB9512D15D5D95B48036
310
F8848716B7B03F9D316CCACB19F60855104F438DBB4BF7FE364DA448624A9CB7F1E6FD9374DDABF24DF82F7358C50B9995F675B51B6E0A07288A799E0B4A8A54601CCF76E34C65D31F504B0304140006080800CE4DB74AB2773C3855010000DD0200000C0000006662782F636F72652E786D6C8D52DB8E832014FC15C33BDE
310
EAA53648D336ED17ECD3BE51A42EA9824130FDFC052F717DD8EEC604C99C7366CE4C40C757DB7803533D97A204911F028F092A2B2EEA1218FD807BE01D315252EA1F6DC013A465257030C0A856D2743344A5D04C3854C88ACD20E97BA681471B7B29414FBF584B7C62B4EDE89F7E47E893D4CC8FFCA90F236378358FF2CAB2
310
F107670AE0EC9AA5599AE6300FAF054C8AF40C4FC9F90CAF9738BF44C9EDB4BB152870C31869DE2EEA5431A25905701C46390C5318EF3EC2E290648778FF8902D78951AF95F53C8B3A77003FEE2F144CF886CF74D5DF7C860BBD8B67BE69A20738B2EB8D058C02978FFD8DE16D33B4C2363F4DEECD62E169A181512D55622B
310
95346B69208D61963AF4C60F0553D5328F04BFF1C46F78DE73D8A088A8ED6A44DBEBDD68A7BEDDA9630A0EFAE509A95AD2ACCB4D2BAEE72AB4B1B48C53D948F59FE9C5EA1266E01E26FE06504B0304140006080800CE4DB74A1BCDA85F08010000B201000008000000636F72652E786D6C8D50CB6EC32010FC15B477FC7EC4
310
11268A23E70B7AEA8D1AE2A0D860018EDABF2FC4AED4DE7A5A3433BB330C397DCE137A0A63A5562DA4510248A84173A9C6165677C30740274A8CD6EE970C9062B36821C040C968F4BAECD0A095132AA04A73B183CC5AE1000D937FB46087BB9859C456E715F6112D6C78B0514469B4E9287172FE591D8C604E70A05992D638
310
297196BF25CDB1A88ED9E19DC44149C9BA4ABE5B49EEDDE54D0A03B4EAABB22ACB1AD749DFE0A2293B7C2EBA0EF797ACBEA4C5F59C5F1B1287654AAC33FECFFB119FD321CB9EC197C41B45C987D6D32EF0A138D26AFA029A9038107F42AF0BFF4768A95C9EED07B70D0B34F5815E84370E0DFAF1AAD7CFD036FD06504B0102
310
1400140006080800CE4DB74A0000000000000000000000003700000000000000000000000000000000006662782F34354135393635362D384143352D343046432D383131322D3545393335374637444245452F617474726962757465732E62696E504B01021400140006080800CE4DB74A0000000000000000000000003500
310
000000000000000000000000550000006662782F34354135393635362D384143352D343046432D383131322D3545393335374637444245452F76657274696365732E62696E504B01021400140006080800CE4DB74AF270F13306000000040000003600000000000000000000000000A80000006662782F3435413539363536
310
2D384143352D343046432D383131322D3545393335374637444245452F747269616E676C65732E62696E504B01021400140006080800CE4DB74A88E57597CD3F0000904100004200000000000000000000000000020100006662782F34354135393635362D384143352D343046432D383131322D3545393335374637444245
310
452F7265736F75726365732F322F305F67656E657269632E706E67504B01021400140006080800CE4DB74A51464CB4890000004301000036000000000000000000000000002F4100006662782F34354135393635362D384143352D343046432D383131322D3545393335374637444245452F6469726563746F72792E786D6C
310
504B01021400140006080800CE4DB74AE5F0D28D3B070000201C000034000000000000000000000000000C4200006662782F34354135393635362D384143352D343046432D383131322D3545393335374637444245452F6F626A656374732E786D6C504B01021400140006080800CE4DB74A2182BB3EE2000000550100003C
310
00000000000000000000000000994900006662782F34354135393635362D384143352D343046432D383131322D3545393335374637444245452F7265736F75726365732F322F636E782E786D6C504B01021400140006080800CE4DB74AFF15A4A45D000000800000003A00000000000000000000000000D54A00006662782F
310
34354135393635362D384143352D343046432D383131322D3545393335374637444245452F7265736F75726365732F636E782E786D6C504B01021400140006080800CE4DB74AECFDFC3C440100005605000030000000000000000000000000008A4B00006662782F34354135393635362D384143352D343046432D38313132
310
2D3545393335374637444245452F636E782E786D6C504B01021400140006080800CE4DB74ABB0785E07F000000A30000000B000000000000000000000000001C4D00006662782F636E782E786D6C504B01021400140006080800CE4DB74AA6D797065F000000820000000700000000000000000000000000C44D0000636E78
310
2E786D6C504B01021400140006080800CE4DB74AECFD112DA8000000260100001300000000000000000000000000484E00005B436F6E74656E745F54797065735D2E786D6C504B01021400140006080800CE4DB74A3DEE336E64000000790000001B00000000000000000000000000214F00006175746F6465736B2D646573
310
69676E2D7061636B6167652E786D6C504B01021400140006080800CE4DB74A152F254AF40000008E0100003D00000000000000000000000000BE4F00006662782F34354135393635362D384143352D343046432D383131322D3545393335374637444245452F7265736F75726365732F322F636F72652E786D6C504B010214
310
00140006080800CE4DB74ACD78B911F9000000960100003B000000000000000000000000000D5100006662782F34354135393635362D384143352D343046432D383131322D3545393335374637444245452F7265736F75726365732F636F72652E786D6C504B01021400140006080800CE4DB74A51948854F3000000B10100
310
0031000000000000000000000000005F5200006662782F34354135393635362D384143352D343046432D383131322D3545393335374637444245452F636F72652E786D6C504B01021400140006080800CE4DB74AB2773C3855010000DD0200000C00000000000000000000000000A15300006662782F636F72652E786D6C50
310
4B01021400140006080800CE4DB74A1BCDA85F08010000B2010000080000000000000000000000000020550000636F72652E786D6C504B050600000000120012002D0600004E5600000000
  0
XRECORD
  5
27
102
{ACAD_REACTORS
330
22
102
}
330
22
100
AcDbXrecord
280
     1
270
     1
271
     1
  0
XRECORD
  5
26
102
{ACAD_REACTORS
330
22
102
}
330
22
100
AcDbXrecord
280
     1
270
     1
271
     1
  0
XRECORD
  5
28
102
{ACAD_REACTORS
330
22
102
}
330
22
100
AcDbXrecord
280
     1
270
     1
271
     1
  0
XRECORD
  5
25
102
{ACAD_REACTORS
330
22
102
}
330
22
100
AcDbXrecord
280
     1
270
     1
271
     1
  0
XRECORD
  5
7554
102
{ACAD_REACTORS
330
739B
102
}
330
739B
100
AcDbXrecord
280
     1
102
DISPLAYNAME
  1
Metric50
102
FLAGS
 90
        0
  0
CELLSTYLEMAP
  5
7553
102
{ACAD_REACTORS
330
3473
102
}
330
3473
100
AcDbCellStyleMap
 90
        3
300
CELLSTYLE
  1
TABLEFORMAT_BEGIN
 90
        5
170
     1
 91
        0
 92
    32768
 62
   257
 93
        1
300
CONTENTFORMAT
  1
CONTENTFORMAT_BEGIN
 90
        0
 91
        0
 92
      512
 93
        0
300

 40
0.0
140
1.0
 94
        5
 62
     0
340
5D
144
0.25
309
CONTENTFORMAT_END
171
     1
301
MARGIN
  1
CELLMARGIN_BEGIN
 40
0.06
 40
0.06
 40
0.06
 40
0.06
 40
0.18
 40
0.18
309
CELLMARGIN_END
 94
        6
 95
        1
302
GRIDFORMAT
  1
GRIDFORMAT_BEGIN
 90
        0
 91
        1
 62
     0
 92
       -2
340
0
 93
        0
 40
0.045
309
GRIDFORMAT_END
 95
        2
302
GRIDFORMAT
  1
GRIDFORMAT_BEGIN
 90
        0
 91
        1
 62
     0
 92
       -2
340
0
 93
        0
 40
0.045
309
GRIDFORMAT_END
 95
        4
302
GRIDFORMAT
  1
GRIDFORMAT_BEGIN
 90
        0
 91
        1
 62
     0
 92
       -2
340
0
 93
        0
 40
0.045
309
GRIDFORMAT_END
 95
        8
302
GRIDFORMAT
  1
GRIDFORMAT_BEGIN
 90
        0
 91
        1
 62
     0
 92
       -2
340
0
 93
        0
 40
0.045
309
GRIDFORMAT_END
 95
       16
302
GRIDFORMAT
  1
GRIDFORMAT_BEGIN
 90
        0
 91
        1
 62
     0
 92
       -2
340
0
 93
        0
 40
0.045
309
GRIDFORMAT_END
 95
       32
302
GRIDFORMAT
  1
GRIDFORMAT_BEGIN
 90
        0
 91
        1
 62
     0
 92
       -2
340
0
 93
        0
 40
0.045
309
GRIDFORMAT_END
309
TABLEFORMAT_END
  1
CELLSTYLE_BEGIN
 90
        1
 91
        1
300
_TITLE
309
CELLSTYLE_END
300
CELLSTYLE
  1
TABLEFORMAT_BEGIN
 90
        5
170
     1
 91
        0
 92
        0
 62
   257
 93
        1
300
CONTENTFORMAT
  1
CONTENTFORMAT_BEGIN
 90
        0
 91
        0
 92
      512
 93
        0
300

 40
0.0
140
1.0
 94
        5
 62
     0
340
5D
144
0.18
309
CONTENTFORMAT_END
171
     1
301
MARGIN
  1
CELLMARGIN_BEGIN
 40
0.06
 40
0.06
 40
0.06
 40
0.06
 40
0.18
 40
0.18
309
CELLMARGIN_END
 94
        6
 95
        1
302
GRIDFORMAT
  1
GRIDFORMAT_BEGIN
 90
        0
 91
        1
 62
     0
 92
       -2
340
0
 93
        0
 40
0.045
309
GRIDFORMAT_END
 95
        2
302
GRIDFORMAT
  1
GRIDFORMAT_BEGIN
 90
        0
 91
        1
 62
     0
 92
       -2
340
0
 93
        0
 40
0.045
309
GRIDFORMAT_END
 95
        4
302
GRIDFORMAT
  1
GRIDFORMAT_BEGIN
 90
        0
 91
        1
 62
     0
 92
       -2
340
0
 93
        0
 40
0.045
309
GRIDFORMAT_END
 95
        8
302
GRIDFORMAT
  1
GRIDFORMAT_BEGIN
 90
        0
 91
        1
 62
     0
 92
       -2
340
0
 93
        0
 40
0.045
309
GRIDFORMAT_END
 95
       16
302
GRIDFORMAT
  1
GRIDFORMAT_BEGIN
 90
        0
 91
        1
 62
     0
 92
       -2
340
0
 93
        0
 40
0.045
309
GRIDFORMAT_END
 95
       32
302
GRIDFORMAT
  1
GRIDFORMAT_BEGIN
 90
        0
 91
        1
 62
     0
 92
       -2
340
0
 93
        0
 40
0.045
309
GRIDFORMAT_END
309
TABLEFORMAT_END
  1
CELLSTYLE_BEGIN
 90
        2
 91
        1
300
_HEADER
309
CELLSTYLE_END
300
CELLSTYLE
  1
TABLEFORMAT_BEGIN
 90
        5
170
     1
 91
        0
 92
        0
 62
   257
 93
        1
300
CONTENTFORMAT
  1
CONTENTFORMAT_BEGIN
 90
        0
 91
        0
 92
      512
 93
        0
300

 40
0.0
140
1.0
 94
        2
 62
     0
340
5D
144
0.18
309
CONTENTFORMAT_END
171
     1
301
MARGIN
  1
CELLMARGIN_BEGIN
 40
0.06
 40
0.06
 40
0.06
 40
0.06
 40
0.18
 40
0.18
309
CELLMARGIN_END
 94
        6
 95
        1
302
GRIDFORMAT
  1
GRIDFORMAT_BEGIN
 90
        0
 91
        1
 62
     0
 92
       -2
340
0
 93
        0
 40
0.045
309
GRIDFORMAT_END
 95
        2
302
GRIDFORMAT
  1
GRIDFORMAT_BEGIN
 90
        0
 91
        1
 62
     0
 92
       -2
340
0
 93
        0
 40
0.045
309
GRIDFORMAT_END
 95
        4
302
GRIDFORMAT
  1
GRIDFORMAT_BEGIN
 90
        0
 91
        1
 62
     0
 92
       -2
340
0
 93
        0
 40
0.045
309
GRIDFORMAT_END
 95
        8
302
GRIDFORMAT
  1
GRIDFORMAT_BEGIN
 90
        0
 91
        1
 62
     0
 92
       -2
340
0
 93
        0
 40
0.045
309
GRIDFORMAT_END
 95
       16
302
GRIDFORMAT
  1
GRIDFORMAT_BEGIN
 90
        0
 91
        1
 62
     0
 92
       -2
340
0
 93
        0
 40
0.045
309
GRIDFORMAT_END
 95
       32
302
GRIDFORMAT
  1
GRIDFORMAT_BEGIN
 90
        0
 91
        1
 62
     0
 92
       -2
340
0
 93
        0
 40
0.045
309
GRIDFORMAT_END
309
TABLEFORMAT_END
  1
CELLSTYLE_BEGIN
 90
        3
 91
        2
300
_DATA
309
CELLSTYLE_END
  0
ENDSEC
  0
SECTION
  2
ACDSDATA
 70
     2
 71
     8
  0
ACDSSCHEMA
 90
        0
  1
AcDb_Thumbnail_Schema
  2
AcDbDs::ID
280
    10
 91
        8
  2
Thumbnail_Data
280
    15
 91
        0
101
ACDSRECORD
 95
        0
 90
        1
  2
AcDbDs::TreatedAsObjectData
280
     1
291
     1
101
ACDSRECORD
 95
        0
 90
        2
  2
AcDbDs::Legacy
280
     1
291
     1
101
ACDSRECORD
  1
AcDbDs::ID
 90
        3
  2
AcDs:Indexable
280
     1
291
     1
101
ACDSRECORD
  1
AcDbDs::ID
 90
        4
  2
AcDbDs::HandleAttribute
280
     7
282
     1
  0
ACDSSCHEMA
 90
        1
  1
AcDbDs::TreatedAsObjectDataSchema
  2
AcDbDs::TreatedAsObjectData
280
     1
 91
        0
  0
ACDSSCHEMA
 90
        2
  1
AcDbDs::LegacySchema
  2
AcDbDs::Legacy
280
     1
 91
        0
  0
ACDSSCHEMA
 90
        3
  1
AcDbDs::IndexedPropertySchema
  2
AcDs:Indexable
280
     1
 91
        0
  0
ACDSSCHEMA
 90
        4
  1
AcDbDs::HandleAttributeSchema
  2
AcDbDs::HandleAttribute
280
     7
 91
        1
284
     1
  0
ACDSRECORD
 90
        0
  2
AcDbDs::ID
280
    10
320
77
  2
Thumbnail_Data
280
    15
 94
     1988
310
89504E470D0A1A0A0000000D4948445200000100000000800803000000D36B473800000300504C5445000000000000C8C8C80000000000000000000000000000000000000000000000000000330000660000990000CC0000FF0033000033330033660033990033CC0033FF0066000066330066660066990066CC0066FF0099
310
000099330099660099990099CC0099FF00CC0000CC3300CC6600CC9900CCCC00CCFF00FF0000FF3300FF6600FF9900FFCC00FFFF3300003300333300663300993300CC3300FF3333003333333333663333993333CC3333FF3366003366333366663366993366CC3366FF3399003399333399663399993399CC3399FF33CC00
310
33CC3333CC6633CC9933CCCC33CCFF33FF0033FF3333FF6633FF9933FFCC33FFFF6600006600336600666600996600CC6600FF6633006633336633666633996633CC6633FF6666006666336666666666996666CC6666FF6699006699336699666699996699CC6699FF66CC0066CC3366CC6666CC9966CCCC66CCFF66FF0066
310
FF3366FF6666FF9966FFCC66FFFF9900009900339900669900999900CC9900FF9933009933339933669933999933CC9933FF9966009966339966669966999966CC9966FF9999009999339999669999999999CC9999FF99CC0099CC3399CC6699CC9999CCCC99CCFF99FF0099FF3399FF6699FF9999FFCC99FFFFCC0000CC00
310
33CC0066CC0099CC00CCCC00FFCC3300CC3333CC3366CC3399CC33CCCC33FFCC6600CC6633CC6666CC6699CC66CCCC66FFCC9900CC9933CC9966CC9999CC99CCCC99FFCCCC00CCCC33CCCC66CCCC99CCCCCCCCCCFFCCFF00CCFF33CCFF66CCFF99CCFFCCCCFFFFFF0000FF0033FF0066FF0099FF00CCFF00FFFF3300FF3333
310
FF3366FF3399FF33CCFF33FFFF6600FF6633FF6666FF6699FF66CCFF66FFFF9900FF9933FF9966FF9999FF99CCFF99FFFFCC00FFCC33FFCC66FFCC99FFCCCCFFCCFFFFFF00FFFF33FFFF66FFFF99FFFFCCFFFFFF0000000D0D0D1A1A1A2828283535354343435050505D5D5D6B6B6B787878868686939393A1A1A1AEAEAEBB
310
BBBBC9C9C9D6D6D6E4E4E4F1F1F1FFFFFF00000000000000000000000000000000000000000000000000000000000008F1915C0000047F4944415478DAED9A499AB3201086EB067D0D36DC7FE7866BD435D837938649036804B4EAF93BDD7F8C49EAE5AB8101808C8C8C8C8CECA40921DC2F6BEEC9ECD5E036EFF2DCEE5B27
310
02001E88E06A8C2DA632A3FFEBE3EAC8E698F71F48BCB42F582F4F2E80C0C7CD272F08D291F698CC1E03D910081521D208D80088F99340E823F8F910C2315E5F9551C8EC39200A735F0BE1705B001FB13C25070423EA8FF8E7A2882B5E7ADFCC39200B00445C0613ED8827E400BFE28531BD05412ED4D7E0A14E928C8C8C8C
310
8C8C8C8C8C8CECC186EA1FDADFE6E775FEA341602020BE5401F06605D8F17F2400560A0011B106009B07005376E95B9AF79B06C0CF6CA210B85E017385C0646F4C0008C080DF135D99F4BAC4A901D476BCE8FA0384670070EED7747C7EA7F80C055401402702FFA6772960EB926755006BCC016CCE2AC09296BD754690BD6F
310
FCB9C0750DFDA4730196B4ECAD3382EC7DE3CF05D8B71C70451BC5CEBF050120003FCB810900C9658BD5011865112503402A004BAD69681500F4813279F83A061D01D4FB6F08F05200FA5019870C820E00D21CC05B04A009142B403BCE9525A7EDBCD1607D00B8685E1688BC833DB7A11E801E7EAE14A01F456F0049E631C1
310
B9B429A0303F0AE538289919B5891800F65580CD01B96186BDF187AF0A080128FF759531958673117F1937EFBA01C0FA499026C1E5E21CE003107AECD56BB97E90B104DCB6D32D49B01800EC69004A73400040BB0E1A80C59002B8B10AE02E00685100DF33C974CEFF00D0CF1D743F083729C0AC5CB164007EA00059A100FB
310
B5EE00607F720A80A5410347493004C0B71CA052402E04EE0160962E7365B0B90AEC9B4F23AA02322E494E008335425F0D0E1B211F80AE03AE0FD002C80030C2ECD707FCFDC9A386AFA9130C01B84658231052A665F05600E96448364E8624E76500F454D0D4062580E826F63982D615C035D361CC2EA94BFD099A8052BF90
310
207742A01B001D954D0B22EA9E30A3B91DA57853C526459D6B85F97BBC0511666A74B5A9B2C6730AB0E7A9C2177A72E0E3AD095EF625B63D453C70928D0E203786E59D16AE539B3297BBECA01C0340EFF192C5870C804FBC8F08606DCDCF2EB48C7B9EEE6B0EC0CB8EC37ADB64CCFFC8BE0A806F0AD8E2C03F257FD987F44F
310
824978B2FC486C35FD9213F2ACEAE99BD745776C6B6C9E0620139E470A682D8A830328F812DF73007B0C80FA6C5C791066EF03C60070C3A1F8B101BC5E0177DCC9B2538717035817C2FABB2F2593ADC60A9705C707D0B837C84F244C1C0640E30111B32F00F24CB48C0060DB17A85F155FE21D90191B213B843FD81EFFEE29
310
0EA100BD5E9DD91A2BDA193BDC1A93932441E930B4EC8E97EE0EEF0130F38C0100A4DBE385BBE3E7008C1202AB02788BC9E3CB530158EE0F819173C0611184F5AF27E40061AAC00FCE09CE93036AFB808F38E05C1F30C87478AF132C5640F364C82E35BE782E80A32C88988DFED299C085B3411807C0297BC2AAF0E0CB4E0F
310
F19F3102400008C0AB0900012000048000100002F04243C4570318671B9800740B81B70300CA0194032804A8117A71080CB303D22F04682E400008C00FEC1FFA3D653D2F2388FB0000000049454E44AE426082
  0
ENDSEC
  0
EOF
