  0
SECTION
  2
HEADER
  9
$ACADVER
  1
AC1027
  9
$ACADMAINTVER
 70
   105
  9
$DWGCODEPAGE
  3
ANSI_1252
  9
$LASTSAVEDBY
  1
guzb562
  9
$REQUIREDVERSIONS
160
                 0
  9
$INSBASE
 10
0.0
 20
0.0
 30
0.0
  9
$EXTMIN
 10
19.17320169664026
 20
-54.53253080037211
 30
-0.0000000000000058
  9
$EXTMAX
 10
225.2112156067988
 20
236.5187195765663
 30
0.0000000000000104
  9
$LIMMIN
 10
-246.88237
 20
-126.412494
  9
$LIMMAX
 10
494.831847
 20
347.8374999999999
  9
$ORTHOMODE
 70
     0
  9
$REGENMODE
 70
     1
  9
$FILLMODE
 70
     1
  9
$QTEXTMODE
 70
     0
  9
$MIRRTEXT
 70
     0
  9
$LTSCALE
 40
20.0
  9
$ATTMODE
 70
     1
  9
$TEXTSIZE
 40
3.5
  9
$TRACEWID
 40
0.05
  9
$TEXTSTYLE
  7
STANDARD
  9
$CLAYER
  8
AM_3
  9
$CELTYPE
  6
ByLayer
  9
$CECOLOR
 62
   256
  9
$CELTSCALE
 40
1.0
  9
$DISPSILH
 70
     0
  9
$DIMSCALE
 40
1.0
  9
$DIMASZ
 40
0.1
  9
$DIMEXO
 40
0.05
  9
$DIMDLI
 40
0.5
  9
$DIMRND
 40
0.0
  9
$DIMDLE
 40
0.0
  9
$DIMEXE
 40
0.1
  9
$DIMTP
 40
0.1
  9
$DIMTM
 40
0.1
  9
$DIMTXT
 40
0.12
  9
$DIMCEN
 40
0.0
  9
$DIMTSZ
 40
0.0
  9
$DIMTOL
 70
     0
  9
$DIMLIM
 70
     0
  9
$DIMTIH
 70
     1
  9
$DIMTOH
 70
     1
  9
$DIMSE1
 70
     0
  9
$DIMSE2
 70
     0
  9
$DIMTAD
 70
     0
  9
$DIMZIN
 70
     7
  9
$DIMBLK
  1

  9
$DIMASO
 70
     1
  9
$DIMSHO
 70
     1
  9
$DIMPOST
  1

  9
$DIMAPOST
  1
mm
  9
$DIMALT
 70
     0
  9
$DIMALTD
 70
     2
  9
$DIMALTF
 40
25.4
  9
$DIMLFAC
 40
1.0
  9
$DIMTOFL
 70
     0
  9
$DIMTVP
 40
0.0
  9
$DIMTIX
 70
     0
  9
$DIMSOXD
 70
     0
  9
$DIMSAH
 70
     0
  9
$DIMBLK1
  1

  9
$DIMBLK2
  1

  9
$DIMSTYLE
  2
AM_ANSI
  9
$DIMCLRD
 70
   256
  9
$DIMCLRE
 70
   256
  9
$DIMCLRT
 70
     2
  9
$DIMTFAC
 40
0.71
  9
$DIMGAP
 40
0.06
  9
$DIMJUST
 70
     0
  9
$DIMSD1
 70
     0
  9
$DIMSD2
 70
     0
  9
$DIMTOLJ
 70
     1
  9
$DIMTZIN
 70
     7
  9
$DIMALTZ
 70
     0
  9
$DIMALTTZ
 70
     0
  9
$DIMUPT
 70
     0
  9
$DIMDEC
 70
     4
  9
$DIMTDEC
 70
     4
  9
$DIMALTU
 70
     2
  9
$DIMALTTD
 70
     4
  9
$DIMTXSTY
  7
STANDARD
  9
$DIMAUNIT
 70
     0
  9
$DIMADEC
 70
     0
  9
$DIMALTRND
 40
0.0
  9
$DIMAZIN
 70
     2
  9
$DIMDSEP
 70
    46
  9
$DIMATFIT
 70
     3
  9
$DIMFRAC
 70
     0
  9
$DIMLDRBLK
  1

  9
$DIMLUNIT
 70
     2
  9
$DIMLWD
 70
    -1
  9
$DIMLWE
 70
    -1
  9
$DIMTMOVE
 70
     0
  9
$DIMFXL
 40
1.0
  9
$DIMFXLON
 70
     0
  9
$DIMJOGANG
 40
0.7853981633974483
  9
$DIMTFILL
 70
     0
  9
$DIMTFILLCLR
 70
     0
  9
$DIMARCSYM
 70
     1
  9
$DIMLTYPE
  6

  9
$DIMLTEX1
  6

  9
$DIMLTEX2
  6

  9
$DIMTXTDIRECTION
 70
     0
  9
$LUNITS
 70
     2
  9
$LUPREC
 70
     2
  9
$SKETCHINC
 40
0.1
  9
$FILLETRAD
 40
50.0
  9
$AUNITS
 70
     0
  9
$AUPREC
 70
     0
  9
$MENU
  1
acad
  9
$ELEVATION
 40
0.0
  9
$PELEVATION
 40
0.0
  9
$THICKNESS
 40
0.0
  9
$LIMCHECK
 70
     0
  9
$CHAMFERA
 40
50.0
  9
$CHAMFERB
 40
50.0
  9
$CHAMFERC
 40
0.0
  9
$CHAMFERD
 40
0.0
  9
$SKPOLY
 70
     0
  9
$TDCREATE
 40
2311947.891283322
  9
$TDUCREATE
 40
2311947.807949989
  9
$TDUPDATE
 40
2457982.516426632
  9
$TDUUPDATE
 40
2457982.433093299
  9
$TDINDWG
 40
0.3698160880
  9
$TDUSRTIMER
 40
0.3698157292
  9
$USRTIMER
 70
     1
  9
$ANGBASE
 50
0.0
  9
$ANGDIR
 70
     0
  9
$PDMODE
 70
     0
  9
$PDSIZE
 40
0.0
  9
$PLINEWID
 40
0.0
  9
$SPLFRAME
 70
     1
  9
$SPLINETYPE
 70
     6
  9
$SPLINESEGS
 70
    10
  9
$HANDSEED
  5
DAA
  9
$SURFTAB1
 70
     6
  9
$SURFTAB2
 70
     6
  9
$SURFTYPE
 70
     6
  9
$SURFU
 70
     6
  9
$SURFV
 70
     6
  9
$UCSBASE
  2

  9
$UCSNAME
  2

  9
$UCSORG
 10
0.0
 20
0.0
 30
0.0
  9
$UCSXDIR
 10
1.0
 20
0.0
 30
0.0
  9
$UCSYDIR
 10
0.0
 20
1.0
 30
0.0
  9
$UCSORTHOREF
  2

  9
$UCSORTHOVIEW
 70
     0
  9
$UCSORGTOP
 10
0.0
 20
0.0
 30
0.0
  9
$UCSORGBOTTOM
 10
0.0
 20
0.0
 30
0.0
  9
$UCSORGLEFT
 10
0.0
 20
0.0
 30
0.0
  9
$UCSORGRIGHT
 10
0.0
 20
0.0
 30
0.0
  9
$UCSORGFRONT
 10
0.0
 20
0.0
 30
0.0
  9
$UCSORGBACK
 10
0.0
 20
0.0
 30
0.0
  9
$PUCSBASE
  2

  9
$PUCSNAME
  2

  9
$PUCSORG
 10
0.0
 20
0.0
 30
0.0
  9
$PUCSXDIR
 10
1.0
 20
0.0
 30
0.0
  9
$PUCSYDIR
 10
0.0
 20
1.0
 30
0.0
  9
$PUCSORTHOREF
  2

  9
$PUCSORTHOVIEW
 70
     0
  9
$PUCSORGTOP
 10
0.0
 20
0.0
 30
0.0
  9
$PUCSORGBOTTOM
 10
0.0
 20
0.0
 30
0.0
  9
$PUCSORGLEFT
 10
0.0
 20
0.0
 30
0.0
  9
$PUCSORGRIGHT
 10
0.0
 20
0.0
 30
0.0
  9
$PUCSORGFRONT
 10
0.0
 20
0.0
 30
0.0
  9
$PUCSORGBACK
 10
0.0
 20
0.0
 30
0.0
  9
$USERI1
 70
     0
  9
$USERI2
 70
     0
  9
$USERI3
 70
     0
  9
$USERI4
 70
     0
  9
$USERI5
 70
     0
  9
$USERR1
 40
0.0
  9
$USERR2
 40
0.0
  9
$USERR3
 40
0.0
  9
$USERR4
 40
0.0
  9
$USERR5
 40
0.0
  9
$WORLDVIEW
 70
     1
  9
$SHADEDGE
 70
     3
  9
$SHADEDIF
 70
    70
  9
$TILEMODE
 70
     1
  9
$MAXACTVP
 70
    64
  9
$PINSBASE
 10
0.0
 20
0.0
 30
0.0
  9
$PLIMCHECK
 70
     0
  9
$PEXTMIN
 10
1.000000000000000E+20
 20
1.000000000000000E+20
 30
1.000000000000000E+20
  9
$PEXTMAX
 10
-1.000000000000000E+20
 20
-1.000000000000000E+20
 30
-1.000000000000000E+20
  9
$PLIMMIN
 10
0.0
 20
0.0
  9
$PLIMMAX
 10
12.0
 20
9.0
  9
$UNITMODE
 70
     0
  9
$VISRETAIN
 70
     1
  9
$PLINEGEN
 70
     0
  9
$PSLTSCALE
 70
     1
  9
$TREEDEPTH
 70
  3020
  9
$CMLSTYLE
  2
Standard
  9
$CMLJUST
 70
     0
  9
$CMLSCALE
 40
1.0
  9
$PROXYGRAPHICS
 70
     1
  9
$MEASUREMENT
 70
     0
  9
$CELWEIGHT
370
    -1
  9
$ENDCAPS
280
     0
  9
$JOINSTYLE
280
     0
  9
$LWDISPLAY
290
     0
  9
$INSUNITS
 70
     0
  9
$HYPERLINKBASE
  1

  9
$STYLESHEET
  1
OASE.ctb
  9
$XEDIT
290
     1
  9
$CEPSNTYPE
380
     0
  9
$PSTYLEMODE
290
     1
  9
$FINGERPRINTGUID
  2
{858A144E-25D6-11D6-A63C-00B0D0796DB7}
  9
$VERSIONGUID
  2
{FD6C800F-84EB-43A1-B005-E9DA2265B3D6}
  9
$EXTNAMES
290
     1
  9
$PSVPSCALE
 40
0.0
  9
$OLESTARTUP
290
     0
  9
$SORTENTS
280
   127
  9
$INDEXCTL
280
     0
  9
$HIDETEXT
280
     0
  9
$XCLIPFRAME
280
     0
  9
$HALOGAP
280
     0
  9
$OBSCOLOR
 70
   257
  9
$OBSLTYPE
280
     0
  9
$INTERSECTIONDISPLAY
280
     0
  9
$INTERSECTIONCOLOR
 70
   257
  9
$DIMASSOC
280
     2
  9
$PROJECTNAME
  1

  9
$CAMERADISPLAY
290
     0
  9
$LENSLENGTH
 40
50.0
  9
$CAMERAHEIGHT
 40
0.0
  9
$STEPSPERSEC
 40
2.0
  9
$STEPSIZE
 40
6.0
  9
$3DDWFPREC
 40
2.0
  9
$PSOLWIDTH
 40
0.25
  9
$PSOLHEIGHT
 40
4.0
  9
$LOFTANG1
 40
1.570796326794896
  9
$LOFTANG2
 40
1.570796326794896
  9
$LOFTMAG1
 40
0.0
  9
$LOFTMAG2
 40
0.0
  9
$LOFTPARAM
 70
     7
  9
$LOFTNORMALS
280
     1
  9
$LATITUDE
 40
37.795
  9
$LONGITUDE
 40
-122.394
  9
$NORTHDIRECTION
 40
0.0
  9
$TIMEZONE
 70
 -8000
  9
$LIGHTGLYPHDISPLAY
280
     1
  9
$TILEMODELIGHTSYNCH
280
     1
  9
$CMATERIAL
347
243
  9
$SOLIDHIST
280
     1
  9
$SHOWHIST
280
     1
  9
$DWFFRAME
280
     2
  9
$DGNFRAME
280
     0
  9
$REALWORLDSCALE
290
     1
  9
$INTERFERECOLOR
 62
     1
  9
$INTERFEREOBJVS
345
265
  9
$INTERFEREVPVS
346
A8D
  9
$CSHADOW
280
     0
  9
$SHADOWPLANELOCATION
 40
0.0
  0
ENDSEC
  0
SECTION
  2
CLASSES
  0
CLASS
  1
ACDBDICTIONARYWDFLT
  2
AcDbDictionaryWithDefault
  3
ObjectDBX Classes
 90
        0
 91
        1
280
     0
281
     0
  0
CLASS
  1
MATERIAL
  2
AcDbMaterial
  3
ObjectDBX Classes
 90
     1153
 91
        3
280
     0
281
     0
  0
CLASS
  1
VISUALSTYLE
  2
AcDbVisualStyle
  3
ObjectDBX Classes
 90
     4095
 91
       26
280
     0
281
     0
  0
CLASS
  1
TABLESTYLE
  2
AcDbTableStyle
  3
ObjectDBX Classes
 90
     4095
 91
        1
280
     0
281
     0
  0
CLASS
  1
SCALE
  2
AcDbScale
  3
ObjectDBX Classes
 90
     1153
 91
       33
280
     0
281
     0
  0
CLASS
  1
MLEADERSTYLE
  2
AcDbMLeaderStyle
  3
ACDB_MLEADERSTYLE_CLASS
 90
     4095
 91
        1
280
     0
281
     0
  0
CLASS
  1
AMGSETTINGSOBJ
  2
AmgSettingsObj
  3
"AcadM|Product Description: AutoCAD Mechanical|Company: Autodesk, Inc."
 90
     1024
 91
        3
280
     0
281
     0
  0
CLASS
  1
ACME_DOCUMENT
  2
AcMeDbDoc
  3
AcMeServices
 90
     1024
 91
        1
280
     0
281
     0
  0
CLASS
  1
ACMESCOPE
  2
AcMeScope
  3
AcMeServices
 90
     1024
 91
        1
280
     0
281
     0
  0
CLASS
  1
ACMECOMMANDHISTORY
  2
AcMeCommandHistory
  3
AcMeServices
 90
     1024
 91
        1
280
     0
281
     0
  0
CLASS
  1
ACIMSYSVARMAN
  2
AcImSysVarManager
  3
AcMeServices
 90
     1024
 91
        5
280
     0
281
     0
  0
CLASS
  1
ACIMINTSYSVAR
  2
AcImIntSysVar
  3
AcMeServices
 90
     1024
 91
       28
280
     0
281
     0
  0
CLASS
  1
ACMEDRAWINGMAN
  2
AcMeDrawingMan
  3
AcMeServices
 90
     1024
 91
        0
280
     0
281
     0
  0
CLASS
  1
ACMEVIEW
  2
AcMeView
  3
AcMeServices
 90
     1024
 91
        0
280
     0
281
     0
  0
CLASS
  1
ACDBENTITYCACHE
  2
AcMeEntityCache
  3
AcMeServices
 90
     1024
 91
        1
280
     0
281
     0
  0
CLASS
  1
GSMANAGER
  2
AcMeGSManager
  3
AcMeServices
 90
     1024
 91
        0
280
     0
281
     0
  0
CLASS
  1
AMDTINTERNALREACTOR
  2
AmdtInternalReactor
  3
AcMeServices
 90
     1024
 91
        1
280
     0
281
     0
  0
CLASS
  1
ACMESTATEMGR
  2
AcMeStateMgr
  3
AcMeServices
 90
     1024
 91
        1
280
     0
281
     0
  0
CLASS
  1
ACGREFMASTER
  2
AcGrefMaster
  3
AcAttribServices
 90
     1024
 91
        1
280
     0
281
     0
  0
CLASS
  1
AM_DRAWING_MGR
  2
AcDmDwgMgr
  3
AcMechDwgViewMgmt
 90
     1024
 91
        1
280
     0
281
     0
  0
CLASS
  1
AM_DWG_DOCUMENT
  2
AcDmDwgDocument
  3
AcMechDwgViewMgmt
 90
     1024
 91
        1
280
     0
281
     0
  0
CLASS
  1
AM_DWG_SHEET
  2
AcDmSheet
  3
AcMechDwgViewMgmt
 90
     1024
 91
        1
280
     0
281
     0
  0
CLASS
  1
AM_VIEWDIMPARMAP
  2
AcDmViewDimParMap
  3
AcMechDwgViewMgmt
 90
     1024
 91
        1
280
     0
281
     0
  0
CLASS
  1
ACIMREALSYSVAR
  2
AcImRealSysVar
  3
AcMeServices
 90
     1024
 91
        1
280
     0
281
     0
  0
CLASS
  1
AM_DWGMGR_NAME
  2
AcDmDwgMgrName
  3
AcMechDwgViewMgmt
 90
     1024
 91
        1
280
     0
281
     0
  0
CLASS
  1
ACME_DATABASE
  2
AcMeDbDatabase
  3
AcMeServices
 90
     1024
 91
        1
280
     0
281
     0
  0
CLASS
  1
ACRFINSADJUSTERMGR
  2
AcRfInsAdjusterMgr
  3
AcMeServices
 90
     1024
 91
        1
280
     0
281
     0
  0
CLASS
  1
ACGREFACADMASTER
  2
AcGrefacadMaster
  3
AcGrefServices
 90
     1024
 91
        1
280
     0
281
     0
  0
CLASS
  1
AMDTMENUSTATEMGR
  2
AmdtMenuStateMgr
  3
McadcomServices
 90
     1024
 91
        1
280
     0
281
     0
  0
CLASS
  1
AMDTMCOMMENUSTATE
  2
AmdtMcomMenuState
  3
McadcomServices
 90
     1024
 91
        1
280
     0
281
     0
  0
CLASS
  1
AMIMASTER
  2
AmiMaster
  3
AmiServices
 90
     1024
 91
        1
280
     0
281
     0
  0
CLASS
  1
MAPIAMMOUDLE
  2
MApiAmModule
  3
MApiAmServices
 90
     1024
 91
        1
280
     0
281
     0
  0
CLASS
  1
ACIMSTRSYSVAR
  2
AcImStrSysVar
  3
AcMeServices
 90
     1024
 91
        5
280
     0
281
     0
  0
CLASS
  1
AMDTADMENUSTATE
  2
AmdtAdMenuState
  3
DesignerServices
 90
     1024
 91
        0
280
     0
281
     0
  0
CLASS
  1
ADAPPL
  2
AcAdAppl
  3
DesignerAssemblies
 90
     1024
 91
        0
280
     0
281
     0
  0
CLASS
  1
DEPMGR
  2
AcAdDepMgr
  3
DesignerAssemblies
 90
     1024
 91
        0
280
     0
281
     0
  0
CLASS
  1
PARAMMGR
  2
AcAdParamMgr
  3
DesignerAssemblies
 90
     1024
 91
        0
280
     0
281
     0
  0
CLASS
  1
PARAMSCOPE
  2
AcAdParamScope
  3
DesignerAssemblies
 90
     1024
 91
        0
280
     0
281
     0
  0
CLASS
  1
NAMEDAPPL
  2
AcAdNamedAppl
  3
DesignerAssemblies
 90
     1024
 91
        0
280
     0
281
     0
  0
CLASS
  1
AMDTDMMENUSTATE
  2
AmdtDmMenuState
  3
AcMechDwgViewMgmt
 90
     1024
 91
        0
280
     0
281
     0
  0
CLASS
  1
AMDTAMMENUSTATE
  2
AmdtAmMenuState
  3
DesignerAssemblies
 90
     1024
 91
        1
280
     0
281
     0
  0
CLASS
  1
ACAMPROJECT
  2
AcAmProject
  3
DesignerAssemblies
 90
     1024
 91
        1
280
     0
281
     0
  0
CLASS
  1
ACAMGRCOMPDEF
  2
AcAmGrCompDef
  3
DesignerAssemblies
 90
     1024
 91
        1
280
     0
281
     0
  0
CLASS
  1
ACCMCONTEXT
  2
AcCmContext
  3
DesignerAssemblies
 90
     1024
 91
        1
280
     0
281
     0
  0
CLASS
  1
ACAMCOMPDEF
  2
AcAmCompDef
  3
DesignerAssemblies
 90
     1024
 91
        1
280
     0
281
     0
  0
CLASS
  1
ACAMCOMPDEFMGR
  2
AcAmCompDefMgr
  3
DesignerAssemblies
 90
     1024
 91
        1
280
     0
281
     0
  0
CLASS
  1
AMCONTEXTMGR
  2
AcAmContextMgr
  3
DesignerAssemblies
 90
     1024
 91
        1
280
     0
281
     0
  0
CLASS
  1
ACAMCONTEXTMODELER
  2
AcAmContextModeler
  3
DesignerAssemblies
 90
     1024
 91
        1
280
     0
281
     0
  0
CLASS
  1
ACMDATADICTIONARY
  2
AcmDataDictionary
  3
"AcmSymBB|Product Description: AutoCAD Mechanical|Company: Autodesk, Inc."
 90
     1024
 91
        1
280
     0
281
     0
  0
CLASS
  1
CATALOGSTATE
  2
AcAmCatalogState
  3
DesignerAssemblies
 90
     1024
 91
        0
280
     0
281
     0
  0
CLASS
  1
ACAMGRCOMPDEFSET
  2
AcAmGrCompDefSet
  3
DesignerAssemblies
 90
     1024
 91
        1
280
     0
281
     0
  0
CLASS
  1
AMDTBROWSERDBTAB
  2
AmdtBrowserDbTab
  3
McadcomServices
 90
     1024
 91
        1
280
     0
281
     0
  0
CLASS
  1
CBROWSERAPPOBJECT
  2
CBrowserAppObject
  3
McadcomServices
 90
     1024
 91
        2
280
     0
281
     0
  0
CLASS
  1
DM_PLACEHOLDER
  2
AcDmSelsetPlaceholder
  3
McadcomServices
 90
     1024
 91
        1
280
     0
281
     0
  0
CLASS
  1
ACMSTANDARDANSI
  2
AcmStandardANSI
  3
"Amdt_StdImp|Product Description: AutoCAD Mechanical|Company: Autodesk, Inc."
 90
     1024
 91
        1
280
     0
281
     0
  0
CLASS
  1
AMGOBJPROPCFG
  2
AmgObjPropCfg
  3
"AmgLay|Product Description: AutoCAD Mechanical|Company: Autodesk, Inc."
 90
     1024
 91
        1
280
     0
281
     0
  0
CLASS
  1
ACMSURFSTANDARDANSI
  2
AcmSurfTextStdANSI
  3
"Amdt_StdImp|Product Description: AutoCAD Mechanical|Company: Autodesk, Inc."
 90
     1024
 91
        1
280
     0
281
     0
  0
CLASS
  1
ACMFCFSTANDARDANSI
  2
AcmFCFStdANSI
  3
"Amdt_StdImp|Product Description: AutoCAD Mechanical|Company: Autodesk, Inc."
 90
     1024
 91
        1
280
     0
281
     0
  0
CLASS
  1
ACMWELDSTANDARDANSI
  2
AcmWeldingStdANSI
  3
"Amdt_StdImp|Product Description: AutoCAD Mechanical|Company: Autodesk, Inc."
 90
     1024
 91
        1
280
     0
281
     0
  0
CLASS
  1
ACMIDSTANDARDANSI
  2
AcmIdStdANSI
  3
"Amdt_StdImp|Product Description: AutoCAD Mechanical|Company: Autodesk, Inc."
 90
     1024
 91
        1
280
     0
281
     0
  0
CLASS
  1
ACMDATUMSTANDARDANSI
  2
AcmDatumStdANSI
  3
"Amdt_StdImp|Product Description: AutoCAD Mechanical|Company: Autodesk, Inc."
 90
     1024
 91
        1
280
     0
281
     0
  0
CLASS
  1
ACMBOMSTANDARDANSI
  2
AcmBOMStdANSI
  3
"Amdt_StdImp|Product Description: AutoCAD Mechanical|Company: Autodesk, Inc."
 90
     1024
 91
        1
280
     0
281
     0
  0
CLASS
  1
ACMDETAILSTANDARDANSI
  2
AmdtDetailSymStdANSI
  3
"Amdt_StdImp|Product Description: AutoCAD Mechanical|Company: Autodesk, Inc."
 90
     1024
 91
        1
280
     0
281
     0
  0
CLASS
  1
ACMSECTIONSTANDARDANSI
  2
AmdtSectionSymStdANSI
  3
"Amdt_StdImp|Product Description: AutoCAD Mechanical|Company: Autodesk, Inc."
 90
     1024
 91
        1
280
     0
281
     0
  0
CLASS
  1
ACMCENTERLINESTANDARDANSI
  2
AmdtCenterLineStdANSI
  3
"Amdt_StdImp|Product Description: AutoCAD Mechanical|Company: Autodesk, Inc."
 90
     1024
 91
        1
280
     0
281
     0
  0
CLASS
  1
ACMTHREADLINESTANDARDANSI
  2
AmdtThreadLineStdANSI
  3
"Amdt_StdImp|Product Description: AutoCAD Mechanical|Company: Autodesk, Inc."
 90
     1024
 91
        1
280
     0
281
     0
  0
CLASS
  1
ACMNOTESTANDARDANSI
  2
AmdtNoteStdANSI
  3
"Amdt_StdImp|Product Description: AutoCAD Mechanical|Company: Autodesk, Inc."
 90
     1024
 91
        1
280
     0
281
     0
  0
CLASS
  1
ACMTAPERSTANDARDANSI
  2
AcmTaperStdANSI
  3
"Amdt_StdImp|Product Description: AutoCAD Mechanical|Company: Autodesk, Inc."
 90
     1024
 91
        1
280
     0
281
     0
  0
CLASS
  1
ACMANOOTATIONVIEWSTANDARDANSI
  2
AmdtAnViewStdANSI
  3
"Amdt_StdImp|Product Description: AutoCAD Mechanical|Company: Autodesk, Inc."
 90
     1024
 91
        1
280
     0
281
     0
  0
CLASS
  1
AMDTNOTETEMPLATEDB
  2
AmdtNoteTemplateDB
  3
AcmSymBB|Product Description: AutoCAD Mechanical|Company: Autodesk, Inc.
 90
     1024
 91
        6
280
     0
281
     0
  0
CLASS
  1
ACAMGLAYSTD
  2
AcAmgLayStd
  3
"AmgLay|Product Description: AutoCAD Mechanical|Company: Autodesk, Inc."
 90
     1024
 91
        1
280
     0
281
     0
  0
CLASS
  1
ACAMGDIMSTD
  2
AcAmgDimStd
  3
"AmgDim|Product Description: AutoCAD Mechanical|Company: Autodesk, Inc."
 90
     1024
 91
        1
280
     0
281
     0
  0
CLASS
  1
ACAMGHOLECHARTSTDANSI
  2
AcAmgHoleChartStdANSI
  3
AmgDim|Product Description: AutoCAD Mechanical|Company: Autodesk, Inc.
 90
     1024
 91
        1
280
     0
281
     0
  0
CLASS
  1
ACAMGTITLESTD
  2
AcAmgTitleStd
  3
"AmgTitle|Product Description: AutoCAD Mechanical|Company: Autodesk, Inc."
 90
     1024
 91
        1
280
     0
281
     0
  0
CLASS
  1
ACMSTANDARDDIN
  2
AcmStandardDIN
  3
"Amdt_StdImp|Product Description: AutoCAD Mechanical|Company: Autodesk, Inc."
 90
     1024
 91
        0
280
     0
281
     0
  0
CLASS
  1
AMDTEDGESTANDARDDIN13715
  2
AmdtEdgeStdDIN13715
  3
"Amdt_StdImp|Product Description: AutoCAD Mechanical|Company: Autodesk, Inc."
 90
     1024
 91
        0
280
     0
281
     0
  0
CLASS
  1
ACMSURFSTANDARDDIN2002
  2
AcmSurfTextStdDIN2002
  3
"Amdt_StdImp|Product Description: AutoCAD Mechanical|Company: Autodesk, Inc."
 90
     1024
 91
        0
280
     0
281
     0
  0
CLASS
  1
ACMFCFSTANDARDDIN
  2
AcmFCFStdDIN
  3
"Amdt_StdImp|Product Description: AutoCAD Mechanical|Company: Autodesk, Inc."
 90
     1024
 91
        0
280
     0
281
     0
  0
CLASS
  1
ACMWELDSTANDARDDIN
  2
AcmWeldingStdDIN
  3
"Amdt_StdImp|Product Description: AutoCAD Mechanical|Company: Autodesk, Inc."
 90
     1024
 91
        0
280
     0
281
     0
  0
CLASS
  1
ACMIDSTANDARDDIN
  2
AcmIdStdDIN
  3
"Amdt_StdImp|Product Description: AutoCAD Mechanical|Company: Autodesk, Inc."
 90
     1024
 91
        0
280
     0
281
     0
  0
CLASS
  1
ACMDATUMSTANDARDDIN
  2
AcmDatumStdDIN
  3
"Amdt_StdImp|Product Description: AutoCAD Mechanical|Company: Autodesk, Inc."
 90
     1024
 91
        0
280
     0
281
     0
  0
CLASS
  1
ACMBOMSTANDARDDIN
  2
AcmBOMStdDIN
  3
"Amdt_StdImp|Product Description: AutoCAD Mechanical|Company: Autodesk, Inc."
 90
     1024
 91
        0
280
     0
281
     0
  0
CLASS
  1
ACMDETAILSTANDARDDIN
  2
AmdtDetailSymStdDIN
  3
"Amdt_StdImp|Product Description: AutoCAD Mechanical|Company: Autodesk, Inc."
 90
     1024
 91
        0
280
     0
281
     0
  0
CLASS
  1
ACMSECTIONSTANDARDDIN
  2
AmdtSectionSymStdDIN
  3
"Amdt_StdImp|Product Description: AutoCAD Mechanical|Company: Autodesk, Inc."
 90
     1024
 91
        0
280
     0
281
     0
  0
CLASS
  1
ACMCENTERLINESTANDARDDIN
  2
AmdtCenterLineStdDIN
  3
"Amdt_StdImp|Product Description: AutoCAD Mechanical|Company: Autodesk, Inc."
 90
     1024
 91
        0
280
     0
281
     0
  0
CLASS
  1
ACMTHREADLINESTANDARDDIN
  2
AmdtThreadLineStdDIN
  3
"Amdt_StdImp|Product Description: AutoCAD Mechanical|Company: Autodesk, Inc."
 90
     1024
 91
        0
280
     0
281
     0
  0
CLASS
  1
ACMNOTESTANDARDDIN
  2
AmdtNoteStdDIN
  3
"Amdt_StdImp|Product Description: AutoCAD Mechanical|Company: Autodesk, Inc."
 90
     1024
 91
        0
280
     0
281
     0
  0
CLASS
  1
ACMTAPERSTANDARDDIN
  2
AcmTaperStdDIN
  3
"Amdt_StdImp|Product Description: AutoCAD Mechanical|Company: Autodesk, Inc."
 90
     1024
 91
        0
280
     0
281
     0
  0
CLASS
  1
ACMANOOTATIONVIEWSTANDARDDIN
  2
AmdtAnViewStdDIN
  3
"Amdt_StdImp|Product Description: AutoCAD Mechanical|Company: Autodesk, Inc."
 90
     1024
 91
        0
280
     0
281
     0
  0
CLASS
  1
ACAMGHOLECHARTSTDDIN
  2
AcAmgHoleChartStdDIN
  3
AmgDim|Product Description: AutoCAD Mechanical|Company: Autodesk, Inc.
 90
     1024
 91
        0
280
     0
281
     0
  0
CLASS
  1
ACMSTANDARDISO
  2
AcmStandardISO
  3
"Amdt_StdImp|Product Description: AutoCAD Mechanical|Company: Autodesk, Inc."
 90
     1024
 91
        0
280
     0
281
     0
  0
CLASS
  1
AMDTEDGESTANDARDISO
  2
AmdtEdgeStdISO
  3
"Amdt_StdImp|Product Description: AutoCAD Mechanical|Company: Autodesk, Inc."
 90
     1024
 91
        0
280
     0
281
     0
  0
CLASS
  1
ACMSURFSTANDARDISO2002
  2
AcmSurfTextStdISO2002
  3
"Amdt_StdImp|Product Description: AutoCAD Mechanical|Company: Autodesk, Inc."
 90
     1024
 91
        0
280
     0
281
     0
  0
CLASS
  1
ACMFCFSTANDARDISO
  2
AcmFCFStdISO
  3
"Amdt_StdImp|Product Description: AutoCAD Mechanical|Company: Autodesk, Inc."
 90
     1024
 91
        0
280
     0
281
     0
  0
CLASS
  1
ACMWELDSTANDARDISO
  2
AcmWeldingStdISO
  3
"Amdt_StdImp|Product Description: AutoCAD Mechanical|Company: Autodesk, Inc."
 90
     1024
 91
        0
280
     0
281
     0
  0
CLASS
  1
ACMIDSTANDARDISO
  2
AcmIdStdISO
  3
"Amdt_StdImp|Product Description: AutoCAD Mechanical|Company: Autodesk, Inc."
 90
     1024
 91
        0
280
     0
281
     0
  0
CLASS
  1
ACMDATUMSTANDARDISO
  2
AcmDatumStdISO
  3
"Amdt_StdImp|Product Description: AutoCAD Mechanical|Company: Autodesk, Inc."
 90
     1024
 91
        0
280
     0
281
     0
  0
CLASS
  1
ACMBOMSTANDARDISO
  2
AcmBOMStdISO
  3
"Amdt_StdImp|Product Description: AutoCAD Mechanical|Company: Autodesk, Inc."
 90
     1024
 91
        0
280
     0
281
     0
  0
CLASS
  1
ACMDETAILSTANDARDISO
  2
AmdtDetailSymStdISO
  3
"Amdt_StdImp|Product Description: AutoCAD Mechanical|Company: Autodesk, Inc."
 90
     1024
 91
        0
280
     0
281
     0
  0
CLASS
  1
ACMSECTIONSTANDARDISO2001
  2
AmdtSectionSymStdISO2001
  3
"Amdt_StdImp|Product Description: AutoCAD Mechanical|Company: Autodesk, Inc."
 90
     1024
 91
        0
280
     0
281
     0
  0
CLASS
  1
ACMCENTERLINESTANDARDISO
  2
AmdtCenterLineStdISO
  3
"Amdt_StdImp|Product Description: AutoCAD Mechanical|Company: Autodesk, Inc."
 90
     1024
 91
        0
280
     0
281
     0
  0
CLASS
  1
ACMNOTESTANDARDISO
  2
AmdtNoteStdISO
  3
"Amdt_StdImp|Product Description: AutoCAD Mechanical|Company: Autodesk, Inc."
 90
     1024
 91
        0
280
     0
281
     0
  0
CLASS
  1
ACAMGHOLECHARTSTDISO
  2
AcAmgHoleChartStdISO
  3
AmgDim|Product Description: AutoCAD Mechanical|Company: Autodesk, Inc.
 90
     1024
 91
        0
280
     0
281
     0
  0
CLASS
  1
ACMTHREADLINESTANDARDISO
  2
AmdtThreadLineStdISO
  3
"Amdt_StdImp|Product Description: AutoCAD Mechanical|Company: Autodesk, Inc."
 90
     1024
 91
        0
280
     0
281
     0
  0
CLASS
  1
ACMTAPERSTANDARDISO
  2
AcmTaperStdISO
  3
"Amdt_StdImp|Product Description: AutoCAD Mechanical|Company: Autodesk, Inc."
 90
     1024
 91
        0
280
     0
281
     0
  0
CLASS
  1
ACMANOOTATIONVIEWSTANDARDISO
  2
AmdtAnViewStdISO
  3
"Amdt_StdImp|Product Description: AutoCAD Mechanical|Company: Autodesk, Inc."
 90
     1024
 91
        0
280
     0
281
     0
  0
CLASS
  1
ACAMGFILTERDAT
  2
AcAmgFilterDat
  3
"AcadM|Product Description: AutoCAD Mechanical|Company: Autodesk, Inc."
 90
     1024
 91
        0
280
     0
281
     0
  0
CLASS
  1
DIMASSOC
  2
AcDbDimAssoc
  3
"AcDbDimAssoc|Product Desc:     AcDim ARX App For Dimension|Company:          Autodesk, Inc.|WEB Address:      www.autodesk.com"
 90
        0
 91
       10
280
     0
281
     0
  0
CLASS
  1
SORTENTSTABLE
  2
AcDbSortentsTable
  3
ObjectDBX Classes
 90
        0
 91
        1
280
     0
281
     0
  0
CLASS
  1
DICTIONARYVAR
  2
AcDbDictionaryVar
  3
ObjectDBX Classes
 90
        0
 91
        9
280
     0
281
     0
  0
CLASS
  1
CELLSTYLEMAP
  2
AcDbCellStyleMap
  3
ObjectDBX Classes
 90
     1152
 91
        1
280
     0
281
     0
  0
CLASS
  1
ACMDATAENTRYBLOCK
  2
AcmDataEntryBlock
  3
AcmSymBB|Product Description: AutoCAD Mechanical|Company: Autodesk, Inc.
 90
     1024
 91
        1
280
     0
281
     0
  0
CLASS
  1
ACMBOM
  2
AcmBom
  3
"AcmSymBB|Product Description: AutoCAD Mechanical|Company: Autodesk, Inc."
 90
     1024
 91
        1
280
     0
281
     0
  0
CLASS
  1
AMDTFORMULAUPDATEDISPATCHER
  2
AmdtFormulaUpdateDispatcher
  3
AcMeServices
 90
     1024
 91
        1
280
     0
281
     0
  0
CLASS
  1
CAMSSTRUCTBTNSTATE
  2
StructBtnState
  3
DesignerAssemblies
 90
     1024
 91
        1
280
     0
281
     0
  0
CLASS
  1
ACRFATTGENMGR
  2
AcRfAttGeneralMgr
  3
AcAttribServices
 90
     1024
 91
        1
280
     0
281
     0
  0
CLASS
  1
ACRFOBJATTMGR
  2
AcRfObjAttGroupMgr
  3
AcAttribServices
 90
     1024
 91
        1
280
     0
281
     0
  0
CLASS
  1
ACRFMCADAPIATTHOLDER
  2
AcRfMCADAPIAttHolder
  3
AcAttribServices
 90
     1024
 91
        1
280
     0
281
     0
  0
CLASS
  1
AMDTSYSATTR
  2
AmdtSystemAttribute
  3
AcAttribServices
 90
     1024
 91
        1
280
     0
281
     0
  0
CLASS
  1
ACDBSECTIONVIEWSTYLE
  2
AcDbSectionViewStyle
  3
ObjectDBX Classes
 90
     1025
 91
        2
280
     0
281
     0
  0
CLASS
  1
ACDBDETAILVIEWSTYLE
  2
AcDbDetailViewStyle
  3
ObjectDBX Classes
 90
     1025
 91
        2
280
     0
281
     0
  0
CLASS
  1
ACMSECTIONSTANDARDCUSTOM
  2
AmdtSectionSymStdCustom
  3
"Amdt_StdImp|Product Description: AutoCAD Mechanical|Company: Autodesk, Inc."
 90
     1024
 91
        1
280
     0
281
     0
  0
CLASS
  1
ACMDETAILTANDARDCUSTOM
  2
AmdtDetailSymStdCustom
  3
"Amdt_StdImp|Product Description: AutoCAD Mechanical|Company: Autodesk, Inc."
 90
     1024
 91
        1
280
     0
281
     0
  0
CLASS
  1
FIELD
  2
AcDbField
  3
ObjectDBX Classes
 90
     1152
 91
        7
280
     0
281
     0
  0
CLASS
  1
FIELDLIST
  2
AcDbFieldList
  3
ObjectDBX Classes
 90
     1152
 91
        1
280
     0
281
     0
  0
CLASS
  1
EXACXREFPANELOBJECT
  2
ExAcXREFPanelObject
  3
EXAC_ESW
 90
     1025
 91
        1
280
     0
281
     0
  0
CLASS
  1
NPOCOLLECTION
  2
AcDbImpNonPersistentObjectsCollection
  3
ObjectDBX Classes
 90
     1153
 91
        1
280
     0
281
     0
  0
CLASS
  1
RAPIDRTRENDERSETTINGS
  2
AcDbRapidRTRenderSettings
  3
ObjectDBX Classes
 90
     1024
 91
        6
280
     0
281
     0
  0
ENDSEC
  0
SECTION
  2
TABLES
  0
TABLE
  2
VPORT
  5
8
330
0
100
AcDbSymbolTable
 70
     1
  0
VPORT
  5
23E
330
8
100
AcDbSymbolTableRecord
100
AcDbViewportTableRecord
  2
*Active
 70
     0
 10
0.0
 20
0.0
 11
1.0
 21
1.0
 12
343.6947264734225
 22
62.62364393760276
 13
0.0
 23
0.0
 14
2.5
 24
2.5
 15
20.0
 25
20.0
 16
0.0
 26
0.0
 36
1.0
 17
0.0
 27
0.0
 37
0.0
 40
751.2195643792129
 41
1.939794419970631
 42
50.0
 43
0.0
 44
0.0
 50
0.0
 51
0.0
 71
     0
 72
 10000
 73
     1
 74
     1
 75
     0
 76
     0
 77
     0
 78
     0
281
     0
 65
     0
110
0.0
120
0.0
130
0.0
111
1.0
121
0.0
131
0.0
112
0.0
122
1.0
132
0.0
 79
     0
146
0.0
348
261
 60
     3
 61
     5
292
     1
282
     1
141
0.0
142
0.0
 63
   250
421
  3355443
1001
ACAD_NAV_VCDISPLAY
1070
     3
  0
ENDTAB
  0
TABLE
  2
LTYPE
  5
5
330
0
100
AcDbSymbolTable
 70
    22
  0
LTYPE
  5
13
330
5
100
AcDbSymbolTableRecord
100
AcDbLinetypeTableRecord
  2
ByBlock
 70
     0
  3

 72
    65
 73
     0
 40
0.0
  0
LTYPE
  5
14
330
5
100
AcDbSymbolTableRecord
100
AcDbLinetypeTableRecord
  2
ByLayer
 70
     0
  3

 72
    65
 73
     0
 40
0.0
  0
LTYPE
  5
15
330
5
100
AcDbSymbolTableRecord
100
AcDbLinetypeTableRecord
  2
CONTINUOUS
 70
     0
  3
Solid line
 72
    65
 73
     0
 40
0.0
  0
LTYPE
  5
2C9
330
5
100
AcDbSymbolTableRecord
100
AcDbLinetypeTableRecord
  2
HIDDEN
 70
     0
  3
Verdeckt
 72
    65
 73
     2
 40
0.375
 49
0.25
 74
     0
 49
-0.125
 74
     0
  0
LTYPE
  5
2CA
330
5
100
AcDbSymbolTableRecord
100
AcDbLinetypeTableRecord
  2
PHANTOM2
 70
     0
  3
Phantom (.5x) ___ _ _ ___ _ _ ___ _ _ ___ _ _
 72
    65
 73
     6
 40
1.25
 49
0.625
 74
     0
 49
-0.125
 74
     0
 49
0.125
 74
     0
 49
-0.125
 74
     0
 49
0.125
 74
     0
 49
-0.125
 74
     0
  0
LTYPE
  5
2CB
330
5
100
AcDbSymbolTableRecord
100
AcDbLinetypeTableRecord
  2
CENTER
 70
     0
  3
Center line
 72
    65
 73
     4
 40
2.0
 49
1.25
 74
     0
 49
-0.25
 74
     0
 49
0.25
 74
     0
 49
-0.25
 74
     0
  0
LTYPE
  5
30F
330
5
100
AcDbSymbolTableRecord
100
AcDbLinetypeTableRecord
  2
ACANSTGB
 70
     0
  3
__ . . __ . .
 72
    65
 73
     6
 40
0.35433070866
 49
0.15748031496
 74
     0
 49
-0.03937007874
 74
     0
 49
0.03937007874
 74
     0
 49
-0.03937007874
 74
     0
 49
0.03937007874
 74
     0
 49
-0.03937007874
 74
     0
  0
LTYPE
  5
310
330
5
100
AcDbSymbolTableRecord
100
AcDbLinetypeTableRecord
  2
ACANSTGL
 70
     0
  3
_ _ _ _ _
 72
    65
 73
     2
 40
0.11811023622
 49
0.07874015748
 74
     0
 49
-0.03937007874
 74
     0
  0
LTYPE
  5
37A
330
5
100
AcDbSymbolTableRecord
100
AcDbLinetypeTableRecord
  2
AM_ISO02W050
 70
     0
  3
__ __ __ __ __ __ __ __ __ __ __ __ __ __ __
 72
    65
 73
     2
 40
7.5
 49
6.0
 74
     0
 49
-1.5
 74
     0
  0
LTYPE
  5
37B
330
5
100
AcDbSymbolTableRecord
100
AcDbLinetypeTableRecord
  2
AM_ISO08W050
 70
     0
  3
____ . ____ . ____ . ____ . ____ . ____ . ____
 72
    65
 73
     4
 40
18.0
 49
12.0
 74
     0
 49
-1.5
 74
     0
 49
3.0
 74
     0
 49
-1.5
 74
     0
  0
LTYPE
  5
37C
330
5
100
AcDbSymbolTableRecord
100
AcDbLinetypeTableRecord
  2
AM_ISO09W050
 70
     0
  3
_____ . . _____ . . _____ . . ____ .. ____
 72
    65
 73
     6
 40
22.5
 49
12.0
 74
     0
 49
-1.5
 74
     0
 49
3.0
 74
     0
 49
-1.5
 74
     0
 49
3.0
 74
     0
 49
-1.5
 74
     0
  0
LTYPE
  5
37D
330
5
100
AcDbSymbolTableRecord
100
AcDbLinetypeTableRecord
  2
Amconstr
 70
     0
  3
_______________________
 72
    65
 73
     2
 40
9999.0
 49
9999.0
 74
     0
 49
0.0
 74
     0
  0
LTYPE
  5
37E
330
5
100
AcDbSymbolTableRecord
100
AcDbLinetypeTableRecord
  2
AM_ISO08W050x2
 70
     0
  3
__ . __ . __ . __ . __ . __
 72
    65
 73
     4
 40
9.0
 49
6.0
 74
     0
 49
-0.75
 74
     0
 49
1.5
 74
     0
 49
-0.75
 74
     0
  0
LTYPE
  5
37F
330
5
100
AcDbSymbolTableRecord
100
AcDbLinetypeTableRecord
  2
AM_ISO02W050x2
 70
     0
  3
 _ _ _ _ _ _ _ _ _ _ _ _
 72
    65
 73
     2
 40
3.75
 49
3.0
 74
     0
 49
-0.75
 74
     0
  0
LTYPE
  5
380
330
5
100
AcDbSymbolTableRecord
100
AcDbLinetypeTableRecord
  2
Amzigzag
 70
     0
  3
/\/-/\/-/\/-/\/-/\/-/\/
 72
    65
 73
     2
 40
11.0001
 49
0.0001
 74
     4
 75
   136
340
381
 46
0.04
 50
0.0
 44
0.0
 45
0.0
 49
-11.0
 74
     0
  0
LTYPE
  5
397
330
5
100
AcDbSymbolTableRecord
100
AcDbLinetypeTableRecord
  2
ACDINWELD
 70
     0
  3
_ _ _ _ _
 72
    65
 73
     2
 40
2.0
 49
2.0
 74
     0
 49
-1.0
 74
     0
  0
LTYPE
  5
39A
330
5
100
AcDbSymbolTableRecord
100
AcDbLinetypeTableRecord
  2
ACDINTGB
 70
     0
  3
__ . . __ . .
 72
    65
 73
     6
 40
9.0
 49
4.0
 74
     0
 49
-1.0
 74
     0
 49
1.0
 74
     0
 49
-1.0
 74
     0
 49
1.0
 74
     0
 49
-1.0
 74
     0
  0
LTYPE
  5
39B
330
5
100
AcDbSymbolTableRecord
100
AcDbLinetypeTableRecord
  2
ACDINTGL
 70
     0
  3
_ _ _ _ _
 72
    65
 73
     2
 40
3.0
 49
2.0
 74
     0
 49
-1.0
 74
     0
  0
LTYPE
  5
3AC
330
5
100
AcDbSymbolTableRecord
100
AcDbLinetypeTableRecord
  2
DASHED
 70
     0
  3
Dashed line
 72
    65
 73
     2
 40
0.75
 49
0.5
 74
     0
 49
-0.25
 74
     0
  0
LTYPE
  5
3AD
330
5
100
AcDbSymbolTableRecord
100
AcDbLinetypeTableRecord
  2
CENTER2
 70
     0
  3
Center (.5x) ___ _ ___ _ ___ _ ___ _ ___ _ ___
 72
    65
 73
     4
 40
1.125
 49
0.75
 74
     0
 49
-0.125
 74
     0
 49
0.125
 74
     0
 49
-0.125
 74
     0
  0
LTYPE
  5
3AE
330
5
100
AcDbSymbolTableRecord
100
AcDbLinetypeTableRecord
  2
HIDDEN2
 70
     0
  3
Hidden (.5x) _ _ _ _ _ _ _ _ _ _ _ _ _ _ _ _ _
 72
    65
 73
     2
 40
0.1875
 49
0.125
 74
     0
 49
-0.0625
 74
     0
  0
LTYPE
  5
3C2
330
5
100
AcDbSymbolTableRecord
100
AcDbLinetypeTableRecord
  2
ACISOWELD
 70
     0
  3
_ _ _ _ _
 72
    65
 73
     2
 40
2.0
 49
2.0
 74
     0
 49
-1.0
 74
     0
  0
LTYPE
  5
3C5
330
5
100
AcDbSymbolTableRecord
100
AcDbLinetypeTableRecord
  2
ACISOTGB
 70
     0
  3
__ . . __ . .
 72
    65
 73
     6
 40
9.0
 49
4.0
 74
     0
 49
-1.0
 74
     0
 49
1.0
 74
     0
 49
-1.0
 74
     0
 49
1.0
 74
     0
 49
-1.0
 74
     0
  0
LTYPE
  5
3C6
330
5
100
AcDbSymbolTableRecord
100
AcDbLinetypeTableRecord
  2
ACISOTGL
 70
     0
  3
_ _ _ _ _
 72
    65
 73
     2
 40
3.0
 49
2.0
 74
     0
 49
-1.0
 74
     0
  0
ENDTAB
  0
TABLE
  2
LAYER
  5
2
102
{ACAD_XDICTIONARY
360
3EB
102
}
330
0
100
AcDbSymbolTable
 70
    10
  0
LAYER
  5
10
102
{ACAD_XDICTIONARY
360
759
102
}
330
2
100
AcDbSymbolTableRecord
100
AcDbLayerTableRecord
  2
0
 70
     0
 62
     7
  6
CONTINUOUS
370
    -3
390
F
347
253
348
0
  0
LAYER
  5
22
102
{ACAD_XDICTIONARY
360
75B
102
}
330
2
100
AcDbSymbolTableRecord
100
AcDbLayerTableRecord
  2
LAYER01
 70
     0
 62
     7
  6
CONTINUOUS
370
    -3
390
F
347
253
348
0
  0
LAYER
  5
326
330
2
100
AcDbSymbolTableRecord
100
AcDbLayerTableRecord
  2
Defpoints
 70
     0
 62
     7
  6
CONTINUOUS
290
     0
370
    -3
390
F
347
253
348
0
  0
LAYER
  5
3EA
102
{ACAD_XDICTIONARY
360
75D
102
}
330
2
100
AcDbSymbolTableRecord
100
AcDbLayerTableRecord
  2
AM_0 ( Kontur 0.5 )
 70
     0
 62
     7
  6
CONTINUOUS
370
    50
390
F
347
253
348
0
1001
AcAecLayerStandard
1000

1000

  0
LAYER
  5
434
102
{ACAD_XDICTIONARY
360
75F
102
}
330
2
100
AcDbSymbolTableRecord
100
AcDbLayerTableRecord
  2
AM_7 (Mittellinie)
 70
     0
 62
     4
  6
AM_ISO08W050
370
    25
390
F
347
253
348
0
1001
AcAecLayerStandard
1000

1000

  0
LAYER
  5
436
102
{ACAD_XDICTIONARY
360
761
102
}
330
2
100
AcDbSymbolTableRecord
100
AcDbLayerTableRecord
  2
AM_5 ( Bemassung)
 70
     0
 62
     3
  6
CONTINUOUS
370
    25
390
F
347
253
348
0
1001
AcAecLayerStandard
1000

1000

  0
LAYER
  5
827
330
2
100
AcDbSymbolTableRecord
100
AcDbLayerTableRecord
  2
AM_5
 70
     0
 62
     3
  6
CONTINUOUS
370
    15
390
F
347
253
348
0
1001
AcAecLayerStandard
1000

1000

  0
LAYER
  5
991
330
2
100
AcDbSymbolTableRecord
100
AcDbLayerTableRecord
  2
AM_CL
 70
     0
 62
     1
  6
Amconstr
370
    15
390
F
347
253
348
0
1001
AcAecLayerStandard
1000

1000

  0
LAYER
  5
B1B
330
2
100
AcDbSymbolTableRecord
100
AcDbLayerTableRecord
  2
AM_0
 70
     0
 62
     7
  6
CONTINUOUS
370
    30
390
F
347
253
348
0
1001
AcAecLayerStandard
1000

1000

  0
LAYER
  5
B1C
330
2
100
AcDbSymbolTableRecord
100
AcDbLayerTableRecord
  2
AM_3
 70
     0
 62
     6
  6
HIDDEN
370
    15
390
F
347
253
348
0
1001
AcAecLayerStandard
1000

1000

  0
ENDTAB
  0
TABLE
  2
STYLE
  5
3
330
0
100
AcDbSymbolTable
 70
     8
  0
STYLE
  5
11
330
3
100
AcDbSymbolTableRecord
100
AcDbTextStyleTableRecord
  2
STANDARD
 70
     0
 40
0.0
 41
1.0
 50
0.0
 71
     0
 42
3.5
  3
arial.ttf
  4

1001
ACAD
1000
Arial
1071
       34
  0
STYLE
  5
300
330
3
100
AcDbSymbolTableRecord
100
AcDbTextStyleTableRecord
  2
ACANSTS
 70
     0
 40
1.0
 41
1.0
 50
0.0
 71
     0
 42
3.5
  3
romans.shx
  4

  0
STYLE
  5
30E
330
3
100
AcDbSymbolTableRecord
100
AcDbTextStyleTableRecord
  2
ACANSGDT
 70
     0
 40
0.0
 41
1.0
 50
0.0
 71
     0
 42
3.5
  3
amgdt.shx
  4

  0
STYLE
  5
381
330
3
100
AcDbSymbolTableRecord
100
AcDbTextStyleTableRecord
  2

 70
     1
 40
0.0
 41
1.0
 50
0.0
 71
     0
 42
2.5
  3
genltshp.shx
  4

  0
STYLE
  5
395
330
3
100
AcDbSymbolTableRecord
100
AcDbTextStyleTableRecord
  2
ACDINGDT
 70
     0
 40
0.0
 41
1.0
 50
0.0
 71
     0
 42
3.5
  3
amgdt.shx
  4

  0
STYLE
  5
39E
330
3
100
AcDbSymbolTableRecord
100
AcDbTextStyleTableRecord
  2
ACDINTS
 70
     0
 40
1.0
 41
1.0
 50
0.0
 71
     0
 42
3.5
  3
isocp.shx
  4

  0
STYLE
  5
3BC
330
3
100
AcDbSymbolTableRecord
100
AcDbTextStyleTableRecord
  2
ACISOTS
 70
     0
 40
1.0
 41
1.0
 50
0.0
 71
     0
 42
2.5
  3
ARIALN.TTF
  4

1001
ACAD
1000
Arial Narrow
1071
       34
  0
STYLE
  5
3C0
330
3
100
AcDbSymbolTableRecord
100
AcDbTextStyleTableRecord
  2
ACISOGDT
 70
     0
 40
0.0
 41
1.0
 50
0.0
 71
     0
 42
2.5
  3
amgdt.shx
  4

  0
ENDTAB
  0
TABLE
  2
VIEW
  5
6
330
0
100
AcDbSymbolTable
 70
     0
  0
ENDTAB
  0
TABLE
  2
UCS
  5
7
330
0
100
AcDbSymbolTable
 70
     0
  0
ENDTAB
  0
TABLE
  2
APPID
  5
9
330
0
100
AcDbSymbolTable
 70
    68
  0
APPID
  5
12
330
9
100
AcDbSymbolTableRecord
100
AcDbRegAppTableRecord
  2
ACAD
 70
     0
  0
APPID
  5
293
330
9
100
AcDbSymbolTableRecord
100
AcDbRegAppTableRecord
  2
ACAD_MLEADERVER
 70
     0
  0
APPID
  5
29C
330
9
100
AcDbSymbolTableRecord
100
AcDbRegAppTableRecord
  2
MCAD_NO_VIS
 70
     0
  0
APPID
  5
29D
330
9
100
AcDbSymbolTableRecord
100
AcDbRegAppTableRecord
  2
ACAD_TEMP_GRAPHIC
 70
     0
  0
APPID
  5
2CD
330
9
100
AcDbSymbolTableRecord
100
AcDbRegAppTableRecord
  2
AD_DRAW
 70
     0
  0
APPID
  5
2D0
330
9
100
AcDbSymbolTableRecord
100
AcDbRegAppTableRecord
  2
ACATTRIBSERVICES
 70
     0
  0
APPID
  5
2F1
330
9
100
AcDbSymbolTableRecord
100
AcDbRegAppTableRecord
  2
DESIGNERASSEMBLIES
 70
     0
  0
APPID
  5
2F7
330
9
100
AcDbSymbolTableRecord
100
AcDbRegAppTableRecord
  2
ACADM_DIM_EDIT
 70
     0
  0
APPID
  5
2F8
330
9
100
AcDbSymbolTableRecord
100
AcDbRegAppTableRecord
  2
AMDT_DM_ADJ
 70
     0
  0
APPID
  5
327
330
9
100
AcDbSymbolTableRecord
100
AcDbRegAppTableRecord
  2
AcadAnnotative
 70
     0
  0
APPID
  5
328
330
9
100
AcDbSymbolTableRecord
100
AcDbRegAppTableRecord
  2
ACAD_DSTYLE_DIMARC_LENGTH_SYMBOL
 70
     0
  0
APPID
  5
329
330
9
100
AcDbSymbolTableRecord
100
AcDbRegAppTableRecord
  2
AcAecLayerStandard
 70
     0
  0
APPID
  5
32A
330
9
100
AcDbSymbolTableRecord
100
AcDbRegAppTableRecord
  2
ACAD_DSTYLE_DIMJOGGED_JOGANGLE_SYMBOL
 70
     0
  0
APPID
  5
32B
330
9
100
AcDbSymbolTableRecord
100
AcDbRegAppTableRecord
  2
AcadAnnoPO
 70
     0
  0
APPID
  5
32C
330
9
100
AcDbSymbolTableRecord
100
AcDbRegAppTableRecord
  2
ACAD_EXEMPT_FROM_CAD_STANDARDS
 70
     0
  0
APPID
  5
32D
330
9
100
AcDbSymbolTableRecord
100
AcDbRegAppTableRecord
  2
GENIUS_GENODEF_13
 70
     0
  0
APPID
  5
32E
330
9
100
AcDbSymbolTableRecord
100
AcDbRegAppTableRecord
  2
GENIUS_GENOBJ-N-CRS_13
 70
     0
  0
APPID
  5
32F
330
9
100
AcDbSymbolTableRecord
100
AcDbRegAppTableRecord
  2
GENIUS_GENOENT_13
 70
     0
  0
APPID
  5
330
330
9
100
AcDbSymbolTableRecord
100
AcDbRegAppTableRecord
  2
GENIUS_GENOLIS_13
 70
     0
  0
APPID
  5
331
330
9
100
AcDbSymbolTableRecord
100
AcDbRegAppTableRecord
  2
GENIUS_GENOREF_13
 70
     0
  0
APPID
  5
332
330
9
100
AcDbSymbolTableRecord
100
AcDbRegAppTableRecord
  2
GEVID1190879659
 70
     0
  0
APPID
  5
333
330
9
100
AcDbSymbolTableRecord
100
AcDbRegAppTableRecord
  2
GEVDC
 70
     0
  0
APPID
  5
334
330
9
100
AcDbSymbolTableRecord
100
AcDbRegAppTableRecord
  2
GENIUS_GENBH_13
 70
     0
  0
APPID
  5
335
330
9
100
AcDbSymbolTableRecord
100
AcDbRegAppTableRecord
  2
GENIUS_GENOBJ-NBEHI-BHF_13
 70
     0
  0
APPID
  5
336
330
9
100
AcDbSymbolTableRecord
100
AcDbRegAppTableRecord
  2
GENIUS_GENOBJ-NBEHI-BHB_13
 70
     0
  0
APPID
  5
337
330
9
100
AcDbSymbolTableRecord
100
AcDbRegAppTableRecord
  2
GEVID1190879660
 70
     0
  0
APPID
  5
338
330
9
100
AcDbSymbolTableRecord
100
AcDbRegAppTableRecord
  2
GEVID1190879661
 70
     0
  0
APPID
  5
339
330
9
100
AcDbSymbolTableRecord
100
AcDbRegAppTableRecord
  2
ACAD_DSTYLE_DIMRADIAL_EXTENSION
 70
     0
  0
APPID
  5
33A
330
9
100
AcDbSymbolTableRecord
100
AcDbRegAppTableRecord
  2
GEVID1190879662
 70
     0
  0
APPID
  5
33B
330
9
100
AcDbSymbolTableRecord
100
AcDbRegAppTableRecord
  2
GEVID1190879663
 70
     0
  0
APPID
  5
33C
330
9
100
AcDbSymbolTableRecord
100
AcDbRegAppTableRecord
  2
GEVID1190879664
 70
     0
  0
APPID
  5
33D
330
9
100
AcDbSymbolTableRecord
100
AcDbRegAppTableRecord
  2
GEVID1190879665
 70
     0
  0
APPID
  5
33E
330
9
100
AcDbSymbolTableRecord
100
AcDbRegAppTableRecord
  2
GEVID1190879666
 70
     0
  0
APPID
  5
33F
330
9
100
AcDbSymbolTableRecord
100
AcDbRegAppTableRecord
  2
GENIUS_GENOBJ-N-CEN_13
 70
     0
  0
APPID
  5
340
330
9
100
AcDbSymbolTableRecord
100
AcDbRegAppTableRecord
  2
GENIUS_GENCEN_19
 70
     0
  0
APPID
  5
341
330
9
100
AcDbSymbolTableRecord
100
AcDbRegAppTableRecord
  2
GEVID1190879667
 70
     0
  0
APPID
  5
342
330
9
100
AcDbSymbolTableRecord
100
AcDbRegAppTableRecord
  2
GENIUS_GENOBJ-N-CRC_13
 70
     0
  0
APPID
  5
343
330
9
100
AcDbSymbolTableRecord
100
AcDbRegAppTableRecord
  2
GENIUS_GENCRC_14
 70
     0
  0
APPID
  5
344
330
9
100
AcDbSymbolTableRecord
100
AcDbRegAppTableRecord
  2
ACAD_PSEXT
 70
     0
  0
APPID
  5
345
330
9
100
AcDbSymbolTableRecord
100
AcDbRegAppTableRecord
  2
GEVID1190888456
 70
     0
  0
APPID
  5
346
330
9
100
AcDbSymbolTableRecord
100
AcDbRegAppTableRecord
  2
GEVID1190888457
 70
     0
  0
APPID
  5
347
330
9
100
AcDbSymbolTableRecord
100
AcDbRegAppTableRecord
  2
GEVID1190888458
 70
     0
  0
APPID
  5
348
330
9
100
AcDbSymbolTableRecord
100
AcDbRegAppTableRecord
  2
GEVID1190888459
 70
     0
  0
APPID
  5
349
330
9
100
AcDbSymbolTableRecord
100
AcDbRegAppTableRecord
  2
GEVID1190888460
 70
     0
  0
APPID
  5
34A
330
9
100
AcDbSymbolTableRecord
100
AcDbRegAppTableRecord
  2
GEVID1190888461
 70
     0
  0
APPID
  5
34B
330
9
100
AcDbSymbolTableRecord
100
AcDbRegAppTableRecord
  2
GEVID1190888462
 70
     0
  0
APPID
  5
34C
330
9
100
AcDbSymbolTableRecord
100
AcDbRegAppTableRecord
  2
ACAD_DSTYLE_DIMJAG
 70
     0
  0
APPID
  5
34D
330
9
100
AcDbSymbolTableRecord
100
AcDbRegAppTableRecord
  2
ACAD_DSTYLE_DIMTALN
 70
     0
  0
APPID
  5
34E
330
9
100
AcDbSymbolTableRecord
100
AcDbRegAppTableRecord
  2
GENIUS_GENBLLY_14
 70
     0
  0
APPID
  5
34F
330
9
100
AcDbSymbolTableRecord
100
AcDbRegAppTableRecord
  2
DCO15
 70
     0
  0
APPID
  5
350
330
9
100
AcDbSymbolTableRecord
100
AcDbRegAppTableRecord
  2
GENIUS_GENREC_14
 70
     0
  0
APPID
  5
351
330
9
100
AcDbSymbolTableRecord
100
AcDbRegAppTableRecord
  2
GENIUS_GENOBJ-N-REC_13
 70
     0
  0
APPID
  5
352
330
9
100
AcDbSymbolTableRecord
100
AcDbRegAppTableRecord
  2
GENIUS_GENOBJ-N-TIT_13
 70
     0
  0
APPID
  5
353
330
9
100
AcDbSymbolTableRecord
100
AcDbRegAppTableRecord
  2
GENIUS_GENTITLE_13
 70
     0
  0
APPID
  5
354
330
9
100
AcDbSymbolTableRecord
100
AcDbRegAppTableRecord
  2
GENIUS_GENSCREG_15
 70
     0
  0
APPID
  5
355
330
9
100
AcDbSymbolTableRecord
100
AcDbRegAppTableRecord
  2
GENIUS_GENOBJ-N-SDF_13
 70
     0
  0
APPID
  5
356
330
9
100
AcDbSymbolTableRecord
100
AcDbRegAppTableRecord
  2
ACAD_DSTYLE_DIMINSPECT
 70
     0
  0
APPID
  5
357
330
9
100
AcDbSymbolTableRecord
100
AcDbRegAppTableRecord
  2
GENIUS_GENDIMSH_14
 70
     0
  0
APPID
  5
358
330
9
100
AcDbSymbolTableRecord
100
AcDbRegAppTableRecord
  2
GENIUS_GENOBJ-N-HTC_13
 70
     0
  0
APPID
  5
359
330
9
100
AcDbSymbolTableRecord
100
AcDbRegAppTableRecord
  2
GENIUS_GENHATCH_13
 70
     0
  0
APPID
  5
35A
330
9
100
AcDbSymbolTableRecord
100
AcDbRegAppTableRecord
  2
ACAUTHENVIRON
 70
     0
  0
APPID
  5
35B
330
9
100
AcDbSymbolTableRecord
100
AcDbRegAppTableRecord
  2
AcDbDynamicBlockTrueName
 70
     0
  0
APPID
  5
35C
330
9
100
AcDbSymbolTableRecord
100
AcDbRegAppTableRecord
  2
AcDbDynamicBlockGUID
 70
     0
  0
APPID
  5
35D
330
9
100
AcDbSymbolTableRecord
100
AcDbRegAppTableRecord
  2
ACDBBLOCKREPETAG
 70
     0
  0
APPID
  5
800
330
9
100
AcDbSymbolTableRecord
100
AcDbRegAppTableRecord
  2
EAR3_SAP_ACAD
 70
     0
  0
APPID
  5
826
330
9
100
AcDbSymbolTableRecord
100
AcDbRegAppTableRecord
  2
CADDESKTOPMDT
 70
     0
  0
APPID
  5
87B
330
9
100
AcDbSymbolTableRecord
100
AcDbRegAppTableRecord
  2
GENIUS_GENDTOL_13
 70
     0
  0
APPID
  5
AD7
330
9
100
AcDbSymbolTableRecord
100
AcDbRegAppTableRecord
  2
ACAD_NAV_VCDISPLAY
 70
     0
  0
ENDTAB
  0
TABLE
  2
DIMSTYLE
  5
A
330
0
100
AcDbSymbolTable
 70
    24
100
AcDbDimStyleTable
 71
     2
340
31A
340
3B0
  0
DIMSTYLE
105
23B
330
A
100
AcDbSymbolTableRecord
100
AcDbDimStyleTableRecord
  2
Standard
 70
     0
340
11
  0
DIMSTYLE
105
31A
330
A
100
AcDbSymbolTableRecord
100
AcDbDimStyleTableRecord
  2
AM_ANSI
 70
     0
  4
mm
 40
20.0
 41
0.1
 42
0.05
 43
0.5
 44
0.1
 47
0.1
 48
0.1
 78
     7
 79
     2
 90
     1
140
0.12
141
0.0
146
0.71
147
0.06
176
   256
177
   256
178
     2
274
     4
284
     7
340
11
371
    -1
372
    -1
  0
DIMSTYLE
105
31B
330
A
100
AcDbSymbolTableRecord
100
AcDbDimStyleTableRecord
  2
AM_ANSI$3
 70
     0
  4
mm
 40
20.0
 41
0.1
 42
0.05
 43
0.5
 44
0.1
 47
0.1
 48
0.1
 78
     7
 79
     2
 90
     1
140
0.12
141
0.0
146
0.71
147
0.06
176
   256
177
   256
178
     2
274
     4
284
     7
288
     1
289
     0
340
11
371
    -1
372
    -1
  0
DIMSTYLE
105
31C
330
A
100
AcDbSymbolTableRecord
100
AcDbDimStyleTableRecord
  2
AM_ANSI$4
 70
     0
  4
mm
 40
20.0
 41
0.1
 42
0.05
 43
0.5
 44
0.1
 47
0.1
 48
0.1
 78
     7
 79
     2
 90
     1
140
0.12
141
0.0
146
0.71
147
0.06
176
   256
177
   256
178
     2
274
     4
284
     7
288
     1
289
     0
340
11
371
    -1
372
    -1
  0
DIMSTYLE
105
31D
330
A
100
AcDbSymbolTableRecord
100
AcDbDimStyleTableRecord
  2
AM_ANSI$7
 70
     0
  4
mm
 40
20.0
 41
0.1
 42
0.05
 43
0.5
 44
0.1
 47
0.1
 48
0.1
 78
     7
 79
     2
 90
     1
140
0.24
141
0.0
146
0.71
147
0.06
176
   256
177
   256
178
     2
274
     4
284
     7
340
11
371
    -1
372
    -1
  0
DIMSTYLE
105
31E
330
A
100
AcDbSymbolTableRecord
100
AcDbDimStyleTableRecord
  2
AM_ANSI$SF
 70
     0
  4
mm
 40
20.0
 41
0.1
 42
0.05
 43
0.5
 44
0.1
 47
0.1
 48
0.1
 75
     1
 76
     1
 78
     7
 79
     2
 90
     1
140
0.12
141
0.0
146
0.71
147
0.06
176
   256
177
   256
178
     2
274
     4
284
     7
340
11
371
    -1
372
    -1
  0
DIMSTYLE
105
323
330
A
100
AcDbSymbolTableRecord
100
AcDbDimStyleTableRecord
  2
AM_ANSI$SH
 70
     0
  4
mm
 40
20.0
 41
0.1
 42
0.05
 43
0.5
 44
0.1
 47
0.1
 48
0.1
 75
     1
 76
     1
 78
     7
 79
     2
 90
     1
140
0.12
141
0.0
146
0.71
147
0.06
173
     1
176
   256
177
   256
178
     2
274
     4
284
     7
340
11
343
31F
371
    -1
372
    -1
  0
DIMSTYLE
105
3B0
330
A
100
AcDbSymbolTableRecord
100
AcDbDimStyleTableRecord
  2
AM_DIN
 70
     0
  4
"
 41
5.0
 42
1.0
 43
10.0
 44
1.0
 47
0.1
 48
0.1
 50
89.99999999999998
 73
     0
 74
     0
 77
     1
 78
     8
 79
     2
140
5.0
141
0.0
143
0.0393701
146
0.71
147
1.5
172
     1
176
   256
177
   256
178
     2
271
     2
272
     2
283
     0
284
     8
340
11
371
    -1
372
    -1
1001
ACAD_DSTYLE_DIMJOGGED_JOGANGLE_SYMBOL
1070
   384
1040
1.570796326794896
  0
DIMSTYLE
105
3B1
102
{ACAD_REACTORS
330
45F
330
489
330
4AA
330
51A
330
544
330
82A
330
88F
330
8FB
330
940
330
994
330
9C1
330
B28
330
B7D
330
BA1
330
C07
330
CBD
102
}
330
A
100
AcDbSymbolTableRecord
100
AcDbDimStyleTableRecord
  2
AM_DIN$0
 70
     0
  4
"
 41
4.0
 42
0.0
 43
10.0
 44
1.0
 47
0.1
 48
0.1
 50
89.99999999999998
 73
     0
 74
     0
 77
     1
 78
     8
 79
     2
140
3.5
141
0.0
143
0.0393701
146
0.71
147
1.5
172
     1
176
   256
177
   256
178
     2
271
     2
272
     2
283
     0
284
     8
340
11
371
    -1
372
    -1
1001
ACAD_DSTYLE_DIMJOGGED_JOGANGLE_SYMBOL
1070
   384
1040
1.570796326794896
  0
DIMSTYLE
105
3B2
330
A
100
AcDbSymbolTableRecord
100
AcDbDimStyleTableRecord
  2
AM_DIN$2
 70
     0
  4
"
 41
4.0
 42
0.0
 43
10.0
 44
1.0
 47
0.1
 48
0.1
 50
89.99999999999998
 73
     0
 74
     0
 77
     1
 78
     8
 79
     2
140
3.5
141
0.0
143
0.0393701
146
0.71
147
1.5
172
     1
176
   256
177
   256
178
     2
271
     2
272
     2
283
     0
284
     8
340
11
371
    -1
372
    -1
1001
ACAD_DSTYLE_DIMJOGGED_JOGANGLE_SYMBOL
1070
   384
1040
1.570796326794896
  0
DIMSTYLE
105
3B3
330
A
100
AcDbSymbolTableRecord
100
AcDbDimStyleTableRecord
  2
AM_DIN$3
 70
     0
  4
"
 41
3.5
 42
1.0
 43
10.0
 44
1.0
 47
0.1
 48
0.1
 50
89.99999999999998
 73
     0
 77
     1
 78
     8
 79
     2
140
3.5
141
0.0
143
0.0393701
146
0.71
147
1.5
176
   256
177
   256
178
     2
271
     2
272
     2
283
     0
284
     8
288
     1
289
     0
340
11
371
    -1
372
    -1
1001
ACAD_DSTYLE_DIMJOGGED_JOGANGLE_SYMBOL
1070
   384
1040
1.570796326794896
  0
DIMSTYLE
105
3B4
330
A
100
AcDbSymbolTableRecord
100
AcDbDimStyleTableRecord
  2
AM_DIN$4
 70
     0
  4
"
 41
4.0
 42
1.0
 43
10.0
 44
1.0
 47
0.1
 48
0.1
 50
89.99999999999998
 73
     0
 77
     1
 78
     8
 79
     2
140
3.5
141
0.0
143
0.0393701
146
0.71
147
1.5
176
   256
177
   256
178
     2
271
     2
272
     2
283
     0
284
     8
288
     1
289
     0
340
11
371
    -1
372
    -1
1001
ACAD_DSTYLE_DIMJOGGED_JOGANGLE_SYMBOL
1070
   384
1040
1.570796326794896
  0
DIMSTYLE
105
3B5
330
A
100
AcDbSymbolTableRecord
100
AcDbDimStyleTableRecord
  2
AM_DIN$6
 70
     0
  4
"
 41
4.0
 42
0.0
 43
10.0
 44
1.0
 47
0.1
 48
0.1
 50
89.99999999999998
 73
     0
 74
     0
 78
     8
 79
     2
140
3.5
141
0.0
143
0.0393701
146
0.71
147
1.5
172
     1
176
   256
177
   256
178
     2
271
     2
272
     2
283
     0
284
     8
340
11
371
    -1
372
    -1
1001
ACAD_DSTYLE_DIMJOGGED_JOGANGLE_SYMBOL
1070
   384
1040
1.570796326794896
  0
DIMSTYLE
105
3B6
330
A
100
AcDbSymbolTableRecord
100
AcDbDimStyleTableRecord
  2
AM_DIN$7
 70
     0
  4
"
 41
5.0
 42
1.0
 43
10.0
 44
1.0
 47
0.1
 48
0.1
 50
89.99999999999998
 73
     0
 74
     0
 77
     1
 78
     8
 79
     2
140
5.0
141
0.0
143
0.0393701
146
0.71
147
1.5
172
     1
176
   256
177
   256
178
     2
271
     2
272
     2
283
     0
284
     8
340
11
371
    -1
372
    -1
1001
ACAD_DSTYLE_DIMJOGGED_JOGANGLE_SYMBOL
1070
   384
1040
1.570796326794896
  0
DIMSTYLE
105
3B7
330
A
100
AcDbSymbolTableRecord
100
AcDbDimStyleTableRecord
  2
AM_DIN$SF
 70
     0
  4
"
 41
4.0
 42
1.0
 43
10.0
 44
1.0
 47
0.1
 48
0.1
 50
89.99999999999998
 73
     0
 74
     0
 75
     1
 76
     1
 77
     1
 78
     8
 79
     2
140
3.5
141
0.0
143
0.0393701
146
0.71
147
1.5
172
     1
176
   256
177
   256
178
     2
271
     2
272
     2
283
     0
284
     8
340
11
371
    -1
372
    -1
1001
ACAD_DSTYLE_DIMJOGGED_JOGANGLE_SYMBOL
1070
   384
1040
1.570796326794896
  0
DIMSTYLE
105
3B8
330
A
100
AcDbSymbolTableRecord
100
AcDbDimStyleTableRecord
  2
AM_DIN$SH
 70
     0
  4
"
 41
4.0
 42
1.0
 43
10.0
 44
1.0
 47
0.1
 48
0.1
 50
89.99999999999998
 73
     0
 74
     0
 75
     1
 76
     1
 77
     1
 78
     8
 79
     2
140
3.5
141
0.0
143
0.0393701
144
2.0
146
0.71
147
1.5
172
     1
173
     1
176
   256
177
   256
178
     2
271
     2
272
     2
283
     0
284
     8
340
11
343
31F
371
    -1
372
    -1
1001
ACAD_DSTYLE_DIMJOGGED_JOGANGLE_SYMBOL
1070
   384
1040
1.570796326794896
  0
DIMSTYLE
105
3D4
330
A
100
AcDbSymbolTableRecord
100
AcDbDimStyleTableRecord
  2
AM_ISO
 70
     0
  4
"
 41
2.5
 42
1.0
 43
10.0
 44
1.0
 47
0.1
 48
0.1
 73
     0
 74
     0
 77
     1
 78
     8
 79
     2
 90
     1
140
3.5
141
0.0
143
0.0393701
146
0.71
147
1.5
172
     1
176
   256
177
   256
178
     2
271
     2
272
     3
274
     4
283
     0
284
     8
340
11
371
    -1
372
    -1
1001
ACAD_DSTYLE_DIMJOGGED_JOGANGLE_SYMBOL
1070
   384
1040
0.7853981633974483
  0
DIMSTYLE
105
3D5
330
A
100
AcDbSymbolTableRecord
100
AcDbDimStyleTableRecord
  2
AM_ISO$3
 70
     0
  4
"
 41
2.5
 42
1.0
 43
10.0
 44
1.0
 47
0.1
 48
0.1
 73
     0
 77
     1
 78
     8
 79
     2
 90
     1
140
3.5
141
0.0
143
0.0393701
146
0.71
147
1.5
176
   256
177
   256
178
     2
271
     2
272
     3
274
     4
283
     0
284
     8
288
     1
289
     0
340
11
371
    -1
372
    -1
1001
ACAD_DSTYLE_DIMJOGGED_JOGANGLE_SYMBOL
1070
   384
1040
0.7853981633974483
  0
DIMSTYLE
105
3D6
330
A
100
AcDbSymbolTableRecord
100
AcDbDimStyleTableRecord
  2
AM_ISO$4
 70
     0
  4
"
 41
2.5
 42
1.0
 43
10.0
 44
1.0
 47
0.1
 48
0.1
 73
     0
 77
     1
 78
     8
 79
     2
 90
     1
140
3.5
141
0.0
143
0.0393701
146
0.71
147
1.5
176
   256
177
   256
178
     2
271
     2
272
     3
274
     4
283
     0
284
     8
288
     1
289
     0
340
11
371
    -1
372
    -1
1001
ACAD_DSTYLE_DIMJOGGED_JOGANGLE_SYMBOL
1070
   384
1040
0.7853981633974483
  0
DIMSTYLE
105
3D7
330
A
100
AcDbSymbolTableRecord
100
AcDbDimStyleTableRecord
  2
AM_ISO$6
 70
     0
  4
"
 41
2.5
 42
1.0
 43
10.0
 44
1.0
 47
0.1
 48
0.1
 73
     0
 74
     0
 78
     8
 79
     2
 90
     1
140
3.5
141
0.0
143
0.0393701
146
0.71
147
1.5
172
     1
176
   256
177
   256
178
     2
271
     2
272
     3
274
     4
283
     0
284
     8
340
11
371
    -1
372
    -1
1001
ACAD_DSTYLE_DIMJOGGED_JOGANGLE_SYMBOL
1070
   384
1040
0.7853981633974483
  0
DIMSTYLE
105
3D8
330
A
100
AcDbSymbolTableRecord
100
AcDbDimStyleTableRecord
  2
AM_ISO$7
 70
     0
  4
"
 41
2.5
 42
1.0
 43
10.0
 44
1.0
 47
0.1
 48
0.1
 73
     0
 74
     0
 77
     1
 78
     8
 79
     2
 90
     1
140
5.0
141
0.0
143
0.0393701
146
0.71
147
1.5
172
     1
176
   256
177
   256
178
     2
271
     2
272
     3
274
     4
283
     0
284
     8
340
11
371
    -1
372
    -1
1001
ACAD_DSTYLE_DIMJOGGED_JOGANGLE_SYMBOL
1070
   384
1040
0.7853981633974483
  0
DIMSTYLE
105
3D9
330
A
100
AcDbSymbolTableRecord
100
AcDbDimStyleTableRecord
  2
AM_ISO$SF
 70
     0
  4
"
 41
2.5
 42
1.0
 43
10.0
 44
1.0
 47
0.1
 48
0.1
 73
     0
 74
     0
 75
     1
 76
     1
 77
     1
 78
     8
 79
     2
 90
     1
140
3.5
141
0.0
143
0.0393701
146
0.71
147
1.5
172
     1
176
   256
177
   256
178
     2
271
     2
272
     3
274
     4
283
     0
284
     8
340
11
371
    -1
372
    -1
1001
ACAD_DSTYLE_DIMJOGGED_JOGANGLE_SYMBOL
1070
   384
1040
0.7853981633974483
  0
DIMSTYLE
105
3DA
330
A
100
AcDbSymbolTableRecord
100
AcDbDimStyleTableRecord
  2
AM_ISO$SH
 70
     0
  4
"
 41
2.5
 42
1.0
 43
10.0
 44
1.0
 47
0.1
 48
0.1
 73
     0
 74
     0
 75
     1
 76
     1
 77
     1
 78
     8
 79
     2
 90
     1
140
3.5
141
0.0
143
0.0393701
144
2.0
146
0.71
147
1.5
172
     1
173
     1
176
   256
177
   256
178
     2
271
     2
272
     3
274
     4
283
     0
284
     8
340
11
343
31F
371
    -1
372
    -1
1001
ACAD_DSTYLE_DIMJOGGED_JOGANGLE_SYMBOL
1070
   384
1040
0.7853981633974483
  0
DIMSTYLE
105
828
330
A
100
AcDbSymbolTableRecord
100
AcDbDimStyleTableRecord
  2
AM_ANSI$0
 70
     0
  4
mm
 40
20.0
 41
0.1
 42
0.05
 43
0.5
 44
0.1
 47
0.1
 48
0.1
 78
     7
 79
     2
 90
     1
140
0.12
141
0.0
146
0.71
147
0.06
176
   256
177
   256
178
     2
274
     4
284
     7
340
11
371
    -1
372
    -1
  0
ENDTAB
  0
TABLE
  2
BLOCK_RECORD
  5
1
330
0
100
AcDbSymbolTable
 70
    23
  0
BLOCK_RECORD
  5
1E
102
{ACAD_XDICTIONARY
360
609
102
}
330
1
100
AcDbSymbolTableRecord
100
AcDbBlockTableRecord
  2
*Model_Space
340
21
 70
     0
280
     1
281
     0
  0
BLOCK_RECORD
  5
1A
330
1
100
AcDbSymbolTableRecord
100
AcDbBlockTableRecord
  2
*Paper_Space
340
1D
 70
     0
280
     1
281
     0
  0
BLOCK_RECORD
  5
141
330
1
100
AcDbSymbolTableRecord
100
AcDbBlockTableRecord
  2
ANEMO1MA-G22
340
0
102
{BLKREFS
331
211
102
}
 70
     0
280
     1
281
     0
  0
BLOCK_RECORD
  5
31F
330
1
100
AcDbSymbolTableRecord
100
AcDbBlockTableRecord
  2
GENAXEH
340
0
310
2800000020000000200000000100080000000000000400000000000000000000000000000000000000000000000080000080000000808000800000008000800080800000C0C0C000C0DCC000F0CAA6000020400000206000002080000020A0000020C0000020E00000400000004020000040400000406000004080000040A0
310
000040C0000040E00000600000006020000060400000606000006080000060A0000060C0000060E00000800000008020000080400000806000008080000080A0000080C0000080E00000A0000000A0200000A0400000A0600000A0800000A0A00000A0C00000A0E00000C0000000C0200000C0400000C0600000C0800000C0
310
A00000C0C00000C0E00000E0000000E0200000E0400000E0600000E0800000E0A00000E0C00000E0E00040000000400020004000400040006000400080004000A0004000C0004000E00040200000402020004020400040206000402080004020A0004020C0004020E000404000004040200040404000404060004040800040
310
40A0004040C0004040E00040600000406020004060400040606000406080004060A0004060C0004060E00040800000408020004080400040806000408080004080A0004080C0004080E00040A0000040A0200040A0400040A0600040A0800040A0A00040A0C00040A0E00040C0000040C0200040C0400040C0600040C08000
310
40C0A00040C0C00040C0E00040E0000040E0200040E0400040E0600040E0800040E0A00040E0C00040E0E00080000000800020008000400080006000800080008000A0008000C0008000E00080200000802020008020400080206000802080008020A0008020C0008020E00080400000804020008040400080406000804080
310
008040A0008040C0008040E00080600000806020008060400080606000806080008060A0008060C0008060E00080800000808020008080400080806000808080008080A0008080C0008080E00080A0000080A0200080A0400080A0600080A0800080A0A00080A0C00080A0E00080C0000080C0200080C0400080C0600080C0
310
800080C0A00080C0C00080C0E00080E0000080E0200080E0400080E0600080E0800080E0A00080E0C00080E0E000C0000000C0002000C0004000C0006000C0008000C000A000C000C000C000E000C0200000C0202000C0204000C0206000C0208000C020A000C020C000C020E000C0400000C0402000C0404000C0406000C0
310
408000C040A000C040C000C040E000C0600000C0602000C0604000C0606000C0608000C060A000C060C000C060E000C0800000C0802000C0804000C0806000C0808000C080A000C080C000C080E000C0A00000C0A02000C0A04000C0A06000C0A08000C0A0A000C0A0C000C0A0E000C0C00000C0C02000C0C04000C0C06000
310
C0C08000C0C0A000F0FBFF00A4A0A000808080000000FF0000FF000000FFFF00FF000000FF00FF00FFFF0000FFFFFF0000000000000000000000000000000000000000000000000000000000000000000000000000000000000000000000000000000000000000000000000000000000000000000000000000000000000000
310
00000000000000000000000000000000000000000000000000000000000000000000000000000000000000000000000000000000000000000000000000000000000000000000000000000000000000000000000000000000000000000000000000000000000000000000000000000000000000000000000000000000000000
310
00000000000000000000000000000000000000000000000000000000000000000000000000000000000000000000000000000000000000000000000000000000000000000000000000000000000000000000000000000000000000000000000000000000000000000000000000000000000000000000000000000000000000
310
00000000000000000000000000000000000000000000000000000000000000000000000000000000000000000000000000000000000000000000000000000000000000000000000000000000000000000000000000000000000000000000000000000000000000000000000000000000000000000000000000000000000000
310
0000000000000000000000000000000000000000000000000000000000000000000000000000000000000000000000000000000000FFFFFFFFFFFFFFFFFFFFFFFFFFFFFFFFFFFFFFFFFFFFFFFFFFFFFFFFFFFF0000000000000000000000000000000000000000000000000000000000000000000000000000000000000000
310
00000000000000000000000000000000000000000000000000000000000000000000000000000000000000000000000000000000000000000000000000000000000000000000000000000000000000000000000000000000000000000000000000000000000000000000000000000000000000000000000000000000000000
310
00000000000000000000000000000000000000000000000000000000000000000000000000000000000000000000000000000000000000000000000000000000000000000000000000000000000000000000000000000000000000000000000000000000000000000000000000000000000000000000000000000000000000
310
00000000000000000000000000000000000000000000000000000000000000000000000000000000000000000000000000000000000000000000000000000000000000000000000000000000000000000000000000000000000000000000000000000000000000000000000000000000000000000000000000000000000000
310
0000000000000000000000000000000000000000000000000000000000000000000000000000000000000000000000000000000000000000
 70
     0
280
     1
281
     0
  0
BLOCK_RECORD
  5
460
330
1
100
AcDbSymbolTableRecord
100
AcDbBlockTableRecord
  2
*D2
340
0
 70
     0
280
     1
281
     0
  0
BLOCK_RECORD
  5
48A
330
1
100
AcDbSymbolTableRecord
100
AcDbBlockTableRecord
  2
*D3
340
0
 70
     0
280
     1
281
     0
  0
BLOCK_RECORD
  5
4AB
330
1
100
AcDbSymbolTableRecord
100
AcDbBlockTableRecord
  2
*D4
340
0
 70
     0
280
     1
281
     0
  0
BLOCK_RECORD
  5
51B
330
1
100
AcDbSymbolTableRecord
100
AcDbBlockTableRecord
  2
*D5
340
0
 70
     0
280
     1
281
     0
  0
BLOCK_RECORD
  5
545
330
1
100
AcDbSymbolTableRecord
100
AcDbBlockTableRecord
  2
*D6
340
0
 70
     0
280
     1
281
     0
  0
BLOCK_RECORD
  5
7D2
330
1
100
AcDbSymbolTableRecord
100
AcDbBlockTableRecord
  2
*U8
340
0
 70
     0
280
     1
281
     0
  0
BLOCK_RECORD
  5
82B
330
1
100
AcDbSymbolTableRecord
100
AcDbBlockTableRecord
  2
*D9
340
0
 70
     0
280
     1
281
     0
  0
BLOCK_RECORD
  5
890
330
1
100
AcDbSymbolTableRecord
100
AcDbBlockTableRecord
  2
*D10
340
0
 70
     0
280
     1
281
     0
  0
BLOCK_RECORD
  5
8FC
330
1
100
AcDbSymbolTableRecord
100
AcDbBlockTableRecord
  2
*D12
340
0
 70
     0
280
     1
281
     0
  0
BLOCK_RECORD
  5
941
330
1
100
AcDbSymbolTableRecord
100
AcDbBlockTableRecord
  2
*D13
340
0
 70
     0
280
     1
281
     0
  0
BLOCK_RECORD
  5
995
330
1
100
AcDbSymbolTableRecord
100
AcDbBlockTableRecord
  2
*D14
340
0
 70
     0
280
     1
281
     0
  0
BLOCK_RECORD
  5
9C2
330
1
100
AcDbSymbolTableRecord
100
AcDbBlockTableRecord
  2
*D15
340
0
 70
     0
280
     1
281
     0
  0
BLOCK_RECORD
  5
AB1
330
1
100
AcDbSymbolTableRecord
100
AcDbBlockTableRecord
  2
_ACMFILLED
340
0
 70
     0
280
     1
281
     0
  0
BLOCK_RECORD
  5
ABC
330
1
100
AcDbSymbolTableRecord
100
AcDbBlockTableRecord
  2
_ACMFILLEDHALF
340
0
 70
     0
280
     1
281
     0
  0
BLOCK_RECORD
  5
B29
330
1
100
AcDbSymbolTableRecord
100
AcDbBlockTableRecord
  2
*D18
340
0
 70
     0
280
     1
281
     0
  0
BLOCK_RECORD
  5
B7E
330
1
100
AcDbSymbolTableRecord
100
AcDbBlockTableRecord
  2
*D19
340
0
 70
     0
280
     1
281
     0
  0
BLOCK_RECORD
  5
BA2
330
1
100
AcDbSymbolTableRecord
100
AcDbBlockTableRecord
  2
*D20
340
0
 70
     0
280
     1
281
     0
  0
BLOCK_RECORD
  5
C08
330
1
100
AcDbSymbolTableRecord
100
AcDbBlockTableRecord
  2
*D21
340
0
 70
     0
280
     1
281
     0
  0
BLOCK_RECORD
  5
CBE
330
1
100
AcDbSymbolTableRecord
100
AcDbBlockTableRecord
  2
*D22
340
0
 70
     0
280
     1
281
     0
  0
ENDTAB
  0
ENDSEC
  0
SECTION
  2
BLOCKS
  0
BLOCK
  5
1F
330
1E
100
AcDbEntity
  8
0
100
AcDbBlockBegin
  2
*Model_Space
 70
     0
 10
0.0
 20
0.0
 30
0.0
  3
*Model_Space
  1

  0
ENDBLK
  5
20
330
1E
100
AcDbEntity
  8
0
100
AcDbBlockEnd
  0
BLOCK
  5
1B
330
1A
100
AcDbEntity
 67
     1
  8
0
100
AcDbBlockBegin
  2
*Paper_Space
 70
     0
 10
0.0
 20
0.0
 30
0.0
  3
*Paper_Space
  1

  0
ENDBLK
  5
1C
330
1A
100
AcDbEntity
 67
     1
  8
0
100
AcDbBlockEnd
  0
BLOCK
  5
142
330
141
100
AcDbEntity
  8
0
100
AcDbBlockBegin
  2
ANEMO1MA-G22
 70
     0
 10
0.0
 20
0.0
 30
0.0
  3
ANEMO1MA-G22
  1

  0
ARC
  5
143
330
141
100
AcDbEntity
  8
LAYER01
  6
Continuous
 62
     7
100
AcDbCircle
 10
112.505074
 20
196.407366
 30
0.0
 40
8.0
100
AcDbArc
 50
71.51618600000002
 51
139.191346
  0
ARC
  5
144
330
141
100
AcDbEntity
  8
LAYER01
  6
Continuous
 62
     7
100
AcDbCircle
 10
108.677719
 20
184.957853
 30
0.0
 40
20.072281
100
AcDbArc
 50
48.948387
 51
71.51618600000002
  0
ARC
  5
145
330
141
100
AcDbEntity
  8
LAYER01
  6
Continuous
 62
     7
100
AcDbCircle
 10
125.753128
 20
184.968462
 30
0.0
 40
25.503124
100
AcDbArc
 50
139.191346
 51
220.879848
  0
ARC
  5
146
330
141
100
AcDbEntity
  8
LAYER01
  6
Continuous
 62
     7
100
AcDbCircle
 10
112.5193019999999
 20
173.5131049999999
 30
0.0
 40
8.0
100
AcDbArc
 50
220.879848
 51
288.555002
  0
ARC
  5
147
330
141
100
AcDbEntity
  8
LAYER01
  6
Continuous
 62
     7
100
AcDbCircle
 10
108.677719
 20
184.957853
 30
0.0
 40
20.072281
100
AcDbArc
 50
288.555002
 51
315.6736669999999
  0
ENDBLK
  5
148
330
141
100
AcDbEntity
  8
0
100
AcDbBlockEnd
  0
BLOCK
  5
38C
330
31F
100
AcDbEntity
  8
0
100
AcDbBlockBegin
  2
GENAXEH
 70
     0
 10
0.0
 20
0.0
 30
0.0
  3
GENAXEH
  1

  0
LINE
  5
38D
330
31F
100
AcDbEntity
  8
0
100
AcDbLine
 10
-1.0
 20
0.0
 30
0.0
 11
1.0
 21
0.0
 31
0.0
  0
ENDBLK
  5
38E
330
31F
100
AcDbEntity
  8
0
100
AcDbBlockEnd
  0
BLOCK
  5
461
330
460
100
AcDbEntity
  8
0
100
AcDbBlockBegin
  2
*D2
 70
     1
 10
0.0
 20
0.0
 30
0.0
  3
*D2
  1

  0
LINE
  5
A58
330
460
100
AcDbEntity
  8
AM_5 ( Bemassung)
440
 16777216
100
AcDbLine
 10
44.5
 20
112.218462
 30
0.0
 11
44.50000000000001
 21
211.5439105026244
 31
0.0
  0
LINE
  5
A59
330
460
100
AcDbEntity
  8
AM_5 ( Bemassung)
440
 16777216
100
AcDbLine
 10
150.0
 20
112.218462
 30
0.0
 11
150.0
 21
211.5439105026244
 31
0.0
  0
LINE
  5
A5A
330
460
100
AcDbEntity
  8
AM_5 ( Bemassung)
440
 16777216
100
AcDbLine
 10
52.5
 20
209.5439105026244
 30
0.0
 11
142.0
 21
209.5439105026244
 31
0.0
  0
SOLID
  5
A5B
330
460
100
AcDbEntity
  8
AM_5 ( Bemassung)
440
 16777216
100
AcDbTrace
 10
52.5
 20
210.8772438359577
 30
0.0
 11
52.5
 21
208.210577169291
 31
0.0
 12
44.50000000000001
 22
209.5439105026244
 32
0.0
 13
44.50000000000001
 23
209.5439105026244
 33
0.0
  0
SOLID
  5
A5C
330
460
100
AcDbEntity
  8
AM_5 ( Bemassung)
440
 16777216
100
AcDbTrace
 10
142.0
 20
210.8772438359577
 30
0.0
 11
142.0
 21
208.210577169291
 31
0.0
 12
150.0
 22
209.5439105026244
 32
0.0
 13
150.0
 23
209.5439105026244
 33
0.0
  0
MTEXT
  5
A5D
330
460
100
AcDbEntity
  8
AM_5 ( Bemassung)
 62
     2
440
 16777216
100
AcDbMText
 10
97.25000000000001
 20
216.1179214166762
 30
0.0
 40
7.0
 41
0.0
 46
0.0
 71
     5
 72
     1
  1
105.5
 73
     1
 44
1.0
  0
POINT
  5
A5E
330
460
100
AcDbEntity
  8
Defpoints
 62
     0
440
 16777216
100
AcDbPoint
 10
44.5
 20
112.218462
 30
0.0
  0
POINT
  5
A5F
330
460
100
AcDbEntity
  8
Defpoints
 62
     0
440
 16777216
100
AcDbPoint
 10
150.0
 20
112.218462
 30
0.0
  0
POINT
  5
A60
330
460
100
AcDbEntity
  8
Defpoints
 62
     0
440
 16777216
100
AcDbPoint
 10
150.0
 20
209.5439105026244
 30
0.0
  0
ENDBLK
  5
462
330
460
100
AcDbEntity
  8
0
100
AcDbBlockEnd
  0
BLOCK
  5
48B
330
48A
100
AcDbEntity
  8
0
100
AcDbBlockBegin
  2
*D3
 70
     1
 10
0.0
 20
0.0
 30
0.0
  3
*D3
  1

  0
LINE
  5
C89
330
48A
100
AcDbEntity
  8
AM_5 ( Bemassung)
440
 16777216
100
AcDbLine
 10
44.5
 20
112.218462
 30
0.0
 11
44.5
 21
67.79587513200841
 31
0.0
  0
LINE
  5
C8A
330
48A
100
AcDbEntity
  8
AM_5 ( Bemassung)
440
 16777216
100
AcDbLine
 10
130.0
 20
84.6555209216549
 30
0.0
 11
130.0
 21
67.79587513200841
 31
0.0
  0
LINE
  5
C8B
330
48A
100
AcDbEntity
  8
AM_5 ( Bemassung)
440
 16777216
100
AcDbLine
 10
52.5
 20
69.7958751320084
 30
0.0
 11
122.0
 21
69.7958751320084
 31
0.0
  0
SOLID
  5
C8C
330
48A
100
AcDbEntity
  8
AM_5 ( Bemassung)
440
 16777216
100
AcDbTrace
 10
52.5
 20
71.12920846534173
 30
0.0
 11
52.5
 21
68.46254179867507
 31
0.0
 12
44.5
 22
69.7958751320084
 32
0.0
 13
44.5
 23
69.7958751320084
 33
0.0
  0
SOLID
  5
C8D
330
48A
100
AcDbEntity
  8
AM_5 ( Bemassung)
440
 16777216
100
AcDbTrace
 10
122.0
 20
71.12920846534173
 30
0.0
 11
122.0
 21
68.46254179867507
 31
0.0
 12
130.0
 22
69.7958751320084
 32
0.0
 13
130.0
 23
69.7958751320084
 33
0.0
  0
MTEXT
  5
C8E
330
48A
100
AcDbEntity
  8
AM_5 ( Bemassung)
 62
     2
440
 16777216
100
AcDbMText
 10
86.85826842578013
 20
76.36988604606024
 30
0.0
 40
7.0
 41
0.0
 46
0.0
 71
     5
 72
     1
  1
85.5
 73
     1
 44
1.0
  0
POINT
  5
C8F
330
48A
100
AcDbEntity
  8
Defpoints
 62
     0
440
 16777216
100
AcDbPoint
 10
44.5
 20
112.218462
 30
0.0
  0
POINT
  5
C90
330
48A
100
AcDbEntity
  8
Defpoints
 62
     0
440
 16777216
100
AcDbPoint
 10
130.0
 20
84.6555209216549
 30
0.0
  0
POINT
  5
C91
330
48A
100
AcDbEntity
  8
Defpoints
 62
     0
440
 16777216
100
AcDbPoint
 10
130.0
 20
69.7958751320084
 30
0.0
  0
ENDBLK
  5
48C
330
48A
100
AcDbEntity
  8
0
100
AcDbBlockEnd
  0
BLOCK
  5
4AC
330
4AB
100
AcDbEntity
  8
0
100
AcDbBlockBegin
  2
*D4
 70
     1
 10
0.0
 20
0.0
 30
0.0
  3
*D4
  1

  0
LINE
  5
C7E
330
4AB
100
AcDbEntity
  8
AM_5 ( Bemassung)
440
 16777216
100
AcDbLine
 10
130.0
 20
84.42652939317827
 30
0.0
 11
130.0
 21
63.13468962662819
 31
0.0
  0
LINE
  5
C7F
330
4AB
100
AcDbEntity
  8
AM_5 ( Bemassung)
440
 16777216
100
AcDbLine
 10
150.0
 20
112.218462
 30
0.0
 11
150.0
 21
63.13468962662819
 31
0.0
  0
LINE
  5
C80
330
4AB
100
AcDbEntity
  8
AM_5 ( Bemassung)
440
 16777216
100
AcDbLine
 10
122.0
 20
65.13468962662819
 30
0.0
 11
114.0
 21
65.13468962662819
 31
0.0
  0
LINE
  5
C81
330
4AB
100
AcDbEntity
  8
AM_5 ( Bemassung)
440
 16777216
100
AcDbLine
 10
158.0
 20
65.13468962662819
 30
0.0
 11
166.0
 21
65.13468962662819
 31
0.0
  0
LINE
  5
C82
330
4AB
100
AcDbEntity
  8
AM_5 ( Bemassung)
440
 16777216
100
AcDbLine
 10
130.0
 20
65.13468962662819
 30
0.0
 11
150.0
 21
65.13468962662819
 31
0.0
  0
SOLID
  5
C83
330
4AB
100
AcDbEntity
  8
AM_5 ( Bemassung)
440
 16777216
100
AcDbTrace
 10
122.0
 20
66.46802295996152
 30
0.0
 11
122.0
 21
63.80135629329485
 31
0.0
 12
130.0
 22
65.13468962662819
 32
0.0
 13
130.0
 23
65.13468962662819
 33
0.0
  0
SOLID
  5
C84
330
4AB
100
AcDbEntity
  8
AM_5 ( Bemassung)
440
 16777216
100
AcDbTrace
 10
158.0
 20
66.46802295996152
 30
0.0
 11
158.0
 21
63.80135629329485
 31
0.0
 12
150.0
 22
65.13468962662819
 32
0.0
 13
150.0
 23
65.13468962662819
 33
0.0
  0
MTEXT
  5
C85
330
4AB
100
AcDbEntity
  8
AM_5 ( Bemassung)
 62
     2
440
 16777216
100
AcDbMText
 10
140.0
 20
71.70870054068003
 30
0.0
 40
7.0
 41
0.0
 46
0.0
 71
     5
 72
     1
  1
20
 73
     1
 44
1.0
  0
POINT
  5
C86
330
4AB
100
AcDbEntity
  8
Defpoints
 62
     0
440
 16777216
100
AcDbPoint
 10
130.0
 20
84.42652939317827
 30
0.0
  0
POINT
  5
C87
330
4AB
100
AcDbEntity
  8
Defpoints
 62
     0
440
 16777216
100
AcDbPoint
 10
150.0
 20
112.218462
 30
0.0
  0
POINT
  5
C88
330
4AB
100
AcDbEntity
  8
Defpoints
 62
     0
440
 16777216
100
AcDbPoint
 10
150.0
 20
65.13468962662819
 30
0.0
  0
ENDBLK
  5
4AD
330
4AB
100
AcDbEntity
  8
0
100
AcDbBlockEnd
  0
BLOCK
  5
51C
330
51B
100
AcDbEntity
  8
0
100
AcDbBlockBegin
  2
*D5
 70
     1
 10
0.0
 20
0.0
 30
0.0
  3
*D5
  1

  0
LINE
  5
976
330
51B
100
AcDbEntity
  8
AM_5 ( Bemassung)
440
 16777216
100
AcDbLine
 10
150.0
 20
112.218462
 30
0.0
 11
224.376701
 21
112.218462
 31
0.0
  0
LINE
  5
977
330
51B
100
AcDbEntity
  8
AM_5 ( Bemassung)
440
 16777216
100
AcDbLine
 10
170.0
 20
204.468462
 30
0.0
 11
224.376701
 21
204.468462
 31
0.0
  0
LINE
  5
978
330
51B
100
AcDbEntity
  8
AM_5 ( Bemassung)
440
 16777216
100
AcDbLine
 10
222.3767009999999
 20
120.218462
 30
0.0
 11
222.3767009999999
 21
196.468462
 31
0.0
  0
SOLID
  5
979
330
51B
100
AcDbEntity
  8
AM_5 ( Bemassung)
440
 16777216
100
AcDbTrace
 10
221.0433676666666
 20
120.218462
 30
0.0
 11
223.7100343333333
 21
120.218462
 31
0.0
 12
222.3767009999999
 22
112.218462
 32
0.0
 13
222.3767009999999
 23
112.218462
 33
0.0
  0
SOLID
  5
97A
330
51B
100
AcDbEntity
  8
AM_5 ( Bemassung)
440
 16777216
100
AcDbTrace
 10
221.0433676666666
 20
196.468462
 30
0.0
 11
223.7100343333333
 21
196.468462
 31
0.0
 12
222.3767009999999
 22
204.468462
 32
0.0
 13
222.3767009999999
 23
204.468462
 33
0.0
  0
MTEXT
  5
97B
330
51B
100
AcDbEntity
  8
AM_5 ( Bemassung)
 62
     2
440
 16777216
100
AcDbMText
 10
215.8003026371077
 20
158.343462
 30
0.0
 40
7.0
 41
0.0
 46
0.0
 71
     5
 72
     1
  1
93
 11
0.0000000000000001
 21
1.0
 31
0.0
 73
     1
 44
1.0
  0
POINT
  5
97C
330
51B
100
AcDbEntity
  8
Defpoints
 62
     0
440
 16777216
100
AcDbPoint
 10
150.0
 20
112.218462
 30
0.0
  0
POINT
  5
97D
330
51B
100
AcDbEntity
  8
Defpoints
 62
     0
440
 16777216
100
AcDbPoint
 10
170.0
 20
204.468462
 30
0.0
  0
POINT
  5
97E
330
51B
100
AcDbEntity
  8
Defpoints
 62
     0
440
 16777216
100
AcDbPoint
 10
222.3767009999999
 20
204.468462
 30
0.0
  0
ENDBLK
  5
51D
330
51B
100
AcDbEntity
  8
0
100
AcDbBlockEnd
  0
BLOCK
  5
546
330
545
100
AcDbEntity
  8
0
100
AcDbBlockBegin
  2
*D6
 70
     1
 10
0.0
 20
0.0
 30
0.0
  3
*D6
  1

  0
LINE
  5
A61
330
545
100
AcDbEntity
  8
AM_5 ( Bemassung)
440
 16777216
100
AcDbLine
 10
189.5
 20
184.968462
 30
0.0
 11
189.5
 21
226.5334987218653
 31
0.0
  0
LINE
  5
A62
330
545
100
AcDbEntity
  8
AM_5 ( Bemassung)
440
 16777216
100
AcDbLine
 10
44.5
 20
112.218462
 30
0.0
 11
44.50000000000001
 21
226.5334987218653
 31
0.0
  0
LINE
  5
A63
330
545
100
AcDbEntity
  8
AM_5 ( Bemassung)
440
 16777216
100
AcDbLine
 10
181.5
 20
224.5334987218653
 30
0.0
 11
52.5
 21
224.5334987218653
 31
0.0
  0
SOLID
  5
A64
330
545
100
AcDbEntity
  8
AM_5 ( Bemassung)
440
 16777216
100
AcDbTrace
 10
181.5
 20
225.8668320551986
 30
0.0
 11
181.5
 21
223.2001653885319
 31
0.0
 12
189.5
 22
224.5334987218653
 32
0.0
 13
189.5
 23
224.5334987218653
 33
0.0
  0
SOLID
  5
A65
330
545
100
AcDbEntity
  8
AM_5 ( Bemassung)
440
 16777216
100
AcDbTrace
 10
52.5
 20
225.8668320551986
 30
0.0
 11
52.5
 21
223.2001653885319
 31
0.0
 12
44.50000000000001
 22
224.5334987218653
 32
0.0
 13
44.50000000000001
 23
224.5334987218653
 33
0.0
  0
MTEXT
  5
A66
330
545
100
AcDbEntity
  8
AM_5 ( Bemassung)
 62
     2
440
 16777216
100
AcDbMText
 10
117.0
 20
231.1075096359171
 30
0.0
 40
7.0
 41
0.0
 46
0.0
 71
     5
 72
     1
  1
145
 73
     1
 44
1.0
  0
POINT
  5
A67
330
545
100
AcDbEntity
  8
Defpoints
 62
     0
440
 16777216
100
AcDbPoint
 10
189.5
 20
184.968462
 30
0.0
  0
POINT
  5
A68
330
545
100
AcDbEntity
  8
Defpoints
 62
     0
440
 16777216
100
AcDbPoint
 10
44.5
 20
112.218462
 30
0.0
  0
POINT
  5
A69
330
545
100
AcDbEntity
  8
Defpoints
 62
     0
440
 16777216
100
AcDbPoint
 10
44.50000000000001
 20
224.5334987218653
 30
0.0
  0
ENDBLK
  5
547
330
545
100
AcDbEntity
  8
0
100
AcDbBlockEnd
  0
BLOCK
  5
7D3
330
7D2
100
AcDbEntity
  8
0
100
AcDbBlockBegin
  2
*U8
 70
     1
 10
0.0
 20
0.0
 30
0.0
  3
*U8
  1

  0
ENDBLK
  5
7D4
330
7D2
100
AcDbEntity
  8
0
100
AcDbBlockEnd
  0
BLOCK
  5
82C
330
82B
100
AcDbEntity
  8
0
100
AcDbBlockBegin
  2
*D9
 70
     1
 10
0.0
 20
0.0
 30
0.0
  3
*D9
  1

  0
LINE
  5
A2F
330
82B
100
AcDbEntity
  8
AM_5 ( Bemassung)
440
 16777216
100
AcDbLine
 10
130.0
 20
37.58347198070828
 30
0.0
 11
207.8405911667225
 21
37.58347198070826
 31
0.0
  0
LINE
  5
A30
330
82B
100
AcDbEntity
  8
AM_5 ( Bemassung)
440
 16777216
100
AcDbLine
 10
130.0792967044843
 20
-41.39054344191381
 30
0.0
 11
207.8405911667225
 21
-41.39054344191383
 31
0.0
  0
LINE
  5
A31
330
82B
100
AcDbEntity
  8
AM_5 ( Bemassung)
440
 16777216
100
AcDbLine
 10
205.8405911667225
 20
29.58347198070826
 30
0.0
 11
205.8405911667225
 21
-33.39054344191384
 31
0.0
  0
SOLID
  5
A32
330
82B
100
AcDbEntity
  8
AM_5 ( Bemassung)
440
 16777216
100
AcDbTrace
 10
204.5072578333892
 20
29.58347198070826
 30
0.0
 11
207.1739245000559
 21
29.58347198070826
 31
0.0
 12
205.8405911667225
 22
37.58347198070826
 32
0.0
 13
205.8405911667225
 23
37.58347198070826
 33
0.0
  0
SOLID
  5
A33
330
82B
100
AcDbEntity
  8
AM_5 ( Bemassung)
440
 16777216
100
AcDbTrace
 10
204.5072578333892
 20
-33.39054344191384
 30
0.0
 11
207.1739245000559
 21
-33.39054344191384
 31
0.0
 12
205.8405911667225
 22
-41.39054344191383
 32
0.0
 13
205.8405911667225
 23
-41.39054344191383
 33
0.0
  0
MTEXT
  5
A34
330
82B
100
AcDbEntity
  8
AM_5 ( Bemassung)
 62
     2
440
 16777216
100
AcDbMText
 10
199.0708094477593
 20
-1.903535730602756
 30
0.0
 40
7.0
 41
0.0
 46
0.0
 71
     5
 72
     1
  1
%%c 80
 11
0.0000000000000001
 21
1.0
 31
0.0
 73
     1
 44
1.0
  0
POINT
  5
A35
330
82B
100
AcDbEntity
  8
Defpoints
 62
     0
440
 16777216
100
AcDbPoint
 10
130.0
 20
37.58347198070828
 30
0.0
  0
POINT
  5
A36
330
82B
100
AcDbEntity
  8
Defpoints
 62
     0
440
 16777216
100
AcDbPoint
 10
130.0792967044843
 20
-41.39054344191381
 30
0.0
  0
POINT
  5
A37
330
82B
100
AcDbEntity
  8
Defpoints
 62
     0
440
 16777216
100
AcDbPoint
 10
205.8405911667225
 20
-41.39054344191383
 30
0.0
  0
ENDBLK
  5
82D
330
82B
100
AcDbEntity
  8
0
100
AcDbBlockEnd
  0
BLOCK
  5
891
330
890
100
AcDbEntity
  8
0
100
AcDbBlockBegin
  2
*D10
 70
     1
 10
0.0
 20
0.0
 30
0.0
  3
*D10
  1

  0
LINE
  5
A1B
330
890
100
AcDbEntity
  8
AM_5 ( Bemassung)
440
 16777216
100
AcDbLine
 10
100.5
 20
49.27231956579402
 30
0.0
 11
225.1682286856398
 21
49.27231956579398
 31
0.0
  0
LINE
  5
A1C
330
890
100
AcDbEntity
  8
AM_5 ( Bemassung)
440
 16777216
100
AcDbLine
 10
101.1495129999999
 20
-53.29367443420597
 30
0.0
 11
225.1682286856398
 21
-53.29367443420601
 31
0.0
  0
LINE
  5
A1D
330
890
100
AcDbEntity
  8
AM_5 ( Bemassung)
440
 16777216
100
AcDbLine
 10
223.1682286856398
 20
41.27231956579398
 30
0.0
 11
223.1682286856398
 21
-45.293674434206
 31
0.0
  0
SOLID
  5
A1E
330
890
100
AcDbEntity
  8
AM_5 ( Bemassung)
440
 16777216
100
AcDbTrace
 10
221.8348953523065
 20
41.27231956579398
 30
0.0
 11
224.5015620189732
 21
41.27231956579398
 31
0.0
 12
223.1682286856398
 22
49.27231956579398
 32
0.0
 13
223.1682286856398
 23
49.27231956579398
 33
0.0
  0
SOLID
  5
A1F
330
890
100
AcDbEntity
  8
AM_5 ( Bemassung)
440
 16777216
100
AcDbTrace
 10
221.8348953523065
 20
-45.293674434206
 30
0.0
 11
224.5015620189732
 21
-45.293674434206
 31
0.0
 12
223.1682286856398
 22
-53.29367443420601
 32
0.0
 13
223.1682286856398
 23
-53.29367443420601
 33
0.0
  0
MTEXT
  5
A20
330
890
100
AcDbEntity
  8
AM_5 ( Bemassung)
 62
     2
440
 16777216
100
AcDbMText
 10
216.3984469666766
 20
-2.010677434205972
 30
0.0
 40
7.0
 41
0.0
 46
0.0
 71
     5
 72
     1
  1
%%c103
 11
0.0000000000000001
 21
1.0
 31
0.0
 73
     1
 44
1.0
  0
POINT
  5
A21
330
890
100
AcDbEntity
  8
Defpoints
 62
     0
440
 16777216
100
AcDbPoint
 10
100.5
 20
49.27231956579402
 30
0.0
  0
POINT
  5
A22
330
890
100
AcDbEntity
  8
Defpoints
 62
     0
440
 16777216
100
AcDbPoint
 10
101.1495129999999
 20
-53.29367443420597
 30
0.0
  0
POINT
  5
A23
330
890
100
AcDbEntity
  8
Defpoints
 62
     0
440
 16777216
100
AcDbPoint
 10
223.1682286856398
 20
-53.29367443420601
 30
0.0
  0
ENDBLK
  5
892
330
890
100
AcDbEntity
  8
0
100
AcDbBlockEnd
  0
BLOCK
  5
8FD
330
8FC
100
AcDbEntity
  8
0
100
AcDbBlockBegin
  2
*D12
 70
     1
 10
0.0
 20
0.0
 30
0.0
  3
*D12
  1

  0
LINE
  5
A6A
330
8FC
100
AcDbEntity
  8
AM_5 ( Bemassung)
440
 16777216
100
AcDbLine
 10
68.83988999999999
 20
117.221079
 30
0.0
 11
29.17477754075708
 21
117.221079
 31
0.0
  0
LINE
  5
A6B
330
8FC
100
AcDbEntity
  8
AM_5 ( Bemassung)
440
 16777216
100
AcDbLine
 10
44.5
 20
112.218462
 30
0.0
 11
29.17477754075708
 21
112.218462
 31
0.0
  0
LINE
  5
A6C
330
8FC
100
AcDbEntity
  8
AM_5 ( Bemassung)
440
 16777216
100
AcDbLine
 10
31.17477754075708
 20
125.221079
 30
0.0
 11
31.17477754075708
 21
133.221079
 31
0.0
  0
LINE
  5
A6D
330
8FC
100
AcDbEntity
  8
AM_5 ( Bemassung)
440
 16777216
100
AcDbLine
 10
31.17477754075708
 20
104.218462
 30
0.0
 11
31.17477754075707
 21
85.57726145429745
 31
0.0
  0
LINE
  5
A6E
330
8FC
100
AcDbEntity
  8
AM_5 ( Bemassung)
440
 16777216
100
AcDbLine
 10
31.17477754075708
 20
117.221079
 30
0.0
 11
31.17477754075708
 21
112.218462
 31
0.0
  0
SOLID
  5
A6F
330
8FC
100
AcDbEntity
  8
AM_5 ( Bemassung)
440
 16777216
100
AcDbTrace
 10
29.84144420742375
 20
125.221079
 30
0.0
 11
32.50811087409041
 21
125.221079
 31
0.0
 12
31.17477754075708
 22
117.221079
 32
0.0
 13
31.17477754075708
 23
117.221079
 33
0.0
  0
SOLID
  5
A70
330
8FC
100
AcDbEntity
  8
AM_5 ( Bemassung)
440
 16777216
100
AcDbTrace
 10
29.84144420742375
 20
104.218462
 30
0.0
 11
32.50811087409041
 21
104.218462
 31
0.0
 12
31.17477754075708
 22
112.218462
 32
0.0
 13
31.17477754075708
 23
112.218462
 33
0.0
  0
MTEXT
  5
A71
330
8FC
100
AcDbEntity
  8
AM_5 ( Bemassung)
 62
     2
440
 16777216
100
AcDbMText
 10
24.61509131974751
 20
90.89786172714873
 30
0.0
 40
7.0
 41
0.0
 46
0.0
 71
     5
 72
     1
  1
5
 11
0.0000000000000001
 21
1.0
 31
0.0
 73
     1
 44
1.0
  0
POINT
  5
A72
330
8FC
100
AcDbEntity
  8
Defpoints
 62
     0
440
 16777216
100
AcDbPoint
 10
68.83988999999999
 20
117.221079
 30
0.0
  0
POINT
  5
A73
330
8FC
100
AcDbEntity
  8
Defpoints
 62
     0
440
 16777216
100
AcDbPoint
 10
44.5
 20
112.218462
 30
0.0
  0
POINT
  5
A74
330
8FC
100
AcDbEntity
  8
Defpoints
 62
     0
440
 16777216
100
AcDbPoint
 10
31.17477754075708
 20
112.218462
 30
0.0
  0
ENDBLK
  5
8FE
330
8FC
100
AcDbEntity
  8
0
100
AcDbBlockEnd
  0
BLOCK
  5
942
330
941
100
AcDbEntity
  8
0
100
AcDbBlockBegin
  2
*D13
 70
     1
 10
0.0
 20
0.0
 30
0.0
  3
*D13
  1

  0
LINE
  5
988
330
941
100
AcDbEntity
  8
AM_5 ( Bemassung)
440
 16777216
100
AcDbLine
 10
170.0
 20
184.968462
 30
0.0
 11
199.3958192293671
 21
184.968462
 31
0.0
  0
LINE
  5
989
330
941
100
AcDbEntity
  8
AM_5 ( Bemassung)
440
 16777216
100
AcDbLine
 10
150.0
 20
112.218462
 30
0.0
 11
199.3958192293671
 21
112.218462
 31
0.0
  0
LINE
  5
98A
330
941
100
AcDbEntity
  8
AM_5 ( Bemassung)
440
 16777216
100
AcDbLine
 10
197.3958192293671
 20
176.968462
 30
0.0
 11
197.3958192293671
 21
120.218462
 31
0.0
  0
SOLID
  5
98B
330
941
100
AcDbEntity
  8
AM_5 ( Bemassung)
440
 16777216
100
AcDbTrace
 10
196.0624858960338
 20
176.968462
 30
0.0
 11
198.7291525627004
 21
176.968462
 31
0.0
 12
197.3958192293671
 22
184.968462
 32
0.0
 13
197.3958192293671
 23
184.968462
 33
0.0
  0
SOLID
  5
98C
330
941
100
AcDbEntity
  8
AM_5 ( Bemassung)
440
 16777216
100
AcDbTrace
 10
196.0624858960338
 20
120.218462
 30
0.0
 11
198.7291525627004
 21
120.218462
 31
0.0
 12
197.3958192293671
 22
112.218462
 32
0.0
 13
197.3958192293671
 23
112.218462
 33
0.0
  0
MTEXT
  5
98D
330
941
100
AcDbEntity
  8
AM_5 ( Bemassung)
 62
     2
440
 16777216
100
AcDbMText
 10
190.8194208664749
 20
148.593462
 30
0.0
 40
7.0
 41
0.0
 46
0.0
 71
     5
 72
     1
  1
73\P
 11
0.0000000000000001
 21
1.0
 31
0.0
 73
     1
 44
1.0
  0
POINT
  5
98E
330
941
100
AcDbEntity
  8
Defpoints
 62
     0
440
 16777216
100
AcDbPoint
 10
170.0
 20
184.968462
 30
0.0
  0
POINT
  5
98F
330
941
100
AcDbEntity
  8
Defpoints
 62
     0
440
 16777216
100
AcDbPoint
 10
150.0
 20
112.218462
 30
0.0
  0
POINT
  5
990
330
941
100
AcDbEntity
  8
Defpoints
 62
     0
440
 16777216
100
AcDbPoint
 10
197.3958192293671
 20
112.218462
 30
0.0
  0
ENDBLK
  5
943
330
941
100
AcDbEntity
  8
0
100
AcDbBlockEnd
  0
BLOCK
  5
996
330
995
100
AcDbEntity
  8
0
100
AcDbBlockBegin
  2
*D14
 70
     1
 10
0.0
 20
0.0
 30
0.0
  3
*D14
  1

  0
LINE
  5
ACE
330
995
100
AcDbEntity
  8
AM_5 ( Bemassung)
440
 16777216
100
AcDbLine
 10
170.0
 20
204.468462
 30
0.0
 11
213.336848702578
 21
204.468462
 31
0.0
  0
LINE
  5
ACF
330
995
100
AcDbEntity
  8
AM_5 ( Bemassung)
440
 16777216
100
AcDbLine
 10
170.0
 20
165.468462
 30
0.0
 11
213.336848702578
 21
165.468462
 31
0.0
  0
LINE
  5
AD0
330
995
100
AcDbEntity
  8
AM_5 ( Bemassung)
440
 16777216
100
AcDbLine
 10
211.336848702578
 20
196.468462
 30
0.0
 11
211.336848702578
 21
173.468462
 31
0.0
  0
SOLID
  5
AD1
330
995
100
AcDbEntity
  8
AM_5 ( Bemassung)
440
 16777216
100
AcDbTrace
 10
210.0035153692447
 20
196.468462
 30
0.0
 11
212.6701820359114
 21
196.468462
 31
0.0
 12
211.336848702578
 22
204.468462
 32
0.0
 13
211.336848702578
 23
204.468462
 33
0.0
  0
SOLID
  5
AD2
330
995
100
AcDbEntity
  8
AM_5 ( Bemassung)
440
 16777216
100
AcDbTrace
 10
210.0035153692446
 20
173.468462
 30
0.0
 11
212.6701820359113
 21
173.468462
 31
0.0
 12
211.336848702578
 22
165.468462
 32
0.0
 13
211.336848702578
 23
165.468462
 33
0.0
  0
MTEXT
  5
AD3
330
995
100
AcDbEntity
  8
AM_5 ( Bemassung)
 62
     2
440
 16777216
100
AcDbMText
 10
204.7604503396857
 20
184.968462
 30
0.0
 40
7.0
 41
0.0
 46
0.0
 71
     5
 72
     1
  1
39
 11
0.0000000000000001
 21
1.0
 31
0.0
 73
     1
 44
1.0
  0
POINT
  5
AD4
330
995
100
AcDbEntity
  8
Defpoints
 62
     0
440
 16777216
100
AcDbPoint
 10
170.0
 20
204.468462
 30
0.0
  0
POINT
  5
AD5
330
995
100
AcDbEntity
  8
Defpoints
 62
     0
440
 16777216
100
AcDbPoint
 10
170.0
 20
165.468462
 30
0.0
  0
POINT
  5
AD6
330
995
100
AcDbEntity
  8
Defpoints
 62
     0
440
 16777216
100
AcDbPoint
 10
211.336848702578
 20
165.468462
 30
0.0
  0
ENDBLK
  5
997
330
995
100
AcDbEntity
  8
0
100
AcDbBlockEnd
  0
BLOCK
  5
9C3
330
9C2
100
AcDbEntity
  8
0
100
AcDbBlockBegin
  2
*D15
 70
     1
 10
0.0
 20
0.0
 30
0.0
  3
*D15
  1

  0
LINE
  5
A24
330
9C2
100
AcDbEntity
  8
AM_5 ( Bemassung)
440
 16777216
100
AcDbLine
 10
60.0
 20
1.176814565794025
 30
0.0
 11
38.37066654083651
 21
1.176814565794031
 31
0.0
  0
LINE
  5
A25
330
9C2
100
AcDbEntity
  8
AM_5 ( Bemassung)
440
 16777216
100
AcDbLine
 10
60.0
 20
-4.823185434205974
 30
0.0
 11
38.37066654083651
 21
-4.823185434205969
 31
0.0
  0
LINE
  5
A26
330
9C2
100
AcDbEntity
  8
AM_5 ( Bemassung)
440
 16777216
100
AcDbLine
 10
40.37066654083651
 20
9.17681456579403
 30
0.0
 11
40.37066654083651
 21
17.17681456579403
 31
0.0
  0
LINE
  5
A27
330
9C2
100
AcDbEntity
  8
AM_5 ( Bemassung)
440
 16777216
100
AcDbLine
 10
40.37066654083651
 20
-12.82318543420597
 30
0.0
 11
40.3706665408365
 21
-31.46438597990857
 31
0.0
  0
LINE
  5
A28
330
9C2
100
AcDbEntity
  8
AM_5 ( Bemassung)
440
 16777216
100
AcDbLine
 10
40.37066654083651
 20
1.17681456579403
 30
0.0
 11
40.37066654083651
 21
-4.823185434205969
 31
0.0
  0
SOLID
  5
A29
330
9C2
100
AcDbEntity
  8
AM_5 ( Bemassung)
440
 16777216
100
AcDbTrace
 10
39.03733320750318
 20
9.17681456579403
 30
0.0
 11
41.70399987416984
 21
9.17681456579403
 31
0.0
 12
40.37066654083651
 22
1.17681456579403
 32
0.0
 13
40.37066654083651
 23
1.17681456579403
 33
0.0
  0
SOLID
  5
A2A
330
9C2
100
AcDbEntity
  8
AM_5 ( Bemassung)
440
 16777216
100
AcDbTrace
 10
39.03733320750318
 20
-12.82318543420597
 30
0.0
 11
41.70399987416984
 21
-12.82318543420597
 31
0.0
 12
40.37066654083651
 22
-4.823185434205969
 32
0.0
 13
40.37066654083651
 23
-4.823185434205969
 33
0.0
  0
MTEXT
  5
A2B
330
9C2
100
AcDbEntity
  8
AM_5 ( Bemassung)
 62
     2
440
 16777216
100
AcDbMText
 10
33.81098031982696
 20
-26.14378570705726
 30
0.0
 40
7.0
 41
0.0
 46
0.0
 71
     5
 72
     1
  1
5
 11
0.0000000000000001
 21
1.0
 31
0.0
 73
     1
 44
1.0
  0
POINT
  5
A2C
330
9C2
100
AcDbEntity
  8
Defpoints
 62
     0
440
 16777216
100
AcDbPoint
 10
60.0
 20
1.176814565794025
 30
0.0
  0
POINT
  5
A2D
330
9C2
100
AcDbEntity
  8
Defpoints
 62
     0
440
 16777216
100
AcDbPoint
 10
60.0
 20
-4.823185434205974
 30
0.0
  0
POINT
  5
A2E
330
9C2
100
AcDbEntity
  8
Defpoints
 62
     0
440
 16777216
100
AcDbPoint
 10
40.37066654083651
 20
-4.823185434205969
 30
0.0
  0
ENDBLK
  5
9C4
330
9C2
100
AcDbEntity
  8
0
100
AcDbBlockEnd
  0
BLOCK
  5
AB2
330
AB1
100
AcDbEntity
  8
0
100
AcDbBlockBegin
  2
_ACMFILLED
 70
     0
 10
0.0
 20
0.0
 30
0.0
  3
_ACMFILLED
  1

  0
TRACE
  5
AB4
330
AB1
100
AcDbEntity
  8
AM_7 (Mittellinie)
  6
AM_ISO08W050x2
 62
     0
100
AcDbTrace
 10
-1.0
 20
-0.166666666
 30
0.0
 11
-1.0
 21
0.166666666
 31
0.0
 12
0.0
 22
0.0
 32
0.0
 13
0.0
 23
0.0
 33
0.0
  0
ENDBLK
  5
AB3
330
AB1
100
AcDbEntity
  8
0
100
AcDbBlockEnd
  0
BLOCK
  5
ABD
330
ABC
100
AcDbEntity
  8
0
100
AcDbBlockBegin
  2
_ACMFILLEDHALF
 70
     0
 10
0.0
 20
0.0
 30
0.0
  3
_ACMFILLEDHALF
  1

  0
TRACE
  5
ABF
330
ABC
100
AcDbEntity
  8
AM_7 (Mittellinie)
  6
AM_ISO08W050x2
 62
     0
100
AcDbTrace
 10
-0.8
 20
0.0
 30
0.0
 11
-1.0
 21
0.166666666
 31
0.0
 12
0.0
 22
0.0
 32
0.0
 13
0.0
 23
0.0
 33
0.0
  0
LINE
  5
AC0
330
ABC
100
AcDbEntity
  8
AM_7 (Mittellinie)
  6
AM_ISO08W050x2
 62
     0
100
AcDbLine
 10
-1.0
 20
0.0
 30
0.0
 11
-0.8
 21
0.0
 31
0.0
  0
ENDBLK
  5
ABE
330
ABC
100
AcDbEntity
  8
0
100
AcDbBlockEnd
  0
BLOCK
  5
B2A
330
B29
100
AcDbEntity
  8
0
100
AcDbBlockBegin
  2
*D18
 70
     1
 10
0.0
 20
0.0
 30
0.0
  3
*D18
  1

  0
LINE
  5
BE9
330
B29
100
AcDbEntity
  8
AM_5 ( Bemassung)
440
 16777216
100
AcDbLine
 10
112.0733114142258
 20
112.218462
 30
0.0
 11
112.0733114142258
 21
91.28031355326152
 31
0.0
  0
LINE
  5
BEA
330
B29
100
AcDbEntity
  8
AM_5 ( Bemassung)
440
 16777216
100
AcDbLine
 10
147.12605040582
 20
112.218462
 30
0.0
 11
147.12605040582
 21
91.28031355326152
 31
0.0
  0
LINE
  5
BEB
330
B29
100
AcDbEntity
  8
AM_5 ( Bemassung)
440
 16777216
100
AcDbLine
 10
120.0733114142258
 20
93.28031355326151
 30
0.0
 11
139.12605040582
 21
93.28031355326151
 31
0.0
  0
SOLID
  5
BEC
330
B29
100
AcDbEntity
  8
AM_5 ( Bemassung)
440
 16777216
100
AcDbTrace
 10
120.0733114142258
 20
94.61364688659484
 30
0.0
 11
120.0733114142258
 21
91.94698021992818
 31
0.0
 12
112.0733114142258
 22
93.28031355326151
 32
0.0
 13
112.0733114142258
 23
93.28031355326151
 33
0.0
  0
SOLID
  5
BED
330
B29
100
AcDbEntity
  8
AM_5 ( Bemassung)
440
 16777216
100
AcDbTrace
 10
139.12605040582
 20
94.61364688659484
 30
0.0
 11
139.12605040582
 21
91.94698021992818
 31
0.0
 12
147.12605040582
 22
93.28031355326151
 32
0.0
 13
147.12605040582
 23
93.28031355326151
 33
0.0
  0
MTEXT
  5
BEE
330
B29
100
AcDbEntity
  8
AM_5 ( Bemassung)
 62
     2
440
 16777216
100
AcDbMText
 10
130.0
 20
100.0500952722247
 30
0.0
 40
7.0
 41
0.0
 46
0.0
 71
     5
 72
     1
  1
%%c34
 73
     1
 44
1.0
  0
POINT
  5
BEF
330
B29
100
AcDbEntity
  8
Defpoints
 62
     0
440
 16777216
100
AcDbPoint
 10
112.0733114142258
 20
112.218462
 30
0.0
  0
POINT
  5
BF0
330
B29
100
AcDbEntity
  8
Defpoints
 62
     0
440
 16777216
100
AcDbPoint
 10
147.12605040582
 20
112.218462
 30
0.0
  0
POINT
  5
BF1
330
B29
100
AcDbEntity
  8
Defpoints
 62
     0
440
 16777216
100
AcDbPoint
 10
147.12605040582
 20
93.28031355326151
 30
0.0
  0
ENDBLK
  5
B2B
330
B29
100
AcDbEntity
  8
0
100
AcDbBlockEnd
  0
BLOCK
  5
B7F
330
B7E
100
AcDbEntity
  8
0
100
AcDbBlockBegin
  2
*D19
 70
     1
 10
0.0
 20
0.0
 30
0.0
  3
*D19
  1

  0
LINE
  5
BD7
330
B7E
100
AcDbEntity
  8
AM_5 ( Bemassung)
440
 16777216
100
AcDbLine
 10
60.0
 20
5.176814565794025
 30
0.0
 11
60.0
 21
56.30130486212784
 31
0.0
  0
LINE
  5
BD8
330
B7E
100
AcDbEntity
  8
AM_5 ( Bemassung)
440
 16777216
100
AcDbLine
 10
90.0
 20
8.176814565794014
 30
0.0
 11
90.0
 21
56.30130486212784
 31
0.0
  0
LINE
  5
BD9
330
B7E
100
AcDbEntity
  8
AM_5 ( Bemassung)
440
 16777216
100
AcDbLine
 10
68.0
 20
54.30130486212783
 30
0.0
 11
82.0
 21
54.30130486212783
 31
0.0
  0
SOLID
  5
BDA
330
B7E
100
AcDbEntity
  8
AM_5 ( Bemassung)
440
 16777216
100
AcDbTrace
 10
68.0
 20
55.63463819546117
 30
0.0
 11
68.0
 21
52.9679715287945
 31
0.0
 12
60.0
 22
54.30130486212783
 32
0.0
 13
60.0
 23
54.30130486212783
 33
0.0
  0
SOLID
  5
BDB
330
B7E
100
AcDbEntity
  8
AM_5 ( Bemassung)
440
 16777216
100
AcDbTrace
 10
82.0
 20
55.63463819546117
 30
0.0
 11
82.0
 21
52.9679715287945
 31
0.0
 12
90.0
 22
54.30130486212783
 32
0.0
 13
90.0
 23
54.30130486212783
 33
0.0
  0
MTEXT
  5
BDC
330
B7E
100
AcDbEntity
  8
AM_5 ( Bemassung)
 62
     2
440
 16777216
100
AcDbMText
 10
75.0
 20
60.87770322502006
 30
0.0
 40
7.0
 41
0.0
 46
0.0
 71
     5
 72
     1
  1
30
 73
     1
 44
1.0
  0
POINT
  5
BDD
330
B7E
100
AcDbEntity
  8
Defpoints
 62
     0
440
 16777216
100
AcDbPoint
 10
60.0
 20
5.176814565794025
 30
0.0
  0
POINT
  5
BDE
330
B7E
100
AcDbEntity
  8
Defpoints
 62
     0
440
 16777216
100
AcDbPoint
 10
90.0
 20
8.176814565794014
 30
0.0
  0
POINT
  5
BDF
330
B7E
100
AcDbEntity
  8
Defpoints
 62
     0
440
 16777216
100
AcDbPoint
 10
90.0
 20
54.30130486212783
 30
0.0
  0
ENDBLK
  5
B80
330
B7E
100
AcDbEntity
  8
0
100
AcDbBlockEnd
  0
BLOCK
  5
BA3
330
BA2
100
AcDbEntity
  8
0
100
AcDbBlockBegin
  2
*D20
 70
     1
 10
0.0
 20
0.0
 30
0.0
  3
*D20
  1

  0
LINE
  5
BCE
330
BA2
100
AcDbEntity
  8
AM_5 ( Bemassung)
440
 16777216
100
AcDbLine
 10
90.0
 20
-1.823185434205974
 30
0.0
 11
90.0
 21
56.51240858519077
 31
0.0
  0
LINE
  5
BCF
330
BA2
100
AcDbEntity
  8
AM_5 ( Bemassung)
440
 16777216
100
AcDbLine
 10
130.0
 20
-1.823185434205974
 30
0.0
 11
130.0
 21
56.51240858519077
 31
0.0
  0
LINE
  5
BD0
330
BA2
100
AcDbEntity
  8
AM_5 ( Bemassung)
440
 16777216
100
AcDbLine
 10
98.0
 20
54.51240858519077
 30
0.0
 11
122.0
 21
54.51240858519077
 31
0.0
  0
SOLID
  5
BD1
330
BA2
100
AcDbEntity
  8
AM_5 ( Bemassung)
440
 16777216
100
AcDbTrace
 10
98.0
 20
55.84574191852411
 30
0.0
 11
98.0
 21
53.17907525185743
 31
0.0
 12
90.0
 22
54.51240858519077
 32
0.0
 13
90.0
 23
54.51240858519077
 33
0.0
  0
SOLID
  5
BD2
330
BA2
100
AcDbEntity
  8
AM_5 ( Bemassung)
440
 16777216
100
AcDbTrace
 10
122.0
 20
55.84574191852411
 30
0.0
 11
122.0
 21
53.17907525185743
 31
0.0
 12
130.0
 22
54.51240858519077
 32
0.0
 13
130.0
 23
54.51240858519077
 33
0.0
  0
MTEXT
  5
BD3
330
BA2
100
AcDbEntity
  8
AM_5 ( Bemassung)
 62
     2
440
 16777216
100
AcDbMText
 10
110.0
 20
61.08641949924261
 30
0.0
 40
7.0
 41
0.0
 46
0.0
 71
     5
 72
     1
  1
40
 73
     1
 44
1.0
  0
POINT
  5
BD4
330
BA2
100
AcDbEntity
  8
Defpoints
 62
     0
440
 16777216
100
AcDbPoint
 10
90.0
 20
-1.823185434205974
 30
0.0
  0
POINT
  5
BD5
330
BA2
100
AcDbEntity
  8
Defpoints
 62
     0
440
 16777216
100
AcDbPoint
 10
130.0
 20
-1.823185434205974
 30
0.0
  0
POINT
  5
BD6
330
BA2
100
AcDbEntity
  8
Defpoints
 62
     0
440
 16777216
100
AcDbPoint
 10
130.0
 20
54.51240858519077
 30
0.0
  0
ENDBLK
  5
BA4
330
BA2
100
AcDbEntity
  8
0
100
AcDbBlockEnd
  0
BLOCK
  5
C09
330
C08
100
AcDbEntity
  8
0
100
AcDbBlockBegin
  2
*D21
 70
     1
 10
0.0
 20
0.0
 30
0.0
  3
*D21
  1

  0
LINE
  5
C92
330
C08
100
AcDbEntity
  8
AM_5 ( Bemassung)
440
 16777216
100
AcDbLine
 10
110.0
 20
122.218462
 30
0.0
 11
110.0
 21
84.14396585675149
 31
0.0
  0
LINE
  5
C93
330
C08
100
AcDbEntity
  8
AM_5 ( Bemassung)
440
 16777216
100
AcDbLine
 10
150.0
 20
112.218462
 30
0.0
 11
150.0
 21
84.14396585675149
 31
0.0
  0
LINE
  5
C94
330
C08
100
AcDbEntity
  8
AM_5 ( Bemassung)
440
 16777216
100
AcDbLine
 10
118.0
 20
86.1439658567515
 30
0.0
 11
142.0
 21
86.1439658567515
 31
0.0
  0
LINE
  5
C95
330
C08
100
AcDbEntity
  8
AM_5 ( Bemassung)
440
 16777216
100
AcDbLine
 10
150.0
 20
86.1439658567515
 30
0.0
 11
189.8512960436562
 21
86.1439658567515
 31
0.0
  0
SOLID
  5
C96
330
C08
100
AcDbEntity
  8
AM_5 ( Bemassung)
440
 16777216
100
AcDbTrace
 10
118.0
 20
87.47729919008483
 30
0.0
 11
118.0
 21
84.81063252341817
 31
0.0
 12
110.0
 22
86.1439658567515
 32
0.0
 13
110.0
 23
86.1439658567515
 33
0.0
  0
SOLID
  5
C97
330
C08
100
AcDbEntity
  8
AM_5 ( Bemassung)
440
 16777216
100
AcDbTrace
 10
142.0
 20
87.47729919008483
 30
0.0
 11
142.0
 21
84.81063252341817
 31
0.0
 12
150.0
 22
86.1439658567515
 32
0.0
 13
150.0
 23
86.1439658567515
 33
0.0
  0
MTEXT
  5
C98
330
C08
100
AcDbEntity
  8
AM_5 ( Bemassung)
 62
     2
440
 16777216
100
AcDbMText
 10
173.9256480218281
 20
92.91374757571466
 30
0.0
 40
7.0
 41
0.0
 46
0.0
 71
     5
 72
     1
  1
%%c40.5
 73
     1
 44
1.0
  0
POINT
  5
C99
330
C08
100
AcDbEntity
  8
Defpoints
 62
     0
440
 16777216
100
AcDbPoint
 10
110.0
 20
122.218462
 30
0.0
  0
POINT
  5
C9A
330
C08
100
AcDbEntity
  8
Defpoints
 62
     0
440
 16777216
100
AcDbPoint
 10
150.0
 20
112.218462
 30
0.0
  0
POINT
  5
C9B
330
C08
100
AcDbEntity
  8
Defpoints
 62
     0
440
 16777216
100
AcDbPoint
 10
150.0
 20
86.1439658567515
 30
0.0
  0
ENDBLK
  5
C0A
330
C08
100
AcDbEntity
  8
0
100
AcDbBlockEnd
  0
BLOCK
  5
CBF
330
CBE
100
AcDbEntity
  8
0
100
AcDbBlockBegin
  2
*D22
 70
     1
 10
0.0
 20
0.0
 30
0.0
  3
*D22
  1

  0
LINE
  5
D54
330
CBE
100
AcDbEntity
  8
AM_5 ( Bemassung)
440
 16777216
100
AcDbLine
 10
109.9999999999999
 20
122.218462
 30
0.0
 11
98.31893160467032
 21
165.8127895062747
 31
0.0
  0
LINE
  5
D55
330
CBE
100
AcDbEntity
  8
AM_5 ( Bemassung)
440
 16777216
100
AcDbLine
 10
48.06101266259704
 20
140.7900452516751
 30
0.0
 11
45.17196905983807
 21
151.5720994898763
 31
0.0
  0
LINE
  5
D56
330
CBE
100
AcDbEntity
  8
AM_5 ( Bemassung)
440
 16777216
100
AcDbLine
 10
91.10916338826601
 20
161.8103849457978
 30
0.0
 11
53.41701374983101
 21
151.7108008237538
 31
0.0
  0
SOLID
  5
D57
330
CBE
100
AcDbEntity
  8
AM_5 ( Bemassung)
440
 16777216
100
AcDbTrace
 10
90.76407123040315
 20
163.098286021331
 30
0.0
 11
91.45425554612888
 21
160.5224838702647
 31
0.0
 12
98.83656984146464
 22
163.880937892975
 32
0.0
 13
98.83656984146464
 23
163.880937892975
 33
0.0
  0
SOLID
  5
D58
330
CBE
100
AcDbEntity
  8
AM_5 ( Bemassung)
440
 16777216
100
AcDbTrace
 10
53.07192159196814
 20
152.9987018992869
 30
0.0
 11
53.76210590769387
 21
150.4228997482207
 31
0.0
 12
45.68960729663237
 22
149.6402478765766
 32
0.0
 13
45.68960729663237
 23
149.6402478765766
 33
0.0
  0
MTEXT
  5
D59
330
CBE
100
AcDbEntity
  8
AM_5 ( Bemassung)
 62
     2
440
 16777216
100
AcDbMText
 10
70.66281877107036
 20
169.1916599910201
 30
0.0
 40
7.0
 41
0.0
 46
0.0
 71
     5
 72
     1
  1
3m\P2x0.75mm ²
 11
0.9659258066498288
 21
0.2588191183971488
 31
0.0
 73
     1
 44
1.0
  0
POINT
  5
D5A
330
CBE
100
AcDbEntity
  8
Defpoints
 62
     0
440
 16777216
100
AcDbPoint
 10
109.9999999999999
 20
122.218462
 30
0.0
  0
POINT
  5
D5B
330
CBE
100
AcDbEntity
  8
Defpoints
 62
     0
440
 16777216
100
AcDbPoint
 10
48.06101266259704
 20
140.7900452516751
 30
0.0
  0
POINT
  5
D5C
330
CBE
100
AcDbEntity
  8
Defpoints
 62
     0
440
 16777216
100
AcDbPoint
 10
45.68960729663237
 20
149.6402478765766
 30
0.0
  0
ENDBLK
  5
CC0
330
CBE
100
AcDbEntity
  8
0
100
AcDbBlockEnd
  0
ENDSEC
  0
SECTION
  2
ENTITIES
  0
CIRCLE
  5
195
102
{ACAD_REACTORS
330
839
102
}
330
1E
100
AcDbEntity
  8
AM_7 (Mittellinie)
  6
AM_ISO08W050x2
100
AcDbCircle
 10
130.019029
 20
-1.903556434205981
 30
0.0
 40
39.487033
  0
LINE
  5
19C
330
1E
100
AcDbEntity
  8
AM_0 ( Kontur 0.5 )
100
AcDbLine
 10
111.4999999999999
 20
165.218462
 30
0.0
 11
148.5
 21
165.218462
 31
0.0
  0
LINE
  5
19D
330
1E
100
AcDbEntity
  8
AM_0 ( Kontur 0.5 )
100
AcDbLine
 10
110.0
 20
112.218462
 30
0.0
 11
150.0
 21
112.218462
 31
0.0
  0
LINE
  5
19E
330
1E
100
AcDbEntity
  8
AM_0 ( Kontur 0.5 )
100
AcDbLine
 10
150.0
 20
112.218462
 30
0.0
 11
44.5
 21
112.218462
 31
0.0
  0
LINE
  5
19F
330
1E
100
AcDbEntity
  8
AM_0 ( Kontur 0.5 )
100
AcDbLine
 10
149.5
 20
152.218462
 30
0.0
 11
110.4999999999999
 21
152.218462
 31
0.0
  0
LINE
  5
1A0
330
1E
100
AcDbEntity
  8
AM_0 ( Kontur 0.5 )
100
AcDbLine
 10
144.0
 20
186.218462
 30
0.0
 11
124.5
 21
186.218462
 31
0.0
  0
LINE
  5
1A1
330
1E
100
AcDbEntity
  8
AM_0 ( Kontur 0.5 )
100
AcDbLine
 10
144.0
 20
183.718462
 30
0.0
 11
124.5
 21
183.718462
 31
0.0
  0
LINE
  5
1A2
330
1E
100
AcDbEntity
  8
AM_0 ( Kontur 0.5 )
100
AcDbLine
 10
124.2499999999999
 20
172.218462
 30
0.0
 11
144.0
 21
172.218462
 31
0.0
  0
LINE
  5
1A3
330
1E
100
AcDbEntity
  8
AM_0 ( Kontur 0.5 )
100
AcDbLine
 10
130.0
 20
184.968462
 30
0.0
 11
150.5
 21
184.968462
 31
0.0
  0
LINE
  5
1A4
330
1E
100
AcDbEntity
  8
AM_0 ( Kontur 0.5 )
100
AcDbLine
 10
134.0
 20
196.218462
 30
0.0
 11
126.0
 21
196.218462
 31
0.0
  0
CIRCLE
  5
1A5
330
1E
100
AcDbEntity
  8
AM_0 ( Kontur 0.5 )
100
AcDbCircle
 10
130.0
 20
-1.823185434205974
 30
0.0
 40
14.0
  0
ARC
  5
1A6
330
1E
100
AcDbEntity
  8
AM_0 ( Kontur 0.5 )
100
AcDbCircle
 10
130.0
 20
-1.823185434205974
 30
0.0
 40
20.0
100
AcDbArc
 50
68.86017799999994
 51
136.5207689999998
  0
ARC
  5
1A8
102
{ACAD_REACTORS
330
839
102
}
330
1E
100
AcDbEntity
  8
AM_0 ( Kontur 0.5 )
100
AcDbCircle
 10
68.245094
 20
5.960109565794017
 30
0.0
 40
77.88166
100
AcDbArc
 50
315.9941939999999
 51
355.792149
  0
CIRCLE
  5
1AA
330
1E
100
AcDbEntity
  8
AM_0 ( Kontur 0.5 )
100
AcDbCircle
 10
130.0
 20
-1.823185434205974
 30
0.0
 40
4.0
  0
ARC
  5
1AB
330
1E
100
AcDbEntity
  8
AM_0 ( Kontur 0.5 )
100
AcDbCircle
 10
154.1369169999999
 20
-59.19614043420598
 30
0.0
 40
77.88166
100
AcDbArc
 50
75.99418100000004
 51
115.792142
  0
LINE
  5
1BE
330
1E
100
AcDbEntity
  8
AM_7 (Mittellinie)
  6
AM_ISO08W050x2
100
AcDbLine
 10
129.0
 20
-1.823185434205974
 30
0.0
 11
43.46724684250466
 21
-1.823185434205974
 31
0.0
  0
ARC
  5
1C0
330
1E
100
AcDbEntity
  8
AM_0 ( Kontur 0.5 )
100
AcDbCircle
 10
60.0
 20
-1.823185434205974
 30
0.0
 40
15.0
100
AcDbArc
 50
95.21798699999999
 51
265.095324
  0
ARC
  5
1C3
330
1E
100
AcDbEntity
  8
AM_0 ( Kontur 0.5 )
100
AcDbCircle
 10
110.25
 20
32.38482256579402
 30
0.0
 40
18.5
100
AcDbArc
 50
122.3215299999999
 51
297.6466939999999
  0
LINE
  5
1C4
330
1E
100
AcDbEntity
  8
AM_0 ( Kontur 0.5 )
100
AcDbLine
 10
119.350479
 20
15.12232556579402
 30
0.0
 11
99.85047900000001
 21
48.89731956579402
 31
0.0
  0
LINE
  5
1C5
330
1E
100
AcDbEntity
  8
AM_0 ( Kontur 0.5 )
100
AcDbLine
 10
110.25
 20
32.38482256579402
 30
0.0
 11
120.0
 21
15.49732556579403
 31
0.0
  0
ARC
  5
1C6
330
1E
100
AcDbEntity
  8
AM_0 ( Kontur 0.5 )
100
AcDbCircle
 10
167.617966
 20
47.76649056579401
 30
0.0
 40
77.88166
100
AcDbArc
 50
195.994177
 51
235.7921460000001
  0
LINE
  5
1C8
330
1E
100
AcDbEntity
  8
AM_0 ( Kontur 0.5 )
100
AcDbLine
 10
58.715355
 20
-16.76919943420598
 30
0.0
 11
118.7731728602611
 21
-21.2686374333686
 31
0.0
  0
LINE
  5
1C9
330
1E
100
AcDbEntity
  8
AM_0 ( Kontur 0.5 )
100
AcDbLine
 10
60.0
 20
-14.41032587889024
 30
0.0
 11
119.5420866487452
 21
-18.87111927786126
 31
0.0
  0
LINE
  5
1CB
330
1E
100
AcDbEntity
  8
AM_0 ( Kontur 0.5 )
100
AcDbLine
 10
58.53198199999999
 20
13.10151256579403
 30
0.0
 11
96.57367868503458
 21
15.85626956586606
 31
0.0
  0
LINE
  5
1CC
330
1E
100
AcDbEntity
  8
AM_0 ( Kontur 0.5 )
100
AcDbLine
 10
59.99999999999998
 20
10.94836602432973
 30
0.0
 11
97.59625263590564
 21
13.67085122713058
 31
0.0
  0
LINE
  5
1CE
102
{ACAD_REACTORS
330
B8C
102
}
330
1E
100
AcDbEntity
  8
AM_7 (Mittellinie)
  6
AM_ISO08W050x2
100
AcDbLine
 10
90.0
 20
8.176814565794014
 30
0.0
 11
90.0
 21
-11.57318543420598
 31
0.0
  0
LINE
  5
1CF
102
{ACAD_REACTORS
330
9D0
330
B8C
102
}
330
1E
100
AcDbEntity
  8
AM_7 (Mittellinie)
  6
AM_ISO08W050x2
100
AcDbLine
 10
60.0
 20
7.676814565794007
 30
0.0
 11
60.0
 21
-11.57318543420598
 31
0.0
  0
LINE
  5
1D0
330
1E
100
AcDbEntity
  8
AM_0 ( Kontur 0.5 )
100
AcDbLine
 10
60.0
 20
-14.41032587889022
 30
0.0
 11
60.0
 21
-16.82318543420597
 31
0.0
  0
LINE
  5
1D1
330
1E
100
AcDbEntity
  8
AM_0 ( Kontur 0.5 )
100
AcDbLine
 10
68.99437877307303
 20
-15.08416967102102
 30
0.0
 11
68.99992438354917
 21
-17.53970332425797
 31
0.0
  0
LINE
  5
1D2
330
1E
100
AcDbEntity
  8
AM_0 ( Kontur 0.5 )
100
AcDbLine
 10
91.25
 20
-16.75152353526734
 30
0.0
 11
91.25
 21
-19.20664427016177
 31
0.0
  0
LINE
  5
1D3
330
1E
100
AcDbEntity
  8
AM_0 ( Kontur 0.5 )
100
AcDbLine
 10
60.0
 20
10.94836602432973
 30
0.0
 11
60.0
 21
13.17681456579403
 31
0.0
  0
LINE
  5
1D4
330
1E
100
AcDbEntity
  8
AM_0 ( Kontur 0.5 )
100
AcDbLine
 10
68.92905713214651
 20
13.85440788846303
 30
0.0
 11
68.93415868670873
 21
11.59532185419905
 31
0.0
  0
LINE
  5
1D5
330
1E
100
AcDbEntity
  8
AM_0 ( Kontur 0.5 )
100
AcDbLine
 10
66.88748865697795
 20
-0.5731854342059748
 30
0.0
 11
83.11251134302205
 21
-0.5731854342059748
 31
0.0
  0
LINE
  5
1D6
330
1E
100
AcDbEntity
  8
AM_0 ( Kontur 0.5 )
100
AcDbLine
 10
66.88748865697795
 20
-3.073185434205974
 30
0.0
 11
83.11251134302205
 21
-3.073185434205974
 31
0.0
  0
LINE
  5
1D7
330
1E
100
AcDbEntity
  8
AM_0 ( Kontur 0.5 )
100
AcDbLine
 10
91.25
 20
15.47075991719934
 30
0.0
 11
91.25
 21
13.21129534900064
 31
0.0
  0
ARC
  5
1D9
330
1E
100
AcDbEntity
  8
AM_0 ( Kontur 0.5 )
100
AcDbCircle
 10
110.250008
 20
-36.031193434206
 30
0.0
 40
18.5
100
AcDbArc
 50
242.321533
 51
57.64670099999989
  0
LINE
  5
1DA
330
1E
100
AcDbEntity
  8
AM_0 ( Kontur 0.5 )
100
AcDbLine
 10
120.6495129999999
 20
-19.51869643420598
 30
0.0
 11
101.1495129999999
 21
-53.29367443420597
 31
0.0
  0
LINE
  5
1DB
330
1E
100
AcDbEntity
  8
AM_0 ( Kontur 0.5 )
100
AcDbLine
 10
110.250008
 20
-36.031193434206
 30
0.0
 11
120.000008
 21
-19.14369643420597
 31
0.0
  0
LINE
  5
1DD
102
{ACAD_REACTORS
330
89E
102
}
330
1E
100
AcDbEntity
  8
AM_0 ( Kontur 0.5 )
100
AcDbLine
 10
100.5000079999999
 20
-52.91867443420598
 30
0.0
 11
101.1495129999999
 21
-53.29367443420597
 31
0.0
  0
LINE
  5
1DE
330
1E
100
AcDbEntity
  8
AM_0 ( Kontur 0.5 )
100
AcDbLine
 10
110.250008
 20
-36.031193434206
 30
0.0
 11
100.5000079999999
 21
-52.91867443420598
 31
0.0
  0
ARC
  5
1E1
330
1E
100
AcDbEntity
  8
AM_0 ( Kontur 0.5 )
100
AcDbCircle
 10
130.0
 20
-1.823185434205974
 30
0.0
 40
20.0
100
AcDbArc
 50
189.344674
 51
256.5935164268184
  0
LINE
  5
1E2
330
1E
100
AcDbEntity
  8
AM_0 ( Kontur 0.5 )
100
AcDbLine
 10
118.8762515295681
 20
17.44371519894005
 30
0.0
 11
128.502609
 21
18.14080456579402
 31
0.0
  0
LINE
  5
1E3
330
1E
100
AcDbEntity
  8
AM_0 ( Kontur 0.5 )
100
AcDbLine
 10
110.0
 20
-18.15624212909359
 30
0.0
 11
110.0
 21
-20.61136501244037
 31
0.0
  0
LINE
  5
1E5
330
1E
100
AcDbEntity
  8
AM_0 ( Kontur 0.5 )
100
AcDbLine
 10
114.7923494475785
 20
13.05220670573007
 30
0.0
 11
116.6655649999999
 21
9.923320565794014
 31
0.0
  0
LINE
  5
1E6
330
1E
100
AcDbEntity
  8
AM_0 ( Kontur 0.5 )
100
AcDbLine
 10
96.88748865697796
 20
-0.5731854342059748
 30
0.0
 11
106.4999999999999
 21
-0.5731854342059748
 31
0.0
  0
LINE
  5
1E7
330
1E
100
AcDbEntity
  8
AM_0 ( Kontur 0.5 )
100
AcDbLine
 10
96.88748865697796
 20
-3.073185434205974
 30
0.0
 11
106.4999999999999
 21
-3.073185434205974
 31
0.0
  0
LINE
  5
1E8
330
1E
100
AcDbEntity
  8
AM_0 ( Kontur 0.5 )
100
AcDbLine
 10
106.4999999999999
 20
-3.073185434205974
 30
0.0
 11
108.4999999999999
 21
-3.073185434205974
 31
0.0
  0
LINE
  5
1EA
330
1E
100
AcDbEntity
  8
AM_0 ( Kontur 0.5 )
100
AcDbLine
 10
124.7213588529532
 20
-22.43108058411037
 30
0.0
 11
126.494453
 21
-19.24438843420597
 31
0.0
  0
LINE
  5
1EB
102
{ACAD_REACTORS
330
89E
102
}
330
1E
100
AcDbEntity
  8
AM_0 ( Kontur 0.5 )
100
AcDbLine
 10
100.5
 20
49.27231956579402
 30
0.0
 11
99.85047900000001
 21
48.89731956579402
 31
0.0
  0
LINE
  5
1EC
102
{ACAD_REACTORS
330
89E
102
}
330
1E
100
AcDbEntity
  8
AM_0 ( Kontur 0.5 )
100
AcDbLine
 10
110.25
 20
32.38482256579402
 30
0.0
 11
100.5
 21
49.27231956579402
 31
0.0
  0
LINE
  5
1F0
330
1E
100
AcDbEntity
  8
AM_0 ( Kontur 0.5 )
100
AcDbLine
 10
110.0
 20
112.218462
 30
0.0
 11
51.0
 21
112.218462
 31
0.0
  0
LINE
  5
1F1
330
1E
100
AcDbEntity
  8
AM_0 ( Kontur 0.5 )
100
AcDbLine
 10
44.5
 20
114.718462
 30
0.0
 11
59.5
 21
114.718462
 31
0.0
  0
LINE
  5
1F2
330
1E
100
AcDbEntity
  8
AM_0 ( Kontur 0.5 )
100
AcDbLine
 10
66.5
 20
116.718462
 30
0.0
 11
52.5
 21
116.718462
 31
0.0
  0
LINE
  5
1F3
330
1E
100
AcDbEntity
  8
AM_0 ( Kontur 0.5 )
100
AcDbLine
 10
44.5
 20
112.218462
 30
0.0
 11
44.5
 21
114.718462
 31
0.0
  0
LINE
  5
1F4
330
1E
100
AcDbEntity
  8
AM_0 ( Kontur 0.5 )
100
AcDbLine
 10
52.5
 20
116.718462
 30
0.0
 11
52.5
 21
114.718462
 31
0.0
  0
LINE
  5
1F5
330
1E
100
AcDbEntity
  8
AM_0 ( Kontur 0.5 )
100
AcDbLine
 10
110.0
 20
122.218462
 30
0.0
 11
99.75066421422777
 21
119.4721599196875
 31
0.0
  0
ARC
  5
1F6
330
1E
100
AcDbEntity
  8
AM_0 ( Kontur 0.5 )
100
AcDbCircle
 10
110.093185
 20
184.743711
 30
0.0
 40
18.344563
100
AcDbArc
 50
96.82831999999997
 51
265.017706
  0
LINE
  5
1F7
330
1E
100
AcDbEntity
  8
AM_0 ( Kontur 0.5 )
100
AcDbLine
 10
91.75
 20
184.968462
 30
0.0
 11
96.0
 21
186.218462
 31
0.0
  0
LINE
  5
1F8
330
1E
100
AcDbEntity
  8
AM_0 ( Kontur 0.5 )
100
AcDbLine
 10
100.2499999999999
 20
183.718462
 30
0.0
 11
95.75000000000001
 21
183.718462
 31
0.0
  0
LINE
  5
1F9
330
1E
100
AcDbEntity
  8
AM_0 ( Kontur 0.5 )
100
AcDbLine
 10
100.2499999999999
 20
186.218462
 30
0.0
 11
95.75000000000001
 21
186.218462
 31
0.0
  0
LINE
  5
1FA
330
1E
100
AcDbEntity
  8
AM_0 ( Kontur 0.5 )
100
AcDbLine
 10
100.2499999999999
 20
184.968462
 30
0.0
 11
91.75
 21
184.968462
 31
0.0
  0
LINE
  5
1FB
330
1E
100
AcDbEntity
  8
AM_7 (Mittellinie)
  6
AM_ISO08W050x2
100
AcDbLine
 10
60.0
 20
122.468462
 30
0.0
 11
60.0
 21
103.2184619999999
 31
0.0
  0
LINE
  5
1FC
330
1E
100
AcDbEntity
  8
AM_7 (Mittellinie)
  6
AM_ISO08W050x2
100
AcDbLine
 10
90.0
 20
122.218462
 30
0.0
 11
90.0
 21
102.968462
 31
0.0
  0
LINE
  5
1FD
330
1E
100
AcDbEntity
  8
AM_0 ( Kontur 0.5 )
100
AcDbLine
 10
91.339751625928
 20
117.218462
 30
0.0
 11
69.0
 21
117.218462
 31
0.0
  0
LINE
  5
1FE
330
1E
100
AcDbEntity
  8
AM_0 ( Kontur 0.5 )
100
AcDbLine
 10
69.0
 20
117.218462
 30
0.0
 11
68.83360299999999
 21
117.218462
 31
0.0
  0
LINE
  5
1FF
330
1E
100
AcDbEntity
  8
AM_0 ( Kontur 0.5 )
100
AcDbLine
 10
59.5
 20
114.718462
 30
0.0
 11
68.83988999999999
 21
117.221079
 31
0.0
  0
LINE
  5
200
330
1E
100
AcDbEntity
  8
AM_0 ( Kontur 0.5 )
100
AcDbLine
 10
66.5
 20
116.718462
 30
0.0
 11
66.5
 21
116.5941071093107
 31
0.0
  0
LINE
  5
201
330
1E
100
AcDbEntity
  8
AM_0 ( Kontur 0.5 )
100
AcDbLine
 10
91.75
 20
184.968462
 30
0.0
 11
95.75000000000001
 21
183.718462
 31
0.0
  0
LINE
  5
202
102
{ACAD_REACTORS
330
C16
330
CCC
102
}
330
1E
100
AcDbEntity
  8
AM_0 ( Kontur 0.5 )
100
AcDbLine
 10
110.0
 20
122.218462
 30
0.0
 11
110.0
 21
164.390032
 31
0.0
  0
LINE
  5
205
330
1E
100
AcDbEntity
  8
AM_0 ( Kontur 0.5 )
100
AcDbLine
 10
110.0
 20
122.218462
 30
0.0
 11
110.0
 21
122.218462
 31
0.0
  0
LINE
  5
206
330
1E
100
AcDbEntity
  8
AM_0 ( Kontur 0.5 )
100
AcDbLine
 10
110.4999999999999
 20
152.218462
 30
0.0
 11
110.0
 21
152.218462
 31
0.0
  0
LINE
  5
209
330
1E
100
AcDbEntity
  8
AM_0 ( Kontur 0.5 )
100
AcDbLine
 10
121.25
 20
172.218462
 30
0.0
 11
116.0
 21
172.218462
 31
0.0
  0
LINE
  5
20A
330
1E
100
AcDbEntity
  8
AM_0 ( Kontur 0.5 )
100
AcDbLine
 10
125.64299
 20
195.848997
 30
0.0
 11
116.0
 21
186.218462
 31
0.0
  0
LINE
  5
20B
330
1E
100
AcDbEntity
  8
AM_0 ( Kontur 0.5 )
100
AcDbLine
 10
116.0
 20
186.218462
 30
0.0
 11
116.0
 21
172.218462
 31
0.0
  0
LINE
  5
20C
330
1E
100
AcDbEntity
  8
AM_0 ( Kontur 0.5 )
100
AcDbLine
 10
110.7499999999999
 20
165.968462
 30
0.0
 11
117.0
 21
172.218462
 31
0.0
  0
LINE
  5
20D
330
1E
100
AcDbEntity
  8
AM_0 ( Kontur 0.5 )
100
AcDbLine
 10
121.25
 20
172.218462
 30
0.0
 11
124.2499999999999
 21
172.218462
 31
0.0
  0
LINE
  5
20E
330
1E
100
AcDbEntity
  8
AM_0 ( Kontur 0.5 )
100
AcDbLine
 10
130.0
 20
184.968462
 30
0.0
 11
119.5
 21
184.968462
 31
0.0
  0
LINE
  5
20F
330
1E
100
AcDbEntity
  8
AM_0 ( Kontur 0.5 )
100
AcDbLine
 10
119.5
 20
184.968462
 30
0.0
 11
124.5
 21
186.218462
 31
0.0
  0
LINE
  5
210
330
1E
100
AcDbEntity
  8
AM_0 ( Kontur 0.5 )
100
AcDbLine
 10
119.5
 20
184.968462
 30
0.0
 11
124.5
 21
183.718462
 31
0.0
  0
INSERT
  5
211
330
1E
100
AcDbEntity
  8
AM_0 ( Kontur 0.5 )
100
AcDbBlockReference
  2
ANEMO1MA-G22
 10
0.0
 20
0.0
 30
0.0
  0
ARC
  5
212
330
1E
100
AcDbEntity
  8
AM_0 ( Kontur 0.5 )
100
AcDbCircle
 10
109.7364879999999
 20
184.968462
 30
0.0
 40
19.265135
100
AcDbArc
 50
291.506764
 51
356.2798043050126
  0
ARC
  5
213
330
1E
100
AcDbEntity
  8
AM_0 ( Kontur 0.5 )
100
AcDbCircle
 10
109.7364879999999
 20
184.968462
 30
0.0
 40
19.265135
100
AcDbArc
 50
3.720195694987456
 51
68.493246
  0
ARC
  5
214
330
1E
100
AcDbEntity
  8
AM_0 ( Kontur 0.5 )
100
AcDbCircle
 10
125.9020229999999
 20
184.968462
 30
0.0
 40
24.653296
100
AcDbArc
 50
142.401685
 51
217.598311
  0
ARC
  5
215
330
1E
100
AcDbEntity
  8
AM_0 ( Kontur 0.5 )
100
AcDbCircle
 10
112.0
 20
164.390032
 30
0.0
 40
2.0
100
AcDbArc
 50
135.0
 51
180.000005
  0
ARC
  5
216
330
1E
100
AcDbEntity
  8
AM_0 ( Kontur 0.5 )
100
AcDbCircle
 10
113.499802
 20
175.4180429999999
 30
0.0
 40
9.0
100
AcDbArc
 50
217.598311
 51
291.506764
  0
ARC
  5
217
330
1E
100
AcDbEntity
  8
AM_0 ( Kontur 0.5 )
100
AcDbCircle
 10
113.499802
 20
194.5188809999999
 30
0.0
 40
9.0
100
AcDbArc
 50
68.493246
 51
142.401685
  0
LINE
  5
218
330
1E
100
AcDbEntity
  8
AM_0 ( Kontur 0.5 )
100
AcDbLine
 10
124.75
 20
186.218462
 30
0.0
 11
124.5
 21
186.218462
 31
0.0
  0
LINE
  5
219
330
1E
100
AcDbEntity
  8
AM_0 ( Kontur 0.5 )
100
AcDbLine
 10
126.0
 20
196.218462
 30
0.0
 11
125.637451
 21
195.855917
 31
0.0
  0
ARC
  5
21A
330
1E
100
AcDbEntity
  8
AM_0 ( Kontur 0.5 )
100
AcDbCircle
 10
108.2693019999999
 20
173.5131049999999
 30
0.0
 40
8.0
100
AcDbArc
 50
222.7290809999999
 51
284.910249
  0
ARC
  5
21B
330
1E
100
AcDbEntity
  8
AM_0 ( Kontur 0.5 )
100
AcDbCircle
 10
108.992416
 20
196.181261
 30
0.0
 40
8.0
100
AcDbArc
 50
80.95623100000002
 51
135.6776919999999
  0
ARC
  5
21C
330
1E
100
AcDbEntity
  8
AM_0 ( Kontur 0.5 )
100
AcDbCircle
 10
169.5
 20
-1.823185434205974
 30
0.0
 40
18.5
100
AcDbArc
 50
2.321530000000185
 51
177.646704
  0
LINE
  5
21D
330
1E
100
AcDbEntity
  8
AM_0 ( Kontur 0.5 )
100
AcDbLine
 10
150.0
 20
-1.073185434205981
 30
0.0
 11
189.0
 21
-1.073185434205981
 31
0.0
  0
LINE
  5
21E
330
1E
100
AcDbEntity
  8
AM_0 ( Kontur 0.5 )
100
AcDbLine
 10
169.5
 20
-1.823185434205974
 30
0.0
 11
189.0
 21
-1.823185434205974
 31
0.0
  0
ARC
  5
21F
330
1E
100
AcDbEntity
  8
AM_0 ( Kontur 0.5 )
100
AcDbCircle
 10
130.0
 20
-1.823185434205974
 30
0.0
 40
20.0
100
AcDbArc
 50
308.884486
 51
16.6766182125258
  0
LINE
  5
220
330
1E
100
AcDbEntity
  8
AM_0 ( Kontur 0.5 )
100
AcDbLine
 10
169.5
 20
-1.823185434205974
 30
0.0
 11
150.0
 21
-1.823185434205974
 31
0.0
  0
LINE
  5
221
330
1E
100
AcDbEntity
  8
AM_0 ( Kontur 0.5 )
100
AcDbLine
 10
150.0
 20
-1.823185434205974
 30
0.0
 11
150.0
 21
-1.073185434205981
 31
0.0
  0
LINE
  5
222
330
1E
100
AcDbEntity
  8
AM_0 ( Kontur 0.5 )
100
AcDbLine
 10
147.11087
 20
3.926830565794027
 30
0.0
 11
147.091202
 21
3.926830565794027
 31
0.0
  0
ARC
  5
223
330
1E
100
AcDbEntity
  8
AM_0 ( Kontur 0.5 )
100
AcDbCircle
 10
147.147461
 20
3.269191565794017
 30
0.0
 40
0.6599010000000001
100
AcDbArc
 50
94.891962
 51
118.9991479999998
  0
LINE
  5
225
330
1E
100
AcDbEntity
  8
AM_0 ( Kontur 0.5 )
100
AcDbLine
 10
189.0
 20
-1.823185434205974
 30
0.0
 11
189.0
 21
-1.073185434205981
 31
0.0
  0
LINE
  5
22C
102
{ACAD_REACTORS
330
552
102
}
330
1E
100
AcDbEntity
  8
AM_7 (Mittellinie)
  6
AM_ISO08W050x2
100
AcDbLine
 10
150.0
 20
184.968462
 30
0.0
 11
192.25
 21
184.968462
 31
0.0
  0
CIRCLE
  5
22D
102
{ACAD_REACTORS
330
552
330
94F
102
}
330
1E
100
AcDbEntity
  8
AM_0 ( Kontur 0.5 )
100
AcDbCircle
 10
170.0
 20
184.968462
 30
0.0
 40
19.5
  0
CIRCLE
  5
22E
330
1E
100
AcDbEntity
  8
AM_0 ( Kontur 0.5 )
100
AcDbCircle
 10
170.0
 20
184.968462
 30
0.0
 40
18.140079
  0
LINE
  5
22F
102
{ACAD_REACTORS
330
C16
102
}
330
1E
100
AcDbEntity
  8
AM_0 ( Kontur 0.5 )
100
AcDbLine
 10
150.0
 20
112.218462
 30
0.0
 11
150.0
 21
164.390032
 31
0.0
  0
LINE
  5
230
330
1E
100
AcDbEntity
  8
AM_0 ( Kontur 0.5 )
100
AcDbLine
 10
149.0
 20
152.218462
 30
0.0
 11
150.0
 21
152.218462
 31
0.0
  0
LINE
  5
231
330
1E
100
AcDbEntity
  8
AM_7 (Mittellinie)
  6
AM_ISO08W050x2
100
AcDbLine
 10
170.0
 20
162.968462
 30
0.0
 11
170.0
 21
207.218462
 31
0.0
  0
LINE
  5
232
330
1E
100
AcDbEntity
  8
AM_0 ( Kontur 0.5 )
100
AcDbLine
 10
134.0
 20
196.218462
 30
0.0
 11
144.0
 21
186.218462
 31
0.0
  0
LINE
  5
233
330
1E
100
AcDbEntity
  8
AM_0 ( Kontur 0.5 )
100
AcDbLine
 10
144.0
 20
172.218462
 30
0.0
 11
144.0
 21
175.218462
 31
0.0
  0
LINE
  5
234
330
1E
100
AcDbEntity
  8
AM_0 ( Kontur 0.5 )
100
AcDbLine
 10
149.4142149999999
 20
165.804247
 30
0.0
 11
143.0
 21
172.218462
 31
0.0
  0
ARC
  5
235
330
1E
100
AcDbEntity
  8
AM_0 ( Kontur 0.5 )
100
AcDbCircle
 10
148.0
 20
164.390032
 30
0.0
 40
2.0
100
AcDbArc
 50
0.0
 51
45.00000099999999
  0
LINE
  5
236
330
1E
100
AcDbEntity
  8
AM_0 ( Kontur 0.5 )
100
AcDbLine
 10
144.0
 20
186.218462
 30
0.0
 11
145.25
 21
184.968462
 31
0.0
  0
LINE
  5
237
330
1E
100
AcDbEntity
  8
AM_0 ( Kontur 0.5 )
100
AcDbLine
 10
145.25
 20
184.968462
 30
0.0
 11
144.0
 21
183.718462
 31
0.0
  0
LINE
  5
238
330
1E
100
AcDbEntity
  8
AM_0 ( Kontur 0.5 )
100
AcDbLine
 10
144.0
 20
175.218462
 30
0.0
 11
144.0
 21
183.718462
 31
0.0
  0
LINE
  5
239
330
1E
100
AcDbEntity
  8
AM_0 ( Kontur 0.5 )
100
AcDbLine
 10
144.0
 20
186.218462
 30
0.0
 11
150.5
 21
186.218462
 31
0.0
  0
LINE
  5
23A
330
1E
100
AcDbEntity
  8
AM_0 ( Kontur 0.5 )
100
AcDbLine
 10
144.0
 20
183.718462
 30
0.0
 11
150.5
 21
183.718462
 31
0.0
  0
DIMENSION
  5
45F
330
1E
100
AcDbEntity
  8
AM_5 ( Bemassung)
100
AcDbDimension
280
     0
  2
*D2
 10
150.0
 20
209.5439105026244
 30
0.0
 11
97.25000000000001
 21
209.5439105026244
 31
0.0
 70
   160
 71
     5
 42
105.5
 73
     0
 74
     0
 75
     0
  3
AM_DIN$0
100
AcDbAlignedDimension
 13
44.5
 23
112.218462
 33
0.0
 14
150.0
 24
112.218462
 34
0.0
100
AcDbRotatedDimension
1001
ACAD
1000
DSTYLE
1002
{
1070
    40
1040
2.0
1002
}
1001
ACAD_DSTYLE_DIMINSPECT
1070
   396
1000
100%
1070
   395
1000

1070
   394
1070
    33
1070
   393
1070
     0
  0
DIMENSION
  5
489
330
1E
100
AcDbEntity
  8
AM_5 ( Bemassung)
100
AcDbDimension
280
     0
  2
*D3
 10
130.0
 20
69.7958751320084
 30
0.0
 11
86.85826842578013
 21
69.7958751320084
 31
0.0
 70
   160
 71
     5
 42
85.5
 73
     0
 74
     0
 75
     0
  3
AM_DIN$0
100
AcDbAlignedDimension
 13
44.5
 23
112.218462
 33
0.0
 14
130.0
 24
84.6555209216549
 34
0.0
 50
0.0000000000001132
100
AcDbRotatedDimension
1001
ACAD_DSTYLE_DIMINSPECT
1070
   396
1000
100%
1070
   395
1000

1070
   394
1070
    33
1070
   393
1070
     0
1001
ACAD
1000
DSTYLE
1002
{
1070
    40
1040
2.0
1002
}
  0
DIMENSION
  5
4AA
330
1E
100
AcDbEntity
  8
AM_5 ( Bemassung)
100
AcDbDimension
280
     0
  2
*D4
 10
150.0
 20
65.13468962662819
 30
0.0
 11
140.0
 21
65.13468962662819
 31
0.0
 70
   160
 71
     5
 42
20.0
 73
     0
 74
     0
 75
     0
  3
AM_DIN$0
100
AcDbAlignedDimension
 13
130.0
 23
84.42652939317827
 33
0.0
 14
150.0
 24
112.218462
 34
0.0
 50
0.0000000000001132
100
AcDbRotatedDimension
1001
ACAD_DSTYLE_DIMINSPECT
1070
   396
1000
100%
1070
   395
1000

1070
   394
1070
    33
1070
   393
1070
     0
1001
ACAD
1000
DSTYLE
1002
{
1070
    40
1040
2.0
1002
}
  0
DIMENSION
  5
51A
330
1E
100
AcDbEntity
  8
AM_5 ( Bemassung)
100
AcDbDimension
280
     0
  2
*D5
 10
222.3767009999999
 20
204.468462
 30
0.0
 11
215.8003026371077
 21
158.343462
 31
0.0
 70
    32
  1
93
 71
     5
 42
92.24999999999999
 73
     0
 74
     0
 75
     0
  3
AM_DIN$0
100
AcDbAlignedDimension
 13
150.0
 23
112.218462
 33
0.0
 14
170.0
 24
204.468462
 34
0.0
 50
90.0
100
AcDbRotatedDimension
1001
ACAD
1000
DSTYLE
1002
{
1070
    40
1040
2.0
1002
}
1001
ACAD_DSTYLE_DIMINSPECT
1070
   396
1000
100%
1070
   395
1000

1070
   394
1070
    33
1070
   393
1070
     0
  0
DIMENSION
  5
544
102
{ACAD_XDICTIONARY
360
551
102
}
102
{ACAD_REACTORS
330
552
102
}
330
1E
100
AcDbEntity
  8
AM_5 ( Bemassung)
100
AcDbDimension
280
     0
  2
*D6
 10
44.50000000000001
 20
224.5334987218653
 30
0.0
 11
117.0
 21
224.5334987218653
 31
0.0
 70
   160
 71
     5
 42
145.0
 73
     0
 74
     0
 75
     0
  3
AM_DIN$0
100
AcDbAlignedDimension
 13
189.5
 23
184.968462
 33
0.0
 14
44.5
 24
112.218462
 34
0.0
 50
0.0000000000000114
100
AcDbRotatedDimension
1001
ACAD
1000
DSTYLE
1002
{
1070
    40
1040
2.0
1002
}
1001
ACAD_DSTYLE_DIMINSPECT
1070
   396
1000
100%
1070
   395
1000

1070
   394
1070
    33
1070
   393
1070
     0
  0
LINE
  5
5FC
330
1E
100
AcDbEntity
  8
AM_7 (Mittellinie)
  6
AM_ISO08W050x2
100
AcDbLine
 10
130.0
 20
-1.823185434205974
 30
0.0
 11
173.02369232932
 21
-1.823185434205974
 31
0.0
1001
GENIUS_GENOREF_13
1005
600
  0
LINE
  5
5FD
102
{ACAD_REACTORS
330
839
102
}
330
1E
100
AcDbEntity
  8
AM_7 (Mittellinie)
  6
AM_ISO08W050x2
100
AcDbLine
 10
130.0
 20
-1.823185434205974
 30
0.0
 11
130.0
 21
41.20050689511401
 31
0.0
1001
GENIUS_GENOREF_13
1005
600
  0
LINE
  5
5FE
330
1E
100
AcDbEntity
  8
AM_7 (Mittellinie)
  6
AM_ISO08W050x2
100
AcDbLine
 10
130.0
 20
-1.823185434205974
 30
0.0
 11
86.97630767068002
 21
-1.823185434205974
 31
0.0
1001
GENIUS_GENOREF_13
1005
600
  0
LINE
  5
5FF
102
{ACAD_REACTORS
330
BB0
102
}
330
1E
100
AcDbEntity
  8
AM_7 (Mittellinie)
  6
AM_ISO08W050x2
100
AcDbLine
 10
130.0
 20
-1.823185434205974
 30
0.0
 11
130.0
 21
-44.84687776352596
 31
0.0
1001
GENIUS_GENOREF_13
1005
600
  0
POINT
  5
600
330
1E
100
AcDbEntity
  8
0
  6
AM_ISO08W050x2
 60
     1
100
AcDbPoint
 10
0.0
 20
0.0
 30
0.0
1001
GENIUS_GENODEF_13
1002
{
1000
HIER
1070
    10
1002
}
1002
{
1000
MANEDIT
1070
     0
1002
}
1002
{
1000
NOSEL
1070
     0
1002
}
1002
{
1000
BEHIND
1070
     0
1002
}
1002
{
1000
OTHER
1070
     0
1002
}
1002
{
1000
REACTOR
1002
}
1001
GENIUS_GENOENT_13
1002
{
1000
MYREF
1005
600
1002
}
1002
{
1000
GRP
1005
0
1002
}
1001
GENIUS_GENOBJ-N-CRS_13
1002
{
1000
OWNER
1000
GEN
1002
}
1001
GENIUS_GENOLIS_13
1002
{
1000
ENT
1005
5FF
1005
5FE
1005
5FD
1005
5FC
1002
}
  0
ARC
  5
605
330
1E
100
AcDbEntity
  8
LAYER01
  6
Continuous
 62
     7
100
AcDbCircle
 10
114.406036
 20
12.86703056579403
 30
0.0
 40
1.564377
100
AcDbArc
 50
122.6967619406945
 51
197.9863025626227
  0
LINE
  5
606
330
1E
100
AcDbEntity
  8
LAYER01
  6
Continuous
 62
     7
100
AcDbLine
 10
112.9181095339583
 20
12.38396718508523
 30
0.0
 11
114.649635
 21
9.364436565794019
 31
0.0
  0
ARC
  5
607
330
1E
100
AcDbEntity
  8
LAYER01
  6
Continuous
 62
     7
100
AcDbCircle
 10
117.252106
 20
10.85679256579402
 30
0.0
 40
3.0
100
AcDbArc
 50
209.83173
 51
298.410746
  0
ARC
  5
608
330
1E
100
AcDbEntity
  8
LAYER01
  6
Continuous
 62
     7
100
AcDbCircle
 10
154.8887629999999
 20
-58.71957843420599
 30
0.0
 40
76.103668
100
AcDbArc
 50
81.16266000000001
 51
118.4107409999997
  0
ARC
  5
614
330
1E
100
AcDbEntity
  8
LAYER01
  6
Continuous
 62
     7
100
AcDbCircle
 10
123.771706
 20
-21.64696143420597
 30
0.0
 40
1.231537
100
AcDbArc
 50
223.3944229999998
 51
320.4538429999999
  0
CIRCLE
  5
632
330
1E
100
AcDbEntity
  8
LAYER01
  6
Continuous
 62
     7
100
AcDbCircle
 10
90.0
 20
-1.823185434205974
 30
0.0
 40
7.0
  0
CIRCLE
  5
633
102
{ACAD_REACTORS
330
BB0
102
}
330
1E
100
AcDbEntity
  8
LAYER01
  6
Continuous
 62
     7
100
AcDbCircle
 10
90.0
 20
-1.823185434205974
 30
0.0
 40
3.0
  0
ARC
  5
634
330
1E
100
AcDbEntity
  8
LAYER01
  6
Continuous
 62
     7
100
AcDbCircle
 10
125.074883
 20
-22.67305343420598
 30
0.0
 40
1.564377
100
AcDbArc
 50
242.6968468605113
 51
320.3294519999998
  0
LINE
  5
635
330
1E
100
AcDbEntity
  8
LAYER01
  6
Continuous
 62
     7
100
AcDbLine
 10
126.2790274697034
 20
-23.67170827658735
 30
0.0
 11
127.98642
 21
-20.71080443420598
 31
0.0
  0
ARC
  5
636
330
1E
100
AcDbEntity
  8
LAYER01
  6
Continuous
 62
     7
100
AcDbCircle
 10
125.392769
 20
-19.20317443420598
 30
0.0
 40
3.0
100
AcDbArc
 50
329.8317200000001
 51
58.41074599999995
  0
ARC
  5
637
330
1E
100
AcDbEntity
  8
LAYER01
  6
Continuous
 62
     7
100
AcDbCircle
 10
166.82933
 20
48.17933256579402
 30
0.0
 40
76.103668
100
AcDbArc
 50
201.1626629999998
 51
238.4107310000001
  0
CIRCLE
  5
638
102
{ACAD_REACTORS
330
B8C
102
}
330
1E
100
AcDbEntity
  8
LAYER01
  6
Continuous
 62
     7
100
AcDbCircle
 10
60.0
 20
-1.823185434205974
 30
0.0
 40
7.0
  0
CIRCLE
  5
639
102
{ACAD_REACTORS
330
9D0
102
}
330
1E
100
AcDbEntity
  8
LAYER01
  6
Continuous
 62
     7
100
AcDbCircle
 10
60.0
 20
-1.823185434205974
 30
0.0
 40
3.0
  0
ARC
  5
63A
330
1E
100
AcDbEntity
  8
LAYER01
  6
Continuous
 62
     7
100
AcDbCircle
 10
150.5190889999999
 20
4.336482565794028
 30
0.0
 40
1.564377
100
AcDbArc
 50
2.697576454445777
 51
80.32944499999999
  0
LINE
  5
63B
330
1E
100
AcDbEntity
  8
LAYER01
  6
Continuous
 62
     7
100
AcDbLine
 10
150.7818774166716
 20
5.878629655468738
 30
0.0
 11
147.3639529999999
 21
5.876811565794017
 31
0.0
  0
ARC
  5
63C
330
1E
100
AcDbEntity
  8
LAYER01
  6
Continuous
 62
     7
100
AcDbCircle
 10
147.355133
 20
2.876826565794026
 30
0.0
 40
3.0
100
AcDbArc
 50
89.831727
 51
178.4107429999999
  0
ARC
  5
63D
330
1E
100
AcDbEntity
  8
LAYER01
  6
Continuous
 62
     7
100
AcDbCircle
 10
68.281898
 20
5.070705565794018
 30
0.0
 40
76.103668
100
AcDbArc
 50
321.162653
 51
358.4107339999999
  0
ARC
  5
63F
330
1E
100
AcDbEntity
  8
LAYER01
  6
Continuous
 62
     7
100
AcDbCircle
 10
115.946243
 20
13.48257056579402
 30
0.0
 40
1.231537
100
AcDbArc
 50
103.394427
 51
200.4538400000001
  0
LINE
  5
65D
330
1E
100
AcDbEntity
  8
LAYER01
  6
Continuous
 62
     7
100
AcDbLine
 10
120.2745899999999
 20
10.94829956579403
 30
0.0
 11
119.95129
 21
10.77695856579402
 31
0.0
  0
LINE
  5
65E
330
1E
100
AcDbEntity
  8
LAYER01
  6
Continuous
 62
     7
100
AcDbLine
 10
119.95129
 20
10.77695856579402
 30
0.0
 11
119.6568649999999
 21
10.61735556579401
 31
0.0
  0
LINE
  5
65F
330
1E
100
AcDbEntity
  8
LAYER01
  6
Continuous
 62
     7
100
AcDbLine
 10
119.6568649999999
 20
10.61735556579401
 30
0.0
 11
119.388807
 21
10.46950356579402
 31
0.0
  0
LINE
  5
660
330
1E
100
AcDbEntity
  8
LAYER01
  6
Continuous
 62
     7
100
AcDbLine
 10
119.388807
 20
10.46950356579402
 30
0.0
 11
119.1446049999999
 21
10.33341656579402
 31
0.0
  0
LINE
  5
661
330
1E
100
AcDbEntity
  8
LAYER01
  6
Continuous
 62
     7
100
AcDbLine
 10
119.1446049999999
 20
10.33341656579402
 30
0.0
 11
118.9217519999999
 21
10.20910656579403
 31
0.0
  0
LINE
  5
662
330
1E
100
AcDbEntity
  8
LAYER01
  6
Continuous
 62
     7
100
AcDbLine
 10
118.9217519999999
 20
10.20910656579403
 30
0.0
 11
118.7177389999999
 21
10.09658856579403
 31
0.0
  0
LINE
  5
663
330
1E
100
AcDbEntity
  8
LAYER01
  6
Continuous
 62
     7
100
AcDbLine
 10
118.7177389999999
 20
10.09658856579403
 30
0.0
 11
118.530057
 21
9.995874565794018
 31
0.0
  0
LINE
  5
664
330
1E
100
AcDbEntity
  8
LAYER01
  6
Continuous
 62
     7
100
AcDbLine
 10
118.530057
 20
9.995874565794018
 30
0.0
 11
118.356196
 21
9.906978565794016
 31
0.0
  0
LINE
  5
665
330
1E
100
AcDbEntity
  8
LAYER01
  6
Continuous
 62
     7
100
AcDbLine
 10
118.356196
 20
9.906978565794016
 30
0.0
 11
118.193649
 21
9.829913565794026
 31
0.0
  0
LINE
  5
666
330
1E
100
AcDbEntity
  8
LAYER01
  6
Continuous
 62
     7
100
AcDbLine
 10
118.193649
 20
9.829913565794026
 30
0.0
 11
118.039906
 21
9.764693565794026
 31
0.0
  0
LINE
  5
667
330
1E
100
AcDbEntity
  8
LAYER01
  6
Continuous
 62
     7
100
AcDbLine
 10
118.039906
 20
9.764693565794026
 30
0.0
 11
118.039906
 21
9.764693565794026
 31
0.0
  0
LINE
  5
668
330
1E
100
AcDbEntity
  8
LAYER01
  6
Continuous
 62
     7
100
AcDbLine
 10
118.039906
 20
9.764693565794026
 30
0.0
 11
117.8926889999999
 21
9.711488565794027
 31
0.0
  0
LINE
  5
669
330
1E
100
AcDbEntity
  8
LAYER01
  6
Continuous
 62
     7
100
AcDbLine
 10
117.8926889999999
 20
9.711488565794027
 30
0.0
 11
117.7506429999999
 21
9.671093565794027
 31
0.0
  0
LINE
  5
66A
330
1E
100
AcDbEntity
  8
LAYER01
  6
Continuous
 62
     7
100
AcDbLine
 10
117.7506429999999
 20
9.671093565794027
 30
0.0
 11
117.6126449999999
 21
9.644460565794016
 31
0.0
  0
LINE
  5
66B
330
1E
100
AcDbEntity
  8
LAYER01
  6
Continuous
 62
     7
100
AcDbLine
 10
117.6126449999999
 20
9.644460565794016
 30
0.0
 11
117.47757
 21
9.632540565794016
 31
0.0
  0
LINE
  5
66C
330
1E
100
AcDbEntity
  8
LAYER01
  6
Continuous
 62
     7
100
AcDbLine
 10
117.47757
 20
9.632540565794016
 30
0.0
 11
117.3442939999999
 21
9.636286565794026
 31
0.0
  0
LINE
  5
66D
330
1E
100
AcDbEntity
  8
LAYER01
  6
Continuous
 62
     7
100
AcDbLine
 10
117.3442939999999
 20
9.636286565794026
 30
0.0
 11
117.2116939999999
 21
9.65665056579402
 31
0.0
  0
LINE
  5
66E
330
1E
100
AcDbEntity
  8
LAYER01
  6
Continuous
 62
     7
100
AcDbLine
 10
117.2116939999999
 20
9.65665056579402
 30
0.0
 11
117.078645
 21
9.694584565794016
 31
0.0
  0
LINE
  5
66F
330
1E
100
AcDbEntity
  8
LAYER01
  6
Continuous
 62
     7
100
AcDbLine
 10
117.078645
 20
9.694584565794016
 30
0.0
 11
116.9440229999999
 21
9.751039565794016
 31
0.0
  0
LINE
  5
670
330
1E
100
AcDbEntity
  8
LAYER01
  6
Continuous
 62
     7
100
AcDbLine
 10
116.9440229999999
 20
9.751039565794016
 30
0.0
 11
116.806705
 21
9.826967565794017
 31
0.0
  0
LINE
  5
671
330
1E
100
AcDbEntity
  8
LAYER01
  6
Continuous
 62
     7
100
AcDbLine
 10
116.806705
 20
9.826967565794017
 30
0.0
 11
116.6655649999999
 21
9.923320565794014
 31
0.0
  0
LINE
  5
672
330
1E
100
AcDbEntity
  8
LAYER01
  6
Continuous
 62
     7
100
AcDbLine
 10
150.4862838253114
 20
3.909333611227367
 30
0.0
 11
147.1100769999999
 21
3.926814565794018
 31
0.0
  0
ARC
  5
673
330
1E
100
AcDbEntity
  8
LAYER01
  6
Continuous
 62
     7
100
AcDbCircle
 10
150.2820429999999
 20
2.69485056579402
 30
0.0
 40
1.231537
100
AcDbArc
 50
343.3944269999998
 51
80.45383599999997
  0
LINE
  5
691
330
1E
100
AcDbEntity
  8
LAYER01
  6
Continuous
 62
     7
100
AcDbLine
 10
145.9231259999999
 20
0.213527565794017
 30
0.0
 11
145.9363929999999
 21
0.5791835657940183
 31
0.0
  0
LINE
  5
692
330
1E
100
AcDbEntity
  8
LAYER01
  6
Continuous
 62
     7
100
AcDbLine
 10
145.9363929999999
 20
0.5791835657940183
 30
0.0
 11
145.945386
 21
0.9139645657940178
 31
0.0
  0
LINE
  5
693
330
1E
100
AcDbEntity
  8
LAYER01
  6
Continuous
 62
     7
100
AcDbLine
 10
145.945386
 20
0.9139645657940178
 30
0.0
 11
145.9513729999999
 21
1.220036565794018
 31
0.0
  0
LINE
  5
694
330
1E
100
AcDbEntity
  8
LAYER01
  6
Continuous
 62
     7
100
AcDbLine
 10
145.9513729999999
 20
1.220036565794018
 30
0.0
 11
145.9556189999999
 21
1.499565565794014
 31
0.0
  0
LINE
  5
695
330
1E
100
AcDbEntity
  8
LAYER01
  6
Continuous
 62
     7
100
AcDbLine
 10
145.9556189999999
 20
1.499565565794014
 30
0.0
 11
145.9593909999999
 21
1.754716565794026
 31
0.0
  0
LINE
  5
696
330
1E
100
AcDbEntity
  8
LAYER01
  6
Continuous
 62
     7
100
AcDbLine
 10
145.9593909999999
 20
1.754716565794026
 30
0.0
 11
145.9639539999999
 21
1.987656565794026
 31
0.0
  0
LINE
  5
697
330
1E
100
AcDbEntity
  8
LAYER01
  6
Continuous
 62
     7
100
AcDbLine
 10
145.9639539999999
 20
1.987656565794026
 30
0.0
 11
145.9705739999999
 21
2.200550565794017
 31
0.0
  0
LINE
  5
698
330
1E
100
AcDbEntity
  8
LAYER01
  6
Continuous
 62
     7
100
AcDbLine
 10
145.9705739999999
 20
2.200550565794017
 30
0.0
 11
145.9805179999999
 21
2.395566565794027
 31
0.0
  0
LINE
  5
699
330
1E
100
AcDbEntity
  8
LAYER01
  6
Continuous
 62
     7
100
AcDbLine
 10
145.9805179999999
 20
2.395566565794027
 30
0.0
 11
145.995052
 21
2.574868565794027
 31
0.0
  0
LINE
  5
69A
330
1E
100
AcDbEntity
  8
LAYER01
  6
Continuous
 62
     7
100
AcDbLine
 10
145.995052
 20
2.574868565794027
 30
0.0
 11
146.0154419999999
 21
2.740623565794017
 31
0.0
  0
LINE
  5
69B
330
1E
100
AcDbEntity
  8
LAYER01
  6
Continuous
 62
     7
100
AcDbLine
 10
146.0154419999999
 20
2.740623565794017
 30
0.0
 11
146.0154419999999
 21
2.740623565794017
 31
0.0
  0
LINE
  5
69C
330
1E
100
AcDbEntity
  8
LAYER01
  6
Continuous
 62
     7
100
AcDbLine
 10
146.0154419999999
 20
2.740623565794017
 30
0.0
 11
146.0429739999999
 21
2.894719565794027
 31
0.0
  0
LINE
  5
69D
330
1E
100
AcDbEntity
  8
LAYER01
  6
Continuous
 62
     7
100
AcDbLine
 10
146.0429739999999
 20
2.894719565794027
 30
0.0
 11
146.0790129999999
 21
3.037931565794018
 31
0.0
  0
LINE
  5
69E
330
1E
100
AcDbEntity
  8
LAYER01
  6
Continuous
 62
     7
100
AcDbLine
 10
146.0790129999999
 20
3.037931565794018
 30
0.0
 11
146.124948
 21
3.170757565794026
 31
0.0
  0
LINE
  5
69F
330
1E
100
AcDbEntity
  8
LAYER01
  6
Continuous
 62
     7
100
AcDbLine
 10
146.124948
 20
3.170757565794026
 30
0.0
 11
146.182163
 21
3.293695565794017
 31
0.0
  0
LINE
  5
6A0
330
1E
100
AcDbEntity
  8
LAYER01
  6
Continuous
 62
     7
100
AcDbLine
 10
146.182163
 20
3.293695565794017
 30
0.0
 11
146.2520449999999
 21
3.407242565794028
 31
0.0
  0
LINE
  5
6A1
330
1E
100
AcDbEntity
  8
LAYER01
  6
Continuous
 62
     7
100
AcDbLine
 10
146.2520449999999
 20
3.407242565794028
 30
0.0
 11
146.33598
 21
3.511895565794006
 31
0.0
  0
LINE
  5
6A2
330
1E
100
AcDbEntity
  8
LAYER01
  6
Continuous
 62
     7
100
AcDbLine
 10
146.33598
 20
3.511895565794006
 30
0.0
 11
146.435355
 21
3.608153565794019
 31
0.0
  0
LINE
  5
6A3
330
1E
100
AcDbEntity
  8
LAYER01
  6
Continuous
 62
     7
100
AcDbLine
 10
146.435355
 20
3.608153565794019
 30
0.0
 11
146.551556
 21
3.696513565794028
 31
0.0
  0
LINE
  5
6A4
330
1E
100
AcDbEntity
  8
LAYER01
  6
Continuous
 62
     7
100
AcDbLine
 10
146.551556
 20
3.696513565794028
 30
0.0
 11
146.6859689999999
 21
3.777471565794016
 31
0.0
  0
LINE
  5
6A5
330
1E
100
AcDbEntity
  8
LAYER01
  6
Continuous
 62
     7
100
AcDbLine
 10
146.6859689999999
 20
3.777471565794016
 30
0.0
 11
146.839981
 21
3.851527565794008
 31
0.0
  0
LINE
  5
6A6
330
1E
100
AcDbEntity
  8
LAYER01
  6
Continuous
 62
     7
100
AcDbLine
 10
123.802284
 20
-16.63136643420599
 30
0.0
 11
124.1123189999999
 21
-16.82568643420596
 31
0.0
  0
LINE
  5
6A7
330
1E
100
AcDbEntity
  8
LAYER01
  6
Continuous
 62
     7
100
AcDbLine
 10
124.1123189999999
 20
-16.82568643420596
 30
0.0
 11
124.397752
 21
-17.00086843420598
 31
0.0
  0
LINE
  5
6A8
330
1E
100
AcDbEntity
  8
LAYER01
  6
Continuous
 62
     7
100
AcDbLine
 10
124.397752
 20
-17.00086843420598
 30
0.0
 11
124.6598239999999
 21
-17.15909043420598
 31
0.0
  0
LINE
  5
6A9
330
1E
100
AcDbEntity
  8
LAYER01
  6
Continuous
 62
     7
100
AcDbLine
 10
124.6598239999999
 20
-17.15909043420598
 30
0.0
 11
124.899779
 21
-17.30253343420598
 31
0.0
  0
LINE
  5
6AA
330
1E
100
AcDbEntity
  8
LAYER01
  6
Continuous
 62
     7
100
AcDbLine
 10
124.899779
 20
-17.30253343420598
 30
0.0
 11
125.118859
 21
-17.43337643420598
 31
0.0
  0
LINE
  5
6AB
330
1E
100
AcDbEntity
  8
LAYER01
  6
Continuous
 62
     7
100
AcDbLine
 10
125.118859
 20
-17.43337643420598
 30
0.0
 11
125.318309
 21
-17.55379843420597
 31
0.0
  0
LINE
  5
6AC
330
1E
100
AcDbEntity
  8
LAYER01
  6
Continuous
 62
     7
100
AcDbLine
 10
125.318309
 20
-17.55379843420597
 30
0.0
 11
125.499369
 21
-17.66598043420598
 31
0.0
  0
LINE
  5
6AD
330
1E
100
AcDbEntity
  8
LAYER01
  6
Continuous
 62
     7
100
AcDbLine
 10
125.499369
 20
-17.66598043420598
 30
0.0
 11
125.6632839999999
 21
-17.77209943420596
 31
0.0
  0
LINE
  5
6AE
330
1E
100
AcDbEntity
  8
LAYER01
  6
Continuous
 62
     7
100
AcDbLine
 10
125.6632839999999
 20
-17.77209943420596
 30
0.0
 11
125.811296
 21
-17.87433743420598
 31
0.0
  0
LINE
  5
6AF
330
1E
100
AcDbEntity
  8
LAYER01
  6
Continuous
 62
     7
100
AcDbLine
 10
125.811296
 20
-17.87433743420598
 30
0.0
 11
125.9446489999999
 21
-17.97487243420597
 31
0.0
  0
LINE
  5
6B0
330
1E
100
AcDbEntity
  8
LAYER01
  6
Continuous
 62
     7
100
AcDbLine
 10
125.9446489999999
 20
-17.97487243420597
 30
0.0
 11
125.9446489999999
 21
-17.97487243420597
 31
0.0
  0
LINE
  5
6B1
330
1E
100
AcDbEntity
  8
LAYER01
  6
Continuous
 62
     7
100
AcDbLine
 10
125.9446489999999
 20
-17.97487243420597
 30
0.0
 11
126.064333
 21
-18.07576343420597
 31
0.0
  0
LINE
  5
6B2
330
1E
100
AcDbEntity
  8
LAYER01
  6
Continuous
 62
     7
100
AcDbLine
 10
126.064333
 20
-18.07576343420597
 30
0.0
 11
126.1703379999999
 21
-18.17858043420598
 31
0.0
  0
LINE
  5
6B3
330
1E
100
AcDbEntity
  8
LAYER01
  6
Continuous
 62
     7
100
AcDbLine
 10
126.1703379999999
 20
-18.17858043420598
 30
0.0
 11
126.262402
 21
-18.28477243420597
 31
0.0
  0
LINE
  5
6B4
330
1E
100
AcDbEntity
  8
LAYER01
  6
Continuous
 62
     7
100
AcDbLine
 10
126.262402
 20
-18.28477243420597
 30
0.0
 11
126.340261
 21
-18.39579043420598
 31
0.0
  0
LINE
  5
6B5
330
1E
100
AcDbEntity
  8
LAYER01
  6
Continuous
 62
     7
100
AcDbLine
 10
126.340261
 20
-18.39579043420598
 30
0.0
 11
126.4036549999999
 21
-18.51308243420599
 31
0.0
  0
LINE
  5
6B6
330
1E
100
AcDbEntity
  8
LAYER01
  6
Continuous
 62
     7
100
AcDbLine
 10
126.4036549999999
 20
-18.51308243420599
 30
0.0
 11
126.4523199999999
 21
-18.63809843420598
 31
0.0
  0
LINE
  5
6B7
330
1E
100
AcDbEntity
  8
LAYER01
  6
Continuous
 62
     7
100
AcDbLine
 10
126.4523199999999
 20
-18.63809843420598
 30
0.0
 11
126.4859949999999
 21
-18.77228843420598
 31
0.0
  0
LINE
  5
6B8
330
1E
100
AcDbEntity
  8
LAYER01
  6
Continuous
 62
     7
100
AcDbLine
 10
126.4859949999999
 20
-18.77228843420598
 30
0.0
 11
126.5044169999999
 21
-18.91709943420598
 31
0.0
  0
LINE
  5
6B9
330
1E
100
AcDbEntity
  8
LAYER01
  6
Continuous
 62
     7
100
AcDbLine
 10
126.5044169999999
 20
-18.91709943420598
 30
0.0
 11
126.5073239999999
 21
-19.07398343420597
 31
0.0
  0
LINE
  5
6BA
330
1E
100
AcDbEntity
  8
LAYER01
  6
Continuous
 62
     7
100
AcDbLine
 10
126.5073239999999
 20
-19.07398343420597
 30
0.0
 11
126.494453
 21
-19.24438843420597
 31
0.0
  0
DIMENSION
  5
82A
102
{ACAD_XDICTIONARY
360
838
102
}
102
{ACAD_REACTORS
330
839
102
}
330
1E
100
AcDbEntity
  8
AM_5 ( Bemassung)
100
AcDbDimension
280
     0
  2
*D9
 10
205.8405911667225
 20
-41.39054344191383
 30
0.0
 11
199.0708094477593
 21
-1.903535730602756
 31
0.0
 70
    32
  1
%%c 80
 71
     5
 42
78.9740154226221
 73
     0
 74
     0
 75
     0
  3
AM_DIN$0
100
AcDbAlignedDimension
 13
130.0
 23
37.58347198070828
 33
0.0
 14
130.0792967044843
 24
-41.39054344191381
 34
0.0
 50
90.0
100
AcDbRotatedDimension
1001
ACAD
1000
DSTYLE
1002
{
1070
    40
1040
2.0
1070
   271
1070
     0
1002
}
1001
ACAD_DSTYLE_DIMINSPECT
1070
   396
1000
100%
1070
   395
1000

1070
   394
1070
    33
1070
   393
1070
     0
  0
DIMENSION
  5
88F
102
{ACAD_XDICTIONARY
360
89D
102
}
102
{ACAD_REACTORS
330
89E
102
}
330
1E
100
AcDbEntity
  8
AM_5 ( Bemassung)
100
AcDbDimension
280
     0
  2
*D10
 10
223.1682286856398
 20
-53.29367443420601
 30
0.0
 11
216.3984469666766
 21
-2.010677434205972
 31
0.0
 70
    32
  1
%%c<>
 71
     5
 42
102.565994
 73
     0
 74
     0
 75
     0
  3
AM_DIN$0
100
AcDbAlignedDimension
 13
100.5
 23
49.27231956579402
 33
0.0
 14
101.1495129999999
 24
-53.29367443420597
 34
0.0
 50
90.00000000000003
100
AcDbRotatedDimension
1001
ACAD
1000
DSTYLE
1002
{
1070
    40
1040
2.0
1070
   271
1070
     0
1002
}
1001
ACAD_DSTYLE_DIMINSPECT
1070
   396
1000
100%
1070
   395
1000

1070
   394
1070
    33
1070
   393
1070
     0
  0
DIMENSION
  5
8FB
330
1E
100
AcDbEntity
  8
AM_5 ( Bemassung)
100
AcDbDimension
280
     0
  2
*D12
 10
31.17477754075708
 20
112.218462
 30
0.0
 11
24.61509131974751
 21
90.89786172714873
 31
0.0
 70
    32
 71
     5
 42
5.002616999999986
 73
     0
 74
     0
 75
     0
  3
AM_DIN$0
100
AcDbAlignedDimension
 13
68.83988999999999
 23
117.221079
 33
0.0
 14
44.5
 24
112.218462
 34
0.0
 50
90.0
100
AcDbRotatedDimension
1001
ACAD_DSTYLE_DIMINSPECT
1070
   396
1000
100%
1070
   395
1000

1070
   394
1070
    33
1070
   393
1070
     0
1001
ACAD
1000
DSTYLE
1002
{
1070
    40
1040
2.0
1002
}
  0
DIMENSION
  5
940
102
{ACAD_XDICTIONARY
360
94E
102
}
102
{ACAD_REACTORS
330
94F
102
}
330
1E
100
AcDbEntity
  8
AM_5 ( Bemassung)
100
AcDbDimension
280
     0
  2
*D13
 10
197.3958192293671
 20
112.218462
 30
0.0
 11
190.8194208664749
 21
148.593462
 31
0.0
 70
    32
  1
73\P
 71
     5
 42
72.75
 73
     0
 74
     0
 75
     0
  3
AM_DIN$0
100
AcDbAlignedDimension
 13
170.0
 23
184.968462
 33
0.0
 14
150.0
 24
112.218462
 34
0.0
 50
90.0
100
AcDbRotatedDimension
1001
ACAD
1000
DSTYLE
1002
{
1070
    40
1040
2.0
1002
}
1001
ACAD_DSTYLE_DIMINSPECT
1070
   396
1000
100%
1070
   395
1000

1070
   394
1070
    33
1070
   393
1070
     0
  0
DIMENSION
  5
994
330
1E
100
AcDbEntity
  8
AM_5 ( Bemassung)
100
AcDbDimension
280
     0
  2
*D14
 10
211.336848702578
 20
165.468462
 30
0.0
 11
204.7604503396857
 21
184.968462
 31
0.0
 70
    32
 71
     5
 42
39.0
 73
     0
 74
     0
 75
     0
  3
AM_DIN$0
100
AcDbAlignedDimension
 13
170.0
 23
204.468462
 33
0.0
 14
170.0
 24
165.468462
 34
0.0
 50
90.0
100
AcDbRotatedDimension
1001
ACAD_DSTYLE_DIMINSPECT
1070
   396
1000
100%
1070
   395
1000

1070
   394
1070
    33
1070
   393
1070
     0
1001
ACAD
1000
DSTYLE
1002
{
1070
    40
1040
2.0
1002
}
  0
DIMENSION
  5
9C1
102
{ACAD_XDICTIONARY
360
9CF
102
}
102
{ACAD_REACTORS
330
9D0
102
}
330
1E
100
AcDbEntity
  8
AM_5 ( Bemassung)
100
AcDbDimension
280
     0
  2
*D15
 10
40.37066654083651
 20
-4.823185434205969
 30
0.0
 11
40.37066654083651
 21
-26.14378570705726
 31
0.0
 70
   160
  1
5
 71
     5
 42
6.0
 73
     0
 74
     0
 75
     0
  3
AM_DIN$0
100
AcDbAlignedDimension
 13
60.0
 23
1.176814565794025
 33
0.0
 14
60.0
 24
-4.823185434205974
 34
0.0
 50
90.0
100
AcDbRotatedDimension
1001
ACAD
1000
DSTYLE
1002
{
1070
    40
1040
2.0
1070
   271
1070
     0
1002
}
1001
ACAD_DSTYLE_DIMINSPECT
1070
   396
1000
100%
1070
   395
1000

1070
   394
1070
    33
1070
   393
1070
     0
  0
LINE
  5
B23
102
{ACAD_REACTORS
330
B37
102
}
330
1E
100
AcDbEntity
  8
AM_3
100
AcDbLine
 10
112.0733114142258
 20
112.218462
 30
0.0
 11
112.0733114142258
 21
127.3535173557877
 31
0.0
  0
LINE
  5
B24
330
1E
100
AcDbEntity
  8
AM_3
100
AcDbLine
 10
112.0733114142258
 20
127.3535173557877
 30
0.0
 11
147.12605040582
 21
127.3535173557877
 31
0.0
  0
LINE
  5
B25
102
{ACAD_REACTORS
330
B37
102
}
330
1E
100
AcDbEntity
  8
AM_3
100
AcDbLine
 10
147.12605040582
 20
127.3535173557877
 30
0.0
 11
147.12605040582
 21
112.218462
 31
0.0
  0
DIMENSION
  5
B28
102
{ACAD_XDICTIONARY
360
B36
102
}
102
{ACAD_REACTORS
330
B37
102
}
330
1E
100
AcDbEntity
  8
AM_5 ( Bemassung)
100
AcDbDimension
280
     0
  2
*D18
 10
147.12605040582
 20
93.28031355326151
 30
0.0
 11
130.0
 21
93.28031355326151
 31
0.0
 70
   160
  1
%%c34
 71
     5
 42
35.0527389915942
 73
     0
 74
     0
 75
     0
  3
AM_DIN$0
100
AcDbAlignedDimension
 13
112.0733114142258
 23
112.218462
 33
0.0
 14
147.12605040582
 24
112.218462
 34
0.0
 50
0.0000000000001132
100
AcDbRotatedDimension
1001
ACAD_DSTYLE_DIMINSPECT
1070
   396
1000
100%
1070
   395
1000

1070
   394
1070
    33
1070
   393
1070
     0
1001
ACAD
1000
DSTYLE
1002
{
1070
    40
1040
2.0
1002
}
  0
DIMENSION
  5
B7D
102
{ACAD_XDICTIONARY
360
B8B
102
}
102
{ACAD_REACTORS
330
B8C
102
}
330
1E
100
AcDbEntity
  8
AM_5 ( Bemassung)
100
AcDbDimension
280
     0
  2
*D19
 10
90.0
 20
54.30130486212783
 30
0.0
 11
75.0
 21
54.30130486212783
 31
0.0
 70
   160
 71
     5
 42
30.0
 73
     0
 74
     0
 75
     0
  3
AM_DIN$0
100
AcDbAlignedDimension
 13
60.0
 23
5.176814565794025
 33
0.0
 14
90.0
 24
8.176814565794014
 34
0.0
100
AcDbRotatedDimension
1001
ACAD_DSTYLE_DIMINSPECT
1070
   396
1000
100%
1070
   395
1000

1070
   394
1070
    33
1070
   393
1070
     0
1001
ACAD
1000
DSTYLE
1002
{
1070
    40
1040
2.0
1002
}
  0
DIMENSION
  5
BA1
102
{ACAD_XDICTIONARY
360
BAF
102
}
102
{ACAD_REACTORS
330
BB0
102
}
330
1E
100
AcDbEntity
  8
AM_5 ( Bemassung)
100
AcDbDimension
280
     0
  2
*D20
 10
130.0
 20
54.51240858519077
 30
0.0
 11
110.0
 21
61.08641949924261
 31
0.0
 70
    32
 71
     5
 42
40.0
 73
     0
 74
     0
 75
     0
  3
AM_DIN$0
100
AcDbAlignedDimension
 13
90.0
 23
-1.823185434205974
 33
0.0
 14
130.0
 24
-1.823185434205974
 34
0.0
 50
0.0000000000000114
100
AcDbRotatedDimension
1001
ACAD
1000
DSTYLE
1002
{
1070
    40
1040
2.0
1002
}
1001
ACAD_DSTYLE_DIMINSPECT
1070
   396
1000
100%
1070
   395
1000

1070
   394
1070
    33
1070
   393
1070
     0
  0
LINE
  5
BF2
330
1E
100
AcDbEntity
  8
AM_7 (Mittellinie)
  6
AM_ISO08W050x2
100
AcDbLine
 10
130.0
 20
107.021475564858
 30
0.0
 11
130.0
 21
172.218462
 31
0.0
  0
DIMENSION
  5
C07
102
{ACAD_XDICTIONARY
360
C15
102
}
102
{ACAD_REACTORS
330
C16
102
}
330
1E
100
AcDbEntity
  8
AM_5 ( Bemassung)
100
AcDbDimension
280
     0
  2
*D21
 10
150.0
 20
86.1439658567515
 30
0.0
 11
173.9256480218281
 21
86.1439658567515
 31
0.0
 70
   160
  1
%%c40.5
 71
     5
 42
40.0
 73
     0
 74
     0
 75
     0
  3
AM_DIN$0
100
AcDbAlignedDimension
 13
110.0
 23
122.218462
 33
0.0
 14
150.0
 24
112.218462
 34
0.0
 50
0.0000000000001132
100
AcDbRotatedDimension
1001
ACAD_DSTYLE_DIMINSPECT
1070
   396
1000
100%
1070
   395
1000

1070
   394
1070
    33
1070
   393
1070
     0
1001
ACAD
1000
DSTYLE
1002
{
1070
    40
1040
2.0
1002
}
  0
SPLINE
  5
C9C
330
1E
100
AcDbEntity
  8
AM_3
100
AcDbSpline
210
0.0
220
0.0
230
1.0
 70
     8
 71
     3
 72
    11
 73
     7
 74
     0
 42
0.000000001
 43
0.0000000001
 40
0.9713410582883149
 40
0.9713410582883149
 40
0.9713410582883149
 40
0.9713410582883149
 40
5.153461531990894
 40
15.08085708076022
 40
26.21845058363908
 40
33.88257748733719
 40
33.88257748733719
 40
33.88257748733719
 40
33.88257748733719
 10
127.6305036179689
 20
127.3535173557877
 30
0.0
 10
127.9117233065186
 20
125.8340678793842
 30
0.0
 10
128.4791120531226
 20
120.9274269791259
 30
0.0
 10
117.2791209899801
 20
119.1822659654107
 30
0.0
 10
108.7340089836851
 20
118.1180489573746
 30
0.0
 10
102.2862671182864
 20
118.8530848580701
 30
0.0
 10
99.75066421422784
 20
119.4721599196878
 30
0.0
  0
SPLINE
  5
C9D
330
1E
100
AcDbEntity
  8
AM_3
100
AcDbSpline
210
0.0
220
0.0
230
1.0
 70
     8
 71
     3
 72
    50
 73
    46
 74
     0
 42
0.000000001
 43
0.0000000001
 40
1.675918735353117
 40
1.675918735353117
 40
1.675918735353117
 40
1.675918735353117
 40
2.225735718738652
 40
2.225735718738652
 40
3.630513578178736
 40
3.630513578178736
 40
4.55830076533745
 40
4.55830076533745
 40
5.062520696822008
 40
5.062520696822008
 40
5.411817158206375
 40
5.411817158206375
 40
5.761113619590742
 40
5.761113619590742
 40
6.459706542359476
 40
6.459706542359476
 40
7.529008057458267
 40
7.529008057458267
 40
8.598309572557059
 40
8.598309572557059
 40
9.667611087655851
 40
9.667611087655851
 40
11.77355680140643
 40
11.77355680140643
 40
13.87950251515701
 40
13.87950251515701
 40
15.13997131889651
 40
15.13997131889651
 40
16.40044012263602
 40
16.40044012263602
 40
18.92137773011503
 40
18.92137773011503
 40
23.66637659993878
 40
23.66637659993878
 40
26.72374956266136
 40
26.72374956266136
 40
29.78112252538394
 40
29.78112252538394
 40
35.33639489440012
 40
35.33639489440012
 40
37.90476085788888
 40
37.90476085788888
 40
39.65674661241622
 40
39.65674661241622
 40
40.2294790448647
 40
40.2294790448647
 40
40.2294790448647
 40
40.2294790448647
 10
132.7026998164568
 20
127.3535173557857
 30
0.0
 10
132.7405729775037
 20
127.1071292130476
 30
0.0
 10
132.7756722529537
 20
126.8529262235172
 30
0.0
 10
132.8844974912616
 20
125.9193068808102
 30
0.0
 10
132.9360060400171
 20
125.1923891145028
 30
0.0
 10
132.8757171874956
 20
123.8472207064265
 30
0.0
 10
132.8124796501711
 20
123.2743855356211
 30
0.0
 10
132.6006939855176
 20
122.3344134341715
 30
0.0
 10
132.5039169819594
 20
121.9930441660188
 30
0.0
 10
132.2917029065195
 20
121.4052133569123
 30
0.0
 10
132.1912058750941
 20
121.163374011224
 30
0.0
 10
131.9719100063232
 20
120.6996748633253
 30
0.0
 10
131.8522822033101
 20
120.4752439455072
 30
0.0
 10
131.4687848709776
 20
119.8281836160544
 30
0.0
 10
131.1804644977835
 20
119.4324005373964
 30
0.0
 10
130.4059893611023
 20
118.5285719465217
 30
0.0
 10
129.8979995759517
 20
118.0725591861016
 30
0.0
 10
128.8716241551803
 20
117.3040666726643
 30
0.0
 10
128.3523134475704
 20
116.9899581714468
 30
0.0
 10
127.3231639056204
 20
116.4547604386483
 30
0.0
 10
126.812527637736
 20
116.2335243386936
 30
0.0
 10
125.3129589226087
 20
115.6655630907004
 30
0.0
 10
124.3383103742143
 20
115.4022335522458
 30
0.0
 10
122.441015572164
 20
114.9766612062629
 30
0.0
 10
121.5180845666984
 20
114.8169693366678
 30
0.0
 10
120.1245366356214
 20
114.5988878743183
 30
0.0
 10
119.6231333265168
 20
114.5261545720668
 30
0.0
 10
118.6686682908916
 20
114.388759718027
 30
0.0
 10
118.1997083268456
 20
114.3221263042704
 30
0.0
 10
116.8117196423315
 20
114.1297933525958
 30
0.0
 10
115.9114558548782
 20
114.0116003774993
 30
0.0
 10
113.3465443399189
 20
113.7122395081731
 30
0.0
 10
111.7058233230969
 20
113.5673258768283
 30
0.0
 10
108.9439466062599
 20
113.4704821306697
 30
0.0
 10
107.8458873066573
 20
113.4685146288046
 30
0.0
 10
105.5953926820243
 20
113.5525344483505
 30
0.0
 10
104.446041993016
 20
113.6380862113711
 30
0.0
 10
101.1720170885056
 20
114.0213095589329
 30
0.0
 10
99.01732472797862
 20
114.4337030991047
 30
0.0
 10
95.90696688048174
 20
115.3613293203763
 30
0.0
 10
94.9295654505696
 20
115.7023810619952
 30
0.0
 10
93.30909382253999
 20
116.3692691054674
 30
0.0
 10
92.6585182156981
 20
116.6655177673042
 30
0.0
 10
91.80806413416094
 20
117.0965372382739
 30
0.0
 10
91.59982921111694
 20
117.2057526329471
 30
0.0
 10
91.39347586533023
 20
117.3175898200143
 30
0.0
  0
SPLINE
  5
C9E
330
1E
100
AcDbEntity
  8
AM_0 ( Kontur 0.5 )
100
AcDbSpline
210
0.0
220
0.0
230
1.0
 70
     8
 71
     3
 72
    12
 73
     8
 74
     0
 42
0.000000001
 43
0.0000000001
 40
33.88257748733719
 40
33.88257748733719
 40
33.88257748733719
 40
33.88257748733719
 40
40.00553923079101
 40
63.46624351706842
 40
80.96548443006097
 40
91.3767308253055
 40
102.7569590493032
 40
102.7569590493032
 40
102.7569590493032
 40
102.7569590493032
 10
99.75066421422784
 20
119.4721599196878
 30
0.0
 10
97.72494102707005
 20
119.9667463176221
 30
0.0
 10
88.22328837749322
 20
123.341520956107
 30
0.0
 10
79.74767272813429
 20
137.8335070982675
 30
0.0
 10
68.0519683514449
 20
150.4262733274208
 30
0.0
 10
52.50274381857642
 20
152.4274285873816
 30
0.0
 10
49.58483899444263
 20
144.7824866079824
 30
0.0
 10
48.06101266259702
 20
140.7900452516751
 30
0.0
  0
LINE
  5
C9F
330
1E
100
AcDbEntity
  8
AM_0 ( Kontur 0.5 )
100
AcDbLine
 10
99.75066421422777
 20
119.4721599196875
 30
0.0
 11
91.339751625928
 21
117.218462
 31
0.0
  0
SPLINE
  5
CA0
330
1E
100
AcDbEntity
  8
AM_0 ( Kontur 0.5 )
100
AcDbSpline
210
0.0
220
0.0
230
1.0
 70
     8
 71
     3
 72
    50
 73
    46
 74
     0
 42
0.000000001
 43
0.0000000001
 40
40.2294790448647
 40
40.2294790448647
 40
40.2294790448647
 40
40.2294790448647
 40
41.01508577850339
 40
41.01508577850339
 40
42.37342494459055
 40
42.37342494459055
 40
45.09010327676491
 40
45.09010327676491
 40
51.80671025864151
 40
51.80671025864151
 40
58.52331724051811
 40
58.52331724051811
 40
65.2399242223947
 40
65.2399242223947
 40
71.9565312042713
 40
71.9565312042713
 40
76.84292809086698
 40
76.84292809086698
 40
79.92190794575179
 40
79.92190794575179
 40
81.6690370898137
 40
81.6690370898137
 40
83.4161662338756
 40
83.4161662338756
 40
86.12193672747519
 40
86.12193672747519
 40
88.82770722107478
 40
88.82770722107478
 40
90.18035487880355
 40
90.18035487880355
 40
91.04225988766968
 40
91.04225988766968
 40
91.82210903315333
 40
91.82210903315333
 40
92.60195817863696
 40
92.60195817863696
 40
94.46032234527844
 40
94.46032234527844
 40
96.31868651191993
 40
96.31868651191993
 40
98.1770506785614
 40
98.1770506785614
 40
101.1917305282417
 40
101.1917305282417
 40
102.7569590493032
 40
102.7569590493032
 40
102.7569590493032
 40
102.7569590493032
 10
91.39347586533023
 20
117.3175898200143
 30
0.0
 10
91.11042470780128
 20
117.4709948696559
 30
0.0
 10
90.83091375922391
 20
117.6293328514248
 30
0.0
 10
90.08195877635705
 20
118.0720526810806
 30
0.0
 10
89.62037019312449
 20
118.3651456656553
 30
0.0
 10
88.27310620593515
 20
119.2768992050376
 30
0.0
 10
87.42509195195387
 20
119.9278907505158
 30
0.0
 10
84.63407928586558
 20
122.2932957096724
 30
0.0
 10
82.91689370915404
 20
124.1574819320088
 30
0.0
 10
79.78529554677308
 20
127.9633510692132
 30
0.0
 10
78.36870740582122
 20
129.9086413890685
 30
0.0
 10
75.64224240975891
 20
133.6694157038329
 30
0.0
 10
74.33289776329295
 20
135.48441576165
 30
0.0
 10
71.69412494615201
 20
138.7842831577586
 30
0.0
 10
70.36556387788483
 20
140.2678354736178
 30
0.0
 10
67.9677125215934
 20
142.4374834981803
 30
0.0
 10
66.92809605556956
 20
143.2319480865948
 30
0.0
 10
65.12972335860595
 20
144.3272020033552
 30
0.0
 10
64.40879982147589
 20
144.7024316165028
 30
0.0
 10
63.21463519073708
 20
145.214509478703
 30
0.0
 10
62.76708739076471
 20
145.3849226191088
 30
0.0
 10
61.84936683298413
 20
145.6894319335001
 30
0.0
 10
61.38165434331165
 20
145.8224749962468
 30
0.0
 10
60.20540691440049
 20
146.0985265441756
 30
0.0
 10
59.50513971961372
 20
146.2056702519913
 30
0.0
 10
58.25579585181381
 20
146.2854864498469
 30
0.0
 10
57.70862817236515
 20
146.2563776103969
 30
0.0
 10
57.09124549704373
 20
146.1520439318001
 30
0.0
 10
56.91924556927285
 20
146.1080250402053
 30
0.0
 10
56.6957110854529
 20
146.0338862550984
 30
0.0
 10
56.62300014503044
 20
146.0046025960059
 30
0.0
 10
56.50896049406571
 20
145.9518585505065
 30
0.0
 10
56.46710853507435
 20
145.9295035502703
 30
0.0
 10
56.37080597504795
 20
145.8713434870468
 30
0.0
 10
56.31954180978227
 20
145.8368881137086
 30
0.0
 10
56.13012659878677
 20
145.6935249814588
 30
0.0
 10
55.96820162691645
 20
145.54565992362
 30
0.0
 10
55.5951147033725
 20
145.1134658592312
 30
0.0
 10
55.38574026382293
 20
144.829722103715
 30
0.0
 10
54.94735994834501
 20
144.1297922510452
 30
0.0
 10
54.71867302178353
 20
143.7144280360829
 30
0.0
 10
54.11300978253995
 20
142.4846878685718
 30
0.0
 10
53.73367301249763
 20
141.5840976025129
 30
0.0
 10
53.14555983654995
 20
140.089540182665
 30
0.0
 10
52.94190903929959
 20
139.5562272197446
 30
0.0
 10
52.73232304604862
 20
139.0071096663391
 30
0.0
  0
ARC
  5
CA1
102
{ACAD_REACTORS
330
CCC
102
}
330
1E
100
AcDbEntity
  8
AM_0 ( Kontur 0.5 )
100
AcDbCircle
 10
50.9720277819001
 20
141.4060266489941
 30
0.0
 40
2.975473425634008
100
AcDbArc
 50
191.9477516758541
 51
306.2707552998133
  0
ARC
  5
CA3
330
1E
100
AcDbEntity
  8
AM_0 ( Kontur 0.5 )
100
AcDbCircle
 10
73.74180497786913
 20
136.1354932000551
 30
0.0
 40
22.93164047018424
100
AcDbArc
 50
206.4582305456645
 51
214.7209298179503
  0
ARC
  5
CA4
330
1E
100
AcDbEntity
  8
AM_0 ( Kontur 0.5 )
100
AcDbCircle
 10
73.74180497786913
 20
136.1354932000551
 30
0.0
 40
22.73164047018424
100
AcDbArc
 50
206.4582305456645
 51
214.6937783635932
  0
LINE
  5
CA6
330
1E
100
AcDbEntity
  8
AM_0 ( Kontur 0.5 )
100
AcDbLine
 10
52.58535651008481
 20
125.6065274606277
 30
0.0
 11
53.92824562274356
 21
126.2748453723304
 31
0.0
  0
LINE
  5
CAD
330
1E
100
AcDbEntity
  8
AM_0 ( Kontur 0.5 )
100
AcDbLine
 10
55.05171713200801
 20
123.1968651901109
 30
0.0
 11
54.89346341049177
 21
123.0740937798832
 31
0.0
  0
ARC
  5
CAE
330
1E
100
AcDbEntity
  8
AM_0 ( Kontur 0.5 )
100
AcDbCircle
 10
73.74180497786913
 20
136.1354932000551
 30
0.0
 40
22.13164047018424
100
AcDbArc
 50
173.7850639683689
 51
206.4582305456646
  0
ARC
  5
CB0
330
1E
100
AcDbEntity
  8
AM_0 ( Kontur 0.5 )
100
AcDbCircle
 10
73.74180497786913
 20
136.1354932000551
 30
0.0
 40
23.63164047018424
100
AcDbArc
 50
174.1984581051069
 51
206.4582305456646
  0
ARC
  5
CB7
330
1E
100
AcDbEntity
  8
AM_0 ( Kontur 0.5 )
100
AcDbCircle
 10
27.85140830920929
 20
144.8233694163333
 30
0.0
 40
23.63164047018424
100
AcDbArc
 50
312.1012777574562
 51
344.361050198014
  0
ARC
  5
CB8
330
1E
100
AcDbEntity
  8
AM_0 ( Kontur 0.5 )
100
AcDbCircle
 10
27.85140830920929
 20
144.8233694163333
 30
0.0
 40
22.13164047018423
100
AcDbArc
 50
312.1012777574562
 51
344.7744443347519
  0
ARC
  5
CB9
330
1E
100
AcDbEntity
  8
AM_0 ( Kontur 0.5 )
100
AcDbCircle
 10
27.85140830920929
 20
144.8233694163333
 30
0.0
 40
22.93164047018423
100
AcDbArc
 50
303.8385784851704
 51
312.1012777574562
  0
ARC
  5
CBA
330
1E
100
AcDbEntity
  8
AM_0 ( Kontur 0.5 )
100
AcDbCircle
 10
27.85140830920929
 20
144.8233694163333
 30
0.0
 40
22.73164047018424
100
AcDbArc
 50
303.8657299395278
 51
312.1012777574562
  0
LINE
  5
CBB
330
1E
100
AcDbEntity
  8
AM_0 ( Kontur 0.5 )
100
AcDbLine
 10
43.69508015555891
 20
127.2896164313835
 30
0.0
 11
42.68941540708285
 21
128.402557765719
 31
0.0
  0
LINE
  5
CBC
330
1E
100
AcDbEntity
  8
AM_0 ( Kontur 0.5 )
100
AcDbLine
 10
40.51858217809577
 20
125.9482486315246
 30
0.0
 11
40.62100717277703
 21
125.7761260588981
 31
0.0
  0
DIMENSION
  5
CBD
102
{ACAD_XDICTIONARY
360
CCB
102
}
102
{ACAD_REACTORS
330
CCC
102
}
330
1E
100
AcDbEntity
  8
AM_5 ( Bemassung)
100
AcDbDimension
280
     0
  2
*D22
 10
45.68960729663237
 20
149.6402478765766
 30
0.0
 11
73.87778417525304
 21
157.1932493998006
 31
0.0
 70
   160
  1
3m\P2x0.75mm ²
 71
     5
 42
55.02178550251667
 73
     0
 74
     0
 75
     0
  3
AM_DIN$0
100
AcDbAlignedDimension
 13
110.0
 23
122.218462
 33
0.0
 14
48.06101266259704
 24
140.7900452516751
 34
0.0
 50
15.00000434761426
100
AcDbRotatedDimension
1001
ACAD_DSTYLE_DIMINSPECT
1070
   396
1000
100%
1070
   395
1000

1070
   394
1070
    33
1070
   393
1070
     0
1001
ACAD
1000
DSTYLE
1002
{
1070
    40
1040
2.0
1002
}
  0
ENDSEC
  0
SECTION
  2
OBJECTS
  0
DICTIONARY
  5
C
330
0
100
AcDbDictionary
281
     1
  3
ACAD_CIP_PREVIOUS_PRODUCT_INFO
350
AA5
  3
ACAD_COLOR
350
26C
  3
ACAD_DETAILVIEWSTYLE
350
A99
  3
ACAD_FIELDLIST
350
AB9
  3
ACAD_GROUP
350
D
  3
ACAD_LAYOUT
350
19
  3
ACAD_MATERIAL
350
242
  3
ACAD_MLEADERSTYLE
350
291
  3
ACAD_MLINESTYLE
350
16
  3
ACAD_PLOTSETTINGS
350
18
  3
ACAD_PLOTSTYLENAME
350
E
  3
ACAD_RENDER_RAPIDRT_SETTINGS
350
D69
  3
ACAD_SCALELIST
350
26F
  3
ACAD_SECTIONVIEWSTYLE
350
A97
  3
ACAD_TABLESTYLE
350
26D
  3
ACAD_VISUALSTYLE
350
25B
  3
ACDB_RECOMPOSE_DATA
350
DA9
  3
AcDbVariableDictionary
350
763
  3
ACDMSYSVARMGR
350
79D
  3
ACGREF_MASTER
350
797
  3
ACGREFACAD_MASTER
350
7BB
  3
AcmDictionary
350
2F2
  3
ACME_COMMAND_HISTORY
350
78E
  3
ACME_SCOPE_NAME
350
78D
  3
ACMESTATEMGR
350
796
  3
AcmeSysVarManager
350
78F
  3
AcmSystemVariableManager
350
7C0
  3
ADSYSVARMGR
350
7C7
  3
AmdtNamedDwgMgr
350
7B8
  3
AMG
350
297
  3
AMGSNAPSETTINGS
350
3E0
  3
AMI_MASTER
350
7BE
  3
ASE_INDEX_DICTIONARY
350
A89
  3
AUTOCAD_ASSEMBLIES_PROJECT
350
7D1
  3
Designer_Assemblies_SysVars
350
7CB
  3
GREFAM_MODULE
350
7BF
  3
StructToggleButtonState
350
801
  0
DICTIONARY
  5
3EB
330
2
100
AcDbDictionary
280
     1
281
     1
  3
ACAD_LAYERSTATES
360
AF1
  3
AMLAYER_GROUPCOLORS
360
3EC
  0
DICTIONARY
  5
759
330
10
100
AcDbDictionary
280
     1
281
     1
  3
ADSK_XREC_LAYER_RECONCILED
360
75A
  0
DICTIONARY
  5
75B
330
22
100
AcDbDictionary
280
     1
281
     1
  3
ADSK_XREC_LAYER_RECONCILED
360
75C
  0
DICTIONARY
  5
75D
330
3EA
100
AcDbDictionary
280
     1
281
     1
  3
ADSK_XREC_LAYER_RECONCILED
360
75E
  0
DICTIONARY
  5
75F
330
434
100
AcDbDictionary
280
     1
281
     1
  3
ADSK_XREC_LAYER_RECONCILED
360
760
  0
DICTIONARY
  5
761
330
436
100
AcDbDictionary
280
     1
281
     1
  3
ADSK_XREC_LAYER_RECONCILED
360
762
  0
DICTIONARY
  5
609
330
1E
100
AcDbDictionary
280
     1
281
     1
  3
ACAD_SORTENTS
360
60A
  0
DICTIONARY
  5
551
330
544
100
AcDbDictionary
280
     1
281
     1
  3
ACAD_DIMASSOC
360
552
  0
DICTIONARY
  5
838
330
82A
100
AcDbDictionary
280
     1
281
     1
  3
ACAD_DIMASSOC
360
839
  0
DICTIONARY
  5
89D
330
88F
100
AcDbDictionary
280
     1
281
     1
  3
ACAD_DIMASSOC
360
89E
  0
DICTIONARY
  5
94E
330
940
100
AcDbDictionary
280
     1
281
     1
  3
ACAD_DIMASSOC
360
94F
  0
DICTIONARY
  5
9CF
330
9C1
100
AcDbDictionary
280
     1
281
     1
  3
ACAD_DIMASSOC
360
9D0
  0
DICTIONARY
  5
B36
330
B28
100
AcDbDictionary
280
     1
281
     1
  3
ACAD_DIMASSOC
360
B37
  0
DICTIONARY
  5
B8B
330
B7D
100
AcDbDictionary
280
     1
281
     1
  3
ACAD_DIMASSOC
360
B8C
  0
DICTIONARY
  5
BAF
330
BA1
100
AcDbDictionary
280
     1
281
     1
  3
ACAD_DIMASSOC
360
BB0
  0
DICTIONARY
  5
C15
330
C07
100
AcDbDictionary
280
     1
281
     1
  3
ACAD_DIMASSOC
360
C16
  0
DICTIONARY
  5
CCB
330
CBD
100
AcDbDictionary
280
     1
281
     1
  3
ACAD_DIMASSOC
360
CCC
  0
XRECORD
  5
AA5
102
{ACAD_REACTORS
330
C
102
}
330
C
100
AcDbXrecord
280
     1
300
AMECH_PP
300
2016
300
PDSU_F_S
  0
DICTIONARY
  5
26C
102
{ACAD_REACTORS
330
C
102
}
330
C
100
AcDbDictionary
281
     1
  0
DICTIONARY
  5
A99
102
{ACAD_REACTORS
330
C
102
}
330
C
100
AcDbDictionary
281
     1
  3
ASME Y14.35 - 1987
350
AB0
  3
Imperial24
350
A9A
  0
FIELDLIST
  5
AB9
102
{ACAD_REACTORS
330
C
102
}
330
C
100
AcDbIdSet
 90
        7
330
AB7
330
AB8
330
ABA
330
ABB
330
AC4
330
AC5
330
AC6
100
AcDbFieldList
  0
DICTIONARY
  5
D
102
{ACAD_REACTORS
330
C
102
}
330
C
100
AcDbDictionary
281
     1
  0
DICTIONARY
  5
19
102
{ACAD_REACTORS
330
C
102
}
330
C
100
AcDbDictionary
281
     1
  3
Layout1
350
1D
  3
Model
350
21
  0
DICTIONARY
  5
242
102
{ACAD_REACTORS
330
C
102
}
330
C
100
AcDbDictionary
281
     1
  3
ByBlock
350
24B
  3
ByLayer
350
243
  3
Global
350
253
  0
DICTIONARY
  5
291
102
{ACAD_REACTORS
330
C
102
}
330
C
100
AcDbDictionary
281
     1
  3
Standard
350
292
  0
DICTIONARY
  5
16
102
{ACAD_REACTORS
330
C
102
}
330
C
100
AcDbDictionary
281
     1
  3
Standard
350
17
  0
DICTIONARY
  5
18
102
{ACAD_REACTORS
330
C
102
}
330
C
100
AcDbDictionary
281
     1
  0
ACDBDICTIONARYWDFLT
  5
E
102
{ACAD_REACTORS
330
C
102
}
330
C
100
AcDbDictionary
281
     1
  3
Normal
350
F
100
AcDbDictionaryWithDefault
340
F
  0
DICTIONARY
  5
D69
102
{ACAD_REACTORS
330
C
102
}
330
C
100
AcDbDictionary
281
     1
  3
Hoch
350
D6C
  3
Mittagsqualität
350
D6E
  3
Mittel
350
D6B
  3
Morgenqualität
350
D6D
  3
Nachtqualität
350
D6F
  3
Niedrig
350
D6A
  0
DICTIONARY
  5
26F
102
{ACAD_REACTORS
330
C
102
}
330
C
100
AcDbDictionary
281
     1
  3
A0
350
270
  3
A1
350
271
  3
A2
350
272
  3
A3
350
273
  3
A4
350
274
  3
A5
350
275
  3
A6
350
276
  3
A7
350
277
  3
A8
350
278
  3
A9
350
279
  3
B0
350
27A
  3
B1
350
27B
  3
B2
350
27C
  3
B3
350
27D
  3
B4
350
27E
  3
B5
350
27F
  3
B6
350
280
  3
B7
350
281
  3
B8
350
282
  3
B9
350
283
  3
C0
350
284
  3
C1
350
285
  3
C2
350
286
  3
C3
350
287
  3
C4
350
288
  3
C5
350
289
  3
C6
350
28A
  3
C7
350
28B
  3
C8
350
28C
  3
C9
350
28D
  3
D0
350
28E
  3
D1
350
28F
  3
D2
350
290
  0
DICTIONARY
  5
A97
102
{ACAD_REACTORS
330
C
102
}
330
C
100
AcDbDictionary
281
     1
  3
ASME Y14.3 - 2003
350
AC1
  3
Imperial24
350
A98
  0
DICTIONARY
  5
26D
102
{ACAD_REACTORS
330
C
102
}
330
C
100
AcDbDictionary
281
     1
  3
Standard
350
26E
  0
DICTIONARY
  5
25B
102
{ACAD_REACTORS
330
C
102
}
330
C
100
AcDbDictionary
281
     1
  3
2dWireframe
350
261
  3
3D Hidden
350
263
  3
3dWireframe
350
262
  3
Basic
350
260
  3
Brighten
350
267
  3
ColorChange
350
26B
  3
Conceptual
350
264
  3
Dim
350
266
  3
EdgeColorOff
350
A96
  3
Facepattern
350
26A
  3
Flat
350
25C
  3
FlatWithEdges
350
25D
  3
Gouraud
350
25E
  3
GouraudWithEdges
350
25F
  3
Hidden
350
A8E
  3
JitterOff
350
A94
  3
Linepattern
350
269
  3
OverhangOff
350
A95
  3
Realistic
350
265
  3
Shaded
350
A93
  3
Shaded with edges
350
A92
  3
Shades of Gray
350
A8F
  3
Sketchy
350
A90
  3
Thicken
350
268
  3
Wireframe
350
A8D
  3
X-Ray
350
A91
  0
XRECORD
  5
DA9
102
{ACAD_REACTORS
330
C
102
}
330
C
100
AcDbXrecord
280
     1
 90
        1
330
26E
330
A98
330
A9A
330
AB0
330
AC1
  0
DICTIONARY
  5
763
102
{ACAD_REACTORS
330
C
102
}
330
C
100
AcDbDictionary
281
     1
  3
CANNOSCALE
350
766
  3
CMLEADERSTYLE
350
765
  3
CTABLESTYLE
350
764
  3
CVIEWDETAILSTYLE
350
AFD
  3
CVIEWSECTIONSTYLE
350
AFE
  3
LAYEREVAL
350
AFF
  3
LAYERNOTIFY
350
B00
  3
LIGHTINGUNITS
350
804
  3
MSLTSCALE
350
803
  0
DICTIONARY
  5
2F2
102
{ACAD_REACTORS
330
C
102
}
330
C
100
AcDbDictionary
281
     1
  3
AcmBOM
350
7E3
  3
AcmBOMDATA
350
7DB
  3
AcmStdDictionary
350
2FD
  3
AMDTSECTSYM_ARROWCOLOR
350
311
  0
DICTIONARY
  5
297
102
{ACAD_REACTORS
330
C
102
}
330
C
100
AcDbDictionary
281
     1
  3
AcMgSettings
350
789
  3
AMGLAYCFG
350
7E8
  0
DICTIONARY
  5
3E0
102
{ACAD_REACTORS
330
C
102
}
330
C
100
AcDbDictionary
281
     1
  0
DICTIONARY
  5
A89
102
{ACAD_REACTORS
330
C
102
}
330
C
100
AcDbDictionary
281
     1
  3
ASEBlockHierarchyIndexRecord
350
A8A
1001
DCO15
1040
1695542444.081
  0
CAMSSTRUCTBTNSTATE
  5
801
102
{ACAD_REACTORS
330
C
102
}
330
C
  0
DICTIONARY
  5
AF1
102
{ACAD_REACTORS
330
3EB
102
}
330
3EB
100
AcDbDictionary
281
     1
  0
DICTIONARY
  5
3EC
102
{ACAD_REACTORS
330
3EB
102
}
330
3EB
100
AcDbDictionary
280
     1
281
     1
  0
XRECORD
  5
75A
102
{ACAD_REACTORS
330
759
102
}
330
759
100
AcDbXrecord
280
     1
290
     1
  0
XRECORD
  5
75C
102
{ACAD_REACTORS
330
75B
102
}
330
75B
100
AcDbXrecord
280
     1
290
     1
  0
XRECORD
  5
75E
102
{ACAD_REACTORS
330
75D
102
}
330
75D
100
AcDbXrecord
280
     1
290
     1
  0
XRECORD
  5
760
102
{ACAD_REACTORS
330
75F
102
}
330
75F
100
AcDbXrecord
280
     1
290
     1
  0
XRECORD
  5
762
102
{ACAD_REACTORS
330
761
102
}
330
761
100
AcDbXrecord
280
     1
290
     1
  0
SORTENTSTABLE
  5
60A
102
{ACAD_REACTORS
330
609
102
}
330
609
100
AcDbSortentsTable
330
1E
331
1D5
  5
1E8
331
1D1
  5
1E3
331
BF2
  5
6AE
331
695
  5
66D
331
691
  5
669
331
606
  5
1A9
331
206
  5
611
331
202
  5
60D
331
671
  5
223
331
1FE
  5
605
331
1FA
  5
5CA
331
239
  5
6A8
331
1C9
  5
1D9
331
1C5
  5
1D2
331
66D
  5
21F
331
5FE
  5
82A
331
669
  5
21B
331
6B8
  5
208
331
45F
  5
6AA
331
665
  5
217
331
6B4
  5
204
331
1F6
  5
51A
331
235
  5
6A4
331
661
  5
213
331
6B0
  5
200
331
1F2
  5
23A
331
231
  5
6A0
331
22D
  5
69C
331
1EA
  5
233
331
CB0
  5
CA4
331
B23
  5
B25
331
65D
  5
20E
331
6AC
  5
1FC
331
6A8
  5
1F7
331
63D
  5
1BE
331
6A4
  5
698
331
1E6
  5
22F
331
225
  5
69A
331
639
  5
1CC
331
6A0
  5
694
331
1E2
  5
225
331
221
  5
664
331
1DE
  5
20C
331
21D
  5
660
331
1DA
  5
1ED
331
219
  5
640
331
1A5
  5
1A5
331
1A1
  5
1A1
331
CA4
  5
CAE
331
19D
  5
19D
331
CA0
  5
CA0
331
C9C
  5
C9D
331
635
  5
1D5
331
8FB
  5
994
331
215
  5
63C
331
69C
  5
674
331
51A
  5
6B7
331
211
  5
638
331
698
  5
670
331
20D
  5
632
331
209
  5
612
331
195
  5
195
331
1D4
  5
1E7
331
1D0
  5
1E2
331
694
  5
66C
331
4AA
  5
6AD
331
605
  5
1A8
331
205
  5
60E
331
201
  5
608
331
670
  5
222
331
1FD
  5
5FF
331
1F9
  5
5A3
331
238
  5
6A7
331
1CC
  5
1DD
331
1C8
  5
1D8
331
1C4
  5
1D1
331
1C0
  5
1C9
331
66C
  5
21E
331
5FD
  5
6BA
331
6B7
  5
207
331
668
  5
21A
331
664
  5
216
331
6B3
  5
203
331
1F5
  5
4AA
331
234
  5
6A3
331
660
  5
212
331
1F1
  5
239
331
230
  5
69F
331
22C
  5
69B
331
1A8
  5
1B1
331
6AF
  5
1FF
331
6AB
  5
1FB
331
88F
  5
940
331
6A7
  5
1F4
331
1E5
  5
22D
331
63C
  5
1BD
331
6A3
  5
697
331
638
  5
1CA
331
1E1
  5
224
331
220
  5
663
331
1DD
  5
20B
331
21C
  5
65F
331
1D9
  5
1EC
331
218
  5
63F
331
1A4
  5
1A4
331
1A0
  5
1A0
331
19C
  5
19C
331
CA3
  5
CAD
331
C9F
  5
505
331
BA1
  5
C07
331
634
  5
1D4
331
69F
  5
693
331
614
  5
1F1
331
214
  5
63B
331
69B
  5
673
331
210
  5
637
331
20C
  5
615
331
1D7
  5
1EA
331
1D3
  5
1E6
331
9C1
  5
B24
331
697
  5
66F
331
B7D
  5
BF2
331
693
  5
66B
331
608
  5
1AB
331
673
  5
668
331
489
  5
6AB
331
200
  5
607
331
1FC
  5
5FE
331
1F8
  5
565
331
1CF
  5
1E0
331
1CB
  5
1DC
331
1C3
  5
1D0
331
66F
  5
221
331
66B
  5
21D
331
5FC
  5
6B9
331
6BA
  5
20A
331
667
  5
219
331
6B6
  5
206
331
237
  5
6A6
331
663
  5
215
331
6B2
  5
202
331
1F4
  5
489
331
233
  5
6A2
331
22F
  5
69E
331
1F0
  5
238
331
1EC
  5
235
331
1E8
  5
231
331
1AB
  5
1C1
331
CAE
  5
CA5
331
B25
  5
B7D
331
65F
  5
210
331
6AE
  5
1FE
331
6AA
  5
1FA
331
63F
  5
20D
331
6A6
  5
1F3
331
544
  5
6B8
331
63B
  5
1BC
331
223
  5
666
331
6A2
  5
696
331
21F
  5
662
331
21B
  5
65E
331
1A3
  5
1A3
331
19F
  5
19F
331
CA6
  5
CAF
331
C07
  5
C9C
331
C9E
  5
C9E
331
637
  5
1D7
331
633
  5
1DB
331
217
  5
63E
331
69E
  5
692
331
213
  5
63A
331
69A
  5
672
331
20F
  5
635
331
20B
  5
614
331
1D6
  5
1E9
331
1D2
  5
1E5
331
696
  5
66E
331
994
  5
B23
331
692
  5
66A
331
607
  5
1AA
331
82A
  5
8FB
331
672
  5
667
331
1FF
  5
606
331
1FB
  5
5FC
331
23A
  5
6A9
331
1CE
  5
1DE
331
1C6
  5
1D3
331
66E
  5
220
331
5FF
  5
88F
331
B28
  5
BA1
331
66A
  5
21C
331
6B9
  5
209
331
666
  5
218
331
6B5
  5
205
331
1F7
  5
544
331
236
  5
6A5
331
662
  5
214
331
6B1
  5
201
331
1F3
  5
45F
331
232
  5
6A1
331
22E
  5
69D
331
1EB
  5
234
331
1BE
  5
1C8
331
1AA
  5
1C0
331
CAD
  5
CB0
331
B24
  5
B28
331
65E
  5
20F
331
6AD
  5
1FD
331
6A9
  5
1F9
331
1E7
  5
230
331
6A5
  5
699
331
63A
  5
1BB
331
6A1
  5
695
331
1E3
  5
22C
331
222
  5
665
331
21E
  5
661
331
1DB
  5
1EE
331
21A
  5
65D
331
1A6
  5
1A6
331
1A2
  5
1A2
331
19E
  5
19E
331
CA1
  5
CA1
331
C9D
  5
C9F
331
636
  5
1D6
331
940
  5
9C1
331
632
  5
1DA
331
216
  5
63D
331
69D
  5
691
331
212
  5
639
331
699
  5
671
331
20E
  5
634
331
20A
  5
613
  0
DIMASSOC
  5
552
102
{ACAD_REACTORS
330
551
102
}
330
551
100
AcDbDimAssoc
330
544
 90
        1
 70
     0
 71
     0
  1
AcDbOsnapPointRef
 72
    11
331
22C
 73
     0
 91
        0
 40
0.9349112426035503
 10
0.0
 20
0.0
 30
0.0
332
22D
 74
     0
 92
        0
 75
     0
  0
DIMASSOC
  5
839
102
{ACAD_REACTORS
330
838
102
}
330
838
100
AcDbDimAssoc
330
82A
 90
        3
 70
     0
 71
     0
  1
AcDbOsnapPointRef
 72
     6
331
195
 73
     0
 91
        0
 40
1.571278231848045
 10
0.0
 20
0.0
 30
0.0
332
5FD
 74
     0
 92
        0
 75
     0
  1
AcDbOsnapPointRef
 72
     6
331
195
 73
     0
 91
        0
 40
4.713915246687935
 10
0.0
 20
0.0
 30
0.0
332
1A8
 74
     0
 92
        0
 75
     0
  0
DIMASSOC
  5
89E
102
{ACAD_REACTORS
330
89D
102
}
330
89D
100
AcDbDimAssoc
330
88F
 90
        3
 70
     0
 71
     0
  1
AcDbOsnapPointRef
 72
     6
331
1EB
 73
     0
 91
        0
 40
0.0
 10
0.0
 20
0.0
 30
0.0
332
1EC
 74
     0
 92
        0
 75
     0
  1
AcDbOsnapPointRef
 72
     1
331
1DD
 73
     0
 91
        0
 40
0.0
 10
0.0
 20
0.0
 30
2.000000000000000E+50
 75
     0
  0
DIMASSOC
  5
94F
102
{ACAD_REACTORS
330
94E
102
}
330
94E
100
AcDbDimAssoc
330
940
 90
        1
 70
     0
 71
     0
  1
AcDbOsnapPointRef
 72
     3
331
22D
 73
     0
 91
        0
 40
0.0
 10
0.0
 20
0.0
 30
0.0
 75
     0
  0
DIMASSOC
  5
9D0
102
{ACAD_REACTORS
330
9CF
102
}
330
9CF
100
AcDbDimAssoc
330
9C1
 90
        3
 70
     0
 71
     0
  1
AcDbOsnapPointRef
 72
     6
331
639
 73
     0
 91
        0
 40
1.570796326794896
 10
0.0
 20
0.0
 30
0.0
332
1CF
 74
     0
 92
        0
 75
     0
  1
AcDbOsnapPointRef
 72
     6
331
639
 73
     0
 91
        0
 40
4.712388980384689
 10
0.0
 20
0.0
 30
0.0
332
1CF
 74
     0
 92
        0
 75
     0
  0
DIMASSOC
  5
B37
102
{ACAD_REACTORS
330
B36
102
}
330
B36
100
AcDbDimAssoc
330
B28
 90
        3
 70
     0
 71
     0
  1
AcDbOsnapPointRef
 72
    13
331
B23
 73
     0
 91
        0
 40
0.0
 10
0.0
 20
0.0
 30
2.000000000000000E+50
 75
     0
  1
AcDbOsnapPointRef
 72
     1
331
B25
 73
     0
 91
        0
 40
0.0
 10
0.0
 20
0.0
 30
2.000000000000000E+50
 75
     0
  0
DIMASSOC
  5
B8C
102
{ACAD_REACTORS
330
B8B
102
}
330
B8B
100
AcDbDimAssoc
330
B7D
 90
        3
 70
     0
 71
     0
  1
AcDbOsnapPointRef
 72
     6
331
638
 73
     0
 91
        0
 40
1.570796326794896
 10
0.0
 20
0.0
 30
0.0
332
1CF
 74
     0
 92
        0
 75
     0
  1
AcDbOsnapPointRef
 72
    13
331
1CE
 73
     0
 91
        0
 40
0.0
 10
0.0
 20
0.0
 30
2.000000000000000E+50
 75
     0
  0
DIMASSOC
  5
BB0
102
{ACAD_REACTORS
330
BAF
102
}
330
BAF
100
AcDbDimAssoc
330
BA1
 90
        3
 70
     0
 71
     0
  1
AcDbOsnapPointRef
 72
     3
331
633
 73
     0
 91
        0
 40
0.0
 10
0.0
 20
0.0
 30
0.0
 75
     0
  1
AcDbOsnapPointRef
 72
    13
331
5FF
 73
     0
 91
        0
 40
0.0
 10
0.0
 20
0.0
 30
2.000000000000000E+50
 75
     0
  0
DIMASSOC
  5
C16
102
{ACAD_REACTORS
330
C15
102
}
330
C15
100
AcDbDimAssoc
330
C07
 90
        3
 70
     0
 71
     0
  1
AcDbOsnapPointRef
 72
    13
331
202
 73
     0
 91
        0
 40
0.0
 10
0.0
 20
0.0
 30
2.000000000000000E+50
 75
     0
  1
AcDbOsnapPointRef
 72
    13
331
22F
 73
     0
 91
        0
 40
0.0
 10
0.0
 20
0.0
 30
2.000000000000000E+50
 75
     0
  0
DIMASSOC
  5
CCC
102
{ACAD_REACTORS
330
CCB
102
}
330
CCB
100
AcDbDimAssoc
330
CBD
 90
        3
 70
     0
 71
     0
  1
AcDbOsnapPointRef
 72
    13
331
202
 73
     0
 91
        0
 40
0.0
 10
0.0
 20
0.0
 30
2.000000000000000E+50
 75
     0
  1
AcDbOsnapPointRef
 72
    13
331
CA1
 73
     0
 91
        0
 40
0.0
 10
0.0
 20
0.0
 30
2.000000000000000E+50
 75
     0
  0
ACDBDETAILVIEWSTYLE
  5
AB0
102
{ACAD_XDICTIONARY
360
AB5
102
}
102
{ACAD_REACTORS
330
7EF
330
A99
102
}
330
A99
100
AcDbModelDocViewStyle
 70
     0
  3

290
     0
100
AcDbDetailViewStyle
 70
     0
 71
     0
 90
        3
 71
     1
340
300
 62
    30
 40
0.24
340
ABC
 62
     3
 40
0.24
300

 40
0.36
280
     2
 71
     2
340
2CA
 90
       25
 62
   256
 71
     3
340
300
 62
    30
 40
0.24
 90
        1
 40
0.0
 90
        1
300
%<\AcVar ViewType \f "%tc1">% %<\AcVar ViewDetailId>%\PSCALE %<\AcVar ViewScale \f "%sn">%
 71
     4
340
15
 90
       25
 62
   256
340
2CA
 90
       25
 62
   256
280
     0
  0
ACDBDETAILVIEWSTYLE
  5
A9A
102
{ACAD_XDICTIONARY
360
AF8
102
}
102
{ACAD_REACTORS
330
A99
330
AAF
102
}
330
A99
100
AcDbModelDocViewStyle
 70
     0
  3
Imperial24
290
     0
100
AcDbDetailViewStyle
 70
     0
 71
     0
 90
        3
 71
     1
340
11
 62
   256
 40
0.24
340
0
 62
   256
 40
0.24
300

 40
0.36
280
     3
 71
     2
340
15
 90
       25
 62
   256
 71
     3
340
11
 62
   256
 40
0.24
 90
        1
 40
0.75
 90
        1
300
%<\AcVar ViewType \f "%tc1">% %<\AcVar ViewDetailId>%\PVARIA %<\AcVar ViewScale \f "%sn">%
 71
     4
340
15
 90
       25
 62
   256
340
15
 90
       25
 62
   256
280
     0
  0
LAYOUT
  5
1D
102
{ACAD_REACTORS
330
19
102
}
330
19
100
AcDbPlotSettings
  1

  2
\\OASE03\Oce5100C
  4

  6

 40
0.0
 41
0.0
 42
0.0
 43
0.0
 44
0.0
 45
0.0
 46
0.0
 47
0.0
 48
0.0
 49
0.0
140
0.0
141
0.0
142
1.0
143
1.0
 70
   688
 72
     0
 73
     0
 74
     5
  7
OASE.ctb
 75
    16
147
1.0
 76
     0
 77
     2
 78
   300
148
0.0
149
0.0
100
AcDbLayout
  1
Layout1
 70
     1
 71
     1
 10
0.0
 20
0.0
 11
12.0
 21
9.0
 12
0.0
 22
0.0
 32
0.0
 14
1.000000000000000E+20
 24
1.000000000000000E+20
 34
1.000000000000000E+20
 15
-1.000000000000000E+20
 25
-1.000000000000000E+20
 35
-1.000000000000000E+20
146
0.0
 13
0.0
 23
0.0
 33
0.0
 16
1.0
 26
0.0
 36
0.0
 17
0.0
 27
1.0
 37
0.0
 76
     0
330
1A
  0
LAYOUT
  5
21
102
{ACAD_REACTORS
330
19
102
}
330
19
100
AcDbPlotSettings
  1

  2
none_device
  4
Letter_(8.50_x_11.00_Inches)
  6

 40
6.349999904632568
 41
6.349999904632568
 42
6.350006103515625
 43
6.350006103515625
 44
215.8999938964844
 45
279.3999938964844
 46
0.0
 47
0.0
 48
0.0
 49
0.0
140
0.0
141
0.0
142
1.0
143
46.2398511826604
 70
 11952
 72
     0
 73
     1
 74
     0
  7
OASE.ctb
 75
     0
147
0.0216263671794643
 76
     0
 77
     2
 78
   300
148
2570.057427698745
149
1834.384114529045
100
AcDbLayout
  1
Model
 70
     1
 71
     0
 10
0.0
 20
0.0
 11
12.0
 21
9.0
 12
0.0
 22
0.0
 32
0.0
 14
0.0
 24
0.0
 34
0.0
 15
0.0
 25
0.0
 35
0.0
146
0.0
 13
0.0
 23
0.0
 33
0.0
 16
1.0
 26
0.0
 36
0.0
 17
0.0
 27
1.0
 37
0.0
 76
     0
330
1E
331
23E
1001
ACAD_PSEXT
1000
Kein
1000
Kein
1000
Nicht anwendbar
1000
Das Layout wird erst geplottet, wenn ein neuer Plotter-Konfigurationsname ausgewählt wird.
1070
     0
  0
MATERIAL
  5
24B
102
{ACAD_XDICTIONARY
360
24C
102
}
102
{ACAD_REACTORS
330
242
102
}
330
242
100
AcDbMaterial
  1
ByBlock
 72
     0
 43
0.0208333333333333
 43
0.0
 43
0.0
 43
0.0
 43
0.0
 43
0.0208333333333333
 43
0.0
 43
0.0
 43
0.0
 43
0.0
 43
1.0
 43
0.0
 43
0.0
 43
0.0
 43
0.0
 43
1.0
 77
     0
 47
0.0208333333333333
 47
0.0
 47
0.0
 47
0.0
 47
0.0
 47
0.0208333333333333
 47
0.0
 47
0.0
 47
0.0
 47
0.0
 47
1.0
 47
0.0
 47
0.0
 47
0.0
 47
0.0
 47
1.0
171
     0
 49
0.0208333333333333
 49
0.0
 49
0.0
 49
0.0
 49
0.0
 49
0.0208333333333333
 49
0.0
 49
0.0
 49
0.0
 49
0.0
 49
1.0
 49
0.0
 49
0.0
 49
0.0
 49
0.0
 49
1.0
175
     0
142
0.0208333333333333
142
0.0
142
0.0
142
0.0
142
0.0
142
0.0208333333333333
142
0.0
142
0.0
142
0.0
142
0.0
142
1.0
142
0.0
142
0.0
142
0.0
142
0.0
142
1.0
179
     0
144
0.0208333333333333
144
0.0
144
0.0
144
0.0
144
0.0
144
0.0208333333333333
144
0.0
144
0.0
144
0.0
144
0.0
144
1.0
144
0.0
144
0.0
144
0.0
144
0.0
144
1.0
147
0.0208333333333333
147
0.0
147
0.0
147
0.0
147
0.0
147
0.0208333333333333
147
0.0
147
0.0
147
0.0
147
0.0
147
1.0
147
0.0
147
0.0
147
0.0
147
0.0
147
1.0
  0
MATERIAL
  5
243
102
{ACAD_XDICTIONARY
360
244
102
}
102
{ACAD_REACTORS
330
242
102
}
330
242
100
AcDbMaterial
  1
ByLayer
 72
     0
 43
0.0208333333333333
 43
0.0
 43
0.0
 43
0.0
 43
0.0
 43
0.0208333333333333
 43
0.0
 43
0.0
 43
0.0
 43
0.0
 43
1.0
 43
0.0
 43
0.0
 43
0.0
 43
0.0
 43
1.0
 77
     0
 47
0.0208333333333333
 47
0.0
 47
0.0
 47
0.0
 47
0.0
 47
0.0208333333333333
 47
0.0
 47
0.0
 47
0.0
 47
0.0
 47
1.0
 47
0.0
 47
0.0
 47
0.0
 47
0.0
 47
1.0
171
     0
 49
0.0208333333333333
 49
0.0
 49
0.0
 49
0.0
 49
0.0
 49
0.0208333333333333
 49
0.0
 49
0.0
 49
0.0
 49
0.0
 49
1.0
 49
0.0
 49
0.0
 49
0.0
 49
0.0
 49
1.0
175
     0
142
0.0208333333333333
142
0.0
142
0.0
142
0.0
142
0.0
142
0.0208333333333333
142
0.0
142
0.0
142
0.0
142
0.0
142
1.0
142
0.0
142
0.0
142
0.0
142
0.0
142
1.0
179
     0
144
0.0208333333333333
144
0.0
144
0.0
144
0.0
144
0.0
144
0.0208333333333333
144
0.0
144
0.0
144
0.0
144
0.0
144
1.0
144
0.0
144
0.0
144
0.0
144
0.0
144
1.0
147
0.0208333333333333
147
0.0
147
0.0
147
0.0
147
0.0
147
0.0208333333333333
147
0.0
147
0.0
147
0.0
147
0.0
147
1.0
147
0.0
147
0.0
147
0.0
147
0.0
147
1.0
  0
MATERIAL
  5
253
102
{ACAD_XDICTIONARY
360
254
102
}
102
{ACAD_REACTORS
330
242
102
}
330
242
100
AcDbMaterial
  1
Global
 72
     0
 43
0.0208333333333333
 43
0.0
 43
0.0
 43
0.0
 43
0.0
 43
0.0208333333333333
 43
0.0
 43
0.0
 43
0.0
 43
0.0
 43
1.0
 43
0.0
 43
0.0
 43
0.0
 43
0.0
 43
1.0
 77
     0
 47
0.0208333333333333
 47
0.0
 47
0.0
 47
0.0
 47
0.0
 47
0.0208333333333333
 47
0.0
 47
0.0
 47
0.0
 47
0.0
 47
1.0
 47
0.0
 47
0.0
 47
0.0
 47
0.0
 47
1.0
171
     0
 49
0.0208333333333333
 49
0.0
 49
0.0
 49
0.0
 49
0.0
 49
0.0208333333333333
 49
0.0
 49
0.0
 49
0.0
 49
0.0
 49
1.0
 49
0.0
 49
0.0
 49
0.0
 49
0.0
 49
1.0
175
     0
142
0.0208333333333333
142
0.0
142
0.0
142
0.0
142
0.0
142
0.0208333333333333
142
0.0
142
0.0
142
0.0
142
0.0
142
1.0
142
0.0
142
0.0
142
0.0
142
0.0
142
1.0
179
     0
144
0.0208333333333333
144
0.0
144
0.0
144
0.0
144
0.0
144
0.0208333333333333
144
0.0
144
0.0
144
0.0
144
0.0
144
1.0
144
0.0
144
0.0
144
0.0
144
0.0
144
1.0
147
0.0208333333333333
147
0.0
147
0.0
147
0.0
147
0.0
147
0.0208333333333333
147
0.0
147
0.0
147
0.0
147
0.0
147
1.0
147
0.0
147
0.0
147
0.0
147
0.0
147
1.0
  0
MLEADERSTYLE
  5
292
102
{ACAD_REACTORS
330
291
102
}
330
291
100
AcDbMLeaderStyle
179
     2
170
     2
171
     1
172
     0
 90
        2
 40
0.0
 41
0.0
173
     1
 91
-1056964608
340
13
 92
       -2
290
     1
 42
0.09
291
     1
 43
0.36
  3
Standard
 44
0.18
300

342
11
174
     1
178
     6
175
     1
176
     0
 93
-1056964608
 45
0.18
292
     0
297
     0
 46
0.18
 94
-1056964608
 47
1.0
 49
1.0
140
1.0
293
     1
141
0.0
294
     1
177
     0
142
1.0
295
     0
296
     0
143
0.125
271
     0
272
     9
273
     9
298
     0
  0
MLINESTYLE
  5
17
102
{ACAD_REACTORS
330
16
102
}
330
16
100
AcDbMlineStyle
  2
STANDARD
 70
     0
  3

 62
   256
 51
90.0
 52
90.0
 71
     2
 49
0.5
 62
   256
  6
BYLAYER
 49
-0.5
 62
   256
  6
BYLAYER
  0
ACDBPLACEHOLDER
  5
F
102
{ACAD_REACTORS
330
E
102
}
330
E
  0
RAPIDRTRENDERSETTINGS
  5
D6C
102
{ACAD_REACTORS
330
D69
102
}
330
D69
100
AcDbRenderSettings
 90
        2
  1
Hoch
290
     1
290
     0
290
     1
290
     1
  1

  1
Wendet 10 Render-Ebenen an
 90
        2
100
AcDbRapidRTRenderSettings
 90
        3
 70
     0
 90
       10
 90
        1
 70
     2
 70
     2
 40
3.0
 40
3.0
290
     1
  0
RAPIDRTRENDERSETTINGS
  5
D6E
102
{ACAD_REACTORS
330
D69
102
}
330
D69
100
AcDbRenderSettings
 90
        2
  1
Mittagsqualität
290
     1
290
     0
290
     1
290
     1
  1

  1
Rendert für 60 Minuten
 90
        4
100
AcDbRapidRTRenderSettings
 90
        3
 70
     1
 90
        1
 90
       60
 70
     2
 70
     2
 40
3.0
 40
3.0
290
     1
  0
RAPIDRTRENDERSETTINGS
  5
D6B
102
{ACAD_REACTORS
330
D69
102
}
330
D69
100
AcDbRenderSettings
 90
        2
  1
Mittel
290
     1
290
     0
290
     1
290
     1
  1

  1
Wendet 5 Render-Ebenen an
 90
        1
100
AcDbRapidRTRenderSettings
 90
        3
 70
     0
 90
        5
 90
        1
 70
     1
 70
     2
 40
3.0
 40
3.0
290
     1
  0
RAPIDRTRENDERSETTINGS
  5
D6D
102
{ACAD_REACTORS
330
D69
102
}
330
D69
100
AcDbRenderSettings
 90
        2
  1
Morgenqualität
290
     1
290
     0
290
     1
290
     1
  1

  1
Rendert für 10 Minuten
 90
        3
100
AcDbRapidRTRenderSettings
 90
        3
 70
     1
 90
        1
 90
       10
 70
     1
 70
     2
 40
3.0
 40
3.0
290
     1
  0
RAPIDRTRENDERSETTINGS
  5
D6F
102
{ACAD_REACTORS
330
D69
102
}
330
D69
100
AcDbRenderSettings
 90
        2
  1
Nachtqualität
290
     1
290
     0
290
     1
290
     1
  1

  1
Rendert für 12 Stunden
 90
        5
100
AcDbRapidRTRenderSettings
 90
        3
 70
     1
 90
        1
 90
      720
 70
     2
 70
     2
 40
3.0
 40
3.0
290
     1
  0
RAPIDRTRENDERSETTINGS
  5
D6A
102
{ACAD_REACTORS
330
D69
102
}
330
D69
100
AcDbRenderSettings
 90
        2
  1
Niedrig
290
     1
290
     0
290
     1
290
     1
  1

  1
Wendet 1 Render-Ebene an
 90
        0
100
AcDbRapidRTRenderSettings
 90
        3
 70
     0
 90
        1
 90
        1
 70
     0
 70
     2
 40
3.0
 40
3.0
290
     1
  0
SCALE
  5
270
102
{ACAD_REACTORS
330
26F
102
}
330
26F
100
AcDbScale
 70
     0
300
1:1
140
1.0
141
1.0
290
     1
  0
SCALE
  5
271
102
{ACAD_REACTORS
330
26F
102
}
330
26F
100
AcDbScale
 70
     0
300
1:2
140
1.0
141
2.0
290
     0
  0
SCALE
  5
272
102
{ACAD_REACTORS
330
26F
102
}
330
26F
100
AcDbScale
 70
     0
300
1:4
140
1.0
141
4.0
290
     0
  0
SCALE
  5
273
102
{ACAD_REACTORS
330
26F
102
}
330
26F
100
AcDbScale
 70
     0
300
1:5
140
1.0
141
5.0
290
     0
  0
SCALE
  5
274
102
{ACAD_REACTORS
330
26F
102
}
330
26F
100
AcDbScale
 70
     0
300
1:8
140
1.0
141
8.0
290
     0
  0
SCALE
  5
275
102
{ACAD_REACTORS
330
26F
102
}
330
26F
100
AcDbScale
 70
     0
300
1:10
140
1.0
141
10.0
290
     0
  0
SCALE
  5
276
102
{ACAD_REACTORS
330
26F
102
}
330
26F
100
AcDbScale
 70
     0
300
1:16
140
1.0
141
16.0
290
     0
  0
SCALE
  5
277
102
{ACAD_REACTORS
330
26F
102
}
330
26F
100
AcDbScale
 70
     0
300
1:20
140
1.0
141
20.0
290
     0
  0
SCALE
  5
278
102
{ACAD_REACTORS
330
26F
102
}
330
26F
100
AcDbScale
 70
     0
300
1:30
140
1.0
141
30.0
290
     0
  0
SCALE
  5
279
102
{ACAD_REACTORS
330
26F
102
}
330
26F
100
AcDbScale
 70
     0
300
1:40
140
1.0
141
40.0
290
     0
  0
SCALE
  5
27A
102
{ACAD_REACTORS
330
26F
102
}
330
26F
100
AcDbScale
 70
     0
300
1:50
140
1.0
141
50.0
290
     0
  0
SCALE
  5
27B
102
{ACAD_REACTORS
330
26F
102
}
330
26F
100
AcDbScale
 70
     0
300
1:100
140
1.0
141
100.0
290
     0
  0
SCALE
  5
27C
102
{ACAD_REACTORS
330
26F
102
}
330
26F
100
AcDbScale
 70
     0
300
2:1
140
2.0
141
1.0
290
     0
  0
SCALE
  5
27D
102
{ACAD_REACTORS
330
26F
102
}
330
26F
100
AcDbScale
 70
     0
300
4:1
140
4.0
141
1.0
290
     0
  0
SCALE
  5
27E
102
{ACAD_REACTORS
330
26F
102
}
330
26F
100
AcDbScale
 70
     0
300
8:1
140
8.0
141
1.0
290
     0
  0
SCALE
  5
27F
102
{ACAD_REACTORS
330
26F
102
}
330
26F
100
AcDbScale
 70
     0
300
10:1
140
10.0
141
1.0
290
     0
  0
SCALE
  5
280
102
{ACAD_REACTORS
330
26F
102
}
330
26F
100
AcDbScale
 70
     0
300
100:1
140
100.0
141
1.0
290
     0
  0
SCALE
  5
281
102
{ACAD_REACTORS
330
26F
102
}
330
26F
100
AcDbScale
 70
     0
300
1/128" = 1'-0"
140
0.0078125
141
12.0
290
     0
  0
SCALE
  5
282
102
{ACAD_REACTORS
330
26F
102
}
330
26F
100
AcDbScale
 70
     0
300
1/64" = 1'-0"
140
0.015625
141
12.0
290
     0
  0
SCALE
  5
283
102
{ACAD_REACTORS
330
26F
102
}
330
26F
100
AcDbScale
 70
     0
300
1/32" = 1'-0"
140
0.03125
141
12.0
290
     0
  0
SCALE
  5
284
102
{ACAD_REACTORS
330
26F
102
}
330
26F
100
AcDbScale
 70
     0
300
1/16" = 1'-0"
140
0.0625
141
12.0
290
     0
  0
SCALE
  5
285
102
{ACAD_REACTORS
330
26F
102
}
330
26F
100
AcDbScale
 70
     0
300
3/32" = 1'-0"
140
0.09375
141
12.0
290
     0
  0
SCALE
  5
286
102
{ACAD_REACTORS
330
26F
102
}
330
26F
100
AcDbScale
 70
     0
300
1/8" = 1'-0"
140
0.125
141
12.0
290
     0
  0
SCALE
  5
287
102
{ACAD_REACTORS
330
26F
102
}
330
26F
100
AcDbScale
 70
     0
300
3/16" = 1'-0"
140
0.1875
141
12.0
290
     0
  0
SCALE
  5
288
102
{ACAD_REACTORS
330
26F
102
}
330
26F
100
AcDbScale
 70
     0
300
1/4" = 1'-0"
140
0.25
141
12.0
290
     0
  0
SCALE
  5
289
102
{ACAD_REACTORS
330
26F
102
}
330
26F
100
AcDbScale
 70
     0
300
3/8" = 1'-0"
140
0.375
141
12.0
290
     0
  0
SCALE
  5
28A
102
{ACAD_REACTORS
330
26F
102
}
330
26F
100
AcDbScale
 70
     0
300
1/2" = 1'-0"
140
0.5
141
12.0
290
     0
  0
SCALE
  5
28B
102
{ACAD_REACTORS
330
26F
102
}
330
26F
100
AcDbScale
 70
     0
300
3/4" = 1'-0"
140
0.75
141
12.0
290
     0
  0
SCALE
  5
28C
102
{ACAD_REACTORS
330
26F
102
}
330
26F
100
AcDbScale
 70
     0
300
1" = 1'-0"
140
1.0
141
12.0
290
     0
  0
SCALE
  5
28D
102
{ACAD_REACTORS
330
26F
102
}
330
26F
100
AcDbScale
 70
     0
300
1-1/2" = 1'-0"
140
1.5
141
12.0
290
     0
  0
SCALE
  5
28E
102
{ACAD_REACTORS
330
26F
102
}
330
26F
100
AcDbScale
 70
     0
300
3" = 1'-0"
140
3.0
141
12.0
290
     0
  0
SCALE
  5
28F
102
{ACAD_REACTORS
330
26F
102
}
330
26F
100
AcDbScale
 70
     0
300
6" = 1'-0"
140
6.0
141
12.0
290
     0
  0
SCALE
  5
290
102
{ACAD_REACTORS
330
26F
102
}
330
26F
100
AcDbScale
 70
     0
300
1'-0" = 1'-0"
140
12.0
141
12.0
290
     0
  0
ACDBSECTIONVIEWSTYLE
  5
AC1
102
{ACAD_XDICTIONARY
360
AC2
102
}
102
{ACAD_REACTORS
330
7F0
330
A97
102
}
330
A97
100
AcDbModelDocViewStyle
 70
     0
  3

290
     0
100
AcDbSectionViewStyle
 70
     0
 71
     0
 90
       78
 71
     1
340
300
 62
    30
 40
0.24
340
AB1
340
AB1
 62
     7
 40
0.24
300
I,O,Q,S,X,Z
 40
0.4
 90
        3
 40
0.12
 90
        1
 71
     2
340
2CA
 90
       -1
 62
     7
340
2CA
 90
       -1
 62
     7
 40
0.4
 40
0.0
 40
0.4
 71
     3
340
300
 62
    30
 40
0.24
 90
        0
 40
0.18
 90
        1
300
SECTION %<\AcVar ViewSectionStartId>%-%<\AcVar ViewSectionEndId>%
 71
     4
 62
   256
 62
   257
300
ANSI31
 40
1.0
 90
        0
290
     0
290
     0
 90
        6
 40
0.0
 40
1.570796326794896
 40
0.2617993877991494
 40
1.308996938995747
 40
-0.2617993877991494
 40
1.832595714594046
  0
ACDBSECTIONVIEWSTYLE
  5
A98
102
{ACAD_XDICTIONARY
360
AF6
102
}
102
{ACAD_REACTORS
330
A97
330
AAE
102
}
330
A97
100
AcDbModelDocViewStyle
 70
     0
  3
Imperial24
290
     0
100
AcDbSectionViewStyle
 70
     0
 71
     0
 90
       78
 71
     1
340
11
 62
   256
 40
0.24
340
0
340
0
 62
   256
 40
0.24
300
I, O, Q, S, X, Z
 40
0.48
 90
        3
 40
0.18
 90
        1
 71
     2
340
15
 90
       25
 62
   256
340
15
 90
       50
 62
   256
 40
0.24
 40
0.0
 40
0.24
 71
     3
340
11
 62
   256
 40
0.24
 90
        1
 40
0.75
 90
        1
300
%<\AcVar ViewType \f "%tc1">% %<\AcVar ViewSectionStartId>%-%<\AcVar ViewSectionEndId>%\PVARIA %<\AcVar ViewScale \f "%sn">%
 71
     4
 62
   256
 62
   257
300
ANSI31
 40
1.0
 90
        0
290
     0
290
     0
 90
        6
 40
0.0
 40
1.570796326794896
 40
0.2617993877991494
 40
1.308996938995747
 40
-0.2617993877991494
 40
1.832595714594046
  0
TABLESTYLE
  5
26E
102
{ACAD_XDICTIONARY
360
767
102
}
102
{ACAD_REACTORS
330
26D
102
}
330
26D
100
AcDbTableStyle
280
     0
  3
Standard
 70
     0
 71
     0
 40
0.06
 41
0.06
280
     0
281
     0
  7
STANDARD
140
0.18
170
     2
 62
     0
 63
     7
283
     0
 90
      512
 91
        0
  1

274
    -2
284
     1
 64
     0
275
    -2
285
     1
 65
     0
276
    -2
286
     1
 66
     0
277
    -2
287
     1
 67
     0
278
    -2
288
     1
 68
     0
279
    -2
289
     1
 69
     0
  7
STANDARD
140
0.25
170
     5
 62
     0
 63
     7
283
     0
 90
      512
 91
        0
  1

274
    -2
284
     1
 64
     0
275
    -2
285
     1
 65
     0
276
    -2
286
     1
 66
     0
277
    -2
287
     1
 67
     0
278
    -2
288
     1
 68
     0
279
    -2
289
     1
 69
     0
  7
STANDARD
140
0.18
170
     5
 62
     0
 63
     7
283
     0
 90
      512
 91
        0
  1

274
    -2
284
     1
 64
     0
275
    -2
285
     1
 65
     0
276
    -2
286
     1
 66
     0
277
    -2
287
     1
 67
     0
278
    -2
288
     1
 68
     0
279
    -2
289
     1
 69
     0
  0
VISUALSTYLE
  5
261
102
{ACAD_REACTORS
330
25B
102
}
330
25B
100
AcDbVisualStyle
  2
2dWireframe
 70
     4
177
     3
291
     0
 70
    58
 90
        0
176
     1
 90
        2
176
     1
 90
        0
176
     1
 90
        0
176
     1
 40
0.6
176
     1
 40
30.0
176
     1
 62
     7
420
 16777215
176
     1
 90
        1
176
     1
 90
        4
176
     1
 62
     7
176
     1
 62
   257
176
     1
 90
        1
176
     1
 90
        1
176
     1
 40
1.0
176
     1
 90
        0
176
     1
 62
   257
176
     1
 40
1.0
176
     1
 90
        1
176
     1
 90
        6
176
     1
 90
        2
176
     1
 62
     7
176
     1
 90
        5
176
     1
 90
        0
176
     1
 90
        0
176
     1
290
     0
176
     1
 90
        1
176
     1
 40
0.0
176
     1
 90
        0
176
     1
290
     1
176
     1
290
     1
176
     1
290
     0
176
     1
290
     0
176
     1
290
     0
176
     1
290
     0
176
     1
290
     0
176
     1
290
     0
176
     1
290
     0
176
     1
 90
       50
176
     1
 40
0.0
176
     1
 40
1.0
176
     1
 90
        0
176
     1
 62
    18
420
        0
176
     1
 90
       50
176
     1
 90
        3
176
     1
 62
     5
420
      255
176
     1
290
     0
176
     1
 90
       50
176
     1
 90
       50
176
     1
 90
       50
176
     1
290
     0
176
     1
 90
       50
176
     1
 62
   256
176
     0
 40
1.0
176
     0
 90
        2
176
     1
  1
strokes_ogs.tif
176
     1
290
     0
176
     1
 40
1.0
176
     1
 40
1.0
176
     1
  0
VISUALSTYLE
  5
263
102
{ACAD_REACTORS
330
25B
102
}
330
25B
100
AcDbVisualStyle
  2
3D Hidden
 70
     6
177
     3
291
     0
 70
    58
 90
        1
176
     1
 90
        2
176
     1
 90
        2
176
     1
 90
        0
176
     1
 40
0.6
176
     1
 40
30.0
176
     1
 62
     7
420
 16777215
176
     1
 90
        2
176
     1
 90
        2
176
     1
 62
     7
176
     1
 62
   257
176
     1
 90
        2
176
     1
 90
        1
176
     1
 40
40.0
176
     1
 90
        0
176
     1
 62
   257
176
     1
 40
1.0
176
     1
 90
        1
176
     1
 90
        6
176
     1
 90
        2
176
     1
 62
     7
176
     1
 90
        3
176
     1
 90
        0
176
     1
 90
        0
176
     1
290
     0
176
     1
 90
        1
176
     1
 40
0.0
176
     1
 90
        0
176
     1
290
     0
176
     1
290
     1
176
     1
290
     1
176
     1
290
     0
176
     1
290
     0
176
     1
290
     0
176
     1
290
     0
176
     1
290
     0
176
     1
290
     0
176
     1
 90
       50
176
     1
 40
0.0
176
     1
 40
1.0
176
     1
 90
        0
176
     1
 62
    18
420
        0
176
     1
 90
       50
176
     1
 90
        3
176
     1
 62
     5
420
      255
176
     1
290
     0
176
     1
 90
       50
176
     1
 90
       50
176
     1
 90
       50
176
     1
290
     0
176
     1
 90
       50
176
     1
 62
   256
176
     0
 40
1.0
176
     0
 90
        2
176
     1
  1
strokes_ogs.tif
176
     1
290
     0
176
     1
 40
1.0
176
     1
 40
1.0
176
     1
  0
VISUALSTYLE
  5
262
102
{ACAD_REACTORS
330
25B
102
}
330
25B
100
AcDbVisualStyle
  2
3dWireframe
 70
     5
177
     3
291
     0
 70
    58
 90
        0
176
     1
 90
        2
176
     1
 90
        0
176
     1
 90
        0
176
     1
 40
0.6
176
     1
 40
30.0
176
     1
 62
     7
420
 16777215
176
     1
 90
        1
176
     1
 90
        4
176
     1
 62
     7
176
     1
 62
   257
176
     1
 90
        1
176
     1
 90
        1
176
     1
 40
1.0
176
     1
 90
        0
176
     1
 62
   257
176
     1
 40
1.0
176
     1
 90
        1
176
     1
 90
        6
176
     1
 90
        2
176
     1
 62
     7
176
     1
 90
        5
176
     1
 90
        0
176
     1
 90
        0
176
     1
290
     0
176
     1
 90
        1
176
     1
 40
0.0
176
     1
 90
        0
176
     1
290
     0
176
     1
290
     1
176
     1
290
     1
176
     1
290
     0
176
     1
290
     0
176
     1
290
     0
176
     1
290
     0
176
     1
290
     0
176
     1
290
     0
176
     1
 90
       50
176
     1
 40
0.0
176
     1
 40
1.0
176
     1
 90
        0
176
     1
 62
    18
420
        0
176
     1
 90
       50
176
     1
 90
        3
176
     1
 62
     5
420
      255
176
     1
290
     0
176
     1
 90
       50
176
     1
 90
       50
176
     1
 90
       50
176
     1
290
     0
176
     1
 90
       50
176
     1
 62
   256
176
     0
 40
1.0
176
     0
 90
        2
176
     1
  1
strokes_ogs.tif
176
     1
290
     0
176
     1
 40
1.0
176
     1
 40
1.0
176
     1
  0
VISUALSTYLE
  5
260
102
{ACAD_REACTORS
330
25B
102
}
330
25B
100
AcDbVisualStyle
  2
Basic
 70
     7
177
     3
291
     1
 70
    58
 90
        1
176
     1
 90
        0
176
     1
 90
        1
176
     1
 90
        0
176
     1
 40
0.6
176
     1
 40
30.0
176
     1
 62
     7
420
 16777215
176
     1
 90
        0
176
     1
 90
        4
176
     1
 62
     7
176
     1
 62
   257
176
     1
 90
        1
176
     1
 90
        1
176
     1
 40
1.0
176
     1
 90
        8
176
     1
 62
     7
176
     1
 40
1.0
176
     1
 90
        1
176
     1
 90
        6
176
     1
 90
        2
176
     1
 62
     7
176
     1
 90
        5
176
     1
 90
        0
176
     1
 90
        0
176
     1
290
     0
176
     1
 90
        1
176
     1
 40
0.0
176
     1
 90
        0
176
     1
290
     0
176
     1
290
     1
176
     1
290
     1
176
     1
290
     0
176
     1
290
     0
176
     1
290
     0
176
     1
290
     0
176
     1
290
     0
176
     1
290
     0
176
     1
 90
       50
176
     1
 40
0.0
176
     1
 40
1.0
176
     1
 90
        0
176
     1
 62
    18
420
        0
176
     1
 90
       50
176
     1
 90
        3
176
     1
 62
     5
420
      255
176
     1
290
     0
176
     1
 90
       50
176
     1
 90
       50
176
     1
 90
       50
176
     1
290
     0
176
     1
 90
       50
176
     1
 62
   256
176
     0
 40
1.0
176
     0
 90
        2
176
     1
  1
strokes_ogs.tif
176
     1
290
     0
176
     1
 40
1.0
176
     1
 40
1.0
176
     1
  0
VISUALSTYLE
  5
267
102
{ACAD_REACTORS
330
25B
102
}
330
25B
100
AcDbVisualStyle
  2
Brighten
 70
    12
177
     3
291
     1
 70
    58
 90
        2
176
     1
 90
        2
176
     1
 90
        0
176
     1
 90
        0
176
     1
 40
0.6
176
     1
 40
30.0
176
     1
 62
     7
420
 16777215
176
     1
 90
        1
176
     1
 90
        4
176
     1
 62
     7
176
     1
 62
   257
176
     1
 90
        1
176
     1
 90
        1
176
     1
 40
1.0
176
     1
 90
        8
176
     1
 62
     7
176
     1
 40
1.0
176
     1
 90
        1
176
     1
 90
        6
176
     1
 90
        2
176
     1
 62
     7
176
     1
 90
        5
176
     1
 90
        0
176
     1
 90
        0
176
     1
290
     0
176
     1
 90
        1
176
     1
 40
50.0
176
     1
 90
        0
176
     1
290
     0
176
     1
290
     1
176
     1
290
     1
176
     1
290
     0
176
     1
290
     0
176
     1
290
     0
176
     1
290
     0
176
     1
290
     0
176
     1
290
     0
176
     1
 90
       50
176
     1
 40
0.0
176
     1
 40
1.0
176
     1
 90
        0
176
     1
 62
    18
420
        0
176
     1
 90
       50
176
     1
 90
        3
176
     1
 62
     5
420
      255
176
     1
290
     0
176
     1
 90
       50
176
     1
 90
       50
176
     1
 90
       50
176
     1
290
     0
176
     1
 90
       50
176
     1
 62
   256
176
     0
 40
1.0
176
     0
 90
        2
176
     1
  1
strokes_ogs.tif
176
     1
290
     0
176
     1
 40
1.0
176
     1
 40
1.0
176
     1
  0
VISUALSTYLE
  5
26B
102
{ACAD_REACTORS
330
25B
102
}
330
25B
100
AcDbVisualStyle
  2
ColorChange
 70
    16
177
     3
291
     1
 70
    58
 90
        2
176
     1
 90
        2
176
     1
 90
        3
176
     1
 90
        0
176
     1
 40
0.6
176
     1
 40
30.0
176
     1
 62
     8
420
  8421504
176
     1
 90
        1
176
     1
 90
        4
176
     1
 62
     7
176
     1
 62
   257
176
     1
 90
        1
176
     1
 90
        1
176
     1
 40
1.0
176
     1
 90
        8
176
     1
 62
     8
420
  8421504
176
     1
 40
1.0
176
     1
 90
        1
176
     1
 90
        6
176
     1
 90
        2
176
     1
 62
     7
176
     1
 90
        5
176
     1
 90
        0
176
     1
 90
        0
176
     1
290
     0
176
     1
 90
        1
176
     1
 40
0.0
176
     1
 90
        0
176
     1
290
     0
176
     1
290
     1
176
     1
290
     1
176
     1
290
     0
176
     1
290
     0
176
     1
290
     0
176
     1
290
     0
176
     1
290
     0
176
     1
290
     0
176
     1
 90
       50
176
     1
 40
0.0
176
     1
 40
1.0
176
     1
 90
        0
176
     1
 62
    18
420
        0
176
     1
 90
       50
176
     1
 90
        3
176
     1
 62
     5
420
      255
176
     1
290
     0
176
     1
 90
       50
176
     1
 90
       50
176
     1
 90
       50
176
     1
290
     0
176
     1
 90
       50
176
     1
 62
   256
176
     0
 40
1.0
176
     0
 90
        2
176
     1
  1
strokes_ogs.tif
176
     1
290
     0
176
     1
 40
1.0
176
     1
 40
1.0
176
     1
  0
VISUALSTYLE
  5
264
102
{ACAD_REACTORS
330
25B
102
}
330
25B
100
AcDbVisualStyle
  2
Conceptual
 70
     9
177
     3
291
     0
 70
    58
 90
        3
176
     1
 90
        2
176
     1
 90
        0
176
     1
 90
        0
176
     1
 40
0.6
176
     1
 40
30.0
176
     1
 62
     7
420
 16777215
176
     1
 90
        2
176
     1
 90
        2
176
     1
 62
     7
176
     1
 62
   257
176
     1
 90
        1
176
     1
 90
        1
176
     1
 40
40.0
176
     1
 90
        8
176
     1
 62
     7
176
     1
 40
1.0
176
     1
 90
        1
176
     1
 90
        6
176
     1
 90
        2
176
     1
 62
     7
176
     1
 90
        3
176
     1
 90
        0
176
     1
 90
        0
176
     1
290
     0
176
     1
 90
        1
176
     1
 40
0.0
176
     1
 90
        0
176
     1
290
     0
176
     1
290
     1
176
     1
290
     1
176
     1
290
     0
176
     1
290
     0
176
     1
290
     0
176
     1
290
     0
176
     1
290
     0
176
     1
290
     0
176
     1
 90
       50
176
     1
 40
0.0
176
     1
 40
1.0
176
     1
 90
        0
176
     1
 62
    18
420
        0
176
     1
 90
       50
176
     1
 90
        3
176
     1
 62
     5
420
      255
176
     1
290
     0
176
     1
 90
       50
176
     1
 90
       50
176
     1
 90
       50
176
     1
290
     0
176
     1
 90
       50
176
     1
 62
   256
176
     0
 40
1.0
176
     0
 90
        2
176
     1
  1
strokes_ogs.tif
176
     1
290
     0
176
     1
 40
1.0
176
     1
 40
1.0
176
     1
  0
VISUALSTYLE
  5
266
102
{ACAD_REACTORS
330
25B
102
}
330
25B
100
AcDbVisualStyle
  2
Dim
 70
    11
177
     3
291
     1
 70
    58
 90
        2
176
     1
 90
        2
176
     1
 90
        0
176
     1
 90
        0
176
     1
 40
0.6
176
     1
 40
30.0
176
     1
 62
     7
420
 16777215
176
     1
 90
        1
176
     1
 90
        4
176
     1
 62
     7
176
     1
 62
   257
176
     1
 90
        1
176
     1
 90
        1
176
     1
 40
1.0
176
     1
 90
        8
176
     1
 62
     7
176
     1
 40
1.0
176
     1
 90
        1
176
     1
 90
        6
176
     1
 90
        2
176
     1
 62
     7
176
     1
 90
        5
176
     1
 90
        0
176
     1
 90
        0
176
     1
290
     0
176
     1
 90
        1
176
     1
 40
-50.0
176
     1
 90
        0
176
     1
290
     0
176
     1
290
     1
176
     1
290
     1
176
     1
290
     0
176
     1
290
     0
176
     1
290
     0
176
     1
290
     0
176
     1
290
     0
176
     1
290
     0
176
     1
 90
       50
176
     1
 40
0.0
176
     1
 40
1.0
176
     1
 90
        0
176
     1
 62
    18
420
        0
176
     1
 90
       50
176
     1
 90
        3
176
     1
 62
     5
420
      255
176
     1
290
     0
176
     1
 90
       50
176
     1
 90
       50
176
     1
 90
       50
176
     1
290
     0
176
     1
 90
       50
176
     1
 62
   256
176
     0
 40
1.0
176
     0
 90
        2
176
     1
  1
strokes_ogs.tif
176
     1
290
     0
176
     1
 40
1.0
176
     1
 40
1.0
176
     1
  0
VISUALSTYLE
  5
A96
102
{ACAD_REACTORS
330
25B
102
}
330
25B
100
AcDbVisualStyle
  2
EdgeColorOff
 70
    22
177
     3
291
     1
 70
    58
 90
        2
176
     0
 90
        2
176
     0
 90
        0
176
     0
 90
        0
176
     0
 40
0.6
176
     0
 40
30.0
176
     0
 62
     7
420
 16777215
176
     0
 90
        1
176
     0
 90
        4
176
     0
 62
     7
176
     0
 62
   257
176
     0
 90
        1
176
     0
 90
        1
176
     0
 40
1.0
176
     0
 90
        8
176
     2
 62
     7
176
     0
 40
1.0
176
     0
 90
        1
176
     0
 90
        6
176
     0
 90
        2
176
     0
 62
     7
176
     0
 90
        5
176
     0
 90
        0
176
     0
 90
        0
176
     0
290
     0
176
     0
 90
        1
176
     0
 40
0.0
176
     0
 90
        0
176
     0
290
     0
176
     0
290
     1
176
     0
290
     1
176
     0
290
     0
176
     0
290
     0
176
     0
290
     0
176
     0
290
     0
176
     0
290
     0
176
     0
290
     0
176
     0
 90
       50
176
     0
 40
0.0
176
     0
 40
1.0
176
     0
 90
        0
176
     0
 62
    18
420
        0
176
     0
 90
       50
176
     0
 90
        3
176
     0
 62
     5
420
      255
176
     0
290
     0
176
     0
 90
       50
176
     0
 90
       50
176
     0
 90
       50
176
     0
290
     0
176
     0
 90
       50
176
     0
 62
   256
176
     0
 40
1.0
176
     0
 90
        2
176
     0
  1
strokes_ogs.tif
176
     0
290
     0
176
     0
 40
1.0
176
     0
 40
1.0
176
     0
  0
VISUALSTYLE
  5
26A
102
{ACAD_REACTORS
330
25B
102
}
330
25B
100
AcDbVisualStyle
  2
Facepattern
 70
    15
177
     3
291
     1
 70
    58
 90
        2
176
     1
 90
        2
176
     1
 90
        0
176
     1
 90
        0
176
     1
 40
0.6
176
     1
 40
30.0
176
     1
 62
     7
420
 16777215
176
     1
 90
        1
176
     1
 90
        4
176
     1
 62
     7
176
     1
 62
   257
176
     1
 90
        1
176
     1
 90
        1
176
     1
 40
1.0
176
     1
 90
        8
176
     1
 62
     7
176
     1
 40
1.0
176
     1
 90
        1
176
     1
 90
        6
176
     1
 90
        2
176
     1
 62
     7
176
     1
 90
        5
176
     1
 90
        0
176
     1
 90
        0
176
     1
290
     0
176
     1
 90
        1
176
     1
 40
0.0
176
     1
 90
        0
176
     1
290
     0
176
     1
290
     1
176
     1
290
     1
176
     1
290
     0
176
     1
290
     0
176
     1
290
     0
176
     1
290
     0
176
     1
290
     0
176
     1
290
     0
176
     1
 90
       50
176
     1
 40
0.0
176
     1
 40
1.0
176
     1
 90
        0
176
     1
 62
    18
420
        0
176
     1
 90
       50
176
     1
 90
        3
176
     1
 62
     5
420
      255
176
     1
290
     0
176
     1
 90
       50
176
     1
 90
       50
176
     1
 90
       50
176
     1
290
     0
176
     1
 90
       50
176
     1
 62
   256
176
     0
 40
1.0
176
     0
 90
        2
176
     1
  1
strokes_ogs.tif
176
     1
290
     0
176
     1
 40
1.0
176
     1
 40
1.0
176
     1
  0
VISUALSTYLE
  5
25C
102
{ACAD_REACTORS
330
25B
102
}
330
25B
100
AcDbVisualStyle
  2
Flat
 70
     0
177
     3
291
     1
 70
    58
 90
        2
176
     1
 90
        1
176
     1
 90
        1
176
     1
 90
        2
176
     1
 40
0.6
176
     1
 40
30.0
176
     1
 62
     7
420
 16777215
176
     1
 90
        0
176
     1
 90
        4
176
     1
 62
     7
176
     1
 62
   257
176
     1
 90
        1
176
     1
 90
        1
176
     1
 40
1.0
176
     1
 90
        8
176
     1
 62
     7
176
     1
 40
1.0
176
     1
 90
        1
176
     1
 90
        6
176
     1
 90
        2
176
     1
 62
     7
176
     1
 90
        5
176
     1
 90
        0
176
     1
 90
        0
176
     1
290
     0
176
     1
 90
       13
176
     1
 40
0.0
176
     1
 90
        0
176
     1
290
     0
176
     1
290
     1
176
     1
290
     1
176
     1
290
     0
176
     1
290
     0
176
     1
290
     0
176
     1
290
     0
176
     1
290
     0
176
     1
290
     0
176
     1
 90
       50
176
     1
 40
0.0
176
     1
 40
1.0
176
     1
 90
        0
176
     1
 62
    18
420
        0
176
     1
 90
       50
176
     1
 90
        3
176
     1
 62
     5
420
      255
176
     1
290
     0
176
     1
 90
       50
176
     1
 90
       50
176
     1
 90
       50
176
     1
290
     0
176
     1
 90
       50
176
     1
 62
   256
176
     0
 40
1.0
176
     0
 90
        2
176
     1
  1
strokes_ogs.tif
176
     1
290
     0
176
     1
 40
1.0
176
     1
 40
1.0
176
     1
  0
VISUALSTYLE
  5
25D
102
{ACAD_REACTORS
330
25B
102
}
330
25B
100
AcDbVisualStyle
  2
FlatWithEdges
 70
     1
177
     3
291
     1
 70
    58
 90
        2
176
     1
 90
        1
176
     1
 90
        1
176
     1
 90
        2
176
     1
 40
0.6
176
     1
 40
30.0
176
     1
 62
     7
420
 16777215
176
     1
 90
        1
176
     1
 90
        4
176
     1
 62
     7
176
     1
 62
   257
176
     1
 90
        1
176
     1
 90
        1
176
     1
 40
1.0
176
     1
 90
        0
176
     1
 62
   257
176
     1
 40
1.0
176
     1
 90
        1
176
     1
 90
        6
176
     1
 90
        2
176
     1
 62
     7
176
     1
 90
        5
176
     1
 90
        0
176
     1
 90
        0
176
     1
290
     0
176
     1
 90
       13
176
     1
 40
0.0
176
     1
 90
        0
176
     1
290
     0
176
     1
290
     1
176
     1
290
     1
176
     1
290
     0
176
     1
290
     0
176
     1
290
     0
176
     1
290
     0
176
     1
290
     0
176
     1
290
     0
176
     1
 90
       50
176
     1
 40
0.0
176
     1
 40
1.0
176
     1
 90
        0
176
     1
 62
    18
420
        0
176
     1
 90
       50
176
     1
 90
        3
176
     1
 62
     5
420
      255
176
     1
290
     0
176
     1
 90
       50
176
     1
 90
       50
176
     1
 90
       50
176
     1
290
     0
176
     1
 90
       50
176
     1
 62
   256
176
     0
 40
1.0
176
     0
 90
        2
176
     1
  1
strokes_ogs.tif
176
     1
290
     0
176
     1
 40
1.0
176
     1
 40
1.0
176
     1
  0
VISUALSTYLE
  5
25E
102
{ACAD_REACTORS
330
25B
102
}
330
25B
100
AcDbVisualStyle
  2
Gouraud
 70
     2
177
     3
291
     1
 70
    58
 90
        2
176
     1
 90
        2
176
     1
 90
        1
176
     1
 90
        2
176
     1
 40
0.6
176
     1
 40
30.0
176
     1
 62
     7
420
 16777215
176
     1
 90
        0
176
     1
 90
        4
176
     1
 62
     7
176
     1
 62
   257
176
     1
 90
        1
176
     1
 90
        1
176
     1
 40
1.0
176
     1
 90
        0
176
     1
 62
     7
176
     1
 40
1.0
176
     1
 90
        1
176
     1
 90
        6
176
     1
 90
        2
176
     1
 62
     7
176
     1
 90
        5
176
     1
 90
        0
176
     1
 90
        0
176
     1
290
     0
176
     1
 90
       13
176
     1
 40
0.0
176
     1
 90
        0
176
     1
290
     0
176
     1
290
     1
176
     1
290
     1
176
     1
290
     0
176
     1
290
     0
176
     1
290
     0
176
     1
290
     0
176
     1
290
     0
176
     1
290
     0
176
     1
 90
       50
176
     1
 40
0.0
176
     1
 40
1.0
176
     1
 90
        0
176
     1
 62
    18
420
        0
176
     1
 90
       50
176
     1
 90
        3
176
     1
 62
     5
420
      255
176
     1
290
     0
176
     1
 90
       50
176
     1
 90
       50
176
     1
 90
       50
176
     1
290
     0
176
     1
 90
       50
176
     1
 62
   256
176
     0
 40
1.0
176
     0
 90
        2
176
     1
  1
strokes_ogs.tif
176
     1
290
     0
176
     1
 40
1.0
176
     1
 40
1.0
176
     1
  0
VISUALSTYLE
  5
25F
102
{ACAD_REACTORS
330
25B
102
}
330
25B
100
AcDbVisualStyle
  2
GouraudWithEdges
 70
     3
177
     3
291
     1
 70
    58
 90
        2
176
     1
 90
        2
176
     1
 90
        1
176
     1
 90
        2
176
     1
 40
0.6
176
     1
 40
30.0
176
     1
 62
     7
420
 16777215
176
     1
 90
        1
176
     1
 90
        4
176
     1
 62
     7
176
     1
 62
   257
176
     1
 90
        1
176
     1
 90
        1
176
     1
 40
1.0
176
     1
 90
        0
176
     1
 62
   257
176
     1
 40
1.0
176
     1
 90
        1
176
     1
 90
        6
176
     1
 90
        2
176
     1
 62
     7
176
     1
 90
        5
176
     1
 90
        0
176
     1
 90
        0
176
     1
290
     0
176
     1
 90
       13
176
     1
 40
0.0
176
     1
 90
        0
176
     1
290
     0
176
     1
290
     1
176
     1
290
     1
176
     1
290
     0
176
     1
290
     0
176
     1
290
     0
176
     1
290
     0
176
     1
290
     0
176
     1
290
     0
176
     1
 90
       50
176
     1
 40
0.0
176
     1
 40
1.0
176
     1
 90
        0
176
     1
 62
    18
420
        0
176
     1
 90
       50
176
     1
 90
        3
176
     1
 62
     5
420
      255
176
     1
290
     0
176
     1
 90
       50
176
     1
 90
       50
176
     1
 90
       50
176
     1
290
     0
176
     1
 90
       50
176
     1
 62
   256
176
     0
 40
1.0
176
     0
 90
        2
176
     1
  1
strokes_ogs.tif
176
     1
290
     0
176
     1
 40
1.0
176
     1
 40
1.0
176
     1
  0
VISUALSTYLE
  5
A8E
102
{ACAD_REACTORS
330
25B
102
}
330
25B
100
AcDbVisualStyle
  2
Hidden
 70
     6
177
     3
291
     0
 70
    58
 90
        1
176
     1
 90
        2
176
     1
 90
        2
176
     1
 90
        0
176
     1
 40
0.6
176
     1
 40
30.0
176
     1
 62
     7
420
 16777215
176
     1
 90
        2
176
     1
 90
        2
176
     1
 62
     7
176
     1
 62
   257
176
     1
 90
        2
176
     1
 90
        1
176
     1
 40
40.0
176
     1
 90
        0
176
     1
 62
   257
176
     1
 40
1.0
176
     1
 90
        1
176
     1
 90
        6
176
     1
 90
        2
176
     1
 62
     7
176
     1
 90
        3
176
     1
 90
        0
176
     1
 90
        0
176
     1
290
     0
176
     1
 90
        1
176
     1
 40
0.0
176
     1
 90
        0
176
     1
290
     0
176
     1
290
     1
176
     1
290
     1
176
     1
290
     0
176
     1
290
     0
176
     1
290
     0
176
     1
290
     0
176
     1
290
     0
176
     1
290
     0
176
     1
 90
       50
176
     1
 40
0.0
176
     1
 40
1.0
176
     1
 90
        0
176
     1
 62
    18
420
        0
176
     1
 90
       50
176
     1
 90
        3
176
     1
 62
     5
420
      255
176
     1
290
     0
176
     1
 90
       50
176
     1
 90
       50
176
     1
 90
       50
176
     1
290
     0
176
     1
 90
       50
176
     1
 62
   256
176
     0
 40
1.0
176
     0
 90
        2
176
     1
  1
strokes_ogs.tif
176
     1
290
     0
176
     1
 40
1.0
176
     1
 40
1.0
176
     1
  0
VISUALSTYLE
  5
A94
102
{ACAD_REACTORS
330
25B
102
}
330
25B
100
AcDbVisualStyle
  2
JitterOff
 70
    20
177
     3
291
     1
 70
    58
 90
        2
176
     0
 90
        2
176
     0
 90
        0
176
     0
 90
        0
176
     0
 40
0.6
176
     0
 40
30.0
176
     0
 62
     7
420
 16777215
176
     0
 90
        1
176
     0
 90
        4
176
     0
 62
     7
176
     0
 62
   257
176
     0
 90
        1
176
     0
 90
        1
176
     0
 40
1.0
176
     0
 90
       10
176
     2
 62
     7
176
     0
 40
1.0
176
     0
 90
        1
176
     0
 90
        6
176
     0
 90
        2
176
     0
 62
     7
176
     0
 90
        5
176
     0
 90
        0
176
     0
 90
        0
176
     0
290
     0
176
     0
 90
        1
176
     0
 40
0.0
176
     0
 90
        0
176
     0
290
     0
176
     0
290
     1
176
     0
290
     1
176
     0
290
     0
176
     0
290
     0
176
     0
290
     0
176
     0
290
     0
176
     0
290
     0
176
     0
290
     0
176
     0
 90
       50
176
     0
 40
0.0
176
     0
 40
1.0
176
     0
 90
        0
176
     0
 62
    18
420
        0
176
     0
 90
       50
176
     0
 90
        3
176
     0
 62
     5
420
      255
176
     0
290
     0
176
     0
 90
       50
176
     0
 90
       50
176
     0
 90
       50
176
     0
290
     0
176
     0
 90
       50
176
     0
 62
   256
176
     0
 40
1.0
176
     0
 90
        2
176
     0
  1
strokes_ogs.tif
176
     0
290
     0
176
     0
 40
1.0
176
     0
 40
1.0
176
     0
  0
VISUALSTYLE
  5
269
102
{ACAD_REACTORS
330
25B
102
}
330
25B
100
AcDbVisualStyle
  2
Linepattern
 70
    14
177
     3
291
     1
 70
    58
 90
        2
176
     1
 90
        2
176
     1
 90
        0
176
     1
 90
        0
176
     1
 40
0.6
176
     1
 40
30.0
176
     1
 62
     7
420
 16777215
176
     1
 90
        1
176
     1
 90
        4
176
     1
 62
     7
176
     1
 62
   257
176
     1
 90
        7
176
     1
 90
        7
176
     1
 40
1.0
176
     1
 90
        8
176
     1
 62
     7
176
     1
 40
1.0
176
     1
 90
        1
176
     1
 90
        6
176
     1
 90
        2
176
     1
 62
     7
176
     1
 90
        5
176
     1
 90
        0
176
     1
 90
        0
176
     1
290
     0
176
     1
 90
        1
176
     1
 40
0.0
176
     1
 90
        0
176
     1
290
     0
176
     1
290
     1
176
     1
290
     1
176
     1
290
     0
176
     1
290
     0
176
     1
290
     0
176
     1
290
     0
176
     1
290
     0
176
     1
290
     0
176
     1
 90
       50
176
     1
 40
0.0
176
     1
 40
1.0
176
     1
 90
        0
176
     1
 62
    18
420
        0
176
     1
 90
       50
176
     1
 90
        3
176
     1
 62
     5
420
      255
176
     1
290
     0
176
     1
 90
       50
176
     1
 90
       50
176
     1
 90
       50
176
     1
290
     0
176
     1
 90
       50
176
     1
 62
   256
176
     0
 40
1.0
176
     0
 90
        2
176
     1
  1
strokes_ogs.tif
176
     1
290
     0
176
     1
 40
1.0
176
     1
 40
1.0
176
     1
  0
VISUALSTYLE
  5
A95
102
{ACAD_REACTORS
330
25B
102
}
330
25B
100
AcDbVisualStyle
  2
OverhangOff
 70
    21
177
     3
291
     1
 70
    58
 90
        2
176
     0
 90
        2
176
     0
 90
        0
176
     0
 90
        0
176
     0
 40
0.6
176
     0
 40
30.0
176
     0
 62
     7
420
 16777215
176
     0
 90
        1
176
     0
 90
        4
176
     0
 62
     7
176
     0
 62
   257
176
     0
 90
        1
176
     0
 90
        1
176
     0
 40
1.0
176
     0
 90
        9
176
     2
 62
     7
176
     0
 40
1.0
176
     0
 90
        1
176
     0
 90
        6
176
     0
 90
        2
176
     0
 62
     7
176
     0
 90
        5
176
     0
 90
        0
176
     0
 90
        0
176
     0
290
     0
176
     0
 90
        1
176
     0
 40
0.0
176
     0
 90
        0
176
     0
290
     0
176
     0
290
     1
176
     0
290
     1
176
     0
290
     0
176
     0
290
     0
176
     0
290
     0
176
     0
290
     0
176
     0
290
     0
176
     0
290
     0
176
     0
 90
       50
176
     0
 40
0.0
176
     0
 40
1.0
176
     0
 90
        0
176
     0
 62
    18
420
        0
176
     0
 90
       50
176
     0
 90
        3
176
     0
 62
     5
420
      255
176
     0
290
     0
176
     0
 90
       50
176
     0
 90
       50
176
     0
 90
       50
176
     0
290
     0
176
     0
 90
       50
176
     0
 62
   256
176
     0
 40
1.0
176
     0
 90
        2
176
     0
  1
strokes_ogs.tif
176
     0
290
     0
176
     0
 40
1.0
176
     0
 40
1.0
176
     0
  0
VISUALSTYLE
  5
265
102
{ACAD_REACTORS
330
25B
102
}
330
25B
100
AcDbVisualStyle
  2
Realistic
 70
     8
177
     3
291
     0
 70
    58
 90
        2
176
     1
 90
        2
176
     1
 90
        0
176
     1
 90
        0
176
     1
 40
0.6
176
     1
 40
30.0
176
     1
 62
     7
420
 16777215
176
     1
 90
        1
176
     1
 90
        0
176
     1
 62
     7
176
     1
 62
   257
176
     1
 90
        1
176
     1
 90
        1
176
     1
 40
1.0
176
     1
 90
        8
176
     1
 62
     8
420
  7895160
176
     1
 40
1.0
176
     1
 90
        1
176
     1
 90
        6
176
     1
 90
        2
176
     1
 62
     7
176
     1
 90
        5
176
     1
 90
        0
176
     1
 90
        0
176
     1
290
     0
176
     1
 90
       13
176
     1
 40
0.0
176
     1
 90
        0
176
     1
290
     0
176
     1
290
     1
176
     1
290
     1
176
     1
290
     0
176
     1
290
     0
176
     1
290
     0
176
     1
290
     0
176
     1
290
     0
176
     1
290
     0
176
     1
 90
       50
176
     1
 40
0.0
176
     1
 40
1.0
176
     1
 90
        0
176
     1
 62
    18
420
        0
176
     1
 90
       50
176
     1
 90
        3
176
     1
 62
     5
420
      255
176
     1
290
     0
176
     1
 90
       50
176
     1
 90
       50
176
     1
 90
       50
176
     1
290
     0
176
     1
 90
       50
176
     1
 62
   256
176
     0
 40
1.0
176
     0
 90
        2
176
     1
  1
strokes_ogs.tif
176
     1
290
     0
176
     1
 40
1.0
176
     1
 40
1.0
176
     1
  0
VISUALSTYLE
  5
A93
102
{ACAD_REACTORS
330
25B
102
}
330
25B
100
AcDbVisualStyle
  2
Shaded
 70
    27
177
     3
291
     0
 70
    58
 90
        2
176
     1
 90
        2
176
     1
 90
        1
176
     1
 90
        2
176
     1
 40
0.6
176
     1
 40
30.0
176
     1
 62
     7
420
 16777215
176
     1
 90
        0
176
     1
 90
        4
176
     1
 62
     7
176
     1
 62
   257
176
     1
 90
        1
176
     1
 90
        1
176
     1
 40
1.0
176
     1
 90
        8
176
     1
 62
   257
176
     1
 40
1.0
176
     1
 90
        1
176
     1
 90
        6
176
     1
 90
        2
176
     1
 62
     8
420
  7895160
176
     1
 90
        3
176
     1
 90
        0
176
     1
 90
        0
176
     1
290
     0
176
     1
 90
        5
176
     1
 40
0.0
176
     1
 90
        0
176
     1
290
     0
176
     1
290
     1
176
     1
290
     1
176
     1
290
     0
176
     1
290
     0
176
     1
290
     0
176
     1
290
     0
176
     1
290
     0
176
     1
290
     0
176
     1
 90
       50
176
     1
 40
0.0
176
     1
 40
1.0
176
     1
 90
        0
176
     1
 62
    18
420
        0
176
     1
 90
       50
176
     1
 90
        3
176
     1
 62
     5
420
      255
176
     1
290
     0
176
     1
 90
       50
176
     1
 90
       50
176
     1
 90
       50
176
     1
290
     0
176
     1
 90
       50
176
     1
 62
   256
176
     0
 40
1.0
176
     0
 90
        2
176
     1
  1
strokes_ogs.tif
176
     1
290
     0
176
     1
 40
1.0
176
     1
 40
1.0
176
     1
  0
VISUALSTYLE
  5
A92
102
{ACAD_REACTORS
330
25B
102
}
330
25B
100
AcDbVisualStyle
  2
Shaded with edges
 70
    26
177
     3
291
     0
 70
    58
 90
        2
176
     1
 90
        2
176
     1
 90
        1
176
     1
 90
        2
176
     1
 40
0.6
176
     1
 40
30.0
176
     1
 62
     7
420
 16777215
176
     1
 90
        1
176
     1
 90
       10
176
     1
 62
     7
176
     1
 62
   257
176
     1
 90
        2
176
     1
 90
        1
176
     1
 40
1.0
176
     1
 90
        8
176
     1
 62
   257
176
     1
 40
1.0
176
     1
 90
        1
176
     1
 90
        6
176
     1
 90
        2
176
     1
 62
     7
176
     1
 90
        3
176
     1
 90
        0
176
     1
 90
        0
176
     1
290
     0
176
     1
 90
        5
176
     1
 40
0.0
176
     1
 90
        0
176
     1
290
     0
176
     1
290
     1
176
     1
290
     1
176
     1
290
     0
176
     1
290
     0
176
     1
290
     0
176
     1
290
     0
176
     1
290
     0
176
     1
290
     0
176
     1
 90
       50
176
     1
 40
0.0
176
     1
 40
1.0
176
     1
 90
        0
176
     1
 62
    18
420
        0
176
     1
 90
       50
176
     1
 90
        3
176
     1
 62
     5
420
      255
176
     1
290
     0
176
     1
 90
       50
176
     1
 90
       50
176
     1
 90
       50
176
     1
290
     0
176
     1
 90
       50
176
     1
 62
   256
176
     0
 40
1.0
176
     0
 90
        2
176
     1
  1
strokes_ogs.tif
176
     1
290
     0
176
     1
 40
1.0
176
     1
 40
1.0
176
     1
  0
VISUALSTYLE
  5
A8F
102
{ACAD_REACTORS
330
25B
102
}
330
25B
100
AcDbVisualStyle
  2
Shades of Gray
 70
    23
177
     3
291
     0
 70
    58
 90
        2
176
     1
 90
        2
176
     1
 90
        3
176
     1
 90
        0
176
     1
 40
0.6
176
     1
 40
30.0
176
     1
 62
     7
420
 16777215
176
     1
 90
        2
176
     1
 90
        2
176
     1
 62
     7
176
     1
 62
     7
176
     1
 90
        1
176
     1
 90
        1
176
     1
 40
40.0
176
     1
 90
        8
176
     1
 62
     7
176
     1
 40
1.0
176
     1
 90
        1
176
     1
 90
        6
176
     1
 90
        2
176
     1
 62
     7
176
     1
 90
        3
176
     1
 90
        0
176
     1
 90
        0
176
     1
290
     0
176
     1
 90
        1
176
     1
 40
0.0
176
     1
 90
        0
176
     1
290
     0
176
     1
290
     1
176
     1
290
     1
176
     1
290
     0
176
     1
290
     0
176
     1
290
     0
176
     1
290
     0
176
     1
290
     0
176
     1
290
     0
176
     1
 90
       50
176
     1
 40
0.0
176
     1
 40
1.0
176
     1
 90
        0
176
     1
 62
    18
420
        0
176
     1
 90
       50
176
     1
 90
        3
176
     1
 62
     5
420
      255
176
     1
290
     0
176
     1
 90
       50
176
     1
 90
       50
176
     1
 90
       50
176
     1
290
     0
176
     1
 90
       50
176
     1
 62
   256
176
     0
 40
1.0
176
     0
 90
        2
176
     1
  1
strokes_ogs.tif
176
     1
290
     0
176
     1
 40
1.0
176
     1
 40
1.0
176
     1
  0
VISUALSTYLE
  5
A90
102
{ACAD_REACTORS
330
25B
102
}
330
25B
100
AcDbVisualStyle
  2
Sketchy
 70
    24
177
     3
291
     0
 70
    58
 90
        1
176
     1
 90
        2
176
     1
 90
        2
176
     1
 90
        0
176
     1
 40
0.6
176
     1
 40
30.0
176
     1
 62
     7
420
 16777215
176
     1
 90
        2
176
     1
 90
        2
176
     1
 62
     7
176
     1
 62
     7
176
     1
 90
        1
176
     1
 90
        1
176
     1
 40
40.0
176
     1
 90
       11
176
     1
 62
     7
176
     1
 40
1.0
176
     1
 90
        1
176
     1
 90
        6
176
     1
 90
        2
176
     1
 62
     7
176
     1
 90
        6
176
     1
 90
        0
176
     1
 90
        0
176
     1
290
     0
176
     1
 90
        1
176
     1
 40
0.0
176
     1
 90
        0
176
     1
290
     0
176
     1
290
     1
176
     1
290
     1
176
     1
290
     0
176
     1
290
     0
176
     1
290
     0
176
     1
290
     0
176
     1
290
     0
176
     1
290
     0
176
     1
 90
       50
176
     1
 40
0.0
176
     1
 40
1.0
176
     1
 90
        0
176
     1
 62
    18
420
        0
176
     1
 90
       50
176
     1
 90
        3
176
     1
 62
     5
420
      255
176
     1
290
     0
176
     1
 90
       50
176
     1
 90
       50
176
     1
 90
       50
176
     1
290
     0
176
     1
 90
       50
176
     1
 62
   256
176
     0
 40
1.0
176
     0
 90
        2
176
     1
  1
strokes_ogs.tif
176
     1
290
     0
176
     1
 40
1.0
176
     1
 40
1.0
176
     1
  0
VISUALSTYLE
  5
268
102
{ACAD_REACTORS
330
25B
102
}
330
25B
100
AcDbVisualStyle
  2
Thicken
 70
    13
177
     3
291
     1
 70
    58
 90
        2
176
     1
 90
        2
176
     1
 90
        0
176
     1
 90
        0
176
     1
 40
0.6
176
     1
 40
30.0
176
     1
 62
     7
420
 16777215
176
     1
 90
        1
176
     1
 90
        4
176
     1
 62
     7
176
     1
 62
   257
176
     1
 90
        1
176
     1
 90
        1
176
     1
 40
1.0
176
     1
 90
       12
176
     1
 62
     7
176
     1
 40
1.0
176
     1
 90
        1
176
     1
 90
        6
176
     1
 90
        2
176
     1
 62
     7
176
     1
 90
        5
176
     1
 90
        0
176
     1
 90
        0
176
     1
290
     0
176
     1
 90
        1
176
     1
 40
0.0
176
     1
 90
        0
176
     1
290
     0
176
     1
290
     1
176
     1
290
     1
176
     1
290
     0
176
     1
290
     0
176
     1
290
     0
176
     1
290
     0
176
     1
290
     0
176
     1
290
     0
176
     1
 90
       50
176
     1
 40
0.0
176
     1
 40
1.0
176
     1
 90
        0
176
     1
 62
    18
420
        0
176
     1
 90
       50
176
     1
 90
        3
176
     1
 62
     5
420
      255
176
     1
290
     0
176
     1
 90
       50
176
     1
 90
       50
176
     1
 90
       50
176
     1
290
     0
176
     1
 90
       50
176
     1
 62
   256
176
     0
 40
1.0
176
     0
 90
        2
176
     1
  1
strokes_ogs.tif
176
     1
290
     0
176
     1
 40
1.0
176
     1
 40
1.0
176
     1
  0
VISUALSTYLE
  5
A8D
102
{ACAD_REACTORS
330
25B
102
}
330
25B
100
AcDbVisualStyle
  2
Wireframe
 70
     5
177
     3
291
     0
 70
    58
 90
        0
176
     1
 90
        2
176
     1
 90
        0
176
     1
 90
        0
176
     1
 40
0.6
176
     1
 40
30.0
176
     1
 62
     7
420
 16777215
176
     1
 90
        1
176
     1
 90
        4
176
     1
 62
     7
176
     1
 62
   257
176
     1
 90
        1
176
     1
 90
        1
176
     1
 40
1.0
176
     1
 90
        0
176
     1
 62
   257
176
     1
 40
1.0
176
     1
 90
        1
176
     1
 90
        6
176
     1
 90
        2
176
     1
 62
     7
176
     1
 90
        3
176
     1
 90
        0
176
     1
 90
        0
176
     1
290
     0
176
     1
 90
        1
176
     1
 40
0.0
176
     1
 90
        0
176
     1
290
     0
176
     1
290
     1
176
     1
290
     1
176
     1
290
     0
176
     1
290
     0
176
     1
290
     0
176
     1
290
     0
176
     1
290
     0
176
     1
290
     0
176
     1
 90
       50
176
     1
 40
0.0
176
     1
 40
1.0
176
     1
 90
        0
176
     1
 62
    18
420
        0
176
     1
 90
       50
176
     1
 90
        3
176
     1
 62
     5
420
      255
176
     1
290
     0
176
     1
 90
       50
176
     1
 90
       50
176
     1
 90
       50
176
     1
290
     0
176
     1
 90
       50
176
     1
 62
   256
176
     0
 40
1.0
176
     0
 90
        2
176
     1
  1
strokes_ogs.tif
176
     1
290
     0
176
     1
 40
1.0
176
     1
 40
1.0
176
     1
  0
VISUALSTYLE
  5
A91
102
{ACAD_REACTORS
330
25B
102
}
330
25B
100
AcDbVisualStyle
  2
X-Ray
 70
    25
177
     3
291
     0
 70
    58
 90
        2
176
     1
 90
        2
176
     1
 90
        1
176
     1
 90
        1
176
     1
 40
0.5
176
     1
 40
30.0
176
     1
 62
     7
420
 16777215
176
     1
 90
        1
176
     1
 90
        0
176
     1
 62
     7
176
     1
 62
   257
176
     1
 90
        1
176
     1
 90
        1
176
     1
 40
1.0
176
     1
 90
        8
176
     1
 62
     7
176
     1
 40
1.0
176
     1
 90
        1
176
     1
 90
        6
176
     1
 90
        2
176
     1
 62
     7
176
     1
 90
        3
176
     1
 90
        0
176
     1
 90
        0
176
     1
290
     0
176
     1
 90
       13
176
     1
 40
0.0
176
     1
 90
        0
176
     1
290
     0
176
     1
290
     1
176
     1
290
     1
176
     1
290
     0
176
     1
290
     0
176
     1
290
     0
176
     1
290
     0
176
     1
290
     0
176
     1
290
     0
176
     1
 90
       50
176
     1
 40
0.0
176
     1
 40
1.0
176
     1
 90
        0
176
     1
 62
    18
420
        0
176
     1
 90
       50
176
     1
 90
        3
176
     1
 62
     5
420
      255
176
     1
290
     0
176
     1
 90
       50
176
     1
 90
       50
176
     1
 90
       50
176
     1
290
     0
176
     1
 90
       50
176
     1
 62
   256
176
     0
 40
1.0
176
     0
 90
        2
176
     1
  1
strokes_ogs.tif
176
     1
290
     0
176
     1
 40
1.0
176
     1
 40
1.0
176
     1
  0
DICTIONARYVAR
  5
766
102
{ACAD_REACTORS
330
763
102
}
330
763
100
DictionaryVariables
280
     0
  1
1:2
  0
DICTIONARYVAR
  5
765
102
{ACAD_REACTORS
330
763
102
}
330
763
100
DictionaryVariables
280
     0
  1
STANDARD
  0
DICTIONARYVAR
  5
764
102
{ACAD_REACTORS
330
763
102
}
330
763
100
DictionaryVariables
280
     0
  1
STANDARD
  0
DICTIONARYVAR
  5
AFD
102
{ACAD_REACTORS
330
763
102
}
330
763
100
DictionaryVariables
280
     0
  1
ASME Y14.35 - 1987
  0
DICTIONARYVAR
  5
AFE
102
{ACAD_REACTORS
330
763
102
}
330
763
100
DictionaryVariables
280
     0
  1
ASME Y14.3 - 2003
  0
DICTIONARYVAR
  5
AFF
102
{ACAD_REACTORS
330
763
102
}
330
763
100
DictionaryVariables
280
     0
  1
1
  0
DICTIONARYVAR
  5
B00
102
{ACAD_REACTORS
330
763
102
}
330
763
100
DictionaryVariables
280
     0
  1
15
  0
DICTIONARYVAR
  5
804
102
{ACAD_REACTORS
330
763
102
}
330
763
100
DictionaryVariables
280
     0
  1
0
  0
DICTIONARYVAR
  5
803
102
{ACAD_REACTORS
330
763
102
}
330
763
100
DictionaryVariables
280
     0
  1
0
  0
DICTIONARY
  5
7E3
102
{ACAD_REACTORS
330
2F2
102
}
330
2F2
100
AcDbDictionary
281
     1
  3
*A1
350
7E5
  0
ACMDATADICTIONARY
  5
7DB
102
{ACAD_REACTORS
330
2F2
102
}
330
2F2
100
AcDbDictionary
281
     1
  3
*A1
350
7E4
100
AcmDataDictionary
  0
DICTIONARY
  5
2FD
102
{ACAD_REACTORS
330
2F2
102
}
330
2F2
100
AcDbDictionary
281
     1
  3
ANSI
350
7E7
  0
XRECORD
  5
311
102
{ACAD_REACTORS
330
2F2
102
}
330
2F2
100
AcDbXrecord
280
     1
 90
-1023410169
  0
DICTIONARY
  5
789
102
{ACAD_REACTORS
330
297
102
}
330
297
100
AcDbDictionary
281
     1
  3
DWGSETTINGS
350
78A
  3
Shaft
350
A11
  3
TRANSSETTINGS
350
78B
  0
XRECORD
  5
A8A
102
{ACAD_REACTORS
330
A89
102
}
330
A89
100
AcDbXrecord
280
     1
330
211
  0
DICTIONARY
  5
AB5
330
AB0
100
AcDbDictionary
280
     1
281
     1
  3
ACAD_FIELD
360
AB6
  3
ACAD_XREC_ROUNDTRIP
360
DA7
  0
DICTIONARY
  5
AF8
330
A9A
100
AcDbDictionary
280
     1
281
     1
  3
ACAD_XREC_ROUNDTRIP
360
DA6
  0
DICTIONARY
  5
24C
330
24B
100
AcDbDictionary
280
     1
281
     1
  3
ACAD_XREC_ROUNDTRIP
360
76D
  3
BUMPTILE
360
24E
  3
DIFFUSETILE
360
24D
  3
OPACITYTILE
360
251
  3
REFLECTIONTILE
360
250
  3
REFRACTIONTILE
360
252
  3
SPECULARTILE
360
24F
  0
DICTIONARY
  5
244
330
243
100
AcDbDictionary
280
     1
281
     1
  3
ACAD_XREC_ROUNDTRIP
360
76C
  3
BUMPTILE
360
246
  3
DIFFUSETILE
360
245
  3
OPACITYTILE
360
249
  3
REFLECTIONTILE
360
248
  3
REFRACTIONTILE
360
24A
  3
SPECULARTILE
360
247
  0
DICTIONARY
  5
254
330
253
100
AcDbDictionary
280
     1
281
     1
  3
ACAD_XREC_ROUNDTRIP
360
76E
  3
BUMPTILE
360
256
  3
DIFFUSETILE
360
255
  3
FBXASSET
360
D79
  3
OPACITYTILE
360
259
  3
REFLECTIONTILE
360
258
  3
REFRACTIONTILE
360
25A
  3
SPECULARTILE
360
257
  0
DICTIONARY
  5
AC2
330
AC1
100
AcDbDictionary
280
     1
281
     1
  3
ACAD_FIELD
360
AC3
  3
ACAD_XREC_ROUNDTRIP
360
DA8
  0
DICTIONARY
  5
AF6
330
A98
100
AcDbDictionary
280
     1
281
     1
  3
ACAD_XREC_ROUNDTRIP
360
DA5
  0
DICTIONARY
  5
767
330
26E
100
AcDbDictionary
280
     1
281
     1
  3
ACAD_ROUNDTRIP_2008_TABLESTYLE_CELLSTYLEMAP
360
DA4
  0
ACMDATAENTRYBLOCK
  5
7E4
102
{ACAD_REACTORS
330
7DB
102
}
330
7DB
100
AcmDataEntry
100
AcmDataEntryBlock
  0
DICTIONARY
  5
AB6
102
{ACAD_REACTORS
330
AB5
102
}
330
AB5
100
AcDbDictionary
280
     1
281
     1
  3
TEXT
360
AB7
  0
XRECORD
  5
DA7
102
{ACAD_REACTORS
330
AB5
102
}
330
AB5
100
AcDbXrecord
280
     1
102
DISPLAYNAME
  1
ASME Y14.35 - 1987
102
FLAGS
 90
        1
  0
XRECORD
  5
DA6
102
{ACAD_REACTORS
330
AF8
102
}
330
AF8
100
AcDbXrecord
280
     1
102
DISPLAYNAME
  1
Imperial24
102
FLAGS
 90
        0
  0
XRECORD
  5
76D
102
{ACAD_REACTORS
330
24C
102
}
330
24C
100
AcDbXrecord
280
     1
102
MATERIAL
148
0.0
149
0.0
149
0.0
 93
        0
 94
      127
282
     0
 72
     0
 77
     0
171
     0
175
     0
179
     0
273
     0
  0
XRECORD
  5
24E
102
{ACAD_REACTORS
330
24C
102
}
330
24C
100
AcDbXrecord
280
     1
270
     1
271
     1
  0
XRECORD
  5
24D
102
{ACAD_REACTORS
330
24C
102
}
330
24C
100
AcDbXrecord
280
     1
270
     1
271
     1
  0
XRECORD
  5
251
102
{ACAD_REACTORS
330
24C
102
}
330
24C
100
AcDbXrecord
280
     1
270
     1
271
     1
  0
XRECORD
  5
250
102
{ACAD_REACTORS
330
24C
102
}
330
24C
100
AcDbXrecord
280
     1
270
     1
271
     1
  0
XRECORD
  5
252
102
{ACAD_REACTORS
330
24C
102
}
330
24C
100
AcDbXrecord
280
     1
270
     1
271
     1
  0
XRECORD
  5
24F
102
{ACAD_REACTORS
330
24C
102
}
330
24C
100
AcDbXrecord
280
     1
270
     1
271
     1
  0
XRECORD
  5
76C
102
{ACAD_REACTORS
330
244
102
}
330
244
100
AcDbXrecord
280
     1
102
MATERIAL
148
0.0
149
0.0
149
0.0
 93
        0
 94
      127
282
     0
 72
     0
 77
     0
171
     0
175
     0
179
     0
273
     0
  0
XRECORD
  5
246
102
{ACAD_REACTORS
330
244
102
}
330
244
100
AcDbXrecord
280
     1
270
     1
271
     1
  0
XRECORD
  5
245
102
{ACAD_REACTORS
330
244
102
}
330
244
100
AcDbXrecord
280
     1
270
     1
271
     1
  0
XRECORD
  5
249
102
{ACAD_REACTORS
330
244
102
}
330
244
100
AcDbXrecord
280
     1
270
     1
271
     1
  0
XRECORD
  5
248
102
{ACAD_REACTORS
330
244
102
}
330
244
100
AcDbXrecord
280
     1
270
     1
271
     1
  0
XRECORD
  5
24A
102
{ACAD_REACTORS
330
244
102
}
330
244
100
AcDbXrecord
280
     1
270
     1
271
     1
  0
XRECORD
  5
247
102
{ACAD_REACTORS
330
244
102
}
330
244
100
AcDbXrecord
280
     1
270
     1
271
     1
  0
XRECORD
  5
76E
102
{ACAD_REACTORS
330
254
102
}
330
254
100
AcDbXrecord
280
     1
102
MATERIAL
148
0.0
149
0.0
149
0.0
 93
        0
 94
      127
282
     0
 72
     0
 77
     0
171
     0
175
     0
179
     0
273
     0
  0
XRECORD
  5
256
102
{ACAD_REACTORS
330
254
102
}
330
254
100
AcDbXrecord
280
     1
270
     1
271
     1
  0
XRECORD
  5
255
102
{ACAD_REACTORS
330
254
102
}
330
254
100
AcDbXrecord
280
     1
270
     1
271
     1
  0
XRECORD
  5
D79
102
{ACAD_REACTORS
330
254
102
}
330
254
100
AcDbXrecord
280
     1
 70
     1
 90
652598616
 71
     1
  1
CF991B87-936A-4AA8-BBB0-F2E1C0600DE6
311
504B030414000608080088537D4A75DC89892C010000A80100004F00000030443939463136322D353432452D343044322D383437342D3435303737314334454335372F4173736574446174612F446566696E6974696F6E4974657261746F7250726F706572746965732E62696E5D90CD4A03311485A3F8838882E05670E1C2
311
4D9C6426F313A14A3399B872A30F20E998690BE9B43433B8EDD257E803B9EB3BD57B69DD18F872C3C9C9CD49BE0921DBFD8025390056305F407D71AD5B4EEBF77AE266969CA0E2E723EBEF60158B5298A41454252CA3C2E8844AA315D55C7199E882C7263F04DF29A05D637BDF61CBD769A89DF7B675F33E5C81B0BFE37666
311
3BB8CBFA073C744608961540FE3602761AEF1261C82FC07E2E1E9F6D08AE1B444C4B697816D354C415154CC7B410B9A0226579CE4B5195691EBDB930EF97B50B5169A4E4AAC8A94CB22115C3614195528C9AB8E225CB18D3551675931EBFE61A638C5A3BF5118BF6113E16ED1864F2049C439E23A84DB36E50FB0130ED3D70
311
0CE040DF0DF830FA66D36C5043DF25F0DF978209DFBF5D2730EF7CBF504B030414000608080088537D4A8AB765EBF8000000300200004500000030443939463136322D353432452D343044322D383437342D3435303737314334454335372F4173736574446174612F496E7374616E636550726F706572746965732E62696E
311
EB606060F80F0540260323103700495E20ED9E9A975A94991C9C9C919A9BA802147076B3B43474B230D7B5343673D4357174B4D075727232D0753372357436303330707135634768046931363471713532B5D435353131D635313332D475727372D13534373670367376B67474B5042A03DBCBA019D37FE8ABC6157B20CD04
311
146B0062181F4C03F940F0C11EA29A8141C08141002C0426541C106CAC2CA046088033B02A030AC2157C6006F21A8018AAF50194E6010A610250382264E08660284CD9E98021862280A91564B406929A0FF62C401E28B6F88038B83CB1243943D7A928312F25350524432CB0012A1401621720FE594F581700504B03041400
311
0608080088537D4A88E57597CD3F0000904100006B00000030443939463136322D353432452D343044322D383437342D3435303737314334454335372F5265736F75726365732F43463939314238372D393336412D344141382D424242302D4632453143303630304445362F7468756D626E61696C2F302F67656E65726963
311
5F706E67355B773CD4FF1FBF73E71C0E67EF7576C9DEF3EC995D46C6A1EC5046649CBDF79E192942562825CE965D8A868C2842C8DE9FDFD1F7E7F138F7078FCF6B3F5FCFD7EBFDFEC41B196891913091804020321D6D7513FC77D8C5070EC3FFEE51B21F068154CC75D455CC028A3EA68992803810109FDDE5D5CEC5521B28
311
A1B422BF80741695D5B529DA1C2D058AD2388BDA9F476F7C2CADC939304173DBF48A452BF8A700C0C70C3D121C1AA15A5270C22E2B9E28763651F7DA0D12CE11077B2ECD0D560B5E3DE2368B1E65C5E1C87384A4CC5F2D9FB8BE39E9B77C753783A37998F5CEF1B4FEE553463245C9712270880DF339E0B882A6BA713D865F
311
6F384C842D440934EF264F4A304F8DE4EEFA1E2BF5E2D91F5ADD9613D6E31DDB33ED31DB1D7916CAF091286EA3D31B9CFECB78BB0060245B943C4C040119FF780A74DD308BA9D028678674EB5504ECF284EE814DAED07440BAF649BE4B55DA2890F4D73E2D489A59EE54FDB0A85B59F2F52C4858A02705C4815A792B0C4A99
311
6A2023ECB195073E115E3E3647F64243A8338F2000BCB58DA5692C7E7C3D413F963FEDF3CF00FBB0F831A9D51360FECA43819F527B89FA260EB63C5DA676830AA3626A3693B23F1A17A0DFFCE3EE164E31B5365EDF0C89EF64D8E38AB0BA9A1117D7C3A0EC44F44F4023095E80BA610DE336D0F99593A88BFC5306E72DF98F
311
7FD132ED95878DF2964EA7E43071359FD83B2BDF9C6B5BDF768F0F3C0FC351199526F53D9460A34511F75D1B63E488178569472C91A94497807A3FD4A390C6558F26D416365C3656DE6E769DA9D8FC73774E1709812842DD8EF96AED1960F79D21B395CDDFE6F92CB4EB962A4668C76990E2EF29798C8941D67DA50F4A5F94
311
7872460F1F6FDB794E8A29FD7AC0C0D6E0714339CE258FB17AE8535221E3464A10F29A0BE5EEECEFC5675926A89F49EB14E5711894F6586DB5754EB4D5DA9C6437EBA57DB97A24F8B8A8DB295FFD73266CF57E82694DF5166DDF93573AFE9C9C5EB05F8FEF8E89E0A8917B0B3724DB7BEBB53252581EFC3E38166BA131A3A5
311
B42FE2AD00A769BBFA4458D2DE7822F8C4F63D0B8E21B285AE13325F3410A435C648C9D91FDEB109E73CEDA7BC796961AF79175E1A3CE4C5E8B0D009B0C9E29EFD98BC8E97554E3D8D838424E270F7685226E5AC268E021EDE3522D583E8F20C0BDE2959EF5BBFEEDAB32FE9A3ED0E39F211A86AA9DEBFC68182EDED132AB8
311
BB794442D2D7EA9F4D8BFF52BC4D55BB165124EE90A42D101E67BBBB292FFB4F66DE5BF2300E44546757DA7CEF8932BFC9F92A0707953491A55C5A5ACEDABD9FA1AEA01BAC3DC5A24E22E7C47213493996EFBC369D086ED9397C9BA6C7F9855C7BD5E15BFC8C53DB3D2A4C5901A57ACD2FBDF4D1676E95338B2C2BCE65FDA4
311
C64F5FEFDC7D9CA5AA1FCF11E193F2FDABF0F4916BF13FB916A224380E6462A9815F2300DC49CC4DF8D055CEF76462F4B7A7ACA7365C2707891370BC1D0AA6203C44CCAB47084FEC057F27FFCD57F89B8B9852459798A675C66BD7CE572CAF71FF7E6D7ECF7BF62CAB7B3F1107DCD04DC55A3F9961700286141C94A4F771FE
311
B2BCDA2DDEE0CB0BAE402FF1DB0100F8E475DFFFC074DDB4498AB7D186A7654DDB1CB680D703D47CEB4E72F8CB13D86A4AA68116E26387B93FD6738779B34FEDB8E517EDF2BAF28D9BE93A1D3A164320E07D42E514725C29515FF361754213EDE06B079A2E99EB1CA82A02019EADEEB87B9AF005BD04BBCECB14AACD6B24EF
311
BE482194A97DD32400685FF1FEF1544D1B14EFB1E7F08E6D2CD2AF52DE757F35F5E62332EE88EA26417AD5C3E0E319D68F25414E6D672BD4522B278C57D18F0113921C71D96527E091F00CEB15AE23D24667369BD3CEFA10C7549D930890BA4366F4EBC55F01F746109F98ABCDD5A3EE06619C6AD78AB33E48E4C9BD21BF74
311
78B385EC05C4F8987E2C1BFA0A60EBEDAA0AE0B015C2720ECE180FB6F2DEFBEB822D96338C9B63822183BBF52FB664A7AE57003AABCE512BF77E7E31BDA2E739AC4C131657DDFE5225E900FB56CC01CDE808FA4A9C9DA16AC679656BB64796283D89812B8F91136AE18EE5EBBAF47A73BE3C153EB5D4CD491B4BFB4FE690A4
311
CF9ABA08C0D8AA64220C438C96EA6CA80B58FE5761E697B3A292EB9FBDA502FA863E49FE694ADDFFF9D62C520BDD1A22014147A0903A05B9B729F54272EF83931FEEC057BFF8C8055C279EAC5C0011804828734024F6CFA319C9CC6867C727184465CD9BB7ED386AFFD96B294A85E3802FAE47244602D8273615952B98C4F2
311
3F7EAE4463D9D638EEE374A20959E0FE519C4CFB0FBFE5DD80C2AA3F9DB961D1BDE57E67C9BB47B77FDD74EE3094F5DBBE3EBC1FBDB7393F5116263009E2EFE1AF9A221B2AE234C902BF70E9F280ED23E73908361565964333A3F01D0B006AF32FB21AA1316744B489D5A198E85299241735BE559675130955C902A8ED761F
311
C0DBE337A9F91919AF5CE32AF902ADF9AB2615E00E8A94586BA1A90839B61832FF1BFB76D2EFADE6DB1BA04CCAD3DA649E7E2A0219F592E22F2AD54847EEA8E42271011E9074F8F3DD9FBA6CDF88FFC9FC7E811AD1CA8F4557CE4AFC7BBEDCF0114A48689F20A584520C74DA8127124B767E2FB91A6B186246727BE63C9445
311
BAE02088D58B8EFDC0F1072407CD9B89A13F6303B4A928F593AD489B58E6869325790ADC406036C591729FE14021F94B7796BB11848D463536A092A26F077F94639F7CEEE2A724C66EC885F4A24F8B8A0AC321F8FD149BA529460FAA34E4663C02D41FDF80BCA222D42F0ABFF8490F4FA74C673807C2051D8E467B47B61607
311
2860069A9A303ABA9B319D58404461401B0A0F9BE5E1E151C14BC33B32ABE03DDE91708DFAEB15E7C0D593C86BB7D7EC17BE56E57975F077BFD5525F3A1A361D584A75E08CF29FC7B44B2B3085014F3A5A14517377C3F6B8F37E59514C3B12F8AACDEDDA4DFC49BE5710101534CD6FB6DE15B50F11A09472AABA727F0C49D9
311
CB906B158030065F48EB3625E010CEC1D511D0053474B11E6A4F01C0D6EF1BED3A944FDEC70E0DDCDC756C86545910E0DAE3BE3AA9A404574C2995CD5CAF9549226BC94B4F4F0F5F9086F418F6B32346464610D8BC7391D3C3A3CCF04CFC1FB2A3A3170E369511868F14EEA4E5E438CC73DB1F3248AA94B6B2FF33B222FF3D
311
1E7BF146CAD229770158063BCE4F5391964DF62F7E52A7BE0EEA829C9E13C4C147D6F93FE59E111DAB5E4594D6F3CD1AD375EE039930EFE5AF2BB2D41C83C7DABD8C659BAFBE8FAB392CA634F3D15C1D945DB4588D2B0824A4EC928AAC565557CA2F0DAA588CA5BE30B3A8004F7BF005E96CBF891D7F18112A3619FDF530DC
311
8AA64954258E1811789B5189B49B4EB53F5F89F7D37523894F3EB57B373763C91E502F52CC99EB7BDDF933FC324C4FFC2561DFFA7339FAFDD0A4BFBE6D3A8FF9ED1FC49898139864602458968913181918F719CCF5A68B2EE9C1FF050E34E63107003B8120FA982C21B30A874E4F5E4B38D5A8290C4B8D9BE48A0BE31EA995
311
BDC37AC6DE90BA17D259DEF53605D55922FEB1855D915B659FBEB350EE0DFB2F9F766E1C84CC8964B75D08667445EAB966015F63A18A9E0A325C1B3DC628C0D3CB60F767FA93CC65F25458BD23C3B312716E5F40E5858AC06EBA9AB14F95DB99147B832069201541D09A0D856E12C629CF32683760EE855537D1901988D5EB
311
C156676C7DD51D7207CF3267AF1D76C2AD867315E44618015313A98B19941C696FED3461CAA9B5415F918556D7802EDACEFD6B2E45853A9735DFC9DBF7E440F9319F8B6805A973BCCDC76C069A9144E51F187EDCC12FC31B5DEAAF0A76137199B106EC84ADA6B6EE697D4E6A96E007417F4E880E8B1E89B4BCE9D81EF611E2
311
ED8F0C1A6C25F620FAFAAB656A7C42D464880E8AFAB0E0FC8EA38CA9A8AEEAEE3E4648BA4680270A89743CDD3E6C6CBF34B7B640EFA285ABC7EA0A1E28F3CC963D114A80123EE66D0AF7D5380EB41909B605AB4765B709B808590458157E69BA1378FEC4B48CAF6A730E3BE3C5EF2DD1A5EAF94B1DDE50CEB55DDFD7EE9A16
311
747FA4B223359FB1FCC69E1194892BABB93A1D5C4E807AC0EA2E30180811E77A2291F6E7F7FAA5E0F60215BC6024E48DE436C511F0628B8CA189982D4D83CCA17D305A7E923C37941CFDFDCD93ACAF735EF5F0E61BBD3E6C41A59B242790D3A3BAC7064DCD89AA2E37214EC839820949D5CAA31E240D2948E48F690298974A
311
96BA9A8432BC90F5071D6537C9666EA4564796B7AFFFA548077BEEA75F63083435074BA182F3699557397F71548383FDA8CA34D99B981E72835ECDA5DDDC151315173D05A21F651AAF8524E88209E2E7A737ED1045800CE3390050BCFB8BE588DF111617874C62575039CA588EEFDEFEFE319B739DE2EDC147092A262611E1
311
59650E787917885EF08F1F51B8F2D8A71D60B58B190FEF9541A1BE94BC19FEA50784DA1419FE4B0FB51B8D36B5FF8E1286FD8AF42B91E59A5F1CC4D60174E764045FD8C57B18209B217F89A62252BD20BE0E63E12B8E8F029FE19E0E8D0870F58721A557082250D5424F7909369376E41666C0EE77CD87CB283F661D5FB6D0
311
DA023CB67320A20DC7BE661E9E1BFE5463085C557DA1FF9BE835733766C3D139F2CF9E2208873AD0EB4814DE9E6BF2CAF81614D4D43906ED1C05A3265CABBFE192770FC2F64F940CB6B17B5F166F133C9AEEAD2641807C3E69515171DD74C4A85311513D6EC9530B3B601B6BA3EBFF3B5C3D2F7D69765141E345F75433953D
311
013ADDF8F6AA7DC3F4A7563FE5C7D367937E2900D7EAD0F9FC9A4A1A9B5BDF1FEF08532660C01C5D6DE22199AA774383E306DAB87E301ABB7D213887F9869D4942D0D71E94B27EDF216A318BD488D45DF84529EF575AF3C3938C0AAA0215B01994153E2054A0B894DA5C784980633AAD48576957CF4AEAEAFADC7C58736855
311
1C73DBE1E57C58AC713303A8BFC258BD04B51724459FF9E24C03A81E0E0679CEB9B348C0DC998FEB9C6D6EFA77D247CC8F92D3848599ED89A23218D0636465AD1CEEB7DC140D7426F83491C4E8E8281C2FB35240918FFECE880CA2A42D70E8B20B34DF5221C7DB0CF90ECCB9C745B37A47E9B716FF7A97B7A252C1F3814DC7
311
B1E1A7F72B8751D524EF7CAE45B0C73B3BE7D08ED39781B380DDFC9AA4A4749C9493DB5BAD07A6EA6C092FBD0E85DB004DF06B8C9D3089C5320187E4CE1846158C7EA7DDAE8AD9AFFF21AA3A1026BB06A259845E8232DEE62811A4DA9CEAB3A4887320B76E2AE5615EAB7BDF738CBDD01F1E64064BC13D9EC53576751CA8CA
311
CD58B3CEB0E6CA585BD089B2A59B9FC101403387AADBDBE70586B93D64BF3AD4453EF9C3B6A93817E8346991798601344F79A83C51F3D50F7BF2683A3605F51A72449489E0EE6169C749C60B1035651103AEE24D24E51A759C840DD3FC6504DA6FE107510E447B43461C79D22970B75DE5E1BD3007D1AFC619A4A4A69B5626
311
AF5E9B8374E20677F77E2F8E73DF868E8BEC7EBA7B6A75EEF7205E1AB9486CB642741D6E03FF13FCCEDB1C4AC129886268B01CDF4B124AF797CF784F3C6DEC97A17D4B558070A0F1C04DA4FF9BDBF34159AEFE958479824B3F58EBD1E19088A2AFDE501B6F2052368A3FD0E650A179EFAB1561E1D27527077136E652676C36
311
70F42DCB3352F48F6BC86D2C3B0051727E41A0A4DC6CE2BE9D47F5CAA2935A3C0539AF080665997194ABECD723B08129CC5B6B21D2E7D54CD4D12610E7E9FB8306771A89576C7A982002775ED44F3F744CF21EEBB27A631671D921938AAEE3EB0D19CD1E083727F607823E817BF599DCED5394E37EEBC2E88782E638920CA6
311
41EF74D4CDFCDEF06F4278ECB18E31E7E9876F2D783C8BF429C75395F57E98C2B495A3DA077EB3AC3C158608B6B57FE3EA48484D9A480096FCEE0DE880950E7E5A5714131C5C41AAA29FD19AE81AC145FA1B9E85C7169A5AB837B213493DF7E9AA4B5FBF9CDEB36EBD21EF1181B7CF7366AB2A951D01E37AF4EB835D1BE8C1
311
17CFBE7625D2EBCDB0B20C5A4B45CED0BCDE3EE8DA9DA78C2E21DEAAFFD1197E463C33CC6A80FB785669B856EFF7A8CCCA2841B5A5369173320B1170C368B2748D81062EA0296E5E2D95D7667A4A46D98A6FF475C76AAB0A8C8D45E226FAFC9FE0133EA9F60111F99CA81ACE03A1D14C89E8B0D69079C91464FA1D99E651D0
311
EAF606F345C42A8A1AA9BA391031582B96D5B4176A77AADB01F12FD298A75DEEBB2C82F0B8650E880722F8DDD90C56A7A058E5FDEF1AC93545BA27367C76F5D8F9690CB6F8DAE141EDD7971F0FB548A2AE435F224D6E5954CA155512F7332029D5A1230854B79F258EC5FFDB09F5F6343A8EB193229B7F7E79B3E48F8E1838
311
60B38C8269D1B53738FF1E0BACF6AADA6D4869E9DE708E79B5DADCC09B1BC76F649731CFAF59A83FD8BAE4C749D66FA87A3810D4D62FFE826FA400C0F325D2BC0F3CA35F5847B82A2ACC7961745C823E4D863D54460AF792CE6F79B5C7A33B25C3AEA6CDE15A919B6367D781E9D44F61BF828672594A3E1D9EDD6DF179A81F
311
27EAC05B936575D73E05C209DDD2115CFB705DF9BBF3C911589B3640735E9E618FC9C36A7326C82B2205E244C55D56FDB9D5DC93CE958D4BF8174D2B3DA54CB3C09F2C2A6DFF73D23B2197355761AD421EC581284A7EF8DE2CE3497C0C804D49B41DFD6A7360844E5BEFFB495CFCDB97A4595911CDBA623274CE852B5E278A
311
F0BEB1770E9D37CD977B2766A7DED0E94B840E1E95E8C77DE5CB6354AF7871427C28ADBEEF7BA0A28E19DE9ACD75F379FE373EAE6DDDAE3834692F9C2B03B4FCA8FCA9ABE8EEEBEBB725B88A7C90941E850682CA04061A7DF0CE82ED49BFAFFD42C309818FAE14755CAAE78B0F73243ECCCAD7DF58FCB9CDFAE7A4D3E6671A
311
613639130D056C8383C8F4FCF4808C331E544DD26E4755D09EA05253B3049A1E32587CC25D72E073E2CD96D04A71BBCB0038FEC3F53D254199C3CDC67CD66640269431860225392B2CB3ECD0B4498AAE78BA1994246AE1EE78F2EDFB79F6C6CB6B5E279C4D373FBC21CB2698C9ACBBEB6A4BB6B39E16AB0E421CCBFC7654D8
311
1ED86022F9BB522146F9F4772E2D0E4FA70120C95A85A417BF5078B232F4754363EB1750B2AC2148EB46B1EA72AD9B4D23ADCBC589D70106C3EC2ABEEED84DFE28E718C6C83502C28E9FDD3B09DA0A6F6F7B72B706A31C9E2A331EE70DA56A083D2177BFD63C55B11D8D949FAFCF90B23A1E24B9B5018B9A17E99F2890EC30
311
2F330FE7936E2C23F0D237EC8916F5166AB84B62A21BB0B950146962D754F92CC2C8877BED8FC7B7B25726DD19545392570B3A2C66B58F027BEF412E552D12A588C4A3CC5C3193FCB3485EFFF700D0B9EEC077754A33DC1FB9E25AF814628F91DDFECB667D3F7690803F38D13F8AE39353523BB08FC6760144AFA2CE28236F
311
65EDBB3D5F59A57D612B99E3D7E5F8A851666BF9B5A6658EFC96EEB37A378ABB0EB3FDDF1303AF32C41BD1C8560745D7BD81066B0D6313359CF488563D3BA3F8E2185D1FAA3EBA1397C9D0E3DD232180A4DCADB6AF25DB3AC3CC26589C8239E66E81547BC7E2F328F9884764CA37EB5DBE390DFC03A5246B456A7C3684C437
311
7D0EEF9A350680FA9A077E8B2957B489E09AB1AD41316944C2254B5984830F691C93CAA767EECF976FA5647538830B5E63236A6F0365C1E0F3E327F24FE35EDDBD7360B0F7374837409F7A6311BECC12B7026D4FA1AE204FA3F5FE904B1F420C7A9044AE58E403E7C4848E7DA25DC9EDAC79DD756FAA26B9EA83ACE8A214A2
311
612A22AFA19DAE7DBAC5F8CDE1292A485F98DAC731A29FE01A3966E96BCB9FB5A4C8830E1B9AF0C54B87FBE221A097036E5D28D1F869F810C06A9BB0AC0612F69AEBAF893C6E7AD59460208BAB3A6B09CA4F6BDDAB8CF0D1F84B72487498395A70DCD754796E271099A567A55CF242BBED64696378BB6CF25EF0FCDB589F3A
311
82F1116D010A9AB9FA4358809EE0C973A2B4229BAA876A70B03AB49CBA7FBE71DB1832FFD32F9BF2C8E98075CACAFB36921235D0F552B6A67E94E094097A5D7DF681B40623DA535ADA7A9AD8E9A62407D7C9A5AE51D62A17A83A23728DE86BB56115804D3F2675F2C6B87541A0FC497BF0CA86420F558C9859EBE9FAD62747
311
E323E3AADC03FDCDDFE7407B09DA90B44E3185723C5381EAEF589765E2F7A099BA46695BAD60CEF3491B8A171F5F56444F7CE9455312C3498C74173AEA0214EC029833B34B650CBB5A5508D5091665309642791708ECF27CF11DB3D797D6CFE474453BD4BFADB768094B2147814D81C7CBAF8228DCAF5564B5891F5EF6A860
311
EB2E323CB82AB868D8EA048880D63B0DE5341F1B3D53297B928A11E15F25E5148990F710747C3509ED14909C552EBE3973246FCE55D00564D8310BC3EBC5085D08D806799B77D6C57FDF5E55837F9E934F09C03C729271B64F12D0A9F9E938107CAF7BF1EC8CF1BB9B42363D33070F4CACB425E605DDB0A34A12BB936DE286
311
B9887A4E2E558F0886498BFF49C311D96C277CF6A9FC0D75AD0ECC5226D7E0E3572012E56D7FDE4410CEC7A6D0F997F225A2055B8B92E3956E875AE4993CB3D4C9063AF98FD45E1BAB165640A43439A2C9181A7C355B297C0A0CCFFAE19B6FA3C2BA238A885FBC98B8F6DAF4B94B97304878DF4D8BFF6A4AEDF79E90ED4E68
311
F00CD7299F4E0D83E35601AF0CBEF18C1E870E74758FA91F5131075004DB3CFCF09AE1DABC11957FD9808C92E8A678CE9DBE40DDA0E0D1D505AAFBCBA208232BFB6FB3704E8985E61ADE53DE74152F5C7DE74B1DEDCD37DC3E8FB30D7EBA8B9EFFC3606BF90B8D438279CB7709FC7C00D327F41817EEA71CD9E49FE9C8C9A8
311
1C70915D9F0F15958EC5AA4C3BBFAF46986B90F188BDB24B89DE3C6F29EC3E6F66D84856EE96A35E657CA41B41EFD8DBFA16AD6E91439EA92B40B21C053249F51AE50EB0B24C770FFAF40DF12C8436366819C48E36547D4E7B72FE2BBF10828583057814A668BDF183F6B2E58DFB151103E56303E63D00F39C27C4661605DB
311
644D19175D02E3F0241E8FC3458D17AAAADB117CE9EEA690D0DB01E634878C04C2C9310B69FCAB831151E3AD293BEF6E46B0ABCECB50F5939B39C613D41E81FAE8D34CAE3C4566B761D37185FE864AC32FCB71AEF39DAA5BAB88609BB980CD2F07A8F941653B529567726E2B2A58D079DD57E1E5E31426CF184A04D7B03B98
311
5F276D47406AF276FE32E3328BA866EB1FD39BEF57863A317634AA5FE467409B3873F5069EF0D71AF00AD189D17BA1974ECDB2D623E9E14086386A6AAB5807825C37B015BFE892AFD154920EC437EB945D958E18622E1E0FE2FA06557CE4BB9BBD05A2D40E774DA2B65473791E314B7D6C886820B2FCFE4AA272B3B8B15E73
311
44A145E8AF919B5454D89D36D413E87211186BF6F645E5EC94DCCE8E1C799022E4EC9BC86D7A0F2AFB1FC4B2CE48F84B3F49ECE65BAD24CADCC07EFF39AB06BE9E6B27A059938EA7208838455383DDBCFCD967DDE4650EF92A14FF933C975DB20BD7FEEBC4487576485963D757D16340D9599FEB362F775F38CA4185A86F74
311
B629C81B133644A3B18FD056E997E0734F9BE26D11C0AAFC669E2AC9FC41D281F8B2E1C35AE27BCE05F3DA295488096688719D974DF1B5D182DB7792288697F8763CFB43562C1CDEE11C4AABD5C22B6E33F6F389CFC3477C5919DC0D533F8A7A1846B7ADB60ABDC26C43D0CFC8910B7C15EE22675BD02702ED39DB77A87A19
311
2CA7A543E6205B979B9F5A6B512A3CA799E198B2D5797C0AF8D1D872CA455D4D431A7879D4DD76110B5FF7F4176B54477A9EB5E4A5D11214FDA585F0382751D8E2582BA5D2075053298FEB8F1537304E32CB22C2E2B693DC0A760B1DFCA751BDC445AFDCBB12820ED85F6D5298933C7EF1211E9E057684056CDA3FEF3BB605
311
2355E162DF27C59E965A8DDB7F9437EB72CDDA3A090DE65A5B2F50326247B7EC67B73ACC7047FC9B353D6EE990F772207C6EC52B39DC2F3C0754821DAB559F7C1809C7D0DD5B0499D0442E0A6E391B3D5DB46D11E731E6794EC77523FBDAA242ED67F9FA1FB684255671F63C9BCFE6E7E896D51001A6113EF2298BA494E0B0
311
980D1FA5B9D60796554C02256B1E0345FB7C6186B6A19D2DCA270416262845FA4F42DB5D9B0A0B6F07FCA2E56C242522E001E0CEB734AF310FC8BFB57E38E03AACE93B3326A2197891E68452B26A6307FDABFEE0223D3C03C3C73D2D5BC054C8311F12004CAE488E5C29287F8156A2CAA4AD0D7BE6B97264E4139F437CE73A
311
DF52E5134C52B819777C18B323A5924E4F67AFD13B1CDC3A61793A79FAF5C0CEB718E441071E797C6DCCB9EFCF7E4A1E9F3DF3C2F9C9E8294E9586868788C972857FB0556D7A26941A7EEB9B580AD78EC40B85DC906B4120A563CA3B87797ED612D3B035962BB75F6515A393F4CB057F564CDF54F2E5A024514E6A1F901DB8
311
0C7E70B1FC05E356A7E72FABF4775B3E3FB8F70A2A8E7B6A94542BB304157978CCC999E707A29CC795E67A59CC546A5D47B368954CA7B6E75EC9E1F6FC73CE3B4F71F8CB1A6B15923D61EAAEB14626AAA9D04A26EB9C66CD1BE86CA31A5D8703DE04CD1EBCE4F5CCB62F93909AD11E55799A781A956ED27D3E738F4538CB04
311
ADABC7DAEF20BC35BA6A90BCC1DC61BA05F20D8832FFB9BC9B15E2DB838A0AFBB7E0C82A562127E0446894F427794C3037186F622BF24DE1B00AA10A23BFA47B2A180D6DA5AD6F7326FEB8C100C2D7142EB2A0B2A9D1008A09BA343D70E054AB69E2A7EDB783CBD92537FAF4A44D1296AC2792729104B3276C276C951D0CF3
311
CF3F1E6B017720A7B8505A5FF9589365979678C36F1BAF759EAF57C60F1FF5FE9DCF5F8E764FF25A2D06CF25117A8FED51884C13B2B750DB0E4F5E3D64124FCF11F0AD8F1CC3B3DA4B38ED22BF1CB2585EE6BFEBBA63FBFD44F9537B9B37BDD6B358720F98A8125AED4349CCFEB0E135F19E208A04CA7E2B10711185D72E38
311
1F448036EF57C9F874E54A971CA37A639E986AC0226DC5AA00D5B14FEA9192234B3DE617814FC221C92F33F1D392F297731B567FD98FD91D989379AF567A65B8ADF177591DB90FBEA99BF4ED11B16E50A0AB1DBF1156D034BBE04D69D08F939D8E92BF525A1DDAFF80ECBC95D8F45D3FDD289FD23F7D8B452F8EBB34EC082D
311
EEE68E18EDDF072060FAD2AB1504DD4879BF67099FC58F6E9DEFBF645D16334A3E9A127C6F1AF6132CF287E433B43A0EE93812B4AA0B194E03EE3FF91EF9C6ED0074A2F6EB18A96A7C9890B1FCDA1F2095E944DB911ED54C60DF16FB74C8CE9BDC7C54C4F14078CF73C2FFF1F1BBCCD7CF64F71407EA1683DBC410D226627F
311
66E509060D5C0AFD611DE681D509DB8DD12FB1265B03C6F5C55FF4C30BD94187FF692B4F152982502F193098A789526A038AB529A52BC0DC4FB6285CBAC10A8B8DB75DCD9BDABBB221E27D1F8DA9F5EE5926A1C8AA9BA9BC09239C6A7F12914EA3B59EFF7AAEC3FFCCE56F1C5C2980AD072793527565E774F4631DB178CEEC
311
691B1F367BEA0CF2907E1D6B854D527065979DDEF002D8B2ACEA7CE21AE297737EDE1D45B31233B73FEA35BCFDD0B09721FDBAF6432681F2FD10C3E9EFB246FD6E854B344ACC9D8A0EEF876A7314B49B6A499FC650B099D650DBFEC7638ADFD245E2B7839DA5AC5F7D5623FC0ECEEC8653FC9B2BDD1AD4D00A566FBA7186DD
311
3C9CD26512551637498CADB950FEC71ADB9A5524285DE328B8EC7EC75D2345AEC6A27C42AF6D9B92155315C80DBFCABBB7DA0FAE425C4FB896B15C9BFAC4FE67DF5A23D30C93DA4D8F36FB15D100050DA6062E22AEC5F4DAC4F6FEEF97AE05DE63C6D38F9E068A20BC5E3B6BCD75320C5090924E7F93640A7735B1A43451C2
311
D91EE62C6238B797349E59890AF3A520DF4A87095F3ABEC2E61F0593416CE46CDCBE0E00E2523FCCD04408588B5B6C9DB6459C786CE378770B54F51DA3A5E1DF2A3349BEAAC234A6CF8993B598B3B25B4B113E353A4D750FA7534749430F3EBF2512E7EA3FD43C6AB9A1F765A58463B306721A15D224FAFE8C6F5E3432D57E
311
E697DA0DD5A9D4866A8BCCAAA9DFF1F06047851408FEC060471D0E3EB86BFAF46E4B5E60311DC3E3CEA147C75CF971BE74689507154FF2D2E92F15CDB2B9182B11459FD8ACAC5A85F174BC94A7F4EE4C4F5CAFA7C02E37BF0BC77B7DCD0C047BC316F562A01A441AFA7931CC84A28CB9F4AA367EB515778F29BFE61195FA67
311
1F4352E5E46E3A64773F1F76EE5EB36D7BCE9BCEAD837A4D77F8DB8C92AEEF6711920D7C7D0F76B0FD0EB7AB83724CD35BCA7D36DDDF5FBB7FF6F04A91F3E2BB3B8F1A43CD659639507FF6331C5F697BCC782AE57D757A27D97F1AB9E0AEDB43F92F1B2AACDF5FEC8ADBAF9F814E2027003BA2F9E144B1938A7A04050AE5D9
311
53B82C45619165C813A10E76DD6906B3C16438064D14CDA713AEC420034613E1AC7241904A49FBF87409AFB1FCB9B72FE7933A87D8FBEDACECE4EDCF6A4FE9FB94D5DEB74FAB7CFEAE17EE965DF980DCCA2D04134994F9A2E94D2265DA4FE6AA7B7AC15FACAC2B5ABBCD7DFF542C5314FDAB2E1B9D8B65220B8E2B638BE008
311
E8DCA22678C820C5053664D15E89F2D735B51A84955E81A443545E9FF787BE0FA700A76D136C27DA179A7C6E8939E01BE756E19CB292798063D8B97F44E8A27BCF3A614FEB8BE974A718E86F7EC99B53CA35FA24F61F2B07266684623A3D4CF073E511F3A10A8FDAFAF0078C577F4DF9D339FE7862E5FA47CF4344209E5BF7
311
6D783B1B48E152AD281B15FCB934DCDA49CEC5706B1EE8B460F435324A5CAD154725E21AB8044B75A557A79F6C807B9340AA3D92503E866F4274412926C8C504E4D5EF8C0E68DD0B028781A6B4054F11CF18941F101C57CCC796773ABC8DED9CD91FE5788806C05E548895354AEAC96546D55B0E94A59F148D061F42AA398D
311
822CDECA4CDE79E13469BDCC44FDC990F366BA5978C15F97ED80CBFD73B0CD9B8B83A4F6845BDFBFAF034019473FB9A63BD55D3A4A7284757071574029A4D016DCCBE95DD679EF3C4880BF169422F8C89B68A988D2B13793CAED4F74DE7486C72DC94DF46B8E93D8E02EFCB1FF9B3BA10C8AE7F653DF94F4AF466CDDCEF577
311
6687F7C4C14B63E4EED1719DC2EC482D7DBCC7AE518CDE3D5FF86D39000EC3673C0044E1D308BF05F74D1B5F033A7D1BE7F74BC55BBE3E4A20F920946CA0271EB17BD2B80E5660ACB8A29A79F5E4BBA49D4D945B6EEF4A7EFEAA65E5555BBB57A7E15D2F83C69F30BBB978D2B39F1F26FC097424D39BB33CA3D87ABF64E307
311
938B685BAD44F71556A30B7E712CA4FE600613C3E554B69ADE949A7CFE214DF1FFF05CB82151EC6FC31950239F94CF7AD39DC473F6EA356E5EC2C4EFA04383CEFE985A127484366FBEE3C0EC4FEA363E4F6632AE781392FD45D67B63FB8DF70E82734F431FD3443172A0E30A83D60982D55FA6A2CF86DBA8382502ACC6CDEF
311
3B907982EED1160E14863FA242F9757347E1544275CCDCF71ECD5F8621CBEA326B8BA884AD7F825781923E66971F04010D574C541D8427A438A37EEF8AF88240EED7362C953F5A81DE2D56109CDE2524EA0F5D2F87308C0C47BD97AD605878AB8589E17CA83930CB5E0DCCD75853D68B1AB136594926DE426C367428E9334A
311
FAFF90ECE221BB5DC9E5BB53D2CDEF954EAA9CD814F0E5725F1965DD458E5F8487683AD86B9D0076BE3EE91EB1CECC5331A67A3F79D8B27587C12EC2A6A70474749F27B4C0BBAFB94B34189E88DC18964BE4121B9137FD516C7755356E50D6714E31ACD222621EBBCD1CFF81D87479056A9DA0E0B8EA19D24CF937DA89F78E
311
8650CCBDC110AAB6C4E46DCBFD0446BA9E2060E81F314AC2031E88135E5476AC0160EF5C0DD2EEF1B8B5CB2D198BE9A554A9093B5F7D7E4B5407DDFCA1D9C152FD97F55BFFFDFE802954DFEC8995B983E28AC92F1971E28F531DC407A1280EB125F64A72E617EFB27DFBCEDCDA2D6F2BDADA36873EE46B9BE1782998C63DA7
311
182BC383FB6FD15DA472B175D7E8B4FC88F38D6E07FEAA3FA3CBB8F6B449ECF14D2175E5C5CCA3A42ABF24CA6C9395AF74535F4DDB38CB84F56614B0FD32D7E19CA5CF988DB4449C40E23DF2B16772594554579094450F56F253CD25EA7F77366FB1CFE79696C428BB64D5A41E986189427E5E4D7E2DAE3D5BB4972B3DC44E
311
AABDDDD63A2264ECFA5C786EB0EE1FDC5BE34FA0F08376869FD1E61EA06CAE15191135445EE8F0394161C3266A596AA035572BB0C8876180D8B9C77D307DF9DCDF7365ABDA6F3A2366436457A4DFC1F259666569A9E4A79C817BDD5610E5200FCE894A358EC72858D50EF67545DA81C6FACE3D457BAF70367E1E6BDD9A952F
311
B4F56247F58F523B97E640246051A72F79BE42FFA0B3187F63097F91C48B868586F714B0EBD5A00A8412C1236E1298F60C72BE6C96B82B404CADAA304AE9F303176B14BA53FBC2D5E86377E35542019E24D97B96A49B2C0E5006E7795954DEAF5DA58958839043C6C70BD3B1B33B6DC5C31316D8A6923F142E26F6711A2258
311
AF977DDF1F970ECC4F1F2B434B96D81BEB6E89BF3BBB3C7C8CC80505070723D6D7D7D3C8CA27CA164A26024FED94B12A86031867241DA53D929636DA600F050BC40CE48B8BA03D69224720DEE2ED2127390BDF5E6EA64527BBD4C4C63FA76BB801FEEC0E61218EC98A8A86CD8313781617877E66692839B9468CF4DB8E50A7
311
3986E558E309C0D6F676F921BE02F1185454DC75B111572FF9D27D85EA14C05AD7271225B391C4275659CA4A43759D0BA44639BE4C30A84DB7F67A41399FB95CBF923B1B1672ABC807C1590557FB18D811983FA97F5E609516D62281D38B1281F68FC75528C35E4CD7DF0F7DBB5E5DD69C414EBEA2F4A5B241B996BA77AE6C
311
772E367408C633EA3E438B68563EA8BE7667F3A4C4FDEEA52ABD78A2820F443B7914A15F180018D231E64519C56A12F6CA7C8DAE18F06F6B769DBF92329EF6A5D18FBCE600F36BD8E8198DE5CDAA96181F3A756EBA5501CEE58F497EA4F418A2B82565B9BCC611713C0B708CCA1F398B78C5F7D03B3437CC18F13061F55C7B
311
EDADD5ACB1DB0E36D3CE47FF6EA1A563A57E9649EA5D14D1A50EAA457463381C073777EF1600607BAF6428A7DDC079D47A204EF1E1F1F0589FB054D45E02CE623B3823C317C601E589E22B1E88B448524B86A82828E32345EC18AE17214B42F8C41C6D428016D9BA31DDCB47572561E5A402E5BA4FCE55F78AF7268524AA04
311
130F3A20BA5D1E9F9948EA48FC8F5314FDB35E21898198060034ACE5E3E2BBCA34092518F275190AF65F45867FF0900AA4B81F25427414C372BF51DC29AA855C5428EE1EEDD6B849AD60F6E73475C2D2523F8A2772C840A478DED18A8C5C91B085F255DC4F54EA7AA8947354FD17ECF8FB3B4A0DE7B483CAF3A1165EE05BBA
311
413E5C1FEF3DE1D6B8F2F3F3251C17D9FCAB48A9AAF63AC773A0E413BBC46A9ADF84A566FC920E4D8C52C9769EE3301CADEEEDD92B312E02E2A7E35B7F1E7D203FE5A7D75578B06E99D0E46FFADB8FDA17ED8880390DA29094202D6F645F76F6F96409CDA05495A96E84B04A00D1A6C6C81D7F3DE9376E828CCF144EE50E36
311
4ACCE7237EA0BFB5607ED1AC3CFE73794E5B61739D14DF1743441B1AC98F00ECEDE9E7301FA29755FBEFA68C91EF2B314CF510537EF1ABFC9A762496280B546F5EDAAF8A5B387D469FC9A878A92828C88608453ACEC6094DCA54111E7AD5B2663DFE2DD151B7F123B9F4FEF8EE36AB125FD7AD52A59B1B765B3E3F73E3F73D
311
EA93875004D2AFFE3CDE9493B87A9904DD052028949041A91DC0E1BA47BA714343FD5B25E0A6A09503AFC17C790058A836A324FE31D7893512E28230332F153181C1E018E1124EBE1BA262AA428A518237D1EA7275E48C5C561BD19ED6912EDD8367DA0F31E40EEAE9683DA9257525AEA7B632B97119E17145A90231768A4F
311
3B9120FF32E8319B015E3CBE26F1A754177D8185345817C096B0CE443A955D13AC15E1FB5DEEA0239EC32A3C92241A237B0B02FFCB4F93CF2B02570C8D192E2F2A68CEEB42F12E6F8CEEFF46C251E22B4341C56FB08CCE550E7A9D6F4D6564B9EA52A83D5BF2C6E03FA19D2775E15A8A7ACF30A13C259EE7F5EF2AC3BA354F
311
1500E1A07FC63FB4686E2F12EC69719F9ECF5FE3F35598DF2CE944008CE78F0911BA5BE5D0A34E0098FF038669C26030BA9B300303039852A8F6F496341737CA7E0D2E3AAA36DE0A70AA7D9CA0D54D9AD84B18A44C9E625475E1C97B93BEBB38DCE7D227E67A2D00F531436136355F243D1FC0D712C5765754FA22FCFFAE97
311
919161F46D6E61ACB37D83777B385889770B50765B127768443A5C4D3A4E35A3151111F146B7CA116F918A049F1C272F2CD7976C69A0068773451659A97E0F4A08FE604C3FF6CE7385DB19F4D3ABC8A0D80DA8A42096AC377DB49382B36E270B6FA7570188B4B7D1DDDDA82ACA487CCA5D38BD3BD039ADBAFA4ACFF2780923
311
9B722081E2EB9F145320553D183F28471C388BC8814E5045676767AB58A8E72D1CED2CA731379515D2E533E4CF0B39DFC625F97AC4836831A4DE330E87A8126FA17EBE583D614E71E22A8DBF2825599743E0640037303E8E1B1E8EA4E1ABFA4F62907B5E4E0E5DCFDAB417C36C6848A2B8D15F1E505434C0707E16B1CFC2A1
311
C36A42BBF55734F8F4301DDC2A5110CEE8C0747F69519265012A2174BF4E955ECD4FDE095A3ABC70536B7AD0B9D7892F81287D667C108703C9B66A221E9A0929D030008F77FF6F5D2108EF5706FC87A3069B976F7C9FC3239D13D283CDEA83597461079FEEE049B0F392889898B7D87D31F8D60ED7B56B91823A8E4EDDB36C
311
6172ECEE42BD42B12CD67994FA0F0DFAE9389356F4CD4425A4B8AA55CBF7ECD585C6A2C2316791E43D5C06841ADBB226A87FD61515FFBB0167B74E56BD7F3E90A57A97FEDCBDF483A0D6699A8C0849CAEB4947FAA90D8E332D9DEBD9F4738C37DA0CAF9CF3DAA68BCB67C420459C7A64498D6E848E5CADE92BB6901F607AA3
311
31104A67F7CD650EE169B1DAE94D2C31C2F993632259B6957E246EFE4C5481107B07118607700040E5812A2A2A38DA0076875258C753F60E0F2662C748EDD5F3F3686B8FC3BD6FE631ECCAA1E8B1C1E565AD117E54893E79F4672E32F9E46B2A183DFDCF3EECB4D4D077DBEA0DA254D256045109670050129E9B9B1A9E4A11
311
344D61497A992778095151510C4BB7EF2009B63AA4360635312E4CF668B7E0D3D85A8688E2BD83B569439892ADB63461930D428E0DE42E4AC57CE48DA5CC1449530D8BD3D6A0F08DF20C8E8F570F2CFFFCEA286E30969B4654D498A58D9DA782E19FE3F002181838925592C4A1EF0B332D88B61A92C644547BED490D3A42CF
311
FAB70E36D961F694F6307F72FF15A1C79D5B1B5CEFD353D9E2B52566DEC8F8F09CB3E8359C0F68EBBB7898243E34E12A015B2685AB303C04D3A9E00671FF3DFF0A184E4A2ABEB2B666AF5B3A209C73D8EF29DCDB069C9F391EEE9DD0F74C7BCDE16F8F02E3B8816122BBEB50665775B600549D8BB33A54A6BF940C028118BC
311
6878C79958D6784F9DEAA6E26748386FFAF8D0D0101E2847B6563F5D8DC1D78F787BE00E2C941AE12148D4A81599FE8F68D4DA5CDED75530ADE138240300EE13B0FC13A1687FED6774662C05A2B7DFB186732F0D7A93545D8B0A6390AE5054D9CB582DA846D7A061B3358B45E2B52DDE63E114397EDB7E09233A579155D795
311
BE76102CF277F4DF8B188C4F2879BEAE3C08347124BF9ED23B128259FE107D31E34A652F090B30B39E0D9AF917B76A2806135621A8A60681F16AF216514BBD02711585B5B1AE823F4B2D0369EA5B6BCB863072727FFC871CA6C9AB79A814D989057E9470A3D238BC87CBB4A0EA49AFE2B86F22E499793CAA9047080450166B
311
DC357524561E258C77CB697F1ABB32562CF87C3B7AA12F911EF19FB3E5C02222E887D08202A60A17151F5E053A86B437771088B4FEE14D652C43E8D939995D34545E12E2FF93D4E366EAD25F10CB7DED141563C3D0C447AF06078A91135FD4B9611583CB4BF3BD167F2399CEAB0E0100F8FFC305F00F1711717173138B4B48
311
C83022295DE657EFEDD97F238ECA80F528AFB4F8D67AD4E2594B9A3AA86D7487EFC313BA95745C186F0CDD84CC12DC9CB0424B42203D351FD9C0A3AF10CC7F388E0329279087386421F194F4A29464C1DEF7EF8BE515E4A199DCD5B909342598D8FE6A231F71336248D5CEC5454455C7BE383B3BC7B260FED27F703FDC39A1
311
70F3827239102F59D4DEE7FEF82EAA1A5E4BA94DCC4CC44E7E2EDE20F24244E4454369D2E87C3F823F193FD4FD27E1C23984B01898D15ABC20711A8A558054951A6AE280096BA36CBA439603B7B0B4C45F248C14B2383B4B5CD8ECECE4FF859AD4A6CA2326D020EF090F4041D28DB66E5256B56232CC52829DE8060BAE6BBF
311
37D4B7469B822454FE93210A3E8D15E69FFCF01123222611C51C4FD0A041A0CFA2471CF6BE38D2B20FA4C3525B5B8B586759475CF80ADFE67A284AC24651E52B8E683D24C2622642F27E7C3C22783BCF63648BC398BD6CD0D9C97E7E7E3EACB6126DB7A6C1FD9F1031302EE67ED96F22B77C7CA0239BB324207559B105E469
311
3EB26EC46182A92C9C0DBD24F29B31C5C5AC1F84300E0E17CEEAC15F5736FA4A98971E2F1423BFCD68D4BBD5F86E74B40A369F39507C88FCDB35D2DD8DEBEA4AF999E23CF2816D204200DF6E611781B9884C1AC8888B4DE397320472959434323A5A36B22A8E1F721A270DF3BD65E4A31C11FF048AFB0D8B7B688142379396
311
3A23CFCE935FC189ED36FAE35C46DA3574C979E4394BE52084F3081837BE033396D2EBD80F1F691B273F660D2B32FA27A33B1DE4ADA5F0FA4651511102DFA410DDA86E065272CA314D5249DF91B06BB92807B28EFD54F08F7B525252782CD276DD02E6B0319B13DF87B1F6361AD6B28FC0D711CF445429B9E5A433CD493051
311
C49A9E03DDB1B147D880253514A5DED88009018620EE229101C041950E2D8AA8E1F5F5438E0C0C0C60EEDEE9E3E0C051948C69F84BB7B2A48A1F3C8EB9E6864687F4F4F6F6E2FA87608ADAF9C5E117B7C1A737E710769DA1D15ECE6A84502AA855398712D5FB51BE92E4EF824969CE18278798AC303C2C7980DD2500ADF8FB
311
1E6D6C2FAAFF9987178923334A244758BAA01A9A1B70FA5097D01E1CC2A58DAD0EC94CE6430AA9B0C10D75E3C6BAC670EFBADEE1607739CE0FC18A2587E3EC3058562014C64219C69BC269082D5C2F4A659278D585755912176D78A1B641719C2A394CED495A1AC5D583FD2F5EDD93308EA7EAE8A6DD396598BDBD3D4CFED6
311
2D18A5BDFDE0DD5C80D1A89BA62697B131AE7CE9A6594138582F1B37D68F1749AC7CB67A70695D48A4A056AC1FBD4E82358CEAE38F54B95A9016F9000F9879C0D9D131768635CA798895F27D6F1614F11F2838A83611AA51C9A3DDB539D42979C29F10465655C17BEC3E2760B80DCBF609198C7B171A531905F3EC218D6960
311
25975E986C6B4C666666787271F202805577DD5A3EF0CAFAF91B62DC4B2DB4217A7606282F31D8DDBC290593BAA93EA6353AFA9939B877978481E15CFC9F2755CDC00C538F63A4BA3E80AE009B73CA0185687D339A507D165B74290D6EE46D5C58148F020C3668ABE9EF2F7549170DC80DB41FFC1D678FF19AEB10C7133832
311
B104B80F691B3138F97A92D26E551F1F110400D45AC71A9B9AC41A1A1B1DAEED0B0810638EFFB511D46B121C6FEA0F38CD00E03CFFEB9713FE1F9C263E4DDEC160D0497FA9A132BA608584057FB15380825DE6C7FC3C667EE947D488A09898D8E939C4953BF4EC9836344D2CC6B2971B2A21A572B06096F4982D2CC7232D46
311
E8EA69DC83722E267754D777F97F96D5DA74E1E75178084D0E70F12AD33E5F71EF2AFA599B2BEBF60A5BE475F444F240CBFE8143C334E7ED9150FEEFEF7EB020C4DBED388DD1D6A167A76F3CBF119B578AE8CFA7736ACAFA4440A1C47185638A0D2F3EB5BDDEFDA958FB13CE4AA4923D5BF840392D45544329525749734866
311
684BF7F8D9D54D892E19BCA9F829A0F8BFCBEEA6CFDFC61D74EA1A645ED7A1FF241739F15694BD835B66FEC5677E40FE69BD3F91AE402F036537218A401CB0828604AD189E575015C6F3F6BBC8AC79CF6C70653847254B31551EFCBEB5978B9DB85D58D0FA41A9DFE9C624834AA04949D24B5AE6D299E072D152D12097920F
311
14AA92C31C3B97E28B6C2E6E9C23D63043ECBBC0A60FDF5BD0C33C127EA8A3308B8B6AFFEB28B4455BF6E7AF4FC6222728357EB8E46E85053E6A8843AB23295BF838ABDA94658FEF3F832F147046B4ACD6F7D48E8FCC9618582961C898D1C7A253C91BFECBDA6BA18A1FCF70755DCCEE2222F41B76D23CA98D0CB3D95F0CF6
311
6D57FFF65E2A90F5DF40FC3187621E981BD0BC1D992787212688976B94A8F0C6EF646624B570B78E068826F87CE27041A95C9A4871FF65CC17FCB1639629AD6A9517000D63AC231F3D741CB8430777E7ECF80CE7A3F73C0F162F7E56AA71F4DA80A33CD6ACEE78E2C11FAC03DAFCE929B106F8F6B3ED2DC71FF994BD9CEF4E
311
9A94896EF1B6E2B7B4978168BCF0847A3D2A4F1B0500B926E634B174548E9FBAD27153FB5FC36799B1E6C7C38A94E1F9E996796D7B485E635D5287A2AE76FBD11A341DB3F8F810385BB7296391973DC6C37C452A9305AEBBE0CDB6C566DB59FE60C8E94B1FD090354BF51439FFD1B48D725228FFA88C84F686F547107A7A23
311
5665A4593B7C34D748C1AC8D56DD5DA861EEFBADDECBBD65117E65851F90351AEB65F0EFCFF4BCFEF24CB7A5879699FAC437A7AF9099186CF006BB923A59E37D7A36A29FD8D2CBB914A5E9D0A8FD212FBF796AE9A67958FF1D5D8B85F78F96219D4714EB919929241B6C018AAE0C02069F8D919961EC5DDFBFB7573E3AC8E0
311
8BFB7C8534BE6DE045B3CD63DBD71F7638BA2309CAE398EA3A7D8F98BBBC7AEB367EFA5CFA27A9F8F2F52FE878058E6209C026453F8E7E8A237DFC389E9590F6059B397CFD65183BBF936E86896612A5B5FEE49DAC8455D026218AFEBEC12B3523A45B57B82C9C97E02ACFA1184DB18E48CF615DBF39C3CC6F0B4AE6BBEEA2
311
E39D944E290302FA3DE33FA7E40296E2EF7BF1CD855BBECFAD0FD622BEE9746FC4FDFDE545AE6E3BC234CADF83A0FB76DFB145BF3828AE3436368AC24989454F8FF70A177672C711CAA1A76107218CF948CA01F873520E7A2B118EBB161ABAD432932029628B6761590C98AB590C8C8C79798CE9F715BA696E839E9131A4BB
311
68BE923F1747FBFF165331FFDD4D05997ACD168F12CA75348DAC04C7F509FE83898A8B421181AF492861CE81E4A2DD0A30850CFA95E05F097FF70F9E777310D584A75BA7018922E271DAB1D785671157685B7D383D3E074DDB4F1E44EF04B07BAAC75A062077C54B9752C738C9D804D402E02851F3F89605AF189738C18C02
311
1D2139EAF72513824E10DDD3047BACC8521ED7E98B257D1166903B1B08FA6F918FD7E162913FEC7D0EF4787E29C35FBA8C6E2C9C20E9AB30AE42CA2A01A090E7D010C1B5BF9CEE2A304BF3A987FB40D836979B79E18D70F257DA61E808472DD85B82761825779D6B90CAEB0F23360C6F80A7D7D77545E95B3DFF0CF96A827F
311
9B5BCECD2C9698718417EF80FEEDEE938AFF55859D0D540B7FE09435583A6F04874A0C7E8CF234DF4879722000167F5872CEC6BF3EF7E5A8CC8121E6A359227C8A29C95212F9F735BC72A887D56B8F309FC525BFB4FD767AAEC4AEFF249CFBBD2DE1AB9969A6155C7D8DABC307E47324C1F916C7BCFF40ABA5644E9FFB9238
311
D19ADADA49D9610F01ABBA57E4DFCBDCCBB2B93C8953206C91DE01B0E2651A6D6C31721915B31F7B7CBCE55466F6D70402788FA91D73BE4ADCBA99A35F17D6B83383704917D6833F0FA3CD45C926ADB8BC17999A4A0AFBCE2541F7B8CF4C2F5FBA611B3E626D64407CB32C122DFF4EF8674D6EDBB86C8F7C6A16D50FA685E2
311
CCA34F8F7D1D8265BB0042E9D7F1F666F7BE5FAA5184DF58E12122A42EF02F461B3F369AC746F96528AD208512AB56844CF75B97F352DF7995024FB02855385854F3798670D01CAC771AC3E1889EC25F61A20C1F8CAB46898817F9C47E2CDA1F286BF2F358298709FE567C91133E2638C8B53975E753EA8BFD3578B5F7186B
311
7BF084EBA3F77BAC3132A5779902EC22AF2D2E79F42D324E083386DAEE9810D1B44A5DAA54513C7A71E52A4AB9257D975B621308FE4D2141CC3DCFE946C154A3C1DFCCA7629EC69ACFA831634ADDA93C0388D2A9A2DDAFCF957C6995BCE7FBB6DC4EBAE79E63EB08E9A25F52F67076F7093CA545CA3053B5BF576DEAD4E001
311
7143C5F759F32B2D6F145B52B67B48909B7C7FCA6586EE385A2189C16932CB6DDFD9152AE317C430492A578ED27B72D85D40C7C93C097939E1B50F4D67F05334FE9DC362C30B7FF561B95259138ECFD9274C8D695C31B14D4EAA9F3D7FA8DDF652F8C5DEFA23284C799B7D94416DEE81E05A866302DC70192A5368EA65E1CE
311
D8BF107A1E2D3119A71E85DC1A7B0C1E93274CE04DD0F2ABC8AC7C987FDB002B6F81757B43502EF7A0D92E416494FAEEA4C9C090CD9557AA4D532F4996A272B94355C5A0E4974EEA9627476F30809B94D8D8D860062E02204643BEC7D0438AF800FC7E2B26955D595421E83C69E1A07E0E3122285835F014AD538188CF9737
311
CE76D464A353FA55A001AB2526B84E985083693BC76FE211CA1D000679C889E3C009832C87E1AC2EDD05C302557422DF0800E316FCAC86978A371F025A6C7DAA9F333E7BD160403A1A06EA75AA9888FF01504B030414000608080088537D4A28BB58AF800100009E0500003D00000030443939463136322D353432452D3430
311
44322D383437342D3435303737314334454335372F536368656D61732F436F6D6D6F6E536368656D612E786D6CBD544D4FC23018BEFB2B96DE15493C78601010A34B880709DEDFB52FD0D8B54BD70DF6EFED3AC0B12E6442E2716BFB3CEFF3D18E26FB440405EA8C2B1992E1C323095052C5B8DC842437EBFB673219DF8DA6
311
59866649B798C078B48AE6410122242F2A4994AC7F93815DF85C049C8564CA0A901499DD886B2EB9B1E02448F358701A9235880C49A0119892A20C89D1B9FD768815CAD268CB5E0355B40B1E47F3E37A2020464BED06AA57CE8FCC20C3C3446D46761A2632A8C1283D07031EFF2AE7CCB1BFEEE916E406DFAC8E36FFD99A9D
311
60A6944090EEDC3B670C7DC13DE86B6B2C5C240D6E503BB85ACD579D513F1B9F9A69DC9CC22AFA80C426D40AF0B21EA168559156B6276F0F726A6BFF04DCD513A87A62CAD41FB24FCB2858B3952E3D852084DA25B9303C15687973CC8E8AAE11DF2836C38C6A9E765E8C1BA1BFB1DC29CDFE518C8B5A7655A4ED7E77291ABE
311
B80DBD82EC866ADE1B8D05AF9E35CF09D7A061F38A986D9EC412B8F0F65E5D81534D9B231D1E5A8FE577A241F3A5FD01504B030414000608080088537D4A2CCEBD668A040000E01200003E00000030443939463136322D353432452D343044322D383437342D3435303737314334454335372F536368656D61732F47656E65
311
726963536368656D612E786D6CD5586D6FDB380CFE7EBF42F0F7A649B70E1B90744856B4970F450FCD7A5F05459613EDE4174872DADCAF3F522F8ED3B88D2F1D06AC4050DBA2493EE4438AF2F8EB73AEC8466823CB62928C06C384888297A92C5693A4B6D9D9E7E4EBD51FE3A931C22EF85AE4EC6AFC38BF261BA626C9AD28
311
8496DC3F4FCEAFC63366845F7A10452AF41DB320C0D44EC26EAB20918735565582695670811A6A49643A49A6E9069FA4604A64B29016DC4B48552F95E4932463CA888468C1D2B250DB4962750DF7CE273069CE8363F1FF4EDB00E0A21999574AE4A2B00C353B93F3BD4777B8A61ED8F604ABFEDD79CE56A2B7BDFBDBC50996
311
E0ADDE16FED26223C5D30956C29BDF4A55EA686E5E58B112DA45CE67F76F4FA27EFA3FB672FD7372FC388FAECDCA5209E693CAD167BADCD272F943701B3812F8A3D852008B1D2E32DB927B2F833C6EA95879925356D254582695095A3CE982924720BE5774A3CB9CDCDB350427D2DF20DA1B5532EBE2D5D6288D75D4F7E4FD
311
9890A0EF8E3D93EBB8F8BA4758158EF6FB90A6F9520281C93DE7AAC6D24607DA296BB96018123F821A7D6A5C5884050C475DA4865442732C8B95684A50165CBB3A32F25F783A4A480ED59AD7F924B968AEA50131F46303223E6A397B0E52976030DC1DCA81D7E7C1EDEEA42C19FF27635C505E2BD5198A599020DF50A2330F
311
CB3AAF28CB0124108429553EF1B228802E2265D8F7CC2401042B155BCC7070F1E5C55F13B4A9577362CCCE46C32174E010C3C378C44841A4BDA00FE3A12006CE11EE6AEC59894D3526DDE1CD59D503ECC324017F8061B7F162162FA62EDD81AE3308617770796DCBDAD2B2625C5AE8A63DE20B2C8AA5E95E76E57308239559
311
56E33E705425A2187C185D36489A1B44D3DCEC2172F6BA2105C3546287A7194B2331768EBBE64F6E70A9930ABE0ADEA89E9E2C38523B810287AD67A54A039C1606EAFE68F8304610BB9093DBDDABC0B2AE4E290DCDA15376D7E39F72B556F0B32EAB5D3D498B4C41ABADEC3A1434C422D87E8025A84BDCB2B1417ED750FAE4
311
DA8976863974C577C7F902D3F156AD354DEA3540DE6BEAE2BEA52F7A2EB4CA43802ECE5BF2CE2EDC9347179FFB023CE412E60BE16DA0BE29B374988A553F561DC04615DD35F7D2C8979F60E5955CE93DF29DED8AFA1EE6642D53418086C03C47C377910F75F7E8F5EF665F70B60FFB22AEDF897D119E8423C773E819A3C1E5
311
5E550599EE6EDCA34D0C86FD72057DF2CD46F16A470682471C164E4346D5306BF12D7D12D82CFF673D41636C347443FEB51B50D72EA171A8E4A58623A4A16E0FA2B8B10A0D23268D87C33896EE8FB73305A74BF224EDBADFA0BD674AB354D63DB7BD5D83426761C077DE767728235446A552754EB93B755891C3C4CC6CADE3
311
7CF0E912A7BB38DBA010F9DE1282EDF470CA69A9CDA482E334C4A6EA4107987980B17E72F31730EBF88BBD39E7C629F56797A3C0009C2C5AE7951D9A05A02773440F02EEB4DE396A3B6A570C72CCFBCD823B0B8ED3F1D5CEDDFED772FA70236C83FB7D86C385D570B87107535572A60A96035F8F7C6A7192F13007246BBE05
311
21855E6AC46F3E27689CEE7D186A6FD679D98CDCAD13333E04EBE7ED6F55FF01504B030414000608080088537D4A6180134D5F0100006B0300004500000030443939463136322D353432452D343044322D383437342D3435303737314334454335372F536368656D61732F52656E6465724D6174657269616C536368656D61
311
2E786D6CA5934D6FC2300C86EFFB1551EEE343DBA41D1A103009551ADAD40EAE28A4A68D9426284961FCFBE5A340113B2071746D3F765EBF4DC6BFB5407BD0862B49F0B037C0082453059725C18DDD3EBFE3F1E829991803366715D474942CD30FB4A782E00C64017A412D684E454CE3FE28995203B162A6EA5AC94B66997D
311
225E109CD63B0135484BAD1B3C07E9080CA35DB3119C11BCA5C200461A68A1A438126C75E3E230D40FF81FB3F03C91D1E3A3A0AF79FE28E25BC39EC3E17E4C2A2D94A0833A51AF55BCCA7D88572FCBAC529C4140B020FC3AAFA886621DCED7EAD7664CC86024E806DC297DA1BB393E4156543457A4537DB8817349A70F8ACB
311
F09B3EEE2CB2F33E91B65D60786E4E3B39B77E3FEEEF5650424525DA657FB8B46BE6BF064646F0A0F7327C0BC1BC1B4CBBC1C419FA3CCB23500007872A2580CAAE5461865565294E4EDB4617B62FF579DF9A5B2F54E834076A597573A020912FED777F9B3F504B030414000608080088537D4A9656BB9B5100000057000000
311
4700000030443939463136322D353432452D343044322D383437342D3435303737314334454335372F4173736574446174612F41737365745461626C654F66436F6E74656E74732E62696E536160607076B3B43474B230D7B5343673D4357174B4D075727232D07533723574363033307071351302AACB4D2C492DCA4CCC49
311
2C28484D2C4ACC4B4E050A82012F90744FCD03CA26072767A4E6260200504B030414000608080088537D4AF865834058000000680000004500000030443939463136322D353432452D343044322D383437342D3435303737314334454335372F4173736574446174612F53747265616D56657273696F6E5461626C652E696E
311
66558CBD0A80300C06F73E4B117FB66E451741D041DC5BF98480A492E4FDD18EAEC7DD4555D89EF28DF51A0B1BD8340C4DE7DD848B988C0ACF0649566493F2408C508DDEBB99D5129FF8F1AF8CF5B9503E20FAE5A16B5AF702504B030414000608080088537D4A0071053637010000A2040000360000003044393946313632
311
2D353432452D343044322D383437342D3435303737314334454335372F4173736574446174612F636E782E786D6CCD94314FC3301085FF4A6489317612242895E30AC1D209242A06B6AB7329561D3BB22F08FE3D769B0154C4D4A1EBE9BBBBE727BF93ABCFC1161F18A2F1AE6535AF58814EFBCEB85DCB26EACB052B564A06
311
EFE907C60A0703B62C979992BBE0A7712E75D8C36473D51AB79F8BF731226D606BF1A97FF08ED0516485B61063CBA27EC701384CE43B8C7BDE0101AF79C0E8A7A0314D2233E03C490704C28EA9A6AA6FCBEABA6CEE3675B56C16CBFAE64D8A4C2AB9F5DECEBC49CB821FAF9A4A1FF7325549910125A760662ABF86A9BF54F2
311
AD71522452C94821B93277D0D7983A601CADD140C93CE1352195094218A438C24A8AECC22F2F1EB137CEE496759206E4C3731288810C5EA027FFA93DBF376B17099CC64B76E454E3F97D7839FCA2D7632C0FB9B9BCB49C6AE4C6F567C88A389C93149D7C5DD437504B030414000608080088537D4A04E44354E70000006001
311
00006700000030443939463136322D353432452D343044322D383437342D3435303737314334454335372F5265736F75726365732F43463939314238372D393336412D344141382D424242302D4632453143303630304445362F7468756D626E61696C2F302F636E782E786D6C4D90C16EC4200C447F2542EA3181A452BB5D
311
11F6277AEAA5728937454B300253B57F5F6839EC69ACF193E5197DF93EFCF085293B0AAB982725060C963617F65514BE8E27315C8C4E447C878921C081AB68B6307A4F5462B736BC42F1CDF52EDCBAB963C0E4EC7B0CBB18AC879C5791ED271E304161DA30DFA60D18A6794A98A9248BF500BB03FB019B1018376116353F8F
311
EA715C5E5E67755E4EE7F9E94DCB461AFD41E43BEF0263A2F8B0284B750CF51FA565038C2EC975AA8510E6EE392DEBD2E8CCA9E6EF10FFC40A418CDE59E05A9324CBC86385100E2DFF61A365CB5BE5AF8CAAAD1BF30B504B030414000608080088537D4AA233C2345D000000800000006500000030443939463136322D3534
311
32452D343044322D383437342D3435303737314334454335372F5265736F75726365732F43463939314238372D393336412D344141382D424242302D4632453143303630304445362F7468756D626E61696C2F636E782E786D6C4D8B490E80201004BF42E6EE76F3C0F216234B883063108CCF170C074F95AE5473F5C4C06E
311
932E4F28601967600677D21E9D8092EDB002539227A2FCCB80E1168D80A6417297A89C5D6963B7129A0D1E8F2EE73AA7B62BBEB8B27DE50B504B030414000608080088537D4ABE89762363000000880000005B00000030443939463136322D353432452D343044322D383437342D3435303737314334454335372F5265736F
311
75726365732F43463939314238372D393336412D344141382D424242302D4632453143303630304445362F636E782E786D6C4DCC3B0E80201004D0AB90EDFD75167CCE820A4A845D83603CBE602CAC26799919AEEEE0D965E2E908050C6D0FCCE04C8BC355404EB6198129C92351FAD580A10E464065907C8D948F8F166375
311
F655BDC3FDC3B4E530A176BE7057BDC43B2A593FE403504B030414000608080088537D4AF55CFCF07E000000A30000003600000030443939463136322D353432452D343044322D383437342D3435303737314334454335372F5265736F75726365732F636E782E786D6C4D8CD10AC22018465F45FE7B4B2B4CC139746DEF31
311
9A1B92D3B0193D7E1ABBE8EA83C3778E6C3FAB476F9B5E2E8606E88100B2E11E27179606F236630EA85532C5B8FDDD008571B50D540C4A2E29E6E78E263B8FD957EA5D78ECB01B84A0865FB138338D2F5A736C8C217838F5B4238C905BCF8A71AC4A995FAF6CCDAB2F504B030414000608080088537D4AFF116B420B010000
311
550300003400000030443939463136322D353432452D343044322D383437342D3435303737314334454335372F536368656D61732F636E782E786D6CCD93BD4E042114855F65426239C08C89AE1B862D2CAC6CD4CA0E99BB2B59E04EF831FAF6C248B19BD869B11D9C7CB939E7C015BB4F67BB0F08D1A09FC84039E9C06B9C
311
8D3F4C24A77DBF21DD4E8A80984E30D279E560225526521C02E6A54933EC55B655B5C61F9B788FCEA17FD6EFE014E9B455314E24AE57AA72C219E291CE2A293AD0001173D0502624E3A04DD001548299C8910FB73DBFEEC7BB97816FC7CD76B87915AC9252BC21DAC61B9F20E07235728DE5E88B212E5805A4C8C134AAA620
311
F2D41D2D7D08560829620AA58546A6AFA5906A59ACD12A95B2D80AFE3052B01AF62CF2037808465F6AE6337BFF16FA09FC0CE1B1BC5430CA5E6AF6DF5CFEAD02B66E40F9067521E437504B030414000608080088537D4AE3603EBE7A000000C20000002C00000030443939463136322D353432452D343044322D383437342D
311
3435303737314334454335372F636E782E786D6C6DCD410EC2201085E1AB90D9DBEACE05D09878023D01A1D34A8419C380F1F82DA68B9AB8FDFEC93C3D7C52546FCC12980C9CBA232824CF63A0D9402DD3E10C6AB03A3397DD192872090D3406ABE7CCF5B5D18893ABB1690CF4DCF02282E5EA8A5BB96FFE536F285CB347F9
311
5BEFFE81C9ED5AFF9D5B1FB575BB00504B030414000608080088537D4A7D4222DF7E000000A300000007000000636E782E786D6C4D8C410E83201405AF42FE9E1608144D00176AEF612A1A520443A5E9F10B8D8BAE5E327933AAFB6C1EBD6D7AB91834D00B0164C323CE2EAC1AF2B1E0065067548AF1F8BB010AD36635540C
311
46AD29E6FD44B35DA6EC2BF52E3C4F4886B6BDD31BC382B311733230DC70C93117444ADAF3B117B218D7AA94F9F5CAD6BCF902504B030414000608080088537D4ACA1DF9C9A900000073010000130000005B436F6E74656E745F54797065735D2E786D6CA590410EC2300C04BF12E5DEBA70400835E500FC800F84E0B411AD
311
13252E2ABF27A55740421CEDDDD9B55CEFA7A117778CC979527255565220197F75D42A39B22DB652EC9BFAFC089844F65252B2630E3B80643A1C742A7D40CA8AF571D09CC7D842D0E6A65B8475556DC07862242E78CE904D7D44ABC79EC569CAEBA537E3521C16DF5CA5A40EA17746733E0B6615DE7217475F386F18B9481C
311
510F1F021CD9FF027EA0E1F5C4E609504B030414000608080088537D4A3DEE336E64000000790000001B0000006175746F6465736B2D64657369676E2D7061636B6167652E786D6C35CBC10E83200C00D05F21DCA56CA76D41FC96062B120735B69A7DBE268BB7777961F8D5AF396893C2ADB70FE7ADA196782C2DF776D7A9
311
7B5933C430F15651E5469C55D70F80A4992A3ADC954792C525AE70A1E4D6AD9816CC044FEFDF01FE3FDE907802504B030414000608080088537D4A82BA29E6F9000000960100003700000030443939463136322D353432452D343044322D383437342D3435303737314334454335372F4173736574446174612F636F72652E
311
786D6C8550CB6E833010FC15B47783ED104822E3C80DCA17F4D49B050EB1126CE447D5CFAF1DA8D49E7ADAD5ECCCECEEB0F3D7FC2C3E95F3DA9A0E4889A15066B0A336530731DCD0018A3367CEDAF08B068591B3EA20C3C0D9E46C5C3668B0262893516347B581D27B15A0189EA9E9C00F7735CB52C69018FE512E7278C849
311
95A45C799CC5A8C74DAAC7E4A66F5A39E0FB46F4825CDF90C07B82EA46B4485C5A8C28ED7B818F876B5D5F5895C59C053DFF6C1F9C92418DC029262DC23B448FEF049FE8E1449A0F566526673EB8F4F3B6347F075CE4AB7B1924ABD6E91FD7B88CFFBB466DC28E6EAEABC20327E9C8D780B32AA794CA2BC25473A2FC1B504B
311
030414000608080088537D4A1663DAD5F40000008E0100006800000030443939463136322D353432452D343044322D383437342D3435303737314334454335372F5265736F75726365732F43463939314238372D393336412D344141382D424242302D4632453143303630304445362F7468756D626E61696C2F302F636F72
311
652E786D6C8550416EC32010FC8AB5776C208E9D4498C88D9517F4D41B02E2A0C46019A8FAFC42EC4AEDA9A75DCDCECCEE0E3B7F4DCFE2532FDE38DB01293114DA4AA78C1D3B88E1860E509C395B9C0BBF68505831E90E320C9C8D8B8BF306496783B619B54EE90D14DEEB00857CA6A6032FEF7A12A5882131FCA39C857C88
311
5197A45C799CC568D426352AB9999BD10BF07DD30F3DB9BEA11EEF09AA9BBE45FDA5C588D261E8F1F170ADEB0BABB298B360A69FED72D12268059C62D222BC43F4F84EF0891E4EA4F960556672E6C3927EDE96E6EF806356ADE81FB738ABFFDDA2B1614737B755E1819374DC6BC05995D349E5155DAA3949FE0D504B030414
311
000608080088537D4AE27418E4FB000000960100006600000030443939463136322D353432452D343044322D383437342D3435303737314334454335372F5265736F75726365732F43463939314238372D393336412D344141382D424242302D4632453143303630304445362F7468756D626E61696C2F636F72652E786D6C
311
8550CB6E833010FC15B477834D082491714482F2053DF5E61A8758011BF951F5F36B072AB5A79E76353B33BB3BF4FC354FD9A7B44E19DD02C93164520B33283DB610FC1D1D203B336A8DF1BF6890693ECB16120C8C8ED684658384D15EEA846A33C80DE4CE490F999862D382130F39F39C071F19EE992F5C3CF9287392AF3C
311
464350C3265543745377252DB07DDDF51DB95D5087F7045575D7A0EEDA6054967DDFE1E3E15655575A2431A35ECD3FDB8595DCCB0158894983F00E95C737824FE5E144EA775A2426A3CEDBF8F3B6347D07CC3FC2FCA1B99A68B14EFFB88665F8DF3528ED77E5E6BA2A1C30128F7C0D182D524AB1BC228C3525CABE01504B03
311
0414000608080088537D4AD06D1BDB0E010000B10100005C00000030443939463136322D353432452D343044322D383437342D3435303737314334454335372F5265736F75726365732F43463939314238372D393336412D344141382D424242302D4632453143303630304445362F636F72652E786D6C8590CD6E84201485
311
5FC5B047011D7F26C804757C82AEBA23CA5832231881A68F5F98B149BBEAEA92C3397CDC432F5FEB23F994BB5546B700A70824524F66567A698177375883E4C2E86E8CFB65038916AB6C419401A3CB6EFC764893D14EEAA86A33CB4314D64A0792E9110E2DB0D3875C452ABC0B0E7B4F3731DDC522539CBE7C8C7AAFE623AA
311
E6F09ABA29B903762AF9C0F1D8418E4E181625AF20EF2B040919068E9A7A2C8A9E6631CCA853EB0F7DDAA57072068C205C419443D2BC617426F51997EF348B4E46ADDBC3CE07346E07583F360DEEEA0A3679C961C1790DBBAE43702457DCA312A1E15AD2EC15FC03F4DBFC3FD02BED7272005F090B180EFF7F5E309AC502C3
311
78B61B662C9B7D03504B030414000608080088537D4A16E64EBBFB000000960100003700000030443939463136322D353432452D343044322D383437342D3435303737314334454335372F5265736F75726365732F636F72652E786D6C8550CB6E833010FC15B477834D0879C838A241F980AAA7DE2CB3A156828DFCA8FAF9
311
B5132AB5A79E76353B33BB3BFCF435DF8B4F745E5BD3012B291468941DB5993A88E14AF6509C0477D6865F34288C9CB1830C83E093B3715921654D40935163475C41E93D0628D43D351D78F581B32C650C89E16FE522D54D4E58B2F2C9133C463DAE523D26377DD5E8406CDB7EE8D9E585F474CB48D3F63BD29F7794D4F530
311
F4F4B0BF34CD9957592C78D0F3CF76E550061C41D494ED08DD90FAF0C6E8B1DE1F59FBCEABCC14DC07977E5E97E6EF40BCA2B7D129F4BC7A4EFFB8C665FCDF356A1336F5EAFA5478102C1DF918085EE594527944986A4E547C03504B030414000608080088537D4AE51FF9F8F8000000940100003500000030443939463136
311
322D353432452D343044322D383437342D3435303737314334454335372F536368656D61732F636F72652E786D6C8550416E833010FC0ADABBC1260448641CB941F9407BEACD320EB5126C84EDAACFAF0D546A4F3DED6A76667677E8E56B7A669F6A71DA9A0E488E215346DA419BB183E0EFA885ECC2E862ADFF4583CC8849
311
75906060745C6C9877485AE39549A8B183DA41E19CF290C9676C3A70F2434D2217C147867BE4B3900F31AA9CE41B8FD110F4B04BF510DDF45DAB05D8B1E63D27B717C4F191A0AAE60DE2D706A3B2EC7B8E4FEDADAAAEB4486246BD9E7EB6CB4509AF066025260DC207549EDE083E97ED99D4EFB4484C469D5FE2CFFBD2F41D
311
B0D7F54E478B6DF6C733CCC3FF9E411B7F2877CF4DE1809178E23A60B44819C5B206186BCA937D03504B030414000608080088537D4A1D65F5A801010000D80100002D00000030443939463136322D353432452D343044322D383437342D3435303737314334454335372F636F72652E786D6C95914D6EC3201085AF62B1C7
311
0682633BC26491A427E8AA3B6A260E4A0C163F558F5F5CBB52BA6B57A0C7FB667833E2F8393D8A0FF0C138DB235A1254801D9C3676EC518A57DCA2E22885772E3ED95061D5043D5A6424C5E85D9A37697036825D54EB346CA20A01222A8647BEF4280C379854A952CC8E702F6735DCD508252D579F14D14C3FE8E04145D048
311
32421B4C769875AF941C587BA0FB37512D4E2992B171C7B66630BD832EDC1C73A48C5151ADCFD9968CDE4C46E74F9AAB018F243977DD0BDD335C7376C19C9C196E79C331AF49D3D013BF9CEA2617C9B01421FA3C9AADC83284BFE22BF82B5A9AF53FA3AD4440F22954B5CC598AEA7B09F95C7622BF00504B03041400060808
311
0088537D4A7462241808010000B201000008000000636F72652E786D6C8D50416EC32010FC0ADA3B3610C74E224CE4C6CA0B7AEA8D1AE2A2D860191CB5BF2FC4AED4DE7A5A3433BB330C3F7F8E037AE8D91B676BA01901A46DE794B17D0D4BB8E103A0B3E0B373E1970C9095A3AE21C120783FBB65DAA0CED9A06D42AD537A
311
03A5F73A00EA86F8A8C1771F7A94995C4254F87B36C9EE2E7B9DD16CD5091ECCF8B3DACD5A06AD4030422B4C76981D5F2939B1C389966F3C4F4AC197C5A8CDCAA8E86E6E46CF20F665D336F4FA821BB2A7B8289B0A37978A60C6DAB621C7C3B5282E3C4FCB82FB30C73F6F4762CE80BC7C245F9EAF94E0EFCE0D9B208652C8
311
D9E10B04E17922FE845E26F58FD0C6861DDB0EAE1B1E048D819E44344E0DC6F1AC37CED4B6F806504B0102140014000608080088537D4A75DC89892C010000A80100004F000000000000000000000000000000000030443939463136322D353432452D343044322D383437342D3435303737314334454335372F4173736574
311
446174612F446566696E6974696F6E4974657261746F7250726F706572746965732E62696E504B0102140014000608080088537D4A8AB765EBF80000003002000045000000000000000000000000009901000030443939463136322D353432452D343044322D383437342D3435303737314334454335372F41737365744461
311
74612F496E7374616E636550726F706572746965732E62696E504B0102140014000608080088537D4A88E57597CD3F0000904100006B00000000000000000000000000F402000030443939463136322D353432452D343044322D383437342D3435303737314334454335372F5265736F75726365732F43463939314238372D
311
393336412D344141382D424242302D4632453143303630304445362F7468756D626E61696C2F302F67656E657269635F706E67504B0102140014000608080088537D4A28BB58AF800100009E0500003D000000000000000000000000004A43000030443939463136322D353432452D343044322D383437342D343530373731
311
4334454335372F536368656D61732F436F6D6D6F6E536368656D612E786D6C504B0102140014000608080088537D4A2CCEBD668A040000E01200003E000000000000000000000000002545000030443939463136322D353432452D343044322D383437342D3435303737314334454335372F536368656D61732F47656E6572
311
6963536368656D612E786D6C504B0102140014000608080088537D4A6180134D5F0100006B03000045000000000000000000000000000B4A000030443939463136322D353432452D343044322D383437342D3435303737314334454335372F536368656D61732F52656E6465724D6174657269616C536368656D612E786D6C
311
504B0102140014000608080088537D4A9656BB9B51000000570000004700000000000000000000000000CD4B000030443939463136322D353432452D343044322D383437342D3435303737314334454335372F4173736574446174612F41737365745461626C654F66436F6E74656E74732E62696E504B0102140014000608
311
080088537D4AF865834058000000680000004500000000000000000000000000834C000030443939463136322D353432452D343044322D383437342D3435303737314334454335372F4173736574446174612F53747265616D56657273696F6E5461626C652E696E66504B0102140014000608080088537D4A007105363701
311
0000A204000036000000000000000000000000003E4D000030443939463136322D353432452D343044322D383437342D3435303737314334454335372F4173736574446174612F636E782E786D6C504B0102140014000608080088537D4A04E44354E7000000600100006700000000000000000000000000C94E0000304439
311
39463136322D353432452D343044322D383437342D3435303737314334454335372F5265736F75726365732F43463939314238372D393336412D344141382D424242302D4632453143303630304445362F7468756D626E61696C2F302F636E782E786D6C504B0102140014000608080088537D4AA233C2345D000000800000
311
0065000000000000000000000000003550000030443939463136322D353432452D343044322D383437342D3435303737314334454335372F5265736F75726365732F43463939314238372D393336412D344141382D424242302D4632453143303630304445362F7468756D626E61696C2F636E782E786D6C504B0102140014
311
000608080088537D4ABE89762363000000880000005B000000000000000000000000001551000030443939463136322D353432452D343044322D383437342D3435303737314334454335372F5265736F75726365732F43463939314238372D393336412D344141382D424242302D4632453143303630304445362F636E782E
311
786D6C504B0102140014000608080088537D4AF55CFCF07E000000A30000003600000000000000000000000000F151000030443939463136322D353432452D343044322D383437342D3435303737314334454335372F5265736F75726365732F636E782E786D6C504B0102140014000608080088537D4AFF116B420B010000
311
550300003400000000000000000000000000C352000030443939463136322D353432452D343044322D383437342D3435303737314334454335372F536368656D61732F636E782E786D6C504B0102140014000608080088537D4AE3603EBE7A000000C20000002C000000000000000000000000002054000030443939463136
311
322D353432452D343044322D383437342D3435303737314334454335372F636E782E786D6C504B0102140014000608080088537D4A7D4222DF7E000000A30000000700000000000000000000000000E4540000636E782E786D6C504B0102140014000608080088537D4ACA1DF9C9A900000073010000130000000000000000
311
0000000000875500005B436F6E74656E745F54797065735D2E786D6C504B0102140014000608080088537D4A3DEE336E64000000790000001B00000000000000000000000000615600006175746F6465736B2D64657369676E2D7061636B6167652E786D6C504B0102140014000608080088537D4A82BA29E6F90000009601
311
00003700000000000000000000000000FE56000030443939463136322D353432452D343044322D383437342D3435303737314334454335372F4173736574446174612F636F72652E786D6C504B0102140014000608080088537D4A1663DAD5F40000008E01000068000000000000000000000000004C580000304439394631
311
36322D353432452D343044322D383437342D3435303737314334454335372F5265736F75726365732F43463939314238372D393336412D344141382D424242302D4632453143303630304445362F7468756D626E61696C2F302F636F72652E786D6C504B0102140014000608080088537D4AE27418E4FB0000009601000066
311
00000000000000000000000000C659000030443939463136322D353432452D343044322D383437342D3435303737314334454335372F5265736F75726365732F43463939314238372D393336412D344141382D424242302D4632453143303630304445362F7468756D626E61696C2F636F72652E786D6C504B010214001400
311
0608080088537D4AD06D1BDB0E010000B10100005C00000000000000000000000000455B000030443939463136322D353432452D343044322D383437342D3435303737314334454335372F5265736F75726365732F43463939314238372D393336412D344141382D424242302D4632453143303630304445362F636F72652E
311
786D6C504B0102140014000608080088537D4A16E64EBBFB000000960100003700000000000000000000000000CD5C000030443939463136322D353432452D343044322D383437342D3435303737314334454335372F5265736F75726365732F636F72652E786D6C504B0102140014000608080088537D4AE51FF9F8F80000
311
009401000035000000000000000000000000001D5E000030443939463136322D353432452D343044322D383437342D3435303737314334454335372F536368656D61732F636F72652E786D6C504B0102140014000608080088537D4A1D65F5A801010000D80100002D00000000000000000000000000685F00003044393946
311
3136322D353432452D343044322D383437342D3435303737314334454335372F636F72652E786D6C504B0102140014000608080088537D4A7462241808010000B20100000800000000000000000000000000B4600000636F72652E786D6C504B0506000000001A001A00210B0000E26100000000
310
504B030414000608080088537D4A000000000000000000000000370000006662782F36463846464241362D424143452D343735352D383933352D3543444645304130364542362F617474726962757465732E62696E504B030414000608080088537D4A000000000000000000000000350000006662782F3646384646424136
310
2D424143452D343735352D383933352D3543444645304130364542362F76657274696365732E62696E504B030414000608080088537D4AF270F1330600000004000000360000006662782F36463846464241362D424143452D343735352D383933352D3543444645304130364542362F747269616E676C65732E62696E6366
310
60600000504B030414000608080088537D4A88E57597CD3F000090410000420000006662782F36463846464241362D424143452D343735352D383933352D3543444645304130364542362F7265736F75726365732F322F305F67656E657269632E706E67355B773CD4FF1FBF73E71C0E67EF7576C9DEF3EC995D46C6A1EC50
310
46649CBDF79E192942562825CE965D8A868C2842C8DE9FDFD1F7E7F138F7078FCF6B3F5FCFD7EBFDFEC41B196891913091804020321D6D7513FC77D8C5070EC3FFEE51B21F068154CC75D455CC028A3EA68992803810109FDDE5D5CEC5521B28A1B422BF80741695D5B529DA1C2D058AD2388BDA9F476F7C2CADC939304173
310
DBF48A452BF8A700C0C70C3D121C1AA15A5270C22E2B9E28763651F7DA0D12CE11077B2ECD0D560B5E3DE2368B1E65C5E1C87384A4CC5F2D9FB8BE39E9B77C753783A37998F5CEF1B4FEE553463245C9712270880DF339E0B882A6BA713D865F6F384C842D440934EF264F4A304F8DE4EEFA1E2BF5E2D91F5ADD9613D6E31D
310
DB33ED31DB1D7916CAF091286EA3D31B9CFECB78BB0060245B943C4C040119FF780A74DD308BA9D028678674EB5504ECF284EE814DAED07440BAF649BE4B55DA2890F4D73E2D489A59EE54FDB0A85B59F2F52C4858A02705C4815A792B0C4A996A2023ECB195073E115E3E3647F64243A8338F2000BCB58DA5692C7E7C3D41
310
3F963FEDF3CF00FBB0F831A9D51360FECA43819F527B89FA260EB63C5DA676830AA3626A3693B23F1A17A0DFFCE3EE164E31B5365EDF0C89EF64D8E38AB0BA9A1117D7C3A0EC44F44F4023095E80BA610DE336D0F99593A88BFC5306E72DF98F7FD132ED95878DF2964EA7E43071359FD83B2BDF9C6B5BDF768F0F3C0FC351
310
199526F53D9460A34511F75D1B63E488178569472C91A94497807A3FD4A390C6558F26D416365C3656DE6E769DA9D8FC73774E1709812842DD8EF96AED1960F79D21B395CDDFE6F92CB4EB962A4668C76990E2EF29798C8941D67DA50F4A5F947872460F1F6FDB794E8A29FD7AC0C0D6E0714339CE258FB17AE8535221E346
310
4A10F29A0BE5EEECEFC5675926A89F49EB14E5711894F6586DB5754EB4D5DA9C6437EBA57DB97A24F8B8A8DB295FFD73266CF57E82694DF5166DDF93573AFE9C9C5EB05F8FEF8E89E0A8917B0B3724DB7BEBB53252581EFC3E38166BA131A3A5B42FE2AD00A769BBFA4458D2DE7822F8C4F63D0B8E21B285AE13325F3410A4
310
35C648C9D91FDEB109E73CEDA7BC796961AF79175E1A3CE4C5E8B0D009B0C9E29EFD98BC8E97554E3D8D838424E270F7685226E5AC268E021EDE3522D583E8F20C0BDE2959EF5BBFEEDAB32FE9A3ED0E39F211A86AA9DEBFC68182EDED132AB8BB794442D2D7EA9F4D8BFF52BC4D55BB165124EE90A42D101E67BBBB292FFB
310
4F66DE5BF2300E44546757DA7CEF8932BFC9F92A0707953491A55C5A5ACEDABD9FA1AEA01BAC3DC5A24E22E7C47213493996EFBC369D086ED9397C9BA6C7F9855C7BD5E15BFC8C53DB3D2A4C5901A57ACD2FBDF4D1676E95338B2C2BCE65FDA4C64F5FEFDC7D9CA5AA1FCF11E193F2FDABF0F4916BF13FB916A224380E6462
310
A9815F2300DC49CC4DF8D055CEF76462F4B7A7ACA7365C2707891370BC1D0AA6203C44CCAB47084FEC057F27FFCD57F89B8B9852459798A675C66BD7CE572CAF71FF7E6D7ECF7BF62CAB7B3F1107DCD04DC55A3F9961700286141C94A4F771FEB2BCDA2DDEE0CB0BAE402FF1DB0100F8E475DFFFC074DDB4498AB7D186A765
310
4DDB1CB680D703D47CEB4E72F8CB13D86A4AA68116E26387B93FD6738779B34FEDB8E517EDF2BAF28D9BE93A1D3A164320E07D42E514725C29515FF361754213EDE06B079A2E99EB1CA82A02019EADEEB87B9AF005BD04BBCECB14AACD6B24EFBE482194A97DD32400685FF1FEF1544D1B14EFB1E7F08E6D2CD2AF52DE757F
310
35F5E62332EE88EA26417AD5C3E0E319D68F25414E6D672BD4522B278C57D18F0113921C71D96527E091F00CEB15AE23D24667369BD3CEFA10C7549D930890BA4366F4EBC55F01F746109F98ABCDD5A3EE06619C6AD78AB33E48E4C9BD21BF7478B385EC05C4F8987E2C1BFA0A60EBEDAA0AE0B015C2720ECE180FB6F2DEFB
310
EB822D96338C9B63822183BBF52FB664A7AE57003AABCE512BF77E7E31BDA2E739AC4C131657DDFE5225E900FB56CC01CDE808FA4A9C9DA16AC679656BB64796283D89812B8F91136AE18EE5EBBAF47A73BE3C153EB5D4CD491B4BFB4FE690A4CF9ABA08C0D8AA64220C438C96EA6CA80B58FE5761E697B3A292EB9FBDA502
310
FA863E49FE694ADDFFF9D62C520BDD1A22014147A0903A05B9B729F54272EF83931FEEC057BFF8C8055C279EAC5C0011804828734024F6CFA319C9CC6867C727184465CD9BB7ED386AFFD96B294A85E3802FAE47244602D8273615952B98C4F23F7EAE4463D9D638EEE374A20959E0FE519C4CFB0FBFE5DD80C2AA3F9DB961
310
D1BDE57E67C9BB47B77FDD74EE3094F5DBBE3EBC1FBDB7393F5116263009E2EFE1AF9A221B2AE234C902BF70E9F280ED23E73908361565964333A3F01D0B006AF32FB21AA1316744B489D5A198E85299241735BE559675130955C902A8ED761FC0DBE337A9F91919AF5CE32AF902ADF9AB2615E00E8A94586BA1A90839B618
310
32FF1BFB76D2EFADE6DB1BA04CCAD3DA649E7E2A0219F592E22F2AD54847EEA8E42271011E9074F8F3DD9FBA6CDF88FFC9FC7E811AD1CA8F4557CE4AFC7BBEDCF0114A48689F20A584520C74DA8127124B767E2FB91A6B186246727BE63C9445BAE02088D58B8EFDC0F1072407CD9B89A13F6303B4A928F593AD489B58E686
310
9325790ADC406036C591729FE14021F94B7796BB11848D463536A092A26F077F94639F7CEEE2A724C66EC885F4A24F8B8A0AC321F8FD149BA529460FAA34E4663C02D41FDF80BCA222D42F0ABFF8490F4FA74C673807C2051D8E467B47B616072860069A9A303ABA9B319D58404461401B0A0F9BE5E1E151C14BC33B32ABE0
310
3DDE91708DFAEB15E7C0D593C86BB7D7EC17BE56E57975F077BFD5525F3A1A361D584A75E08CF29FC7B44B2B3085014F3A5A14517377C3F6B8F37E59514C3B12F8AACDEDDA4DFC49BE5710101534CD6FB6DE15B50F11A09472AABA727F0C49D9CB906B158030065F48EB3625E010CEC1D511D0053474B11E6A4F01C0D6EF1B
310
ED3A944FDEC70E0DDCDC756C86545910E0DAE3BE3AA9A404574C2995CD5CAF9549226BC94B4F4F0F5F9086F418F6B32346464610D8BC7391D3C3A3CCF04CFC1FB2A3A3170E369511868F14EEA4E5E438CC73DB1F3248AA94B6B2FF33B222FF3D1E7BF146CAD229770158063BCE4F5391964DF62F7E52A7BE0EEA829C9E13C4
310
C147D6F93FE59E111DAB5E4594D6F3CD1AD375EE039930EFE5AF2BB2D41C83C7DABD8C659BAFBE8FAB392CA634F3D15C1D945DB4588D2B0824A4EC928AAC565557CA2F0DAA588CA5BE30B3A8004F7BF005E96CBF891D7F18112A3619FDF530DC8AA64954258E1811789B5189B49B4EB53F5F89F7D37523894F3EB57B373763
310
C91E502F52CC99EB7BDDF933FC324C4FFC2561DFFA7339FAFDD0A4BFBE6D3A8FF9ED1FC49898139864602458968913181918F719CCF5A68B2EE9C1FF050E34E63107003B8120FA982C21B30A874E4F5E4B38D5A8290C4B8D9BE48A0BE31EA995BDC37AC6DE90BA17D259DEF53605D55922FEB1855D915B659FBEB350EE0DFB
310
2F9F766E1C84CC8964B75D08667445EAB966015F63A18A9E0A325C1B3DC628C0D3CB60F767FA93CC65F25458BD23C3B312716E5F40E5858AC06EBA9AB14F95DB99147B832069201541D09A0D856E12C629CF32683760EE855537D1901988D5EBC156676C7DD51D7207CF3267AF1D76C2AD867315E44618015313A98B19941C
310
696FED3461CAA9B5415F918556D7802EDACEFD6B2E45853A9735DFC9DBF7E440F9319F8B6805A973BCCDC76C069A9144E51F187EDCC12FC31B5DEAAF0A76137199B106EC84ADA6B6EE697D4E6A96E007417F4E880E8B1E89B4BCE9D81EF611E2ED8F0C1A6C25F620FAFAAB656A7C42D464880E8AFAB0E0FC8EA38CA9A8AEEA
310
EE3E4648BA4680270A89743CDD3E6C6CBF34B7B640EFA285ABC7EA0A1E28F3CC963D114A80123EE66D0AF7D5380EB41909B605AB4765B709B808590458157E69BA1378FEC4B48CAF6A730E3BE3C5EF2DD1A5EAF94B1DDE50CEB55DDFD7EE9A16747FA4B223359FB1FCC69E1194892BABB93A1D5C4E807AC0EA2E30180811E7
310
7A2291F6E7F7FAA5E0F60215BC6024E48DE436C511F0628B8CA189982D4D83CCA17D305A7E923C37941CFDFDCD93ACAF735EF5F0E61BBD3E6C41A59B242790D3A3BAC7064DCD89AA2E37214EC839820949D5CAA31E240D2948E48F690298974A96BA9A8432BC90F5071D6537C9666EA4564796B7AFFFA548077BEEA75F6308
310
3435074BA182F3699557397F71548383FDA8CA34D99B981E72835ECDA5DDDC151315173D05A21F651AAF8524E88209E2E7A737ED1045800CE3390050BCFB8BE588DF111617874C62575039CA588EEFDEFEFE319B739DE2EDC147092A262611E159650E787917885EF08F1F51B8F2D8A71D60B58B190FEF9541A1BE94BC19FE
310
A50784DA1419FE4B0FB51B8D36B5FF8E1286FD8AF42B91E59A5F1CC4D60174E764045FD8C57B18209B217F89A62252BD20BE0E63E12B8E8F029FE19E0E8D0870F58721A557082250D5424F7909369376E41666C0EE77CD87CB283F661D5FB6D0DA023CB67320A20DC7BE661E9E1BFE5463085C557DA1FF9BE835733766C3D1
310
39F2CF9E2208873AD0EB4814DE9E6BF2CAF81614D4D43906ED1C05A3265CABBFE192770FC2F64F940CB6B17B5F166F133C9AEEAD2641807C3E69515171DD74C4A85311513D6EC9530B3B601B6BA3EBFF3B5C3D2F7D69765141E345F75433953D013ADDF8F6AA7DC3F4A7563FE5C7D367937E2900D7EAD0F9FC9A4A1A9B5BDF
310
1FEF08532660C01C5D6DE22199AA774383E306DAB87E301ABB7D213887F9869D4942D0D71E94B27EDF216A318BD488D45DF84529EF575AF3C3938C0AAA0215B01994153E2054A0B894DA5C784980633AAD48576957CF4AEAEAFADC7C587368551C73DBE1E57C58AC713303A8BFC258BD04B51724459FF9E24C03A81E0E0679
310
CEB9B348C0DC998FEB9C6D6EFA77D247CC8F92D3848599ED89A23218D0636465AD1CEEB7DC140D7426F83491C4E8E8281C2FB35240918FFECE880CA2A42D70E8B20B34DF5221C7DB0CF90ECCB9C745B37A47E9B716FF7A97B7A252C1F3814DC7B1E1A7F72B8751D524EF7CAE45B0C73B3BE7D08ED39781B380DDFC9AA4A474
310
9C9493DB5BAD07A6EA6C092FBD0E85DB004DF06B8C9D3089C5320187E4CE1846158C7EA7DDAE8AD9AFFF21AA3A1026BB06A259845E8232DEE62811A4DA9CEAB3A4887320B76E2AE5615EAB7BDF738CBDD01F1E64064BC13D9EC53576751CA8CACD58B3CEB0E6CA585BD089B2A59B9FC101403387AADBDBE70586B93D64BF3A
310
D4453EF9C3B6A93817E8346991798601344F79A83C51F3D50F7BF2683A3605F51A72449489E0EE6169C749C60B1035651103AEE24D24E51A759C840DD3FC6504DA6FE107510E447B43461C79D22970B75DE5E1BD3007D1AFC619A4A4A69B5626AF5E9B8374E20677F77E2F8E73DF868E8BEC7EBA7B6A75EEF7205E1AB9486C
310
B642741D6E03FF13FCCEDB1C4AC129886268B01CDF4B124AF797CF784F3C6DEC97A17D4B558070A0F1C04DA4FF9BDBF34159AEFE958479824B3F58EBD1E19088A2AFDE501B6F2052368A3FD0E650A179EFAB1561E1D27527077136E652676C3670F42DCB3352F48F6BC86D2C3B0051727E41A0A4DC6CE2BE9D47F5CAA2935A
310
3C0539AF080665997194ABECD723B08129CC5B6B21D2E7D54CD4D12610E7E9FB8306771A89576C7A982002775ED44F3F744CF21EEBB27A631671D921938AAEE3EB0D19CD1E083727F607823E817BF599DCED5394E37EEBC2E88782E638920CA641EF74D4CDFCDEF06F4278ECB18E31E7E9876F2D783C8BF429C75395F57E98
310
C2B495A3DA077EB3AC3C158608B6B57FE3EA48484D9A480096FCEE0DE880950E7E5A5714131C5C41AAA29FD19AE81AC145FA1B9E85C7169A5AB837B213493DF7E9AA4B5FBF9CDEB36EBD21EF1181B7CF7366AB2A951D01E37AF4EB835D1BE8C117CFBE7625D2EBCDB0B20C5A4B45CED0BCDE3EE8DA9DA78C2E21DEAAFFD119
310
7E463C33CC6A80FB785669B856EFF7A8CCCA2841B5A5369173320B1170C368B2748D81062EA0296E5E2D95D7667A4A46D98A6FF475C76AAB0A8C8D45E226FAFC9FE0133EA9F60111F99CA81ACE03A1D14C89E8B0D69079C91464FA1D99E651D0EAF606F345C42A8A1AA9BA391031582B96D5B4176A77AADB01F12FD298A75D
310
EEBB2C82F0B8650E880722F8DDD90C56A7A058E5FDEF1AC93545BA27367C76F5D8F9690CB6F8DAE141EDD7971F0FB548A2AE435F224D6E5954CA155512F7332029D5A1230854B79F258EC5FFDB09F5F6343A8EB193229B7F7E79B3E48F8E183860B38C8269D1B53738FF1E0BACF6AADA6D4869E9DE708E79B5DADCC09B1BC7
310
6F649731CFAF59A83FD8BAE4C749D66FA87A3810D4D62FFE826FA400C0F325D2BC0F3CA35F5847B82A2ACC7961745C823E4D863D54460AF792CE6F79B5C7A33B25C3AEA6CDE15A919B6367D781E9D44F61BF828672594A3E1D9EDD6DF179A81F27EAC05B936575D73E05C209DDD2115CFB705DF9BBF3C911589B3640735E9E
310
618FC9C36A7326C82B2205E244C55D56FDB9D5DC93CE958D4BF8174D2B3DA54CB3C09F2C2A6DFF73D23B2197355761AD421EC581284A7EF8DE2CE3497C0C804D49B41DFD6A7360844E5BEFFB495CFCDB97A4595911CDBA623274CE852B5E278AF0BEB1770E9D37CD977B2766A7DED0E94B840E1E95E8C77DE5CB6354AF7871
310
427C28ADBEEF7BA0A28E19DE9ACD75F379FE373EAE6DDDAE3834692F9C2B03B4FCA8FCA9ABE8EEEBEBB725B88A7C90941E850682CA04061A7DF0CE82ED49BFAFFD42C309818FAE14755CAAE78B0F73243ECCCAD7DF58FCB9CDFAE7A4D3E6671A613639130D056C8383C8F4FCF4808C331E544DD26E4755D09EA05253B3049A
310
1E32587CC25D72E073E2CD96D04A71BBCB0038FEC3F53D254199C3CDC67CD66640269431860225392B2CB3ECD0B4498AAE78BA1994246AE1EE78F2EDFB79F6C6CB6B5E279C4D373FBC21CB2698C9ACBBEB6A4BB6B39E16AB0E421CCBFC7654D81ED86022F9BB522146F9F4772E2D0E4FA70120C95A85A417BF5078B232F475
310
4363EB1750B2AC2148EB46B1EA72AD9B4D23ADCBC589D70106C3EC2ABEEED84DFE28E718C6C83502C28E9FDD3B09DA0A6F6F7B72B706A31C9E2A331EE70DA56A083D2177BFD63C55B11D8D949FAFCF90B23A1E24B9B5018B9A17E99F2890EC302F330FE7936E2C23F0D237EC8916F5166AB84B62A21BB0B950146962D754F9
310
2CC2C8877BED8FC7B7B25726DD19545392570B3A2C66B58F027BEF412E552D12A588C4A3CC5C3193FCB3485EFFF700D0B9EEC077754A33DC1FB9E25AF814628F91DDFECB667D3F7690803F38D13F8AE39353523BB08FC6760144AFA2CE28236F65EDBB3D5F59A57D612B99E3D7E5F8A851666BF9B5A6658EFC96EEB37A378A
310
BB0EB3FDDF1303AF32C41BD1C8560745D7BD81066B0D6313359CF488563D3BA3F8E2185D1FAA3EBA1397C9D0E3DD232180A4DCADB6AF25DB3AC3CC26589C8239E66E81547BC7E2F328F9884764CA37EB5DBE390DFC03A5246B456A7C3684C4377D0EEF9A350680FA9A077E8B2957B489E09AB1AD41316944C2254B5984830F
310
691C93CAA767EECF976FA5647538830B5E63236A6F0365C1E0F3E327F24FE35EDDBD7360B0F7374837409F7A6311BECC12B7026D4FA1AE204FA3F5FE904B1F420C7A9044AE58E403E7C4848E7DA25DC9EDAC79DD756FAA26B9EA83ACE8A214A2612A22AFA19DAE7DBAC5F8CDE1292A485F98DAC731A29FE01A3966E96BCB9F
310
B5A4C8830E1B9AF0C54B87FBE221A097036E5D28D1F869F810C06A9BB0AC0612F69AEBAF893C6E7AD59460208BAB3A6B09CA4F6BDDAB8CF0D1F84B72487498395A70DCD754796E271099A567A55CF242BBED64696378BB6CF25EF0FCDB589F3A82F1116D010A9AB9FA4358809EE0C973A2B4229BAA876A70B03AB49CBA7FBE
310
71DB1832FFD32F9BF2C8E98075CACAFB36921235D0F552B6A67E94E094097A5D7DF681B40623DA535ADA7A9AD8E9A62407D7C9A5AE51D62A17A83A23728DE86BB56115804D3F2675F2C6B87541A0FC497BF0CA86420F558C9859EBE9FAD62747E323E3AADC03FDCDDFE7407B09DA90B44E3185723C5381EAEF589765E2F7A0
310
99BA46695BAD60CEF3491B8A171F5F56444F7CE9455312C3498C74173AEA0214EC029833B34B650CBB5A5508D5091665309642791708ECF27CF11DB3D797D6CFE474453BD4BFADB768094B2147814D81C7CBAF8228DCAF5564B5891F5EF6A860EB2E323CB82AB868D8EA048880D63B0DE5341F1B3D53297B928A11E15F25E5
310
148990F710747C3509ED14909C552EBE3973246FCE55D00564D8310BC3EBC5085D08D806799B77D6C57FDF5E55837F9E934F09C03C729271B64F12D0A9F9E938107CAF7BF1EC8CF1BB9B42363D33070F4CACB425E605DDB0A34A12BB936DE286B9887A4E2E558F0886498BFF49C311D96C277CF6A9FC0D75AD0ECC5226D7E0
310
E3572012E56D7FDE4410CEC7A6D0F997F225A2055B8B92E3956E875AE4993CB3D4C9063AF98FD45E1BAB165640A43439A2C9181A7C355B297C0A0CCFFAE19B6FA3C2BA238A885FBC98B8F6DAF4B94B97304878DF4D8BFF6A4AEDF79E90ED4E68F00CD7299F4E0D83E35601AF0CBEF18C1E870E74758FA91F5131075004DB3C
310
FCF09AE1DABC11957FD9808C92E8A678CE9DBE40DDA0E0D1D505AAFBCBA208232BFB6FB3704E8985E61ADE53DE74152F5C7DE74B1DEDCD37DC3E8FB30D7EBA8B9EFFC3606BF90B8D438279CB7709FC7C00D327F41817EEA71CD9E49FE9C8C9A81C70915D9F0F15958EC5AA4C3BBFAF46986B90F188BDB24B89DE3C6F29EC3E
310
6F66D84856EE96A35E657CA41B41EFD8DBFA16AD6E91439EA92B40B21C053249F51AE50EB0B24C770FFAF40DF12C8436366819C48E36547D4E7B72FE2BBF10828583057814A668BDF183F6B2E58DFB151103E56303E63D00F39C27C4661605DB644D19175D02E3F0241E8FC3458D17AAAADB117CE9EEA690D0DB01E634878C
310
04C2C9310B69FCAB831151E3AD293BEF6E46B0ABCECB50F5939B39C613D41E81FAE8D34CAE3C4566B761D37185FE864AC32FCB71AEF39DAA5BAB88609BB980CD2F07A8F941653B529567726E2B2A58D079DD57E1E5E31426CF184A04D7B03B985F276D47406AF276FE32E3328BA866EB1FD39BEF57863A317634AA5FE46740
310
9B3873F5069EF0D71AF00AD189D17BA1974ECDB2D623E9E14086386A6AAB5807825C37B015BFE892AFD154920EC437EB945D958E18622E1E0FE2FA06557CE4BB9BBD05A2D40E774DA2B65473791E314B7D6C886820B2FCFE4AA272B3B8B15E7344A145E8AF919B5454D89D36D413E87211186BF6F645E5EC94DCCE8E1C7990
310
22E4EC9BC86D7A0F2AFB1FC4B2CE48F84B3F49ECE65BAD24CADCC07EFF39AB06BE9E6B27A059938EA7208838455383DDBCFCD967DDE4650EF92A14FF933C975DB20BD7FEEBC4487576485963D757D16340D9599FEB362F775F38CA4185A86F74B629C81B133644A3B18FD056E997E0734F9BE26D11C0AAFC669E2AC9FC41D2
310
81F8B2E1C35AE27BCE05F3DA295488096688719D974DF1B5D182DB7792288697F8763CFB43562C1CDEE11C4AABD5C22B6E33F6F389CFC3477C5919DC0D533F8A7A1846B7ADB60ABDC26C43D0CFC8910B7C15EE22675BD02702ED39DB77A87A192CA7A543E6205B979B9F5A6B512A3CA799E198B2D5797C0AF8D1D872CA455D
310
4D431A7879D4DD76110B5FF7F4176B54477A9EB5E4A5D11214FDA585F0382751D8E2582BA5D2075053298FEB8F1537304E32CB22C2E2B693DC0A760B1DFCA751BDC445AFDCBB12820ED85F6D5298933C7EF1211E9E057684056CDA3FEF3BB6052355E162DF27C59E965A8DDB7F9437EB72CDDA3A090DE65A5B2F50326247B7
310
EC67B73ACC7047FC9B353D6EE990F772207C6EC52B39DC2F3C0754821DAB559F7C1809C7D0DD5B0499D0442E0A6E391B3D5DB46D11E731E6794EC77523FBDAA242ED67F9FA1FB684255671F63C9BCFE6E7E896D51001A6113EF2298BA494E0B0980D1FA5B9D60796554C02256B1E0345FB7C6186B6A19D2DCA270416262845
310
FA4F42DB5D9B0A0B6F07FCA2E56C242522E001E0CEB734AF310FC8BFB57E38E03AACE93B3326A2197891E68452B26A6307FDABFEE0223D3C03C3C73D2D5BC054C8311F12004CAE488E5C29287F8156A2CAA4AD0D7BE6B97264E4139F437CE73ADF52E5134C52B819777C18B323A5924E4F67AFD13B1CDC3A61793A79FAF5C0
310
CEB718E441071E797C6DCCB9EFCF7E4A1E9F3DF3C2F9C9E8294E9586868788C972857FB0556D7A26941A7EEB9B580AD78EC40B85DC906B4120A563CA3B87797ED612D3B035962BB75F6515A393F4CB057F564CDF54F2E5A024514E6A1F901DB80C7E70B1FC05E356A7E72FABF4775B3E3FB8F70A2A8E7B6A94542BB3041579
310
78CCC999E707A29CC795E67A59CC546A5D47B368954CA7B6E75EC9E1F6FC73CE3B4F71F8CB1A6B15923D61EAAEB14626AAA9D04A26EB9C66CD1BE86CA31A5D8703DE04CD1EBCE4F5CCB62F93909AD11E55799A781A956ED27D3E738F4538CB04ADABC7DAEF20BC35BA6A90BCC1DC61BA05F20D8832FFB9BC9B15E2DB838A0A
310
FBB7E0C82A562127E0446894F427794C3037186F622BF24DE1B00AA10A23BFA47B2A180D6DA5AD6F7326FEB8C100C2D7142EB2A0B2A9D1008A09BA343D70E054AB69E2A7EDB783CBD92537FAF4A44D1296AC2792729104B3276C276C951D0CF3CF3F1E6B017720A7B8505A5FF9589365979678C36F1BAF759EAF57C60F1FF5
310
FE9DCF5F8E764FF25A2D06CF25117A8FED51884C13B2B750DB0E4F5E3D64124FCF11F0AD8F1CC3B3DA4B38ED22BF1CB2585EE6BFEBBA63FBFD44F9537B9B37BDD6B358720F98A8125AED4349CCFEB0E135F19E208A04CA7E2B10711185D72E381F448036EF57C9F874E54A971CA37A639E986AC0226DC5AA00D5B14FEA9192
310
234B3DE617814FC221C92F33F1D392F297731B567FD98FD91D989379AF567A65B8ADF177591DB90FBEA99BF4ED11B16E50A0AB1DBF1156D034BBE04D69D08F939D8E92BF525A1DDAFF80ECBC95D8F45D3FDD289FD23F7D8B452F8EBB34EC082DEEE68E18EDDF072060FAD2AB1504DD4879BF67099FC58F6E9DEFBF645D1633
310
4A3E9A127C6F1AF6132CF287E433B43A0EE93812B4AA0B194E03EE3FF91EF9C6ED0074A2F6EB18A96A7C9890B1FCDA1F2095E944DB911ED54C60DF16FB74C8CE9BDC7C54C4F14078CF73C2FFF1F1BBCCD7CF64F71407EA1683DBC410D226627F66E509060D5C0AFD611DE681D509DB8DD12FB1265B03C6F5C55FF4C30BD941
310
87FF692B4F152982502F193098A789526A038AB529A52BC0DC4FB6285CBAC10A8B8DB75DCD9BDABBB221E27D1F8DA9F5EE5926A1C8AA9BA9BC09239C6A7F12914EA3B59EFF7AAEC3FFCCE56F1C5C2980AD072793527565E774F4631DB178CEEC691B1F367BEA0CF2907E1D6B854D527065979DDEF002D8B2ACEA7CE21AE297
310
737EDE1D45B31233B73FEA35BCFDD0B09721FDBAF6432681F2FD10C3E9EFB246FD6E854B344ACC9D8A0EEF876A7314B49B6A499FC650B099D650DBFEC7638ADFD245E2B7839DA5AC5F7D5623FC0ECEEC8653FC9B2BDD1AD4D00A566FBA7186DD3C9CD26512551637498CADB950FEC71ADB9A5524285DE328B8EC7EC75D2345
310
AEC6A27C42AF6D9B92155315C80DBFCABBB7DA0FAE425C4FB896B15C9BFAC4FE67DF5A23D30C93DA4D8F36FB15D100050DA6062E22AEC5F4DAC4F6FEEF97AE05DE63C6D38F9E068A20BC5E3B6BCD75320C5090924E7F93640A7735B1A43451C2D91EE62C6238B797349E59890AF3A520DF4A87095F3ABEC2E61F0593416CE4
310
6CDCBE0E00E2523FCCD04408588B5B6C9DB6459C786CE378770B54F51DA3A5E1DF2A3349BEAAC234A6CF8993B598B3B25B4B113E353A4D750FA7534749430F3EBF2512E7EA3FD43C6AB9A1F765A58463B306721A15D224FAFE8C6F5E3432D57EE697DA0DD5A9D4866A8BCCAAA9DFF1F06047851408FEC060471D0E3EB86BFA
310
F46E4B5E60311DC3E3CEA147C75CF971BE74689507154FF2D2E92F15CDB2B9182B11459FD8ACAC5A85F174BC94A7F4EE4C4F5CAFA7C02E37BF0BC77B7DCD0C047BC316F562A01A441AFA7931CC84A28CB9F4AA367EB515778F29BFE61195FA671F4352E5E46E3A64773F1F76EE5EB36D7BCE9BCEAD837A4D77F8DB8C92AEEF
310
6711920D7C7D0F76B0FD0EB7AB83724CD35BCA7D36DDDF5FBB7FF6F04A91F3E2BB3B8F1A43CD659639507FF6331C5F697BCC782AE57D757A27D97F1AB9E0AEDB43F92F1B2AACDF5FEC8ADBAF9F814E2027003BA2F9E144B1938A7A04050AE5D953B82C45619165C813A10E76DD6906B3C16438064D14CDA713AEC420034613
310
E1AC7241904A49FBF87409AFB1FCB9B72FE7933A87D8FBEDACECE4EDCF6A4FE9FB94D5DEB74FAB7CFEAE17EE965DF980DCCA2D04134994F9A2E94D2265DA4FE6AA7B7AC15FACAC2B5ABBCD7DFF542C5314FDAB2E1B9D8B65220B8E2B638BE008E8DCA22678C820C5053664D15E89F2D735B51A84955E81A443545E9FF787BE
310
0FA700A76D136C27DA179A7C6E8939E01BE756E19CB292798063D8B97F44E8A27BCF3A614FEB8BE974A718E86F7EC99B53CA35FA24F61F2B07266684623A3D4CF073E511F3A10A8FDAFAF0078C577F4DF9D339FE7862E5FA47CF4344209E5BF76D783B1B48E152AD281B15FCB934DCDA49CEC5706B1EE8B460F435324A5CAD
310
154725E21AB8044B75A557A79F6C807B9340AA3D92503E866F4274412926C8C504E4D5EF8C0E68DD0B028781A6B4054F11CF18941F101C57CCC796773ABC8DED9CD91FE5788806C05E548895354AEAC96546D55B0E94A59F148D061F42AA398D822CDECA4CDE79E13469BDCC44FDC990F366BA5978C15F97ED80CBFD73B0CD
310
9B8B83A4F6845BDFBFAF034019473FB9A63BD55D3A4A7284757071574029A4D016DCCBE95DD679EF3C4880BF169422F8C89B68A988D2B13793CAED4F74DE7486C72DC94DF46B8E93D8E02EFCB1FF9B3BA10C8AE7F653DF94F4AF466CDDCEF5776687F7C4C14B63E4EED1719DC2EC482D7DBCC7AE518CDE3D5FF86D39000EC3
310
673C0044E1D308BF05F74D1B5F033A7D1BE7F74BC55BBE3E4A20F920946CA0271EB17BD2B80E5660ACB8A29A79F5E4BBA49D4D945B6EEF4A7EFEAA65E5555BBB57A7E15D2F83C69F30BBB978D2B39F1F26FC097424D39BB33CA3D87ABF64E307938B685BAD44F71556A30B7E712CA4FE600613C3E554B69ADE949A7CFE214D
310
F1FFF05CB82151EC6FC31950239F94CF7AD39DC473F6EA356E5EC2C4EFA04383CEFE985A127484366FBEE3C0EC4FEA363E4F6632AE781392FD45D67B63FB8DF70E82734F431FD3443172A0E30A83D60982D55FA6A2CF86DBA8382502ACC6CDEF3B907982EED1160E14863FA242F9757347E1544275CCDCF71ECD5F8621CBEA
310
326B8BA884AD7F825781923E66971F04010D574C541D8427A438A37EEF8AF88240EED7362C953F5A81DE2D56109CDE2524EA0F5D2F87308C0C47BD97AD605878AB8589E17CA83930CB5E0DCCD75853D68B1AB136594926DE426C367428E9334AFAFF90ECE221BB5DC9E5BB53D2CDEF954EAA9CD814F0E5725F1965DD458E5F
310
8487683AD86B9D0076BE3EE91EB1CECC5331A67A3F79D8B27587C12EC2A6A70474749F27B4C0BBAFB94B34189E88DC18964BE4121B9137FD516C7755356E50D6714E31ACD222621EBBCD1CFF81D87479056A9DA0E0B8EA19D24CF937DA89F78E8650CCBDC110AAB6C4E46DCBFD0446BA9E2060E81F314AC2031E88135E5476
310
AC0160EF5C0DD2EEF1B8B5CB2D198BE9A554A9093B5F7D7E4B5407DDFCA1D9C152FD97F55BFFFDFE802954DFEC8995B983E28AC92F1971E28F531DC407A1280EB125F64A72E617EFB27DFBCEDCDA2D6F2BDADA36873EE46B9BE1782998C63DA7182BC383FB6FD15DA472B175D7E8B4FC88F38D6E07FEAA3FA3CBB8F6B449EC
310
F14D2175E5C5CCA3A42ABF24CA6C9395AF74535F4DDB38CB84F56614B0FD32D7E19CA5CF988DB4449C40E23DF2B16772594554579094450F56F253CD25EA7F77366FB1CFE79696C428BB64D5A41E986189427E5E4D7E2DAE3D5BB4972B3DC44EAABDDDD63A2264ECFA5C786EB0EE1FDC5BE34FA0F08376869FD1E61EA06CAE
310
15191135445EE8F0394161C3266A596AA035572BB0C8876180D8B9C77D307DF9DCDF7365ABDA6F3A2366436457A4DFC1F259666569A9E4A79C817BDD5610E5200FCE894A358EC72858D50EF67545DA81C6FACE3D457BAF70367E1E6BDD9A952FB4F56247F58F523B97E640246051A72F79BE42FFA0B3187F63097F91C48B86
310
8586F714B0EBD5A00A8412C1236E1298F60C72BE6C96B82B404CADAA304AE9F303176B14BA53FBC2D5E86377E35542019E24D97B96A49B2C0E5006E7795954DEAF5DA58958839043C6C70BD3B1B33B6DC5C31316D8A6923F142E26F6711A2258AF977DDF1F970ECC4F1F2B434B96D81BEB6E89BF3BBB3C7C8CC80505070723
310
D6D7D7D3C8CA27CA164A26024FED94B12A86031867241DA53D929636DA600F050BC40CE48B8BA03D69224720DEE2ED2127390BDF5E6EA64527BBD4C4C63FA76BB801FEEC0E61218EC98A8A86CD8313781617877E66692839B9468CF4DB8E50A73986E558E309C0D6F676F921BE02F1185454DC75B111572FF9D27D85EA14C0
310
5AD7271225B391C4275659CA4A43759D0BA44639BE4C30A84DB7F67A41399FB95CBF923B1B1672ABC807C1590557FB18D811983FA97F5E609516D62281D38B1281F68FC75528C35E4CD7DF0F7DBB5E5DD69C414EBEA2F4A5B241B996BA77AE6C772E367408C633EA3E438B68563EA8BE7667F3A4C4FDEEA52ABD78A2820F44
310
3B7914A15F180018D231E64519C56A12F6CA7C8DAE18F06F6B769DBF92329EF6A5D18FBCE600F36BD8E8198DE5CDAA96181F3A756EBA5501CEE58F497EA4F418A2B82565B9BCC611713C0B708CCA1F398B78C5F7D03B3437CC18F13061F55C7BEDADD5ACB1DB0E36D3CE47FF6EA1A563A57E9649EA5D14D1A50EAA45746338
310
1C073777EF1600607BAF6428A7DDC079D47A204EF1E1F1F0589FB054D45E02CE623B3823C317C601E589E22B1E88B448524B86A82828E32345EC18AE17214B42F8C41C6D428016D9BA31DDCB47572561E5A402E5BA4FCE55F78AF7268524AA04130F3A20BA5D1E9F9948EA48FC8F5314FDB35E21898198060034ACE5E3E2BB
310
CA34092518F275190AF65F45867FF0900AA4B81F25427414C372BF51DC29AA855C5428EE1EEDD6B849AD60F6E73475C2D2523F8A2772C840A478DED18A8C5C91B085F255DC4F54EA7AA8947354FD17ECF8FB3B4A0DE7B483CAF3A1165EE05BBA413E5C1FEF3DE1D6B8F2F3F3251C17D9FCAB48A9AAF63AC773A0E413BBC46A
310
9ADF84A566FC920E4D8C52C9769EE3301CADEEEDD92B312E02E2A7E35B7F1E7D203FE5A7D75578B06E99D0E46FFADB8FDA17ED8880390DA29094202D6F645F76F6F96409CDA05495A96E84B04A00D1A6C6C81D7F3DE9376E828CCF144EE50E364ACCE7237EA0BFB5607ED1AC3CFE73794E5B61739D14DF1743441B1AC98F00
310
ECEDE9E7301FA29755FBEFA68C91EF2B314CF510537EF1ABFC9A762496280B546F5EDAAF8A5B387D469FC9A878A92828C88608453ACEC6094DCA54111E7AD5B2663DFE2DD151B7F123B9F4FEF8EE36AB125FD7AD52A59B1B765B3E3F73E3F73DEA93875004D2AFFE3CDE9493B87A9904DD052028949041A91DC0E1BA47BA71
310
4343FD5B25E0A6A09503AFC17C790058A836A324FE31D7893512E28230332F153181C1E018E1124EBE1BA262AA428A518237D1EA7275E48C5C561BD19ED6912EDD8367DA0F31E40EEAE9683DA9257525AEA7B632B97119E17145A90231768A4F3B9120FF32E8319B015E3CBE26F1A754177D8185345817C096B0CE443A955D
310
13AC15E1FB5DEEA0239EC32A3C92241A237B0B02FFCB4F93CF2B02570C8D192E2F2A68CEEB42F12E6F8CEEFF46C251E22B4341C56FB08CCE550E7A9D6F4D6564B9EA52A83D5BF2C6E03FA19D2775E15A8A7ACF30A13C259EE7F5EF2AC3BA354F1500E1A07FC63FB4686E2F12EC69719F9ECF5FE3F35598DF2CE944008CE78F
310
0911BA5BE5D0A34E0098FF038669C26030BA9B300303039852A8F6F496341737CA7E0D2E3AAA36DE0A70AA7D9CA0D54D9AD84B18A44C9E625475E1C97B93BEBB38DCE7D227E67A2D00F531436136355F243D1FC0D712C5765754FA22FCFFAE97919161F46D6E61ACB37D83777B385889770B50765B127768443A5C4D3A4E35
310
A3151111F146B7CA116F918A049F1C272F2CD7976C69A0068773451659A97E0F4A08FE604C3FF6CE7385DB19F4D3ABC8A0D80DA8A42096AC377DB49382B36E270B6FA7570188B4B7D1DDDDA82ACA487CCA5D38BD3BD039ADBAFA4ACFF27809239B722081E2EB9F145320553D183F28471C388BC8814E5045676767AB58A8E7
310
2D1CED2CA731379515D2E533E4CF0B39DFC625F97AC4836831A4DE330E87A8126FA17EBE583D614E71E22A8DBF2825599743E0640037303E8E1B1E8EA4E1ABFA4F62907B5E4E0E5DCFDAB417C36C6848A2B8D15F1E505434C0707E16B1CFC2A1C36A42BBF55734F8F4301DDC2A5110CEE8C0747F69519265012A2174BF4E95
310
5ECD4FDE095A3ABC70536B7AD0B9D7892F81287D667C108703C9B66A221E9A0929D030008F77FF6F5D2108EF5706FC87A3069B976F7C9FC3239D13D283CDEA83597461079FEEE049B0F392889898B7D87D31F8D60ED7B56B91823A8E4EDDB36C6172ECEE42BD42B12CD67994FA0F0DFAE9389356F4CD4425A4B8AA55CBF7EC
310
D585C6A2C2316791E43D5C06841ADBB226A87FD61515FFBB0167B74E56BD7F3E90A57A97FEDCBDF483A0D6699A8C0849CAEB4947FAA90D8E332D9DEBD9F4738C37DA0CAF9CF3DAA68BCB67C420459C7A64498D6E848E5CADE92BB6901F607AA331104A67F7CD650EE169B1DAE94D2C31C2F993632259B6957E246EFE4C5481
310
107B07118607700040E5812A2A2A38DA0076875258C753F60E0F2662C748EDD5F3F3686B8FC3BD6FE631ECCAA1E8B1C1E565AD117E54893E79F4672E32F9E46B2A183DFDCF3EECB4D4D077DBEA0DA254D256045109670050129E9B9B1A9E4A11344D61497A992778095151510C4BB7EF2009B63AA4360635312E4CF668B7E0
310
D3D85A8688E2BD83B569439892ADB63461930D428E0DE42E4AC57CE48DA5CC1449530D8BD3D6A0F08DF20C8E8F570F2CFFFCEA286E30969B4654D498A58D9DA782E19FE3F002181838925592C4A1EF0B332D88B61A92C644547BED490D3A42CFFAB70E36D961F694F6307F72FF15A1C79D5B1B5CEFD353D9E2B52566DEC8F8
310
F09CB3E8359C0F68EBBB7898243E34E12A015B2685AB303C04D3A9E00671FF3DFF0A184E4A2ABEB2B666AF5B3A209C73D8EF29DCDB069C9F391EEE9DD0F74C7BCDE16F8F02E3B8816122BBEB50665775B600549D8BB33A54A6BF940C028118BC6878C79958D6784F9DEAA6E26748386FFAF8D0D0101E2847B6563F5D8DC1D7
310
8F787BE00E2C941AE12148D4A81599FE8F68D4DA5CDED75530ADE138240300EE13B0FC13A1687FED6774662C05A2B7DFB186732F0D7A93545D8B0A6390AE5054D9CB582DA846D7A061B3358B45E2B52DDE63E114397EDB7E09233A579155D795BE76102CF277F4DF8B188C4F2879BEAE3C08347124BF9ED23B128259FE107D
310
31E34A652F090B30B39E0D9AF917B76A2806135621A8A60681F16AF216514BBD02711585B5B1AE823F4B2D0369EA5B6BCB863072727FFC871CA6C9AB79A814D989057E9470A3D238BC87CBB4A0EA49AFE2B86F22E499793CAA9047080450166BDC357524561E258C77CB697F1ABB32562CF87C3B7AA12F911EF19FB3E5C022
310
22E887D08202A60A17151F5E053A86B437771088B4FEE14D652C43E8D939995D34545E12E2FF93D4E366EAD25F10CB7DED141563C3D0C447AF06078A91135FD4B9611583CB4BF3BD167F2399CEAB0E0100F8FFC305F00F1711717173138B4B48C83022295DE657EFEDD97F238ECA80F528AFB4F8D67AD4E2594B9A3AA86D74
310
87EFC313BA95745C186F0CDD84CC12DC9CB0424B42203D351FD9C0A3AF10CC7F388E0329279087386421F194F4A29464C1DEF7EF8BE515E4A199DCD5B909342598D8FE6A231F71336248D5CEC5454455C7BE383B3BC7B260FED27F703FDC39A170F3827239102F59D4DEE7FEF82EAA1A5E4BA94DCC4CC44E7E2EDE20F24244
310
E4454369D2E87C3F823F193FD4FD27E1C23984B01898D15ABC20711A8A558054951A6AE280096BA36CBA439603B7B0B4C45F248C14B2383B4B5CD8ECECE4FF859AD4A6CA2326D020EF090F4041D28DB66E5256B56232CC52829DE8060BAE6BBF37D4B7469B822454FE93210A3E8D15E69FFCF01123222611C51C4FD0A041A0
310
CFA2471CF6BE38D2B20FA4C3525B5B8B586759475CF80ADFE67A284AC24651E52B8E683D24C2622642F27E7C3C22783BCF63648BC398BD6CD0D9C97E7E7E3EACB6126DB7A6C1FD9F1031302EE67ED96F22B77C7CA0239BB324207559B105E4693EB26EC46182A92C9C0DBD24F29B31C5C5AC1F84300E0E17CEEAC15F5736FA
310
4A98971E2F1423BFCD68D4BBD5F86E74B40A369F39507C88FCDB35D2DD8DEBEA4AF999E23CF2816D204200DF6E611781B9884C1AC8888B4DE397320472959434323A5A36B22A8E1F721A270DF3BD65E4A31C11FF048AFB0D8B7B6881423793963A23CFCE935FC189ED36FAE35C46DA3574C979E4394BE52084F3081837BE03
310
3396D2EBD80F1F691B273F660D2B32FA27A33B1DE4ADA5F0FA4651511102DFA410DDA86E065272CA314D5249DF91B06BB92807B28EFD54F08F7B525252782CD276DD02E6B0319B13DF87B1F6361AD6B28FC0D711CF445429B9E5A433CD493051C49A9E03DDB1B147D880253514A5DED88009018620EE229101C041950E2D8A
310
A8E1F5F5438E0C0C0C60EEDEE9E3E0C051948C69F84BB7B2A48A1F3C8EB9E6864687F4F4F6F6E2FA87608ADAF9C5E117B7C1A737E710769DA1D15ECE6A84502AA855398712D5FB51BE92E4EF824969CE18278798AC303C2C7980DD2500ADF8FB1E6D6C2FAAFF9987178923334A244758BAA01A9A1B70FA5097D01E1CC2A58D
310
AD0EC94CE6430AA9B0C10D75E3C6BAC670EFBADEE1607739CE0FC18A2587E3EC3058562014C64219C69BC269082D5C2F4A659278D585755912176D78A1B641719C2A394CED495A1AC5D583FD2F5EDD93308EA7EAE8A6DD396598BDBD3D4CFED62D18A5BDFDE0DD5C80D1A89BA62697B131AE7CE9A6594138582F1B37D68F17
310
49AC7CB67A70695D48A4A056AC1FBD4E82358CEAE38F54B95A9016F9000F9879C0D9D131768635CA798895F27D6F1614F11F2838A83611AA51C9A3DDB539D42979C29F10465655C17BEC3E2760B80DCBF609198C7B171A531905F3EC218D696025975E986C6B4C666666787271F202805577DD5A3EF0CAFAF91B62DC4B2DB4
310
217A7606282F31D8DDBC290593BAA93EA6353AFA9939B877978481E15CFC9F2755CDC00C538F63A4BA3E80AE009B73CA0185687D339A507D165B74290D6EE46D5C58148F020C3668ABE9EF2F7549170DC80DB41FFC1D678FF19AEB10C7133832B104B80F691B3138F97A92D26E551F1F110400D45AC71A9B9AC41A1A1B1DAE
310
ED0B0810638EFFB511D46B121C6FEA0F38CD00E03CFFEB9713FE1F9C263E4DDEC160D0497FA9A132BA608584057FB15380825DE6C7FC3C667EE947D488A09898D8E939C4953BF4EC9836344D2CC6B2971B2A21A572B06096F4982D2CC7232D46E8EA69DC83722E267754D777F97F96D5DA74E1E75178084D0E70F12AD33E5F
310
71EF2AFA599B2BEBF60A5BE475F444F240CBFE8143C334E7ED9150FEEFEF7EB020C4DBED388DD1D6A167A76F3CBF119B578AE8CFA7736ACAFA4440A1C47185638A0D2F3EB5BDDEFDA958FB13CE4AA4923D5BF840392D45544329525749734866684BF7F8D9D54D892E19BCA9F829A0F8BFCBEEA6CFDFC61D74EA1A645ED7A1
310
FF241739F15694BD835B66FEC5677E40FE69BD3F91AE402F036537218A401CB0828604AD189E575015C6F3F6BBC8AC79CF6C70653847254B31551EFCBEB5978B9DB85D58D0FA41A9DFE9C624834AA04949D24B5AE6D299E072D152D12097920F14AA92C31C3B97E28B6C2E6E9C23D63043ECBBC0A60FDF5BD0C33C127EA8A3
310
308B8B6AFFEB28B4455BF6E7AF4FC6222728357EB8E46E85053E6A8843AB23295BF838ABDA94658FEF3F832F147046B4ACD6F7D48E8FCC9618582961C898D1C7A253C91BFECBDA6BA18A1FCF70755DCCEE2222F41B76D23CA98D0CB3D95F0CF66D57FFF65E2A90F5DF40FC3187621E981BD0BC1D992787212688976B94A8F0
310
C6EF646624B570B78E068826F87CE27041A95C9A4871FF65CC17FCB1639629AD6A9517000D63AC231F3D741CB8430777E7ECF80CE7A3F73C0F162F7E56AA71F4DA80A33CD6ACEE78E2C11FAC03DAFCE929B106F8F6B3ED2DC71FF994BD9CEF4E9A94896EF1B6E2B7B4978168BCF0847A3D2A4F1B0500B926E634B174548E9F
310
BAD27153FB5FC36799B1E6C7C38A94E1F9E996796D7B485E635D5287A2AE76FBD11A341DB3F8F810385BB7296391973DC6C37C452A9305AEBBE0CDB6C566DB59FE60C8E94B1FD090354BF51439FFD1B48D725228FFA88C84F686F547107A7A235665A4593B7C34D748C1AC8D56DD5DA861EEFBADDECBBD65117E65851F9035
310
1AEB65F0EFCFF4BCFEF24CB7A5879699FAC437A7AF9099186CF006BB923A59E37D7A36A29FD8D2CBB914A5E9D0A8FD212FBF796AE9A67958FF1D5D8B85F78F96219D4714EB919929241B6C018AAE0C02069F8D919961EC5DDFBFB7573E3AC8E08BFB7C8534BE6DE045B3CD63DBD71F7638BA2309CAE398EA3A7D8F98BBBC7A
310
EB367EFA5CFA27A9F8F2F52FE878058E6209C026453F8E7E8A237DFC389E9590F6059B397CFD65183BBF936E86896612A5B5FEE49DAC8455D026218AFEBEC12B3523A45B57B82C9C97E02ACFA1184DB18E48CF615DBF39C3CC6F0B4AE6BBEEA2E39D944E290302FA3DE33FA7E40296E2EF7BF1CD855BBECFAD0FD622BEE974
310
6FC4FDFDE545AE6E3BC234CADF83A0FB76DFB145BF3828AE3436368AC24989454F8FF70A177672C711CAA1A76107218CF948CA01F873520E7A2B118EBB161ABAD432932029628B6761590C98AB590C8C8C79798CE9F715BA696E839E9131A4BB68BE923F1747FBFF165331FFDD4D05997ACD168F12CA75348DAC04C7F509FE
310
83898A8B421181AF492861CE81E4A2DD0A30850CFA95E05F097FF70F9E777310D584A75BA7018922E271DAB1D785671157685B7D383D3E074DDB4F1E44EF04B07BAAC75A062077C54B9752C738C9D804D402E02851F3F89605AF189738C18C021D2139EAF72513824E10DDD3047BACC8521ED7E98B257D1166903B1B08FA6F
310
918FD7E162913FEC7D0EF4787E29C35FBA8C6E2C9C20E9AB30AE42CA2A01A090E7D010C1B5BF9CEE2A304BF3A987FB40D836979B79E18D70F257DA61E808472DD85B82761825779D6B90CAEB0F23360C6F80A7D7D77545E95B3DFF0CF96A827F9B5BCECD2C9698718417EF80FEEDEE938AFF55859D0D540B7FE09435583A6F
310
04874A0C7E8CF234DF4879722000167F5872CEC6BF3EF7E5A8CC8121E6A359227C8A29C95212F9F735BC72A887D56B8F309FC525BFB4FD767AAEC4AEFF249CFBBD2DE1AB9969A6155C7D8DABC307E47324C1F916C7BCFF40ABA5644E9FFB9238D19ADADA49D9610F01ABBA57E4DFCBDCCBB2B93C8953206C91DE01B0E2651A
310
6D6C31721915B31F7B7CBCE55466F6D70402788FA91D73BE4ADCBA99A35F17D6B83383704917D6833F0FA3CD45C926ADB8BC17999A4A0AFBCE2541F7B8CF4C2F5FBA611B3E626D64407CB32C122DFF4EF8674D6EDBB86C8F7C6A16D50FA685E2CCA34F8F7D1D8265BB0042E9D7F1F666F7BE5FAA5184DF58E12122A42EF02F
310
461B3F369AC746F96528AD208512AB56844CF75B97F352DF7995024FB02855385854F3798670D01CAC771AC3E1889EC25F61A20C1F8CAB46898817F9C47E2CDA1F286BF2F358298709FE567C91133E2638C8B53975E753EA8BFD3578B5F7186B7BF084EBA3F77BAC3132A5779902EC22AF2D2E79F42D324E083386DAEE9810
310
D1B44A5DAA54513C7A71E52A4AB9257D975B621308FE4D2141CC3DCFE946C154A3C1DFCCA7629EC69ACFA831634ADDA93C0388D2A9A2DDAFCF957C6995BCE7FBB6DC4EBAE79E63EB08E9A25F52F67076F7093CA545CA3053B5BF576DEAD4E0017143C5F759F32B2D6F145B52B67B48909B7C7FCA6586EE385A2189C16932CB
310
6DDFD9152AE317C430492A578ED27B72D85D40C7C93C097939E1B50F4D67F05334FE9DC362C30B7FF561B95259138ECFD9274C8D695C31B14D4EAA9F3D7FA8DDF652F8C5DEFA23284C799B7D94416DEE81E05A866302DC70192A5368EA65E1CED8BF107A1E2D3119A71E85DC1A7B0C1E93274CE04DD0F2ABC8AC7C987FDB00
310
2B6F81757B43502EF7A0D92E416494FAEEA4C9C090CD9557AA4D532F4996A272B94355C5A0E4974EEA9627476F30809B94D8D8D860062E02204643BEC7D0438AF800FC7E2B26955D595421E83C69E1A07E0E3122285835F014AD538188CF9737CE76D464A353FA55A001AB2526B84E985083693BC76FE211CA1D000679C889
310
E3C009832C87E1AC2EDD05C302557422DF0800E316FCAC86978A371F025A6C7DAA9F333E7BD160403A1A06EA75AA9888FF01504B030414000608080088537D4A51464CB48900000043010000360000006662782F36463846464241362D424143452D343735352D383933352D3543444645304130364542362F646972656374
310
6F72792E786D6C9D8F310EC2300C45AF127987122606C71DD918B841D4B851A43646695A717C52A85029031293A5A76FBF6FACEF7DA7264E43906840EF0FA03836E242F406C6DCEE4EA06AC22492573150D1F66C60C640E8938CB705396EEDD86DE9B5042FE27813D640EA63BB001C722AF6E55CB61E4863F58284D5D3F53D
310
D715CE1C3985E63FD7F1B7EBDD617E9F1E504B030414000608080088537D4A3378E00236070000201C0000340000006662782F36463846464241362D424143452D343735352D383933352D3543444645304130364542362F6F626A656374732E786D6CDD59596FDB3810FE2B84F665F74197AFD885E3C2475C1845DAA04617
310
FB26D032ED70A30BA49438FBEB774891B224CBB6926D8162132056687238F3CD3D1A7F3C84017A268CD338BA355CCB311089FC784BA3FDAD91A53B7368A08F133466719C96F61928C221B935C4B23119EF599C256A694B76380BEAABCBD95F88FB242206F203CCF9ADC1FD4712620B6769BC25FCC9DAE2145BFBDDC172AD7C
310
6395EC9EE1E4B17655821989526015D623A0A23870ABFF8248F6646C8B0D956D9D76DBBA17B6D952F02AA334E2298EFC13AE6A743AEDB8EABABDC55DA73F32FBBD5ED7EC0D3AAE395BCE16A67BD375E683F97C34BD1B196832DEC47150282021D116B4F86A4CDCB12DBE29C4572834F1EDC751447C8566D3862D517429E175
310
4C2AC0BA52B4924272594B0BDD96C29FD9D60A940A4B15B4B570FAB36CBDF1E66F0081B7B152C689B0729E32D0B5C23EF707676CE7AB15BD508E429C1246718002BA61988182606BAEA00A19E12D82141298492D6A7A655EC1B0AFFB521397BB2C0884FF1A13E9691EF82349B9E48CFE43D891FBF26DC013489BD1281D2A61
310
D3D704488CC6B65CCCBFEB76D49739906817E03D580B882936753B35BCE62216AC16C6E4F37273588BF8D07C79C2E284B054589E7466E5775A8325D302E36B014A8E6B55774754BE01F45F00F982173406CD317AE81D7A5A768623BE8B5908DA410E321DF8E320F178F234B68BC313842AB1F21CA6E0B63F08D38A1895BB4B
310
904EC6CF60F431EB2AE1D63E0EC0A6EF6924FC1C0C0505312C41BCDF6D0EC66405C11416E1140E407AF81DDBE211C1474E07E24D4D434DE1B785A2B4C3D4FDECA8AB4F60338CFA85AA2A329EC3B7FF43F09D2ED69FD719DB619FDC2BC75E901D8D680AC9B499A10AE81597FFBEFA223DF2449ECA2E1FEED9C7227034E865AD
310
F482A4628015918773D5C8957B0AEE1E04382271C6D57A53A0F2E32066DEE6D5CB7DB8F1AE3FB511E497817F0B0B680C6690DD7D4613018A3151E21591D03AE224E2A032C07DAE546F83FD2701AFE743C47A0F1F60B598D5896661E2E130CE2211BE4FCDBB2E9AD575E48FEB8E3ACEA8331C0DB4B05C92D7DEA34343C1BCB8
310
27C4C9994BE6156DA9A8A129E77ED48368D924810F3553967A71827D9A36DB424D08E5A100F64596B774B7CB3804F546586A1C5B5DB78F9CD2DFE292CBDCAB4B3C1AE23DF1765864B8C6FB2A0015C4B5048DC8EC8398731A112E2B9493C85543C5B12010E476ABA9361821E55E4852FC1EFB9329AF667E8CEC020F6AA95454
310
B3D7AD4F33A8B2E7398AA2728B234FCAFFEA711C26415EA55DC3C0EDD46E68C455302DAE78067BF370EA395B228BEE6BD48BB8A0F16D457DF46EF267E061F8A7C3A3AFA0507A438EBCAE59D7EABB23F13384A032E8BBDD1BAD886B58E9AB5251830419544DFEABF742E8FEB15D406B750F27C1CEA34190855E9E0F52124209
310
86D38CB5F2D741DF3951BE8A0B358728DDB4A30114C8AD83A6AC3D74F50152C9E2E35CD02C5D0342D1087AB456829C48D168C25217B21F156DD775EDBF9DEA7F8E97E53EE589BCBEC46CDBC869B58CD015982E1844B85419AEB0234979322E3B5F281B97EB38F4341115DFF22E41590823CF540C266407D4D83FF0179CFA10
310
48D7F2D39C81476CC9F6585354C8A9318731814B35355DA7963B1D0876227D540AAF9508A8214C1BB088B3F7E221F88641D550F9715B553576BEBE1289CD82C1CA918F0BB4BE7E5AD7A8C04AEBD30F0223F252A3A056E7A290BB40EAFBEA58AFD6282889BEAF2E1C4F1FB37013612A32A3300BBC4D3E7C94BDE4AD0D8D823D
310
580E97CBD97460CEA6F33BB377D3EF9BC351B76FF6E78BE59D33750677B381CD088F33E6136E776CC7D3B55312EDB561E4D0B5E92860AA70BDF5D3F65C57F0FFB8A308E20D3E678BBF6A4351947BA220ABF962DB86A231506FDE56FDBB2781BA3989BDA972CE6705DAC02FA72D08463ADFB72F2D34695D4934F35CCA886F4C
310
BC67BB959F9E632A01BD313F54763485FC6A2C86D9534396D2DDAD8C6BF3E568E4CE8637E6A83B989ABDE97468CE6633C75C76EEDCB933709CC5DDB12554B9B06D5EF92562A866B634468369308F030A4379B2457B12430704538716F1958584CBCE060A0095C6F51B8116A79FF3996A8A37813EED3F62184C072A23673E0C
310
45A1EBB835D43AFA0DC6A06212298753D613241E65ED06CA18BD35C004520AF9C5DAC0384B0E0F25F5DAB812D486A3BDE899F253C5FFC763021DB095A35CC59E36B828C92AD609C38144BE278068A70B92F78BAED9413885C74D9616C21C178ED22810F40B815C3898FA3D29780F10782ECBE55A724F05925693F98B769053
310
3553CCF672BC5EC27BBA78B0C5647CF5152541B617EABC94EF2B944C516704593E841A83612831132CFAF0F907FB81C5F08A29444B0A46807E3F0C077FD8F3380CE3285FB2A7EA45155A3FC26BA7ADAD477E50B838EEC096758F1AEBC3DC8A130B6FF9132C806A1915B3D11CE28A0114E1A964005A23421770ACB27FB5402A
310
09944AD872E92AE091337D048E24DEE508B7296F280D20C11780AB7C4E5B3CE885B1CD60083EF917504B030414000608080088537D4AB7C18878E2000000550100003C0000006662782F36463846464241362D424143452D343735352D383933352D3543444645304130364542362F7265736F75726365732F322F636E782E
310
786D6C4D90CD6AC33010845F45087AB42C39D0A661ADBC444FBD0455DEA822B6D6E8A7346F5F2955A1A75D663E96D981F3F7B6B22F8CC95398B91292330C96161FDCCC4BBE0E47CECE1A2251FE877116CC86336F32D7E02295BD4B0B5E4D599BBAFA70EBA2BC380C18BDBDECC171665793D2CC93FDC4CD0853322D986E6231
310
D9082522262AD1623D91FD86FD848D68322E5C4F52BD0CF2304CAF6F4A9EA6E3493DBFC3D8480D1F446BE77DC818697F9AA4A5BA869A48C2D8000D25FA4EB537AAF1174FD47830565B43CAB176D0B17CDF2BE637E3707C20BFAE86B13D59C7A3813A5B21FA07504B030414000608080088537D4AFF15A4A45D000000800000
310
003A0000006662782F36463846464241362D424143452D343735352D383933352D3543444645304130364542362F7265736F75726365732F636E782E786D6C4D8B3B0E80201005AF42B6F75B59F0390B113044D83508C6E30BC6C26AF226F3B8BA6360974DA7271430F523308B2B198F9B80925DB700539227A2FCCB80A18E
310
5640D320F996A81C9F32D6E9129A0D1EF74FCE750E6D57BC7165FBCA07504B030414000608080088537D4AEBD43F9F4301000056050000300000006662782F36463846464241362D424143452D343735352D383933352D3543444645304130364542362F636E782E786D6CCD94C14E032110865F6543E27161774DB41A9626
310
1E7C020FC61BCB4E572C0B1B188C7D7BA16E5B8D69F4D0A4BD91E123F9FF999FE1CB8FD114EFE08376B62535AD480156B95EDBA1251157E582144BC1BD73F80D23859523B4249789E08377719A4B3DAC6434B96AB45DCF4589E87517110229949121B424A857182595115D0F614D7B8992D6D44370D12B48EF518F30BF571E
310
24424F4453D5B765755D36774F7575DF2CEEEB9B17CE322978E79C99796D11BC9BAE9A4AB974B4494EC55906048F5ECF54F640C4411BEDB4E52CDD0B1E925E3BCC1C6EA6CC4D93D14A626A14730A01CB04811C39FB820567D9F10FDF8F0FCF070DE9D46B0F0A9DDF9CAD0DF5B136ECA5D19488FF75610BFE65DE756FC9F2F9
310
E67ED4F02CEC647677C90D29BABF9390F224ED602EF103ECA59D3EFF69B1A05697687AA7EC449ED97605A6C1E78D283E01504B030414000608080088537D4A5B2CED107E000000A30000000B0000006662782F636E782E786D6C4D8CD10AC22018465F45FE7BCB28CD401DBAE67B8CE686CC69D88C1EBF19BBE8EA83C3778E
310
683E4B406F975F3E4509A70301E4E2230D3E4E12CA3A620EA85122A7B4FEDD00C57E71122A0625A69CCA7347831BFB122A0D3ECE3B64965B6B34C346B71DBE5C29C5FC76A698B677DB114D5867D8661CABB2CDAFB76DCDAB2F504B030414000608080088537D4AA6D797065F0000008200000007000000636E782E786D6C4D
310
CB3B0E80201045D1AD90E9FD7516806B51190811670C8A61F982B1B0BAC9C97B72CA7B1037C6D3332918DA1E04D2CAC69353902EDB8C20262D23F3F59B81A079470595414B17391D1F19B4730A5583A7ED43BBE4025D9592775E5ADFFA01504B030414000608080088537D4AECFD112DA800000026010000130000005B436F
310
6E74656E745F54797065735D2E786D6C7D4F4B0EC22010BD0A61DF525D18634ABB506FE00510A79458060253536F2FD89D5197F3FED3F68B9BD80362B21E25DFD40D6780DADF2C1AC9671AAA3D677DD75E9E0112CB5A4C928F44E12044D22338956A1F003333F8E814E5331A1194BE2B0362DB343BA13D122055543278D79E
310
6050F344ECBC6478EDCD76CE8EABAE5449AE4298AC56946789C28AAFBEABC53F3EAF09A84A1441B91F0101CD4780756578C173A578FFDDBD00504B030414000608080088537D4A3DEE336E64000000790000001B0000006175746F6465736B2D64657369676E2D7061636B6167652E786D6C35CBC10E83200C00D05F21DCA5
310
6CA76D41FC96062B120735B69A7DBE268BB7777961F8D5AF396893C2ADB70FE7ADA196782C2DF776D7A97B5933C430F15651E5469C55D70F80A4992A3ADC954792C525AE70A1E4D6AD9816CC044FEFDF01FE3FDE907802504B030414000608080088537D4AF06E1487F40000008E0100003D0000006662782F364638464642
310
41362D424143452D343735352D383933352D3543444645304130364542362F7265736F75726365732F322F636F72652E786D6C8550CB6E833010FC15B47703E6114C641C256AF8829E7AB38C43AC041BF951F5F36B072AB5A79E76353B33BB3BF4F4B53CB34F699D327A009C9790492DCCA4F43C40F03744203B316A8DF1BF
310
689069BEC801120C8CCED684758784D15EEA846A33C91DE4CE490F9978C6660027EE72E1390F3E32DC235FB978F059E638DF788C86A0A65DAAA6E8A66E4A5A6063D936E77A24A86B2F1835D77644A43A9C51437A4C2E7DF7766D3B5A2431A35E2D3FDB8595DCCB095855E20E9535AAFA775C1E2B72C4870F5A2426A3CEDBF8
310
F3BE347D17E9B4D8D03F6E619DFE770B4AFBBADADD36850386E371AF01A3454A27965774B1A624D937504B030414000608080088537D4A9E4ACCDDFA000000960100003B0000006662782F36463846464241362D424143452D343735352D383933352D3543444645304130364542362F7265736F75726365732F636F72652E
310
786D6C8550CB6EC23010FC9568EF4EE24088831C2350E10B7AEACD729660416CE447D5CFAF4D52A93DF5B4ABD999D9DDE187AFF9517CA2F3DA9A016859438146D9519B698018AE84417110DC591B7ED1A03072C601320C824FCEC6E70A296B029A8C1A3BE20A4AEF3140A11EA919C0AB1BCEB294312486BF974FA9EE72C292
310
960B4FF018F5B84AF598DCF455A30371A9DBED717361A46B4F946CCFED85B06677245BD65376EABBB773DBF12A8B050F7AFED9AE1CCA802388A6A61DA937A4E9DF69BD6FD89EEE3E78959982FBE0D2CFEBD2FC1D0887DE46A7D0F36A99FE718DCFF17FD7A84DD834ABEBA2F020683AF23510BCCA29A5F28A30D59CA8F80650
310
4B030414000608080088537D4A0628F289F4000000B1010000310000006662782F36463846464241362D424143452D343735352D383933352D3543444645304130364542362F636F72652E786D6C8D50CD8E8320187C15C31D055DAD6D9046BBFA047BDA1B016A492B187E36FBF80BD54D766F3D7D64BE1966BE21E7EFE591
310
7D49EB94D11DC0390299D4DC08A5E70E047F852DC8CE945863FC1F1AC8345B6407120C2899AD09EB0E71A3BDD409D546C81D64CE490F32FE888F0E387E930BCB59F091E1EEF9CAF89DCD32C7F9C6A3C4ABE557CAAD645E0A404B840F1055B03C7E60742ADB136E3E4991989484A0C46EA544745757252DA0CDD44ED3D03770
310
E82F237C3BD4356C8F550DEBCBFB34A21E35E3D09022892971DEC69BF74FD275AFCA37E1BFCC61152F6456DA57E56EB8291CA038E6792E28295281713CDB8D33954D7F00504B030414000608080088537D4A6A11213354010000DD0200000C0000006662782F636F72652E786D6C8D52DB8E832014FC15C33B2A56AB6D90A6
310
CDB65FB04FFB4691BAA40A06C1F4F317BCC4F5612F314132E79C993313F0E9D536C1C0752F942C010A631070C95425645D026B1EB000C18960AD94F9D60602495B5E020F03826BAD6C37434C49C3A547A5AAF80CD2BEE70604AC719712F4EC93B734A4D6B88EFE1976943D69CD43144E7D045B2BAA7954548E4D3C04D780DC
310
E22C3DEF6E05CCB30B82E935BBC122D99F615A1C507139E46FD72CC7911F26D8887651679A53C32B409218E530DEC1E4F08EE263521CD1FE0347BE93E0DE68E77916F5EE0079DC5F389AF00D9FEDAABFF9AC906697CC7CD3440F0872EB8D0582239F8FFB8DE16D3374C22E3F43EFCD62E1E9A08133A374EA2A95B26B69A08D
310
E58E3A0EC60F4753D5318F043FF124BFF0FCCEE182A2B276AB51E3AE776BBCFA76A78E6B38985720956E69B32E37ADB89EABD0C6D232CE54A3F47FA617AB4B98917F98E40B504B030414000608080088537D4AA3A18B7508010000B201000008000000636F72652E786D6C8D50CB6EC32010FC15B4776CE3476C47982851E3
310
2FE8A9376A888B62836570D4FE7D21A6527BEB69D1CCECCE30F4F4394FE82157AB8CEE80241920A90723941E3BD8DC0D37804E8CAEC6B85F32409ACFB2830003A3E36AB6254283D14EEA806A236404B9B5D2011A26FFE8C00E1F72E609DF9C57D87BB2F0E1CE47999064D731EAD4FCB33AAC923B2980E519A97156E0BC7D25
310
D9316F8EE4F046D3A06474DB9488564A787775537205D66755792EFA06D7D585E0F25AF5B8C90F675C362D692E6DFD72AD6A9A866546AD5BFD9FE3119FD321CB1FC197A63BC5E8BB315314F85002193D7D01CB681A883FA1B745FC23B4D2AEC8E3C17DC302233ED093F0C6A1413F9EF5FA19DA66DF504B0102140014000608
310
080088537D4A0000000000000000000000003700000000000000000000000000000000006662782F36463846464241362D424143452D343735352D383933352D3543444645304130364542362F617474726962757465732E62696E504B0102140014000608080088537D4A0000000000000000000000003500000000000000
310
000000000000550000006662782F36463846464241362D424143452D343735352D383933352D3543444645304130364542362F76657274696365732E62696E504B0102140014000608080088537D4AF270F13306000000040000003600000000000000000000000000A80000006662782F36463846464241362D424143452D
310
343735352D383933352D3543444645304130364542362F747269616E676C65732E62696E504B0102140014000608080088537D4A88E57597CD3F0000904100004200000000000000000000000000020100006662782F36463846464241362D424143452D343735352D383933352D3543444645304130364542362F7265736F
310
75726365732F322F305F67656E657269632E706E67504B0102140014000608080088537D4A51464CB4890000004301000036000000000000000000000000002F4100006662782F36463846464241362D424143452D343735352D383933352D3543444645304130364542362F6469726563746F72792E786D6C504B01021400
310
14000608080088537D4A3378E00236070000201C000034000000000000000000000000000C4200006662782F36463846464241362D424143452D343735352D383933352D3543444645304130364542362F6F626A656374732E786D6C504B0102140014000608080088537D4AB7C18878E2000000550100003C000000000000
310
00000000000000944900006662782F36463846464241362D424143452D343735352D383933352D3543444645304130364542362F7265736F75726365732F322F636E782E786D6C504B0102140014000608080088537D4AFF15A4A45D000000800000003A00000000000000000000000000D04A00006662782F364638464642
310
41362D424143452D343735352D383933352D3543444645304130364542362F7265736F75726365732F636E782E786D6C504B0102140014000608080088537D4AEBD43F9F43010000560500003000000000000000000000000000854B00006662782F36463846464241362D424143452D343735352D383933352D3543444645
310
304130364542362F636E782E786D6C504B0102140014000608080088537D4A5B2CED107E000000A30000000B00000000000000000000000000164D00006662782F636E782E786D6C504B0102140014000608080088537D4AA6D797065F000000820000000700000000000000000000000000BD4D0000636E782E786D6C504B
310
0102140014000608080088537D4AECFD112DA8000000260100001300000000000000000000000000414E00005B436F6E74656E745F54797065735D2E786D6C504B0102140014000608080088537D4A3DEE336E64000000790000001B000000000000000000000000001A4F00006175746F6465736B2D64657369676E2D7061
310
636B6167652E786D6C504B0102140014000608080088537D4AF06E1487F40000008E0100003D00000000000000000000000000B74F00006662782F36463846464241362D424143452D343735352D383933352D3543444645304130364542362F7265736F75726365732F322F636F72652E786D6C504B010214001400060808
310
0088537D4A9E4ACCDDFA000000960100003B00000000000000000000000000065100006662782F36463846464241362D424143452D343735352D383933352D3543444645304130364542362F7265736F75726365732F636F72652E786D6C504B0102140014000608080088537D4A0628F289F4000000B10100003100000000
310
000000000000000000595200006662782F36463846464241362D424143452D343735352D383933352D3543444645304130364542362F636F72652E786D6C504B0102140014000608080088537D4A6A11213354010000DD0200000C000000000000000000000000009C5300006662782F636F72652E786D6C504B0102140014
310
000608080088537D4AA3A18B7508010000B201000008000000000000000000000000001A550000636F72652E786D6C504B050600000000120012002D060000485600000000
  0
XRECORD
  5
259
102
{ACAD_REACTORS
330
254
102
}
330
254
100
AcDbXrecord
280
     1
270
     1
271
     1
  0
XRECORD
  5
258
102
{ACAD_REACTORS
330
254
102
}
330
254
100
AcDbXrecord
280
     1
270
     1
271
     1
  0
XRECORD
  5
25A
102
{ACAD_REACTORS
330
254
102
}
330
254
100
AcDbXrecord
280
     1
270
     1
271
     1
  0
XRECORD
  5
257
102
{ACAD_REACTORS
330
254
102
}
330
254
100
AcDbXrecord
280
     1
270
     1
271
     1
  0
DICTIONARY
  5
AC3
102
{ACAD_REACTORS
330
AC2
102
}
330
AC2
100
AcDbDictionary
280
     1
281
     1
  3
TEXT
360
AC4
  0
XRECORD
  5
DA8
102
{ACAD_REACTORS
330
AC2
102
}
330
AC2
100
AcDbXrecord
280
     1
102
DISPLAYNAME
  1
ASME Y14.3 - 2003
102
FLAGS
 90
        1
  0
XRECORD
  5
DA5
102
{ACAD_REACTORS
330
AF6
102
}
330
AF6
100
AcDbXrecord
280
     1
102
DISPLAYNAME
  1
Imperial24
102
FLAGS
 90
        0
  0
CELLSTYLEMAP
  5
DA4
102
{ACAD_REACTORS
330
767
102
}
330
767
100
AcDbCellStyleMap
 90
        3
300
CELLSTYLE
  1
TABLEFORMAT_BEGIN
 90
        5
170
     1
 91
        0
 92
    32768
 62
   257
 93
        1
300
CONTENTFORMAT
  1
CONTENTFORMAT_BEGIN
 90
        0
 91
        0
 92
      512
 93
        0
300

 40
0.0
140
1.0
 94
        5
 62
     0
340
11
144
0.25
309
CONTENTFORMAT_END
171
     1
301
MARGIN
  1
CELLMARGIN_BEGIN
 40
0.06
 40
0.06
 40
0.06
 40
0.06
 40
0.18
 40
0.18
309
CELLMARGIN_END
 94
        6
 95
        1
302
GRIDFORMAT
  1
GRIDFORMAT_BEGIN
 90
        0
 91
        1
 62
     0
 92
       -2
340
0
 93
        0
 40
0.045
309
GRIDFORMAT_END
 95
        2
302
GRIDFORMAT
  1
GRIDFORMAT_BEGIN
 90
        0
 91
        1
 62
     0
 92
       -2
340
0
 93
        0
 40
0.045
309
GRIDFORMAT_END
 95
        4
302
GRIDFORMAT
  1
GRIDFORMAT_BEGIN
 90
        0
 91
        1
 62
     0
 92
       -2
340
0
 93
        0
 40
0.045
309
GRIDFORMAT_END
 95
        8
302
GRIDFORMAT
  1
GRIDFORMAT_BEGIN
 90
        0
 91
        1
 62
     0
 92
       -2
340
0
 93
        0
 40
0.045
309
GRIDFORMAT_END
 95
       16
302
GRIDFORMAT
  1
GRIDFORMAT_BEGIN
 90
        0
 91
        1
 62
     0
 92
       -2
340
0
 93
        0
 40
0.045
309
GRIDFORMAT_END
 95
       32
302
GRIDFORMAT
  1
GRIDFORMAT_BEGIN
 90
        0
 91
        1
 62
     0
 92
       -2
340
0
 93
        0
 40
0.045
309
GRIDFORMAT_END
309
TABLEFORMAT_END
  1
CELLSTYLE_BEGIN
 90
        1
 91
        1
300
_TITLE
309
CELLSTYLE_END
300
CELLSTYLE
  1
TABLEFORMAT_BEGIN
 90
        5
170
     1
 91
        0
 92
        0
 62
   257
 93
        1
300
CONTENTFORMAT
  1
CONTENTFORMAT_BEGIN
 90
        0
 91
        0
 92
      512
 93
        0
300

 40
0.0
140
1.0
 94
        5
 62
     0
340
11
144
0.18
309
CONTENTFORMAT_END
171
     1
301
MARGIN
  1
CELLMARGIN_BEGIN
 40
0.06
 40
0.06
 40
0.06
 40
0.06
 40
0.18
 40
0.18
309
CELLMARGIN_END
 94
        6
 95
        1
302
GRIDFORMAT
  1
GRIDFORMAT_BEGIN
 90
        0
 91
        1
 62
     0
 92
       -2
340
0
 93
        0
 40
0.045
309
GRIDFORMAT_END
 95
        2
302
GRIDFORMAT
  1
GRIDFORMAT_BEGIN
 90
        0
 91
        1
 62
     0
 92
       -2
340
0
 93
        0
 40
0.045
309
GRIDFORMAT_END
 95
        4
302
GRIDFORMAT
  1
GRIDFORMAT_BEGIN
 90
        0
 91
        1
 62
     0
 92
       -2
340
0
 93
        0
 40
0.045
309
GRIDFORMAT_END
 95
        8
302
GRIDFORMAT
  1
GRIDFORMAT_BEGIN
 90
        0
 91
        1
 62
     0
 92
       -2
340
0
 93
        0
 40
0.045
309
GRIDFORMAT_END
 95
       16
302
GRIDFORMAT
  1
GRIDFORMAT_BEGIN
 90
        0
 91
        1
 62
     0
 92
       -2
340
0
 93
        0
 40
0.045
309
GRIDFORMAT_END
 95
       32
302
GRIDFORMAT
  1
GRIDFORMAT_BEGIN
 90
        0
 91
        1
 62
     0
 92
       -2
340
0
 93
        0
 40
0.045
309
GRIDFORMAT_END
309
TABLEFORMAT_END
  1
CELLSTYLE_BEGIN
 90
        2
 91
        1
300
_HEADER
309
CELLSTYLE_END
300
CELLSTYLE
  1
TABLEFORMAT_BEGIN
 90
        5
170
     1
 91
        0
 92
        0
 62
   257
 93
        1
300
CONTENTFORMAT
  1
CONTENTFORMAT_BEGIN
 90
        0
 91
        0
 92
      512
 93
        0
300

 40
0.0
140
1.0
 94
        2
 62
     0
340
11
144
0.18
309
CONTENTFORMAT_END
171
     1
301
MARGIN
  1
CELLMARGIN_BEGIN
 40
0.06
 40
0.06
 40
0.06
 40
0.06
 40
0.18
 40
0.18
309
CELLMARGIN_END
 94
        6
 95
        1
302
GRIDFORMAT
  1
GRIDFORMAT_BEGIN
 90
        0
 91
        1
 62
     0
 92
       -2
340
0
 93
        0
 40
0.045
309
GRIDFORMAT_END
 95
        2
302
GRIDFORMAT
  1
GRIDFORMAT_BEGIN
 90
        0
 91
        1
 62
     0
 92
       -2
340
0
 93
        0
 40
0.045
309
GRIDFORMAT_END
 95
        4
302
GRIDFORMAT
  1
GRIDFORMAT_BEGIN
 90
        0
 91
        1
 62
     0
 92
       -2
340
0
 93
        0
 40
0.045
309
GRIDFORMAT_END
 95
        8
302
GRIDFORMAT
  1
GRIDFORMAT_BEGIN
 90
        0
 91
        1
 62
     0
 92
       -2
340
0
 93
        0
 40
0.045
309
GRIDFORMAT_END
 95
       16
302
GRIDFORMAT
  1
GRIDFORMAT_BEGIN
 90
        0
 91
        1
 62
     0
 92
       -2
340
0
 93
        0
 40
0.045
309
GRIDFORMAT_END
 95
       32
302
GRIDFORMAT
  1
GRIDFORMAT_BEGIN
 90
        0
 91
        1
 62
     0
 92
       -2
340
0
 93
        0
 40
0.045
309
GRIDFORMAT_END
309
TABLEFORMAT_END
  1
CELLSTYLE_BEGIN
 90
        3
 91
        2
300
_DATA
309
CELLSTYLE_END
  0
FIELD
  5
AB7
102
{ACAD_REACTORS
330
AB6
102
}
330
AB6
100
AcDbField
  1
_text
  2
%<\_FldIdx 0>% %<\_FldIdx 1>%\PSCALE %<\_FldIdx 2>%
 90
        3
360
AB8
360
ABA
360
ABB
 97
        0
 91
       63
 92
        0
 94
        9
 95
        2
 96
        0
300

 93
        0
  7
ACFD_FIELD_VALUE
 93
        3
 90
        0
 94
        0
300

302

304
ACVALUE_END
301

 98
        0
  0
FIELD
  5
AC4
102
{ACAD_REACTORS
330
AC3
102
}
330
AC3
100
AcDbField
  1
_text
  2
SECTION %<\_FldIdx 0>%-%<\_FldIdx 1>%
 90
        2
360
AC5
360
AC6
 97
        0
 91
       63
 92
        0
 94
        9
 95
        2
 96
        0
300

 93
        0
  7
ACFD_FIELD_VALUE
 93
        3
 90
        0
 94
        0
300

302

304
ACVALUE_END
301

 98
        0
  0
FIELD
  5
AB8
330
AB7
100
AcDbField
  1
AcVar
  2
\AcVar ViewType \f "%tc1"
 90
        0
 97
        0
 91
       63
 92
        0
 94
       43
 95
        2
 96
        0
300

 93
        1
  6
Variable
 93
        2
 90
        4
  1
ViewType
 94
        0
300

302

304
ACVALUE_END
  7
ACFD_FIELD_VALUE
 93
        1
 90
        0
 94
        0
300
%tc1
302

304
ACVALUE_END
301
----
 98
        4
  0
FIELD
  5
ABA
330
AB7
100
AcDbField
  1
AcVar
  2
\AcVar ViewDetailId
 90
        0
 97
        0
 91
       63
 92
        0
 94
       43
 95
        2
 96
        0
300

 93
        1
  6
Variable
 93
        2
 90
        4
  1
ViewDetailId
 94
        0
300

302

304
ACVALUE_END
  7
ACFD_FIELD_VALUE
 93
        1
 90
        0
 94
        0
300

302

304
ACVALUE_END
301
----
 98
        4
  0
FIELD
  5
ABB
330
AB7
100
AcDbField
  1
AcVar
  2
\AcVar ViewScale \f "%sn"
 90
        0
 97
        0
 91
       63
 92
        0
 94
       43
 95
        2
 96
        0
300

 93
        1
  6
Variable
 93
        2
 90
        4
  1
ViewScale
 94
        0
300

302

304
ACVALUE_END
  7
ACFD_FIELD_VALUE
 93
        1
 90
        0
 94
        0
300
%sn
302

304
ACVALUE_END
301
----
 98
        4
  0
FIELD
  5
AC5
330
AC4
100
AcDbField
  1
AcVar
  2
\AcVar ViewSectionStartId
 90
        0
 97
        0
 91
       63
 92
        0
 94
       43
 95
        2
 96
        0
300

 93
        1
  6
Variable
 93
        2
 90
        4
  1
ViewSectionStartId
 94
        0
300

302

304
ACVALUE_END
  7
ACFD_FIELD_VALUE
 93
        1
 90
        0
 94
        0
300

302

304
ACVALUE_END
301
----
 98
        4
  0
FIELD
  5
AC6
330
AC4
100
AcDbField
  1
AcVar
  2
\AcVar ViewSectionEndId
 90
        0
 97
        0
 91
       63
 92
        0
 94
       43
 95
        2
 96
        0
300

 93
        1
  6
Variable
 93
        2
 90
        4
  1
ViewSectionEndId
 94
        0
300

302

304
ACVALUE_END
  7
ACFD_FIELD_VALUE
 93
        1
 90
        0
 94
        0
300

302

304
ACVALUE_END
301
----
 98
        4
  0
ENDSEC
  0
SECTION
  2
ACDSDATA
 70
     2
 71
     8
  0
ACDSSCHEMA
 90
        0
  1
AcDb_Thumbnail_Schema
  2
AcDbDs::ID
280
    10
 91
        8
  2
Thumbnail_Data
280
    15
 91
        0
101
ACDSRECORD
 95
        0
 90
        1
  2
AcDbDs::TreatedAsObjectData
280
     1
291
     1
101
ACDSRECORD
 95
        0
 90
        2
  2
AcDbDs::Legacy
280
     1
291
     1
101
ACDSRECORD
  1
AcDbDs::ID
 90
        3
  2
AcDs:Indexable
280
     1
291
     1
101
ACDSRECORD
  1
AcDbDs::ID
 90
        4
  2
AcDbDs::HandleAttribute
280
     7
282
     1
  0
ACDSSCHEMA
 90
        1
  1
AcDbDs::TreatedAsObjectDataSchema
  2
AcDbDs::TreatedAsObjectData
280
     1
 91
        0
  0
ACDSSCHEMA
 90
        2
  1
AcDbDs::LegacySchema
  2
AcDbDs::Legacy
280
     1
 91
        0
  0
ACDSSCHEMA
 90
        3
  1
AcDbDs::IndexedPropertySchema
  2
AcDs:Indexable
280
     1
 91
        0
  0
ACDSSCHEMA
 90
        4
  1
AcDbDs::HandleAttributeSchema
  2
AcDbDs::HandleAttribute
280
     7
 91
        1
284
     1
  0
ACDSRECORD
 90
        0
  2
AcDbDs::ID
280
    10
320
21
  2
Thumbnail_Data
280
    15
 94
     1499
310
89504E470D0A1A0A0000000D49484452000001000000007E0803000000FCF33F5100000300504C5445000000000000C8C8C80000000000000000000000000000000000000000000000000000330000660000990000CC0000FF0033000033330033660033990033CC0033FF0066000066330066660066990066CC0066FF0099
310
000099330099660099990099CC0099FF00CC0000CC3300CC6600CC9900CCCC00CCFF00FF0000FF3300FF6600FF9900FFCC00FFFF3300003300333300663300993300CC3300FF3333003333333333663333993333CC3333FF3366003366333366663366993366CC3366FF3399003399333399663399993399CC3399FF33CC00
310
33CC3333CC6633CC9933CCCC33CCFF33FF0033FF3333FF6633FF9933FFCC33FFFF6600006600336600666600996600CC6600FF6633006633336633666633996633CC6633FF6666006666336666666666996666CC6666FF6699006699336699666699996699CC6699FF66CC0066CC3366CC6666CC9966CCCC66CCFF66FF0066
310
FF3366FF6666FF9966FFCC66FFFF9900009900339900669900999900CC9900FF9933009933339933669933999933CC9933FF9966009966339966669966999966CC9966FF9999009999339999669999999999CC9999FF99CC0099CC3399CC6699CC9999CCCC99CCFF99FF0099FF3399FF6699FF9999FFCC99FFFFCC0000CC00
310
33CC0066CC0099CC00CCCC00FFCC3300CC3333CC3366CC3399CC33CCCC33FFCC6600CC6633CC6666CC6699CC66CCCC66FFCC9900CC9933CC9966CC9999CC99CCCC99FFCCCC00CCCC33CCCC66CCCC99CCCCCCCCCCFFCCFF00CCFF33CCFF66CCFF99CCFFCCCCFFFFFF0000FF0033FF0066FF0099FF00CCFF00FFFF3300FF3333
310
FF3366FF3399FF33CCFF33FFFF6600FF6633FF6666FF6699FF66CCFF66FFFF9900FF9933FF9966FF9999FF99CCFF99FFFFCC00FFCC33FFCC66FFCC99FFCCCCFFCCFFFFFF00FFFF33FFFF66FFFF99FFFFCCFFFFFF0000000D0D0D1A1A1A2828283535354343435050505D5D5D6B6B6B787878868686939393A1A1A1AEAEAEBB
310
BBBBC9C9C9D6D6D6E4E4E4F1F1F1FFFFFF00000000000000000000000000000000000000000000000000000000000008F1915C000002614944415478DAED9BBB75C3300C45310E1AEC3F80D7D01AEC237C0851B69C2E29F8DE3D27B11DB9C115408A2023420821841042082184104208218410420821841042082184104208
310
21E40F398E032D6455FD2EE07E715B01BFB2BF80E5E63FE4BFE294C02AE0BAF1B025705E311001EB877132FF3A4086820F01E140CFDFE6EF34BE8222C0438F1F177096C02500A304FC8E8FCC02151720FE064740247F15810EB3AAFEE3D85F404D7F9501FEAE334040044C0352835F8F017E1D42403E0545FAFBFCDFB30094
310
00D5141019707F0ED87B015CD17B98A39E007515E4A3C0C619D0C17BB08802D4337F06DB25D0F9A1BBAF08AAF0E539034004481B782C81CD0544EC65004E80C6B38FB4013C0199FF8B81570123C093C0BA15F0D28AFE5D806E2BA0C8F0AFBB8F242027FE98FF3DFA7A0E00E98E470964F7F31AFC4C107AA15F05E4B21046C0
310
7BA814A0B532FCB653B4DB4AF85340538B643401D9FE519412B8C6FB756310681690DE1C6D0191FC6002DE7101484520575F3CBB633067236E937F75FFB0EA7F9DFCE736185AF22F13810AEA51A116507DB1EF5FD95C4075C71EEEBEA2087003A6F6791947C0B0F3A319A600C91488A688210AA8D6587EB4716D98ED2C20A2
310
9BC762EA7C509F158310A029A0826C01BD59B4BF80DE0ABE098883222356097BAF0E73A28F7BAE754A4CE75131074340DE71B564BE9A6108B8B5C53D056C6E98D6427977019DED5606E60468180244D692CF2DB23E2802F21C502C020445C0DBD6471C8E2D0126800224C63F13B4D5E0C239129E02ECB61C44129027C51FDA
310
614002C6470908CE5619F2FF4F124208218410420821841042C8FFF103924C1D552E5637B10000000049454E44AE426082E409F09D7E331DE59F0D0200000000000000000000000000000000000000FC125FD15771156ABD7DD00000000049454E44AE426082
  0
ENDSEC
  0
EOF
