  0
SECTION
  2
HEADER
  9
$ACADVER
  1
AC1018
  9
$ACADMAINTVER
 70
   104
  9
$DWGCODEPAGE
  3
ANSI_1252
  9
$LASTSAVEDBY
  1
guzb562
  9
$INSBASE
 10
0.0
 20
0.0
 30
0.0
  9
$EXTMIN
 10
2707.515484585205
 20
3621.681536601018
 30
-0.0000000000000153
  9
$EXTMAX
 10
3226.596802558597
 20
4510.832531697618
 30
0.0
  9
$LIMMIN
 10
0.0
 20
0.0
  9
$LIMMAX
 10
8400.0
 20
5940.0
  9
$ORTHOMODE
 70
     0
  9
$REGENMODE
 70
     1
  9
$FILLMODE
 70
     1
  9
$QTEXTMODE
 70
     0
  9
$MIRRTEXT
 70
     1
  9
$LTSCALE
 40
20.0
  9
$ATTMODE
 70
     1
  9
$TEXTSIZE
 40
3.5
  9
$TRACEWID
 40
1.0
  9
$TEXTSTYLE
  7
STANDARD
  9
$CLAYER
  8
AM_2 ( Kontur 0.25)
  9
$CELTYPE
  6
ByLayer
  9
$CECOLOR
 62
   256
  9
$CELTSCALE
 40
1.0
  9
$DISPSILH
 70
     0
  9
$DIMSCALE
 40
1.0
  9
$DIMASZ
 40
5.0
  9
$DIMEXO
 40
1.0
  9
$DIMDLI
 40
10.0
  9
$DIMRND
 40
0.0
  9
$DIMDLE
 40
0.0
  9
$DIMEXE
 40
1.0
  9
$DIMTP
 40
0.1
  9
$DIMTM
 40
0.1
  9
$DIMTXT
 40
5.0
  9
$DIMCEN
 40
0.0
  9
$DIMTSZ
 40
0.0
  9
$DIMTOL
 70
     0
  9
$DIMLIM
 70
     0
  9
$DIMTIH
 70
     0
  9
$DIMTOH
 70
     0
  9
$DIMSE1
 70
     0
  9
$DIMSE2
 70
     0
  9
$DIMTAD
 70
     1
  9
$DIMZIN
 70
     8
  9
$DIMBLK
  1

  9
$DIMASO
 70
     1
  9
$DIMSHO
 70
     1
  9
$DIMPOST
  1

  9
$DIMAPOST
  1
"
  9
$DIMALT
 70
     0
  9
$DIMALTD
 70
     2
  9
$DIMALTF
 40
0.0393701
  9
$DIMLFAC
 40
1.0
  9
$DIMTOFL
 70
     1
  9
$DIMTVP
 40
0.0
  9
$DIMTIX
 70
     0
  9
$DIMSOXD
 70
     0
  9
$DIMSAH
 70
     0
  9
$DIMBLK1
  1

  9
$DIMBLK2
  1

  9
$DIMSTYLE
  2
AM_DIN
  9
$DIMCLRD
 70
   256
  9
$DIMCLRE
 70
   256
  9
$DIMCLRT
 70
     2
  9
$DIMTFAC
 40
0.71
  9
$DIMGAP
 40
1.5
  9
$DIMJUST
 70
     0
  9
$DIMSD1
 70
     0
  9
$DIMSD2
 70
     0
  9
$DIMTOLJ
 70
     0
  9
$DIMTZIN
 70
     8
  9
$DIMALTZ
 70
     0
  9
$DIMALTTZ
 70
     0
  9
$DIMUPT
 70
     0
  9
$DIMDEC
 70
     2
  9
$DIMTDEC
 70
     2
  9
$DIMALTU
 70
     2
  9
$DIMALTTD
 70
     2
  9
$DIMTXSTY
  7
STANDARD
  9
$DIMAUNIT
 70
     0
  9
$DIMADEC
 70
     0
  9
$DIMALTRND
 40
0.0
  9
$DIMAZIN
 70
     2
  9
$DIMDSEP
 70
    46
  9
$DIMATFIT
 70
     3
  9
$DIMFRAC
 70
     0
  9
$DIMLDRBLK
  1

  9
$DIMLUNIT
 70
     2
  9
$DIMLWD
 70
    -1
  9
$DIMLWE
 70
    -1
  9
$DIMTMOVE
 70
     0
  9
$LUNITS
 70
     2
  9
$LUPREC
 70
     2
  9
$SKETCHINC
 40
1.0
  9
$FILLETRAD
 40
50.0
  9
$AUNITS
 70
     0
  9
$AUPREC
 70
     0
  9
$MENU
  1
ACAD
  9
$ELEVATION
 40
0.0
  9
$PELEVATION
 40
0.0
  9
$THICKNESS
 40
0.0
  9
$LIMCHECK
 70
     0
  9
$CHAMFERA
 40
50.0
  9
$CHAMFERB
 40
50.0
  9
$CHAMFERC
 40
0.0
  9
$CHAMFERD
 40
0.0
  9
$SKPOLY
 70
     0
  9
$TDCREATE
 40
2454721.555362628
  9
$TDUCREATE
 40
2454721.472029294
  9
$TDUPDATE
 40
2454722.478112361
  9
$TDUUPDATE
 40
2454722.394779028
  9
$TDINDWG
 40
0.0425109606
  9
$TDUSRTIMER
 40
0.0425093287
  9
$USRTIMER
 70
     1
  9
$ANGBASE
 50
0.0
  9
$ANGDIR
 70
     0
  9
$PDMODE
 70
     0
  9
$PDSIZE
 40
0.0
  9
$PLINEWID
 40
0.0
  9
$SPLFRAME
 70
     0
  9
$SPLINETYPE
 70
     6
  9
$SPLINESEGS
 70
    12
  9
$HANDSEED
  5
3222
  9
$SURFTAB1
 70
     6
  9
$SURFTAB2
 70
     6
  9
$SURFTYPE
 70
     6
  9
$SURFU
 70
     6
  9
$SURFV
 70
     6
  9
$UCSBASE
  2

  9
$UCSNAME
  2

  9
$UCSORG
 10
0.0
 20
0.0
 30
0.0
  9
$UCSXDIR
 10
1.0
 20
0.0
 30
0.0
  9
$UCSYDIR
 10
0.0
 20
1.0
 30
0.0
  9
$UCSORTHOREF
  2

  9
$UCSORTHOVIEW
 70
     0
  9
$UCSORGTOP
 10
0.0
 20
0.0
 30
0.0
  9
$UCSORGBOTTOM
 10
0.0
 20
0.0
 30
0.0
  9
$UCSORGLEFT
 10
0.0
 20
0.0
 30
0.0
  9
$UCSORGRIGHT
 10
0.0
 20
0.0
 30
0.0
  9
$UCSORGFRONT
 10
0.0
 20
0.0
 30
0.0
  9
$UCSORGBACK
 10
0.0
 20
0.0
 30
0.0
  9
$PUCSBASE
  2

  9
$PUCSNAME
  2

  9
$PUCSORG
 10
0.0
 20
0.0
 30
0.0
  9
$PUCSXDIR
 10
1.0
 20
0.0
 30
0.0
  9
$PUCSYDIR
 10
0.0
 20
1.0
 30
0.0
  9
$PUCSORTHOREF
  2

  9
$PUCSORTHOVIEW
 70
     0
  9
$PUCSORGTOP
 10
0.0
 20
0.0
 30
0.0
  9
$PUCSORGBOTTOM
 10
0.0
 20
0.0
 30
0.0
  9
$PUCSORGLEFT
 10
0.0
 20
0.0
 30
0.0
  9
$PUCSORGRIGHT
 10
0.0
 20
0.0
 30
0.0
  9
$PUCSORGFRONT
 10
0.0
 20
0.0
 30
0.0
  9
$PUCSORGBACK
 10
0.0
 20
0.0
 30
0.0
  9
$USERI1
 70
     0
  9
$USERI2
 70
     0
  9
$USERI3
 70
     0
  9
$USERI4
 70
     0
  9
$USERI5
 70
     0
  9
$USERR1
 40
0.0
  9
$USERR2
 40
0.0
  9
$USERR3
 40
0.0
  9
$USERR4
 40
0.0
  9
$USERR5
 40
0.0
  9
$WORLDVIEW
 70
     1
  9
$SHADEDGE
 70
     3
  9
$SHADEDIF
 70
    70
  9
$TILEMODE
 70
     1
  9
$MAXACTVP
 70
    64
  9
$PINSBASE
 10
0.0
 20
0.0
 30
0.0
  9
$PLIMCHECK
 70
     0
  9
$PEXTMIN
 10
1.000000000000000E+20
 20
1.000000000000000E+20
 30
1.000000000000000E+20
  9
$PEXTMAX
 10
-1.000000000000000E+20
 20
-1.000000000000000E+20
 30
-1.000000000000000E+20
  9
$PLIMMIN
 10
0.0
 20
0.0
  9
$PLIMMAX
 10
12.0
 20
9.0
  9
$UNITMODE
 70
     0
  9
$VISRETAIN
 70
     1
  9
$PLINEGEN
 70
     0
  9
$PSLTSCALE
 70
     1
  9
$TREEDEPTH
 70
  3020
  9
$CMLSTYLE
  2
Standard
  9
$CMLJUST
 70
     0
  9
$CMLSCALE
 40
1.0
  9
$PROXYGRAPHICS
 70
     1
  9
$MEASUREMENT
 70
     1
  9
$CELWEIGHT
370
    -1
  9
$ENDCAPS
280
     0
  9
$JOINSTYLE
280
     0
  9
$LWDISPLAY
290
     0
  9
$INSUNITS
 70
     4
  9
$HYPERLINKBASE
  1

  9
$STYLESHEET
  1

  9
$XEDIT
290
     1
  9
$CEPSNTYPE
380
     0
  9
$PSTYLEMODE
290
     1
  9
$FINGERPRINTGUID
  2
{4C071292-662D-4442-88CE-2D75C0717A93}
  9
$VERSIONGUID
  2
{D7203719-68AB-4401-B988-F975DC34EB98}
  9
$EXTNAMES
290
     1
  9
$PSVPSCALE
 40
0.0
  9
$OLESTARTUP
290
     0
  9
$SORTENTS
280
   127
  9
$INDEXCTL
280
     0
  9
$HIDETEXT
280
     0
  9
$XCLIPFRAME
290
     0
  9
$HALOGAP
280
     0
  9
$OBSCOLOR
 70
   257
  9
$OBSLTYPE
280
     0
  9
$INTERSECTIONDISPLAY
280
     0
  9
$INTERSECTIONCOLOR
 70
   257
  9
$DIMASSOC
280
     2
  9
$PROJECTNAME
  1

  0
ENDSEC
  0
SECTION
  2
CLASSES
  0
CLASS
  1
ACDBDICTIONARYWDFLT
  2
AcDbDictionaryWithDefault
  3
ObjectDBX Classes
 90
        0
 91
        1
280
     0
281
     0
  0
CLASS
  1
MATERIAL
  2
AcDbMaterial
  3
ObjectDBX Classes
 90
     1153
 91
        3
280
     0
281
     0
  0
CLASS
  1
VISUALSTYLE
  2
AcDbVisualStyle
  3
ObjectDBX Classes
 90
     4095
 91
       16
280
     0
281
     0
  0
CLASS
  1
SCALE
  2
AcDbScale
  3
ObjectDBX Classes
 90
     1153
 91
       34
280
     0
281
     0
  0
CLASS
  1
TABLESTYLE
  2
AcDbTableStyle
  3
ObjectDBX Classes
 90
     4095
 91
        1
280
     0
281
     0
  0
CLASS
  1
MLEADERSTYLE
  2
AcDbMLeaderStyle
  3
ACDB_MLEADERSTYLE_CLASS
 90
     4095
 91
        1
280
     0
281
     0
  0
CLASS
  1
AMGSETTINGSOBJ
  2
AmgSettingsObj
  3
"AcadM|Product Description: AutoCAD Mechanical|Company: Autodesk, Inc."
 90
     1024
 91
        2
280
     0
281
     0
  0
CLASS
  1
ACME_DOCUMENT
  2
AcMeDbDoc
  3
AcMeServices
 90
     1024
 91
        1
280
     0
281
     0
  0
CLASS
  1
ACMESCOPE
  2
AcMeScope
  3
AcMeServices
 90
     1024
 91
        1
280
     0
281
     0
  0
CLASS
  1
ACMECOMMANDHISTORY
  2
AcMeCommandHistory
  3
AcMeServices
 90
     1024
 91
        1
280
     0
281
     0
  0
CLASS
  1
ACIMSYSVARMAN
  2
AcImSysVarManager
  3
AcMeServices
 90
     1024
 91
        5
280
     0
281
     0
  0
CLASS
  1
ACIMINTSYSVAR
  2
AcImIntSysVar
  3
AcMeServices
 90
     1024
 91
       27
280
     0
281
     0
  0
CLASS
  1
ACMEDRAWINGMAN
  2
AcMeDrawingMan
  3
AcMeServices
 90
     1024
 91
        1
280
     0
281
     0
  0
CLASS
  1
ACMEVIEW
  2
AcMeView
  3
AcMeServices
 90
     1024
 91
        1
280
     0
281
     0
  0
CLASS
  1
ACDBENTITYCACHE
  2
AcMeEntityCache
  3
AcMeServices
 90
     1024
 91
        1
280
     0
281
     0
  0
CLASS
  1
GSMANAGER
  2
AcMeGSManager
  3
AcMeServices
 90
     1024
 91
        1
280
     0
281
     0
  0
CLASS
  1
AMDTINTERNALREACTOR
  2
AmdtInternalReactor
  3
AcMeServices
 90
     1024
 91
        2
280
     0
281
     0
  0
CLASS
  1
ACMESTATEMGR
  2
AcMeStateMgr
  3
AcMeServices
 90
     1024
 91
        1
280
     0
281
     0
  0
CLASS
  1
ACGREFMASTER
  2
AcGrefMaster
  3
AcAttribServices
 90
     1024
 91
        1
280
     0
281
     0
  0
CLASS
  1
AM_DRAWING_MGR
  2
AcDmDwgMgr
  3
AcMechDwgViewMgmt
 90
     1024
 91
        1
280
     0
281
     0
  0
CLASS
  1
AM_DWG_DOCUMENT
  2
AcDmDwgDocument
  3
AcMechDwgViewMgmt
 90
     1024
 91
        1
280
     0
281
     0
  0
CLASS
  1
AM_DWG_SHEET
  2
AcDmSheet
  3
AcMechDwgViewMgmt
 90
     1024
 91
        1
280
     0
281
     0
  0
CLASS
  1
AM_VIEWDIMPARMAP
  2
AcDmViewDimParMap
  3
AcMechDwgViewMgmt
 90
     1024
 91
        1
280
     0
281
     0
  0
CLASS
  1
ACIMREALSYSVAR
  2
AcImRealSysVar
  3
AcMeServices
 90
     1024
 91
        1
280
     0
281
     0
  0
CLASS
  1
AM_DWGMGR_NAME
  2
AcDmDwgMgrName
  3
AcMechDwgViewMgmt
 90
     1024
 91
        1
280
     0
281
     0
  0
CLASS
  1
ACME_DATABASE
  2
AcMeDbDatabase
  3
AcMeServices
 90
     1024
 91
        1
280
     0
281
     0
  0
CLASS
  1
ACRFINSADJUSTERMGR
  2
AcRfInsAdjusterMgr
  3
AcMeServices
 90
     1024
 91
        1
280
     0
281
     0
  0
CLASS
  1
ACGREFACADMASTER
  2
AcGrefacadMaster
  3
AcGrefServices
 90
     1024
 91
        1
280
     0
281
     0
  0
CLASS
  1
AMDTMENUSTATEMGR
  2
AmdtMenuStateMgr
  3
McadcomServices
 90
     1024
 91
        1
280
     0
281
     0
  0
CLASS
  1
AMDTMCOMMENUSTATE
  2
AmdtMcomMenuState
  3
McadcomServices
 90
     1024
 91
        1
280
     0
281
     0
  0
CLASS
  1
AMIMASTER
  2
AmiMaster
  3
AmiServices
 90
     1024
 91
        1
280
     0
281
     0
  0
CLASS
  1
MAPIAMMOUDLE
  2
MApiAmModule
  3
MApiAmServices
 90
     1024
 91
        1
280
     0
281
     0
  0
CLASS
  1
ACIMSTRSYSVAR
  2
AcImStrSysVar
  3
AcMeServices
 90
     1024
 91
        5
280
     0
281
     0
  0
CLASS
  1
AMDTADMENUSTATE
  2
AmdtAdMenuState
  3
DesignerServices
 90
     1024
 91
        1
280
     0
281
     0
  0
CLASS
  1
ADAPPL
  2
AcAdAppl
  3
DesignerServices
 90
     1024
 91
        1
280
     0
281
     0
  0
CLASS
  1
DEPMGR
  2
AcAdDepMgr
  3
DesignerServices
 90
     1024
 91
        1
280
     0
281
     0
  0
CLASS
  1
PARAMMGR
  2
AcAdParamMgr
  3
DesignerServices
 90
     1024
 91
        1
280
     0
281
     0
  0
CLASS
  1
PARAMSCOPE
  2
AcAdParamScope
  3
DesignerServices
 90
     1024
 91
        1
280
     0
281
     0
  0
CLASS
  1
NAMEDAPPL
  2
AcAdNamedAppl
  3
DesignerServices
 90
     1024
 91
        1
280
     0
281
     0
  0
CLASS
  1
AMDTDMMENUSTATE
  2
AmdtDmMenuState
  3
AcMechDwgViewMgmt
 90
     1024
 91
        1
280
     0
281
     0
  0
CLASS
  1
AMDTAMMENUSTATE
  2
AmdtAmMenuState
  3
DesignerAssemblies
 90
     1024
 91
        1
280
     0
281
     0
  0
CLASS
  1
ACAMPROJECT
  2
AcAmProject
  3
DesignerAssemblies
 90
     1024
 91
        1
280
     0
281
     0
  0
CLASS
  1
ACAMGRCOMPDEF
  2
AcAmGrCompDef
  3
DesignerAssemblies
 90
     1024
 91
        1
280
     0
281
     0
  0
CLASS
  1
ACCMCONTEXT
  2
AcCmContext
  3
DesignerAssemblies
 90
     1024
 91
        1
280
     0
281
     0
  0
CLASS
  1
ACAMCOMPDEF
  2
AcAmCompDef
  3
DesignerAssemblies
 90
     1024
 91
        1
280
     0
281
     0
  0
CLASS
  1
ACAMCOMPDEFMGR
  2
AcAmCompDefMgr
  3
DesignerAssemblies
 90
     1024
 91
        1
280
     0
281
     0
  0
CLASS
  1
AMCONTEXTMGR
  2
AcAmContextMgr
  3
DesignerAssemblies
 90
     1024
 91
        1
280
     0
281
     0
  0
CLASS
  1
ACAMCONTEXTMODELER
  2
AcAmContextModeler
  3
DesignerAssemblies
 90
     1024
 91
        1
280
     0
281
     0
  0
CLASS
  1
ACMDATADICTIONARY
  2
AcmDataDictionary
  3
"AcmSymBB|Product Description: AutoCAD Mechanical|Company: Autodesk, Inc."
 90
     1024
 91
        1
280
     0
281
     0
  0
CLASS
  1
CATALOGSTATE
  2
AcAmCatalogState
  3
DesignerAssemblies
 90
     1024
 91
        1
280
     0
281
     0
  0
CLASS
  1
ACAMGRCOMPDEFSET
  2
AcAmGrCompDefSet
  3
DesignerAssemblies
 90
     1024
 91
        1
280
     0
281
     0
  0
CLASS
  1
AMDTBROWSERDBTAB
  2
AmdtBrowserDbTab
  3
McadcomServices
 90
     1024
 91
        1
280
     0
281
     0
  0
CLASS
  1
CBROWSERAPPOBJECT
  2
CBrowserAppObject
  3
McadcomServices
 90
     1024
 91
        3
280
     0
281
     0
  0
CLASS
  1
DM_PLACEHOLDER
  2
AcDmSelsetPlaceholder
  3
AcMechDwgViewMgmt
 90
     1024
 91
        1
280
     0
281
     0
  0
CLASS
  1
ACMSTANDARDANSI
  2
AcmStandardANSI
  3
"Amdt_StdImp|Product Description: AutoCAD Mechanical|Company: Autodesk, Inc."
 90
     1024
 91
        1
280
     0
281
     0
  0
CLASS
  1
AMGOBJPROPCFG
  2
AmgObjPropCfg
  3
"AmgLay|Product Description: AutoCAD Mechanical|Company: Autodesk, Inc."
 90
     1025
 91
        2
280
     0
281
     0
  0
CLASS
  1
ACMSURFSTANDARDANSI
  2
AcmSurfTextStdANSI
  3
"Amdt_StdImp|Product Description: AutoCAD Mechanical|Company: Autodesk, Inc."
 90
     1024
 91
        1
280
     0
281
     0
  0
CLASS
  1
ACMFCFSTANDARDANSI
  2
AcmFCFStdANSI
  3
"Amdt_StdImp|Product Description: AutoCAD Mechanical|Company: Autodesk, Inc."
 90
     1024
 91
        1
280
     0
281
     0
  0
CLASS
  1
ACMWELDSTANDARDANSI
  2
AcmWeldingStdANSI
  3
"Amdt_StdImp|Product Description: AutoCAD Mechanical|Company: Autodesk, Inc."
 90
     1024
 91
        1
280
     0
281
     0
  0
CLASS
  1
ACMIDSTANDARDANSI
  2
AcmIdStdANSI
  3
"Amdt_StdImp|Product Description: AutoCAD Mechanical|Company: Autodesk, Inc."
 90
     1024
 91
        1
280
     0
281
     0
  0
CLASS
  1
ACMDATUMSTANDARDANSI
  2
AcmDatumStdANSI
  3
"Amdt_StdImp|Product Description: AutoCAD Mechanical|Company: Autodesk, Inc."
 90
     1024
 91
        1
280
     0
281
     0
  0
CLASS
  1
ACMBOMSTANDARDANSI
  2
AcmBOMStdANSI
  3
"Amdt_StdImp|Product Description: AutoCAD Mechanical|Company: Autodesk, Inc."
 90
     1024
 91
        1
280
     0
281
     0
  0
CLASS
  1
ACMDETAILSTANDARDANSI
  2
AmdtDetailSymStdANSI
  3
"Amdt_StdImp|Product Description: AutoCAD Mechanical|Company: Autodesk, Inc."
 90
     1024
 91
        1
280
     0
281
     0
  0
CLASS
  1
ACMSECTIONSTANDARDANSI
  2
AmdtSectionSymStdANSI
  3
"Amdt_StdImp|Product Description: AutoCAD Mechanical|Company: Autodesk, Inc."
 90
     1024
 91
        1
280
     0
281
     0
  0
CLASS
  1
ACMCENTERLINESTANDARDANSI
  2
AmdtCenterLineStdANSI
  3
"Amdt_StdImp|Product Description: AutoCAD Mechanical|Company: Autodesk, Inc."
 90
     1024
 91
        1
280
     0
281
     0
  0
CLASS
  1
ACMTHREADLINESTANDARDANSI
  2
AmdtThreadLineStdANSI
  3
"Amdt_StdImp|Product Description: AutoCAD Mechanical|Company: Autodesk, Inc."
 90
     1024
 91
        1
280
     0
281
     0
  0
CLASS
  1
ACMNOTESTANDARDANSI
  2
AmdtNoteStdANSI
  3
"Amdt_StdImp|Product Description: AutoCAD Mechanical|Company: Autodesk, Inc."
 90
     1024
 91
        1
280
     0
281
     0
  0
CLASS
  1
ACMTAPERSTANDARDANSI
  2
AcmTaperStdANSI
  3
"Amdt_StdImp|Product Description: AutoCAD Mechanical|Company: Autodesk, Inc."
 90
     1024
 91
        1
280
     0
281
     0
  0
CLASS
  1
ACMANOOTATIONVIEWSTANDARDANSI
  2
AmdtAnViewStdANSI
  3
"Amdt_StdImp|Product Description: AutoCAD Mechanical|Company: Autodesk, Inc."
 90
     1024
 91
        1
280
     0
281
     0
  0
CLASS
  1
AMDTNOTETEMPLATEDB
  2
AmdtNoteTemplateDB
  3
AcmSymBB|Product Description: AutoCAD Mechanical|Company: Autodesk, Inc.
 90
     1024
 91
       18
280
     0
281
     0
  0
CLASS
  1
ACAMGLAYSTD
  2
AcAmgLayStd
  3
"AmgLay|Product Description: AutoCAD Mechanical|Company: Autodesk, Inc."
 90
     1024
 91
        3
280
     0
281
     0
  0
CLASS
  1
ACAMGDIMSTD
  2
AcAmgDimStd
  3
"AmgDim|Product Description: AutoCAD Mechanical|Company: Autodesk, Inc."
 90
     1024
 91
        3
280
     0
281
     0
  0
CLASS
  1
ACAMGHOLECHARTSTDANSI
  2
AcAmgHoleChartStdANSI
  3
AmgDim|Product Description: AutoCAD Mechanical|Company: Autodesk, Inc.
 90
     1024
 91
        1
280
     0
281
     0
  0
CLASS
  1
ACAMGTITLESTD
  2
AcAmgTitleStd
  3
"AmgTitle|Product Description: AutoCAD Mechanical|Company: Autodesk, Inc."
 90
     4095
 91
        3
280
     0
281
     0
  0
CLASS
  1
ACAMGFILTERDAT
  2
AcAmgFilterDat
  3
"AcadM|Product Description: AutoCAD Mechanical|Company: Autodesk, Inc."
 90
     1024
 91
        0
280
     0
281
     0
  0
CLASS
  1
CELLSTYLEMAP
  2
AcDbCellStyleMap
  3
ObjectDBX Classes
 90
     1152
 91
        2
280
     0
281
     0
  0
CLASS
  1
DICTIONARYVAR
  2
AcDbDictionaryVar
  3
ObjectDBX Classes
 90
        0
 91
        8
280
     0
281
     0
  0
CLASS
  1
ACMDATAENTRYPART
  2
AcmDataEntryPart
  3
AcmSymBB|Product Description: AutoCAD Mechanical|Company: Autodesk, Inc.
 90
     1024
 91
        0
280
     0
281
     0
  0
CLASS
  1
ACMPARTREF
  2
AcmPartRef
  3
"AcmSymBB|Product Description: AutoCAD Mechanical|Company: Autodesk, Inc."
 90
     4095
 91
        0
280
     0
281
     1
  0
CLASS
  1
ACDBLINERES
  2
AcDbLineRes
  3
AcGrefServices
 90
     1024
 91
        0
280
     0
281
     0
  0
CLASS
  1
ACMSTANDARDDIN
  2
AcmStandardDIN
  3
"Amdt_StdImp|Product Description: AutoCAD Mechanical|Company: Autodesk, Inc."
 90
     1024
 91
        1
280
     0
281
     0
  0
CLASS
  1
AMDTEDGESTANDARDDIN13715
  2
AmdtEdgeStdDIN13715
  3
"Amdt_StdImp|Product Description: AutoCAD Mechanical|Company: Autodesk, Inc."
 90
     1024
 91
        1
280
     0
281
     0
  0
CLASS
  1
ACMSURFSTANDARDDIN2002
  2
AcmSurfTextStdDIN2002
  3
"Amdt_StdImp|Product Description: AutoCAD Mechanical|Company: Autodesk, Inc."
 90
     1024
 91
        1
280
     0
281
     0
  0
CLASS
  1
ACMFCFSTANDARDDIN
  2
AcmFCFStdDIN
  3
"Amdt_StdImp|Product Description: AutoCAD Mechanical|Company: Autodesk, Inc."
 90
     1024
 91
        1
280
     0
281
     0
  0
CLASS
  1
ACMWELDSTANDARDDIN
  2
AcmWeldingStdDIN
  3
"Amdt_StdImp|Product Description: AutoCAD Mechanical|Company: Autodesk, Inc."
 90
     1024
 91
        1
280
     0
281
     0
  0
CLASS
  1
ACMIDSTANDARDDIN
  2
AcmIdStdDIN
  3
"Amdt_StdImp|Product Description: AutoCAD Mechanical|Company: Autodesk, Inc."
 90
     1024
 91
        1
280
     0
281
     0
  0
CLASS
  1
ACMDATUMSTANDARDDIN
  2
AcmDatumStdDIN
  3
"Amdt_StdImp|Product Description: AutoCAD Mechanical|Company: Autodesk, Inc."
 90
     1024
 91
        1
280
     0
281
     0
  0
CLASS
  1
ACMBOMSTANDARDDIN
  2
AcmBOMStdDIN
  3
"Amdt_StdImp|Product Description: AutoCAD Mechanical|Company: Autodesk, Inc."
 90
     1024
 91
        1
280
     0
281
     0
  0
CLASS
  1
ACMDETAILSTANDARDDIN
  2
AmdtDetailSymStdDIN
  3
"Amdt_StdImp|Product Description: AutoCAD Mechanical|Company: Autodesk, Inc."
 90
     1024
 91
        1
280
     0
281
     0
  0
CLASS
  1
ACMSECTIONSTANDARDDIN
  2
AmdtSectionSymStdDIN
  3
"Amdt_StdImp|Product Description: AutoCAD Mechanical|Company: Autodesk, Inc."
 90
     1024
 91
        1
280
     0
281
     0
  0
CLASS
  1
ACMCENTERLINESTANDARDDIN
  2
AmdtCenterLineStdDIN
  3
"Amdt_StdImp|Product Description: AutoCAD Mechanical|Company: Autodesk, Inc."
 90
     1024
 91
        1
280
     0
281
     0
  0
CLASS
  1
ACMTHREADLINESTANDARDDIN
  2
AmdtThreadLineStdDIN
  3
"Amdt_StdImp|Product Description: AutoCAD Mechanical|Company: Autodesk, Inc."
 90
     1024
 91
        1
280
     0
281
     0
  0
CLASS
  1
ACMNOTESTANDARDDIN
  2
AmdtNoteStdDIN
  3
"Amdt_StdImp|Product Description: AutoCAD Mechanical|Company: Autodesk, Inc."
 90
     1024
 91
        1
280
     0
281
     0
  0
CLASS
  1
ACMTAPERSTANDARDDIN
  2
AcmTaperStdDIN
  3
"Amdt_StdImp|Product Description: AutoCAD Mechanical|Company: Autodesk, Inc."
 90
     1024
 91
        1
280
     0
281
     0
  0
CLASS
  1
ACMANOOTATIONVIEWSTANDARDDIN
  2
AmdtAnViewStdDIN
  3
"Amdt_StdImp|Product Description: AutoCAD Mechanical|Company: Autodesk, Inc."
 90
     1024
 91
        1
280
     0
281
     0
  0
CLASS
  1
ACAMGHOLECHARTSTDDIN
  2
AcAmgHoleChartStdDIN
  3
AmgDim|Product Description: AutoCAD Mechanical|Company: Autodesk, Inc.
 90
     1024
 91
        1
280
     0
281
     0
  0
CLASS
  1
ACMDATAENTRYBLOCK
  2
AcmDataEntryBlock
  3
AcmSymBB|Product Description: AutoCAD Mechanical|Company: Autodesk, Inc.
 90
     1024
 91
        0
280
     0
281
     0
  0
CLASS
  1
ACMBOM
  2
AcmBom
  3
"AcmSymBB|Product Description: AutoCAD Mechanical|Company: Autodesk, Inc."
 90
     1024
 91
        0
280
     0
281
     0
  0
CLASS
  1
AMDTFORMULAUPDATEDISPATCHER
  2
AmdtFormulaUpdateDispatcher
  3
AcMeServices
 90
     1024
 91
        0
280
     0
281
     0
  0
CLASS
  1
ACMBOMROW
  2
AcmBomRow
  3
"AcmSymBB|Product Description: AutoCAD Mechanical|Company: Autodesk, Inc."
 90
     1024
 91
        0
280
     0
281
     0
  0
CLASS
  1
ACMPARTLIST
  2
AcmPartList
  3
"AcmSymBB|Product Description: AutoCAD Mechanical|Company: Autodesk, Inc."
 90
     4095
 91
        0
280
     0
281
     1
  0
CLASS
  1
CAMSSTRUCTBTNSTATE
  2
StructBtnState
  3
DesignerAssemblies
 90
     1024
 91
        0
280
     0
281
     0
  0
CLASS
  1
ACRFATTGENMGR
  2
AcRfAttGeneralMgr
  3
AcAttribServices
 90
     1024
 91
        0
280
     0
281
     0
  0
CLASS
  1
ACRFOBJATTMGR
  2
AcRfObjAttGroupMgr
  3
AcAttribServices
 90
     1024
 91
        0
280
     0
281
     0
  0
CLASS
  1
ACRFMCADAPIATTHOLDER
  2
AcRfMCADAPIAttHolder
  3
AcAttribServices
 90
     1024
 91
        0
280
     0
281
     0
  0
CLASS
  1
AMDTSYSATTR
  2
AmdtSystemAttribute
  3
AcAttribServices
 90
     1024
 91
        0
280
     0
281
     0
  0
CLASS
  1
SORTENTSTABLE
  2
AcDbSortentsTable
  3
ObjectDBX Classes
 90
        0
 91
        3
280
     0
281
     0
  0
CLASS
  1
ACMSTANDARDISO
  2
AcmStandardISO
  3
"Amdt_StdImp|Product Description: AutoCAD Mechanical|Company: Autodesk, Inc."
 90
     1024
 91
        1
280
     0
281
     0
  0
CLASS
  1
AMDTEDGESTANDARDISO
  2
AmdtEdgeStdISO
  3
"Amdt_StdImp|Product Description: AutoCAD Mechanical|Company: Autodesk, Inc."
 90
     1024
 91
        1
280
     0
281
     0
  0
CLASS
  1
ACMSURFSTANDARDISO2002
  2
AcmSurfTextStdISO2002
  3
"Amdt_StdImp|Product Description: AutoCAD Mechanical|Company: Autodesk, Inc."
 90
     1024
 91
        1
280
     0
281
     0
  0
CLASS
  1
ACMFCFSTANDARDISO
  2
AcmFCFStdISO
  3
"Amdt_StdImp|Product Description: AutoCAD Mechanical|Company: Autodesk, Inc."
 90
     1024
 91
        1
280
     0
281
     0
  0
CLASS
  1
ACMWELDSTANDARDISO
  2
AcmWeldingStdISO
  3
"Amdt_StdImp|Product Description: AutoCAD Mechanical|Company: Autodesk, Inc."
 90
     1024
 91
        1
280
     0
281
     0
  0
CLASS
  1
ACMIDSTANDARDISO
  2
AcmIdStdISO
  3
"Amdt_StdImp|Product Description: AutoCAD Mechanical|Company: Autodesk, Inc."
 90
     1024
 91
        1
280
     0
281
     0
  0
CLASS
  1
ACMDATUMSTANDARDISO
  2
AcmDatumStdISO
  3
"Amdt_StdImp|Product Description: AutoCAD Mechanical|Company: Autodesk, Inc."
 90
     1024
 91
        1
280
     0
281
     0
  0
CLASS
  1
ACMBOMSTANDARDISO
  2
AcmBOMStdISO
  3
"Amdt_StdImp|Product Description: AutoCAD Mechanical|Company: Autodesk, Inc."
 90
     1024
 91
        1
280
     0
281
     0
  0
CLASS
  1
ACMDETAILSTANDARDISO
  2
AmdtDetailSymStdISO
  3
"Amdt_StdImp|Product Description: AutoCAD Mechanical|Company: Autodesk, Inc."
 90
     1024
 91
        1
280
     0
281
     0
  0
CLASS
  1
ACMSECTIONSTANDARDISO2001
  2
AmdtSectionSymStdISO2001
  3
"Amdt_StdImp|Product Description: AutoCAD Mechanical|Company: Autodesk, Inc."
 90
     1024
 91
        1
280
     0
281
     0
  0
CLASS
  1
ACMCENTERLINESTANDARDISO
  2
AmdtCenterLineStdISO
  3
"Amdt_StdImp|Product Description: AutoCAD Mechanical|Company: Autodesk, Inc."
 90
     1024
 91
        1
280
     0
281
     0
  0
CLASS
  1
ACMNOTESTANDARDISO
  2
AmdtNoteStdISO
  3
"Amdt_StdImp|Product Description: AutoCAD Mechanical|Company: Autodesk, Inc."
 90
     1024
 91
        1
280
     0
281
     0
  0
CLASS
  1
ACAMGHOLECHARTSTDISO
  2
AcAmgHoleChartStdISO
  3
AmgDim|Product Description: AutoCAD Mechanical|Company: Autodesk, Inc.
 90
     1024
 91
        1
280
     0
281
     0
  0
CLASS
  1
ACMTHREADLINESTANDARDISO
  2
AmdtThreadLineStdISO
  3
"Amdt_StdImp|Product Description: AutoCAD Mechanical|Company: Autodesk, Inc."
 90
     1024
 91
        1
280
     0
281
     0
  0
CLASS
  1
ACMTAPERSTANDARDISO
  2
AcmTaperStdISO
  3
"Amdt_StdImp|Product Description: AutoCAD Mechanical|Company: Autodesk, Inc."
 90
     1024
 91
        1
280
     0
281
     0
  0
CLASS
  1
ACMANOOTATIONVIEWSTANDARDISO
  2
AmdtAnViewStdISO
  3
"Amdt_StdImp|Product Description: AutoCAD Mechanical|Company: Autodesk, Inc."
 90
     1024
 91
        1
280
     0
281
     0
  0
CLASS
  1
ACMSTANDARDGB
  2
AcmStandardGB
  3
"Amdt_StdImp|Product Description: AutoCAD Mechanical|Company: Autodesk, Inc."
 90
     1024
 91
        0
280
     0
281
     0
  0
CLASS
  1
ACMSURFSTANDARDGB
  2
AcmSurfTextStdGB
  3
"Amdt_StdImp|Product Description: AutoCAD Mechanical|Company: Autodesk, Inc."
 90
     1024
 91
        0
280
     0
281
     0
  0
CLASS
  1
ACMFCFSTANDARDGB
  2
AcmFCFStdGB
  3
"Amdt_StdImp|Product Description: AutoCAD Mechanical|Company: Autodesk, Inc."
 90
     1024
 91
        0
280
     0
281
     0
  0
CLASS
  1
ACMWELDSTANDARDGB
  2
AcmWeldingStdGB
  3
"Amdt_StdImp|Product Description: AutoCAD Mechanical|Company: Autodesk, Inc."
 90
     1024
 91
        0
280
     0
281
     0
  0
CLASS
  1
ACMIDSTANDARDGB
  2
AcmIdStdGB
  3
"Amdt_StdImp|Product Description: AutoCAD Mechanical|Company: Autodesk, Inc."
 90
     1024
 91
        0
280
     0
281
     0
  0
CLASS
  1
ACMDATUMSTANDARDGB
  2
AcmDatumStdGB
  3
"Amdt_StdImp|Product Description: AutoCAD Mechanical|Company: Autodesk, Inc."
 90
     1024
 91
        0
280
     0
281
     0
  0
CLASS
  1
ACMBOMSTANDARDGB
  2
AcmBOMStdGB
  3
"Amdt_StdImp|Product Description: AutoCAD Mechanical|Company: Autodesk, Inc."
 90
     1024
 91
        0
280
     0
281
     0
  0
CLASS
  1
ACMDETAILSTANDARDGB
  2
AmdtDetailSymStdGB
  3
"Amdt_StdImp|Product Description: AutoCAD Mechanical|Company: Autodesk, Inc."
 90
     1024
 91
        0
280
     0
281
     0
  0
CLASS
  1
ACMSECTIONSTANDARDGB1998
  2
AmdtSectionSymStdGB1998
  3
"Amdt_StdImp|Product Description: AutoCAD Mechanical|Company: Autodesk, Inc."
 90
     1024
 91
        0
280
     0
281
     0
  0
CLASS
  1
ACMCENTERLINESTANDARDGB
  2
AmdtCenterLineStdGB
  3
"Amdt_StdImp|Product Description: AutoCAD Mechanical|Company: Autodesk, Inc."
 90
     1024
 91
        0
280
     0
281
     0
  0
CLASS
  1
ACMTHREADLINESTANDARDGB
  2
AmdtThreadLineStdGB
  3
"Amdt_StdImp|Product Description: AutoCAD Mechanical|Company: Autodesk, Inc."
 90
     1024
 91
        0
280
     0
281
     0
  0
CLASS
  1
ACMNOTESTANDARDGB
  2
AmdtNoteStdGB
  3
"Amdt_StdImp|Product Description: AutoCAD Mechanical|Company: Autodesk, Inc."
 90
     1024
 91
        0
280
     0
281
     0
  0
CLASS
  1
ACMTAPERSTANDARDGB
  2
AcmTaperStdGB
  3
"Amdt_StdImp|Product Description: AutoCAD Mechanical|Company: Autodesk, Inc."
 90
     1024
 91
        0
280
     0
281
     0
  0
CLASS
  1
ACMANOOTATIONVIEWSTANDARDGB
  2
AmdtAnViewStdGB
  3
"Amdt_StdImp|Product Description: AutoCAD Mechanical|Company: Autodesk, Inc."
 90
     1024
 91
        0
280
     0
281
     0
  0
CLASS
  1
ACAMGHOLECHARTSTDGB
  2
AcAmgHoleChartStdGB
  3
AmgDim|Product Description: AutoCAD Mechanical|Company: Autodesk, Inc.
 90
     1024
 91
        0
280
     0
281
     0
  0
CLASS
  1
ACMSTANDARDCSN
  2
AcmStandardCSN
  3
"Amdt_StdImp|Product Description: AutoCAD Mechanical|Company: Autodesk, Inc."
 90
     1024
 91
        0
280
     0
281
     0
  0
CLASS
  1
ACMSURFSTANDARDCSN
  2
AcmSurfTextStdCSN
  3
"Amdt_StdImp|Product Description: AutoCAD Mechanical|Company: Autodesk, Inc."
 90
     1024
 91
        0
280
     0
281
     0
  0
CLASS
  1
ACMFCFSTANDARDCSN
  2
AcmFCFStdCSN
  3
"Amdt_StdImp|Product Description: AutoCAD Mechanical|Company: Autodesk, Inc."
 90
     1024
 91
        0
280
     0
281
     0
  0
CLASS
  1
ACMWELDSTANDARDCSN
  2
AcmWeldingStdCSN
  3
"Amdt_StdImp|Product Description: AutoCAD Mechanical|Company: Autodesk, Inc."
 90
     1024
 91
        0
280
     0
281
     0
  0
CLASS
  1
ACMIDSTANDARDCSN
  2
AcmIdStdCSN
  3
"Amdt_StdImp|Product Description: AutoCAD Mechanical|Company: Autodesk, Inc."
 90
     1024
 91
        0
280
     0
281
     0
  0
CLASS
  1
ACMDATUMSTANDARDCSN
  2
AcmDatumStdCSN
  3
"Amdt_StdImp|Product Description: AutoCAD Mechanical|Company: Autodesk, Inc."
 90
     1024
 91
        0
280
     0
281
     0
  0
CLASS
  1
ACMBOMSTANDARDCSN
  2
AcmBOMStdCSN
  3
"Amdt_StdImp|Product Description: AutoCAD Mechanical|Company: Autodesk, Inc."
 90
     1024
 91
        0
280
     0
281
     0
  0
CLASS
  1
ACMDETAILSTANDARDCSN
  2
AmdtDetailSymStdCSN
  3
"Amdt_StdImp|Product Description: AutoCAD Mechanical|Company: Autodesk, Inc."
 90
     1024
 91
        0
280
     0
281
     0
  0
CLASS
  1
ACMSECTIONSTANDARDCSN2002
  2
AmdtSectionSymStdCSN2002
  3
"Amdt_StdImp|Product Description: AutoCAD Mechanical|Company: Autodesk, Inc."
 90
     1024
 91
        0
280
     0
281
     0
  0
CLASS
  1
ACMCENTERLINESTANDARDCSN
  2
AmdtCenterLineStdCSN
  3
"Amdt_StdImp|Product Description: AutoCAD Mechanical|Company: Autodesk, Inc."
 90
     1024
 91
        0
280
     0
281
     0
  0
CLASS
  1
ACMTHREADLINESTANDARDCSN
  2
AmdtThreadLineStdCSN
  3
"Amdt_StdImp|Product Description: AutoCAD Mechanical|Company: Autodesk, Inc."
 90
     1024
 91
        0
280
     0
281
     0
  0
CLASS
  1
ACMNOTESTANDARDCSN
  2
AmdtNoteStdCSN
  3
"Amdt_StdImp|Product Description: AutoCAD Mechanical|Company: Autodesk, Inc."
 90
     1024
 91
        0
280
     0
281
     0
  0
CLASS
  1
ACMTAPERSTANDARDCSN
  2
AcmTaperStdCSN
  3
"Amdt_StdImp|Product Description: AutoCAD Mechanical|Company: Autodesk, Inc."
 90
     1024
 91
        0
280
     0
281
     0
  0
CLASS
  1
ACMANOOTATIONVIEWSTANDARDCSN
  2
AmdtAnViewStdCSN
  3
"Amdt_StdImp|Product Description: AutoCAD Mechanical|Company: Autodesk, Inc."
 90
     1024
 91
        0
280
     0
281
     0
  0
CLASS
  1
ACAMGHOLECHARTSTDCSN
  2
AcAmgHoleChartStdCSN
  3
AmgDim|Product Description: AutoCAD Mechanical|Company: Autodesk, Inc.
 90
     1024
 91
        0
280
     0
281
     0
  0
CLASS
  1
DIMASSOC
  2
AcDbDimAssoc
  3
"AcDbDimAssoc|Product Desc:     AcDim ARX App For Dimension|Company:          Autodesk, Inc.|WEB Address:      www.autodesk.com"
 90
        0
 91
       27
280
     0
281
     0
  0
CLASS
  1
ACDBCIRCARCRES
  2
AcDbCircArcRes
  3
AcGrefServices
 90
     1024
 91
        0
280
     0
281
     0
  0
CLASS
  1
ACDB_BLKREFOBJECTCONTEXTDATA_CLASS
  2
AcDbBlkRefObjectContextData
  3
ObjectDBX Classes
 90
     1153
 91
        0
280
     0
281
     0
  0
CLASS
  1
ACAD_EVALUATION_GRAPH
  2
AcDbEvalGraph
  3
ObjectDBX Classes
 90
     1153
 91
        0
280
     0
281
     0
  0
CLASS
  1
ACAECUSTOBJ
  2
AcAeEditorObj
  3
AcAeEditorObj
 90
     1024
 91
        0
280
     0
281
     0
  0
CLASS
  1
ACDB_DYNAMICBLOCKPURGEPREVENTER_VERSION
  2
AcDbDynamicBlockPurgePreventer
  3
ObjectDBX Classes
 90
     1153
 91
        0
280
     0
281
     0
  0
ENDSEC
  0
SECTION
  2
TABLES
  0
TABLE
  2
VPORT
  5
8
102
{ACAD_XDICTIONARY
360
1B6
102
}
330
0
100
AcDbSymbolTable
 70
     1
  0
VPORT
  5
82
330
8
100
AcDbSymbolTableRecord
100
AcDbViewportTableRecord
  2
*Active
 70
     0
 10
0.0
 20
0.0
 11
1.0
 21
1.0
 12
2967.056143571902
 22
4066.257034149319
 13
0.0
 23
0.0
 14
50.0
 24
50.0
 15
200.0
 25
200.0
 16
0.0
 26
0.0
 36
1.0
 17
0.0
 27
0.0
 37
0.0
 40
895.5785926515163
 41
1.443908323281061
 42
50.0
 43
0.0
 44
0.0
 50
0.0
 51
0.0
 71
    16
 72
 10000
 73
     1
 74
     1
 75
     0
 76
     0
 77
     0
 78
     0
281
     0
 65
     1
110
0.0
120
0.0
130
0.0
111
1.0
121
0.0
131
0.0
112
0.0
122
1.0
132
0.0
 79
     0
146
0.0
  0
ENDTAB
  0
TABLE
  2
LTYPE
  5
5
330
0
100
AcDbSymbolTable
 70
    23
  0
LTYPE
  5
62
330
5
100
AcDbSymbolTableRecord
100
AcDbLinetypeTableRecord
  2
ByBlock
 70
     0
  3

 72
    65
 73
     0
 40
0.0
  0
LTYPE
  5
63
330
5
100
AcDbSymbolTableRecord
100
AcDbLinetypeTableRecord
  2
ByLayer
 70
     0
  3

 72
    65
 73
     0
 40
0.0
  0
LTYPE
  5
64
330
5
100
AcDbSymbolTableRecord
100
AcDbLinetypeTableRecord
  2
CONTINUOUS
 70
     0
  3
Solid line
 72
    65
 73
     0
 40
0.0
  0
LTYPE
  5
78
330
5
100
AcDbSymbolTableRecord
100
AcDbLinetypeTableRecord
  2
DASHED
 70
     0
  3
Dashed line
 72
    65
 73
     2
 40
0.75
 49
0.5
 74
     0
 49
-0.25
 74
     0
  0
LTYPE
  5
79
330
5
100
AcDbSymbolTableRecord
100
AcDbLinetypeTableRecord
  2
CENTER
 70
     0
  3
Center line
 72
    65
 73
     4
 40
2.0
 49
1.25
 74
     0
 49
-0.25
 74
     0
 49
0.25
 74
     0
 49
-0.25
 74
     0
  0
LTYPE
  5
13E
330
5
100
AcDbSymbolTableRecord
100
AcDbLinetypeTableRecord
  2
HIDDEN
 70
     0
  3
Verdeckt
 72
    65
 73
     2
 40
0.375
 49
0.25
 74
     0
 49
-0.125
 74
     0
  0
LTYPE
  5
13F
330
5
100
AcDbSymbolTableRecord
100
AcDbLinetypeTableRecord
  2
PHANTOM2
 70
     0
  3
Phantom (.5x) ___ _ _ ___ _ _ ___ _ _ ___ _ _
 72
    65
 73
     6
 40
1.25
 49
0.625
 74
     0
 49
-0.125
 74
     0
 49
0.125
 74
     0
 49
-0.125
 74
     0
 49
0.125
 74
     0
 49
-0.125
 74
     0
  0
LTYPE
  5
183
330
5
100
AcDbSymbolTableRecord
100
AcDbLinetypeTableRecord
  2
ACANSTGB
 70
     0
  3
__ . . __ . .
 72
    65
 73
     6
 40
0.35433070866
 49
0.15748031496
 74
     0
 49
-0.03937007874
 74
     0
 49
0.03937007874
 74
     0
 49
-0.03937007874
 74
     0
 49
0.03937007874
 74
     0
 49
-0.03937007874
 74
     0
  0
LTYPE
  5
184
330
5
100
AcDbSymbolTableRecord
100
AcDbLinetypeTableRecord
  2
ACANSTGL
 70
     0
  3
_ _ _ _ _
 72
    65
 73
     2
 40
0.11811023622
 49
0.07874015748
 74
     0
 49
-0.03937007874
 74
     0
  0
LTYPE
  5
26A
330
5
100
AcDbSymbolTableRecord
100
AcDbLinetypeTableRecord
  2
ACDINWELD
 70
     0
  3
_ _ _ _ _
 72
    65
 73
     2
 40
2.0
 49
2.0
 74
     0
 49
-1.0
 74
     0
  0
LTYPE
  5
26B
330
5
100
AcDbSymbolTableRecord
100
AcDbLinetypeTableRecord
  2
ACDINTGB
 70
     0
  3
__ . . __ . .
 72
    65
 73
     6
 40
9.0
 49
4.0
 74
     0
 49
-1.0
 74
     0
 49
1.0
 74
     0
 49
-1.0
 74
     0
 49
1.0
 74
     0
 49
-1.0
 74
     0
  0
LTYPE
  5
26C
330
5
100
AcDbSymbolTableRecord
100
AcDbLinetypeTableRecord
  2
ACDINTGL
 70
     0
  3
_ _ _ _ _
 72
    65
 73
     2
 40
3.0
 49
2.0
 74
     0
 49
-1.0
 74
     0
  0
LTYPE
  5
2A6
330
5
100
AcDbSymbolTableRecord
100
AcDbLinetypeTableRecord
  2
Amconstr
 70
     0
  3
_______________________
 72
    65
 73
     2
 40
9999.0
 49
9999.0
 74
     0
 49
0.0
 74
     0
  0
LTYPE
  5
2A7
330
5
100
AcDbSymbolTableRecord
100
AcDbLinetypeTableRecord
  2
Amzigzag
 70
     0
  3
/\/-/\/-/\/-/\/-/\/-/\/
 72
    65
 73
     2
 40
11.0001
 49
0.0001
 74
     4
 75
   136
340
2A8
 46
0.04
 50
0.0
 44
0.0
 45
0.0
 49
-11.0
 74
     0
  0
LTYPE
  5
38A
330
5
100
AcDbSymbolTableRecord
100
AcDbLinetypeTableRecord
  2
HIDDEN2
 70
     0
  3
Hidden (.5x) _ _ _ _ _ _ _ _ _ _ _ _ _ _ _ _ _
 72
    65
 73
     2
 40
0.1875
 49
0.125
 74
     0
 49
-0.0625
 74
     0
  0
LTYPE
  5
38B
330
5
100
AcDbSymbolTableRecord
100
AcDbLinetypeTableRecord
  2
CENTER2
 70
     0
  3
Center (.5x) ___ _ ___ _ ___ _ ___ _ ___ _ ___
 72
    65
 73
     4
 40
1.125
 49
0.75
 74
     0
 49
-0.125
 74
     0
 49
0.125
 74
     0
 49
-0.125
 74
     0
  0
LTYPE
  5
3C3
330
5
100
AcDbSymbolTableRecord
100
AcDbLinetypeTableRecord
  2
AM_ISO02W050
 70
     0
  3
__ __ __ __ __ __ __ __ __ __ __ __ __ __ __
 72
    65
 73
     2
 40
7.5
 49
6.0
 74
     0
 49
-1.5
 74
     0
  0
LTYPE
  5
3C4
330
5
100
AcDbSymbolTableRecord
100
AcDbLinetypeTableRecord
  2
AM_ISO08W050
 70
     0
  3
____ . ____ . ____ . ____ . ____ . ____ . ____
 72
    65
 73
     4
 40
18.0
 49
12.0
 74
     0
 49
-1.5
 74
     0
 49
3.0
 74
     0
 49
-1.5
 74
     0
  0
LTYPE
  5
3C5
330
5
100
AcDbSymbolTableRecord
100
AcDbLinetypeTableRecord
  2
AM_ISO09W050
 70
     0
  3
_____ . . _____ . . _____ . . ____ .. ____
 72
    65
 73
     6
 40
22.5
 49
12.0
 74
     0
 49
-1.5
 74
     0
 49
3.0
 74
     0
 49
-1.5
 74
     0
 49
3.0
 74
     0
 49
-1.5
 74
     0
  0
LTYPE
  5
3C6
330
5
100
AcDbSymbolTableRecord
100
AcDbLinetypeTableRecord
  2
AM_ISO08W050x2
 70
     0
  3
__ . __ . __ . __ . __ . __
 72
    65
 73
     4
 40
9.0
 49
6.0
 74
     0
 49
-0.75
 74
     0
 49
1.5
 74
     0
 49
-0.75
 74
     0
  0
LTYPE
  5
3C7
330
5
100
AcDbSymbolTableRecord
100
AcDbLinetypeTableRecord
  2
AM_ISO02W050x2
 70
     0
  3
 _ _ _ _ _ _ _ _ _ _ _ _
 72
    65
 73
     2
 40
3.75
 49
3.0
 74
     0
 49
-0.75
 74
     0
  0
LTYPE
  5
3C8
330
5
100
AcDbSymbolTableRecord
100
AcDbLinetypeTableRecord
  2
ACISOWELD
 70
     0
  3
_ _ _ _ _
 72
    65
 73
     2
 40
2.0
 49
2.0
 74
     0
 49
-1.0
 74
     0
  0
LTYPE
  5
3C9
330
5
100
AcDbSymbolTableRecord
100
AcDbLinetypeTableRecord
  2
ACISOTGB
 70
     0
  3
__ . . __ . .
 72
    65
 73
     6
 40
9.0
 49
4.0
 74
     0
 49
-1.0
 74
     0
 49
1.0
 74
     0
 49
-1.0
 74
     0
 49
1.0
 74
     0
 49
-1.0
 74
     0
  0
LTYPE
  5
3CA
330
5
100
AcDbSymbolTableRecord
100
AcDbLinetypeTableRecord
  2
ACISOTGL
 70
     0
  3
_ _ _ _ _
 72
    65
 73
     2
 40
3.0
 49
2.0
 74
     0
 49
-1.0
 74
     0
  0
ENDTAB
  0
TABLE
  2
LAYER
  5
2
102
{ACAD_XDICTIONARY
360
256
102
}
330
0
100
AcDbSymbolTable
 70
    24
  0
LAYER
  5
5C
102
{ACAD_XDICTIONARY
360
1A2
102
}
330
2
100
AcDbSymbolTableRecord
100
AcDbLayerTableRecord
  2
0
 70
     0
 62
     7
  6
CONTINUOUS
370
    -3
390
F
  0
LAYER
  5
27F
102
{ACAD_XDICTIONARY
360
2C7
102
}
330
2
100
AcDbSymbolTableRecord
100
AcDbLayerTableRecord
  2
Defpoints
 70
     0
 62
     7
  6
CONTINUOUS
290
     0
370
    -3
390
F
  0
LAYER
  5
2AA
102
{ACAD_XDICTIONARY
360
2C9
102
}
330
2
100
AcDbSymbolTableRecord
100
AcDbLayerTableRecord
  2
AM_3 ( Verdeckt )
 70
     0
 62
     6
  6
AM_ISO02W050
370
    25
390
F
1001
AcAecLayerStandard
1000

1000

  0
LAYER
  5
2AC
102
{ACAD_XDICTIONARY
360
2CB
102
}
330
2
100
AcDbSymbolTableRecord
100
AcDbLayerTableRecord
  2
AM_7 (Mittellinie)
 70
     0
 62
     4
  6
AM_ISO08W050
370
    25
390
F
1001
AcAecLayerStandard
1000

1000

  0
LAYER
  5
2AE
102
{ACAD_XDICTIONARY
360
2CD
102
}
330
2
100
AcDbSymbolTableRecord
100
AcDbLayerTableRecord
  2
AM_2 ( Kontur 0.25)
 70
     0
 62
     5
  6
CONTINUOUS
370
    25
390
F
1001
AcAecLayerStandard
1000

1000

  0
LAYER
  5
2B1
102
{ACAD_XDICTIONARY
360
2CF
102
}
330
2
100
AcDbSymbolTableRecord
100
AcDbLayerTableRecord
  2
AM_5 ( Bemassung)
 70
     0
 62
     3
  6
CONTINUOUS
370
    25
390
F
1001
AcAecLayerStandard
1000

1000

  0
LAYER
  5
9FC
102
{ACAD_XDICTIONARY
360
A1F
102
}
330
2
100
AcDbSymbolTableRecord
100
AcDbLayerTableRecord
  2
AM_0 ( Kontur 0.5 )
 70
     0
 62
     7
  6
CONTINUOUS
370
    50
390
F
1001
AcAecLayerStandard
1000

1000

  0
ENDTAB
  0
TABLE
  2
STYLE
  5
3
330
0
100
AcDbSymbolTable
 70
    13
  0
STYLE
  5
5D
330
3
100
AcDbSymbolTableRecord
100
AcDbTextStyleTableRecord
  2
STANDARD
 70
     0
 40
0.0
 41
1.0
 50
0.0
 71
     0
 42
3.5
  3
ARIAL.TTF
  4

1001
ACAD
1000
Arial
1071
       34
  0
STYLE
  5
174
330
3
100
AcDbSymbolTableRecord
100
AcDbTextStyleTableRecord
  2
ACANSTS
 70
     0
 40
1.0
 41
1.0
 50
0.0
 71
     0
 42
3.5
  3
romans.shx
  4

  0
STYLE
  5
182
330
3
100
AcDbSymbolTableRecord
100
AcDbTextStyleTableRecord
  2
ACANSGDT
 70
     0
 40
0.0
 41
1.0
 50
0.0
 71
     0
 42
3.5
  3
amgdt.shx
  4

  0
STYLE
  5
25A
330
3
100
AcDbSymbolTableRecord
100
AcDbTextStyleTableRecord
  2
ACDINTS
 70
     0
 40
1.0
 41
1.0
 50
0.0
 71
     0
 42
3.5
  3
isocp.shx
  4

  0
STYLE
  5
269
330
3
100
AcDbSymbolTableRecord
100
AcDbTextStyleTableRecord
  2
ACDINGDT
 70
     0
 40
0.0
 41
1.0
 50
0.0
 71
     0
 42
3.5
  3
amgdt.shx
  4

  0
STYLE
  5
2A8
330
3
100
AcDbSymbolTableRecord
100
AcDbTextStyleTableRecord
  2

 70
     1
 40
0.0
 41
1.0
 50
0.0
 71
     0
 42
2.5
  3
genltshp.shx
  4

  0
STYLE
  5
3CB
330
3
100
AcDbSymbolTableRecord
100
AcDbTextStyleTableRecord
  2
ACISOTS
 70
     0
 40
1.0
 41
1.0
 50
0.0
 71
     0
 42
2.5
  3
ARIALN.TTF
  4

1001
ACAD
1000
Arial Narrow
1071
       34
  0
STYLE
  5
3CC
330
3
100
AcDbSymbolTableRecord
100
AcDbTextStyleTableRecord
  2
ACISOGDT
 70
     0
 40
0.0
 41
1.0
 50
0.0
 71
     0
 42
2.5
  3
amgdt.shx
  4

  0
ENDTAB
  0
TABLE
  2
VIEW
  5
6
330
0
100
AcDbSymbolTable
 70
     6
  0
VIEW
  5
51B
330
6
100
AcDbSymbolTableRecord
100
AcDbViewTableRecord
  2
AM_VIEW1
 70
     0
 40
2970.0
 10
5244.127408818744
 20
7963.547409082302
 41
4538.252933507171
 11
0.0
 21
0.0
 31
1.0
 12
0.0
 22
0.0
 32
0.0
 42
50.0
 43
0.0
 44
0.0
 50
0.0
 71
    16
281
     0
 72
     0
  0
VIEW
  5
51C
330
6
100
AcDbSymbolTableRecord
100
AcDbViewTableRecord
  2
AM_VIEW2
 70
     0
 40
2970.0
 10
9105.874475311576
 20
7963.547409082302
 41
4538.252933507171
 11
0.0
 21
0.0
 31
1.0
 12
0.0
 22
0.0
 32
0.0
 42
50.0
 43
0.0
 44
0.0
 50
0.0
 71
    16
281
     0
 72
     0
  0
VIEW
  5
51D
330
6
100
AcDbSymbolTableRecord
100
AcDbViewTableRecord
  2
AM_VIEW3
 70
     0
 40
2970.0
 10
5244.127408818744
 20
4993.547409082303
 41
4538.252933507171
 11
0.0
 21
0.0
 31
1.0
 12
0.0
 22
0.0
 32
0.0
 42
50.0
 43
0.0
 44
0.0
 50
0.0
 71
    16
281
     0
 72
     0
  0
VIEW
  5
51E
330
6
100
AcDbSymbolTableRecord
100
AcDbViewTableRecord
  2
AM_VIEW4
 70
     0
 40
2970.0
 10
9105.874475311576
 20
4993.547409082303
 41
4538.252933507171
 11
0.0
 21
0.0
 31
1.0
 12
0.0
 22
0.0
 32
0.0
 42
50.0
 43
0.0
 44
0.0
 50
0.0
 71
    16
281
     0
 72
     0
  0
VIEW
  5
51F
330
6
100
AcDbSymbolTableRecord
100
AcDbViewTableRecord
  2
AM_VIEW5
 70
     0
 40
2970.0
 10
7175.000942065159
 20
6478.547409082302
 41
4538.252933507172
 11
0.0
 21
0.0
 31
1.0
 12
0.0
 22
0.0
 32
0.0
 42
50.0
 43
0.0
 44
0.0
 50
0.0
 71
    16
281
     0
 72
     0
  0
VIEW
  5
520
330
6
100
AcDbSymbolTableRecord
100
AcDbViewTableRecord
  2
AM_VIEW6
 70
     0
 40
5939.940599999999
 10
7175.000942065159
 20
6478.547409082302
 41
9076.415101955673
 11
0.0
 21
0.0
 31
1.0
 12
0.0
 22
0.0
 32
0.0
 42
50.0
 43
0.0
 44
0.0
 50
0.0
 71
    16
281
     0
 72
     0
  0
ENDTAB
  0
TABLE
  2
UCS
  5
7
330
0
100
AcDbSymbolTable
 70
     0
  0
ENDTAB
  0
TABLE
  2
APPID
  5
9
330
0
100
AcDbSymbolTable
 70
    66
  0
APPID
  5
5E
330
9
100
AcDbSymbolTableRecord
100
AcDbRegAppTableRecord
  2
ACAD
 70
     0
  0
APPID
  5
65
330
9
100
AcDbSymbolTableRecord
100
AcDbRegAppTableRecord
  2
AcadAnnotative
 70
     0
  0
APPID
  5
6F
330
9
100
AcDbSymbolTableRecord
100
AcDbRegAppTableRecord
  2
ACAD_MLEADERVER
 70
     0
  0
APPID
  5
111
330
9
100
AcDbSymbolTableRecord
100
AcDbRegAppTableRecord
  2
MCAD_NO_VIS
 70
     0
  0
APPID
  5
112
330
9
100
AcDbSymbolTableRecord
100
AcDbRegAppTableRecord
  2
ACAD_TEMP_GRAPHIC
 70
     0
  0
APPID
  5
141
330
9
100
AcDbSymbolTableRecord
100
AcDbRegAppTableRecord
  2
AD_DRAW
 70
     0
  0
APPID
  5
144
330
9
100
AcDbSymbolTableRecord
100
AcDbRegAppTableRecord
  2
ACATTRIBSERVICES
 70
     0
  0
APPID
  5
165
330
9
100
AcDbSymbolTableRecord
100
AcDbRegAppTableRecord
  2
DESIGNERASSEMBLIES
 70
     0
  0
APPID
  5
16B
330
9
100
AcDbSymbolTableRecord
100
AcDbRegAppTableRecord
  2
ACADM_DIM_EDIT
 70
     0
  0
APPID
  5
16C
330
9
100
AcDbSymbolTableRecord
100
AcDbRegAppTableRecord
  2
AMDT_DM_ADJ
 70
     0
  0
APPID
  5
1C8
330
9
100
AcDbSymbolTableRecord
100
AcDbRegAppTableRecord
  2
ACAD_DSTYLE_DIMARC_LENGTH_SYMBOL
 70
     0
  0
APPID
  5
24A
330
9
100
AcDbSymbolTableRecord
100
AcDbRegAppTableRecord
  2
AcAecLayerStandard
 70
     0
  0
APPID
  5
280
330
9
100
AcDbSymbolTableRecord
100
AcDbRegAppTableRecord
  2
ACAD_DSTYLE_DIMJOGGED_JOGANGLE_SYMBOL
 70
     0
  0
APPID
  5
281
330
9
100
AcDbSymbolTableRecord
100
AcDbRegAppTableRecord
  2
AcadAnnoPO
 70
     0
  0
APPID
  5
282
330
9
100
AcDbSymbolTableRecord
100
AcDbRegAppTableRecord
  2
ACAD_EXEMPT_FROM_CAD_STANDARDS
 70
     0
  0
APPID
  5
283
330
9
100
AcDbSymbolTableRecord
100
AcDbRegAppTableRecord
  2
GENIUS_GENODEF_13
 70
     0
  0
APPID
  5
284
330
9
100
AcDbSymbolTableRecord
100
AcDbRegAppTableRecord
  2
GENIUS_GENOBJ-N-CRS_13
 70
     0
  0
APPID
  5
285
330
9
100
AcDbSymbolTableRecord
100
AcDbRegAppTableRecord
  2
GENIUS_GENOENT_13
 70
     0
  0
APPID
  5
286
330
9
100
AcDbSymbolTableRecord
100
AcDbRegAppTableRecord
  2
GENIUS_GENOLIS_13
 70
     0
  0
APPID
  5
287
330
9
100
AcDbSymbolTableRecord
100
AcDbRegAppTableRecord
  2
GENIUS_GENOREF_13
 70
     0
  0
APPID
  5
288
330
9
100
AcDbSymbolTableRecord
100
AcDbRegAppTableRecord
  2
GEVID1190879659
 70
     0
  0
APPID
  5
289
330
9
100
AcDbSymbolTableRecord
100
AcDbRegAppTableRecord
  2
GEVDC
 70
     0
  0
APPID
  5
28A
330
9
100
AcDbSymbolTableRecord
100
AcDbRegAppTableRecord
  2
GENIUS_GENBH_13
 70
     0
  0
APPID
  5
28B
330
9
100
AcDbSymbolTableRecord
100
AcDbRegAppTableRecord
  2
GENIUS_GENOBJ-NBEHI-BHF_13
 70
     0
  0
APPID
  5
28C
330
9
100
AcDbSymbolTableRecord
100
AcDbRegAppTableRecord
  2
GENIUS_GENOBJ-NBEHI-BHB_13
 70
     0
  0
APPID
  5
28D
330
9
100
AcDbSymbolTableRecord
100
AcDbRegAppTableRecord
  2
GEVID1190879660
 70
     0
  0
APPID
  5
28E
330
9
100
AcDbSymbolTableRecord
100
AcDbRegAppTableRecord
  2
GEVID1190879661
 70
     0
  0
APPID
  5
28F
330
9
100
AcDbSymbolTableRecord
100
AcDbRegAppTableRecord
  2
ACAD_DSTYLE_DIMRADIAL_EXTENSION
 70
     0
  0
APPID
  5
290
330
9
100
AcDbSymbolTableRecord
100
AcDbRegAppTableRecord
  2
GEVID1190879662
 70
     0
  0
APPID
  5
291
330
9
100
AcDbSymbolTableRecord
100
AcDbRegAppTableRecord
  2
GEVID1190879663
 70
     0
  0
APPID
  5
292
330
9
100
AcDbSymbolTableRecord
100
AcDbRegAppTableRecord
  2
GEVID1190879664
 70
     0
  0
APPID
  5
293
330
9
100
AcDbSymbolTableRecord
100
AcDbRegAppTableRecord
  2
GEVID1190879665
 70
     0
  0
APPID
  5
294
330
9
100
AcDbSymbolTableRecord
100
AcDbRegAppTableRecord
  2
GEVID1190879666
 70
     0
  0
APPID
  5
295
330
9
100
AcDbSymbolTableRecord
100
AcDbRegAppTableRecord
  2
GENIUS_GENOBJ-N-CEN_13
 70
     0
  0
APPID
  5
296
330
9
100
AcDbSymbolTableRecord
100
AcDbRegAppTableRecord
  2
GENIUS_GENCEN_19
 70
     0
  0
APPID
  5
297
330
9
100
AcDbSymbolTableRecord
100
AcDbRegAppTableRecord
  2
GEVID1190879667
 70
     0
  0
APPID
  5
298
330
9
100
AcDbSymbolTableRecord
100
AcDbRegAppTableRecord
  2
GENIUS_GENOBJ-N-CRC_13
 70
     0
  0
APPID
  5
299
330
9
100
AcDbSymbolTableRecord
100
AcDbRegAppTableRecord
  2
GENIUS_GENCRC_14
 70
     0
  0
APPID
  5
29A
330
9
100
AcDbSymbolTableRecord
100
AcDbRegAppTableRecord
  2
ACAD_PSEXT
 70
     0
  0
APPID
  5
29B
330
9
100
AcDbSymbolTableRecord
100
AcDbRegAppTableRecord
  2
GEVID1190888456
 70
     0
  0
APPID
  5
29C
330
9
100
AcDbSymbolTableRecord
100
AcDbRegAppTableRecord
  2
GEVID1190888457
 70
     0
  0
APPID
  5
29D
330
9
100
AcDbSymbolTableRecord
100
AcDbRegAppTableRecord
  2
GEVID1190888458
 70
     0
  0
APPID
  5
29E
330
9
100
AcDbSymbolTableRecord
100
AcDbRegAppTableRecord
  2
GEVID1190888459
 70
     0
  0
APPID
  5
29F
330
9
100
AcDbSymbolTableRecord
100
AcDbRegAppTableRecord
  2
GEVID1190888460
 70
     0
  0
APPID
  5
2A0
330
9
100
AcDbSymbolTableRecord
100
AcDbRegAppTableRecord
  2
GEVID1190888461
 70
     0
  0
APPID
  5
2A1
330
9
100
AcDbSymbolTableRecord
100
AcDbRegAppTableRecord
  2
GEVID1190888462
 70
     0
  0
APPID
  5
2A2
330
9
100
AcDbSymbolTableRecord
100
AcDbRegAppTableRecord
  2
ACAD_DSTYLE_DIMJAG
 70
     0
  0
APPID
  5
2A3
330
9
100
AcDbSymbolTableRecord
100
AcDbRegAppTableRecord
  2
ACAD_DSTYLE_DIMTALN
 70
     0
  0
APPID
  5
390
330
9
100
AcDbSymbolTableRecord
100
AcDbRegAppTableRecord
  2
GENIUS_GENBLLY_14
 70
     0
  0
APPID
  5
3D5
330
9
100
AcDbSymbolTableRecord
100
AcDbRegAppTableRecord
  2
DCO15
 70
     0
  0
APPID
  5
3D6
330
9
100
AcDbSymbolTableRecord
100
AcDbRegAppTableRecord
  2
GENIUS_GENREC_14
 70
     0
  0
APPID
  5
3D7
330
9
100
AcDbSymbolTableRecord
100
AcDbRegAppTableRecord
  2
GENIUS_GENOBJ-N-REC_13
 70
     0
  0
APPID
  5
519
330
9
100
AcDbSymbolTableRecord
100
AcDbRegAppTableRecord
  2
GENIUS_GENOBJ-N-TIT_13
 70
     0
  0
APPID
  5
51A
330
9
100
AcDbSymbolTableRecord
100
AcDbRegAppTableRecord
  2
GENIUS_GENTITLE_13
 70
     0
  0
APPID
  5
521
330
9
100
AcDbSymbolTableRecord
100
AcDbRegAppTableRecord
  2
GENIUS_GENSCREG_15
 70
     0
  0
APPID
  5
522
330
9
100
AcDbSymbolTableRecord
100
AcDbRegAppTableRecord
  2
GENIUS_GENOBJ-N-SDF_13
 70
     0
  0
APPID
  5
5BA
330
9
100
AcDbSymbolTableRecord
100
AcDbRegAppTableRecord
  2
ACAD_DSTYLE_DIMINSPECT
 70
     0
  0
APPID
  5
986
330
9
100
AcDbSymbolTableRecord
100
AcDbRegAppTableRecord
  2
GENIUS_GENDIMSH_14
 70
     0
  0
APPID
  5
AFA
330
9
100
AcDbSymbolTableRecord
100
AcDbRegAppTableRecord
  2
GENIUS_GENOBJ-N-HTC_13
 70
     0
  0
APPID
  5
AFB
330
9
100
AcDbSymbolTableRecord
100
AcDbRegAppTableRecord
  2
GENIUS_GENHATCH_13
 70
     0
  0
APPID
  5
B3E
330
9
100
AcDbSymbolTableRecord
100
AcDbRegAppTableRecord
  2
ACAUTHENVIRON
 70
     0
  0
APPID
  5
B42
330
9
100
AcDbSymbolTableRecord
100
AcDbRegAppTableRecord
  2
AcDbDynamicBlockTrueName
 70
     0
  0
APPID
  5
B43
330
9
100
AcDbSymbolTableRecord
100
AcDbRegAppTableRecord
  2
AcDbDynamicBlockGUID
 70
     0
  0
APPID
  5
B45
330
9
100
AcDbSymbolTableRecord
100
AcDbRegAppTableRecord
  2
ACDBBLOCKREPETAG
 70
     0
  0
APPID
  5
2F23
330
9
100
AcDbSymbolTableRecord
100
AcDbRegAppTableRecord
  2
GENIUS_GENDTOL_13
 70
     0
  0
APPID
  5
30D7
330
9
100
AcDbSymbolTableRecord
100
AcDbRegAppTableRecord
  2
AcDbAttr
 70
     0
  0
ENDTAB
  0
TABLE
  2
DIMSTYLE
  5
A
330
0
100
AcDbSymbolTable
 70
    25
100
AcDbDimStyleTable
 71
     5
340
276
340
27B
340
5F
340
27C
340
3CE
  0
DIMSTYLE
105
5F
330
A
100
AcDbSymbolTableRecord
100
AcDbDimStyleTableRecord
  2
Standard
 70
     0
340
5D
  0
DIMSTYLE
105
18F
330
A
100
AcDbSymbolTableRecord
100
AcDbDimStyleTableRecord
  2
AM_ANSI
 70
     0
  4
mm
 41
0.1
 42
0.05
 43
0.5
 44
0.1
 47
0.1
 48
0.1
 78
     7
 79
     2
140
0.12
141
0.0
146
0.71
147
0.06
176
   256
177
   256
178
     2
274
     4
284
     7
340
5D
371
    -1
372
    -1
1001
ACAD_DSTYLE_DIMARC_LENGTH_SYMBOL
1070
   379
1070
     1
  0
DIMSTYLE
105
190
330
A
100
AcDbSymbolTableRecord
100
AcDbDimStyleTableRecord
  2
AM_ANSI$3
 70
     0
  4
mm
 41
0.1
 42
0.05
 43
0.5
 44
0.1
 47
0.1
 48
0.1
 78
     7
 79
     2
140
0.12
141
0.0
146
0.71
147
0.06
176
   256
177
   256
178
     2
274
     4
284
     7
288
     1
289
     0
340
5D
371
    -1
372
    -1
1001
ACAD_DSTYLE_DIMARC_LENGTH_SYMBOL
1070
   379
1070
     1
  0
DIMSTYLE
105
191
330
A
100
AcDbSymbolTableRecord
100
AcDbDimStyleTableRecord
  2
AM_ANSI$4
 70
     0
  4
mm
 41
0.1
 42
0.05
 43
0.5
 44
0.1
 47
0.1
 48
0.1
 78
     7
 79
     2
140
0.12
141
0.0
146
0.71
147
0.06
176
   256
177
   256
178
     2
274
     4
284
     7
288
     1
289
     0
340
5D
371
    -1
372
    -1
1001
ACAD_DSTYLE_DIMARC_LENGTH_SYMBOL
1070
   379
1070
     1
  0
DIMSTYLE
105
192
330
A
100
AcDbSymbolTableRecord
100
AcDbDimStyleTableRecord
  2
AM_ANSI$7
 70
     0
  4
mm
 41
0.1
 42
0.05
 43
0.5
 44
0.1
 47
0.1
 48
0.1
 78
     7
 79
     2
140
0.24
141
0.0
146
0.71
147
0.06
176
   256
177
   256
178
     2
274
     4
284
     7
340
5D
371
    -1
372
    -1
1001
ACAD_DSTYLE_DIMARC_LENGTH_SYMBOL
1070
   379
1070
     1
  0
DIMSTYLE
105
193
330
A
100
AcDbSymbolTableRecord
100
AcDbDimStyleTableRecord
  2
AM_ANSI$SF
 70
     0
  4
mm
 41
0.1
 42
0.05
 43
0.5
 44
0.1
 47
0.1
 48
0.1
 75
     1
 76
     1
 78
     7
 79
     2
140
0.12
141
0.0
146
0.71
147
0.06
176
   256
177
   256
178
     2
274
     4
284
     7
340
5D
371
    -1
372
    -1
1001
ACAD_DSTYLE_DIMARC_LENGTH_SYMBOL
1070
   379
1070
     1
  0
DIMSTYLE
105
198
330
A
100
AcDbSymbolTableRecord
100
AcDbDimStyleTableRecord
  2
AM_ANSI$SH
 70
     0
  4
mm
 41
0.1
 42
0.05
 43
0.5
 44
0.1
 47
0.1
 48
0.1
 75
     1
 76
     1
 78
     7
 79
     2
140
0.12
141
0.0
146
0.71
147
0.06
173
     1
176
   256
177
   256
178
     2
274
     4
284
     7
340
5D
343
194
371
    -1
372
    -1
1001
ACAD_DSTYLE_DIMARC_LENGTH_SYMBOL
1070
   379
1070
     1
  0
DIMSTYLE
105
276
330
A
100
AcDbSymbolTableRecord
100
AcDbDimStyleTableRecord
  2
AM_DIN
 70
     0
  4
"
 41
5.0
 42
1.0
 43
10.0
 44
1.0
 47
0.1
 48
0.1
 73
     0
 74
     0
 77
     1
 78
     8
 79
     2
140
5.0
141
0.0
143
0.0393701
146
0.71
147
1.5
172
     1
176
   256
177
   256
178
     2
271
     2
272
     2
283
     0
284
     8
340
5D
371
    -1
372
    -1
1001
ACAD_DSTYLE_DIMJOGGED_JOGANGLE_SYMBOL
1070
   384
1040
1.570796326794896
  0
DIMSTYLE
105
277
330
A
100
AcDbSymbolTableRecord
100
AcDbDimStyleTableRecord
  2
AM_DIN$3
 70
     0
  4
"
 41
3.5
 42
1.0
 43
10.0
 44
1.0
 47
0.1
 48
0.1
 73
     0
 77
     1
 78
     8
 79
     2
140
3.5
141
0.0
143
0.0393701
146
0.71
147
1.5
176
   256
177
   256
178
     2
271
     2
272
     2
283
     0
284
     8
288
     1
289
     0
340
5D
371
    -1
372
    -1
1001
ACAD_DSTYLE_DIMJOGGED_JOGANGLE_SYMBOL
1070
   384
1040
1.570796326794896
  0
DIMSTYLE
105
278
330
A
100
AcDbSymbolTableRecord
100
AcDbDimStyleTableRecord
  2
AM_DIN$4
 70
     0
  4
"
 41
4.0
 42
1.0
 43
10.0
 44
1.0
 47
0.1
 48
0.1
 73
     0
 77
     1
 78
     8
 79
     2
140
3.5
141
0.0
143
0.0393701
146
0.71
147
1.5
176
   256
177
   256
178
     2
271
     2
272
     2
283
     0
284
     8
288
     1
289
     0
340
5D
371
    -1
372
    -1
1001
ACAD_DSTYLE_DIMJOGGED_JOGANGLE_SYMBOL
1070
   384
1040
1.570796326794896
  0
DIMSTYLE
105
279
330
A
100
AcDbSymbolTableRecord
100
AcDbDimStyleTableRecord
  2
AM_DIN$6
 70
     0
  4
"
 41
4.0
 42
0.0
 43
10.0
 44
1.0
 47
0.1
 48
0.1
 73
     0
 74
     0
 78
     8
 79
     2
140
3.5
141
0.0
143
0.0393701
146
0.71
147
1.5
172
     1
176
   256
177
   256
178
     2
271
     2
272
     2
283
     0
284
     8
340
5D
371
    -1
372
    -1
1001
ACAD_DSTYLE_DIMJOGGED_JOGANGLE_SYMBOL
1070
   384
1040
1.570796326794896
  0
DIMSTYLE
105
27A
330
A
100
AcDbSymbolTableRecord
100
AcDbDimStyleTableRecord
  2
AM_DIN$7
 70
     0
  4
"
 41
5.0
 42
1.0
 43
10.0
 44
1.0
 47
0.1
 48
0.1
 73
     0
 74
     0
 77
     1
 78
     8
 79
     2
140
5.0
141
0.0
143
0.0393701
146
0.71
147
1.5
172
     1
176
   256
177
   256
178
     2
271
     2
272
     2
283
     0
284
     8
340
5D
371
    -1
372
    -1
1001
ACAD_DSTYLE_DIMJOGGED_JOGANGLE_SYMBOL
1070
   384
1040
1.570796326794896
  0
DIMSTYLE
105
27B
330
A
100
AcDbSymbolTableRecord
100
AcDbDimStyleTableRecord
  2
AM_DIN$SF
 70
     0
  4
"
 41
4.0
 42
1.0
 43
10.0
 44
1.0
 47
0.1
 48
0.1
 73
     0
 74
     0
 75
     1
 76
     1
 77
     1
 78
     8
 79
     2
140
3.5
141
0.0
143
0.0393701
146
0.71
147
1.5
172
     1
176
   256
177
   256
178
     2
271
     2
272
     2
283
     0
284
     8
340
5D
371
    -1
372
    -1
1001
ACAD_DSTYLE_DIMJOGGED_JOGANGLE_SYMBOL
1070
   384
1040
1.570796326794896
  0
DIMSTYLE
105
27C
330
A
100
AcDbSymbolTableRecord
100
AcDbDimStyleTableRecord
  2
AM_DIN$SH
 70
     0
  4
"
 41
4.0
 42
1.0
 43
10.0
 44
1.0
 47
0.1
 48
0.1
 73
     0
 74
     0
 75
     1
 76
     1
 77
     1
 78
     8
 79
     2
140
3.5
141
0.0
143
0.0393701
144
2.0
146
0.71
147
1.5
172
     1
173
     1
176
   256
177
   256
178
     2
271
     2
272
     2
283
     0
284
     8
340
5D
343
194
371
    -1
372
    -1
1001
ACAD_DSTYLE_DIMJOGGED_JOGANGLE_SYMBOL
1070
   384
1040
1.570796326794896
  0
DIMSTYLE
105
32F
102
{ACAD_REACTORS
330
29F5
330
2A16
330
2C12
102
}
330
A
100
AcDbSymbolTableRecord
100
AcDbDimStyleTableRecord
  2
AM_DIN$0
 70
     0
  4
"
 41
4.0
 42
0.0
 43
10.0
 44
1.0
 47
0.1
 48
0.1
 73
     0
 74
     0
 77
     1
 78
     8
 79
     2
140
3.5
141
0.0
143
0.0393701
146
0.71
147
1.5
172
     1
176
   256
177
   256
178
     2
271
     2
272
     2
283
     0
284
     8
340
5D
371
    -1
372
    -1
1001
ACAD_DSTYLE_DIMJOGGED_JOGANGLE_SYMBOL
1070
   384
1040
1.570796326794896
  0
DIMSTYLE
105
330
330
A
100
AcDbSymbolTableRecord
100
AcDbDimStyleTableRecord
  2
AM_DIN$2
 70
     0
  4
"
 41
4.0
 42
0.0
 43
10.0
 44
1.0
 47
0.1
 48
0.1
 73
     0
 74
     0
 77
     1
 78
     8
 79
     2
140
3.5
141
0.0
143
0.0393701
146
0.71
147
1.5
172
     1
176
   256
177
   256
178
     2
271
     2
272
     2
283
     0
284
     8
340
5D
371
    -1
372
    -1
1001
ACAD_DSTYLE_DIMJOGGED_JOGANGLE_SYMBOL
1070
   384
1040
1.570796326794896
  0
DIMSTYLE
105
3CE
330
A
100
AcDbSymbolTableRecord
100
AcDbDimStyleTableRecord
  2
AM_ISO
 70
     0
  4
"
 41
2.5
 42
1.0
 43
10.0
 44
1.0
 47
0.1
 48
0.1
 73
     0
 74
     0
 77
     1
 78
     8
 79
     2
140
3.5
141
0.0
143
0.0393701
146
0.71
147
1.5
172
     1
176
   256
177
   256
178
     2
271
     2
272
     3
274
     4
283
     0
284
     8
340
5D
371
    -1
372
    -1
1001
ACAD_DSTYLE_DIMJOGGED_JOGANGLE_SYMBOL
1070
   384
1040
0.7853981633974483
1001
ACAD_DSTYLE_DIMARC_LENGTH_SYMBOL
1070
   379
1070
     1
  0
DIMSTYLE
105
3CF
330
A
100
AcDbSymbolTableRecord
100
AcDbDimStyleTableRecord
  2
AM_ISO$3
 70
     0
  4
"
 41
2.5
 42
1.0
 43
10.0
 44
1.0
 47
0.1
 48
0.1
 73
     0
 77
     1
 78
     8
 79
     2
140
3.5
141
0.0
143
0.0393701
146
0.71
147
1.5
176
   256
177
   256
178
     2
271
     2
272
     3
274
     4
283
     0
284
     8
288
     1
289
     0
340
5D
371
    -1
372
    -1
1001
ACAD_DSTYLE_DIMJOGGED_JOGANGLE_SYMBOL
1070
   384
1040
0.7853981633974483
1001
ACAD_DSTYLE_DIMARC_LENGTH_SYMBOL
1070
   379
1070
     1
  0
DIMSTYLE
105
3D0
330
A
100
AcDbSymbolTableRecord
100
AcDbDimStyleTableRecord
  2
AM_ISO$4
 70
     0
  4
"
 41
2.5
 42
1.0
 43
10.0
 44
1.0
 47
0.1
 48
0.1
 73
     0
 77
     1
 78
     8
 79
     2
140
3.5
141
0.0
143
0.0393701
146
0.71
147
1.5
176
   256
177
   256
178
     2
271
     2
272
     3
274
     4
283
     0
284
     8
288
     1
289
     0
340
5D
371
    -1
372
    -1
1001
ACAD_DSTYLE_DIMJOGGED_JOGANGLE_SYMBOL
1070
   384
1040
0.7853981633974483
1001
ACAD_DSTYLE_DIMARC_LENGTH_SYMBOL
1070
   379
1070
     1
  0
DIMSTYLE
105
3D1
330
A
100
AcDbSymbolTableRecord
100
AcDbDimStyleTableRecord
  2
AM_ISO$6
 70
     0
  4
"
 41
2.5
 42
1.0
 43
10.0
 44
1.0
 47
0.1
 48
0.1
 73
     0
 74
     0
 78
     8
 79
     2
140
3.5
141
0.0
143
0.0393701
146
0.71
147
1.5
172
     1
176
   256
177
   256
178
     2
271
     2
272
     3
274
     4
283
     0
284
     8
340
5D
371
    -1
372
    -1
1001
ACAD_DSTYLE_DIMJOGGED_JOGANGLE_SYMBOL
1070
   384
1040
0.7853981633974483
1001
ACAD_DSTYLE_DIMARC_LENGTH_SYMBOL
1070
   379
1070
     1
  0
DIMSTYLE
105
3D2
330
A
100
AcDbSymbolTableRecord
100
AcDbDimStyleTableRecord
  2
AM_ISO$7
 70
     0
  4
"
 41
2.5
 42
1.0
 43
10.0
 44
1.0
 47
0.1
 48
0.1
 73
     0
 74
     0
 77
     1
 78
     8
 79
     2
140
5.0
141
0.0
143
0.0393701
146
0.71
147
1.5
172
     1
176
   256
177
   256
178
     2
271
     2
272
     3
274
     4
283
     0
284
     8
340
5D
371
    -1
372
    -1
1001
ACAD_DSTYLE_DIMJOGGED_JOGANGLE_SYMBOL
1070
   384
1040
0.7853981633974483
1001
ACAD_DSTYLE_DIMARC_LENGTH_SYMBOL
1070
   379
1070
     1
  0
DIMSTYLE
105
3D3
330
A
100
AcDbSymbolTableRecord
100
AcDbDimStyleTableRecord
  2
AM_ISO$SF
 70
     0
  4
"
 41
2.5
 42
1.0
 43
10.0
 44
1.0
 47
0.1
 48
0.1
 73
     0
 74
     0
 75
     1
 76
     1
 77
     1
 78
     8
 79
     2
140
3.5
141
0.0
143
0.0393701
146
0.71
147
1.5
172
     1
176
   256
177
   256
178
     2
271
     2
272
     3
274
     4
283
     0
284
     8
340
5D
371
    -1
372
    -1
1001
ACAD_DSTYLE_DIMJOGGED_JOGANGLE_SYMBOL
1070
   384
1040
0.7853981633974483
1001
ACAD_DSTYLE_DIMARC_LENGTH_SYMBOL
1070
   379
1070
     1
  0
DIMSTYLE
105
3D4
330
A
100
AcDbSymbolTableRecord
100
AcDbDimStyleTableRecord
  2
AM_ISO$SH
 70
     0
  4
"
 41
2.5
 42
1.0
 43
10.0
 44
1.0
 47
0.1
 48
0.1
 73
     0
 74
     0
 75
     1
 76
     1
 77
     1
 78
     8
 79
     2
140
3.5
141
0.0
143
0.0393701
144
2.0
146
0.71
147
1.5
172
     1
173
     1
176
   256
177
   256
178
     2
271
     2
272
     3
274
     4
283
     0
284
     8
340
5D
343
194
371
    -1
372
    -1
1001
ACAD_DSTYLE_DIMJOGGED_JOGANGLE_SYMBOL
1070
   384
1040
0.7853981633974483
1001
ACAD_DSTYLE_DIMARC_LENGTH_SYMBOL
1070
   379
1070
     1
  0
ENDTAB
  0
TABLE
  2
BLOCK_RECORD
  5
1
330
0
100
AcDbSymbolTable
 70
    44
  0
BLOCK_RECORD
  5
74
102
{ACAD_XDICTIONARY
360
A88
102
}
330
1
100
AcDbSymbolTableRecord
100
AcDbBlockTableRecord
  2
*Model_Space
340
77
  0
BLOCK_RECORD
  5
70
330
1
100
AcDbSymbolTableRecord
100
AcDbBlockTableRecord
  2
*Paper_Space
340
73
  0
BLOCK_RECORD
  5
194
330
1
100
AcDbSymbolTableRecord
100
AcDbBlockTableRecord
  2
GENAXEH
340
0
  0
BLOCK_RECORD
  5
29F6
330
1
100
AcDbSymbolTableRecord
100
AcDbBlockTableRecord
  2
*D14
340
0
  0
BLOCK_RECORD
  5
2A17
330
1
100
AcDbSymbolTableRecord
100
AcDbBlockTableRecord
  2
*D15
340
0
  0
BLOCK_RECORD
  5
2C13
330
1
100
AcDbSymbolTableRecord
100
AcDbBlockTableRecord
  2
*D21
340
0
  0
ENDTAB
  0
ENDSEC
  0
SECTION
  2
BLOCKS
  0
BLOCK
  5
75
330
74
100
AcDbEntity
  8
0
100
AcDbBlockBegin
  2
*Model_Space
 70
     0
 10
0.0
 20
0.0
 30
0.0
  3
*Model_Space
  1

  0
ENDBLK
  5
76
330
74
100
AcDbEntity
  8
0
100
AcDbBlockEnd
  0
BLOCK
  5
71
330
70
100
AcDbEntity
 67
     1
  8
0
100
AcDbBlockBegin
  2
*Paper_Space
 70
     0
 10
0.0
 20
0.0
 30
0.0
  3
*Paper_Space
  1

  0
ENDBLK
  5
72
330
70
100
AcDbEntity
 67
     1
  8
0
100
AcDbBlockEnd
  0
BLOCK
  5
318A
330
194
100
AcDbEntity
  8
0
100
AcDbBlockBegin
  2
GENAXEH
 70
     0
 10
0.0
 20
0.0
 30
0.0
  3
GENAXEH
  1

  0
LINE
  5
318B
330
194
100
AcDbEntity
  8
0
100
AcDbLine
 10
-1.0
 20
0.0
 30
0.0
 11
1.0
 21
0.0
 31
0.0
  0
ENDBLK
  5
318C
330
194
100
AcDbEntity
  8
0
100
AcDbBlockEnd
  0
BLOCK
  5
29F7
330
29F6
100
AcDbEntity
  8
0
100
AcDbBlockBegin
  2
*D14
 70
     1
 10
0.0
 20
0.0
 30
0.0
  3
*D14
  1

  0
LINE
  5
3200
330
29F6
100
AcDbEntity
  8
AM_5 ( Bemassung)
100
AcDbLine
 10
3090.066789613898
 20
4419.73267439975
 30
0.0
 11
3090.066789613898
 21
4490.732675511293
 31
0.0
  0
LINE
  5
3201
330
29F6
100
AcDbEntity
  8
AM_5 ( Bemassung)
100
AcDbLine
 10
2740.066789613898
 20
4419.73267439975
 30
0.0
 11
2740.066789613898
 21
4490.732675511293
 31
0.0
  0
LINE
  5
3202
330
29F6
100
AcDbEntity
  8
AM_5 ( Bemassung)
100
AcDbLine
 10
3074.066789613898
 20
4486.732675511293
 30
0.0
 11
2756.066789613898
 21
4486.732675511293
 31
0.0
  0
SOLID
  5
3203
330
29F6
100
AcDbEntity
  8
AM_5 ( Bemassung)
100
AcDbTrace
 10
3074.066789613898
 20
4489.39934217796
 30
0.0
 11
3074.066789613898
 21
4484.066008844626
 31
0.0
 12
3090.066789613898
 22
4486.732675511293
 32
0.0
 13
3090.066789613898
 23
4486.732675511293
 33
0.0
  0
SOLID
  5
3204
330
29F6
100
AcDbEntity
  8
AM_5 ( Bemassung)
100
AcDbTrace
 10
2756.066789613898
 20
4489.39934217796
 30
0.0
 11
2756.066789613898
 21
4484.066008844626
 31
0.0
 12
2740.066789613898
 22
4486.732675511293
 32
0.0
 13
2740.066789613898
 23
4486.732675511293
 33
0.0
  0
MTEXT
  5
3205
330
29F6
100
AcDbEntity
  8
AM_5 ( Bemassung)
 62
     2
100
AcDbMText
 10
2915.066789613898
 20
4499.885472237077
 30
0.0
 40
14.0
 41
0.0
 71
     5
 72
     1
  1
350
 73
     1
 44
1.0
  0
POINT
  5
3206
330
29F6
100
AcDbEntity
  8
Defpoints
 62
     0
100
AcDbPoint
 10
3090.066789613898
 20
4419.73267439975
 30
-0.0000000000000002
  0
POINT
  5
3207
330
29F6
100
AcDbEntity
  8
Defpoints
 62
     0
100
AcDbPoint
 10
2740.066789613898
 20
4419.73267439975
 30
-0.0000000000000002
  0
POINT
  5
3208
330
29F6
100
AcDbEntity
  8
Defpoints
 62
     0
100
AcDbPoint
 10
2740.066789613898
 20
4486.732675511293
 30
0.0
  0
ENDBLK
  5
29F8
330
29F6
100
AcDbEntity
  8
0
100
AcDbBlockEnd
  0
BLOCK
  5
2A18
330
2A17
100
AcDbEntity
  8
0
100
AcDbBlockBegin
  2
*D15
 70
     1
 10
0.0
 20
0.0
 30
0.0
  3
*D15
  1

  0
LINE
  5
3209
330
2A17
100
AcDbEntity
  8
AM_5 ( Bemassung)
100
AcDbLine
 10
3090.066789613898
 20
4423.732674399751
 30
0.0
 11
3226.232772839321
 21
4423.732674399751
 31
0.0
  0
LINE
  5
320A
330
2A17
100
AcDbEntity
  8
AM_5 ( Bemassung)
100
AcDbLine
 10
3090.066789613898
 20
4085.732674399749
 30
0.0
 11
3226.232772839321
 21
4085.732674399749
 31
0.0
  0
LINE
  5
320B
330
2A17
100
AcDbEntity
  8
AM_5 ( Bemassung)
100
AcDbLine
 10
3222.232772839321
 20
4407.732674399751
 30
0.0
 11
3222.232772839321
 21
4101.73267439975
 31
0.0
  0
SOLID
  5
320C
330
2A17
100
AcDbEntity
  8
AM_5 ( Bemassung)
100
AcDbTrace
 10
3219.566106172655
 20
4407.732674399751
 30
0.0
 11
3224.899439505988
 21
4407.732674399751
 31
0.0
 12
3222.232772839321
 22
4423.732674399751
 32
0.0
 13
3222.232772839321
 23
4423.732674399751
 33
0.0
  0
SOLID
  5
320D
330
2A17
100
AcDbEntity
  8
AM_5 ( Bemassung)
100
AcDbTrace
 10
3219.566106172655
 20
4101.73267439975
 30
0.0
 11
3224.899439505988
 21
4101.73267439975
 31
0.0
 12
3222.232772839321
 22
4085.732674399749
 32
0.0
 13
3222.232772839321
 23
4085.732674399749
 33
0.0
  0
MTEXT
  5
320E
330
2A17
100
AcDbEntity
  8
AM_5 ( Bemassung)
 62
     2
100
AcDbMText
 10
3209.079976113537
 20
4254.73267439975
 30
0.0
 40
14.0
 41
0.0
 71
     5
 72
     1
  1
338
 11
0.0000000000000001
 21
1.0
 31
0.0
 73
     1
 44
1.0
  0
POINT
  5
320F
330
2A17
100
AcDbEntity
  8
Defpoints
 62
     0
100
AcDbPoint
 10
3090.066789613898
 20
4423.732674399751
 30
0.0
  0
POINT
  5
3210
330
2A17
100
AcDbEntity
  8
Defpoints
 62
     0
100
AcDbPoint
 10
3090.066789613898
 20
4085.732674399749
 30
0.0
  0
POINT
  5
3211
330
2A17
100
AcDbEntity
  8
Defpoints
 62
     0
100
AcDbPoint
 10
3222.232772839321
 20
4085.732674399749
 30
0.0
  0
ENDBLK
  5
2A19
330
2A17
100
AcDbEntity
  8
0
100
AcDbBlockEnd
  0
BLOCK
  5
2C14
330
2C13
100
AcDbEntity
  8
0
100
AcDbBlockBegin
  2
*D21
 70
     1
 10
0.0
 20
0.0
 30
0.0
  3
*D21
  1

  0
LINE
  5
3212
330
2C13
100
AcDbEntity
  8
AM_5 ( Bemassung)
100
AcDbLine
 10
2845.066789613899
 20
4085.732674399749
 30
0.0
 11
2845.066789613899
 21
4022.450324312297
 31
0.0
  0
LINE
  5
3213
330
2C13
100
AcDbEntity
  8
AM_5 ( Bemassung)
100
AcDbLine
 10
2985.066789613899
 20
4085.732674399749
 30
0.0
 11
2985.066789613899
 21
4022.450324312297
 31
0.0
  0
LINE
  5
3214
330
2C13
100
AcDbEntity
  8
AM_5 ( Bemassung)
100
AcDbLine
 10
2861.066789613899
 20
4026.450324312298
 30
0.0
 11
2969.066789613899
 21
4026.450324312298
 31
0.0
  0
SOLID
  5
3215
330
2C13
100
AcDbEntity
  8
AM_5 ( Bemassung)
100
AcDbTrace
 10
2861.066789613899
 20
4029.116990978964
 30
0.0
 11
2861.066789613899
 21
4023.783657645632
 31
0.0
 12
2845.066789613899
 22
4026.450324312298
 32
0.0
 13
2845.066789613899
 23
4026.450324312298
 33
0.0
  0
SOLID
  5
3216
330
2C13
100
AcDbEntity
  8
AM_5 ( Bemassung)
100
AcDbTrace
 10
2969.066789613899
 20
4029.116990978964
 30
0.0
 11
2969.066789613899
 21
4023.783657645632
 31
0.0
 12
2985.066789613899
 22
4026.450324312298
 32
0.0
 13
2985.066789613899
 23
4026.450324312298
 33
0.0
  0
MTEXT
  5
3217
330
2C13
100
AcDbEntity
  8
AM_5 ( Bemassung)
 62
     2
100
AcDbMText
 10
2915.066789613899
 20
4039.989887750224
 30
0.0
 40
14.0
 41
0.0
 71
     5
 72
     1
  1
%%c 140
 73
     1
 44
1.0
  0
POINT
  5
3218
330
2C13
100
AcDbEntity
  8
Defpoints
 62
     0
100
AcDbPoint
 10
2845.066789613899
 20
4085.732674399749
 30
-0.0000000000000002
  0
POINT
  5
3219
330
2C13
100
AcDbEntity
  8
Defpoints
 62
     0
100
AcDbPoint
 10
2985.066789613899
 20
4085.732674399749
 30
-0.0000000000000002
  0
POINT
  5
321A
330
2C13
100
AcDbEntity
  8
Defpoints
 62
     0
100
AcDbPoint
 10
2985.066789613899
 20
4026.450324312298
 30
0.0
  0
ENDBLK
  5
2C15
330
2C13
100
AcDbEntity
  8
0
100
AcDbBlockEnd
  0
ENDSEC
  0
SECTION
  2
ENTITIES
  0
LINE
  5
1F03
330
74
100
AcDbEntity
  8
AM_7 (Mittellinie)
100
AcDbLine
 10
2915.066789613899
 20
4064.465259932162
 30
-0.0000000000000002
 11
2915.066789613899
 21
4089.732674399749
 31
-0.0000000000000002
  0
LINE
  5
1F04
330
74
100
AcDbEntity
  8
AM_7 (Mittellinie)
100
AcDbLine
 10
2770.066789613899
 20
4077.679056930885
 30
-0.0000000000000002
 11
2770.066789613899
 21
4099.270884364538
 31
-0.0000000000000002
  0
LINE
  5
1F05
102
{ACAD_REACTORS
330
2A03
102
}
330
74
100
AcDbEntity
  8
AM_0 ( Kontur 0.5 )
100
AcDbLine
 10
2740.066789613898
 20
4419.73267439975
 30
-0.0000000000000002
 11
3090.066789613898
 21
4419.73267439975
 31
-0.0000000000000002
  0
LINE
  5
1F06
330
74
100
AcDbEntity
  8
AM_0 ( Kontur 0.5 )
100
AcDbLine
 10
2740.066789613898
 20
4423.732674399751
 30
-0.0000000000000002
 11
3090.066789613898
 21
4423.732674399751
 31
-0.0000000000000002
  0
LINE
  5
1F07
102
{ACAD_REACTORS
330
2A03
102
}
330
74
100
AcDbEntity
  8
AM_0 ( Kontur 0.5 )
100
AcDbLine
 10
3090.066789613898
 20
4423.732674399751
 30
-0.0000000000000002
 11
3090.066789613898
 21
4419.73267439975
 31
-0.0000000000000002
  0
LINE
  5
1F08
102
{ACAD_REACTORS
330
2A03
102
}
330
74
100
AcDbEntity
  8
AM_0 ( Kontur 0.5 )
100
AcDbLine
 10
2740.066789613898
 20
4423.732674399751
 30
-0.0000000000000002
 11
2740.066789613898
 21
4419.73267439975
 31
-0.0000000000000002
  0
LINE
  5
1F09
330
74
100
AcDbEntity
  8
AM_0 ( Kontur 0.5 )
100
AcDbLine
 10
2757.420846467856
 20
4089.732674399749
 30
-0.0000000000000002
 11
2757.420846467856
 21
4419.73267439975
 31
-0.0000000000000002
  0
LINE
  5
1F0A
330
74
100
AcDbEntity
  8
AM_0 ( Kontur 0.5 )
100
AcDbLine
 10
2798.088945836048
 20
4089.732674399749
 30
-0.0000000000000002
 11
2798.088945836048
 21
4419.73267439975
 31
-0.0000000000000002
  0
LINE
  5
1F0B
330
74
100
AcDbEntity
  8
AM_0 ( Kontur 0.5 )
100
AcDbLine
 10
2868.528160189018
 20
4089.732674399749
 30
-0.0000000000000002
 11
2868.528160189018
 21
4419.73267439975
 31
-0.0000000000000002
  0
LINE
  5
1F0C
330
74
100
AcDbEntity
  8
AM_3 ( Verdeckt )
100
AcDbLine
 10
2839.066789613898
 20
4089.732674399749
 30
-0.0000000000000002
 11
2839.066789613898
 21
4419.73267439975
 31
-0.0000000000000002
  0
LINE
  5
1F0D
330
74
100
AcDbEntity
  8
AM_3 ( Verdeckt )
100
AcDbLine
 10
2850.052706503577
 20
4089.732674399749
 30
-0.0000000000000002
 11
2850.052706503577
 21
4419.73267439975
 31
-0.0000000000000002
  0
LINE
  5
1F0E
330
74
100
AcDbEntity
  8
AM_3 ( Verdeckt )
100
AcDbLine
 10
2880.066789613899
 20
4089.732674399749
 30
-0.0000000000000002
 11
2880.066789613899
 21
4419.73267439975
 31
-0.0000000000000002
  0
LINE
  5
1F0F
330
74
100
AcDbEntity
  8
AM_3 ( Verdeckt )
100
AcDbLine
 10
2950.066789613899
 20
4089.732674399749
 30
-0.0000000000000002
 11
2950.066789613899
 21
4419.73267439975
 31
-0.0000000000000002
  0
LINE
  5
1F10
330
74
100
AcDbEntity
  8
AM_0 ( Kontur 0.5 )
100
AcDbLine
 10
2961.605419038777
 20
4089.732674399749
 30
-0.0000000000000002
 11
2961.605419038777
 21
4419.73267439975
 31
-0.0000000000000002
  0
LINE
  5
1F11
330
74
100
AcDbEntity
  8
AM_3 ( Verdeckt )
100
AcDbLine
 10
2980.080872724219
 20
4089.732674399749
 30
-0.0000000000000002
 11
2980.080872724219
 21
4419.73267439975
 31
-0.0000000000000002
  0
LINE
  5
1F12
330
74
100
AcDbEntity
  8
AM_3 ( Verdeckt )
100
AcDbLine
 10
2991.066789613899
 20
4089.732674399749
 30
-0.0000000000000002
 11
2991.066789613899
 21
4419.73267439975
 31
-0.0000000000000002
  0
LINE
  5
1F13
330
74
100
AcDbEntity
  8
AM_0 ( Kontur 0.5 )
100
AcDbLine
 10
3032.044633391748
 20
4089.732674399749
 30
-0.0000000000000002
 11
3032.044633391748
 21
4419.73267439975
 31
-0.0000000000000002
  0
LINE
  5
1F14
330
74
100
AcDbEntity
  8
AM_0 ( Kontur 0.5 )
100
AcDbLine
 10
3072.712732759948
 20
4089.732674399749
 30
-0.0000000000000002
 11
3072.712732759948
 21
4419.73267439975
 31
-0.0000000000000002
  0
LINE
  5
1F15
330
74
100
AcDbEntity
  8
AM_0 ( Kontur 0.5 )
100
AcDbLine
 10
2835.696508153418
 20
4423.732674399751
 30
-0.0000000000000002
 11
2824.438178073297
 21
4423.732674399751
 31
-0.0000000000000002
  0
LINE
  5
1F16
330
74
100
AcDbEntity
  8
AM_7 (Mittellinie)
100
AcDbLine
 10
2830.066789613899
 20
4085.732674399749
 30
-0.0000000000000002
 11
2830.066789613899
 21
4444.356346494486
 31
-0.0000000000000002
  0
ARC
  5
1F17
330
74
100
AcDbEntity
  8
AM_0 ( Kontur 0.5 )
100
AcDbCircle
 10
2830.067343113356
 20
4432.482674595159
 30
-0.0000000000000002
 40
6.249999906134358
100
AcDbArc
 50
0.0
 51
180.0
  0
LINE
  5
1F18
330
74
100
AcDbEntity
  8
AM_0 ( Kontur 0.5 )
100
AcDbLine
 10
2823.817343207218
 20
4430.166583819853
 30
-0.0000000000000002
 11
2823.817343207218
 21
4432.482674595159
 31
-0.0000000000000002
  0
LINE
  5
1F19
330
74
100
AcDbEntity
  8
AM_0 ( Kontur 0.5 )
100
AcDbLine
 10
2836.317343019489
 20
4430.166583819853
 30
-0.0000000000000002
 11
2836.317343019489
 21
4432.482674595159
 31
-0.0000000000000002
  0
ARC
  5
1F1A
330
74
100
AcDbEntity
  8
AM_0 ( Kontur 0.5 )
100
AcDbCircle
 10
2835.696508153418
 20
4426.681662669718
 30
-0.0000000000000002
 40
2.94898826996822
100
AcDbArc
 50
230.4848621642251
 51
309.5151378357749
  0
ARC
  5
1F1B
330
74
100
AcDbEntity
  8
AM_0 ( Kontur 0.5 )
100
AcDbCircle
 10
2830.067343113356
 20
4434.517674564595
 30
-0.0000000000000002
 40
10.7849998380256
100
AcDbArc
 50
249.6372502232129
 51
290.3627497767314
  0
ARC
  5
1F1C
330
74
100
AcDbEntity
  8
AM_0 ( Kontur 0.5 )
100
AcDbCircle
 10
2824.438178073297
 20
4426.681662669718
 30
-0.0000000000000002
 40
2.94898826996822
100
AcDbArc
 50
230.4848621642251
 51
309.5151378357749
  0
ARC
  5
1F1D
330
74
100
AcDbEntity
  8
AM_0 ( Kontur 0.5 )
100
AcDbCircle
 10
2835.696508153418
 20
4427.283686685803
 30
-0.0000000000000002
 40
2.94898826996822
100
AcDbArc
 50
50.48486216422507
 51
129.5151378357749
  0
ARC
  5
1F1E
330
74
100
AcDbEntity
  8
AM_0 ( Kontur 0.5 )
100
AcDbCircle
 10
2824.438178073297
 20
4427.283686685803
 30
-0.0000000000000002
 40
2.94898826996822
100
AcDbArc
 50
50.48486216422507
 51
129.5151378357749
  0
ARC
  5
1F1F
330
74
100
AcDbEntity
  8
AM_0 ( Kontur 0.5 )
100
AcDbCircle
 10
2830.067343113356
 20
4419.447674790927
 30
-0.0000000000000002
 40
10.7849998380256
100
AcDbArc
 50
69.63725022326858
 51
110.3627497767871
  0
LINE
  5
1F20
330
74
100
AcDbEntity
  8
AM_0 ( Kontur 0.5 )
100
AcDbLine
 10
2822.561789726618
 20
4424.406646496435
 30
-0.0000000000000002
 11
2822.561789726618
 21
4429.558702859117
 31
-0.0000000000000002
  0
LINE
  5
1F21
330
74
100
AcDbEntity
  8
AM_0 ( Kontur 0.5 )
100
AcDbLine
 10
2826.314566419988
 20
4424.406646496406
 30
-0.0000000000000002
 11
2826.314566419988
 21
4429.558702859121
 31
-0.0000000000000002
  0
LINE
  5
1F22
330
74
100
AcDbEntity
  8
AM_0 ( Kontur 0.5 )
100
AcDbLine
 10
2833.820119806727
 20
4424.406646496435
 30
-0.0000000000000002
 11
2833.820119806727
 21
4429.558702859131
 31
-0.0000000000000002
  0
LINE
  5
1F23
330
74
100
AcDbEntity
  8
AM_0 ( Kontur 0.5 )
100
AcDbLine
 10
2837.572896500098
 20
4424.406646496435
 30
-0.0000000000000002
 11
2837.572896500098
 21
4429.558702859117
 31
-0.0000000000000002
  0
ARC
  5
1F24
330
74
100
AcDbEntity
  8
AM_0 ( Kontur 0.5 )
100
AcDbCircle
 10
-3000.066236114439
 20
4432.482674595159
 30
0.0000000000000002
 40
6.249999906134358
210
0.0
220
0.0
230
-1.0
100
AcDbArc
 50
0.0
 51
180.0
  0
LINE
  5
1F25
330
74
100
AcDbEntity
  8
AM_7 (Mittellinie)
100
AcDbLine
 10
3000.066789613899
 20
4085.732674399749
 30
-0.0000000000000002
 11
3000.066789613899
 21
4444.356346494486
 31
-0.0000000000000002
  0
LINE
  5
1F26
330
74
100
AcDbEntity
  8
AM_0 ( Kontur 0.5 )
100
AcDbLine
 10
3006.316236020577
 20
4430.166583819853
 30
-0.0000000000000002
 11
3006.316236020577
 21
4432.482674595159
 31
-0.0000000000000002
  0
LINE
  5
1F27
330
74
100
AcDbEntity
  8
AM_0 ( Kontur 0.5 )
100
AcDbLine
 10
2993.816236208308
 20
4430.166583819853
 30
-0.0000000000000002
 11
2993.816236208308
 21
4432.482674595159
 31
-0.0000000000000002
  0
ARC
  5
1F28
330
74
100
AcDbEntity
  8
AM_0 ( Kontur 0.5 )
100
AcDbCircle
 10
-2994.437071074388
 20
4426.681662669718
 30
0.0000000000000002
 40
2.94898826996822
210
0.0
220
0.0
230
-1.0
100
AcDbArc
 50
230.4848621642251
 51
309.5151378357749
  0
ARC
  5
1F29
330
74
100
AcDbEntity
  8
AM_0 ( Kontur 0.5 )
100
AcDbCircle
 10
-3000.066236114439
 20
4434.517674564595
 30
0.0000000000000002
 40
10.7849998380256
210
0.0
220
0.0
230
-1.0
100
AcDbArc
 50
249.6372502232129
 51
290.3627497767314
  0
ARC
  5
1F2A
330
74
100
AcDbEntity
  8
AM_0 ( Kontur 0.5 )
100
AcDbCircle
 10
-3005.695401154497
 20
4426.681662669718
 30
0.0000000000000002
 40
2.94898826996822
210
0.0
220
0.0
230
-1.0
100
AcDbArc
 50
230.4848621642251
 51
309.5151378357749
  0
ARC
  5
1F2B
330
74
100
AcDbEntity
  8
AM_0 ( Kontur 0.5 )
100
AcDbCircle
 10
-2994.437071074388
 20
4427.283686685803
 30
0.0000000000000002
 40
2.94898826996822
210
0.0
220
0.0
230
-1.0
100
AcDbArc
 50
50.48486216422507
 51
129.5151378357749
  0
ARC
  5
1F2C
330
74
100
AcDbEntity
  8
AM_0 ( Kontur 0.5 )
100
AcDbCircle
 10
-3005.695401154497
 20
4427.283686685803
 30
0.0000000000000002
 40
2.94898826996822
210
0.0
220
0.0
230
-1.0
100
AcDbArc
 50
50.48486216422507
 51
129.5151378357749
  0
ARC
  5
1F2D
330
74
100
AcDbEntity
  8
AM_0 ( Kontur 0.5 )
100
AcDbCircle
 10
-3000.066236114439
 20
4419.447674790927
 30
0.0000000000000002
 40
10.7849998380256
210
0.0
220
0.0
230
-1.0
100
AcDbArc
 50
69.63725022326858
 51
110.3627497767871
  0
LINE
  5
1F2E
330
74
100
AcDbEntity
  8
AM_0 ( Kontur 0.5 )
100
AcDbLine
 10
3007.571789501188
 20
4424.406646496435
 30
-0.0000000000000002
 11
3007.571789501188
 21
4429.558702859117
 31
-0.0000000000000002
  0
LINE
  5
1F2F
330
74
100
AcDbEntity
  8
AM_0 ( Kontur 0.5 )
100
AcDbLine
 10
3003.819012807817
 20
4424.406646496406
 30
-0.0000000000000002
 11
3003.819012807817
 21
4429.558702859121
 31
-0.0000000000000002
  0
LINE
  5
1F30
330
74
100
AcDbEntity
  8
AM_0 ( Kontur 0.5 )
100
AcDbLine
 10
2996.313459421068
 20
4424.406646496435
 30
-0.0000000000000002
 11
2996.313459421068
 21
4429.558702859131
 31
-0.0000000000000002
  0
LINE
  5
1F31
330
74
100
AcDbEntity
  8
AM_0 ( Kontur 0.5 )
100
AcDbLine
 10
2992.560682727697
 20
4424.406646496435
 30
-0.0000000000000002
 11
2992.560682727697
 21
4429.558702859117
 31
-0.0000000000000002
  0
LINE
  5
1F32
330
74
100
AcDbEntity
  8
AM_0 ( Kontur 0.5 )
100
AcDbLine
 10
2994.437071074388
 20
4423.732674399751
 30
-0.0000000000000002
 11
3005.695401154497
 21
4423.732674399751
 31
-0.0000000000000002
  0
LINE
  5
1F33
330
74
100
AcDbEntity
  8
AM_3 ( Verdeckt )
100
AcDbLine
 10
2834.316789613899
 20
4419.73267439975
 30
-0.0000000000000002
 11
2834.316789613899
 21
4423.732674399751
 31
-0.0000000000000002
  0
LINE
  5
1F34
330
74
100
AcDbEntity
  8
AM_3 ( Verdeckt )
100
AcDbLine
 10
2825.816789613899
 20
4419.73267439975
 30
-0.0000000000000002
 11
2825.816789613899
 21
4423.732674399751
 31
-0.0000000000000002
  0
LINE
  5
1F35
330
74
100
AcDbEntity
  8
AM_3 ( Verdeckt )
100
AcDbLine
 10
2995.816789613899
 20
4419.73267439975
 30
-0.0000000000000002
 11
2995.816789613899
 21
4423.732674399751
 31
-0.0000000000000002
  0
LINE
  5
1F36
330
74
100
AcDbEntity
  8
AM_3 ( Verdeckt )
100
AcDbLine
 10
3004.316789613899
 20
4419.73267439975
 30
-0.0000000000000002
 11
3004.316789613899
 21
4423.732674399751
 31
-0.0000000000000002
  0
LINE
  5
1F37
330
74
100
AcDbEntity
  8
AM_3 ( Verdeckt )
100
AcDbLine
 10
2834.066789613899
 20
4085.732674399749
 30
-0.0000000000000002
 11
2834.066789613899
 21
4429.73267439975
 31
-0.0000000000000002
  0
LINE
  5
1F38
330
74
100
AcDbEntity
  8
AM_3 ( Verdeckt )
100
AcDbLine
 10
2826.066789613899
 20
4085.732674399749
 30
-0.0000000000000002
 11
2826.066789613899
 21
4429.73267439975
 31
-0.0000000000000002
  0
LINE
  5
1F39
330
74
100
AcDbEntity
  8
AM_2 ( Kontur 0.25)
100
AcDbLine
 10
2833.066789613898
 20
4085.732674399749
 30
-0.0000000000000002
 11
2833.066789613898
 21
4429.73267439975
 31
-0.0000000000000002
  0
LINE
  5
1F3A
330
74
100
AcDbEntity
  8
AM_2 ( Kontur 0.25)
100
AcDbLine
 10
2827.066789613899
 20
4085.732674399749
 30
-0.0000000000000002
 11
2827.066789613899
 21
4429.73267439975
 31
-0.0000000000000002
  0
LINE
  5
1F3B
330
74
100
AcDbEntity
  8
AM_3 ( Verdeckt )
100
AcDbLine
 10
2826.066789613899
 20
4429.73267439975
 30
-0.0000000000000002
 11
2834.066789613899
 21
4429.73267439975
 31
-0.0000000000000002
  0
LINE
  5
1F3C
330
74
100
AcDbEntity
  8
AM_3 ( Verdeckt )
100
AcDbLine
 10
3004.066789613899
 20
4429.73267439975
 30
-0.0000000000000002
 11
2996.066789613898
 21
4429.73267439975
 31
-0.0000000000000002
  0
LINE
  5
1F3D
330
74
100
AcDbEntity
  8
AM_3 ( Verdeckt )
100
AcDbLine
 10
2996.066789613898
 20
4085.732674399749
 30
-0.0000000000000002
 11
2996.066789613898
 21
4429.73267439975
 31
-0.0000000000000002
  0
LINE
  5
1F3E
330
74
100
AcDbEntity
  8
AM_2 ( Kontur 0.25)
100
AcDbLine
 10
2997.066789613898
 20
4085.732674399749
 30
-0.0000000000000002
 11
2997.066789613898
 21
4429.73267439975
 31
-0.0000000000000002
  0
LINE
  5
1F3F
330
74
100
AcDbEntity
  8
AM_2 ( Kontur 0.25)
100
AcDbLine
 10
3003.066789613899
 20
4085.732674399749
 30
-0.0000000000000002
 11
3003.066789613899
 21
4429.73267439975
 31
-0.0000000000000002
  0
LINE
  5
1F40
330
74
100
AcDbEntity
  8
AM_3 ( Verdeckt )
100
AcDbLine
 10
3004.066789613899
 20
4085.732674399749
 30
-0.0000000000000002
 11
3004.066789613899
 21
4429.73267439975
 31
-0.0000000000000002
  0
LINE
  5
1F41
102
{ACAD_REACTORS
330
2C20
102
}
330
74
100
AcDbEntity
  8
AM_3 ( Verdeckt )
100
AcDbLine
 10
2845.066789613899
 20
4085.732674399749
 30
-0.0000000000000002
 11
2845.066789613899
 21
4089.732674399749
 31
-0.0000000000000002
  0
LINE
  5
1F42
102
{ACAD_REACTORS
330
2C20
102
}
330
74
100
AcDbEntity
  8
AM_3 ( Verdeckt )
100
AcDbLine
 10
2985.066789613899
 20
4085.732674399749
 30
-0.0000000000000002
 11
2985.066789613899
 21
4089.732674399749
 31
-0.0000000000000002
  0
LINE
  5
1F43
330
74
100
AcDbEntity
  8
AM_0 ( Kontur 0.5 )
100
AcDbLine
 10
2915.066789613899
 20
4089.732674399749
 30
-0.0000000000000002
 11
2915.066789613899
 21
4419.73267439975
 31
-0.0000000000000002
  0
LINE
  5
1F44
330
74
100
AcDbEntity
  8
AM_7 (Mittellinie)
100
AcDbLine
 10
3060.066789613899
 20
4077.679056930885
 30
-0.0000000000000002
 11
3060.066789613899
 21
4099.270884364538
 31
-0.0000000000000002
  0
LINE
  5
1F45
330
74
100
AcDbEntity
  8
AM_7 (Mittellinie)
100
AcDbLine
 10
2915.066789613899
 20
4419.73267439975
 30
-0.0000000000000002
 11
2915.066789613899
 21
4443.041993441202
 31
-0.0000000000000002
  0
LINE
  5
1F46
330
74
100
AcDbEntity
  8
AM_0 ( Kontur 0.5 )
100
AcDbLine
 10
2740.066789613898
 20
4085.732674399749
 30
-0.0000000000000002
 11
2740.066789613898
 21
4089.732674399749
 31
-0.0000000000000002
  0
LINE
  5
1F47
330
74
100
AcDbEntity
  8
AM_0 ( Kontur 0.5 )
100
AcDbLine
 10
2740.066789613898
 20
4089.732674399749
 30
-0.0000000000000002
 11
3090.066789613898
 21
4089.732674399749
 31
-0.0000000000000002
  0
LINE
  5
1F48
102
{ACAD_REACTORS
330
2A24
102
}
330
74
100
AcDbEntity
  8
AM_0 ( Kontur 0.5 )
100
AcDbLine
 10
3090.066789613898
 20
4085.732674399749
 30
-0.0000000000000002
 11
3090.066789613898
 21
4089.732674399749
 31
-0.0000000000000002
  0
LINE
  5
1F49
102
{ACAD_REACTORS
330
2A24
330
2C20
102
}
330
74
100
AcDbEntity
  8
AM_0 ( Kontur 0.5 )
100
AcDbLine
 10
2740.066789613898
 20
4085.732674399749
 30
-0.0000000000000002
 11
3090.066789613898
 21
4085.732674399749
 31
-0.0000000000000002
  0
LINE
  5
1F4A
330
74
100
AcDbEntity
  8
AM_3 ( Verdeckt )
100
AcDbLine
 10
2764.816789613899
 20
4085.732674399749
 30
-0.0000000000000002
 11
2764.816789613899
 21
4089.732674399749
 31
-0.0000000000000002
  0
LINE
  5
1F4B
330
74
100
AcDbEntity
  8
AM_3 ( Verdeckt )
100
AcDbLine
 10
2775.316789613899
 20
4085.732674399749
 30
-0.0000000000000002
 11
2775.316789613899
 21
4089.732674399749
 31
-0.0000000000000002
  0
LINE
  5
1F4C
330
74
100
AcDbEntity
  8
AM_3 ( Verdeckt )
100
AcDbLine
 10
2920.316789613899
 20
4085.732674399749
 30
-0.0000000000000002
 11
2920.316789613899
 21
4089.732674399749
 31
-0.0000000000000002
  0
LINE
  5
1F4D
330
74
100
AcDbEntity
  8
AM_3 ( Verdeckt )
100
AcDbLine
 10
2909.816789613899
 20
4085.732674399749
 30
-0.0000000000000002
 11
2909.816789613899
 21
4089.732674399749
 31
-0.0000000000000002
  0
LINE
  5
1F4E
330
74
100
AcDbEntity
  8
AM_3 ( Verdeckt )
100
AcDbLine
 10
3065.316789613899
 20
4085.732674399749
 30
-0.0000000000000002
 11
3065.316789613899
 21
4089.732674399749
 31
-0.0000000000000002
  0
LINE
  5
1F4F
330
74
100
AcDbEntity
  8
AM_3 ( Verdeckt )
100
AcDbLine
 10
3054.816789613898
 20
4085.732674399749
 30
-0.0000000000000002
 11
3054.816789613898
 21
4089.732674399749
 31
-0.0000000000000002
  0
ARC
  5
1F50
330
74
100
AcDbEntity
  8
AM_3 ( Verdeckt )
100
AcDbCircle
 10
2955.7348889821
 20
3662.165421404181
 30
-0.0000000000000002
 40
4.870530056681098
100
AcDbArc
 50
202.5000000000166
 51
7.500000000008705
  0
LINE
  5
1F51
330
74
100
AcDbEntity
  8
AM_3 ( Verdeckt )
100
AcDbLine
 10
2950.363858933668
 20
3740.277025098921
 30
-0.0000000000000002
 11
2951.35530379505
 21
3740.407551291141
 31
-0.0000000000000002
  0
LINE
  5
1F52
330
74
100
AcDbEntity
  8
AM_3 ( Verdeckt )
100
AcDbLine
 10
2950.363858933668
 20
3740.277025098921
 30
-0.0000000000000002
 11
2960.563750978958
 21
3662.801153146571
 31
-0.0000000000000002
  0
LINE
  5
1F53
330
74
100
AcDbEntity
  8
AM_3 ( Verdeckt )
100
AcDbLine
 10
2951.35530379505
 20
3740.407551291141
 30
-0.0000000000000002
 11
2961.555195840338
 21
3662.931679338791
 31
-0.0000000000000002
  0
LINE
  5
1F54
330
74
100
AcDbEntity
  8
AM_3 ( Verdeckt )
100
AcDbLine
 10
2949.248980173679
 20
3735.211994456611
 30
-0.0000000000000002
 11
2948.27235885725
 21
3735.426961440841
 31
-0.0000000000000002
  0
LINE
  5
1F55
330
74
100
AcDbEntity
  8
AM_3 ( Verdeckt )
100
AcDbLine
 10
2949.248980173679
 20
3735.211994456611
 30
-0.0000000000000002
 11
2951.183683031788
 21
3744.0015863044
 31
-0.0000000000000002
  0
LINE
  5
1F56
330
74
100
AcDbEntity
  8
AM_3 ( Verdeckt )
100
AcDbLine
 10
2948.27235885725
 20
3735.426961440841
 30
-0.0000000000000002
 11
2950.207061715368
 21
3744.216553288642
 31
-0.0000000000000002
  0
ARC
  5
1F57
330
74
100
AcDbEntity
  8
AM_3 ( Verdeckt )
100
AcDbCircle
 10
2956.066789613898
 20
3742.926751383222
 30
-0.0000000000000002
 40
5.0
100
AcDbArc
 50
52.49999999998284
 51
167.5864096495282
  0
ARC
  5
1F58
330
74
100
AcDbEntity
  8
AM_3 ( Verdeckt )
100
AcDbCircle
 10
2956.066789613898
 20
3742.926751383222
 30
-0.0000000000000002
 40
6.0
100
AcDbArc
 50
52.49999999998284
 51
167.5864096495282
  0
LINE
  5
1F59
330
74
100
AcDbEntity
  8
AM_3 ( Verdeckt )
100
AcDbLine
 10
2959.110596758948
 20
3746.893518084681
 30
-0.0000000000000002
 11
3022.60035106873
 21
3698.176116142631
 31
-0.0000000000000002
  0
LINE
  5
1F5A
330
74
100
AcDbEntity
  8
AM_3 ( Verdeckt )
100
AcDbLine
 10
2959.719358187949
 20
3747.686871424972
 30
-0.0000000000000002
 11
3023.209112497738
 21
3698.96946948292
 31
-0.0000000000000002
  0
ARC
  5
1F5B
330
74
100
AcDbEntity
  8
AM_3 ( Verdeckt )
100
AcDbCircle
 10
3026.174103335069
 20
3702.833520772381
 30
-0.0000000000000002
 40
5.870530056681089
100
AcDbArc
 50
232.4999999999827
 51
37.50000000000047
  0
ARC
  5
1F5C
330
74
100
AcDbEntity
  8
AM_3 ( Verdeckt )
100
AcDbCircle
 10
3026.174103335069
 20
3702.833520772381
 30
-0.0000000000000002
 40
4.870530056681098
100
AcDbArc
 50
232.4999999999827
 51
37.50000000000047
  0
LINE
  5
1F5D
330
74
100
AcDbEntity
  8
AM_3 ( Verdeckt )
100
AcDbLine
 10
2982.466853021279
 20
3767.794638878152
 30
-0.0000000000000002
 11
2983.260206361569
 21
3768.403400307161
 31
-0.0000000000000002
  0
LINE
  5
1F5E
330
74
100
AcDbEntity
  8
AM_3 ( Verdeckt )
100
AcDbLine
 10
2982.466853021279
 20
3767.794638878152
 30
-0.0000000000000002
 11
3030.038154624529
 21
3705.798511609711
 31
-0.0000000000000002
  0
LINE
  5
1F5F
330
74
100
AcDbEntity
  8
AM_3 ( Verdeckt )
100
AcDbLine
 10
2983.260206361569
 20
3768.403400307161
 30
-0.0000000000000002
 11
3030.831507964819
 21
3706.407273038721
 31
-0.0000000000000002
  0
LINE
  5
1F60
330
74
100
AcDbEntity
  8
AM_3 ( Verdeckt )
100
AcDbLine
 10
2984.03385501413
 20
3762.850754290961
 30
-0.0000000000000002
 11
2983.080592652117
 21
3762.548610502082
 31
-0.0000000000000002
  0
LINE
  5
1F61
330
74
100
AcDbEntity
  8
AM_3 ( Verdeckt )
100
AcDbLine
 10
2984.03385501413
 20
3762.850754290961
 30
-0.0000000000000002
 11
2981.314560914149
 21
3771.430115549111
 31
-0.0000000000000002
  0
LINE
  5
1F62
330
74
100
AcDbEntity
  8
AM_3 ( Verdeckt )
100
AcDbLine
 10
2983.080592652117
 20
3762.548610502082
 30
-0.0000000000000002
 11
2980.361298552129
 21
3771.127971760221
 31
-0.0000000000000002
  0
ARC
  5
1F63
330
74
100
AcDbEntity
  8
AM_3 ( Verdeckt )
100
AcDbCircle
 10
2986.08087272423
 20
3772.940834493552
 30
-0.0000000000000002
 40
5.0
100
AcDbArc
 50
82.50000000001429
 51
197.586409649516
  0
ARC
  5
1F64
330
74
100
AcDbEntity
  8
AM_3 ( Verdeckt )
100
AcDbCircle
 10
2986.08087272423
 20
3772.940834493552
 30
-0.0000000000000002
 40
6.0
100
AcDbArc
 50
82.50000000001429
 51
197.586409649516
  0
LINE
  5
1F65
330
74
100
AcDbEntity
  8
AM_3 ( Verdeckt )
100
AcDbLine
 10
2986.73350368533
 20
3777.898058800421
 30
-0.0000000000000002
 11
3066.075944768649
 21
3767.452428267111
 31
-0.0000000000000002
  0
LINE
  5
1F66
330
74
100
AcDbEntity
  8
AM_3 ( Verdeckt )
100
AcDbLine
 10
2986.86402987755
 20
3778.889503661791
 30
-0.0000000000000002
 11
3066.206470960868
 21
3768.443873128492
 31
-0.0000000000000002
  0
ARC
  5
1F67
330
74
100
AcDbEntity
  8
AM_3 ( Verdeckt )
100
AcDbCircle
 10
3066.842202703269
 20
3773.272735125352
 30
-0.0000000000000002
 40
5.870530056681089
100
AcDbArc
 50
262.5000000000143
 51
67.49999999998694
  0
ARC
  5
1F68
330
74
100
AcDbEntity
  8
AM_3 ( Verdeckt )
100
AcDbCircle
 10
3066.842202703269
 20
3773.272735125352
 30
-0.0000000000000002
 40
4.870530056681098
100
AcDbArc
 50
262.5000000000143
 51
67.49999999998694
  0
LINE
  5
1F69
330
74
100
AcDbEntity
  8
AM_3 ( Verdeckt )
100
AcDbLine
 10
2996.510054549068
 20
3807.677088506301
 30
-0.0000000000000002
 11
2996.892737981429
 21
3808.600968038811
 31
-0.0000000000000002
  0
LINE
  5
1F6A
330
74
100
AcDbEntity
  8
AM_3 ( Verdeckt )
100
AcDbLine
 10
2996.510054549068
 20
3807.677088506301
 30
-0.0000000000000002
 11
3068.706073862788
 21
3777.772518157202
 31
-0.0000000000000002
  0
LINE
  5
1F6B
330
74
100
AcDbEntity
  8
AM_3 ( Verdeckt )
100
AcDbLine
 10
2996.892737981429
 20
3808.600968038811
 30
-0.0000000000000002
 11
3069.088757295158
 21
3778.69639768971
 31
-0.0000000000000002
  0
LINE
  5
1F6C
330
74
100
AcDbEntity
  8
AM_3 ( Verdeckt )
100
AcDbLine
 10
3000.339060376259
 20
3804.179059856841
 30
-0.0000000000000002
 11
2999.664582848718
 21
3803.440764479062
 31
-0.0000000000000002
  0
LINE
  5
1F6D
330
74
100
AcDbEntity
  8
AM_3 ( Verdeckt )
100
AcDbLine
 10
3000.339060376259
 20
3804.179059856841
 30
-0.0000000000000002
 11
2993.694401976229
 21
3810.249357604642
 31
-0.0000000000000002
  0
LINE
  5
1F6E
330
74
100
AcDbEntity
  8
AM_3 ( Verdeckt )
100
AcDbLine
 10
2999.664582848718
 20
3803.440764479062
 30
-0.0000000000000002
 11
2993.019924448701
 21
3809.511062226861
 31
-0.0000000000000002
  0
ARC
  5
1F6F
330
74
100
AcDbEntity
  8
AM_3 ( Verdeckt )
100
AcDbCircle
 10
2997.066789613899
 20
3813.940834493551
 30
-0.0000000000000002
 40
5.0
100
AcDbArc
 50
112.500000000013
 51
227.5864096495306
  0
ARC
  5
1F70
330
74
100
AcDbEntity
  8
AM_3 ( Verdeckt )
100
AcDbCircle
 10
2997.066789613899
 20
3813.940834493551
 30
-0.0000000000000002
 40
6.0
100
AcDbArc
 50
112.500000000013
 51
227.5864096495306
  0
LINE
  5
1F71
330
74
100
AcDbEntity
  8
AM_3 ( Verdeckt )
100
AcDbLine
 10
2995.153372452078
 20
3818.560232156102
 30
-0.0000000000000002
 11
3069.088757295158
 21
3849.185271297381
 31
-0.0000000000000002
  0
LINE
  5
1F72
330
74
100
AcDbEntity
  8
AM_3 ( Verdeckt )
100
AcDbLine
 10
2994.77068901971
 20
3819.484111688611
 30
-0.0000000000000002
 11
3068.706073862788
 21
3850.10915082989
 31
-0.0000000000000002
  0
ARC
  5
1F73
330
74
100
AcDbEntity
  8
AM_3 ( Verdeckt )
100
AcDbCircle
 10
3066.842202703269
 20
3854.608933861742
 30
-0.0000000000000002
 40
5.870530056681089
100
AcDbArc
 50
292.5000000000128
 51
97.49999999998571
  0
ARC
  5
1F74
330
74
100
AcDbEntity
  8
AM_3 ( Verdeckt )
100
AcDbCircle
 10
3066.842202703269
 20
3854.608933861742
 30
-0.0000000000000002
 40
4.870530056681098
100
AcDbArc
 50
292.5000000000128
 51
97.49999999998571
  0
LINE
  5
1F75
330
74
100
AcDbEntity
  8
AM_3 ( Verdeckt )
100
AcDbLine
 10
2988.730599008528
 20
3849.237903813321
 30
-0.0000000000000002
 11
2988.600072816309
 21
3850.229348674691
 31
-0.0000000000000002
  0
LINE
  5
1F76
330
74
100
AcDbEntity
  8
AM_3 ( Verdeckt )
100
AcDbLine
 10
2988.730599008528
 20
3849.237903813321
 30
-0.0000000000000002
 11
3066.206470960868
 21
3859.437795858602
 31
-0.0000000000000002
  0
LINE
  5
1F77
330
74
100
AcDbEntity
  8
AM_3 ( Verdeckt )
100
AcDbLine
 10
2988.600072816309
 20
3850.229348674691
 30
-0.0000000000000002
 11
3066.075944768649
 21
3860.429240719982
 31
-0.0000000000000002
  0
LINE
  5
1F78
330
74
100
AcDbEntity
  8
AM_3 ( Verdeckt )
100
AcDbLine
 10
2993.795629650839
 20
3848.123025053321
 30
-0.0000000000000002
 11
2993.580662666598
 21
3847.1464037369
 31
-0.0000000000000002
  0
LINE
  5
1F79
330
74
100
AcDbEntity
  8
AM_3 ( Verdeckt )
100
AcDbLine
 10
2993.795629650839
 20
3848.123025053321
 30
-0.0000000000000002
 11
2985.006037803049
 21
3850.057727911441
 31
-0.0000000000000002
  0
LINE
  5
1F7A
330
74
100
AcDbEntity
  8
AM_3 ( Verdeckt )
100
AcDbLine
 10
2993.580662666598
 20
3847.1464037369
 30
-0.0000000000000002
 11
2984.791070818809
 21
3849.081106595021
 31
-0.0000000000000002
  0
ARC
  5
1F7B
330
74
100
AcDbEntity
  8
AM_3 ( Verdeckt )
100
AcDbCircle
 10
2986.08087272423
 20
3854.940834493552
 30
-0.0000000000000002
 40
5.0
100
AcDbArc
 50
142.4999999999995
 51
257.5864096495319
  0
ARC
  5
1F7C
330
74
100
AcDbEntity
  8
AM_3 ( Verdeckt )
100
AcDbCircle
 10
2986.08087272423
 20
3854.940834493552
 30
-0.0000000000000002
 40
6.0
100
AcDbArc
 50
142.4999999999995
 51
257.5864096495319
  0
LINE
  5
1F7D
330
74
100
AcDbEntity
  8
AM_3 ( Verdeckt )
100
AcDbLine
 10
2982.114106022768
 20
3857.984641638592
 30
-0.0000000000000002
 11
3030.831507964819
 21
3921.474395948371
 31
-0.0000000000000002
  0
LINE
  5
1F7E
330
74
100
AcDbEntity
  8
AM_3 ( Verdeckt )
100
AcDbLine
 10
2981.320752682479
 20
3858.593403067601
 30
-0.0000000000000002
 11
3030.038154624529
 21
3922.083157377381
 31
-0.0000000000000002
  0
ARC
  5
1F7F
330
74
100
AcDbEntity
  8
AM_3 ( Verdeckt )
100
AcDbCircle
 10
3026.174103335069
 20
3925.048148214722
 30
-0.0000000000000002
 40
5.870530056681089
100
AcDbArc
 50
322.4999999999788
 51
127.5000000000171
  0
ARC
  5
1F80
330
74
100
AcDbEntity
  8
AM_3 ( Verdeckt )
100
AcDbCircle
 10
3026.174103335069
 20
3925.048148214722
 30
-0.0000000000000002
 40
4.870530056681098
100
AcDbArc
 50
322.4999999999788
 51
127.5000000000171
  0
LINE
  5
1F81
330
74
100
AcDbEntity
  8
AM_3 ( Verdeckt )
100
AcDbLine
 10
2961.212985229298
 20
3881.340897900921
 30
-0.0000000000000002
 11
2960.604223800289
 21
3882.134251241211
 31
-0.0000000000000002
  0
LINE
  5
1F82
330
74
100
AcDbEntity
  8
AM_3 ( Verdeckt )
100
AcDbLine
 10
2961.212985229298
 20
3881.340897900921
 30
-0.0000000000000002
 11
3023.209112497738
 21
3928.91219950417
 31
-0.0000000000000002
  0
LINE
  5
1F83
330
74
100
AcDbEntity
  8
AM_3 ( Verdeckt )
100
AcDbLine
 10
2960.604223800289
 20
3882.134251241211
 30
-0.0000000000000002
 11
3022.60035106873
 21
3929.705552844461
 31
-0.0000000000000002
  0
LINE
  5
1F84
330
74
100
AcDbEntity
  8
AM_3 ( Verdeckt )
100
AcDbLine
 10
2966.156869816487
 20
3882.90789989378
 30
-0.0000000000000002
 11
2966.459013605369
 21
3881.954637531761
 31
-0.0000000000000002
  0
LINE
  5
1F85
330
74
100
AcDbEntity
  8
AM_3 ( Verdeckt )
100
AcDbLine
 10
2966.156869816487
 20
3882.90789989378
 30
-0.0000000000000002
 11
2957.57750855834
 21
3880.188605793792
 31
-0.0000000000000002
  0
LINE
  5
1F86
330
74
100
AcDbEntity
  8
AM_3 ( Verdeckt )
100
AcDbLine
 10
2966.459013605369
 20
3881.954637531761
 30
-0.0000000000000002
 11
2957.879652347228
 21
3879.235343431771
 31
-0.0000000000000002
  0
ARC
  5
1F87
330
74
100
AcDbEntity
  8
AM_3 ( Verdeckt )
100
AcDbCircle
 10
2956.066789613898
 20
3884.954917603872
 30
-0.0000000000000002
 40
5.0
100
AcDbArc
 50
172.4999999999913
 51
287.5864096495126
  0
ARC
  5
1F88
330
74
100
AcDbEntity
  8
AM_3 ( Verdeckt )
100
AcDbCircle
 10
2956.066789613898
 20
3884.954917603872
 30
-0.0000000000000002
 40
6.0
100
AcDbArc
 50
172.4999999999913
 51
287.5864096495126
  0
LINE
  5
1F89
330
74
100
AcDbEntity
  8
AM_3 ( Verdeckt )
100
AcDbLine
 10
2951.109565307028
 20
3885.607548564972
 30
-0.0000000000000002
 11
2961.555195840338
 21
3964.949989648302
 31
-0.0000000000000002
  0
LINE
  5
1F8A
330
74
100
AcDbEntity
  8
AM_3 ( Verdeckt )
100
AcDbLine
 10
2950.118120445659
 20
3885.738074757191
 30
-0.0000000000000002
 11
2960.563750978958
 21
3965.080515840521
 31
-0.0000000000000002
  0
ARC
  5
1F8B
330
74
100
AcDbEntity
  8
AM_3 ( Verdeckt )
100
AcDbCircle
 10
2955.7348889821
 20
3965.716247582912
 30
-0.0000000000000002
 40
5.870530056681089
100
AcDbArc
 50
352.4999999999913
 51
157.4999999999834
  0
ARC
  5
1F8C
330
74
100
AcDbEntity
  8
AM_3 ( Verdeckt )
100
AcDbCircle
 10
2955.7348889821
 20
3965.716247582912
 30
-0.0000000000000002
 40
4.870530056681098
100
AcDbArc
 50
352.4999999999913
 51
157.4999999999834
  0
LINE
  5
1F8D
330
74
100
AcDbEntity
  8
AM_3 ( Verdeckt )
100
AcDbLine
 10
2921.33053560115
 20
3895.38409942871
 30
-0.0000000000000002
 11
2920.406656068639
 21
3895.766782861082
 31
-0.0000000000000002
  0
LINE
  5
1F8E
330
74
100
AcDbEntity
  8
AM_3 ( Verdeckt )
100
AcDbLine
 10
2921.33053560115
 20
3895.38409942871
 30
-0.0000000000000002
 11
2951.235105950249
 21
3967.580118742442
 31
-0.0000000000000002
  0
LINE
  5
1F8F
330
74
100
AcDbEntity
  8
AM_3 ( Verdeckt )
100
AcDbLine
 10
2920.406656068639
 20
3895.766782861082
 30
-0.0000000000000002
 11
2950.311226417738
 21
3967.962802174802
 31
-0.0000000000000002
  0
LINE
  5
1F90
330
74
100
AcDbEntity
  8
AM_3 ( Verdeckt )
100
AcDbLine
 10
2924.828564250609
 20
3899.213105255901
 30
-0.0000000000000002
 11
2925.566859628389
 21
3898.538627728371
 31
-0.0000000000000002
  0
LINE
  5
1F91
330
74
100
AcDbEntity
  8
AM_3 ( Verdeckt )
100
AcDbLine
 10
2924.828564250609
 20
3899.213105255901
 30
-0.0000000000000002
 11
2918.758266502799
 21
3892.568446855881
 31
-0.0000000000000002
  0
LINE
  5
1F92
330
74
100
AcDbEntity
  8
AM_3 ( Verdeckt )
100
AcDbLine
 10
2925.566859628389
 20
3898.538627728371
 30
-0.0000000000000002
 11
2919.496561880587
 21
3891.893969328341
 31
-0.0000000000000002
  0
ARC
  5
1F93
330
74
100
AcDbEntity
  8
AM_3 ( Verdeckt )
100
AcDbCircle
 10
2915.066789613899
 20
3895.940834493552
 30
-0.0000000000000002
 40
5.0
100
AcDbArc
 50
202.5000000000166
 51
317.5864096495268
  0
ARC
  5
1F94
330
74
100
AcDbEntity
  8
AM_3 ( Verdeckt )
100
AcDbCircle
 10
2915.066789613899
 20
3895.940834493552
 30
-0.0000000000000002
 40
6.0
100
AcDbArc
 50
202.5000000000166
 51
317.5864096495268
  0
LINE
  5
1F95
330
74
100
AcDbEntity
  8
AM_3 ( Verdeckt )
100
AcDbLine
 10
2910.44739195135
 20
3894.027417331722
 30
-0.0000000000000002
 11
2879.822352810068
 21
3967.962802174802
 31
-0.0000000000000002
  0
LINE
  5
1F96
330
74
100
AcDbEntity
  8
AM_3 ( Verdeckt )
100
AcDbLine
 10
2909.523512418831
 20
3893.644733899362
 30
-0.0000000000000002
 11
2878.898473277559
 21
3967.580118742442
 31
-0.0000000000000002
  0
ARC
  5
1F97
330
74
100
AcDbEntity
  8
AM_3 ( Verdeckt )
100
AcDbCircle
 10
2874.39869024571
 20
3965.716247582912
 30
-0.0000000000000002
 40
5.870530056681089
100
AcDbArc
 50
22.50000000001662
 51
187.5000000000087
  0
ARC
  5
1F98
330
74
100
AcDbEntity
  8
AM_3 ( Verdeckt )
100
AcDbCircle
 10
2874.39869024571
 20
3965.716247582912
 30
-0.0000000000000002
 40
4.870530056681098
100
AcDbArc
 50
22.50000000001662
 51
187.5000000000087
  0
LINE
  5
1F99
330
74
100
AcDbEntity
  8
AM_3 ( Verdeckt )
100
AcDbLine
 10
2879.769720294129
 20
3887.604643888171
 30
-0.0000000000000002
 11
2878.778275432758
 21
3887.474117695951
 31
-0.0000000000000002
  0
LINE
  5
1F9A
330
74
100
AcDbEntity
  8
AM_3 ( Verdeckt )
100
AcDbLine
 10
2879.769720294129
 20
3887.604643888171
 30
-0.0000000000000002
 11
2869.569828248839
 21
3965.080515840521
 31
-0.0000000000000002
  0
LINE
  5
1F9B
330
74
100
AcDbEntity
  8
AM_3 ( Verdeckt )
100
AcDbLine
 10
2878.778275432758
 20
3887.474117695951
 30
-0.0000000000000002
 11
2868.578383387469
 21
3964.949989648302
 31
-0.0000000000000002
  0
LINE
  5
1F9C
330
74
100
AcDbEntity
  8
AM_3 ( Verdeckt )
100
AcDbLine
 10
2919.686187276459
 20
3733.85425165537
 30
-0.0000000000000002
 11
2950.311226417738
 21
3659.918866812292
 31
-0.0000000000000002
  0
ARC
  5
1F9D
330
74
100
AcDbEntity
  8
AM_3 ( Verdeckt )
100
AcDbCircle
 10
2915.066789613899
 20
3731.940834493551
 30
-0.0000000000000002
 40
6.0
100
AcDbArc
 50
22.50000000001662
 51
137.5864096495267
  0
ARC
  5
1F9E
330
74
100
AcDbEntity
  8
AM_3 ( Verdeckt )
100
AcDbCircle
 10
2915.066789613899
 20
3731.940834493551
 30
-0.0000000000000002
 40
5.0
100
AcDbArc
 50
22.50000000001662
 51
137.5864096495267
  0
LINE
  5
1F9F
330
74
100
AcDbEntity
  8
AM_3 ( Verdeckt )
100
AcDbLine
 10
2904.566719599418
 20
3729.343041258721
 30
-0.0000000000000002
 11
2910.637017347217
 21
3735.98769965875
 31
-0.0000000000000002
  0
LINE
  5
1FA0
330
74
100
AcDbEntity
  8
AM_3 ( Verdeckt )
100
AcDbLine
 10
2832.993827745717
 20
3880.030463492042
 30
-0.0000000000000002
 11
2811.687177730409
 21
3907.79783040224
 31
-0.0000000000000002
  0
LINE
  5
1FA1
330
74
100
AcDbEntity
  8
AM_3 ( Verdeckt )
100
AcDbLine
 10
2831.407121065138
 20
3878.812940634021
 30
-0.0000000000000002
 11
2810.10047104983
 21
3906.580307544222
 31
-0.0000000000000002
  0
LINE
  5
1FA2
330
74
100
AcDbEntity
  8
AM_3 ( Verdeckt )
100
AcDbLine
 10
2832.993827745717
 20
3880.030463492042
 30
-0.0000000000000002
 11
2831.407121065138
 21
3878.812940634021
 31
-0.0000000000000002
  0
LINE
  5
1FA3
330
74
100
AcDbEntity
  8
AM_3 ( Verdeckt )
100
AcDbLine
 10
2811.687177730409
 20
3907.79783040224
 30
-0.0000000000000002
 11
2810.10047104983
 21
3906.580307544222
 31
-0.0000000000000002
  0
LINE
  5
1FA4
330
74
100
AcDbEntity
  8
AM_3 ( Verdeckt )
100
AcDbLine
 10
2848.977160615408
 20
3896.013796361731
 30
-0.0000000000000002
 11
2850.194683473428
 21
3897.600503042312
 31
-0.0000000000000002
  0
LINE
  5
1FA5
330
74
100
AcDbEntity
  8
AM_3 ( Verdeckt )
100
AcDbLine
 10
2821.209793705208
 20
3917.320446377041
 30
-0.0000000000000002
 11
2822.427316563228
 21
3918.907153057622
 31
-0.0000000000000002
  0
LINE
  5
1FA6
330
74
100
AcDbEntity
  8
AM_3 ( Verdeckt )
100
AcDbLine
 10
2850.194683473428
 20
3897.600503042312
 30
-0.0000000000000002
 11
2822.427316563228
 21
3918.907153057622
 31
-0.0000000000000002
  0
LINE
  5
1FA7
330
74
100
AcDbEntity
  8
AM_3 ( Verdeckt )
100
AcDbLine
 10
2848.977160615408
 20
3896.013796361731
 30
-0.0000000000000002
 11
2821.209793705208
 21
3917.320446377041
 31
-0.0000000000000002
  0
LINE
  5
1FA8
330
74
100
AcDbEntity
  8
AM_3 ( Verdeckt )
100
AcDbLine
 10
2822.307527760007
 20
3917.108361618171
 30
-0.0000000000000002
 11
2822.916289189019
 21
3917.901714958461
 31
-0.0000000000000002
  0
LINE
  5
1FA9
330
74
100
AcDbEntity
  8
AM_3 ( Verdeckt )
100
AcDbLine
 10
2848.488187989619
 20
3897.019234460882
 30
-0.0000000000000002
 11
2849.096949418629
 21
3897.812587801171
 31
-0.0000000000000002
  0
LINE
  5
1FAA
330
74
100
AcDbEntity
  8
AM_3 ( Verdeckt )
100
AcDbLine
 10
2831.988389646557
 20
3880.519436117831
 30
-0.0000000000000002
 11
2831.195036306268
 21
3879.910674688821
 31
-0.0000000000000002
  0
LINE
  5
1FAB
330
74
100
AcDbEntity
  8
AM_3 ( Verdeckt )
100
AcDbLine
 10
2811.89926248928
 20
3906.700096347441
 30
-0.0000000000000002
 11
2811.105909148988
 21
3906.091334918431
 31
-0.0000000000000002
  0
LINE
  5
1FAC
330
74
100
AcDbEntity
  8
AM_3 ( Verdeckt )
100
AcDbLine
 10
2778.608921535079
 20
3843.533571331621
 30
-0.0000000000000002
 11
2777.84355467035
 21
3841.685812266601
 31
-0.0000000000000002
  0
LINE
  5
1FAD
330
74
100
AcDbEntity
  8
AM_3 ( Verdeckt )
100
AcDbLine
 10
2810.17933830825
 20
3828.291892133822
 30
-0.0000000000000002
 11
2777.84355467035
 21
3841.685812266601
 31
-0.0000000000000002
  0
LINE
  5
1FAE
330
74
100
AcDbEntity
  8
AM_3 ( Verdeckt )
100
AcDbLine
 10
2810.94470517298
 20
3830.139651198841
 30
-0.0000000000000002
 11
2778.608921535079
 21
3843.533571331621
 31
-0.0000000000000002
  0
LINE
  5
1FAF
330
74
100
AcDbEntity
  8
AM_3 ( Verdeckt )
100
AcDbLine
 10
2810.94470517298
 20
3830.139651198841
 30
-0.0000000000000002
 11
2810.17933830825
 21
3828.291892133822
 31
-0.0000000000000002
  0
LINE
  5
1FB0
330
74
100
AcDbEntity
  8
AM_3 ( Verdeckt )
100
AcDbLine
 10
2816.795011040429
 20
3851.973289935981
 30
-0.0000000000000002
 11
2817.056063424869
 21
3853.956179658721
 31
-0.0000000000000002
  0
LINE
  5
1FB1
330
74
100
AcDbEntity
  8
AM_3 ( Verdeckt )
100
AcDbLine
 10
2782.094440892339
 20
3856.541706663681
 30
-0.0000000000000002
 11
2782.355493276781
 21
3858.52459638643
 31
-0.0000000000000002
  0
LINE
  5
1FB2
330
74
100
AcDbEntity
  8
AM_3 ( Verdeckt )
100
AcDbLine
 10
2817.056063424869
 20
3853.956179658721
 30
-0.0000000000000002
 11
2782.355493276781
 21
3858.52459638643
 31
-0.0000000000000002
  0
LINE
  5
1FB3
330
74
100
AcDbEntity
  8
AM_3 ( Verdeckt )
100
AcDbLine
 10
2816.795011040429
 20
3851.973289935981
 30
-0.0000000000000002
 11
2782.094440892339
 21
3856.541706663681
 31
-0.0000000000000002
  0
LINE
  5
1FB4
330
74
100
AcDbEntity
  8
AM_3 ( Verdeckt )
100
AcDbLine
 10
2782.094440892339
 20
3771.33996232341
 30
-0.0000000000000002
 11
2782.355493276781
 21
3769.357072600672
 31
-0.0000000000000002
  0
LINE
  5
1FB5
330
74
100
AcDbEntity
  8
AM_3 ( Verdeckt )
100
AcDbLine
 10
2817.056063424869
 20
3773.925489328371
 30
-0.0000000000000002
 11
2782.355493276781
 21
3769.357072600672
 31
-0.0000000000000002
  0
LINE
  5
1FB6
330
74
100
AcDbEntity
  8
AM_3 ( Verdeckt )
100
AcDbLine
 10
2816.795011040429
 20
3775.90837905112
 30
-0.0000000000000002
 11
2782.094440892339
 21
3771.33996232341
 31
-0.0000000000000002
  0
LINE
  5
1FB7
330
74
100
AcDbEntity
  8
AM_3 ( Verdeckt )
100
AcDbLine
 10
2816.795011040429
 20
3775.90837905112
 30
-0.0000000000000002
 11
2817.056063424869
 21
3773.925489328371
 31
-0.0000000000000002
  0
LINE
  5
1FB8
330
74
100
AcDbEntity
  8
AM_3 ( Verdeckt )
100
AcDbLine
 10
2810.94470517298
 20
3797.742017788252
 30
-0.0000000000000002
 11
2810.17933830825
 21
3799.589776853281
 31
-0.0000000000000002
  0
LINE
  5
1FB9
330
74
100
AcDbEntity
  8
AM_3 ( Verdeckt )
100
AcDbLine
 10
2778.608921535079
 20
3784.348097655481
 30
-0.0000000000000002
 11
2777.84355467035
 21
3786.195856720502
 31
-0.0000000000000002
  0
LINE
  5
1FBA
330
74
100
AcDbEntity
  8
AM_3 ( Verdeckt )
100
AcDbLine
 10
2810.17933830825
 20
3799.589776853281
 30
-0.0000000000000002
 11
2777.84355467035
 21
3786.195856720502
 31
-0.0000000000000002
  0
LINE
  5
1FBB
330
74
100
AcDbEntity
  8
AM_3 ( Verdeckt )
100
AcDbLine
 10
2810.94470517298
 20
3797.742017788252
 30
-0.0000000000000002
 11
2778.608921535079
 21
3784.348097655481
 31
-0.0000000000000002
  0
LINE
  5
1FBC
330
74
100
AcDbEntity
  8
AM_3 ( Verdeckt )
100
AcDbLine
 10
2821.209793705208
 20
3710.561222610061
 30
-0.0000000000000002
 11
2822.427316563228
 21
3708.974515929481
 31
-0.0000000000000002
  0
LINE
  5
1FBD
330
74
100
AcDbEntity
  8
AM_3 ( Verdeckt )
100
AcDbLine
 10
2850.194683473417
 20
3730.281165944782
 30
-0.0000000000000002
 11
2822.427316563228
 21
3708.974515929481
 31
-0.0000000000000002
  0
LINE
  5
1FBE
330
74
100
AcDbEntity
  8
AM_3 ( Verdeckt )
100
AcDbLine
 10
2848.977160615408
 20
3731.867872625362
 30
-0.0000000000000002
 11
2821.209793705208
 21
3710.561222610061
 31
-0.0000000000000002
  0
LINE
  5
1FBF
330
74
100
AcDbEntity
  8
AM_3 ( Verdeckt )
100
AcDbLine
 10
2848.977160615408
 20
3731.867872625362
 30
-0.0000000000000002
 11
2850.194683473417
 21
3730.281165944782
 31
-0.0000000000000002
  0
LINE
  5
1FC0
330
74
100
AcDbEntity
  8
AM_3 ( Verdeckt )
100
AcDbLine
 10
2832.993827745717
 20
3747.851205495051
 30
-0.0000000000000002
 11
2831.407121065138
 21
3749.068728353072
 31
-0.0000000000000002
  0
LINE
  5
1FC1
330
74
100
AcDbEntity
  8
AM_3 ( Verdeckt )
100
AcDbLine
 10
2811.687177730409
 20
3720.083838584861
 30
-0.0000000000000002
 11
2810.10047104983
 21
3721.301361442881
 31
-0.0000000000000002
  0
LINE
  5
1FC2
330
74
100
AcDbEntity
  8
AM_3 ( Verdeckt )
100
AcDbLine
 10
2831.407121065138
 20
3749.068728353072
 30
-0.0000000000000002
 11
2810.10047104983
 21
3721.301361442881
 31
-0.0000000000000002
  0
LINE
  5
1FC3
330
74
100
AcDbEntity
  8
AM_3 ( Verdeckt )
100
AcDbLine
 10
2832.993827745717
 20
3747.851205495051
 30
-0.0000000000000002
 11
2811.687177730409
 21
3720.083838584861
 31
-0.0000000000000002
  0
LINE
  5
1FC4
330
74
100
AcDbEntity
  8
AM_3 ( Verdeckt )
100
AcDbLine
 10
2885.474052775828
 20
3677.482966414731
 30
-0.0000000000000002
 11
2887.32181184085
 21
3676.717599550001
 31
-0.0000000000000002
  0
LINE
  5
1FC5
330
74
100
AcDbEntity
  8
AM_3 ( Verdeckt )
100
AcDbLine
 10
2900.715731973629
 20
3709.053383187892
 30
-0.0000000000000002
 11
2887.32181184085
 21
3676.717599550001
 31
-0.0000000000000002
  0
LINE
  5
1FC6
330
74
100
AcDbEntity
  8
AM_3 ( Verdeckt )
100
AcDbLine
 10
2898.86797290861
 20
3709.818750052622
 30
-0.0000000000000002
 11
2885.474052775828
 21
3677.482966414731
 31
-0.0000000000000002
  0
LINE
  5
1FC7
330
74
100
AcDbEntity
  8
AM_3 ( Verdeckt )
100
AcDbLine
 10
2898.86797290861
 20
3709.818750052622
 30
-0.0000000000000002
 11
2900.715731973629
 21
3709.053383187892
 31
-0.0000000000000002
  0
LINE
  5
1FC8
330
74
100
AcDbEntity
  8
AM_3 ( Verdeckt )
100
AcDbLine
 10
2877.034334171469
 20
3715.66905592007
 30
-0.0000000000000002
 11
2875.051444448718
 21
3715.930108304512
 31
-0.0000000000000002
  0
LINE
  5
1FC9
330
74
100
AcDbEntity
  8
AM_3 ( Verdeckt )
100
AcDbLine
 10
2872.465917443768
 20
3680.968485771991
 30
-0.0000000000000002
 11
2870.483027721019
 21
3681.229538156432
 31
-0.0000000000000002
  0
LINE
  5
1FCA
330
74
100
AcDbEntity
  8
AM_3 ( Verdeckt )
100
AcDbLine
 10
2875.051444448718
 20
3715.930108304512
 30
-0.0000000000000002
 11
2870.483027721019
 21
3681.229538156432
 31
-0.0000000000000002
  0
LINE
  5
1FCB
330
74
100
AcDbEntity
  8
AM_3 ( Verdeckt )
100
AcDbLine
 10
2877.034334171469
 20
3715.66905592007
 30
-0.0000000000000002
 11
2872.465917443768
 21
3680.968485771991
 31
-0.0000000000000002
  0
LINE
  5
1FCC
330
74
100
AcDbEntity
  8
AM_3 ( Verdeckt )
100
AcDbLine
 10
2957.66766178403
 20
3680.968485771991
 30
-0.0000000000000002
 11
2959.650551506781
 21
3681.229538156421
 31
-0.0000000000000002
  0
LINE
  5
1FCD
330
74
100
AcDbEntity
  8
AM_3 ( Verdeckt )
100
AcDbLine
 10
2955.082134779079
 20
3715.930108304512
 30
-0.0000000000000002
 11
2959.650551506781
 21
3681.229538156421
 31
-0.0000000000000002
  0
LINE
  5
1FCE
330
74
100
AcDbEntity
  8
AM_3 ( Verdeckt )
100
AcDbLine
 10
2953.099245056331
 20
3715.66905592007
 30
-0.0000000000000002
 11
2957.66766178403
 21
3680.968485771991
 31
-0.0000000000000002
  0
LINE
  5
1FCF
330
74
100
AcDbEntity
  8
AM_3 ( Verdeckt )
100
AcDbLine
 10
2953.099245056331
 20
3715.66905592007
 30
-0.0000000000000002
 11
2955.082134779079
 21
3715.930108304512
 31
-0.0000000000000002
  0
LINE
  5
1FD0
330
74
100
AcDbEntity
  8
AM_3 ( Verdeckt )
100
AcDbLine
 10
2931.265606319199
 20
3709.818750052622
 30
-0.0000000000000002
 11
2929.417847254169
 21
3709.053383187892
 31
-0.0000000000000002
  0
LINE
  5
1FD1
330
74
100
AcDbEntity
  8
AM_3 ( Verdeckt )
100
AcDbLine
 10
2944.659526451967
 20
3677.482966414731
 30
-0.0000000000000002
 11
2942.811767386949
 21
3676.717599550001
 31
-0.0000000000000002
  0
LINE
  5
1FD2
330
74
100
AcDbEntity
  8
AM_3 ( Verdeckt )
100
AcDbLine
 10
2929.417847254169
 20
3709.053383187892
 30
-0.0000000000000002
 11
2942.811767386949
 21
3676.717599550001
 31
-0.0000000000000002
  0
LINE
  5
1FD3
330
74
100
AcDbEntity
  8
AM_3 ( Verdeckt )
100
AcDbLine
 10
2931.265606319199
 20
3709.818750052622
 30
-0.0000000000000002
 11
2944.659526451967
 21
3677.482966414731
 31
-0.0000000000000002
  0
LINE
  5
1FD4
330
74
100
AcDbEntity
  8
AM_3 ( Verdeckt )
100
AcDbLine
 10
3018.44640149739
 20
3720.083838584861
 30
-0.0000000000000002
 11
3020.033108177968
 21
3721.301361442881
 31
-0.0000000000000002
  0
LINE
  5
1FD5
330
74
100
AcDbEntity
  8
AM_3 ( Verdeckt )
100
AcDbLine
 10
2998.726458162668
 20
3749.068728353072
 30
-0.0000000000000002
 11
3020.033108177968
 21
3721.301361442881
 31
-0.0000000000000002
  0
LINE
  5
1FD6
330
74
100
AcDbEntity
  8
AM_3 ( Verdeckt )
100
AcDbLine
 10
2997.13975148209
 20
3747.851205495051
 30
-0.0000000000000002
 11
3018.44640149739
 21
3720.083838584861
 31
-0.0000000000000002
  0
LINE
  5
1FD7
330
74
100
AcDbEntity
  8
AM_3 ( Verdeckt )
100
AcDbLine
 10
2997.13975148209
 20
3747.851205495051
 30
-0.0000000000000002
 11
2998.726458162668
 21
3749.068728353072
 31
-0.0000000000000002
  0
LINE
  5
1FD8
330
74
100
AcDbEntity
  8
AM_3 ( Verdeckt )
100
AcDbLine
 10
2981.1564186124
 20
3731.867872625362
 30
-0.0000000000000002
 11
2979.938895754378
 21
3730.281165944782
 31
-0.0000000000000002
  0
LINE
  5
1FD9
330
74
100
AcDbEntity
  8
AM_3 ( Verdeckt )
100
AcDbLine
 10
3008.923785522589
 20
3710.561222610061
 30
-0.0000000000000002
 11
3007.706262664568
 21
3708.974515929481
 31
-0.0000000000000002
  0
LINE
  5
1FDA
330
74
100
AcDbEntity
  8
AM_3 ( Verdeckt )
100
AcDbLine
 10
2979.938895754378
 20
3730.281165944782
 30
-0.0000000000000002
 11
3007.706262664568
 21
3708.974515929481
 31
-0.0000000000000002
  0
LINE
  5
1FDB
330
74
100
AcDbEntity
  8
AM_3 ( Verdeckt )
100
AcDbLine
 10
2981.1564186124
 20
3731.867872625362
 30
-0.0000000000000002
 11
3008.923785522589
 21
3710.561222610061
 31
-0.0000000000000002
  0
LINE
  5
1FDC
330
74
100
AcDbEntity
  8
AM_3 ( Verdeckt )
100
AcDbLine
 10
3051.524657692719
 20
3784.348097655472
 30
-0.0000000000000002
 11
3052.29002455745
 21
3786.195856720502
 31
-0.0000000000000002
  0
LINE
  5
1FDD
330
74
100
AcDbEntity
  8
AM_3 ( Verdeckt )
100
AcDbLine
 10
3019.954240919559
 20
3799.589776853272
 30
-0.0000000000000002
 11
3052.29002455745
 21
3786.195856720502
 31
-0.0000000000000002
  0
LINE
  5
1FDE
330
74
100
AcDbEntity
  8
AM_3 ( Verdeckt )
100
AcDbLine
 10
3019.18887405483
 20
3797.742017788252
 30
-0.0000000000000002
 11
3051.524657692719
 21
3784.348097655472
 31
-0.0000000000000002
  0
LINE
  5
1FDF
330
74
100
AcDbEntity
  8
AM_3 ( Verdeckt )
100
AcDbLine
 10
3019.18887405483
 20
3797.742017788252
 30
-0.0000000000000002
 11
3019.954240919559
 21
3799.589776853272
 31
-0.0000000000000002
  0
LINE
  5
1FE0
330
74
100
AcDbEntity
  8
AM_3 ( Verdeckt )
100
AcDbLine
 10
3013.338568187379
 20
3775.90837905112
 30
-0.0000000000000002
 11
3013.077515802938
 21
3773.925489328371
 31
-0.0000000000000002
  0
LINE
  5
1FE1
330
74
100
AcDbEntity
  8
AM_3 ( Verdeckt )
100
AcDbLine
 10
3048.039138335458
 20
3771.33996232341
 30
-0.0000000000000002
 11
3047.778085951019
 21
3769.357072600672
 31
-0.0000000000000002
  0
LINE
  5
1FE2
330
74
100
AcDbEntity
  8
AM_3 ( Verdeckt )
100
AcDbLine
 10
3013.077515802938
 20
3773.925489328371
 30
-0.0000000000000002
 11
3047.778085951019
 21
3769.357072600672
 31
-0.0000000000000002
  0
LINE
  5
1FE3
330
74
100
AcDbEntity
  8
AM_3 ( Verdeckt )
100
AcDbLine
 10
3013.338568187379
 20
3775.90837905112
 30
-0.0000000000000002
 11
3048.039138335458
 21
3771.33996232341
 31
-0.0000000000000002
  0
LINE
  5
1FE4
330
74
100
AcDbEntity
  8
AM_3 ( Verdeckt )
100
AcDbLine
 10
3048.039138335458
 20
3856.541706663681
 30
-0.0000000000000002
 11
3047.778085951019
 21
3858.52459638643
 31
-0.0000000000000002
  0
LINE
  5
1FE5
330
74
100
AcDbEntity
  8
AM_3 ( Verdeckt )
100
AcDbLine
 10
3013.077515802938
 20
3853.956179658721
 30
-0.0000000000000002
 11
3047.778085951019
 21
3858.52459638643
 31
-0.0000000000000002
  0
LINE
  5
1FE6
330
74
100
AcDbEntity
  8
AM_3 ( Verdeckt )
100
AcDbLine
 10
3013.338568187379
 20
3851.973289935981
 30
-0.0000000000000002
 11
3048.039138335458
 21
3856.541706663681
 31
-0.0000000000000002
  0
LINE
  5
1FE7
330
74
100
AcDbEntity
  8
AM_3 ( Verdeckt )
100
AcDbLine
 10
3013.338568187379
 20
3851.973289935981
 30
-0.0000000000000002
 11
3013.077515802938
 21
3853.956179658721
 31
-0.0000000000000002
  0
LINE
  5
1FE8
330
74
100
AcDbEntity
  8
AM_3 ( Verdeckt )
100
AcDbLine
 10
3019.18887405483
 20
3830.139651198841
 30
-0.0000000000000002
 11
3019.954240919559
 21
3828.291892133822
 31
-0.0000000000000002
  0
LINE
  5
1FE9
330
74
100
AcDbEntity
  8
AM_3 ( Verdeckt )
100
AcDbLine
 10
3051.524657692719
 20
3843.533571331621
 30
-0.0000000000000002
 11
3052.29002455745
 21
3841.685812266601
 31
-0.0000000000000002
  0
LINE
  5
1FEA
330
74
100
AcDbEntity
  8
AM_3 ( Verdeckt )
100
AcDbLine
 10
3019.954240919559
 20
3828.291892133822
 30
-0.0000000000000002
 11
3052.29002455745
 21
3841.685812266601
 31
-0.0000000000000002
  0
LINE
  5
1FEB
330
74
100
AcDbEntity
  8
AM_3 ( Verdeckt )
100
AcDbLine
 10
3019.18887405483
 20
3830.139651198841
 30
-0.0000000000000002
 11
3051.524657692719
 21
3843.533571331621
 31
-0.0000000000000002
  0
LINE
  5
1FEC
330
74
100
AcDbEntity
  8
AM_3 ( Verdeckt )
100
AcDbLine
 10
3008.923785522589
 20
3917.320446377031
 30
-0.0000000000000002
 11
3007.706262664568
 21
3918.907153057622
 31
-0.0000000000000002
  0
LINE
  5
1FED
330
74
100
AcDbEntity
  8
AM_3 ( Verdeckt )
100
AcDbLine
 10
2979.938895754378
 20
3897.600503042312
 30
-0.0000000000000002
 11
3007.706262664568
 21
3918.907153057622
 31
-0.0000000000000002
  0
LINE
  5
1FEE
330
74
100
AcDbEntity
  8
AM_3 ( Verdeckt )
100
AcDbLine
 10
2981.1564186124
 20
3896.013796361731
 30
-0.0000000000000002
 11
3008.923785522589
 21
3917.320446377031
 31
-0.0000000000000002
  0
LINE
  5
1FEF
330
74
100
AcDbEntity
  8
AM_3 ( Verdeckt )
100
AcDbLine
 10
2981.1564186124
 20
3896.013796361731
 30
-0.0000000000000002
 11
2979.938895754378
 21
3897.600503042312
 31
-0.0000000000000002
  0
LINE
  5
1FF0
330
74
100
AcDbEntity
  8
AM_3 ( Verdeckt )
100
AcDbLine
 10
2997.13975148209
 20
3880.030463492042
 30
-0.0000000000000002
 11
2998.726458162668
 21
3878.812940634021
 31
-0.0000000000000002
  0
LINE
  5
1FF1
330
74
100
AcDbEntity
  8
AM_3 ( Verdeckt )
100
AcDbLine
 10
3018.44640149739
 20
3907.797830402231
 30
-0.0000000000000002
 11
3020.033108177968
 21
3906.580307544222
 31
-0.0000000000000002
  0
LINE
  5
1FF2
330
74
100
AcDbEntity
  8
AM_3 ( Verdeckt )
100
AcDbLine
 10
2998.726458162668
 20
3878.812940634021
 30
-0.0000000000000002
 11
3020.033108177968
 21
3906.580307544222
 31
-0.0000000000000002
  0
LINE
  5
1FF3
330
74
100
AcDbEntity
  8
AM_3 ( Verdeckt )
100
AcDbLine
 10
2997.13975148209
 20
3880.030463492042
 30
-0.0000000000000002
 11
3018.44640149739
 21
3907.797830402231
 31
-0.0000000000000002
  0
LINE
  5
1FF4
330
74
100
AcDbEntity
  8
AM_3 ( Verdeckt )
100
AcDbLine
 10
2944.659526451979
 20
3950.39870257237
 30
-0.0000000000000002
 11
2942.811767386949
 21
3951.164069437101
 31
-0.0000000000000002
  0
LINE
  5
1FF5
330
74
100
AcDbEntity
  8
AM_3 ( Verdeckt )
100
AcDbLine
 10
2929.417847254169
 20
3918.828285799201
 30
-0.0000000000000002
 11
2942.811767386949
 21
3951.164069437101
 31
-0.0000000000000002
  0
LINE
  5
1FF6
330
74
100
AcDbEntity
  8
AM_3 ( Verdeckt )
100
AcDbLine
 10
2931.265606319199
 20
3918.062918934472
 30
-0.0000000000000002
 11
2944.659526451979
 21
3950.39870257237
 31
-0.0000000000000002
  0
LINE
  5
1FF7
330
74
100
AcDbEntity
  8
AM_3 ( Verdeckt )
100
AcDbLine
 10
2931.265606319199
 20
3918.062918934472
 30
-0.0000000000000002
 11
2929.417847254169
 21
3918.828285799201
 31
-0.0000000000000002
  0
LINE
  5
1FF8
330
74
100
AcDbEntity
  8
AM_3 ( Verdeckt )
100
AcDbLine
 10
2953.099245056331
 20
3912.212613067021
 30
-0.0000000000000002
 11
2955.082134779079
 21
3911.951560682581
 31
-0.0000000000000002
  0
LINE
  5
1FF9
330
74
100
AcDbEntity
  8
AM_3 ( Verdeckt )
100
AcDbLine
 10
2957.667661784039
 20
3946.913183215111
 30
-0.0000000000000002
 11
2959.650551506781
 21
3946.652130830671
 31
-0.0000000000000002
  0
LINE
  5
1FFA
330
74
100
AcDbEntity
  8
AM_3 ( Verdeckt )
100
AcDbLine
 10
2955.082134779079
 20
3911.951560682581
 30
-0.0000000000000002
 11
2959.650551506781
 21
3946.652130830671
 31
-0.0000000000000002
  0
LINE
  5
1FFB
330
74
100
AcDbEntity
  8
AM_3 ( Verdeckt )
100
AcDbLine
 10
2953.099245056331
 20
3912.212613067021
 30
-0.0000000000000002
 11
2957.667661784039
 21
3946.913183215111
 31
-0.0000000000000002
  0
LINE
  5
1FFC
330
74
100
AcDbEntity
  8
AM_3 ( Verdeckt )
100
AcDbLine
 10
2872.465917443768
 20
3946.913183215111
 30
-0.0000000000000002
 11
2870.483027721019
 21
3946.652130830671
 31
-0.0000000000000002
  0
LINE
  5
1FFD
330
74
100
AcDbEntity
  8
AM_3 ( Verdeckt )
100
AcDbLine
 10
2875.051444448718
 20
3911.951560682581
 30
-0.0000000000000002
 11
2870.483027721019
 21
3946.652130830671
 31
-0.0000000000000002
  0
LINE
  5
1FFE
330
74
100
AcDbEntity
  8
AM_3 ( Verdeckt )
100
AcDbLine
 10
2877.034334171469
 20
3912.212613067021
 30
-0.0000000000000002
 11
2872.465917443768
 21
3946.913183215111
 31
-0.0000000000000002
  0
LINE
  5
1FFF
330
74
100
AcDbEntity
  8
AM_3 ( Verdeckt )
100
AcDbLine
 10
2877.034334171469
 20
3912.212613067021
 30
-0.0000000000000002
 11
2875.051444448718
 21
3911.951560682581
 31
-0.0000000000000002
  0
LINE
  5
2000
330
74
100
AcDbEntity
  8
AM_3 ( Verdeckt )
100
AcDbLine
 10
2898.86797290861
 20
3918.062918934472
 30
-0.0000000000000002
 11
2900.715731973629
 21
3918.828285799201
 31
-0.0000000000000002
  0
LINE
  5
2001
330
74
100
AcDbEntity
  8
AM_3 ( Verdeckt )
100
AcDbLine
 10
2885.474052775828
 20
3950.39870257237
 30
-0.0000000000000002
 11
2887.32181184085
 21
3951.164069437101
 31
-0.0000000000000002
  0
LINE
  5
2002
330
74
100
AcDbEntity
  8
AM_3 ( Verdeckt )
100
AcDbLine
 10
2900.715731973629
 20
3918.828285799201
 30
-0.0000000000000002
 11
2887.32181184085
 21
3951.164069437101
 31
-0.0000000000000002
  0
LINE
  5
2003
330
74
100
AcDbEntity
  8
AM_3 ( Verdeckt )
100
AcDbLine
 10
2898.86797290861
 20
3918.062918934472
 30
-0.0000000000000002
 11
2885.474052775828
 21
3950.39870257237
 31
-0.0000000000000002
  0
LINE
  5
2004
330
74
100
AcDbEntity
  8
AM_3 ( Verdeckt )
100
AcDbLine
 10
2779.341459351408
 20
3842.688948133001
 30
-0.0000000000000002
 11
2778.958775919049
 21
3841.765068600492
 31
-0.0000000000000002
  0
LINE
  5
2005
330
74
100
AcDbEntity
  8
AM_3 ( Verdeckt )
100
AcDbLine
 10
2809.829483924279
 20
3830.06039486495
 30
-0.0000000000000002
 11
2809.446800491918
 21
3829.136515332442
 31
-0.0000000000000002
  0
LINE
  5
2006
330
74
100
AcDbEntity
  8
AM_3 ( Verdeckt )
100
AcDbLine
 10
2815.868829275158
 20
3852.599538558881
 30
-0.0000000000000002
 11
2815.999355467379
 21
3853.590983420262
 31
-0.0000000000000002
  0
LINE
  5
2007
330
74
100
AcDbEntity
  8
AM_3 ( Verdeckt )
100
AcDbLine
 10
2783.151148849829
 20
3856.906902902141
 30
-0.0000000000000002
 11
2783.28167504205
 21
3857.898347763522
 31
-0.0000000000000002
  0
LINE
  5
2008
330
74
100
AcDbEntity
  8
AM_3 ( Verdeckt )
100
AcDbLine
 10
2783.151148849829
 20
3770.974766084951
 30
-0.0000000000000002
 11
2783.28167504205
 21
3769.98332122357
 31
-0.0000000000000002
  0
LINE
  5
2009
330
74
100
AcDbEntity
  8
AM_3 ( Verdeckt )
100
AcDbLine
 10
2815.868829275158
 20
3775.282130428212
 30
-0.0000000000000002
 11
2815.999355467379
 21
3774.290685566841
 31
-0.0000000000000002
  0
LINE
  5
200A
330
74
100
AcDbEntity
  8
AM_3 ( Verdeckt )
100
AcDbLine
 10
2809.829483924279
 20
3797.821274122141
 30
-0.0000000000000002
 11
2809.446800491918
 21
3798.745153654651
 31
-0.0000000000000002
  0
LINE
  5
200B
330
74
100
AcDbEntity
  8
AM_3 ( Verdeckt )
100
AcDbLine
 10
2779.341459351408
 20
3785.192720854092
 30
-0.0000000000000002
 11
2778.958775919049
 21
3786.116600386611
 31
-0.0000000000000002
  0
LINE
  5
200C
330
74
100
AcDbEntity
  8
AM_3 ( Verdeckt )
100
AcDbLine
 10
2822.307527760007
 20
3710.773307368922
 30
-0.0000000000000002
 11
2822.916289189019
 21
3709.979954028631
 31
-0.0000000000000002
  0
LINE
  5
200D
330
74
100
AcDbEntity
  8
AM_3 ( Verdeckt )
100
AcDbLine
 10
2848.488187989619
 20
3730.862434526211
 30
-0.0000000000000002
 11
2849.096949418629
 21
3730.069081185921
 31
-0.0000000000000002
  0
LINE
  5
200E
330
74
100
AcDbEntity
  8
AM_3 ( Verdeckt )
100
AcDbLine
 10
2831.988389646557
 20
3747.362232869261
 30
-0.0000000000000002
 11
2831.195036306268
 21
3747.970994298271
 31
-0.0000000000000002
  0
LINE
  5
200F
330
74
100
AcDbEntity
  8
AM_3 ( Verdeckt )
100
AcDbLine
 10
2811.89926248928
 20
3721.181572639651
 30
-0.0000000000000002
 11
2811.105909148988
 21
3721.790334068662
 31
-0.0000000000000002
  0
LINE
  5
2010
330
74
100
AcDbEntity
  8
AM_3 ( Verdeckt )
100
AcDbLine
 10
2886.318675974449
 20
3678.215504231062
 30
-0.0000000000000002
 11
2887.242555506959
 21
3677.832820798691
 31
-0.0000000000000002
  0
LINE
  5
2011
330
74
100
AcDbEntity
  8
AM_3 ( Verdeckt )
100
AcDbLine
 10
2898.9472292425
 20
3708.703528803931
 30
-0.0000000000000002
 11
2899.871108775009
 21
3708.320845371561
 31
-0.0000000000000002
  0
LINE
  5
2012
330
74
100
AcDbEntity
  8
AM_3 ( Verdeckt )
100
AcDbLine
 10
2876.408085548568
 20
3714.74287415481
 30
-0.0000000000000002
 11
2875.416640687189
 21
3714.87340034703
 31
-0.0000000000000002
  0
LINE
  5
2013
330
74
100
AcDbEntity
  8
AM_3 ( Verdeckt )
100
AcDbLine
 10
2872.1007212053
 20
3682.025193729471
 30
-0.0000000000000002
 11
2871.10927634393
 21
3682.15571992169
 31
-0.0000000000000002
  0
LINE
  5
2014
330
74
100
AcDbEntity
  8
AM_3 ( Verdeckt )
100
AcDbLine
 10
2958.0328580225
 20
3682.025193729471
 30
-0.0000000000000002
 11
2959.024302883881
 21
3682.15571992169
 31
-0.0000000000000002
  0
LINE
  5
2015
330
74
100
AcDbEntity
  8
AM_3 ( Verdeckt )
100
AcDbLine
 10
2953.725493679238
 20
3714.74287415481
 30
-0.0000000000000002
 11
2954.716938540609
 21
3714.87340034703
 31
-0.0000000000000002
  0
LINE
  5
2016
330
74
100
AcDbEntity
  8
AM_3 ( Verdeckt )
100
AcDbLine
 10
2931.186349985308
 20
3708.703528803931
 30
-0.0000000000000002
 11
2930.262470452788
 21
3708.320845371561
 31
-0.0000000000000002
  0
LINE
  5
2017
330
74
100
AcDbEntity
  8
AM_3 ( Verdeckt )
100
AcDbLine
 10
2943.81490325335
 20
3678.215504231062
 30
-0.0000000000000002
 11
2942.891023720839
 21
3677.832820798691
 31
-0.0000000000000002
  0
LINE
  5
2018
330
74
100
AcDbEntity
  8
AM_3 ( Verdeckt )
100
AcDbLine
 10
3018.234316738528
 20
3721.181572639651
 30
-0.0000000000000002
 11
3019.027670078819
 21
3721.790334068662
 31
-0.0000000000000002
  0
LINE
  5
2019
330
74
100
AcDbEntity
  8
AM_3 ( Verdeckt )
100
AcDbLine
 10
2998.14518958124
 20
3747.362232869261
 30
-0.0000000000000002
 11
2998.938542921529
 21
3747.970994298271
 31
-0.0000000000000002
  0
LINE
  5
201A
330
74
100
AcDbEntity
  8
AM_3 ( Verdeckt )
100
AcDbLine
 10
2981.645391238179
 20
3730.862434526211
 30
-0.0000000000000002
 11
2981.036629809178
 21
3730.069081185921
 31
-0.0000000000000002
  0
LINE
  5
201B
330
74
100
AcDbEntity
  8
AM_3 ( Verdeckt )
100
AcDbLine
 10
3007.826051467788
 20
3710.773307368922
 30
-0.0000000000000002
 11
3007.217290038789
 21
3709.979954028631
 31
-0.0000000000000002
  0
LINE
  5
201C
330
74
100
AcDbEntity
  8
AM_3 ( Verdeckt )
100
AcDbLine
 10
3050.792119876389
 20
3785.192720854092
 30
-0.0000000000000002
 11
3051.174803308759
 21
3786.116600386611
 31
-0.0000000000000002
  0
LINE
  5
201D
330
74
100
AcDbEntity
  8
AM_3 ( Verdeckt )
100
AcDbLine
 10
3020.304095303517
 20
3797.821274122141
 30
-0.0000000000000002
 11
3020.686778735888
 21
3798.745153654651
 31
-0.0000000000000002
  0
LINE
  5
201E
330
74
100
AcDbEntity
  8
AM_3 ( Verdeckt )
100
AcDbLine
 10
3014.264749952639
 20
3775.282130428212
 30
-0.0000000000000002
 11
3014.134223760419
 21
3774.290685566841
 31
-0.0000000000000002
  0
LINE
  5
201F
330
74
100
AcDbEntity
  8
AM_3 ( Verdeckt )
100
AcDbLine
 10
3046.982430377979
 20
3770.974766084951
 30
-0.0000000000000002
 11
3046.85190418576
 21
3769.98332122357
 31
-0.0000000000000002
  0
LINE
  5
2020
330
74
100
AcDbEntity
  8
AM_3 ( Verdeckt )
100
AcDbLine
 10
3046.982430377979
 20
3856.906902902152
 30
-0.0000000000000002
 11
3046.85190418576
 21
3857.898347763522
 31
-0.0000000000000002
  0
LINE
  5
2021
330
74
100
AcDbEntity
  8
AM_3 ( Verdeckt )
100
AcDbLine
 10
3014.264749952639
 20
3852.599538558881
 30
-0.0000000000000002
 11
3014.134223760419
 21
3853.590983420262
 31
-0.0000000000000002
  0
LINE
  5
2022
330
74
100
AcDbEntity
  8
AM_3 ( Verdeckt )
100
AcDbLine
 10
3020.304095303517
 20
3830.06039486495
 30
-0.0000000000000002
 11
3020.686778735888
 21
3829.136515332442
 31
-0.0000000000000002
  0
LINE
  5
2023
330
74
100
AcDbEntity
  8
AM_3 ( Verdeckt )
100
AcDbLine
 10
3050.792119876389
 20
3842.688948133001
 30
-0.0000000000000002
 11
3051.174803308759
 21
3841.765068600492
 31
-0.0000000000000002
  0
LINE
  5
2024
330
74
100
AcDbEntity
  8
AM_3 ( Verdeckt )
100
AcDbLine
 10
3007.826051467788
 20
3917.108361618171
 30
-0.0000000000000002
 11
3007.217290038789
 21
3917.901714958461
 31
-0.0000000000000002
  0
LINE
  5
2025
330
74
100
AcDbEntity
  8
AM_3 ( Verdeckt )
100
AcDbLine
 10
2981.645391238188
 20
3897.019234460882
 30
-0.0000000000000002
 11
2981.036629809178
 21
3897.812587801171
 31
-0.0000000000000002
  0
LINE
  5
2026
330
74
100
AcDbEntity
  8
AM_3 ( Verdeckt )
100
AcDbLine
 10
2998.14518958124
 20
3880.519436117831
 30
-0.0000000000000002
 11
2998.938542921529
 21
3879.910674688821
 31
-0.0000000000000002
  0
LINE
  5
2027
330
74
100
AcDbEntity
  8
AM_3 ( Verdeckt )
100
AcDbLine
 10
3018.234316738528
 20
3906.700096347441
 30
-0.0000000000000002
 11
3019.027670078819
 21
3906.091334918431
 31
-0.0000000000000002
  0
LINE
  5
2028
330
74
100
AcDbEntity
  8
AM_3 ( Verdeckt )
100
AcDbLine
 10
2943.81490325335
 20
3949.666164756041
 30
-0.0000000000000002
 11
2942.891023720839
 21
3950.048848188401
 31
-0.0000000000000002
  0
LINE
  5
2029
330
74
100
AcDbEntity
  8
AM_3 ( Verdeckt )
100
AcDbLine
 10
2931.186349985308
 20
3919.178140183171
 30
-0.0000000000000002
 11
2930.262470452788
 21
3919.560823615531
 31
-0.0000000000000002
  0
LINE
  5
202A
330
74
100
AcDbEntity
  8
AM_3 ( Verdeckt )
100
AcDbLine
 10
2953.725493679238
 20
3913.138794832291
 30
-0.0000000000000002
 11
2954.716938540609
 21
3913.008268640072
 31
-0.0000000000000002
  0
LINE
  5
202B
330
74
100
AcDbEntity
  8
AM_3 ( Verdeckt )
100
AcDbLine
 10
2958.0328580225
 20
3945.856475257621
 30
-0.0000000000000002
 11
2959.024302883881
 21
3945.725949065401
 31
-0.0000000000000002
  0
LINE
  5
202C
330
74
100
AcDbEntity
  8
AM_3 ( Verdeckt )
100
AcDbLine
 10
2872.1007212053
 20
3945.856475257621
 30
-0.0000000000000002
 11
2871.10927634393
 21
3945.725949065401
 31
-0.0000000000000002
  0
LINE
  5
202D
330
74
100
AcDbEntity
  8
AM_3 ( Verdeckt )
100
AcDbLine
 10
2876.408085548568
 20
3913.138794832291
 30
-0.0000000000000002
 11
2875.416640687189
 21
3913.008268640072
 31
-0.0000000000000002
  0
LINE
  5
202E
330
74
100
AcDbEntity
  8
AM_3 ( Verdeckt )
100
AcDbLine
 10
2898.9472292425
 20
3919.178140183171
 30
-0.0000000000000002
 11
2899.871108775009
 21
3919.560823615531
 31
-0.0000000000000002
  0
LINE
  5
202F
330
74
100
AcDbEntity
  8
AM_3 ( Verdeckt )
100
AcDbLine
 10
2886.318675974449
 20
3949.666164756041
 30
-0.0000000000000002
 11
2887.242555506959
 21
3950.048848188401
 31
-0.0000000000000002
  0
LINE
  5
2030
330
74
100
AcDbEntity
  8
AM_3 ( Verdeckt )
100
AcDbLine
 10
2905.305014977199
 20
3728.66856373119
 30
-0.0000000000000002
 11
2911.375312725001
 21
3735.313222131221
 31
-0.0000000000000002
  0
LINE
  5
2031
330
74
100
AcDbEntity
  8
AM_3 ( Verdeckt )
100
AcDbLine
 10
2905.305014977199
 20
3728.66856373119
 30
-0.0000000000000002
 11
2904.566719599418
 21
3729.343041258721
 31
-0.0000000000000002
  0
LINE
  5
2032
330
74
100
AcDbEntity
  8
AM_3 ( Verdeckt )
100
AcDbLine
 10
2909.726923159158
 20
3732.114886126022
 30
-0.0000000000000002
 11
2879.822352810068
 21
3659.918866812292
 31
-0.0000000000000002
  0
LINE
  5
2033
330
74
100
AcDbEntity
  8
AM_3 ( Verdeckt )
100
AcDbLine
 10
2908.803043626649
 20
3732.497569558381
 30
-0.0000000000000002
 11
2878.898473277559
 21
3660.301550244661
 31
-0.0000000000000002
  0
LINE
  5
2034
330
74
100
AcDbEntity
  8
AM_3 ( Verdeckt )
100
AcDbLine
 10
2908.803043626649
 20
3732.497569558381
 30
-0.0000000000000002
 11
2909.726923159158
 21
3732.114886126022
 31
-0.0000000000000002
  0
ARC
  5
2035
330
74
100
AcDbEntity
  8
AM_3 ( Verdeckt )
100
AcDbCircle
 10
2874.39869024571
 20
3662.165421404181
 30
-0.0000000000000002
 40
4.870530056681098
100
AcDbArc
 50
172.4999999999913
 51
337.4999999999834
  0
ARC
  5
2036
330
74
100
AcDbEntity
  8
AM_3 ( Verdeckt )
100
AcDbCircle
 10
2874.39869024571
 20
3662.165421404181
 30
-0.0000000000000002
 40
5.870530056681089
100
AcDbArc
 50
172.4999999999913
 51
337.4999999999834
  0
LINE
  5
2037
330
74
100
AcDbEntity
  8
AM_3 ( Verdeckt )
100
AcDbLine
 10
2880.015458782138
 20
3742.143594229902
 30
-0.0000000000000002
 11
2869.569828248839
 21
3662.801153146571
 31
-0.0000000000000002
  0
LINE
  5
2038
330
74
100
AcDbEntity
  8
AM_3 ( Verdeckt )
100
AcDbLine
 10
2879.024013920767
 20
3742.274120422121
 30
-0.0000000000000002
 11
2868.578383387469
 21
3662.931679338791
 31
-0.0000000000000002
  0
ARC
  5
2039
330
74
100
AcDbEntity
  8
AM_3 ( Verdeckt )
100
AcDbCircle
 10
2874.066789613899
 20
3742.926751383222
 30
-0.0000000000000002
 40
6.0
100
AcDbArc
 50
352.4999999999913
 51
107.5864096495126
  0
ARC
  5
203A
330
74
100
AcDbEntity
  8
AM_3 ( Verdeckt )
100
AcDbCircle
 10
2874.066789613899
 20
3742.926751383222
 30
-0.0000000000000002
 40
5.0
100
AcDbArc
 50
352.4999999999913
 51
107.5864096495126
  0
LINE
  5
203B
330
74
100
AcDbEntity
  8
AM_3 ( Verdeckt )
100
AcDbLine
 10
2863.674565622429
 20
3745.927031455333
 30
-0.0000000000000002
 11
2872.253926880578
 21
3748.646325555321
 31
-0.0000000000000002
  0
LINE
  5
203C
330
74
100
AcDbEntity
  8
AM_7 (Mittellinie)
100
AcDbLine
 10
3060.066789613899
 20
3716.91655605732
 30
-0.0000000000000002
 11
3060.066789613899
 21
3739.496693389282
 31
-0.0000000000000002
  0
LINE
  5
203D
330
74
100
AcDbEntity
  8
AM_3 ( Verdeckt )
100
AcDbLine
 10
2863.976709411318
 20
3744.973769093312
 30
-0.0000000000000002
 11
2872.55607066946
 21
3747.693063193301
 31
-0.0000000000000002
  0
LINE
  5
203E
330
74
100
AcDbEntity
  8
AM_3 ( Verdeckt )
100
AcDbLine
 10
2863.976709411318
 20
3744.973769093312
 30
-0.0000000000000002
 11
2863.674565622429
 21
3745.927031455333
 31
-0.0000000000000002
  0
LINE
  5
203F
330
74
100
AcDbEntity
  8
AM_3 ( Verdeckt )
100
AcDbLine
 10
2869.529355427518
 20
3745.747417745881
 30
-0.0000000000000002
 11
2807.53322815908
 21
3698.176116142631
 31
-0.0000000000000002
  0
LINE
  5
2040
330
74
100
AcDbEntity
  8
AM_3 ( Verdeckt )
100
AcDbLine
 10
2868.920593998508
 20
3746.54077108617
 30
-0.0000000000000002
 11
2806.924466730068
 21
3698.96946948292
 31
-0.0000000000000002
  0
LINE
  5
2041
330
74
100
AcDbEntity
  8
AM_3 ( Verdeckt )
100
AcDbLine
 10
2868.920593998508
 20
3746.54077108617
 30
-0.0000000000000002
 11
2869.529355427518
 21
3745.747417745881
 31
-0.0000000000000002
  0
ARC
  5
2042
330
74
100
AcDbEntity
  8
AM_3 ( Verdeckt )
100
AcDbCircle
 10
2803.959475892738
 20
3702.833520772381
 30
-0.0000000000000002
 40
4.870530056681098
100
AcDbArc
 50
142.4999999999995
 51
307.5000000000172
  0
ARC
  5
2043
330
74
100
AcDbEntity
  8
AM_3 ( Verdeckt )
100
AcDbCircle
 10
2803.959475892738
 20
3702.833520772381
 30
-0.0000000000000002
 40
5.870530056681089
100
AcDbArc
 50
142.4999999999995
 51
307.5000000000172
  0
LINE
  5
2044
330
74
100
AcDbEntity
  8
AM_3 ( Verdeckt )
100
AcDbLine
 10
2848.81282654533
 20
3769.288265919492
 30
-0.0000000000000002
 11
2800.095424603278
 21
3705.798511609711
 31
-0.0000000000000002
  0
LINE
  5
2045
330
74
100
AcDbEntity
  8
AM_3 ( Verdeckt )
100
AcDbLine
 10
2848.01947320503
 20
3769.897027348501
 30
-0.0000000000000002
 11
2799.302071262988
 21
3706.407273038721
 31
-0.0000000000000002
  0
ARC
  5
2046
330
74
100
AcDbEntity
  8
AM_3 ( Verdeckt )
100
AcDbCircle
 10
2844.052706503579
 20
3772.940834493552
 30
-0.0000000000000002
 40
6.0
100
AcDbArc
 50
322.4999999999788
 51
77.586409649532
  0
ARC
  5
2047
330
74
100
AcDbEntity
  8
AM_3 ( Verdeckt )
100
AcDbCircle
 10
2844.052706503579
 20
3772.940834493552
 30
-0.0000000000000002
 40
5.0
100
AcDbArc
 50
322.4999999999788
 51
77.586409649532
  0
LINE
  5
2048
330
74
100
AcDbEntity
  8
AM_3 ( Verdeckt )
100
AcDbLine
 10
2836.552916561199
 20
3780.735265250201
 30
-0.0000000000000002
 11
2845.342508408989
 21
3778.800562392072
 31
-0.0000000000000002
  0
LINE
  5
2049
330
74
100
AcDbEntity
  8
AM_3 ( Verdeckt )
100
AcDbLine
 10
2836.337949576968
 20
3779.758643933772
 30
-0.0000000000000002
 11
2845.127541424758
 21
3777.823941075651
 31
-0.0000000000000002
  0
LINE
  5
204A
330
74
100
AcDbEntity
  8
AM_3 ( Verdeckt )
100
AcDbLine
 10
2836.337949576968
 20
3779.758643933772
 30
-0.0000000000000002
 11
2836.552916561199
 21
3780.735265250201
 31
-0.0000000000000002
  0
LINE
  5
204B
330
74
100
AcDbEntity
  8
AM_3 ( Verdeckt )
100
AcDbLine
 10
2841.533506411499
 20
3777.652320312401
 30
-0.0000000000000002
 11
2764.057634459149
 21
3767.452428267111
 31
-0.0000000000000002
  0
CIRCLE
  5
204C
330
74
100
AcDbEntity
  8
AM_0 ( Kontur 0.5 )
100
AcDbCircle
 10
2830.066789613899
 20
3898.940834493551
 30
-0.0000000000000002
 40
6.499999902379778
  0
LINE
  5
204D
330
74
100
AcDbEntity
  8
AM_0 ( Kontur 0.5 )
100
AcDbLine
 10
2826.314012920529
 20
3892.440834591171
 30
-0.0000000000000002
 11
2833.819566307268
 21
3892.440834591171
 31
-0.0000000000000002
  0
LINE
  5
204E
330
74
100
AcDbEntity
  8
AM_0 ( Kontur 0.5 )
100
AcDbLine
 10
2822.561236227159
 20
3898.940834493551
 30
-0.0000000000000002
 11
2826.314012920529
 21
3892.440834591171
 31
-0.0000000000000002
  0
LINE
  5
204F
330
74
100
AcDbEntity
  8
AM_0 ( Kontur 0.5 )
100
AcDbLine
 10
2826.314012920529
 20
3905.440834395932
 30
-0.0000000000000002
 11
2822.561236227159
 21
3898.940834493551
 31
-0.0000000000000002
  0
LINE
  5
2050
330
74
100
AcDbEntity
  8
AM_0 ( Kontur 0.5 )
100
AcDbLine
 10
2833.819566307268
 20
3905.440834395932
 30
-0.0000000000000002
 11
2826.314012920529
 21
3905.440834395932
 31
-0.0000000000000002
  0
LINE
  5
2051
330
74
100
AcDbEntity
  8
AM_0 ( Kontur 0.5 )
100
AcDbLine
 10
2837.572343000649
 20
3898.940834493551
 30
-0.0000000000000002
 11
2833.819566307268
 21
3905.440834395932
 31
-0.0000000000000002
  0
LINE
  5
2052
330
74
100
AcDbEntity
  8
AM_0 ( Kontur 0.5 )
100
AcDbLine
 10
2833.819566307268
 20
3892.440834591171
 30
-0.0000000000000002
 11
2837.572343000649
 21
3898.940834493551
 31
-0.0000000000000002
  0
LINE
  5
2053
330
74
100
AcDbEntity
  8
AM_0 ( Kontur 0.5 )
100
AcDbLine
 10
2992.561236227159
 20
3728.940834493551
 30
-0.0000000000000002
 11
2996.314012920529
 21
3722.440834591171
 31
-0.0000000000000002
  0
LINE
  5
2054
330
74
100
AcDbEntity
  8
AM_0 ( Kontur 0.5 )
100
AcDbLine
 10
2992.561236227159
 20
3898.940834493551
 30
-0.0000000000000002
 11
2996.314012920529
 21
3892.440834591171
 31
-0.0000000000000002
  0
LINE
  5
2055
330
74
100
AcDbEntity
  8
AM_0 ( Kontur 0.5 )
100
AcDbLine
 10
2996.314012920529
 20
3905.440834395932
 30
-0.0000000000000002
 11
2992.561236227159
 21
3898.940834493551
 31
-0.0000000000000002
  0
LINE
  5
2056
330
74
100
AcDbEntity
  8
AM_0 ( Kontur 0.5 )
100
AcDbLine
 10
3003.819566307268
 20
3905.440834395932
 30
-0.0000000000000002
 11
2996.314012920529
 21
3905.440834395932
 31
-0.0000000000000002
  0
LINE
  5
2057
330
74
100
AcDbEntity
  8
AM_0 ( Kontur 0.5 )
100
AcDbLine
 10
3007.572343000649
 20
3898.940834493551
 30
-0.0000000000000002
 11
3003.819566307268
 21
3905.440834395932
 31
-0.0000000000000002
  0
CIRCLE
  5
2058
330
74
100
AcDbEntity
  8
AM_0 ( Kontur 0.5 )
100
AcDbCircle
 10
3000.066789613899
 20
3898.940834493551
 30
-0.0000000000000002
 40
6.499999902379778
  0
LINE
  5
2059
330
74
100
AcDbEntity
  8
AM_0 ( Kontur 0.5 )
100
AcDbLine
 10
3003.819566307268
 20
3892.440834591171
 30
-0.0000000000000002
 11
3007.572343000649
 21
3898.940834493551
 31
-0.0000000000000002
  0
LINE
  5
205A
330
74
100
AcDbEntity
  8
AM_0 ( Kontur 0.5 )
100
AcDbLine
 10
2996.314012920529
 20
3892.440834591171
 30
-0.0000000000000002
 11
3003.819566307268
 21
3892.440834591171
 31
-0.0000000000000002
  0
LINE
  5
205B
330
74
100
AcDbEntity
  8
AM_0 ( Kontur 0.5 )
100
AcDbLine
 10
2996.314012920529
 20
3735.440834395932
 30
-0.0000000000000002
 11
2992.561236227159
 21
3728.940834493551
 31
-0.0000000000000002
  0
LINE
  5
205C
330
74
100
AcDbEntity
  8
AM_0 ( Kontur 0.5 )
100
AcDbLine
 10
3003.819566307268
 20
3735.440834395932
 30
-0.0000000000000002
 11
2996.314012920529
 21
3735.440834395932
 31
-0.0000000000000002
  0
LINE
  5
205D
330
74
100
AcDbEntity
  8
AM_0 ( Kontur 0.5 )
100
AcDbLine
 10
3007.572343000649
 20
3728.940834493551
 30
-0.0000000000000002
 11
3003.819566307268
 21
3735.440834395932
 31
-0.0000000000000002
  0
CIRCLE
  5
205E
330
74
100
AcDbEntity
  8
AM_0 ( Kontur 0.5 )
100
AcDbCircle
 10
3000.066789613899
 20
3728.940834493551
 30
-0.0000000000000002
 40
6.499999902379778
  0
LINE
  5
205F
330
74
100
AcDbEntity
  8
AM_0 ( Kontur 0.5 )
100
AcDbLine
 10
3003.819566307268
 20
3722.440834591171
 30
-0.0000000000000002
 11
3007.572343000649
 21
3728.940834493551
 31
-0.0000000000000002
  0
LINE
  5
2060
330
74
100
AcDbEntity
  8
AM_0 ( Kontur 0.5 )
100
AcDbLine
 10
2996.314012920529
 20
3722.440834591171
 30
-0.0000000000000002
 11
3003.819566307268
 21
3722.440834591171
 31
-0.0000000000000002
  0
LINE
  5
2061
330
74
100
AcDbEntity
  8
AM_0 ( Kontur 0.5 )
100
AcDbLine
 10
2822.561236227159
 20
3728.940834493551
 30
-0.0000000000000002
 11
2826.314012920529
 21
3722.440834591171
 31
-0.0000000000000002
  0
LINE
  5
2062
330
74
100
AcDbEntity
  8
AM_0 ( Kontur 0.5 )
100
AcDbLine
 10
2826.314012920529
 20
3735.440834395932
 30
-0.0000000000000002
 11
2822.561236227159
 21
3728.940834493551
 31
-0.0000000000000002
  0
LINE
  5
2063
330
74
100
AcDbEntity
  8
AM_0 ( Kontur 0.5 )
100
AcDbLine
 10
2833.819566307268
 20
3735.440834395932
 30
-0.0000000000000002
 11
2826.314012920529
 21
3735.440834395932
 31
-0.0000000000000002
  0
LINE
  5
2064
330
74
100
AcDbEntity
  8
AM_0 ( Kontur 0.5 )
100
AcDbLine
 10
2837.572343000649
 20
3728.940834493551
 30
-0.0000000000000002
 11
2833.819566307268
 21
3735.440834395932
 31
-0.0000000000000002
  0
CIRCLE
  5
2065
330
74
100
AcDbEntity
  8
AM_0 ( Kontur 0.5 )
100
AcDbCircle
 10
2830.066789613899
 20
3728.940834493551
 30
-0.0000000000000002
 40
6.499999902379778
  0
LINE
  5
2066
330
74
100
AcDbEntity
  8
AM_0 ( Kontur 0.5 )
100
AcDbLine
 10
2833.819566307268
 20
3722.440834591171
 30
-0.0000000000000002
 11
2837.572343000649
 21
3728.940834493551
 31
-0.0000000000000002
  0
LINE
  5
2067
330
74
100
AcDbEntity
  8
AM_0 ( Kontur 0.5 )
100
AcDbLine
 10
2826.314012920529
 20
3722.440834591171
 30
-0.0000000000000002
 11
2833.819566307268
 21
3722.440834591171
 31
-0.0000000000000002
  0
LINE
  5
2068
330
74
100
AcDbEntity
  8
AM_7 (Mittellinie)
100
AcDbLine
 10
2770.066789613899
 20
3716.91655605732
 30
-0.0000000000000002
 11
2770.066789613899
 21
3739.496693389282
 31
-0.0000000000000002
  0
LINE
  5
2069
330
74
100
AcDbEntity
  8
AM_7 (Mittellinie)
100
AcDbLine
 10
2830.066789613899
 20
3885.308245190871
 30
-0.0000000000000002
 11
2830.066789613899
 21
3910.476617749262
 31
-0.0000000000000002
  0
LINE
  5
206A
330
74
100
AcDbEntity
  8
AM_3 ( Verdeckt )
100
AcDbLine
 10
2841.40298021928
 20
3778.643765173781
 30
-0.0000000000000002
 11
2763.927108266929
 21
3768.443873128492
 31
-0.0000000000000002
  0
LINE
  5
206B
330
74
100
AcDbEntity
  8
AM_3 ( Verdeckt )
100
AcDbLine
 10
2841.40298021928
 20
3778.643765173781
 30
-0.0000000000000002
 11
2841.533506411499
 21
3777.652320312401
 31
-0.0000000000000002
  0
ARC
  5
206C
330
74
100
AcDbEntity
  8
AM_3 ( Verdeckt )
100
AcDbCircle
 10
2763.291376524538
 20
3773.272735125352
 30
-0.0000000000000002
 40
4.870530056681098
100
AcDbArc
 50
112.500000000013
 51
277.4999999999857
  0
ARC
  5
206D
330
74
100
AcDbEntity
  8
AM_3 ( Verdeckt )
100
AcDbCircle
 10
2763.291376524538
 20
3773.272735125352
 30
-0.0000000000000002
 40
5.870530056681089
100
AcDbArc
 50
112.500000000013
 51
277.4999999999857
  0
LINE
  5
206E
330
74
100
AcDbEntity
  8
AM_3 ( Verdeckt )
100
AcDbLine
 10
2835.362890208088
 20
3808.397557298481
 30
-0.0000000000000002
 11
2761.427505365009
 21
3777.772518157202
 31
-0.0000000000000002
  0
LINE
  5
206F
330
74
100
AcDbEntity
  8
AM_3 ( Verdeckt )
100
AcDbLine
 10
2834.980206775728
 20
3809.321436830991
 30
-0.0000000000000002
 11
2761.044821932649
 21
3778.69639768971
 31
-0.0000000000000002
  0
ARC
  5
2070
330
74
100
AcDbEntity
  8
AM_3 ( Verdeckt )
100
AcDbCircle
 10
2833.066789613899
 20
3813.940834493551
 30
-0.0000000000000002
 40
6.0
100
AcDbArc
 50
292.5000000000128
 51
47.58640964953062
  0
ARC
  5
2071
330
74
100
AcDbEntity
  8
AM_3 ( Verdeckt )
100
AcDbCircle
 10
2833.066789613899
 20
3813.940834493551
 30
-0.0000000000000002
 40
5.0
100
AcDbArc
 50
292.5000000000128
 51
47.58640964953062
  0
LINE
  5
2072
330
74
100
AcDbEntity
  8
AM_3 ( Verdeckt )
100
AcDbLine
 10
2830.468996379079
 20
3824.440904508031
 30
-0.0000000000000002
 11
2837.1136547791
 21
3818.370606760231
 31
-0.0000000000000002
  0
LINE
  5
2073
330
74
100
AcDbEntity
  8
AM_3 ( Verdeckt )
100
AcDbLine
 10
2829.79451885155
 20
3823.702609130252
 30
-0.0000000000000002
 11
2836.439177251569
 21
3817.632311382451
 31
-0.0000000000000002
  0
LINE
  5
2074
330
74
100
AcDbEntity
  8
AM_3 ( Verdeckt )
100
AcDbLine
 10
2829.79451885155
 20
3823.702609130252
 30
-0.0000000000000002
 11
2830.468996379079
 21
3824.440904508031
 31
-0.0000000000000002
  0
LINE
  5
2075
330
74
100
AcDbEntity
  8
AM_3 ( Verdeckt )
100
AcDbLine
 10
2833.240841246369
 20
3819.280700948291
 30
-0.0000000000000002
 11
2761.044821932649
 21
3849.185271297381
 31
-0.0000000000000002
  0
LINE
  5
2076
330
74
100
AcDbEntity
  8
AM_3 ( Verdeckt )
100
AcDbLine
 10
2833.623524678738
 20
3820.204580480801
 30
-0.0000000000000002
 11
2761.427505365009
 21
3850.10915082989
 31
-0.0000000000000002
  0
LINE
  5
2077
330
74
100
AcDbEntity
  8
AM_3 ( Verdeckt )
100
AcDbLine
 10
2833.623524678738
 20
3820.204580480801
 30
-0.0000000000000002
 11
2833.240841246369
 21
3819.280700948291
 31
-0.0000000000000002
  0
ARC
  5
2078
330
74
100
AcDbEntity
  8
AM_3 ( Verdeckt )
100
AcDbCircle
 10
2763.291376524538
 20
3854.608933861742
 30
-0.0000000000000002
 40
4.870530056681098
100
AcDbArc
 50
82.50000000001429
 51
247.4999999999872
  0
ARC
  5
2079
330
74
100
AcDbEntity
  8
AM_3 ( Verdeckt )
100
AcDbCircle
 10
2763.291376524538
 20
3854.608933861742
 30
-0.0000000000000002
 40
5.870530056681089
100
AcDbArc
 50
82.50000000001429
 51
247.4999999999872
  0
LINE
  5
207A
330
74
100
AcDbEntity
  8
AM_3 ( Verdeckt )
100
AcDbLine
 10
2843.269549350258
 20
3848.992165325301
 30
-0.0000000000000002
 11
2763.927108266929
 21
3859.437795858602
 31
-0.0000000000000002
  0
LINE
  5
207B
330
74
100
AcDbEntity
  8
AM_3 ( Verdeckt )
100
AcDbLine
 10
2843.400075542479
 20
3849.983610186681
 30
-0.0000000000000002
 11
2764.057634459149
 21
3860.429240719982
 31
-0.0000000000000002
  0
ARC
  5
207C
330
74
100
AcDbEntity
  8
AM_3 ( Verdeckt )
100
AcDbCircle
 10
2844.052706503579
 20
3854.940834493552
 30
-0.0000000000000002
 40
6.0
100
AcDbArc
 50
262.5000000000143
 51
17.58640964951607
  0
ARC
  5
207D
330
74
100
AcDbEntity
  8
AM_3 ( Verdeckt )
100
AcDbCircle
 10
2844.052706503579
 20
3854.940834493552
 30
-0.0000000000000002
 40
5.0
100
AcDbArc
 50
262.5000000000143
 51
17.58640964951607
  0
LINE
  5
207E
330
74
100
AcDbEntity
  8
AM_3 ( Verdeckt )
100
AcDbLine
 10
2847.052986575679
 20
3865.33305848502
 30
-0.0000000000000002
 11
2849.772280675679
 21
3856.753697226872
 31
-0.0000000000000002
  0
LINE
  5
207F
330
74
100
AcDbEntity
  8
AM_3 ( Verdeckt )
100
AcDbLine
 10
2846.099724213667
 20
3865.030914696132
 30
-0.0000000000000002
 11
2848.819018313658
 21
3856.451553437981
 31
-0.0000000000000002
  0
LINE
  5
2080
330
74
100
AcDbEntity
  8
AM_3 ( Verdeckt )
100
AcDbLine
 10
2846.099724213667
 20
3865.030914696132
 30
-0.0000000000000002
 11
2847.052986575679
 21
3865.33305848502
 31
-0.0000000000000002
  0
LINE
  5
2081
330
74
100
AcDbEntity
  8
AM_3 ( Verdeckt )
100
AcDbLine
 10
2880.884599054129
 20
3892.669674530481
 30
-0.0000000000000002
 11
2881.861220370549
 21
3892.454707546251
 31
-0.0000000000000002
  0
LINE
  5
2082
330
74
100
AcDbEntity
  8
AM_3 ( Verdeckt )
100
AcDbLine
 10
2880.884599054129
 20
3892.669674530481
 30
-0.0000000000000002
 11
2878.949896196008
 21
3883.880082682691
 31
-0.0000000000000002
  0
LINE
  5
2083
330
74
100
AcDbEntity
  8
AM_3 ( Verdeckt )
100
AcDbLine
 10
2881.861220370549
 20
3892.454707546251
 30
-0.0000000000000002
 11
2879.926517512429
 21
3883.665115698461
 31
-0.0000000000000002
  0
LINE
  5
2084
330
74
100
AcDbEntity
  8
AM_3 ( Verdeckt )
100
AcDbLine
 10
2847.666726206529
 20
3860.087030108941
 30
-0.0000000000000002
 11
2846.87337286624
 21
3859.478268679931
 31
-0.0000000000000002
  0
ARC
  5
2085
330
74
100
AcDbEntity
  8
AM_3 ( Verdeckt )
100
AcDbCircle
 10
2874.066789613899
 20
3884.954917603872
 30
-0.0000000000000002
 40
6.0
100
AcDbArc
 50
232.4999999999827
 51
347.5864096495282
  0
LINE
  5
2086
330
74
100
AcDbEntity
  8
AM_3 ( Verdeckt )
100
AcDbLine
 10
2870.41422103985
 20
3880.194797562121
 30
-0.0000000000000002
 11
2806.924466730068
 21
3928.91219950417
 31
-0.0000000000000002
  0
ARC
  5
2087
330
74
100
AcDbEntity
  8
AM_3 ( Verdeckt )
100
AcDbCircle
 10
2803.959475892738
 20
3925.048148214711
 30
-0.0000000000000002
 40
4.870530056681098
100
AcDbArc
 50
52.49999999998284
 51
217.5000000000003
  0
LINE
  5
2088
330
74
100
AcDbEntity
  8
AM_3 ( Verdeckt )
100
AcDbLine
 10
2847.666726206529
 20
3860.087030108941
 30
-0.0000000000000002
 11
2800.095424603278
 21
3922.083157377381
 31
-0.0000000000000002
  0
ARC
  5
2089
330
74
100
AcDbEntity
  8
AM_3 ( Verdeckt )
100
AcDbCircle
 10
2955.7348889821
 20
3662.165421404181
 30
-0.0000000000000002
 40
5.870530056681089
100
AcDbArc
 50
202.5000000000166
 51
7.500000000008705
  0
ARC
  5
208A
330
74
100
AcDbEntity
  8
AM_3 ( Verdeckt )
100
AcDbCircle
 10
2874.066789613899
 20
3884.954917603872
 30
-0.0000000000000002
 40
5.0
100
AcDbArc
 50
232.4999999999827
 51
347.5864096495282
  0
ARC
  5
208B
330
74
100
AcDbEntity
  8
AM_3 ( Verdeckt )
100
AcDbCircle
 10
2830.066789613899
 20
3898.940834493551
 30
-0.0000000000000002
 40
4.0
100
AcDbArc
 50
73.32397021473432
 51
0.0
  0
ARC
  5
208C
330
74
100
AcDbEntity
  8
AM_3 ( Verdeckt )
100
AcDbCircle
 10
2803.959475892738
 20
3925.048148214711
 30
-0.0000000000000002
 40
5.870530056681089
100
AcDbArc
 50
52.49999999998284
 51
217.5000000000003
  0
ARC
  5
208D
330
74
100
AcDbEntity
  8
AM_3 ( Verdeckt )
100
AcDbCircle
 10
3000.066789613899
 20
3728.940834493551
 30
-0.0000000000000002
 40
4.0
100
AcDbArc
 50
0.0
 51
17.49560091778875
  0
CIRCLE
  5
208E
330
74
100
AcDbEntity
  8
AM_3 ( Verdeckt )
100
AcDbCircle
 10
2830.066789613899
 20
3898.940834493551
 30
-0.0000000000000002
 40
3.325
  0
LINE
  5
208F
330
74
100
AcDbEntity
  8
AM_7 (Mittellinie)
100
AcDbLine
 10
2830.066789613899
 20
3716.086792382872
 30
-0.0000000000000002
 11
2830.066789613899
 21
3739.171116835822
 31
-0.0000000000000002
  0
LINE
  5
2090
330
74
100
AcDbEntity
  8
AM_7 (Mittellinie)
100
AcDbLine
 10
3000.066789613899
 20
3716.086792382872
 30
-0.0000000000000002
 11
3000.066789613899
 21
3739.171116835822
 31
-0.0000000000000002
  0
LINE
  5
2091
330
74
100
AcDbEntity
  8
AM_7 (Mittellinie)
100
AcDbLine
 10
2707.7972135076
 20
3813.940834493551
 30
-0.0000000000000002
 11
2875.536627835389
 21
3813.940834493551
 31
-0.0000000000000002
  0
LINE
  5
2092
330
74
100
AcDbEntity
  8
AM_7 (Mittellinie)
100
AcDbLine
 10
2915.066789613899
 20
3621.693286544432
 30
-0.0000000000000002
 11
2915.066789613899
 21
3782.698068108882
 31
-0.0000000000000002
  0
CIRCLE
  5
2093
330
74
100
AcDbEntity
  8
AM_0 ( Kontur 0.5 )
100
AcDbCircle
 10
2915.066789613899
 20
3813.940834493551
 30
-0.0000000000000002
 40
175.0
  0
LINE
  5
2094
330
74
100
AcDbEntity
  8
AM_3 ( Verdeckt )
100
AcDbLine
 10
2846.87337286624
 20
3859.478268679931
 30
-0.0000000000000002
 11
2799.302071262988
 21
3921.474395948371
 31
-0.0000000000000002
  0
LINE
  5
2095
330
74
100
AcDbEntity
  8
AM_7 (Mittellinie)
100
AcDbLine
 10
2915.066789613899
 20
3844.423008350612
 30
-0.0000000000000002
 11
2915.066789613899
 21
4005.887847830151
 31
-0.0000000000000002
  0
LINE
  5
2096
330
74
100
AcDbEntity
  8
AM_3 ( Verdeckt )
100
AcDbLine
 10
2871.022982468858
 20
3880.988150902411
 30
-0.0000000000000002
 11
2807.53322815908
 21
3929.705552844461
 31
-0.0000000000000002
  0
CIRCLE
  5
2097
330
74
100
AcDbEntity
  8
AM_3 ( Verdeckt )
100
AcDbCircle
 10
2915.066789613899
 20
3981.940834493551
 30
-0.0000000000000002
 40
5.24999999999999
  0
LINE
  5
2098
330
74
100
AcDbEntity
  8
AM_7 (Mittellinie)
100
AcDbLine
 10
3050.056053026769
 20
3728.940834493551
 30
-0.0000000000000002
 11
3068.158421454819
 21
3728.940834493551
 31
-0.0000000000000002
  0
CIRCLE
  5
2099
330
74
100
AcDbEntity
  8
AM_3 ( Verdeckt )
100
AcDbCircle
 10
2770.066789613899
 20
3728.940834493551
 30
-0.0000000000000002
 40
5.24999999999999
  0
CIRCLE
  5
209A
330
74
100
AcDbEntity
  8
AM_3 ( Verdeckt )
100
AcDbCircle
 10
3060.066789613899
 20
3728.940834493551
 30
-0.0000000000000002
 40
5.24999999999999
  0
CIRCLE
  5
209B
330
74
100
AcDbEntity
  8
AM_3 ( Verdeckt )
100
AcDbCircle
 10
2915.066789613899
 20
3813.940834493551
 30
-0.0000000000000002
 40
69.9999999999999
  0
LINE
  5
209C
330
74
100
AcDbEntity
  8
AM_7 (Mittellinie)
100
AcDbLine
 10
2954.352455420938
 20
3813.940834493551
 30
-0.0000000000000002
 11
3110.978166772559
 21
3813.940834493551
 31
-0.0000000000000002
  0
LINE
  5
209D
330
74
100
AcDbEntity
  8
AM_7 (Mittellinie)
100
AcDbLine
 10
3000.066789613899
 20
3885.308245190871
 30
-0.0000000000000002
 11
3000.066789613899
 21
3911.63582183969
 31
-0.0000000000000002
  0
LINE
  5
209E
330
74
100
AcDbEntity
  8
AM_7 (Mittellinie)
100
AcDbLine
 10
2989.419704383079
 20
3898.940834493551
 30
-0.0000000000000002
 11
3011.740910672299
 21
3898.940834493551
 31
-0.0000000000000002
  0
ARC
  5
209F
330
74
100
AcDbEntity
  8
AM_3 ( Verdeckt )
100
AcDbCircle
 10
3000.066789613899
 20
3898.940834493551
 30
-0.0000000000000002
 40
4.0
100
AcDbArc
 50
73.32397021473432
 51
0.0
  0
ARC
  5
20A0
330
74
100
AcDbEntity
  8
AM_3 ( Verdeckt )
100
AcDbCircle
 10
3000.066789613899
 20
3898.940834493551
 30
-0.0000000000000002
 40
4.0
100
AcDbArc
 50
0.0
 51
17.49560091778875
  0
CIRCLE
  5
20A1
330
74
100
AcDbEntity
  8
AM_3 ( Verdeckt )
100
AcDbCircle
 10
2830.066789613899
 20
3728.940834493551
 30
-0.0000000000000002
 40
3.325
  0
LINE
  5
20A2
330
74
100
AcDbEntity
  8
AM_7 (Mittellinie)
100
AcDbLine
 10
2760.935368704399
 20
3728.940834493551
 30
-0.0000000000000002
 11
2780.589368712
 21
3728.940834493551
 31
-0.0000000000000002
  0
LINE
  5
20A3
330
74
100
AcDbEntity
  8
AM_7 (Mittellinie)
100
AcDbLine
 10
2989.419704383079
 20
3728.940834493551
 30
-0.0000000000000002
 11
3011.95487757343
 21
3728.940834493551
 31
-0.0000000000000002
  0
LINE
  5
20A4
330
74
100
AcDbEntity
  8
AM_7 (Mittellinie)
100
AcDbLine
 10
2904.320602895837
 20
3981.940834493551
 30
-0.0000000000000002
 11
2925.21879408969
 21
3981.940834493551
 31
-0.0000000000000002
  0
LINE
  5
20A5
330
74
100
AcDbEntity
  8
AM_3 ( Verdeckt )
100
AcDbLine
 10
2920.610066808968
 20
3734.236935087742
 30
-0.0000000000000002
 11
2951.235105950249
 21
3660.301550244661
 31
-0.0000000000000002
  0
CIRCLE
  5
20A6
330
74
100
AcDbEntity
  8
AM_3 ( Verdeckt )
100
AcDbCircle
 10
3000.066789613899
 20
3728.940834493551
 30
-0.0000000000000002
 40
3.325
  0
ARC
  5
20A7
330
74
100
AcDbEntity
  8
AM_3 ( Verdeckt )
100
AcDbCircle
 10
3000.066789613899
 20
3728.940834493551
 30
-0.0000000000000002
 40
4.0
100
AcDbArc
 50
73.32397021473432
 51
0.0
  0
ARC
  5
20A8
330
74
100
AcDbEntity
  8
AM_3 ( Verdeckt )
100
AcDbCircle
 10
2830.066789613899
 20
3728.940834493551
 30
-0.0000000000000002
 40
4.0
100
AcDbArc
 50
73.32397021473432
 51
0.0
  0
ARC
  5
20A9
330
74
100
AcDbEntity
  8
AM_3 ( Verdeckt )
100
AcDbCircle
 10
2830.066789613899
 20
3898.940834493551
 30
-0.0000000000000002
 40
4.0
100
AcDbArc
 50
0.0
 51
17.49560091778875
  0
ARC
  5
20AA
330
74
100
AcDbEntity
  8
AM_3 ( Verdeckt )
100
AcDbCircle
 10
2830.066789613899
 20
3728.940834493551
 30
-0.0000000000000002
 40
4.0
100
AcDbArc
 50
0.0
 51
17.49560091778875
  0
CIRCLE
  5
20AB
330
74
100
AcDbEntity
  8
AM_3 ( Verdeckt )
100
AcDbCircle
 10
3000.066789613899
 20
3898.940834493551
 30
-0.0000000000000002
 40
3.325
  0
LINE
  5
20AC
330
74
100
AcDbEntity
  8
AM_7 (Mittellinie)
100
AcDbLine
 10
2817.527338002018
 20
3898.940834493551
 30
-0.0000000000000002
 11
2840.611662454969
 21
3898.940834493551
 31
-0.0000000000000002
  0
LINE
  5
20AD
330
74
100
AcDbEntity
  8
AM_7 (Mittellinie)
100
AcDbLine
 10
2805.0067006663
 20
3784.450322541141
 30
-0.0000000000000002
 11
2823.275867939138
 21
3789.345531158292
 31
-0.0000000000000002
  0
LINE
  5
20AE
330
74
100
AcDbEntity
  8
AM_7 (Mittellinie)
100
AcDbLine
 10
3007.475512595329
 20
3838.701677190011
 30
-0.0000000000000002
 11
3025.906910334237
 21
3843.640355329532
 31
-0.0000000000000002
  0
CIRCLE
  5
20AF
330
74
100
AcDbEntity
  8
AM_3 ( Verdeckt )
100
AcDbCircle
 10
3016.48900137425
 20
3841.116834229311
 30
-0.0000000000000002
 40
3.75
  0
CIRCLE
  5
20B0
330
74
100
AcDbEntity
  8
AM_3 ( Verdeckt )
100
AcDbCircle
 10
2813.644577853549
 20
3786.764834757781
 30
-0.0000000000000002
 40
3.75
  0
ARC
  5
20B1
330
74
100
AcDbEntity
  8
AM_7 (Mittellinie)
100
AcDbCircle
 10
2915.066789613899
 20
3813.940834493551
 30
-0.0000000000000002
 40
105.0
100
AcDbArc
 50
190.421203732004
 51
199.4455098349098
  0
ARC
  5
20B2
330
74
100
AcDbEntity
  8
AM_7 (Mittellinie)
100
AcDbCircle
 10
2915.066789613899
 20
3813.940834493551
 30
-0.0000000000000002
 40
105.0
100
AcDbArc
 50
10.65180232022534
 51
19.58957892539572
  0
LINE
  5
20B3
330
74
100
AcDbEntity
  8
AM_7 (Mittellinie)
100
AcDbLine
 10
2818.345737147657
 20
3728.940834493551
 30
-0.0000000000000002
 11
2840.611662454969
 21
3728.940834493551
 31
-0.0000000000000002
  0
ELLIPSE
  5
291C
330
74
100
AcDbEntity
  8
AM_2 ( Kontur 0.25)
100
AcDbEllipse
 10
2875.183936697419
 20
3815.015534603991
 30
-0.0000000000000002
 11
8.678739325409138
 21
12.65874293901783
 31
0.0
210
0.0
220
0.0
230
1.0
 40
0.6537867520664598
 41
5.337637804046209
 42
11.48329872840159
  0
ELLIPSE
  5
291D
330
74
100
AcDbEntity
  8
AM_2 ( Kontur 0.25)
100
AcDbEllipse
 10
2875.171119781713
 20
3814.793915958901
 30
-0.0000000000000002
 11
6.861930719839946
 21
11.18498486926295
 31
0.0
210
0.0
220
0.0
230
1.0
 40
0.4844290690998304
 41
5.302972782809451
 42
11.40427987559324
  0
SPLINE
  5
291E
330
74
100
AcDbEntity
  8
AM_2 ( Kontur 0.25)
100
AcDbSpline
210
0.0
220
0.0
230
1.0
 70
     8
 71
     3
 72
     9
 73
     5
 74
     0
 42
0.0000000001
 43
0.0000000001
 40
0.0
 40
0.0
 40
0.0
 40
0.0
 40
7.968107150523366
 40
14.83107190610577
 40
14.83107190610577
 40
14.83107190610577
 40
14.83107190610577
 10
2880.922739650827
 20
3822.692322381831
 30
-0.0000000000000002
 10
2881.009595319716
 20
3821.687184116215
 30
-0.0000000000000002
 10
2881.171260147563
 20
3819.816315965054
 30
-0.0000000000000002
 10
2882.703064446019
 20
3818.620877236418
 30
-0.0000000000000002
 10
2883.492710327817
 20
3818.261165117138
 30
-0.0000000000000002
  0
SPLINE
  5
291F
330
74
100
AcDbEntity
  8
AM_2 ( Kontur 0.25)
100
AcDbSpline
210
0.0
220
0.0
230
1.0
 70
     8
 71
     3
 72
    14
 73
    10
 74
     0
 42
0.0000000001
 43
0.0000000001
 40
24.47382092594304
 40
24.47382092594304
 40
24.47382092594304
 40
24.47382092594304
 40
27.07720801688995
 40
65.95863428631481
 40
68.90571152459711
 40
78.76292925805633
 40
85.37637435376925
 40
90.16781575675782
 40
124.4302840537597
 40
124.4302840537597
 40
124.4302840537597
 40
124.4302840537597
 10
2886.974016232574
 20
3817.824069851083
 30
-0.0000000000000002
 10
2887.290766945285
 20
3817.861285069156
 30
-0.0000000000000002
 10
2892.330524892263
 20
3818.678445212826
 30
-0.0000000000000002
 10
2897.313711856251
 20
3821.90421581177
 30
-0.0000000000000002
 10
2903.531444210621
 20
3821.157072334044
 30
-0.0000000000000002
 10
2905.908561411108
 20
3820.351862861174
 30
-0.0000000000000002
 10
2907.387356874666
 20
3818.061174723418
 30
-0.0000000000000002
 10
2908.068179436794
 20
3812.509740775722
 30
-0.0000000000000002
 10
2906.405606603234
 20
3807.938559952765
 30
-0.0000000000000002
 10
2904.947011306656
 20
3803.928207615971
 30
-0.0000000000000002
  0
SPLINE
  5
2920
330
74
100
AcDbEntity
  8
AM_2 ( Kontur 0.25)
100
AcDbSpline
210
0.0
220
0.0
230
1.0
 70
     8
 71
     3
 72
    10
 73
     6
 74
     0
 42
0.0000000001
 43
0.0000000001
 40
0.0
 40
0.0
 40
0.0
 40
0.0
 40
8.412186980282188
 40
16.06694186604353
 40
19.01677443785813
 40
19.01677443785813
 40
19.01677443785813
 40
19.01677443785813
 10
2877.90418036016
 20
3820.6012163816
 30
-0.0000000000000002
 10
2878.331995580849
 20
3819.64432835187
 30
-0.0000000000000002
 10
2879.149105601862
 20
3817.816710351694
 30
-0.0000000000000002
 10
2881.26803197811
 20
3816.671306878502
 30
-0.0000000000000002
 10
2882.5191164184
 20
3816.278886657304
 30
-0.0000000000000002
 10
2882.87025749697
 20
3816.188742413789
 30
-0.0000000000000002
  0
SPLINE
  5
2921
330
74
100
AcDbEntity
  8
AM_2 ( Kontur 0.25)
100
AcDbSpline
210
0.0
220
0.0
230
1.0
 70
     8
 71
     3
 72
    10
 73
     6
 74
     0
 42
0.0000000001
 43
0.0000000001
 40
29.29572467169512
 40
29.29572467169512
 40
29.29572467169512
 40
29.29572467169512
 40
71.17070356599137
 40
74.53363183549175
 40
79.05964029186219
 40
79.05964029186219
 40
79.05964029186219
 40
79.05964029186219
 10
2886.562075884227
 20
3815.93517536629
 30
-0.0000000000000002
 10
2891.500401996748
 20
3816.497831961103
 30
-0.0000000000000002
 10
2896.342219828896
 20
3820.674358127753
 30
-0.0000000000000002
 10
2902.866811908726
 20
3819.137030392531
 30
-0.0000000000000002
 10
2902.945102253547
 20
3818.057988782718
 30
-0.0000000000000002
 10
2902.990018669413
 20
3817.43892545131
 30
-0.0000000000000002
  0
SPLINE
  5
2922
330
74
100
AcDbEntity
  8
AM_2 ( Kontur 0.25)
100
AcDbSpline
210
0.0
220
0.0
230
1.0
 70
     8
 71
     3
 72
    14
 73
    10
 74
     0
 42
0.0000000001
 43
0.0000000001
 40
76.82676989542816
 40
76.82676989542816
 40
76.82676989542816
 40
76.82676989542816
 40
77.9870644368766
 40
87.73291956716915
 40
100.7008506286425
 40
111.422155335124
 40
116.6225380960957
 40
127.9426008144845
 40
185.2659915644711
 40
185.2659915644711
 40
185.2659915644711
 40
185.2659915644711
 10
2891.147706007878
 20
3800.978798378956
 30
-0.0000000000000002
 10
2891.282889974453
 20
3800.948962914709
 30
-0.0000000000000002
 10
2892.560746996871
 20
3800.699526464639
 30
-0.0000000000000002
 10
2895.53852128397
 20
3800.783264658341
 30
-0.0000000000000002
 10
2899.125241241189
 20
3805.825559489932
 30
-0.0000000000000002
 10
2901.004295156485
 20
3800.867436363365
 30
-0.0000000000000002
 10
2904.543725743444
 20
3800.76068837662
 30
-0.0000000000000002
 10
2912.297566658596
 20
3805.75262982215
 30
-0.0000000000000002
 10
2917.386821878008
 20
3812.379840538638
 30
-0.0000000000000002
 10
2921.63680276953
 20
3817.914151099787
 30
-0.0000000000000002
  0
SPLINE
  5
2923
330
74
100
AcDbEntity
  8
AM_2 ( Kontur 0.25)
100
AcDbSpline
210
0.0
220
0.0
230
1.0
 70
     8
 71
     3
 72
    13
 73
     9
 74
     7
 42
0.0000000001
 43
0.0000000001
 44
0.0000000001
 40
0.0
 40
0.0
 40
0.0
 40
0.0
 40
5.30510448317686
 40
12.09373169808937
 40
13.60524304207376
 40
15.47568552068153
 40
18.27227929917028
 40
20.65852672114438
 40
20.65852672114438
 40
20.65852672114438
 40
20.65852672114438
 10
2921.63680276953
 20
3817.914151099787
 30
-0.0000000000000002
 10
2921.483128277301
 20
3816.154540486349
 30
-0.0000000000000002
 10
2921.132805661836
 20
3812.143260648315
 30
-0.0000000000000002
 10
2920.697550086052
 20
3807.597992830758
 30
-0.0000000000000002
 10
2919.851251688641
 20
3804.327191844167
 30
-0.0000000000000002
 10
2918.485493487505
 20
3802.529877274949
 30
-0.0000000000000002
 10
2915.431103019649
 20
3803.100389588832
 30
-0.0000000000000002
 10
2914.964019893158
 20
3804.86859597085
 30
-0.0000000000000002
 10
2914.748968753575
 20
3805.68270116092
 30
-0.0000000000000002
 11
2921.63680276953
 21
3817.914151099787
 31
-0.0000000000000002
 11
2921.168740858712
 21
3812.629735178887
 31
-0.0000000000000002
 11
2920.244340748035
 21
3805.904339733381
 31
-0.0000000000000002
 11
2919.788002548179
 21
3804.463360208771
 31
-0.0000000000000002
 11
2918.531298433208
 21
3803.07799028229
 31
-0.0000000000000002
 11
2915.770878949212
 21
3803.526343975542
 31
-0.0000000000000002
 11
2914.748968753575
 21
3805.68270116092
 31
-0.0000000000000002
  0
SPLINE
  5
2924
330
74
100
AcDbEntity
  8
AM_2 ( Kontur 0.25)
100
AcDbSpline
210
0.0
220
0.0
230
1.0
 70
     8
 71
     3
 72
    12
 73
     8
 74
     0
 42
0.0000000001
 43
0.0000000001
 40
0.2094809425514192
 40
0.2094809425514192
 40
0.2094809425514192
 40
0.2094809425514192
 40
7.378083141439497
 40
15.02801745628717
 40
23.63339279305255
 40
33.74130360878141
 40
48.87136692722079
 40
48.87136692722079
 40
48.87136692722079
 40
48.87136692722079
 10
2912.058806206336
 20
3803.924966157959
 30
-0.0000000000000002
 10
2912.546504067961
 20
3803.178558696453
 30
-0.0000000000000002
 10
2913.56564906478
 20
3801.648644302335
 30
-0.0000000000000002
 10
2916.442930251359
 20
3800.728439900386
 30
-0.0000000000000002
 10
2919.644619148538
 20
3800.946363404224
 30
-0.0000000000000002
 10
2923.56233416189
 20
3803.196645980054
 30
-0.0000000000000002
 10
2923.823909199589
 20
3806.427920538158
 30
-0.0000000000000002
 10
2923.771788576718
 20
3808.393284340503
 30
-0.0000000000000002
  0
SPLINE
  5
2925
330
74
100
AcDbEntity
  8
AM_2 ( Kontur 0.25)
100
AcDbSpline
210
0.0
220
0.0
230
1.0
 70
     8
 71
     3
 72
    17
 73
    13
 74
     0
 42
0.0000000001
 43
0.0000000001
 40
80.77064250775974
 40
80.77064250775974
 40
80.77064250775974
 40
80.77064250775974
 40
82.75219090712093
 40
87.23347413009777
 40
92.45693041780191
 40
97.29410671661666
 40
106.7167370381517
 40
133.6369996485395
 40
160.5572622589273
 40
166.9421329478337
 40
173.32700363674
 40
177.6796617549528
 40
177.6796617549528
 40
177.6796617549528
 40
177.6796617549528
 10
2925.067908499991
 20
3820.10456159994
 30
-0.0000000000000002
 10
2925.146043163619
 20
3820.318124241802
 30
-0.0000000000000002
 10
2925.487297951005
 20
3820.922792590943
 30
-0.0000000000000002
 10
2926.887172266954
 20
3821.193510194042
 30
-0.0000000000000002
 10
2928.995240838
 20
3822.954777482158
 30
-0.0000000000000002
 10
2925.509624686098
 20
3823.441028471639
 30
-0.0000000000000002
 10
2921.66294735322
 20
3820.742233121177
 30
-0.0000000000000002
 10
2916.587752088719
 20
3814.636690453696
 30
-0.0000000000000002
 10
2911.752643012071
 20
3809.217862367869
 30
-0.0000000000000002
 10
2908.09241580297
 20
3806.131586979619
 30
-0.0000000000000002
 10
2906.728375305305
 20
3804.46690233958
 30
-0.0000000000000002
 10
2905.460833203533
 20
3804.083590314248
 30
-0.0000000000000002
 10
2904.947011306656
 20
3803.928207615971
 30
-0.0000000000000002
  0
SPLINE
  5
2926
330
74
100
AcDbEntity
  8
AM_2 ( Kontur 0.25)
100
AcDbSpline
210
0.0
220
0.0
230
1.0
 70
     8
 71
     3
 72
    29
 73
    25
 74
    23
 42
0.0000000001
 43
0.0000000001
 44
0.0000000001
 40
0.0
 40
0.0
 40
0.0
 40
0.0
 40
5.129449445633571
 40
9.658701770177302
 40
11.46435687114861
 40
13.66140820185814
 40
17.40506729352805
 40
18.91173323941285
 40
25.05042020702546
 40
29.78247299114342
 40
33.20323715337999
 40
35.81723022660259
 40
37.85946828452539
 40
40.67499363503967
 40
45.24259280495353
 40
50.52941016110503
 40
56.09003672656617
 40
60.85419819284606
 40
63.47309496940941
 40
66.18153894775534
 40
69.04676946622903
 40
72.66543920537067
 40
77.55832656955156
 40
83.59448358473208
 40
83.59448358473208
 40
83.59448358473208
 40
83.59448358473208
 10
2944.072541134256
 20
3808.208368596381
 30
-0.0000000000000002
 10
2942.854632581088
 20
3806.988213022254
 30
-0.0000000000000002
 10
2940.561323011887
 20
3804.690672335166
 30
-0.0000000000000002
 10
2936.976078579616
 20
3803.146306573768
 30
-0.0000000000000002
 10
2934.028506529155
 20
3802.900325265609
 30
-0.0000000000000002
 10
2931.817512925542
 20
3804.6804471434
 30
-0.0000000000000002
 10
2931.909111468143
 20
3807.991303059367
 30
-0.0000000000000002
 10
2935.385205195658
 20
3809.859113160526
 30
-0.0000000000000002
 10
2939.577276509395
 20
3810.185177932911
 30
-0.0000000000000002
 10
2943.669685985052
 20
3812.882345001376
 30
-0.0000000000000002
 10
2946.033521497911
 20
3815.699378190593
 30
-0.0000000000000002
 10
2946.497157893811
 20
3818.519020891932
 30
-0.0000000000000002
 10
2945.206459406756
 20
3820.91660066438
 30
-0.0000000000000002
 10
2941.785497885121
 20
3821.532644276275
 30
-0.0000000000000002
 10
2937.764980976622
 20
3820.088800857803
 30
-0.0000000000000002
 10
2933.388999407477
 20
3817.254621483196
 30
-0.0000000000000002
 10
2930.116857185434
 20
3813.146759239371
 30
-0.0000000000000002
 10
2928.308295081758
 20
3809.056848483209
 30
-0.0000000000000002
 10
2928.395014883371
 20
3805.69534469827
 30
-0.0000000000000002
 10
2928.912565004393
 20
3802.853600288909
 30
-0.0000000000000002
 10
2931.696699140801
 20
3801.047848424589
 30
-0.0000000000000002
 10
2935.552822932877
 20
3800.575174537009
 30
-0.0000000000000002
 10
2940.250649920242
 20
3802.342071028694
 30
-0.0000000000000002
 10
2943.133179763843
 20
3804.572842194298
 30
-0.0000000000000002
 10
2944.725213077367
 20
3805.804906458393
 30
-0.0000000000000002
 11
2944.072541134256
 21
3808.208368596381
 31
-0.0000000000000002
 11
2940.213704220725
 21
3804.828926439741
 31
-0.0000000000000002
 11
2936.018293196048
 21
3803.122276811551
 31
-0.0000000000000002
 11
2934.212638095076
 21
3803.122276811551
 31
-0.0000000000000002
 11
2932.500861051194
 21
3804.499540004195
 31
-0.0000000000000002
 11
2932.718520121407
 21
3808.236866311034
 31
-0.0000000000000002
 11
2933.981382999601
 21
3809.058583794947
 31
-0.0000000000000002
 11
2939.872266967197
 21
3810.785130570063
 31
-0.0000000000000002
 11
2943.861694023496
 21
3813.330085444742
 31
-0.0000000000000002
 11
2945.89623887799
 21
3816.080040842324
 31
-0.0000000000000002
 11
2946.192241890655
 21
3818.6772204671
 31
-0.0000000000000002
 11
2945.176731777296
 21
3820.449076977908
 31
-0.0000000000000002
 11
2942.470405667508
 21
3821.225596125691
 31
-0.0000000000000002
 11
2938.064025689073
 21
3820.022775414763
 31
-0.0000000000000002
 11
2933.658125211103
 21
3817.100707870107
 31
-0.0000000000000002
 11
2930.159170616553
 21
3812.778916048907
 31
-0.0000000000000002
 11
2928.464513411664
 21
3808.326346966377
 31
-0.0000000000000002
 11
2928.464513411664
 21
3805.707450189814
 31
-0.0000000000000002
 11
2929.218139094989
 21
3803.105966552873
 31
-0.0000000000000002
 11
2931.514172448753
 21
3801.391972164785
 31
-0.0000000000000002
 11
2935.096283059958
 21
3800.878889081776
 31
-0.0000000000000002
 11
2939.751832648818
 21
3802.384280985642
 31
-0.0000000000000002
 11
2944.725213077367
 21
3805.804906458393
 31
-0.0000000000000002
  0
SPLINE
  5
2927
330
74
100
AcDbEntity
  8
AM_2 ( Kontur 0.25)
100
AcDbSpline
210
0.0
220
0.0
230
1.0
 70
    11
 71
     3
 72
    15
 73
    11
 74
     9
 42
0.0000000001
 43
0.0000000001
 44
0.0000000001
 40
0.0
 40
0.0
 40
0.0
 40
0.0
 40
3.881025405084666
 40
7.950225294342738
 40
9.877577929030461
 40
11.53344850295372
 40
14.14989329380735
 40
18.50504618587778
 40
19.43029499398748
 40
19.74966535717932
 40
19.74966535717932
 40
19.74966535717932
 40
19.74966535717932
 10
2958.565151955076
 20
3827.016407198648
 30
-0.0000000000000002
 10
2957.433807743179
 20
3826.472546132921
 30
-0.0000000000000002
 10
2955.116265230252
 20
3825.358454481861
 30
-0.0000000000000002
 10
2951.47946840263
 20
3824.178720751551
 30
-0.0000000000000002
 10
2951.505282901415
 20
3820.861441059351
 30
-0.0000000000000002
 10
2954.015887293398
 20
3820.539640895356
 30
-0.0000000000000002
 10
2956.300190107269
 20
3822.533238358089
 30
-0.0000000000000002
 10
2957.525315635619
 20
3824.866667147193
 30
-0.0000000000000002
 10
2958.365015285398
 20
3826.534927669077
 30
-0.0000000000000002
 10
2958.524283573625
 20
3826.918087939575
 30
-0.0000000000000002
 10
2958.565151955076
 20
3827.016407198648
 30
-0.0000000000000002
 11
2958.565151955076
 21
3827.016407198648
 31
-0.0000000000000002
 11
2955.025841620244
 21
3825.42403772247
 31
-0.0000000000000002
 11
2951.716864464292
 21
3823.055692747572
 31
-0.0000000000000002
 11
2951.922516958023
 21
3821.139343293463
 31
-0.0000000000000002
 11
2953.536925337638
 21
3820.771113825046
 31
-0.0000000000000002
 11
2955.732179376386
 21
3822.194715963617
 31
-0.0000000000000002
 11
2958.038797014779
 21
3825.888883228857
 31
-0.0000000000000002
 11
2958.440744961148
 21
3826.722263817374
 31
-0.0000000000000002
 11
2958.565151955076
 21
3827.016407198648
 31
-0.0000000000000002
  0
SPLINE
  5
2928
330
74
100
AcDbEntity
  8
AM_2 ( Kontur 0.25)
100
AcDbSpline
210
0.0
220
0.0
230
1.0
 70
    11
 71
     3
 72
    15
 73
    11
 74
     9
 42
0.0000000001
 43
0.0000000001
 44
0.0000000001
 40
0.0
 40
0.0
 40
0.0
 40
0.0
 40
3.881025405082344
 40
7.950225294342108
 40
9.877577929030138
 40
11.53344850295473
 40
14.14989329380961
 40
18.50504618588
 40
19.43029499398951
 40
19.74966535717956
 40
19.74966535717956
 40
19.74966535717956
 40
19.74966535717956
 10
2955.967639107337
 20
3817.739690962941
 30
-0.0000000000000002
 10
2954.836294895439
 20
3817.195829897214
 30
-0.0000000000000002
 10
2952.518752382509
 20
3816.081738246157
 30
-0.0000000000000002
 10
2948.881955554893
 20
3814.902004515847
 30
-0.0000000000000002
 10
2948.907770053675
 20
3811.584724823645
 30
-0.0000000000000002
 10
2951.418374445659
 20
3811.262924659649
 30
-0.0000000000000002
 10
2953.702677259529
 20
3813.256522122382
 30
-0.0000000000000002
 10
2954.927802787884
 20
3815.589950911487
 30
-0.0000000000000002
 10
2955.767502437661
 20
3817.258211433369
 30
-0.0000000000000002
 10
2955.926770725885
 20
3817.641371703869
 30
-0.0000000000000002
 10
2955.967639107337
 20
3817.739690962941
 30
-0.0000000000000002
 11
2955.967639107337
 21
3817.739690962941
 31
-0.0000000000000002
 11
2952.428328772505
 21
3816.147321486767
 31
-0.0000000000000002
 11
2949.119351616553
 21
3813.778976511866
 31
-0.0000000000000002
 11
2949.325004110282
 21
3811.862627057757
 31
-0.0000000000000002
 11
2950.939412489899
 21
3811.49439758934
 31
-0.0000000000000002
 11
2953.134666528648
 21
3812.917999727913
 31
-0.0000000000000002
 11
2955.441284167042
 21
3816.612166993151
 31
-0.0000000000000002
 11
2955.84323211341
 21
3817.445547581669
 31
-0.0000000000000002
 11
2955.967639107337
 21
3817.739690962941
 31
-0.0000000000000002
  0
SPLINE
  5
2929
330
74
100
AcDbEntity
  8
AM_2 ( Kontur 0.25)
100
AcDbSpline
210
0.0
220
0.0
230
1.0
 70
     8
 71
     3
 72
    16
 73
    12
 74
     0
 42
0.0000000001
 43
0.0000000001
 40
0.0
 40
0.0
 40
0.0
 40
0.0
 40
19.49599945796019
 40
35.55644828708982
 40
46.90882418482302
 40
52.57758285702468
 40
59.01510100257528
 40
62.27337091053763
 40
65.35356432814818
 40
71.10392861451507
 40
76.94560568245778
 40
76.94560568245778
 40
76.94560568245778
 40
76.94560568245778
 10
2902.990018669413
 20
3817.43892545131
 30
-0.0000000000000002
 10
2900.760038831466
 20
3816.647428193368
 30
-0.0000000000000002
 10
2896.693042268393
 20
3815.203909927886
 30
-0.0000000000000002
 10
2891.718658335718
 20
3812.420850754877
 30
-0.0000000000000002
 10
2888.544496514271
 20
3809.893943264127
 30
-0.0000000000000002
 10
2887.024734895686
 20
3807.406456881017
 30
-0.0000000000000002
 10
2886.877354723869
 20
3805.511317793161
 30
-0.0000000000000002
 10
2886.94771637898
 20
3803.947220806306
 30
-0.0000000000000002
 10
2887.630993563877
 20
3802.611261077204
 30
-0.0000000000000002
 10
2889.075332996007
 20
3801.441068983893
 30
-0.0000000000000002
 10
2890.437568277548
 20
3801.091780799931
 30
-0.0000000000000002
 10
2891.147706007878
 20
3800.978798378956
 30
-0.0000000000000002
  0
SPLINE
  5
292A
330
74
100
AcDbEntity
  8
AM_2 ( Kontur 0.25)
100
AcDbSpline
210
0.0
220
0.0
230
1.0
 70
     8
 71
     3
 72
    16
 73
    12
 74
     0
 42
0.0000000001
 43
0.0000000001
 40
0.0
 40
0.0
 40
0.0
 40
0.0
 40
15.15750207772487
 40
27.25697387011311
 40
34.43931065860861
 40
39.65009329418549
 40
44.56345646904475
 40
47.71213136306745
 40
54.82006013499383
 40
60.56606766894518
 40
71.55366046898641
 40
71.55366046898641
 40
71.55366046898641
 40
71.55366046898641
 10
2902.428704477848
 20
3813.513172402418
 30
-0.0000000000000002
 10
2900.667121669362
 20
3812.942554250493
 30
-0.0000000000000002
 10
2897.499355876898
 20
3811.916440318454
 30
-0.0000000000000002
 10
2894.027525718904
 20
3809.680080306857
 30
-0.0000000000000002
 10
2891.338711361172
 20
3808.13962932925
 30
-0.0000000000000002
 10
2890.706511244376
 20
3805.920207065338
 30
-0.0000000000000002
 10
2891.48095921665
 20
3804.361322195863
 30
-0.0000000000000002
 10
2893.042383980203
 20
3803.312282220298
 30
-0.0000000000000002
 10
2895.180123303164
 20
3803.371228931481
 30
-0.0000000000000002
 10
2897.668261883623
 20
3804.864167733659
 30
-0.0000000000000002
 10
2899.205707284546
 20
3806.264789910119
 30
-0.0000000000000002
 10
2900.010425337565
 20
3807.326142153327
 30
-0.0000000000000002
  0
SPLINE
  5
292B
330
74
100
AcDbEntity
  8
AM_2 ( Kontur 0.25)
100
AcDbSpline
210
0.0
220
0.0
230
1.0
 70
     8
 71
     3
 72
    10
 73
     6
 74
     4
 42
0.0000000001
 43
0.0000000001
 44
0.0000000001
 40
0.0
 40
0.0
 40
0.0
 40
0.0
 40
2.718288968096372
 40
5.367882505662905
 40
6.773806714623772
 40
6.773806714623772
 40
6.773806714623772
 40
6.773806714623772
 10
2900.010425337565
 20
3807.326142153327
 30
-0.0000000000000002
 10
2900.591836433756
 20
3808.023511747347
 30
-0.0000000000000002
 10
2901.739965454794
 20
3809.400627310722
 30
-0.0000000000000002
 10
2902.752760641265
 20
3811.452458208401
 30
-0.0000000000000002
 10
2903.105016188948
 20
3812.75825276674
 30
-0.0000000000000002
 10
2903.227132434808
 20
3813.210931881033
 30
-0.0000000000000002
 11
2900.010425337565
 21
3807.326142153327
 31
-0.0000000000000002
 11
2901.666047799448
 21
3809.482066358346
 31
-0.0000000000000002
 11
2902.830244723788
 21
3811.862190606294
 31
-0.0000000000000002
 11
2903.227132434808
 21
3813.210931881033
 31
-0.0000000000000002
  0
LINE
  5
292C
330
74
100
AcDbEntity
  8
AM_2 ( Kontur 0.25)
100
AcDbLine
 10
2902.428704477848
 20
3813.513172402418
 30
-0.0000000000000002
 11
2903.227132434808
 21
3813.210931881033
 31
-0.0000000000000002
  0
SPLINE
  5
292D
330
74
100
AcDbEntity
  8
AM_2 ( Kontur 0.25)
100
AcDbSpline
210
0.0
220
0.0
230
1.0
 70
     8
 71
     3
 72
    10
 73
     6
 74
     0
 42
0.0000000001
 43
0.0000000001
 40
0.0
 40
0.0
 40
0.0
 40
0.0
 40
6.720829269292407
 40
18.98594895565098
 40
32.53410848116109
 40
32.53410848116109
 40
32.53410848116109
 40
32.53410848116109
 10
2925.067908499991
 20
3820.10456159994
 30
-0.0000000000000002
 10
2924.906136207498
 20
3819.307299588725
 30
-0.0000000000000002
 10
2924.4491389584
 20
3817.05508111349
 30
-0.0000000000000002
 10
2923.821821805785
 20
3813.137429570474
 30
-0.0000000000000002
 10
2923.841220774368
 20
3810.047094326488
 30
-0.0000000000000002
 10
2923.771788576718
 20
3808.393284340503
 30
-0.0000000000000002
  0
LINE
  5
292E
330
74
100
AcDbEntity
  8
AM_2 ( Kontur 0.25)
100
AcDbLine
 10
2914.748968753573
 20
3805.68270116092
 30
-0.0000000000000002
 11
2912.058806206336
 21
3803.924966157959
 31
-0.0000000000000002
  0
LINE
  5
292F
330
74
100
AcDbEntity
  8
AM_2 ( Kontur 0.25)
100
AcDbLine
 10
2880.922739650827
 20
3822.692322381831
 30
-0.0000000000000002
 11
2877.90418036016
 21
3820.6012163816
 31
-0.0000000000000002
  0
LINE
  5
2930
330
74
100
AcDbEntity
  8
AM_2 ( Kontur 0.25)
100
AcDbLine
 10
2944.725213077367
 20
3805.804906458393
 30
-0.0000000000000002
 11
2944.072541134256
 21
3808.208368596381
 31
-0.0000000000000002
  0
SPLINE
  5
2931
330
74
100
AcDbEntity
  8
AM_2 ( Kontur 0.25)
100
AcDbSpline
210
0.0
220
0.0
230
1.0
 70
     8
 71
     3
 72
    15
 73
    11
 74
     0
 42
0.0000000001
 43
0.0000000001
 40
0.0
 40
0.0
 40
0.0
 40
0.0
 40
8.45925447378854
 40
19.20850535527661
 40
29.49452603167964
 40
33.294415627964
 40
35.23585065027483
 40
44.35486976400721
 40
55.46532870482259
 40
57.67055361541051
 40
57.67055361541051
 40
57.67055361541051
 40
57.67055361541051
 10
2934.878651849351
 20
3811.248335945859
 30
-0.0000000000000002
 10
2935.862202082415
 20
3811.535703063631
 30
-0.0000000000000002
 10
2938.095558458864
 20
3812.188230167264
 30
-0.0000000000000002
 10
2941.275025674785
 20
3813.999208793339
 30
-0.0000000000000002
 10
2943.219087152127
 20
3816.288732182691
 30
-0.0000000000000002
 10
2943.96173280853
 20
3818.273954007274
 30
-0.0000000000000002
 10
2942.909192882546
 20
3819.969752845881
 30
-0.0000000000000002
 10
2939.548024548424
 20
3818.198138854991
 30
-0.0000000000000002
 10
2937.762872390873
 20
3816.677086580225
 30
-0.0000000000000002
 10
2936.554172061957
 20
3815.58129744103
 30
-0.0000000000000002
 10
2936.362770489047
 20
3815.390446643137
 30
-0.0000000000000002
  0
SPLINE
  5
2932
330
74
100
AcDbEntity
  8
AM_2 ( Kontur 0.25)
100
AcDbSpline
210
0.0
220
0.0
230
1.0
 70
     8
 71
     3
 72
    11
 73
     7
 74
     5
 42
0.0000000001
 43
0.0000000001
 44
0.0000000001
 40
0.0
 40
0.0
 40
0.0
 40
0.0
 40
2.018643798839072
 40
3.172767832504444
 40
4.145369506852548
 40
4.801513932941567
 40
4.801513932941567
 40
4.801513932941567
 40
4.801513932941567
 10
2936.362770489047
 20
3815.390446643137
 30
-0.0000000000000002
 10
2935.872693449781
 20
3814.922993626869
 30
-0.0000000000000002
 10
2935.102423496
 20
3814.188282582715
 30
-0.0000000000000002
 10
2934.370984989551
 20
3813.014775087859
 30
-0.0000000000000002
 10
2933.925123794399
 20
3812.185277806975
 30
-0.0000000000000002
 10
2933.851934773151
 20
3811.643841072649
 30
-0.0000000000000002
 10
2933.822450393522
 20
3811.425721934734
 30
-0.0000000000000002
 11
2936.362770489047
 21
3815.390446643137
 31
-0.0000000000000002
 11
2934.97772763743
 21
3813.921917077286
 31
-0.0000000000000002
 11
2934.349121504664
 21
3812.954003540376
 31
-0.0000000000000002
 11
2933.941375561523
 21
3812.070998861568
 31
-0.0000000000000002
 11
2933.822450393522
 21
3811.425721934734
 31
-0.0000000000000002
  0
LINE
  5
2933
330
74
100
AcDbEntity
  8
AM_2 ( Kontur 0.25)
100
AcDbLine
 10
2934.878651849351
 20
3811.248335945859
 30
-0.0000000000000002
 11
2933.822450393522
 21
3811.425721934734
 31
-0.0000000000000002
  0
DIMENSION
  5
29F5
102
{ACAD_XDICTIONARY
360
2A02
102
}
102
{ACAD_REACTORS
330
2A03
102
}
330
74
100
AcDbEntity
  8
AM_5 ( Bemassung)
100
AcDbDimension
  2
*D14
 10
2740.066789613898
 20
4486.732675511293
 30
0.0
 11
2915.066789613898
 21
4499.885472237077
 31
0.0
 70
    32
 71
     5
 42
349.9999999999996
  3
AM_DIN$0
100
AcDbAlignedDimension
 13
3090.066789613898
 23
4419.73267439975
 33
-0.0000000000000002
 14
2740.066789613898
 24
4419.73267439975
 34
-0.0000000000000002
100
AcDbRotatedDimension
1001
ACAD
1000
DSTYLE
1002
{
1070
    40
1040
4.0
1002
}
1001
ACAD_DSTYLE_DIMINSPECT
1070
   396
1000
100%
1070
   395
1000

1070
   394
1070
    33
1070
   393
1070
     0
  0
DIMENSION
  5
2A16
102
{ACAD_XDICTIONARY
360
2A23
102
}
102
{ACAD_REACTORS
330
2A24
102
}
330
74
100
AcDbEntity
  8
AM_5 ( Bemassung)
100
AcDbDimension
  2
*D15
 10
3222.232772839321
 20
4085.732674399749
 30
0.0
 11
3209.079976113537
 21
4254.73267439975
 31
0.0
 70
    32
 71
     5
 42
338.0000000000014
  3
AM_DIN$0
100
AcDbAlignedDimension
 13
3090.066789613898
 23
4423.732674399751
 33
0.0
 14
3090.066789613898
 24
4085.732674399749
 34
0.0
 50
90.0
100
AcDbRotatedDimension
1001
ACAD
1000
DSTYLE
1002
{
1070
    40
1040
4.0
1002
}
1001
ACAD_DSTYLE_DIMINSPECT
1070
   396
1000
100%
1070
   395
1000

1070
   394
1070
    33
1070
   393
1070
     0
  0
DIMENSION
  5
2C12
102
{ACAD_XDICTIONARY
360
2C1F
102
}
102
{ACAD_REACTORS
330
2C20
102
}
330
74
100
AcDbEntity
  8
AM_5 ( Bemassung)
100
AcDbDimension
  2
*D21
 10
2985.066789613899
 20
4026.450324312298
 30
0.0
 11
2915.066789613899
 21
4026.450324312298
 31
0.0
 70
   160
  1
%%c <>
 71
     5
 42
140.0
  3
AM_DIN$0
100
AcDbAlignedDimension
 13
2845.066789613899
 23
4085.732674399749
 33
-0.0000000000000002
 14
2985.066789613899
 24
4085.732674399749
 34
-0.0000000000000002
 50
0.0000000000001132
100
AcDbRotatedDimension
1001
ACAD
1000
DSTYLE
1002
{
1070
    40
1040
4.0
1002
}
1001
ACAD_DSTYLE_DIMINSPECT
1070
   396
1000
100%
1070
   395
1000

1070
   394
1070
    33
1070
   393
1070
     0
  0
ENDSEC
  0
SECTION
  2
OBJECTS
  0
DICTIONARY
  5
C
330
0
100
AcDbDictionary
281
     1
  3
ACAD_2007HEADERVARS_RT
350
321E
  3
ACAD_COLOR
350
6A
  3
ACAD_GROUP
350
D
  3
ACAD_LAYOUT
350
69
  3
ACAD_MATERIAL
350
10
  3
ACAD_MLEADERSTYLE
350
6D
  3
ACAD_MLINESTYLE
350
66
  3
ACAD_PLOTSETTINGS
350
68
  3
ACAD_PLOTSTYLENAME
350
E
  3
ACAD_SCALELIST
350
3A
  3
ACAD_TABLESTYLE
350
6B
  3
ACAD_VISUALSTYLE
350
29
  3
ACDB_RECOMPOSE_DATA
350
1B4
  3
AcDbVariableDictionary
350
1C9
  3
AcmDictionary
350
166
  3
AMG
350
10C
  3
AMGSNAPSETTINGS
350
19B
  3
ASE_INDEX_DICTIONARY
350
321B
  0
DICTIONARY
  5
1B6
330
8
100
AcDbDictionary
280
     1
281
     1
  0
DICTIONARY
  5
256
330
2
100
AcDbDictionary
280
     1
281
     1
  3
AMLAYER_GROUPCOLORS
360
257
  0
DICTIONARY
  5
1A2
330
5C
100
AcDbDictionary
280
     1
281
     1
  3
ADSK_XREC_LAYER_RECONCILED
360
D41
  0
DICTIONARY
  5
2C7
330
27F
100
AcDbDictionary
280
     1
281
     1
  3
ADSK_XREC_LAYER_RECONCILED
360
D4D
  0
DICTIONARY
  5
2C9
330
2AA
100
AcDbDictionary
280
     1
281
     1
  3
ADSK_XREC_LAYER_RECONCILED
360
D4E
  0
DICTIONARY
  5
2CB
330
2AC
100
AcDbDictionary
280
     1
281
     1
  3
ADSK_XREC_LAYER_RECONCILED
360
D4F
  0
DICTIONARY
  5
2CD
330
2AE
100
AcDbDictionary
280
     1
281
     1
  3
ADSK_XREC_LAYER_RECONCILED
360
D50
  0
DICTIONARY
  5
2CF
330
2B1
100
AcDbDictionary
280
     1
281
     1
  3
ADSK_XREC_LAYER_RECONCILED
360
D51
  0
DICTIONARY
  5
A1F
330
9FC
100
AcDbDictionary
280
     1
281
     1
  3
ADSK_XREC_LAYER_RECONCILED
360
D54
  0
DICTIONARY
  5
A88
330
74
100
AcDbDictionary
280
     1
281
     1
  3
ACAD_SORTENTS
360
A89
  0
DICTIONARY
  5
2A02
330
29F5
100
AcDbDictionary
280
     1
281
     1
  3
ACAD_DIMASSOC
360
2A03
  0
DICTIONARY
  5
2A23
330
2A16
100
AcDbDictionary
280
     1
281
     1
  3
ACAD_DIMASSOC
360
2A24
  0
DICTIONARY
  5
2C1F
330
2C12
100
AcDbDictionary
280
     1
281
     1
  3
ACAD_DIMASSOC
360
2C20
  0
DICTIONARY
  5
321E
102
{ACAD_REACTORS
330
C
102
}
330
C
100
AcDbDictionary
281
     1
  3
DIMARCSYM
350
321F
  0
DICTIONARY
  5
6A
102
{ACAD_REACTORS
330
C
102
}
330
C
100
AcDbDictionary
281
     1
  0
DICTIONARY
  5
D
102
{ACAD_REACTORS
330
C
102
}
330
C
100
AcDbDictionary
281
     1
  0
DICTIONARY
  5
69
102
{ACAD_REACTORS
330
C
102
}
330
C
100
AcDbDictionary
281
     1
  3
Layout1
350
73
  3
Model
350
77
  0
DICTIONARY
  5
10
102
{ACAD_REACTORS
330
C
102
}
330
C
100
AcDbDictionary
281
     1
  3
ByBlock
350
19
  3
ByLayer
350
11
  3
Global
350
21
  0
DICTIONARY
  5
6D
102
{ACAD_REACTORS
330
C
102
}
330
C
100
AcDbDictionary
281
     1
  3
Standard
350
6E
  0
DICTIONARY
  5
66
102
{ACAD_REACTORS
330
C
102
}
330
C
100
AcDbDictionary
281
     1
  3
Standard
350
67
  0
DICTIONARY
  5
68
102
{ACAD_REACTORS
330
C
102
}
330
C
100
AcDbDictionary
281
     1
  0
ACDBDICTIONARYWDFLT
  5
E
102
{ACAD_REACTORS
330
C
102
}
330
C
100
AcDbDictionary
281
     1
  3
Normal
350
F
100
AcDbDictionaryWithDefault
340
F
  0
DICTIONARY
  5
3A
102
{ACAD_REACTORS
330
C
102
}
330
C
100
AcDbDictionary
281
     1
  3
*A1
350
1153
  3
A0
350
3B
  3
A1
350
3C
  3
A2
350
3D
  3
A3
350
3E
  3
A4
350
3F
  3
A5
350
40
  3
A6
350
41
  3
A7
350
42
  3
A8
350
43
  3
A9
350
44
  3
B0
350
45
  3
B1
350
46
  3
B2
350
47
  3
B3
350
48
  3
B4
350
49
  3
B5
350
4A
  3
B6
350
4B
  3
B7
350
4C
  3
B8
350
4D
  3
B9
350
4E
  3
C0
350
4F
  3
C1
350
50
  3
C2
350
51
  3
C3
350
52
  3
C4
350
53
  3
C5
350
54
  3
C6
350
55
  3
C7
350
56
  3
C8
350
57
  3
C9
350
58
  3
D0
350
59
  3
D1
350
5A
  3
D2
350
5B
  0
DICTIONARY
  5
6B
102
{ACAD_REACTORS
330
C
102
}
330
C
100
AcDbDictionary
281
     1
  3
Standard
350
6C
  0
DICTIONARY
  5
29
102
{ACAD_REACTORS
330
C
102
}
330
C
100
AcDbDictionary
281
     1
  3
2dWireframe
350
2F
  3
3D Hidden
350
31
  3
3dWireframe
350
30
  3
Basic
350
2E
  3
Brighten
350
35
  3
ColorChange
350
39
  3
Conceptual
350
32
  3
Dim
350
34
  3
Facepattern
350
38
  3
Flat
350
2A
  3
FlatWithEdges
350
2B
  3
Gouraud
350
2C
  3
GouraudWithEdges
350
2D
  3
Linepattern
350
37
  3
Realistic
350
33
  3
Thicken
350
36
  0
XRECORD
  5
1B4
102
{ACAD_REACTORS
330
C
102
}
330
C
100
AcDbXrecord
280
     1
 90
        1
330
6C
  0
DICTIONARY
  5
1C9
102
{ACAD_REACTORS
330
C
102
}
330
C
100
AcDbDictionary
281
     1
  3
CANNOSCALE
350
1CC
  3
CMLEADERSTYLE
350
1CB
  3
CTABLESTYLE
350
1CA
  3
DIMASSOC
350
1CF
  3
INDEXCTL
350
1CE
  3
LIGHTINGUNITS
350
2D3
  3
MSLTSCALE
350
2D2
  3
SORTENTS
350
1CD
  0
DICTIONARY
  5
166
102
{ACAD_REACTORS
330
C
102
}
330
C
100
AcDbDictionary
281
     1
  3
AcmBOM
350
2B6
  3
AcmStdDictionary
350
171
  3
AMDTSECTSYM_ARROWCOLOR
350
186
  0
DICTIONARY
  5
10C
102
{ACAD_REACTORS
330
C
102
}
330
C
100
AcDbDictionary
281
     1
  0
DICTIONARY
  5
19B
102
{ACAD_REACTORS
330
C
102
}
330
C
100
AcDbDictionary
281
     1
  0
DICTIONARY
  5
321B
102
{ACAD_REACTORS
330
C
102
}
330
C
100
AcDbDictionary
281
     1
  3
ASEBlockHierarchyIndexRecord
350
321C
1001
DCO15
1040
1634624604.908
  0
DICTIONARY
  5
257
102
{ACAD_REACTORS
330
256
102
}
330
256
100
AcDbDictionary
280
     1
281
     1
  0
XRECORD
  5
D41
102
{ACAD_REACTORS
330
1A2
102
}
330
1A2
100
AcDbXrecord
280
     1
290
     1
  0
XRECORD
  5
D4D
102
{ACAD_REACTORS
330
2C7
102
}
330
2C7
100
AcDbXrecord
280
     1
290
     1
  0
XRECORD
  5
D4E
102
{ACAD_REACTORS
330
2C9
102
}
330
2C9
100
AcDbXrecord
280
     1
290
     1
  0
XRECORD
  5
D4F
102
{ACAD_REACTORS
330
2CB
102
}
330
2CB
100
AcDbXrecord
280
     1
290
     1
  0
XRECORD
  5
D50
102
{ACAD_REACTORS
330
2CD
102
}
330
2CD
100
AcDbXrecord
280
     1
290
     1
  0
XRECORD
  5
D51
102
{ACAD_REACTORS
330
2CF
102
}
330
2CF
100
AcDbXrecord
280
     1
290
     1
  0
XRECORD
  5
D54
102
{ACAD_REACTORS
330
A1F
102
}
330
A1F
100
AcDbXrecord
280
     1
290
     1
  0
SORTENTSTABLE
  5
A89
102
{ACAD_REACTORS
330
A88
102
}
330
A88
100
AcDbSortentsTable
330
74
  0
DIMASSOC
  5
2A03
102
{ACAD_REACTORS
330
2A02
102
}
330
2A02
100
AcDbDimAssoc
330
29F5
 90
        3
 70
     0
 71
     0
  1
AcDbOsnapPointRef
 72
     6
331
1F05
 73
     0
 91
        0
 40
1.0
 10
0.0
 20
0.0
 30
0.0
332
1F07
 74
     0
 92
        0
 75
     0
  1
AcDbOsnapPointRef
 72
     6
331
1F05
 73
     0
 91
        0
 40
0.0
 10
0.0
 20
0.0
 30
0.0
332
1F08
 74
     0
 92
        0
 75
     0
  0
DIMASSOC
  5
2A24
102
{ACAD_REACTORS
330
2A23
102
}
330
2A23
100
AcDbDimAssoc
330
2A16
 90
        2
 70
     0
 71
     0
  1
AcDbOsnapPointRef
 72
     6
331
1F48
 73
     0
 91
        0
 40
0.0
 10
0.0
 20
0.0
 30
0.0
332
1F49
 74
     0
 92
        0
 75
     0
  0
DIMASSOC
  5
2C20
102
{ACAD_REACTORS
330
2C1F
102
}
330
2C1F
100
AcDbDimAssoc
330
2C12
 90
        3
 70
     0
 71
     0
  1
AcDbOsnapPointRef
 72
     6
331
1F41
 73
     0
 91
        0
 40
0.0
 10
0.0
 20
0.0
 30
0.0
332
1F49
 74
     0
 92
        0
 75
     0
  1
AcDbOsnapPointRef
 72
     6
331
1F42
 73
     0
 91
        0
 40
0.0
 10
0.0
 20
0.0
 30
0.0
332
1F49
 74
     0
 92
        0
 75
     0
  0
XRECORD
  5
321F
102
{ACAD_REACTORS
330
321E
102
}
330
321E
100
AcDbXrecord
280
     1
 70
     1
  0
LAYOUT
  5
73
102
{ACAD_REACTORS
330
69
102
}
330
69
100
AcDbPlotSettings
  1

  2
\\OASE42\HP DesignJet 500 42+HPGL2 Card
  4

  6

 40
0.0
 41
0.0
 42
0.0
 43
0.0
 44
0.0
 45
0.0
 46
0.0
 47
0.0
 48
0.0
 49
0.0
140
0.0
141
0.0
142
1.0
143
1.0
 70
   688
 72
     0
 73
     0
 74
     5
  7
C:\Dokumente und Einstellungen\guzb562\Anwendungsdaten\Autodesk\Autodesk Mechanical Desktop 2008\R17.1\deu\Plot Styles\OASE.ctb
 75
    16
147
1.0
 76
     0
 77
     2
 78
   300
148
0.0
149
0.0
100
AcDbLayout
  1
Layout1
 70
     1
 71
     1
 10
0.0
 20
0.0
 11
12.0
 21
9.0
 12
0.0
 22
0.0
 32
0.0
 14
1.000000000000000E+20
 24
1.000000000000000E+20
 34
1.000000000000000E+20
 15
-1.000000000000000E+20
 25
-1.000000000000000E+20
 35
-1.000000000000000E+20
146
0.0
 13
0.0
 23
0.0
 33
0.0
 16
1.0
 26
0.0
 36
0.0
 17
0.0
 27
1.0
 37
0.0
 76
     0
330
70
  0
LAYOUT
  5
77
102
{ACAD_REACTORS
330
69
102
}
330
69
100
AcDbPlotSettings
  1

  2
HP DesignJet 500 42+HPGL2 Card.pc3
  4
User622
  6

 40
0.0
 41
0.0845947265625
 42
0.084716796875
 43
0.0
 44
841.0786743164063
 45
1189.05859375
 46
0.0
 47
0.0
 48
0.0
 49
0.0
140
0.0
141
0.0
142
1.0
143
8.825566186707652
 70
 11952
 72
     1
 73
     1
 74
     0
  7
C:\Dokumente und Einstellungen\guzb562\Anwendungsdaten\Autodesk\Autodesk Mechanical Desktop 2008\R17.1\deu\Plot Styles\OASE.ctb
 75
     0
147
0.1133071781282563
 76
     0
 77
     2
 78
   300
148
375.8176034259132
149
23.23337679269889
100
AcDbLayout
  1
Model
 70
     1
 71
     0
 10
0.0
 20
0.0
 11
12.0
 21
9.0
 12
0.0
 22
0.0
 32
0.0
 14
0.0
 24
0.0
 34
0.0
 15
0.0
 25
0.0
 35
0.0
146
0.0
 13
0.0
 23
0.0
 33
0.0
 16
1.0
 26
0.0
 36
0.0
 17
0.0
 27
1.0
 37
0.0
 76
     0
330
74
331
82
1001
ACAD_PSEXT
1000
HP DesignJet 500 42+HPGL2 Card.pc3
1000
HP DesignJet 500 42+HPGL2 Card
1000
\\oase42
1000

1070
     0
  0
MATERIAL
  5
19
102
{ACAD_XDICTIONARY
360
1A
102
}
102
{ACAD_REACTORS
330
10
102
}
330
10
100
AcDbMaterial
  1
ByBlock
 72
     0
 43
0.0208333333333333
 43
0.0
 43
0.0
 43
0.0
 43
0.0
 43
0.0208333333333333
 43
0.0
 43
0.0
 43
0.0
 43
0.0
 43
1.0
 43
0.0
 43
0.0
 43
0.0
 43
0.0
 43
1.0
 77
     0
 47
0.0208333333333333
 47
0.0
 47
0.0
 47
0.0
 47
0.0
 47
0.0208333333333333
 47
0.0
 47
0.0
 47
0.0
 47
0.0
 47
1.0
 47
0.0
 47
0.0
 47
0.0
 47
0.0
 47
1.0
171
     0
 49
0.0208333333333333
 49
0.0
 49
0.0
 49
0.0
 49
0.0
 49
0.0208333333333333
 49
0.0
 49
0.0
 49
0.0
 49
0.0
 49
1.0
 49
0.0
 49
0.0
 49
0.0
 49
0.0
 49
1.0
175
     0
142
0.0208333333333333
142
0.0
142
0.0
142
0.0
142
0.0
142
0.0208333333333333
142
0.0
142
0.0
142
0.0
142
0.0
142
1.0
142
0.0
142
0.0
142
0.0
142
0.0
142
1.0
179
     0
144
0.0208333333333333
144
0.0
144
0.0
144
0.0
144
0.0
144
0.0208333333333333
144
0.0
144
0.0
144
0.0
144
0.0
144
1.0
144
0.0
144
0.0
144
0.0
144
0.0
144
1.0
147
0.0208333333333333
147
0.0
147
0.0
147
0.0
147
0.0
147
0.0208333333333333
147
0.0
147
0.0
147
0.0
147
0.0
147
1.0
147
0.0
147
0.0
147
0.0
147
0.0
147
1.0
  0
MATERIAL
  5
11
102
{ACAD_XDICTIONARY
360
12
102
}
102
{ACAD_REACTORS
330
10
102
}
330
10
100
AcDbMaterial
  1
ByLayer
 72
     0
 43
0.0208333333333333
 43
0.0
 43
0.0
 43
0.0
 43
0.0
 43
0.0208333333333333
 43
0.0
 43
0.0
 43
0.0
 43
0.0
 43
1.0
 43
0.0
 43
0.0
 43
0.0
 43
0.0
 43
1.0
 77
     0
 47
0.0208333333333333
 47
0.0
 47
0.0
 47
0.0
 47
0.0
 47
0.0208333333333333
 47
0.0
 47
0.0
 47
0.0
 47
0.0
 47
1.0
 47
0.0
 47
0.0
 47
0.0
 47
0.0
 47
1.0
171
     0
 49
0.0208333333333333
 49
0.0
 49
0.0
 49
0.0
 49
0.0
 49
0.0208333333333333
 49
0.0
 49
0.0
 49
0.0
 49
0.0
 49
1.0
 49
0.0
 49
0.0
 49
0.0
 49
0.0
 49
1.0
175
     0
142
0.0208333333333333
142
0.0
142
0.0
142
0.0
142
0.0
142
0.0208333333333333
142
0.0
142
0.0
142
0.0
142
0.0
142
1.0
142
0.0
142
0.0
142
0.0
142
0.0
142
1.0
179
     0
144
0.0208333333333333
144
0.0
144
0.0
144
0.0
144
0.0
144
0.0208333333333333
144
0.0
144
0.0
144
0.0
144
0.0
144
1.0
144
0.0
144
0.0
144
0.0
144
0.0
144
1.0
147
0.0208333333333333
147
0.0
147
0.0
147
0.0
147
0.0
147
0.0208333333333333
147
0.0
147
0.0
147
0.0
147
0.0
147
1.0
147
0.0
147
0.0
147
0.0
147
0.0
147
1.0
  0
MATERIAL
  5
21
102
{ACAD_XDICTIONARY
360
22
102
}
102
{ACAD_REACTORS
330
10
102
}
330
10
100
AcDbMaterial
  1
Global
 72
     0
 43
0.0208333333333333
 43
0.0
 43
0.0
 43
0.0
 43
0.0
 43
0.0208333333333333
 43
0.0
 43
0.0
 43
0.0
 43
0.0
 43
1.0
 43
0.0
 43
0.0
 43
0.0
 43
0.0
 43
1.0
 77
     0
 47
0.0208333333333333
 47
0.0
 47
0.0
 47
0.0
 47
0.0
 47
0.0208333333333333
 47
0.0
 47
0.0
 47
0.0
 47
0.0
 47
1.0
 47
0.0
 47
0.0
 47
0.0
 47
0.0
 47
1.0
171
     0
 49
0.0208333333333333
 49
0.0
 49
0.0
 49
0.0
 49
0.0
 49
0.0208333333333333
 49
0.0
 49
0.0
 49
0.0
 49
0.0
 49
1.0
 49
0.0
 49
0.0
 49
0.0
 49
0.0
 49
1.0
175
     0
142
0.0208333333333333
142
0.0
142
0.0
142
0.0
142
0.0
142
0.0208333333333333
142
0.0
142
0.0
142
0.0
142
0.0
142
1.0
142
0.0
142
0.0
142
0.0
142
0.0
142
1.0
179
     0
144
0.0208333333333333
144
0.0
144
0.0
144
0.0
144
0.0
144
0.0208333333333333
144
0.0
144
0.0
144
0.0
144
0.0
144
1.0
144
0.0
144
0.0
144
0.0
144
0.0
144
1.0
147
0.0208333333333333
147
0.0
147
0.0
147
0.0
147
0.0
147
0.0208333333333333
147
0.0
147
0.0
147
0.0
147
0.0
147
1.0
147
0.0
147
0.0
147
0.0
147
0.0
147
1.0
  0
MLEADERSTYLE
  5
6E
102
{ACAD_REACTORS
330
6D
102
}
330
6D
100
AcDbMLeaderStyle
170
     2
171
     1
172
     0
 90
        2
 40
0.0
 41
0.0
173
     1
 91
-1056964608
340
62
 92
       -2
290
     1
 42
0.09
291
     1
 43
0.36
  3
Standard
 44
0.18
300

342
5D
174
     1
178
     6
175
     1
176
     0
 93
-1056964608
 45
0.18
292
     0
297
     0
 46
0.18
 94
-1056964608
 47
1.0
 49
1.0
140
1.0
293
     1
141
0.0
294
     1
177
     0
142
1.0
295
     0
296
     0
143
0.125
1001
ACAD_MLEADERVER
1070
     2
  0
MLINESTYLE
  5
67
102
{ACAD_REACTORS
330
66
102
}
330
66
100
AcDbMlineStyle
  2
STANDARD
 70
     0
  3

 62
   256
 51
90.0
 52
90.0
 71
     2
 49
0.5
 62
   256
  6
BYLAYER
 49
-0.5
 62
   256
  6
BYLAYER
  0
ACDBPLACEHOLDER
  5
F
102
{ACAD_REACTORS
330
E
102
}
330
E
  0
SCALE
  5
1153
102
{ACAD_REACTORS
330
3A
102
}
330
3A
100
AcDbScale
 70
     0
300
1:2.5
140
1.0
141
2.5
290
     0
  0
SCALE
  5
3B
102
{ACAD_REACTORS
330
3A
102
}
330
3A
100
AcDbScale
 70
     0
300
1:1
140
1.0
141
1.0
290
     1
  0
SCALE
  5
3C
102
{ACAD_REACTORS
330
3A
102
}
330
3A
100
AcDbScale
 70
     0
300
1:2
140
1.0
141
2.0
290
     0
  0
SCALE
  5
3D
102
{ACAD_REACTORS
330
3A
102
}
330
3A
100
AcDbScale
 70
     0
300
1:4
140
1.0
141
4.0
290
     0
  0
SCALE
  5
3E
102
{ACAD_REACTORS
330
3A
102
}
330
3A
100
AcDbScale
 70
     0
300
1:5
140
1.0
141
5.0
290
     0
  0
SCALE
  5
3F
102
{ACAD_REACTORS
330
3A
102
}
330
3A
100
AcDbScale
 70
     0
300
1:8
140
1.0
141
8.0
290
     0
  0
SCALE
  5
40
102
{ACAD_REACTORS
330
3A
102
}
330
3A
100
AcDbScale
 70
     0
300
1:10
140
1.0
141
10.0
290
     0
  0
SCALE
  5
41
102
{ACAD_REACTORS
330
3A
102
}
330
3A
100
AcDbScale
 70
     0
300
1:16
140
1.0
141
16.0
290
     0
  0
SCALE
  5
42
102
{ACAD_REACTORS
330
3A
102
}
330
3A
100
AcDbScale
 70
     0
300
1:20
140
1.0
141
20.0
290
     0
  0
SCALE
  5
43
102
{ACAD_REACTORS
330
3A
102
}
330
3A
100
AcDbScale
 70
     0
300
1:30
140
1.0
141
30.0
290
     0
  0
SCALE
  5
44
102
{ACAD_REACTORS
330
3A
102
}
330
3A
100
AcDbScale
 70
     0
300
1:40
140
1.0
141
40.0
290
     0
  0
SCALE
  5
45
102
{ACAD_REACTORS
330
3A
102
}
330
3A
100
AcDbScale
 70
     0
300
1:50
140
1.0
141
50.0
290
     0
  0
SCALE
  5
46
102
{ACAD_REACTORS
330
3A
102
}
330
3A
100
AcDbScale
 70
     0
300
1:100
140
1.0
141
100.0
290
     0
  0
SCALE
  5
47
102
{ACAD_REACTORS
330
3A
102
}
330
3A
100
AcDbScale
 70
     0
300
2:1
140
2.0
141
1.0
290
     0
  0
SCALE
  5
48
102
{ACAD_REACTORS
330
3A
102
}
330
3A
100
AcDbScale
 70
     0
300
4:1
140
4.0
141
1.0
290
     0
  0
SCALE
  5
49
102
{ACAD_REACTORS
330
3A
102
}
330
3A
100
AcDbScale
 70
     0
300
8:1
140
8.0
141
1.0
290
     0
  0
SCALE
  5
4A
102
{ACAD_REACTORS
330
3A
102
}
330
3A
100
AcDbScale
 70
     0
300
10:1
140
10.0
141
1.0
290
     0
  0
SCALE
  5
4B
102
{ACAD_REACTORS
330
3A
102
}
330
3A
100
AcDbScale
 70
     0
300
100:1
140
100.0
141
1.0
290
     0
  0
SCALE
  5
4C
102
{ACAD_REACTORS
330
3A
102
}
330
3A
100
AcDbScale
 70
     0
300
1/128" = 1'-0"
140
0.0078125
141
12.0
290
     0
  0
SCALE
  5
4D
102
{ACAD_REACTORS
330
3A
102
}
330
3A
100
AcDbScale
 70
     0
300
1/64" = 1'-0"
140
0.015625
141
12.0
290
     0
  0
SCALE
  5
4E
102
{ACAD_REACTORS
330
3A
102
}
330
3A
100
AcDbScale
 70
     0
300
1/32" = 1'-0"
140
0.03125
141
12.0
290
     0
  0
SCALE
  5
4F
102
{ACAD_REACTORS
330
3A
102
}
330
3A
100
AcDbScale
 70
     0
300
1/16" = 1'-0"
140
0.0625
141
12.0
290
     0
  0
SCALE
  5
50
102
{ACAD_REACTORS
330
3A
102
}
330
3A
100
AcDbScale
 70
     0
300
3/32" = 1'-0"
140
0.09375
141
12.0
290
     0
  0
SCALE
  5
51
102
{ACAD_REACTORS
330
3A
102
}
330
3A
100
AcDbScale
 70
     0
300
1/8" = 1'-0"
140
0.125
141
12.0
290
     0
  0
SCALE
  5
52
102
{ACAD_REACTORS
330
3A
102
}
330
3A
100
AcDbScale
 70
     0
300
3/16" = 1'-0"
140
0.1875
141
12.0
290
     0
  0
SCALE
  5
53
102
{ACAD_REACTORS
330
3A
102
}
330
3A
100
AcDbScale
 70
     0
300
1/4" = 1'-0"
140
0.25
141
12.0
290
     0
  0
SCALE
  5
54
102
{ACAD_REACTORS
330
3A
102
}
330
3A
100
AcDbScale
 70
     0
300
3/8" = 1'-0"
140
0.375
141
12.0
290
     0
  0
SCALE
  5
55
102
{ACAD_REACTORS
330
3A
102
}
330
3A
100
AcDbScale
 70
     0
300
1/2" = 1'-0"
140
0.5
141
12.0
290
     0
  0
SCALE
  5
56
102
{ACAD_REACTORS
330
3A
102
}
330
3A
100
AcDbScale
 70
     0
300
3/4" = 1'-0"
140
0.75
141
12.0
290
     0
  0
SCALE
  5
57
102
{ACAD_REACTORS
330
3A
102
}
330
3A
100
AcDbScale
 70
     0
300
1" = 1'-0"
140
1.0
141
12.0
290
     0
  0
SCALE
  5
58
102
{ACAD_REACTORS
330
3A
102
}
330
3A
100
AcDbScale
 70
     0
300
1-1/2" = 1'-0"
140
1.5
141
12.0
290
     0
  0
SCALE
  5
59
102
{ACAD_REACTORS
330
3A
102
}
330
3A
100
AcDbScale
 70
     0
300
3" = 1'-0"
140
3.0
141
12.0
290
     0
  0
SCALE
  5
5A
102
{ACAD_REACTORS
330
3A
102
}
330
3A
100
AcDbScale
 70
     0
300
6" = 1'-0"
140
6.0
141
12.0
290
     0
  0
SCALE
  5
5B
102
{ACAD_REACTORS
330
3A
102
}
330
3A
100
AcDbScale
 70
     0
300
1'-0" = 1'-0"
140
12.0
141
12.0
290
     0
  0
TABLESTYLE
  5
6C
102
{ACAD_XDICTIONARY
360
1B2
102
}
102
{ACAD_REACTORS
330
6B
102
}
330
6B
100
AcDbTableStyle
  3
Standard
 70
     0
 71
     0
 40
0.06
 41
0.06
280
     0
281
     0
  7
STANDARD
140
0.18
170
     2
 62
     0
 63
     7
283
     0
274
    -2
284
     1
 64
     0
275
    -2
285
     1
 65
     0
276
    -2
286
     1
 66
     0
277
    -2
287
     1
 67
     0
278
    -2
288
     1
 68
     0
279
    -2
289
     1
 69
     0
  7
STANDARD
140
0.25
170
     5
 62
     0
 63
     7
283
     0
274
    -2
284
     1
 64
     0
275
    -2
285
     1
 65
     0
276
    -2
286
     1
 66
     0
277
    -2
287
     1
 67
     0
278
    -2
288
     1
 68
     0
279
    -2
289
     1
 69
     0
  7
STANDARD
140
0.18
170
     5
 62
     0
 63
     7
283
     0
274
    -2
284
     1
 64
     0
275
    -2
285
     1
 65
     0
276
    -2
286
     1
 66
     0
277
    -2
287
     1
 67
     0
278
    -2
288
     1
 68
     0
279
    -2
289
     1
 69
     0
  0
VISUALSTYLE
  5
2F
102
{ACAD_REACTORS
330
29
102
}
330
29
100
AcDbVisualStyle
  2
2dWireframe
 70
     4
 71
     0
 72
     2
 73
     0
 90
        0
 40
-0.6
 41
-30.0
 62
     5
 63
     7
 74
     1
 91
        4
 64
     7
 65
   257
 75
     1
175
     1
 42
1.0
 92
        0
 66
   257
 43
1.0
 76
     1
 77
     6
 78
     2
 67
     7
 79
     5
170
     0
171
     0
290
     0
174
     0
 93
        1
 44
0.0
173
     0
291
     0
 45
0.0
1001
ACAD
1000
AcDbSavedByObjectVersion
1070
     0
1000
AcDbSavedByObjectVersion
1070
     0
  0
VISUALSTYLE
  5
31
102
{ACAD_REACTORS
330
29
102
}
330
29
100
AcDbVisualStyle
  2
3D Hidden
 70
     6
 71
     1
 72
     2
 73
     2
 90
        0
 40
-0.6
 41
-30.0
 62
     5
 63
     7
 74
     2
 91
        2
 64
     7
 65
   257
 75
     2
175
     1
 42
40.0
 92
        0
 66
   257
 43
1.0
 76
     1
 77
     6
 78
     2
 67
     7
 79
     3
170
     0
171
     0
290
     0
174
     0
 93
        1
 44
0.0
173
     0
291
     0
 45
0.0
1001
ACAD
1000
AcDbSavedByObjectVersion
1070
     0
1000
AcDbSavedByObjectVersion
1070
     0
  0
VISUALSTYLE
  5
30
102
{ACAD_REACTORS
330
29
102
}
330
29
100
AcDbVisualStyle
  2
3dWireframe
 70
     5
 71
     0
 72
     2
 73
     0
 90
        0
 40
-0.6
 41
-30.0
 62
     5
 63
     7
 74
     1
 91
        4
 64
     7
 65
   257
 75
     1
175
     1
 42
1.0
 92
        0
 66
   257
 43
1.0
 76
     1
 77
     6
 78
     2
 67
     7
 79
     5
170
     0
171
     0
290
     0
174
     0
 93
        1
 44
0.0
173
     0
291
     0
 45
0.0
1001
ACAD
1000
AcDbSavedByObjectVersion
1070
     0
1000
AcDbSavedByObjectVersion
1070
     0
  0
VISUALSTYLE
  5
2E
102
{ACAD_REACTORS
330
29
102
}
330
29
100
AcDbVisualStyle
  2
Basic
 70
     7
 71
     1
 72
     0
 73
     1
 90
        0
 40
-0.6
 41
-30.0
 62
     5
 63
     7
 74
     0
 91
        4
 64
     7
 65
   257
 75
     1
175
     1
 42
1.0
 92
        8
 66
     7
 43
1.0
 76
     1
 77
     6
 78
     2
 67
     7
 79
     5
170
     0
171
     0
290
     0
174
     0
 93
        1
 44
0.0
173
     0
291
     1
 45
0.0
1001
ACAD
1000
AcDbSavedByObjectVersion
1070
     0
1000
AcDbSavedByObjectVersion
1070
     0
  0
VISUALSTYLE
  5
35
102
{ACAD_REACTORS
330
29
102
}
330
29
100
AcDbVisualStyle
  2
Brighten
 70
    12
 71
     2
 72
     2
 73
     0
 90
        0
 40
-0.6
 41
-30.0
 62
     5
 63
     7
 74
     1
 91
        4
 64
     7
 65
   257
 75
     1
175
     1
 42
1.0
 92
        8
 66
     7
 43
1.0
 76
     1
 77
     6
 78
     2
 67
     7
 79
     5
170
     0
171
     0
290
     0
174
     0
 93
        1
 44
50.0
173
     0
291
     1
 45
0.0
1001
ACAD
1000
AcDbSavedByObjectVersion
1070
     0
1000
AcDbSavedByObjectVersion
1070
     0
  0
VISUALSTYLE
  5
39
102
{ACAD_REACTORS
330
29
102
}
330
29
100
AcDbVisualStyle
  2
ColorChange
 70
    16
 71
     2
 72
     2
 73
     3
 90
        0
 40
-0.6
 41
-30.0
 62
     5
 63
     8
 74
     1
 91
        4
 64
     7
 65
   257
 75
     1
175
     1
 42
1.0
 92
        8
 66
     8
 43
1.0
 76
     1
 77
     6
 78
     2
 67
     7
 79
     5
170
     0
171
     0
290
     0
174
     0
 93
        1
 44
0.0
173
     0
291
     1
 45
0.0
1001
ACAD
1000
AcDbSavedByObjectVersion
1070
     0
1000
AcDbSavedByObjectVersion
1070
     0
  0
VISUALSTYLE
  5
32
102
{ACAD_REACTORS
330
29
102
}
330
29
100
AcDbVisualStyle
  2
Conceptual
 70
     9
 71
     3
 72
     2
 73
     0
 90
        0
 40
-0.6
 41
-30.0
 62
     5
 63
     7
 74
     2
 91
        2
 64
     7
 65
   257
 75
     1
175
     1
 42
40.0
 92
        8
 66
     7
 43
1.0
 76
     1
 77
     6
 78
     2
 67
     7
 79
     3
170
     0
171
     0
290
     0
174
     0
 93
        1
 44
0.0
173
     0
291
     0
 45
0.0
1001
ACAD
1000
AcDbSavedByObjectVersion
1070
     0
1000
AcDbSavedByObjectVersion
1070
     0
  0
VISUALSTYLE
  5
34
102
{ACAD_REACTORS
330
29
102
}
330
29
100
AcDbVisualStyle
  2
Dim
 70
    11
 71
     2
 72
     2
 73
     0
 90
        0
 40
-0.6
 41
-30.0
 62
     5
 63
     7
 74
     1
 91
        4
 64
     7
 65
   257
 75
     1
175
     1
 42
1.0
 92
        8
 66
     7
 43
1.0
 76
     1
 77
     6
 78
     2
 67
     7
 79
     5
170
     0
171
     0
290
     0
174
     0
 93
        1
 44
-50.0
173
     0
291
     1
 45
0.0
1001
ACAD
1000
AcDbSavedByObjectVersion
1070
     0
1000
AcDbSavedByObjectVersion
1070
     0
  0
VISUALSTYLE
  5
38
102
{ACAD_REACTORS
330
29
102
}
330
29
100
AcDbVisualStyle
  2
Facepattern
 70
    15
 71
     2
 72
     2
 73
     0
 90
        0
 40
-0.6
 41
-30.0
 62
     5
 63
     7
 74
     1
 91
        4
 64
     7
 65
   257
 75
     1
175
     1
 42
1.0
 92
        8
 66
     7
 43
1.0
 76
     1
 77
     6
 78
     2
 67
     7
 79
     5
170
     0
171
     0
290
     0
174
     0
 93
        1
 44
0.0
173
     0
291
     1
 45
0.0
1001
ACAD
1000
AcDbSavedByObjectVersion
1070
     0
1000
AcDbSavedByObjectVersion
1070
     0
  0
VISUALSTYLE
  5
2A
102
{ACAD_REACTORS
330
29
102
}
330
29
100
AcDbVisualStyle
  2
Flat
 70
     0
 71
     2
 72
     1
 73
     1
 90
        2
 40
-0.6
 41
30.0
 62
     5
 63
     7
 74
     0
 91
        4
 64
     7
 65
   257
 75
     1
175
     1
 42
1.0
 92
        8
 66
     7
 43
1.0
 76
     1
 77
     6
 78
     2
 67
     7
 79
     5
170
     0
171
     0
290
     0
174
     0
 93
       13
 44
0.0
173
     0
291
     1
 45
0.0
1001
ACAD
1000
AcDbSavedByObjectVersion
1070
     0
1000
AcDbSavedByObjectVersion
1070
     0
  0
VISUALSTYLE
  5
2B
102
{ACAD_REACTORS
330
29
102
}
330
29
100
AcDbVisualStyle
  2
FlatWithEdges
 70
     1
 71
     2
 72
     1
 73
     1
 90
        2
 40
-0.6
 41
30.0
 62
     5
 63
     7
 74
     1
 91
        4
 64
     7
 65
   257
 75
     1
175
     1
 42
1.0
 92
        0
 66
   257
 43
1.0
 76
     1
 77
     6
 78
     2
 67
     7
 79
     5
170
     0
171
     0
290
     0
174
     0
 93
       13
 44
0.0
173
     0
291
     1
 45
0.0
1001
ACAD
1000
AcDbSavedByObjectVersion
1070
     0
1000
AcDbSavedByObjectVersion
1070
     0
  0
VISUALSTYLE
  5
2C
102
{ACAD_REACTORS
330
29
102
}
330
29
100
AcDbVisualStyle
  2
Gouraud
 70
     2
 71
     2
 72
     2
 73
     1
 90
        2
 40
-0.6
 41
30.0
 62
     5
 63
     7
 74
     0
 91
        4
 64
     7
 65
   257
 75
     1
175
     1
 42
1.0
 92
        0
 66
     7
 43
1.0
 76
     1
 77
     6
 78
     2
 67
     7
 79
     5
170
     0
171
     0
290
     0
174
     0
 93
       13
 44
0.0
173
     0
291
     1
 45
0.0
1001
ACAD
1000
AcDbSavedByObjectVersion
1070
     0
1000
AcDbSavedByObjectVersion
1070
     0
  0
VISUALSTYLE
  5
2D
102
{ACAD_REACTORS
330
29
102
}
330
29
100
AcDbVisualStyle
  2
GouraudWithEdges
 70
     3
 71
     2
 72
     2
 73
     1
 90
        2
 40
-0.6
 41
30.0
 62
     5
 63
     7
 74
     1
 91
        4
 64
     7
 65
   257
 75
     1
175
     1
 42
1.0
 92
        0
 66
   257
 43
1.0
 76
     1
 77
     6
 78
     2
 67
     7
 79
     5
170
     0
171
     0
290
     0
174
     0
 93
       13
 44
0.0
173
     0
291
     1
 45
0.0
1001
ACAD
1000
AcDbSavedByObjectVersion
1070
     0
1000
AcDbSavedByObjectVersion
1070
     0
  0
VISUALSTYLE
  5
37
102
{ACAD_REACTORS
330
29
102
}
330
29
100
AcDbVisualStyle
  2
Linepattern
 70
    14
 71
     2
 72
     2
 73
     0
 90
        0
 40
-0.6
 41
-30.0
 62
     5
 63
     7
 74
     1
 91
        4
 64
     7
 65
   257
 75
     7
175
     7
 42
1.0
 92
        8
 66
     7
 43
1.0
 76
     1
 77
     6
 78
     2
 67
     7
 79
     5
170
     0
171
     0
290
     0
174
     0
 93
        1
 44
0.0
173
     0
291
     1
 45
0.0
1001
ACAD
1000
AcDbSavedByObjectVersion
1070
     0
1000
AcDbSavedByObjectVersion
1070
     0
  0
VISUALSTYLE
  5
33
102
{ACAD_REACTORS
330
29
102
}
330
29
100
AcDbVisualStyle
  2
Realistic
 70
     8
 71
     2
 72
     2
 73
     0
 90
        0
 40
-0.6
 41
-30.0
 62
     5
 63
     7
 74
     1
 91
        0
 64
     7
 65
   257
 75
     1
175
     1
 42
1.0
 92
        8
 66
     8
 43
1.0
 76
     1
 77
     6
 78
     2
 67
     7
 79
     5
170
     0
171
     0
290
     0
174
     0
 93
       13
 44
0.0
173
     0
291
     0
 45
0.0
1001
ACAD
1000
AcDbSavedByObjectVersion
1070
     0
1000
AcDbSavedByObjectVersion
1070
     0
  0
VISUALSTYLE
  5
36
102
{ACAD_REACTORS
330
29
102
}
330
29
100
AcDbVisualStyle
  2
Thicken
 70
    13
 71
     2
 72
     2
 73
     0
 90
        0
 40
-0.6
 41
-30.0
 62
     5
 63
     7
 74
     1
 91
        4
 64
     7
 65
   257
 75
     1
175
     1
 42
1.0
 92
       12
 66
     7
 43
1.0
 76
     1
 77
     6
 78
     2
 67
     7
 79
     5
170
     0
171
     0
290
     0
174
     0
 93
        1
 44
0.0
173
     0
291
     1
 45
0.0
1001
ACAD
1000
AcDbSavedByObjectVersion
1070
     0
1000
AcDbSavedByObjectVersion
1070
     0
  0
DICTIONARYVAR
  5
1CC
102
{ACAD_REACTORS
330
1C9
102
}
330
1C9
100
DictionaryVariables
280
     0
  1
1:4
  0
DICTIONARYVAR
  5
1CB
102
{ACAD_REACTORS
330
1C9
102
}
330
1C9
100
DictionaryVariables
280
     0
  1
STANDARD
  0
DICTIONARYVAR
  5
1CA
102
{ACAD_REACTORS
330
1C9
102
}
330
1C9
100
DictionaryVariables
280
     0
  1
STANDARD
  0
DICTIONARYVAR
  5
1CF
102
{ACAD_REACTORS
330
1C9
102
}
330
1C9
100
DictionaryVariables
280
     0
  1
1
  0
DICTIONARYVAR
  5
1CE
102
{ACAD_REACTORS
330
1C9
102
}
330
1C9
100
DictionaryVariables
280
     0
  1
0
  0
DICTIONARYVAR
  5
2D3
102
{ACAD_REACTORS
330
1C9
102
}
330
1C9
100
DictionaryVariables
280
     0
  1
0
  0
DICTIONARYVAR
  5
2D2
102
{ACAD_REACTORS
330
1C9
102
}
330
1C9
100
DictionaryVariables
280
     0
  1
0
  0
DICTIONARYVAR
  5
1CD
102
{ACAD_REACTORS
330
1C9
102
}
330
1C9
100
DictionaryVariables
280
     0
  1
127
  0
DICTIONARY
  5
2B6
102
{ACAD_REACTORS
330
166
102
}
330
166
100
AcDbDictionary
281
     1
  0
DICTIONARY
  5
171
102
{ACAD_REACTORS
330
166
102
}
330
166
100
AcDbDictionary
281
     1
  0
XRECORD
  5
186
102
{ACAD_REACTORS
330
166
102
}
330
166
100
AcDbXrecord
280
     1
 90
-1023410169
  0
XRECORD
  5
321C
102
{ACAD_REACTORS
330
321B
102
}
330
321B
100
AcDbXrecord
280
     1
  0
DICTIONARY
  5
1A
330
19
100
AcDbDictionary
280
     1
281
     1
  3
ACAD_XREC_ROUNDTRIP
360
30D4
  3
BUMPTILE
360
1C
  3
DIFFUSETILE
360
1B
  3
OPACITYTILE
360
1F
  3
REFLECTIONTILE
360
1E
  3
REFRACTIONTILE
360
20
  3
SPECULARTILE
360
1D
  0
DICTIONARY
  5
12
330
11
100
AcDbDictionary
280
     1
281
     1
  3
ACAD_XREC_ROUNDTRIP
360
30D3
  3
BUMPTILE
360
14
  3
DIFFUSETILE
360
13
  3
OPACITYTILE
360
17
  3
REFLECTIONTILE
360
16
  3
REFRACTIONTILE
360
18
  3
SPECULARTILE
360
15
  0
DICTIONARY
  5
22
330
21
100
AcDbDictionary
280
     1
281
     1
  3
ACAD_XREC_ROUNDTRIP
360
30D5
  3
BUMPTILE
360
24
  3
DIFFUSETILE
360
23
  3
OPACITYTILE
360
27
  3
REFLECTIONTILE
360
26
  3
REFRACTIONTILE
360
28
  3
SPECULARTILE
360
25
  0
DICTIONARY
  5
1B2
330
6C
100
AcDbDictionary
280
     1
281
     1
  3
ACAD_ROUNDTRIP_2008_TABLESTYLE_CELLSTYLEMAP
360
321D
  3
ACAD_XREC_ROUNDTRIP
360
3220
  0
XRECORD
  5
30D4
102
{ACAD_REACTORS
330
1A
102
}
330
1A
100
AcDbXrecord
280
     1
102
MATERIAL
148
0.0
149
0.0
149
0.0
 93
        0
 94
      127
282
     0
 72
     0
 77
     0
171
     0
175
     0
179
     0
273
     0
  0
XRECORD
  5
1C
102
{ACAD_REACTORS
330
1A
102
}
330
1A
100
AcDbXrecord
280
     1
270
     1
271
     1
  0
XRECORD
  5
1B
102
{ACAD_REACTORS
330
1A
102
}
330
1A
100
AcDbXrecord
280
     1
270
     1
271
     1
  0
XRECORD
  5
1F
102
{ACAD_REACTORS
330
1A
102
}
330
1A
100
AcDbXrecord
280
     1
270
     1
271
     1
  0
XRECORD
  5
1E
102
{ACAD_REACTORS
330
1A
102
}
330
1A
100
AcDbXrecord
280
     1
270
     1
271
     1
  0
XRECORD
  5
20
102
{ACAD_REACTORS
330
1A
102
}
330
1A
100
AcDbXrecord
280
     1
270
     1
271
     1
  0
XRECORD
  5
1D
102
{ACAD_REACTORS
330
1A
102
}
330
1A
100
AcDbXrecord
280
     1
270
     1
271
     1
  0
XRECORD
  5
30D3
102
{ACAD_REACTORS
330
12
102
}
330
12
100
AcDbXrecord
280
     1
102
MATERIAL
148
0.0
149
0.0
149
0.0
 93
        0
 94
      127
282
     0
 72
     0
 77
     0
171
     0
175
     0
179
     0
273
     0
  0
XRECORD
  5
14
102
{ACAD_REACTORS
330
12
102
}
330
12
100
AcDbXrecord
280
     1
270
     1
271
     1
  0
XRECORD
  5
13
102
{ACAD_REACTORS
330
12
102
}
330
12
100
AcDbXrecord
280
     1
270
     1
271
     1
  0
XRECORD
  5
17
102
{ACAD_REACTORS
330
12
102
}
330
12
100
AcDbXrecord
280
     1
270
     1
271
     1
  0
XRECORD
  5
16
102
{ACAD_REACTORS
330
12
102
}
330
12
100
AcDbXrecord
280
     1
270
     1
271
     1
  0
XRECORD
  5
18
102
{ACAD_REACTORS
330
12
102
}
330
12
100
AcDbXrecord
280
     1
270
     1
271
     1
  0
XRECORD
  5
15
102
{ACAD_REACTORS
330
12
102
}
330
12
100
AcDbXrecord
280
     1
270
     1
271
     1
  0
XRECORD
  5
30D5
102
{ACAD_REACTORS
330
22
102
}
330
22
100
AcDbXrecord
280
     1
102
MATERIAL
148
0.0
149
0.0
149
0.0
 93
        0
 94
      127
282
     0
 72
     0
 77
     0
171
     0
175
     0
179
     0
273
     0
  0
XRECORD
  5
24
102
{ACAD_REACTORS
330
22
102
}
330
22
100
AcDbXrecord
280
     1
270
     1
271
     1
  0
XRECORD
  5
23
102
{ACAD_REACTORS
330
22
102
}
330
22
100
AcDbXrecord
280
     1
270
     1
271
     1
  0
XRECORD
  5
27
102
{ACAD_REACTORS
330
22
102
}
330
22
100
AcDbXrecord
280
     1
270
     1
271
     1
  0
XRECORD
  5
26
102
{ACAD_REACTORS
330
22
102
}
330
22
100
AcDbXrecord
280
     1
270
     1
271
     1
  0
XRECORD
  5
28
102
{ACAD_REACTORS
330
22
102
}
330
22
100
AcDbXrecord
280
     1
270
     1
271
     1
  0
XRECORD
  5
25
102
{ACAD_REACTORS
330
22
102
}
330
22
100
AcDbXrecord
280
     1
270
     1
271
     1
  0
CELLSTYLEMAP
  5
321D
102
{ACAD_REACTORS
330
1B2
102
}
330
1B2
100
AcDbCellStyleMap
 90
        3
300
CELLSTYLE
  1
TABLEFORMAT_BEGIN
 90
        5
170
     1
 91
        0
 92
    32768
 62
   257
 93
        1
300
CONTENTFORMAT
  1
CONTENTFORMAT_BEGIN
 90
        0
 91
        0
 92
      512
 93
        0
300

 40
0.0
140
1.0
 94
        5
 62
     0
340
5D
144
0.25
309
CONTENTFORMAT_END
171
     1
301
MARGIN
  1
CELLMARGIN_BEGIN
 40
0.06
 40
0.06
 40
0.06
 40
0.06
 40
0.18
 40
0.18
309
CELLMARGIN_END
 94
        6
 95
        1
302
GRIDFORMAT
  1
GRIDFORMAT_BEGIN
 90
        0
 91
        1
 62
     0
 92
       -2
340
0
 93
        0
 40
0.045
309
GRIDFORMAT_END
 95
        2
302
GRIDFORMAT
  1
GRIDFORMAT_BEGIN
 90
        0
 91
        1
 62
     0
 92
       -2
340
0
 93
        0
 40
0.045
309
GRIDFORMAT_END
 95
        4
302
GRIDFORMAT
  1
GRIDFORMAT_BEGIN
 90
        0
 91
        1
 62
     0
 92
       -2
340
0
 93
        0
 40
0.045
309
GRIDFORMAT_END
 95
        8
302
GRIDFORMAT
  1
GRIDFORMAT_BEGIN
 90
        0
 91
        1
 62
     0
 92
       -2
340
0
 93
        0
 40
0.045
309
GRIDFORMAT_END
 95
       16
302
GRIDFORMAT
  1
GRIDFORMAT_BEGIN
 90
        0
 91
        1
 62
     0
 92
       -2
340
0
 93
        0
 40
0.045
309
GRIDFORMAT_END
 95
       32
302
GRIDFORMAT
  1
GRIDFORMAT_BEGIN
 90
        0
 91
        1
 62
     0
 92
       -2
340
0
 93
        0
 40
0.045
309
GRIDFORMAT_END
309
TABLEFORMAT_END
  1
CELLSTYLE_BEGIN
 90
        1
 91
        1
300
_TITLE
309
CELLSTYLE_END
300
CELLSTYLE
  1
TABLEFORMAT_BEGIN
 90
        5
170
     1
 91
        0
 92
        0
 62
   257
 93
        1
300
CONTENTFORMAT
  1
CONTENTFORMAT_BEGIN
 90
        0
 91
        0
 92
      512
 93
        0
300

 40
0.0
140
1.0
 94
        5
 62
     0
340
5D
144
0.18
309
CONTENTFORMAT_END
171
     1
301
MARGIN
  1
CELLMARGIN_BEGIN
 40
0.06
 40
0.06
 40
0.06
 40
0.06
 40
0.18
 40
0.18
309
CELLMARGIN_END
 94
        6
 95
        1
302
GRIDFORMAT
  1
GRIDFORMAT_BEGIN
 90
        0
 91
        1
 62
     0
 92
       -2
340
0
 93
        0
 40
0.045
309
GRIDFORMAT_END
 95
        2
302
GRIDFORMAT
  1
GRIDFORMAT_BEGIN
 90
        0
 91
        1
 62
     0
 92
       -2
340
0
 93
        0
 40
0.045
309
GRIDFORMAT_END
 95
        4
302
GRIDFORMAT
  1
GRIDFORMAT_BEGIN
 90
        0
 91
        1
 62
     0
 92
       -2
340
0
 93
        0
 40
0.045
309
GRIDFORMAT_END
 95
        8
302
GRIDFORMAT
  1
GRIDFORMAT_BEGIN
 90
        0
 91
        1
 62
     0
 92
       -2
340
0
 93
        0
 40
0.045
309
GRIDFORMAT_END
 95
       16
302
GRIDFORMAT
  1
GRIDFORMAT_BEGIN
 90
        0
 91
        1
 62
     0
 92
       -2
340
0
 93
        0
 40
0.045
309
GRIDFORMAT_END
 95
       32
302
GRIDFORMAT
  1
GRIDFORMAT_BEGIN
 90
        0
 91
        1
 62
     0
 92
       -2
340
0
 93
        0
 40
0.045
309
GRIDFORMAT_END
309
TABLEFORMAT_END
  1
CELLSTYLE_BEGIN
 90
        2
 91
        1
300
_HEADER
309
CELLSTYLE_END
300
CELLSTYLE
  1
TABLEFORMAT_BEGIN
 90
        5
170
     1
 91
        0
 92
        0
 62
   257
 93
        1
300
CONTENTFORMAT
  1
CONTENTFORMAT_BEGIN
 90
        0
 91
        0
 92
      512
 93
        0
300

 40
0.0
140
1.0
 94
        2
 62
     0
340
5D
144
0.18
309
CONTENTFORMAT_END
171
     1
301
MARGIN
  1
CELLMARGIN_BEGIN
 40
0.06
 40
0.06
 40
0.06
 40
0.06
 40
0.18
 40
0.18
309
CELLMARGIN_END
 94
        6
 95
        1
302
GRIDFORMAT
  1
GRIDFORMAT_BEGIN
 90
        0
 91
        1
 62
     0
 92
       -2
340
0
 93
        0
 40
0.045
309
GRIDFORMAT_END
 95
        2
302
GRIDFORMAT
  1
GRIDFORMAT_BEGIN
 90
        0
 91
        1
 62
     0
 92
       -2
340
0
 93
        0
 40
0.045
309
GRIDFORMAT_END
 95
        4
302
GRIDFORMAT
  1
GRIDFORMAT_BEGIN
 90
        0
 91
        1
 62
     0
 92
       -2
340
0
 93
        0
 40
0.045
309
GRIDFORMAT_END
 95
        8
302
GRIDFORMAT
  1
GRIDFORMAT_BEGIN
 90
        0
 91
        1
 62
     0
 92
       -2
340
0
 93
        0
 40
0.045
309
GRIDFORMAT_END
 95
       16
302
GRIDFORMAT
  1
GRIDFORMAT_BEGIN
 90
        0
 91
        1
 62
     0
 92
       -2
340
0
 93
        0
 40
0.045
309
GRIDFORMAT_END
 95
       32
302
GRIDFORMAT
  1
GRIDFORMAT_BEGIN
 90
        0
 91
        1
 62
     0
 92
       -2
340
0
 93
        0
 40
0.045
309
GRIDFORMAT_END
309
TABLEFORMAT_END
  1
CELLSTYLE_BEGIN
 90
        3
 91
        2
300
_DATA
309
CELLSTYLE_END
  0
XRECORD
  5
3220
102
{ACAD_REACTORS
330
1B2
102
}
330
1B2
100
AcDbXrecord
280
     1
102
ACAD_ROUNDTRIP_PRE2007_TABLESTYLE
 90
      512
 91
        0
  1

 92
      512
 93
        0
  2

 94
      512
 95
        0
  3

  0
ENDSEC
  0
EOF
