  0
SECTION
  2
HEADER
  9
$ACADVER
  1
AC1027
  9
$ACADMAINTVER
 70
   105
  9
$DWGCODEPAGE
  3
ANSI_1252
  9
$LASTSAVEDBY
  1
guzb562
  9
$REQUIREDVERSIONS
160
                 0
  9
$INSBASE
 10
0.0
 20
0.0
 30
0.0
  9
$EXTMIN
 10
4362.951522106768
 20
3127.879461888487
 30
-2.605086967771002
  9
$EXTMAX
 10
4788.516647938586
 20
3918.577832647851
 30
2.716703885224682
  9
$LIMMIN
 10
0.0
 20
0.0
  9
$LIMMAX
 10
8400.0
 20
5940.0
  9
$ORTHOMODE
 70
     1
  9
$REGENMODE
 70
     1
  9
$FILLMODE
 70
     1
  9
$QTEXTMODE
 70
     0
  9
$MIRRTEXT
 70
     1
  9
$LTSCALE
 40
5.0
  9
$ATTMODE
 70
     1
  9
$TEXTSIZE
 40
3.5
  9
$TRACEWID
 40
1.0
  9
$TEXTSTYLE
  7
STANDARD
  9
$CLAYER
  8
AM_0 ( Kontur 0.5 )
  9
$CELTYPE
  6
ByLayer
  9
$CECOLOR
 62
   256
  9
$CELTSCALE
 40
1.0
  9
$DISPSILH
 70
     0
  9
$DIMSCALE
 40
1.0
  9
$DIMASZ
 40
5.0
  9
$DIMEXO
 40
1.0
  9
$DIMDLI
 40
10.0
  9
$DIMRND
 40
0.0
  9
$DIMDLE
 40
0.0
  9
$DIMEXE
 40
1.0
  9
$DIMTP
 40
0.1
  9
$DIMTM
 40
0.1
  9
$DIMTXT
 40
5.0
  9
$DIMCEN
 40
0.0
  9
$DIMTSZ
 40
0.0
  9
$DIMTOL
 70
     0
  9
$DIMLIM
 70
     0
  9
$DIMTIH
 70
     0
  9
$DIMTOH
 70
     0
  9
$DIMSE1
 70
     0
  9
$DIMSE2
 70
     0
  9
$DIMTAD
 70
     1
  9
$DIMZIN
 70
     8
  9
$DIMBLK
  1

  9
$DIMASO
 70
     1
  9
$DIMSHO
 70
     1
  9
$DIMPOST
  1

  9
$DIMAPOST
  1
"
  9
$DIMALT
 70
     0
  9
$DIMALTD
 70
     2
  9
$DIMALTF
 40
0.0393701
  9
$DIMLFAC
 40
1.0
  9
$DIMTOFL
 70
     1
  9
$DIMTVP
 40
0.0
  9
$DIMTIX
 70
     0
  9
$DIMSOXD
 70
     0
  9
$DIMSAH
 70
     0
  9
$DIMBLK1
  1

  9
$DIMBLK2
  1

  9
$DIMSTYLE
  2
AM_DIN
  9
$DIMCLRD
 70
   256
  9
$DIMCLRE
 70
   256
  9
$DIMCLRT
 70
     2
  9
$DIMTFAC
 40
0.71
  9
$DIMGAP
 40
1.5
  9
$DIMJUST
 70
     0
  9
$DIMSD1
 70
     0
  9
$DIMSD2
 70
     0
  9
$DIMTOLJ
 70
     0
  9
$DIMTZIN
 70
     8
  9
$DIMALTZ
 70
     0
  9
$DIMALTTZ
 70
     0
  9
$DIMUPT
 70
     0
  9
$DIMDEC
 70
     2
  9
$DIMTDEC
 70
     2
  9
$DIMALTU
 70
     2
  9
$DIMALTTD
 70
     2
  9
$DIMTXSTY
  7
STANDARD
  9
$DIMAUNIT
 70
     0
  9
$DIMADEC
 70
     0
  9
$DIMALTRND
 40
0.0
  9
$DIMAZIN
 70
     2
  9
$DIMDSEP
 70
    46
  9
$DIMATFIT
 70
     3
  9
$DIMFRAC
 70
     0
  9
$DIMLDRBLK
  1

  9
$DIMLUNIT
 70
     2
  9
$DIMLWD
 70
    -1
  9
$DIMLWE
 70
    -1
  9
$DIMTMOVE
 70
     0
  9
$DIMFXL
 40
1.0
  9
$DIMFXLON
 70
     0
  9
$DIMJOGANG
 40
0.7853981633974483
  9
$DIMTFILL
 70
     0
  9
$DIMTFILLCLR
 70
     0
  9
$DIMARCSYM
 70
     1
  9
$DIMLTYPE
  6

  9
$DIMLTEX1
  6

  9
$DIMLTEX2
  6

  9
$DIMTXTDIRECTION
 70
     0
  9
$LUNITS
 70
     2
  9
$LUPREC
 70
     2
  9
$SKETCHINC
 40
1.0
  9
$FILLETRAD
 40
50.0
  9
$AUNITS
 70
     0
  9
$AUPREC
 70
     0
  9
$MENU
  1
ACAD
  9
$ELEVATION
 40
0.0
  9
$PELEVATION
 40
0.0
  9
$THICKNESS
 40
0.0
  9
$LIMCHECK
 70
     0
  9
$CHAMFERA
 40
50.0
  9
$CHAMFERB
 40
50.0
  9
$CHAMFERC
 40
0.0
  9
$CHAMFERD
 40
0.0
  9
$SKPOLY
 70
     0
  9
$TDCREATE
 40
2454733.422211146
  9
$TDUCREATE
 40
2454733.380544479
  9
$TDUPDATE
 40
2457788.334271678
  9
$TDUUPDATE
 40
2457788.292605012
  9
$TDINDWG
 40
0.0478463889
  9
$TDUSRTIMER
 40
0.0478456713
  9
$USRTIMER
 70
     1
  9
$ANGBASE
 50
0.0
  9
$ANGDIR
 70
     0
  9
$PDMODE
 70
     0
  9
$PDSIZE
 40
0.0
  9
$PLINEWID
 40
0.0
  9
$SPLFRAME
 70
     0
  9
$SPLINETYPE
 70
     6
  9
$SPLINESEGS
 70
    20
  9
$HANDSEED
  5
1890
  9
$SURFTAB1
 70
     6
  9
$SURFTAB2
 70
     6
  9
$SURFTYPE
 70
     6
  9
$SURFU
 70
     6
  9
$SURFV
 70
     6
  9
$UCSBASE
  2

  9
$UCSNAME
  2

  9
$UCSORG
 10
0.0
 20
0.0
 30
0.0
  9
$UCSXDIR
 10
1.0
 20
0.0
 30
0.0
  9
$UCSYDIR
 10
0.0
 20
1.0
 30
0.0
  9
$UCSORTHOREF
  2

  9
$UCSORTHOVIEW
 70
     0
  9
$UCSORGTOP
 10
0.0
 20
0.0
 30
0.0
  9
$UCSORGBOTTOM
 10
0.0
 20
0.0
 30
0.0
  9
$UCSORGLEFT
 10
0.0
 20
0.0
 30
0.0
  9
$UCSORGRIGHT
 10
0.0
 20
0.0
 30
0.0
  9
$UCSORGFRONT
 10
0.0
 20
0.0
 30
0.0
  9
$UCSORGBACK
 10
0.0
 20
0.0
 30
0.0
  9
$PUCSBASE
  2

  9
$PUCSNAME
  2

  9
$PUCSORG
 10
0.0
 20
0.0
 30
0.0
  9
$PUCSXDIR
 10
1.0
 20
0.0
 30
0.0
  9
$PUCSYDIR
 10
0.0
 20
1.0
 30
0.0
  9
$PUCSORTHOREF
  2

  9
$PUCSORTHOVIEW
 70
     0
  9
$PUCSORGTOP
 10
0.0
 20
0.0
 30
0.0
  9
$PUCSORGBOTTOM
 10
0.0
 20
0.0
 30
0.0
  9
$PUCSORGLEFT
 10
0.0
 20
0.0
 30
0.0
  9
$PUCSORGRIGHT
 10
0.0
 20
0.0
 30
0.0
  9
$PUCSORGFRONT
 10
0.0
 20
0.0
 30
0.0
  9
$PUCSORGBACK
 10
0.0
 20
0.0
 30
0.0
  9
$USERI1
 70
     0
  9
$USERI2
 70
     0
  9
$USERI3
 70
     0
  9
$USERI4
 70
     0
  9
$USERI5
 70
     0
  9
$USERR1
 40
0.0
  9
$USERR2
 40
0.0
  9
$USERR3
 40
0.0
  9
$USERR4
 40
0.0
  9
$USERR5
 40
0.0
  9
$WORLDVIEW
 70
     1
  9
$SHADEDGE
 70
     3
  9
$SHADEDIF
 70
    70
  9
$TILEMODE
 70
     1
  9
$MAXACTVP
 70
    64
  9
$PINSBASE
 10
0.0
 20
0.0
 30
0.0
  9
$PLIMCHECK
 70
     0
  9
$PEXTMIN
 10
1.000000000000000E+20
 20
1.000000000000000E+20
 30
1.000000000000000E+20
  9
$PEXTMAX
 10
-1.000000000000000E+20
 20
-1.000000000000000E+20
 30
-1.000000000000000E+20
  9
$PLIMMIN
 10
0.0
 20
0.0
  9
$PLIMMAX
 10
12.0
 20
9.0
  9
$UNITMODE
 70
     0
  9
$VISRETAIN
 70
     1
  9
$PLINEGEN
 70
     0
  9
$PSLTSCALE
 70
     1
  9
$TREEDEPTH
 70
  3020
  9
$CMLSTYLE
  2
Standard
  9
$CMLJUST
 70
     0
  9
$CMLSCALE
 40
1.0
  9
$PROXYGRAPHICS
 70
     1
  9
$MEASUREMENT
 70
     1
  9
$CELWEIGHT
370
    -1
  9
$ENDCAPS
280
     0
  9
$JOINSTYLE
280
     0
  9
$LWDISPLAY
290
     0
  9
$INSUNITS
 70
     4
  9
$HYPERLINKBASE
  1

  9
$STYLESHEET
  1

  9
$XEDIT
290
     1
  9
$CEPSNTYPE
380
     0
  9
$PSTYLEMODE
290
     1
  9
$FINGERPRINTGUID
  2
{D878B907-57A8-4F6C-B596-AD4BD78F82E2}
  9
$VERSIONGUID
  2
{3DED5EC1-7934-44EC-9C7C-BBDCB59AB8CA}
  9
$EXTNAMES
290
     1
  9
$PSVPSCALE
 40
0.0
  9
$OLESTARTUP
290
     0
  9
$SORTENTS
280
   127
  9
$INDEXCTL
280
     0
  9
$HIDETEXT
280
     0
  9
$XCLIPFRAME
280
     0
  9
$HALOGAP
280
     0
  9
$OBSCOLOR
 70
   257
  9
$OBSLTYPE
280
     0
  9
$INTERSECTIONDISPLAY
280
     0
  9
$INTERSECTIONCOLOR
 70
   257
  9
$DIMASSOC
280
     2
  9
$PROJECTNAME
  1

  9
$CAMERADISPLAY
290
     0
  9
$LENSLENGTH
 40
50.0
  9
$CAMERAHEIGHT
 40
0.0
  9
$STEPSPERSEC
 40
2.0
  9
$STEPSIZE
 40
6.0
  9
$3DDWFPREC
 40
2.0
  9
$PSOLWIDTH
 40
0.25
  9
$PSOLHEIGHT
 40
4.0
  9
$LOFTANG1
 40
1.570796326794896
  9
$LOFTANG2
 40
1.570796326794896
  9
$LOFTMAG1
 40
0.0
  9
$LOFTMAG2
 40
0.0
  9
$LOFTPARAM
 70
     7
  9
$LOFTNORMALS
280
     1
  9
$LATITUDE
 40
37.795
  9
$LONGITUDE
 40
-122.394
  9
$NORTHDIRECTION
 40
0.0
  9
$TIMEZONE
 70
 -8000
  9
$LIGHTGLYPHDISPLAY
280
     1
  9
$TILEMODELIGHTSYNCH
280
     1
  9
$CMATERIAL
347
11
  9
$SOLIDHIST
280
     1
  9
$SHOWHIST
280
     1
  9
$DWFFRAME
280
     2
  9
$DGNFRAME
280
     0
  9
$REALWORLDSCALE
290
     1
  9
$INTERFERECOLOR
 62
     1
  9
$INTERFEREOBJVS
345
33
  9
$INTERFEREVPVS
346
1800
  9
$CSHADOW
280
     0
  9
$SHADOWPLANELOCATION
 40
0.0
  0
ENDSEC
  0
SECTION
  2
CLASSES
  0
CLASS
  1
ACDBDICTIONARYWDFLT
  2
AcDbDictionaryWithDefault
  3
ObjectDBX Classes
 90
        0
 91
        1
280
     0
281
     0
  0
CLASS
  1
MATERIAL
  2
AcDbMaterial
  3
ObjectDBX Classes
 90
     1153
 91
        3
280
     0
281
     0
  0
CLASS
  1
VISUALSTYLE
  2
AcDbVisualStyle
  3
ObjectDBX Classes
 90
     4095
 91
       26
280
     0
281
     0
  0
CLASS
  1
SCALE
  2
AcDbScale
  3
ObjectDBX Classes
 90
     1153
 91
       33
280
     0
281
     0
  0
CLASS
  1
TABLESTYLE
  2
AcDbTableStyle
  3
ObjectDBX Classes
 90
     4095
 91
        1
280
     0
281
     0
  0
CLASS
  1
MLEADERSTYLE
  2
AcDbMLeaderStyle
  3
ACDB_MLEADERSTYLE_CLASS
 90
     4095
 91
        1
280
     0
281
     0
  0
CLASS
  1
AMGSETTINGSOBJ
  2
AmgSettingsObj
  3
"AcadM|Product Description: AutoCAD Mechanical|Company: Autodesk, Inc."
 90
     1024
 91
        2
280
     0
281
     0
  0
CLASS
  1
ACME_DOCUMENT
  2
AcMeDbDoc
  3
AcMeServices
 90
     1024
 91
        2
280
     0
281
     0
  0
CLASS
  1
ACMESCOPE
  2
AcMeScope
  3
AcMeServices
 90
     1024
 91
        1
280
     0
281
     0
  0
CLASS
  1
ACMECOMMANDHISTORY
  2
AcMeCommandHistory
  3
AcMeServices
 90
     1024
 91
        1
280
     0
281
     0
  0
CLASS
  1
ACIMSYSVARMAN
  2
AcImSysVarManager
  3
AcMeServices
 90
     1024
 91
        5
280
     0
281
     0
  0
CLASS
  1
ACIMINTSYSVAR
  2
AcImIntSysVar
  3
AcMeServices
 90
     1024
 91
       27
280
     0
281
     0
  0
CLASS
  1
ACMEDRAWINGMAN
  2
AcMeDrawingMan
  3
AcMeServices
 90
     1024
 91
        2
280
     0
281
     0
  0
CLASS
  1
ACMEVIEW
  2
AcMeView
  3
AcMeServices
 90
     1024
 91
        2
280
     0
281
     0
  0
CLASS
  1
ACDBENTITYCACHE
  2
AcMeEntityCache
  3
AcMeServices
 90
     1024
 91
        1
280
     0
281
     0
  0
CLASS
  1
GSMANAGER
  2
AcMeGSManager
  3
AcMeServices
 90
     1024
 91
        0
280
     0
281
     0
  0
CLASS
  1
AMDTINTERNALREACTOR
  2
AmdtInternalReactor
  3
AcMeServices
 90
     1024
 91
        1
280
     0
281
     0
  0
CLASS
  1
ACMESTATEMGR
  2
AcMeStateMgr
  3
AcMeServices
 90
     1024
 91
        1
280
     0
281
     0
  0
CLASS
  1
ACGREFMASTER
  2
AcGrefMaster
  3
AcAttribServices
 90
     1024
 91
        1
280
     0
281
     0
  0
CLASS
  1
AM_DRAWING_MGR
  2
AcDmDwgMgr
  3
AcMechDwgViewMgmt
 90
     1024
 91
        1
280
     0
281
     0
  0
CLASS
  1
AM_DWG_DOCUMENT
  2
AcDmDwgDocument
  3
AcMechDwgViewMgmt
 90
     1024
 91
        1
280
     0
281
     0
  0
CLASS
  1
AM_DWG_SHEET
  2
AcDmSheet
  3
AcMechDwgViewMgmt
 90
     1024
 91
        1
280
     0
281
     0
  0
CLASS
  1
AM_VIEWDIMPARMAP
  2
AcDmViewDimParMap
  3
AcMechDwgViewMgmt
 90
     1024
 91
        1
280
     0
281
     0
  0
CLASS
  1
ACIMREALSYSVAR
  2
AcImRealSysVar
  3
AcMeServices
 90
     1024
 91
        1
280
     0
281
     0
  0
CLASS
  1
AM_DWGMGR_NAME
  2
AcDmDwgMgrName
  3
AcMechDwgViewMgmt
 90
     1024
 91
        1
280
     0
281
     0
  0
CLASS
  1
ACME_DATABASE
  2
AcMeDbDatabase
  3
AcMeServices
 90
     1024
 91
        1
280
     0
281
     0
  0
CLASS
  1
ACRFINSADJUSTERMGR
  2
AcRfInsAdjusterMgr
  3
AcMeServices
 90
     1024
 91
        1
280
     0
281
     0
  0
CLASS
  1
ACGREFACADMASTER
  2
AcGrefacadMaster
  3
AcGrefServices
 90
     1024
 91
        1
280
     0
281
     0
  0
CLASS
  1
AMDTMENUSTATEMGR
  2
AmdtMenuStateMgr
  3
McadcomServices
 90
     1024
 91
        1
280
     0
281
     0
  0
CLASS
  1
AMDTMCOMMENUSTATE
  2
AmdtMcomMenuState
  3
McadcomServices
 90
     1024
 91
        1
280
     0
281
     0
  0
CLASS
  1
AMIMASTER
  2
AmiMaster
  3
AmiServices
 90
     1024
 91
        1
280
     0
281
     0
  0
CLASS
  1
MAPIAMMOUDLE
  2
MApiAmModule
  3
MApiAmServices
 90
     1024
 91
        1
280
     0
281
     0
  0
CLASS
  1
ACIMSTRSYSVAR
  2
AcImStrSysVar
  3
AcMeServices
 90
     1024
 91
        5
280
     0
281
     0
  0
CLASS
  1
AMDTADMENUSTATE
  2
AmdtAdMenuState
  3
DesignerServices
 90
     1024
 91
        0
280
     0
281
     0
  0
CLASS
  1
ADAPPL
  2
AcAdAppl
  3
DesignerAssemblies
 90
     1024
 91
        2
280
     0
281
     0
  0
CLASS
  1
DEPMGR
  2
AcAdDepMgr
  3
DesignerAssemblies
 90
     1024
 91
        2
280
     0
281
     0
  0
CLASS
  1
PARAMMGR
  2
AcAdParamMgr
  3
DesignerAssemblies
 90
     1024
 91
        2
280
     0
281
     0
  0
CLASS
  1
PARAMSCOPE
  2
AcAdParamScope
  3
DesignerAssemblies
 90
     1024
 91
        2
280
     0
281
     0
  0
CLASS
  1
NAMEDAPPL
  2
AcAdNamedAppl
  3
DesignerAssemblies
 90
     1024
 91
        2
280
     0
281
     0
  0
CLASS
  1
AMDTDMMENUSTATE
  2
AmdtDmMenuState
  3
AcMechDwgViewMgmt
 90
     1024
 91
        0
280
     0
281
     0
  0
CLASS
  1
AMDTAMMENUSTATE
  2
AmdtAmMenuState
  3
DesignerAssemblies
 90
     1024
 91
        1
280
     0
281
     0
  0
CLASS
  1
ACAMPROJECT
  2
AcAmProject
  3
DesignerAssemblies
 90
     1024
 91
        1
280
     0
281
     0
  0
CLASS
  1
ACAMGRCOMPDEF
  2
AcAmGrCompDef
  3
DesignerAssemblies
 90
     1024
 91
        1
280
     0
281
     0
  0
CLASS
  1
ACCMCONTEXT
  2
AcCmContext
  3
DesignerAssemblies
 90
     1024
 91
        1
280
     0
281
     0
  0
CLASS
  1
ACAMCOMPDEF
  2
AcAmCompDef
  3
DesignerAssemblies
 90
     1024
 91
        1
280
     0
281
     0
  0
CLASS
  1
ACAMCOMPDEFMGR
  2
AcAmCompDefMgr
  3
DesignerAssemblies
 90
     1024
 91
        1
280
     0
281
     0
  0
CLASS
  1
AMCONTEXTMGR
  2
AcAmContextMgr
  3
DesignerAssemblies
 90
     1024
 91
        1
280
     0
281
     0
  0
CLASS
  1
ACAMCONTEXTMODELER
  2
AcAmContextModeler
  3
DesignerAssemblies
 90
     1024
 91
        1
280
     0
281
     0
  0
CLASS
  1
ACMDATADICTIONARY
  2
AcmDataDictionary
  3
"AcmSymBB|Product Description: AutoCAD Mechanical|Company: Autodesk, Inc."
 90
     1024
 91
        1
280
     0
281
     0
  0
CLASS
  1
CATALOGSTATE
  2
AcAmCatalogState
  3
DesignerAssemblies
 90
     1024
 91
        1
280
     0
281
     0
  0
CLASS
  1
ACAMGRCOMPDEFSET
  2
AcAmGrCompDefSet
  3
DesignerAssemblies
 90
     1024
 91
        1
280
     0
281
     0
  0
CLASS
  1
AMDTBROWSERDBTAB
  2
AmdtBrowserDbTab
  3
McadcomServices
 90
     1024
 91
        1
280
     0
281
     0
  0
CLASS
  1
CBROWSERAPPOBJECT
  2
CBrowserAppObject
  3
McadcomServices
 90
     1024
 91
        2
280
     0
281
     0
  0
CLASS
  1
DM_PLACEHOLDER
  2
AcDmSelsetPlaceholder
  3
McadcomServices
 90
     1024
 91
        1
280
     0
281
     0
  0
CLASS
  1
ACMSTANDARDANSI
  2
AcmStandardANSI
  3
"Amdt_StdImp|Product Description: AutoCAD Mechanical|Company: Autodesk, Inc."
 90
     1024
 91
        1
280
     0
281
     0
  0
CLASS
  1
AMGOBJPROPCFG
  2
AmgObjPropCfg
  3
"AmgLay|Product Description: AutoCAD Mechanical|Company: Autodesk, Inc."
 90
     1024
 91
        1
280
     0
281
     0
  0
CLASS
  1
ACMSURFSTANDARDANSI
  2
AcmSurfTextStdANSI
  3
"Amdt_StdImp|Product Description: AutoCAD Mechanical|Company: Autodesk, Inc."
 90
     1024
 91
        1
280
     0
281
     0
  0
CLASS
  1
ACMFCFSTANDARDANSI
  2
AcmFCFStdANSI
  3
"Amdt_StdImp|Product Description: AutoCAD Mechanical|Company: Autodesk, Inc."
 90
     1024
 91
        1
280
     0
281
     0
  0
CLASS
  1
ACMWELDSTANDARDANSI
  2
AcmWeldingStdANSI
  3
"Amdt_StdImp|Product Description: AutoCAD Mechanical|Company: Autodesk, Inc."
 90
     1024
 91
        1
280
     0
281
     0
  0
CLASS
  1
ACMIDSTANDARDANSI
  2
AcmIdStdANSI
  3
"Amdt_StdImp|Product Description: AutoCAD Mechanical|Company: Autodesk, Inc."
 90
     1024
 91
        1
280
     0
281
     0
  0
CLASS
  1
ACMDATUMSTANDARDANSI
  2
AcmDatumStdANSI
  3
"Amdt_StdImp|Product Description: AutoCAD Mechanical|Company: Autodesk, Inc."
 90
     1024
 91
        1
280
     0
281
     0
  0
CLASS
  1
ACMBOMSTANDARDANSI
  2
AcmBOMStdANSI
  3
"Amdt_StdImp|Product Description: AutoCAD Mechanical|Company: Autodesk, Inc."
 90
     1024
 91
        1
280
     0
281
     0
  0
CLASS
  1
ACMDETAILSTANDARDANSI
  2
AmdtDetailSymStdANSI
  3
"Amdt_StdImp|Product Description: AutoCAD Mechanical|Company: Autodesk, Inc."
 90
     1024
 91
        1
280
     0
281
     0
  0
CLASS
  1
ACMSECTIONSTANDARDANSI
  2
AmdtSectionSymStdANSI
  3
"Amdt_StdImp|Product Description: AutoCAD Mechanical|Company: Autodesk, Inc."
 90
     1024
 91
        1
280
     0
281
     0
  0
CLASS
  1
ACMCENTERLINESTANDARDANSI
  2
AmdtCenterLineStdANSI
  3
"Amdt_StdImp|Product Description: AutoCAD Mechanical|Company: Autodesk, Inc."
 90
     1024
 91
        1
280
     0
281
     0
  0
CLASS
  1
ACMTHREADLINESTANDARDANSI
  2
AmdtThreadLineStdANSI
  3
"Amdt_StdImp|Product Description: AutoCAD Mechanical|Company: Autodesk, Inc."
 90
     1024
 91
        1
280
     0
281
     0
  0
CLASS
  1
ACMNOTESTANDARDANSI
  2
AmdtNoteStdANSI
  3
"Amdt_StdImp|Product Description: AutoCAD Mechanical|Company: Autodesk, Inc."
 90
     1024
 91
        1
280
     0
281
     0
  0
CLASS
  1
ACMTAPERSTANDARDANSI
  2
AcmTaperStdANSI
  3
"Amdt_StdImp|Product Description: AutoCAD Mechanical|Company: Autodesk, Inc."
 90
     1024
 91
        1
280
     0
281
     0
  0
CLASS
  1
ACMANOOTATIONVIEWSTANDARDANSI
  2
AmdtAnViewStdANSI
  3
"Amdt_StdImp|Product Description: AutoCAD Mechanical|Company: Autodesk, Inc."
 90
     1024
 91
        1
280
     0
281
     0
  0
CLASS
  1
AMDTNOTETEMPLATEDB
  2
AmdtNoteTemplateDB
  3
AcmSymBB|Product Description: AutoCAD Mechanical|Company: Autodesk, Inc.
 90
     1024
 91
       18
280
     0
281
     0
  0
CLASS
  1
ACAMGLAYSTD
  2
AcAmgLayStd
  3
"AmgLay|Product Description: AutoCAD Mechanical|Company: Autodesk, Inc."
 90
     1024
 91
        3
280
     0
281
     0
  0
CLASS
  1
ACAMGDIMSTD
  2
AcAmgDimStd
  3
"AmgDim|Product Description: AutoCAD Mechanical|Company: Autodesk, Inc."
 90
     1024
 91
        3
280
     0
281
     0
  0
CLASS
  1
ACAMGHOLECHARTSTDANSI
  2
AcAmgHoleChartStdANSI
  3
AmgDim|Product Description: AutoCAD Mechanical|Company: Autodesk, Inc.
 90
     1024
 91
        1
280
     0
281
     0
  0
CLASS
  1
ACAMGTITLESTD
  2
AcAmgTitleStd
  3
"AmgTitle|Product Description: AutoCAD Mechanical|Company: Autodesk, Inc."
 90
     1024
 91
        3
280
     0
281
     0
  0
CLASS
  1
ACAMGFILTERDAT
  2
AcAmgFilterDat
  3
"AcadM|Product Description: AutoCAD Mechanical|Company: Autodesk, Inc."
 90
     1024
 91
        0
280
     0
281
     0
  0
CLASS
  1
CELLSTYLEMAP
  2
AcDbCellStyleMap
  3
ObjectDBX Classes
 90
     1152
 91
        4
280
     0
281
     0
  0
CLASS
  1
DICTIONARYVAR
  2
AcDbDictionaryVar
  3
ObjectDBX Classes
 90
        0
 91
       20
280
     0
281
     0
  0
CLASS
  1
ACMDATAENTRYPART
  2
AcmDataEntryPart
  3
AcmSymBB|Product Description: AutoCAD Mechanical|Company: Autodesk, Inc.
 90
     1024
 91
        0
280
     0
281
     0
  0
CLASS
  1
ACMPARTREF
  2
AcmPartRef
  3
"AcmSymBB|Product Description: AutoCAD Mechanical|Company: Autodesk, Inc."
 90
     1024
 91
        0
280
     0
281
     1
  0
CLASS
  1
ACDBLINERES
  2
AcDbLineRes
  3
AcGrefServices
 90
     1024
 91
        0
280
     0
281
     0
  0
CLASS
  1
ACMSTANDARDDIN
  2
AcmStandardDIN
  3
"Amdt_StdImp|Product Description: AutoCAD Mechanical|Company: Autodesk, Inc."
 90
     1024
 91
        1
280
     0
281
     0
  0
CLASS
  1
AMDTEDGESTANDARDDIN13715
  2
AmdtEdgeStdDIN13715
  3
"Amdt_StdImp|Product Description: AutoCAD Mechanical|Company: Autodesk, Inc."
 90
     1024
 91
        1
280
     0
281
     0
  0
CLASS
  1
ACMSURFSTANDARDDIN2002
  2
AcmSurfTextStdDIN2002
  3
"Amdt_StdImp|Product Description: AutoCAD Mechanical|Company: Autodesk, Inc."
 90
     1024
 91
        1
280
     0
281
     0
  0
CLASS
  1
ACMFCFSTANDARDDIN
  2
AcmFCFStdDIN
  3
"Amdt_StdImp|Product Description: AutoCAD Mechanical|Company: Autodesk, Inc."
 90
     1024
 91
        1
280
     0
281
     0
  0
CLASS
  1
ACMWELDSTANDARDDIN
  2
AcmWeldingStdDIN
  3
"Amdt_StdImp|Product Description: AutoCAD Mechanical|Company: Autodesk, Inc."
 90
     1024
 91
        1
280
     0
281
     0
  0
CLASS
  1
ACMIDSTANDARDDIN
  2
AcmIdStdDIN
  3
"Amdt_StdImp|Product Description: AutoCAD Mechanical|Company: Autodesk, Inc."
 90
     1024
 91
        1
280
     0
281
     0
  0
CLASS
  1
ACMDATUMSTANDARDDIN
  2
AcmDatumStdDIN
  3
"Amdt_StdImp|Product Description: AutoCAD Mechanical|Company: Autodesk, Inc."
 90
     1024
 91
        1
280
     0
281
     0
  0
CLASS
  1
ACMBOMSTANDARDDIN
  2
AcmBOMStdDIN
  3
"Amdt_StdImp|Product Description: AutoCAD Mechanical|Company: Autodesk, Inc."
 90
     1024
 91
        1
280
     0
281
     0
  0
CLASS
  1
ACMDETAILSTANDARDDIN
  2
AmdtDetailSymStdDIN
  3
"Amdt_StdImp|Product Description: AutoCAD Mechanical|Company: Autodesk, Inc."
 90
     1024
 91
        1
280
     0
281
     0
  0
CLASS
  1
ACMSECTIONSTANDARDDIN
  2
AmdtSectionSymStdDIN
  3
"Amdt_StdImp|Product Description: AutoCAD Mechanical|Company: Autodesk, Inc."
 90
     1024
 91
        1
280
     0
281
     0
  0
CLASS
  1
ACMCENTERLINESTANDARDDIN
  2
AmdtCenterLineStdDIN
  3
"Amdt_StdImp|Product Description: AutoCAD Mechanical|Company: Autodesk, Inc."
 90
     1024
 91
        1
280
     0
281
     0
  0
CLASS
  1
ACMTHREADLINESTANDARDDIN
  2
AmdtThreadLineStdDIN
  3
"Amdt_StdImp|Product Description: AutoCAD Mechanical|Company: Autodesk, Inc."
 90
     1024
 91
        1
280
     0
281
     0
  0
CLASS
  1
ACMNOTESTANDARDDIN
  2
AmdtNoteStdDIN
  3
"Amdt_StdImp|Product Description: AutoCAD Mechanical|Company: Autodesk, Inc."
 90
     1024
 91
        1
280
     0
281
     0
  0
CLASS
  1
ACMTAPERSTANDARDDIN
  2
AcmTaperStdDIN
  3
"Amdt_StdImp|Product Description: AutoCAD Mechanical|Company: Autodesk, Inc."
 90
     1024
 91
        1
280
     0
281
     0
  0
CLASS
  1
ACMANOOTATIONVIEWSTANDARDDIN
  2
AmdtAnViewStdDIN
  3
"Amdt_StdImp|Product Description: AutoCAD Mechanical|Company: Autodesk, Inc."
 90
     1024
 91
        1
280
     0
281
     0
  0
CLASS
  1
ACAMGHOLECHARTSTDDIN
  2
AcAmgHoleChartStdDIN
  3
AmgDim|Product Description: AutoCAD Mechanical|Company: Autodesk, Inc.
 90
     1024
 91
        1
280
     0
281
     0
  0
CLASS
  1
ACMDATAENTRYBLOCK
  2
AcmDataEntryBlock
  3
AcmSymBB|Product Description: AutoCAD Mechanical|Company: Autodesk, Inc.
 90
     1024
 91
        1
280
     0
281
     0
  0
CLASS
  1
ACMBOM
  2
AcmBom
  3
"AcmSymBB|Product Description: AutoCAD Mechanical|Company: Autodesk, Inc."
 90
     1024
 91
        1
280
     0
281
     0
  0
CLASS
  1
AMDTFORMULAUPDATEDISPATCHER
  2
AmdtFormulaUpdateDispatcher
  3
AcMeServices
 90
     1024
 91
        1
280
     0
281
     0
  0
CLASS
  1
ACMBOMROW
  2
AcmBomRow
  3
"AcmSymBB|Product Description: AutoCAD Mechanical|Company: Autodesk, Inc."
 90
     1024
 91
        0
280
     0
281
     0
  0
CLASS
  1
ACMPARTLIST
  2
AcmPartList
  3
"AcmSymBB|Product Description: AutoCAD Mechanical|Company: Autodesk, Inc."
 90
     1024
 91
        0
280
     0
281
     1
  0
CLASS
  1
CAMSSTRUCTBTNSTATE
  2
StructBtnState
  3
DesignerAssemblies
 90
     1024
 91
        1
280
     0
281
     0
  0
CLASS
  1
ACRFATTGENMGR
  2
AcRfAttGeneralMgr
  3
AcAttribServices
 90
     1024
 91
        1
280
     0
281
     0
  0
CLASS
  1
ACRFOBJATTMGR
  2
AcRfObjAttGroupMgr
  3
AcAttribServices
 90
     1024
 91
        1
280
     0
281
     0
  0
CLASS
  1
ACRFMCADAPIATTHOLDER
  2
AcRfMCADAPIAttHolder
  3
AcAttribServices
 90
     1024
 91
        1
280
     0
281
     0
  0
CLASS
  1
AMDTSYSATTR
  2
AmdtSystemAttribute
  3
AcAttribServices
 90
     1024
 91
        1
280
     0
281
     0
  0
CLASS
  1
SORTENTSTABLE
  2
AcDbSortentsTable
  3
ObjectDBX Classes
 90
        0
 91
        2
280
     0
281
     0
  0
CLASS
  1
ACMSTANDARDISO
  2
AcmStandardISO
  3
"Amdt_StdImp|Product Description: AutoCAD Mechanical|Company: Autodesk, Inc."
 90
     1024
 91
        1
280
     0
281
     0
  0
CLASS
  1
AMDTEDGESTANDARDISO
  2
AmdtEdgeStdISO
  3
"Amdt_StdImp|Product Description: AutoCAD Mechanical|Company: Autodesk, Inc."
 90
     1024
 91
        1
280
     0
281
     0
  0
CLASS
  1
ACMSURFSTANDARDISO2002
  2
AcmSurfTextStdISO2002
  3
"Amdt_StdImp|Product Description: AutoCAD Mechanical|Company: Autodesk, Inc."
 90
     1024
 91
        1
280
     0
281
     0
  0
CLASS
  1
ACMFCFSTANDARDISO
  2
AcmFCFStdISO
  3
"Amdt_StdImp|Product Description: AutoCAD Mechanical|Company: Autodesk, Inc."
 90
     1024
 91
        1
280
     0
281
     0
  0
CLASS
  1
ACMWELDSTANDARDISO
  2
AcmWeldingStdISO
  3
"Amdt_StdImp|Product Description: AutoCAD Mechanical|Company: Autodesk, Inc."
 90
     1024
 91
        1
280
     0
281
     0
  0
CLASS
  1
ACMIDSTANDARDISO
  2
AcmIdStdISO
  3
"Amdt_StdImp|Product Description: AutoCAD Mechanical|Company: Autodesk, Inc."
 90
     1024
 91
        1
280
     0
281
     0
  0
CLASS
  1
ACMDATUMSTANDARDISO
  2
AcmDatumStdISO
  3
"Amdt_StdImp|Product Description: AutoCAD Mechanical|Company: Autodesk, Inc."
 90
     1024
 91
        1
280
     0
281
     0
  0
CLASS
  1
ACMBOMSTANDARDISO
  2
AcmBOMStdISO
  3
"Amdt_StdImp|Product Description: AutoCAD Mechanical|Company: Autodesk, Inc."
 90
     1024
 91
        1
280
     0
281
     0
  0
CLASS
  1
ACMDETAILSTANDARDISO
  2
AmdtDetailSymStdISO
  3
"Amdt_StdImp|Product Description: AutoCAD Mechanical|Company: Autodesk, Inc."
 90
     1024
 91
        1
280
     0
281
     0
  0
CLASS
  1
ACMSECTIONSTANDARDISO2001
  2
AmdtSectionSymStdISO2001
  3
"Amdt_StdImp|Product Description: AutoCAD Mechanical|Company: Autodesk, Inc."
 90
     1024
 91
        1
280
     0
281
     0
  0
CLASS
  1
ACMCENTERLINESTANDARDISO
  2
AmdtCenterLineStdISO
  3
"Amdt_StdImp|Product Description: AutoCAD Mechanical|Company: Autodesk, Inc."
 90
     1024
 91
        1
280
     0
281
     0
  0
CLASS
  1
ACMNOTESTANDARDISO
  2
AmdtNoteStdISO
  3
"Amdt_StdImp|Product Description: AutoCAD Mechanical|Company: Autodesk, Inc."
 90
     1024
 91
        1
280
     0
281
     0
  0
CLASS
  1
ACAMGHOLECHARTSTDISO
  2
AcAmgHoleChartStdISO
  3
AmgDim|Product Description: AutoCAD Mechanical|Company: Autodesk, Inc.
 90
     1024
 91
        1
280
     0
281
     0
  0
CLASS
  1
ACMTHREADLINESTANDARDISO
  2
AmdtThreadLineStdISO
  3
"Amdt_StdImp|Product Description: AutoCAD Mechanical|Company: Autodesk, Inc."
 90
     1024
 91
        1
280
     0
281
     0
  0
CLASS
  1
ACMTAPERSTANDARDISO
  2
AcmTaperStdISO
  3
"Amdt_StdImp|Product Description: AutoCAD Mechanical|Company: Autodesk, Inc."
 90
     1024
 91
        1
280
     0
281
     0
  0
CLASS
  1
ACMANOOTATIONVIEWSTANDARDISO
  2
AmdtAnViewStdISO
  3
"Amdt_StdImp|Product Description: AutoCAD Mechanical|Company: Autodesk, Inc."
 90
     1024
 91
        1
280
     0
281
     0
  0
CLASS
  1
ACMSTANDARDGB
  2
AcmStandardGB
  3
"Amdt_StdImp|Product Description: AutoCAD Mechanical|Company: Autodesk, Inc."
 90
     1024
 91
        0
280
     0
281
     0
  0
CLASS
  1
ACMSURFSTANDARDGB
  2
AcmSurfTextStdGB
  3
"Amdt_StdImp|Product Description: AutoCAD Mechanical|Company: Autodesk, Inc."
 90
     1024
 91
        0
280
     0
281
     0
  0
CLASS
  1
ACMFCFSTANDARDGB
  2
AcmFCFStdGB
  3
"Amdt_StdImp|Product Description: AutoCAD Mechanical|Company: Autodesk, Inc."
 90
     1024
 91
        0
280
     0
281
     0
  0
CLASS
  1
ACMWELDSTANDARDGB
  2
AcmWeldingStdGB
  3
"Amdt_StdImp|Product Description: AutoCAD Mechanical|Company: Autodesk, Inc."
 90
     1024
 91
        0
280
     0
281
     0
  0
CLASS
  1
ACMIDSTANDARDGB
  2
AcmIdStdGB
  3
"Amdt_StdImp|Product Description: AutoCAD Mechanical|Company: Autodesk, Inc."
 90
     1024
 91
        0
280
     0
281
     0
  0
CLASS
  1
ACMDATUMSTANDARDGB
  2
AcmDatumStdGB
  3
"Amdt_StdImp|Product Description: AutoCAD Mechanical|Company: Autodesk, Inc."
 90
     1024
 91
        0
280
     0
281
     0
  0
CLASS
  1
ACMBOMSTANDARDGB
  2
AcmBOMStdGB
  3
"Amdt_StdImp|Product Description: AutoCAD Mechanical|Company: Autodesk, Inc."
 90
     1024
 91
        0
280
     0
281
     0
  0
CLASS
  1
ACMDETAILSTANDARDGB
  2
AmdtDetailSymStdGB
  3
"Amdt_StdImp|Product Description: AutoCAD Mechanical|Company: Autodesk, Inc."
 90
     1024
 91
        0
280
     0
281
     0
  0
CLASS
  1
ACMSECTIONSTANDARDGB1998
  2
AmdtSectionSymStdGB1998
  3
"Amdt_StdImp|Product Description: AutoCAD Mechanical|Company: Autodesk, Inc."
 90
     1024
 91
        0
280
     0
281
     0
  0
CLASS
  1
ACMCENTERLINESTANDARDGB
  2
AmdtCenterLineStdGB
  3
"Amdt_StdImp|Product Description: AutoCAD Mechanical|Company: Autodesk, Inc."
 90
     1024
 91
        0
280
     0
281
     0
  0
CLASS
  1
ACMTHREADLINESTANDARDGB
  2
AmdtThreadLineStdGB
  3
"Amdt_StdImp|Product Description: AutoCAD Mechanical|Company: Autodesk, Inc."
 90
     1024
 91
        0
280
     0
281
     0
  0
CLASS
  1
ACMNOTESTANDARDGB
  2
AmdtNoteStdGB
  3
"Amdt_StdImp|Product Description: AutoCAD Mechanical|Company: Autodesk, Inc."
 90
     1024
 91
        0
280
     0
281
     0
  0
CLASS
  1
ACMTAPERSTANDARDGB
  2
AcmTaperStdGB
  3
"Amdt_StdImp|Product Description: AutoCAD Mechanical|Company: Autodesk, Inc."
 90
     1024
 91
        0
280
     0
281
     0
  0
CLASS
  1
ACMANOOTATIONVIEWSTANDARDGB
  2
AmdtAnViewStdGB
  3
"Amdt_StdImp|Product Description: AutoCAD Mechanical|Company: Autodesk, Inc."
 90
     1024
 91
        0
280
     0
281
     0
  0
CLASS
  1
ACAMGHOLECHARTSTDGB
  2
AcAmgHoleChartStdGB
  3
AmgDim|Product Description: AutoCAD Mechanical|Company: Autodesk, Inc.
 90
     1024
 91
        0
280
     0
281
     0
  0
CLASS
  1
ACMSTANDARDCSN
  2
AcmStandardCSN
  3
"Amdt_StdImp|Product Description: AutoCAD Mechanical|Company: Autodesk, Inc."
 90
     1024
 91
        0
280
     0
281
     0
  0
CLASS
  1
ACMSURFSTANDARDCSN
  2
AcmSurfTextStdCSN
  3
"Amdt_StdImp|Product Description: AutoCAD Mechanical|Company: Autodesk, Inc."
 90
     1024
 91
        0
280
     0
281
     0
  0
CLASS
  1
ACMFCFSTANDARDCSN
  2
AcmFCFStdCSN
  3
"Amdt_StdImp|Product Description: AutoCAD Mechanical|Company: Autodesk, Inc."
 90
     1024
 91
        0
280
     0
281
     0
  0
CLASS
  1
ACMWELDSTANDARDCSN
  2
AcmWeldingStdCSN
  3
"Amdt_StdImp|Product Description: AutoCAD Mechanical|Company: Autodesk, Inc."
 90
     1024
 91
        0
280
     0
281
     0
  0
CLASS
  1
ACMIDSTANDARDCSN
  2
AcmIdStdCSN
  3
"Amdt_StdImp|Product Description: AutoCAD Mechanical|Company: Autodesk, Inc."
 90
     1024
 91
        0
280
     0
281
     0
  0
CLASS
  1
ACMDATUMSTANDARDCSN
  2
AcmDatumStdCSN
  3
"Amdt_StdImp|Product Description: AutoCAD Mechanical|Company: Autodesk, Inc."
 90
     1024
 91
        0
280
     0
281
     0
  0
CLASS
  1
ACMBOMSTANDARDCSN
  2
AcmBOMStdCSN
  3
"Amdt_StdImp|Product Description: AutoCAD Mechanical|Company: Autodesk, Inc."
 90
     1024
 91
        0
280
     0
281
     0
  0
CLASS
  1
ACMDETAILSTANDARDCSN
  2
AmdtDetailSymStdCSN
  3
"Amdt_StdImp|Product Description: AutoCAD Mechanical|Company: Autodesk, Inc."
 90
     1024
 91
        0
280
     0
281
     0
  0
CLASS
  1
ACMSECTIONSTANDARDCSN2002
  2
AmdtSectionSymStdCSN2002
  3
"Amdt_StdImp|Product Description: AutoCAD Mechanical|Company: Autodesk, Inc."
 90
     1024
 91
        0
280
     0
281
     0
  0
CLASS
  1
ACMCENTERLINESTANDARDCSN
  2
AmdtCenterLineStdCSN
  3
"Amdt_StdImp|Product Description: AutoCAD Mechanical|Company: Autodesk, Inc."
 90
     1024
 91
        0
280
     0
281
     0
  0
CLASS
  1
ACMTHREADLINESTANDARDCSN
  2
AmdtThreadLineStdCSN
  3
"Amdt_StdImp|Product Description: AutoCAD Mechanical|Company: Autodesk, Inc."
 90
     1024
 91
        0
280
     0
281
     0
  0
CLASS
  1
ACMNOTESTANDARDCSN
  2
AmdtNoteStdCSN
  3
"Amdt_StdImp|Product Description: AutoCAD Mechanical|Company: Autodesk, Inc."
 90
     1024
 91
        0
280
     0
281
     0
  0
CLASS
  1
ACMTAPERSTANDARDCSN
  2
AcmTaperStdCSN
  3
"Amdt_StdImp|Product Description: AutoCAD Mechanical|Company: Autodesk, Inc."
 90
     1024
 91
        0
280
     0
281
     0
  0
CLASS
  1
ACMANOOTATIONVIEWSTANDARDCSN
  2
AmdtAnViewStdCSN
  3
"Amdt_StdImp|Product Description: AutoCAD Mechanical|Company: Autodesk, Inc."
 90
     1024
 91
        0
280
     0
281
     0
  0
CLASS
  1
ACAMGHOLECHARTSTDCSN
  2
AcAmgHoleChartStdCSN
  3
AmgDim|Product Description: AutoCAD Mechanical|Company: Autodesk, Inc.
 90
     1024
 91
        0
280
     0
281
     0
  0
CLASS
  1
DIMASSOC
  2
AcDbDimAssoc
  3
"AcDbDimAssoc|Product Desc:     AcDim ARX App For Dimension|Company:          Autodesk, Inc.|WEB Address:      www.autodesk.com"
 90
        0
 91
        1
280
     0
281
     0
  0
CLASS
  1
ACDBCIRCARCRES
  2
AcDbCircArcRes
  3
AcGrefServices
 90
     1024
 91
        0
280
     0
281
     0
  0
CLASS
  1
ACDB_BLKREFOBJECTCONTEXTDATA_CLASS
  2
AcDbBlkRefObjectContextData
  3
ObjectDBX Classes
 90
     1153
 91
        0
280
     0
281
     0
  0
CLASS
  1
ACAD_EVALUATION_GRAPH
  2
AcDbEvalGraph
  3
ObjectDBX Classes
 90
     1153
 91
        0
280
     0
281
     0
  0
CLASS
  1
ACAECUSTOBJ
  2
AcAeEditorObj
  3
AcAeEditorObj
 90
     1024
 91
        0
280
     0
281
     0
  0
CLASS
  1
ACDB_DYNAMICBLOCKPURGEPREVENTER_VERSION
  2
AcDbDynamicBlockPurgePreventer
  3
ObjectDBX Classes
 90
     1153
 91
        0
280
     0
281
     0
  0
CLASS
  1
EXACXREFPANELOBJECT
  2
ExAcXREFPanelObject
  3
EXAC_ESW
 90
     1025
 91
        1
280
     0
281
     0
  0
CLASS
  1
NPOCOLLECTION
  2
AcDbImpNonPersistentObjectsCollection
  3
ObjectDBX Classes
 90
     1153
 91
        1
280
     0
281
     0
  0
CLASS
  1
AMDTNOTE
  2
AmdtNote
  3
"AcmSymBB|Product Description: AutoCAD Mechanical|Company: Autodesk, Inc."
 90
     1024
 91
        0
280
     0
281
     1
  0
CLASS
  1
ACDBNURBCURVERES
  2
AcDbNurbCurveRes
  3
AcGrefServices
 90
     1024
 91
        0
280
     0
281
     0
  0
CLASS
  1
ACDBSECTIONVIEWSTYLE
  2
AcDbSectionViewStyle
  3
ObjectDBX Classes
 90
     1025
 91
        4
280
     0
281
     0
  0
CLASS
  1
ACDBDETAILVIEWSTYLE
  2
AcDbDetailViewStyle
  3
ObjectDBX Classes
 90
     1025
 91
        4
280
     0
281
     0
  0
CLASS
  1
ACMSECTIONSTANDARDCUSTOM
  2
AmdtSectionSymStdCustom
  3
"Amdt_StdImp|Product Description: AutoCAD Mechanical|Company: Autodesk, Inc."
 90
     1024
 91
        3
280
     0
281
     0
  0
CLASS
  1
ACMDETAILTANDARDCUSTOM
  2
AmdtDetailSymStdCustom
  3
"Amdt_StdImp|Product Description: AutoCAD Mechanical|Company: Autodesk, Inc."
 90
     1024
 91
        3
280
     0
281
     0
  0
CLASS
  1
FIELD
  2
AcDbField
  3
ObjectDBX Classes
 90
     1152
 91
       16
280
     0
281
     0
  0
CLASS
  1
FIELDLIST
  2
AcDbFieldList
  3
ObjectDBX Classes
 90
     1152
 91
        1
280
     0
281
     0
  0
ENDSEC
  0
SECTION
  2
TABLES
  0
TABLE
  2
VPORT
  5
8
102
{ACAD_XDICTIONARY
360
1B6
102
}
330
0
100
AcDbSymbolTable
 70
     1
  0
VPORT
  5
82
330
8
100
AcDbSymbolTableRecord
100
AcDbViewportTableRecord
  2
*Active
 70
     0
 10
0.0
 20
0.0
 11
1.0
 21
1.0
 12
4856.379773138102
 22
3523.340163400093
 13
0.0
 23
0.0
 14
50.0
 24
50.0
 15
200.0
 25
200.0
 16
0.0
 26
0.0
 36
1.0
 17
0.0
 27
0.0
 37
0.0
 40
742.5925935577841
 41
2.305389221556886
 42
50.0
 43
0.0
 44
0.0
 50
0.0
 51
0.0
 71
    16
 72
 20000
 73
     1
 74
     1
 75
     0
 76
     0
 77
     0
 78
     0
281
     0
 65
     1
110
0.0
120
0.0
130
0.0
111
1.0
121
0.0
131
0.0
112
0.0
122
1.0
132
0.0
 79
     0
146
0.0
348
2F
 60
     3
 61
     5
292
     1
282
     1
141
0.0
142
0.0
 63
   250
421
  3355443
1001
ACAD_NAV_VCDISPLAY
1070
     3
  0
ENDTAB
  0
TABLE
  2
LTYPE
  5
5
330
0
100
AcDbSymbolTable
 70
    22
  0
LTYPE
  5
62
330
5
100
AcDbSymbolTableRecord
100
AcDbLinetypeTableRecord
  2
ByBlock
 70
     0
  3

 72
    65
 73
     0
 40
0.0
  0
LTYPE
  5
63
330
5
100
AcDbSymbolTableRecord
100
AcDbLinetypeTableRecord
  2
ByLayer
 70
     0
  3

 72
    65
 73
     0
 40
0.0
  0
LTYPE
  5
64
330
5
100
AcDbSymbolTableRecord
100
AcDbLinetypeTableRecord
  2
CONTINUOUS
 70
     0
  3
Solid line
 72
    65
 73
     0
 40
0.0
  0
LTYPE
  5
78
330
5
100
AcDbSymbolTableRecord
100
AcDbLinetypeTableRecord
  2
DASHED
 70
     0
  3
Dashed line
 72
    65
 73
     2
 40
0.75
 49
0.5
 74
     0
 49
-0.25
 74
     0
  0
LTYPE
  5
79
330
5
100
AcDbSymbolTableRecord
100
AcDbLinetypeTableRecord
  2
CENTER
 70
     0
  3
Center line
 72
    65
 73
     4
 40
2.0
 49
1.25
 74
     0
 49
-0.25
 74
     0
 49
0.25
 74
     0
 49
-0.25
 74
     0
  0
LTYPE
  5
13E
330
5
100
AcDbSymbolTableRecord
100
AcDbLinetypeTableRecord
  2
HIDDEN
 70
     0
  3
Verdeckt
 72
    65
 73
     2
 40
0.375
 49
0.25
 74
     0
 49
-0.125
 74
     0
  0
LTYPE
  5
13F
330
5
100
AcDbSymbolTableRecord
100
AcDbLinetypeTableRecord
  2
PHANTOM2
 70
     0
  3
Phantom (.5x) ___ _ _ ___ _ _ ___ _ _ ___ _ _
 72
    65
 73
     6
 40
1.25
 49
0.625
 74
     0
 49
-0.125
 74
     0
 49
0.125
 74
     0
 49
-0.125
 74
     0
 49
0.125
 74
     0
 49
-0.125
 74
     0
  0
LTYPE
  5
183
330
5
100
AcDbSymbolTableRecord
100
AcDbLinetypeTableRecord
  2
ACANSTGB
 70
     0
  3
__ . . __ . .
 72
    65
 73
     6
 40
0.35433070866
 49
0.15748031496
 74
     0
 49
-0.03937007874
 74
     0
 49
0.03937007874
 74
     0
 49
-0.03937007874
 74
     0
 49
0.03937007874
 74
     0
 49
-0.03937007874
 74
     0
  0
LTYPE
  5
184
330
5
100
AcDbSymbolTableRecord
100
AcDbLinetypeTableRecord
  2
ACANSTGL
 70
     0
  3
_ _ _ _ _
 72
    65
 73
     2
 40
0.11811023622
 49
0.07874015748
 74
     0
 49
-0.03937007874
 74
     0
  0
LTYPE
  5
26A
330
5
100
AcDbSymbolTableRecord
100
AcDbLinetypeTableRecord
  2
ACDINWELD
 70
     0
  3
_ _ _ _ _
 72
    65
 73
     2
 40
2.0
 49
2.0
 74
     0
 49
-1.0
 74
     0
  0
LTYPE
  5
26B
330
5
100
AcDbSymbolTableRecord
100
AcDbLinetypeTableRecord
  2
ACDINTGB
 70
     0
  3
__ . . __ . .
 72
    65
 73
     6
 40
9.0
 49
4.0
 74
     0
 49
-1.0
 74
     0
 49
1.0
 74
     0
 49
-1.0
 74
     0
 49
1.0
 74
     0
 49
-1.0
 74
     0
  0
LTYPE
  5
26C
330
5
100
AcDbSymbolTableRecord
100
AcDbLinetypeTableRecord
  2
ACDINTGL
 70
     0
  3
_ _ _ _ _
 72
    65
 73
     2
 40
3.0
 49
2.0
 74
     0
 49
-1.0
 74
     0
  0
LTYPE
  5
2A6
330
5
100
AcDbSymbolTableRecord
100
AcDbLinetypeTableRecord
  2
Amconstr
 70
     0
  3
_______________________
 72
    65
 73
     2
 40
9999.0
 49
9999.0
 74
     0
 49
0.0
 74
     0
  0
LTYPE
  5
2A7
330
5
100
AcDbSymbolTableRecord
100
AcDbLinetypeTableRecord
  2
Amzigzag
 70
     0
  3
/\/-/\/-/\/-/\/-/\/-/\/
 72
    65
 73
     2
 40
11.0001
 49
0.0001
 74
     4
 75
   136
340
2A8
 46
0.04
 50
0.0
 44
0.0
 45
0.0
 49
-11.0
 74
     0
  0
LTYPE
  5
38A
330
5
100
AcDbSymbolTableRecord
100
AcDbLinetypeTableRecord
  2
HIDDEN2
 70
     0
  3
Hidden (.5x) _ _ _ _ _ _ _ _ _ _ _ _ _ _ _ _ _
 72
    65
 73
     2
 40
0.1875
 49
0.125
 74
     0
 49
-0.0625
 74
     0
  0
LTYPE
  5
38B
330
5
100
AcDbSymbolTableRecord
100
AcDbLinetypeTableRecord
  2
CENTER2
 70
     0
  3
Center (.5x) ___ _ ___ _ ___ _ ___ _ ___ _ ___
 72
    65
 73
     4
 40
1.125
 49
0.75
 74
     0
 49
-0.125
 74
     0
 49
0.125
 74
     0
 49
-0.125
 74
     0
  0
LTYPE
  5
3C3
330
5
100
AcDbSymbolTableRecord
100
AcDbLinetypeTableRecord
  2
AM_ISO02W050
 70
     0
  3
__ __ __ __ __ __ __ __ __ __ __ __ __ __ __
 72
    65
 73
     2
 40
7.5
 49
6.0
 74
     0
 49
-1.5
 74
     0
  0
LTYPE
  5
3C4
330
5
100
AcDbSymbolTableRecord
100
AcDbLinetypeTableRecord
  2
AM_ISO08W050
 70
     0
  3
____ . ____ . ____ . ____ . ____ . ____ . ____
 72
    65
 73
     4
 40
18.0
 49
12.0
 74
     0
 49
-1.5
 74
     0
 49
3.0
 74
     0
 49
-1.5
 74
     0
  0
LTYPE
  5
3C5
330
5
100
AcDbSymbolTableRecord
100
AcDbLinetypeTableRecord
  2
AM_ISO09W050
 70
     0
  3
_____ . . _____ . . _____ . . ____ .. ____
 72
    65
 73
     6
 40
22.5
 49
12.0
 74
     0
 49
-1.5
 74
     0
 49
3.0
 74
     0
 49
-1.5
 74
     0
 49
3.0
 74
     0
 49
-1.5
 74
     0
  0
LTYPE
  5
3C6
330
5
100
AcDbSymbolTableRecord
100
AcDbLinetypeTableRecord
  2
AM_ISO08W050x2
 70
     0
  3
__ . __ . __ . __ . __ . __
 72
    65
 73
     4
 40
9.0
 49
6.0
 74
     0
 49
-0.75
 74
     0
 49
1.5
 74
     0
 49
-0.75
 74
     0
  0
LTYPE
  5
3C7
330
5
100
AcDbSymbolTableRecord
100
AcDbLinetypeTableRecord
  2
AM_ISO02W050x2
 70
     0
  3
 _ _ _ _ _ _ _ _ _ _ _ _
 72
    65
 73
     2
 40
3.75
 49
3.0
 74
     0
 49
-0.75
 74
     0
  0
LTYPE
  5
3C8
330
5
100
AcDbSymbolTableRecord
100
AcDbLinetypeTableRecord
  2
ACISOWELD
 70
     0
  3
_ _ _ _ _
 72
    65
 73
     2
 40
2.0
 49
2.0
 74
     0
 49
-1.0
 74
     0
  0
LTYPE
  5
3C9
330
5
100
AcDbSymbolTableRecord
100
AcDbLinetypeTableRecord
  2
ACISOTGB
 70
     0
  3
__ . . __ . .
 72
    65
 73
     6
 40
9.0
 49
4.0
 74
     0
 49
-1.0
 74
     0
 49
1.0
 74
     0
 49
-1.0
 74
     0
 49
1.0
 74
     0
 49
-1.0
 74
     0
  0
LTYPE
  5
3CA
330
5
100
AcDbSymbolTableRecord
100
AcDbLinetypeTableRecord
  2
ACISOTGL
 70
     0
  3
_ _ _ _ _
 72
    65
 73
     2
 40
3.0
 49
2.0
 74
     0
 49
-1.0
 74
     0
  0
ENDTAB
  0
TABLE
  2
LAYER
  5
2
102
{ACAD_XDICTIONARY
360
256
102
}
330
0
100
AcDbSymbolTable
 70
     6
  0
LAYER
  5
5C
102
{ACAD_XDICTIONARY
360
1A2
102
}
330
2
100
AcDbSymbolTableRecord
100
AcDbLayerTableRecord
  2
0
 70
     0
 62
     7
  6
CONTINUOUS
370
    -3
390
F
347
21
348
0
  0
LAYER
  5
27F
102
{ACAD_XDICTIONARY
360
2C7
102
}
330
2
100
AcDbSymbolTableRecord
100
AcDbLayerTableRecord
  2
Defpoints
 70
     0
 62
     7
  6
CONTINUOUS
290
     0
370
    -3
390
F
347
21
348
0
  0
LAYER
  5
1175
330
2
100
AcDbSymbolTableRecord
100
AcDbLayerTableRecord
  2
AM_0 ( Kontur 0.5 )
 70
     0
 62
     7
  6
CONTINUOUS
370
    50
390
F
347
21
348
0
1001
AcAecLayerStandard
1000

1000

  0
LAYER
  5
1176
330
2
100
AcDbSymbolTableRecord
100
AcDbLayerTableRecord
  2
AM_7 (Mittellinie)
 70
     0
 62
     4
  6
AM_ISO08W050
370
    25
390
F
347
21
348
0
1001
AcAecLayerStandard
1000

1000

  0
LAYER
  5
1177
330
2
100
AcDbSymbolTableRecord
100
AcDbLayerTableRecord
  2
AM_3 ( Verdeckt )
 70
     0
 62
     6
  6
AM_ISO02W050
370
    25
390
F
347
21
348
0
1001
AcAecLayerStandard
1000

1000

  0
LAYER
  5
13D3
330
2
100
AcDbSymbolTableRecord
100
AcDbLayerTableRecord
  2
AM_5 ( Bemassung)
 70
     0
 62
     3
  6
CONTINUOUS
370
    25
390
F
347
21
348
0
1001
AcAecLayerStandard
1000

1000

  0
ENDTAB
  0
TABLE
  2
STYLE
  5
3
330
0
100
AcDbSymbolTable
 70
     8
  0
STYLE
  5
5D
330
3
100
AcDbSymbolTableRecord
100
AcDbTextStyleTableRecord
  2
STANDARD
 70
     0
 40
0.0
 41
1.0
 50
0.0
 71
     0
 42
3.5
  3
ARIAL.TTF
  4

1001
ACAD
1000
Arial
1071
       34
  0
STYLE
  5
174
330
3
100
AcDbSymbolTableRecord
100
AcDbTextStyleTableRecord
  2
ACANSTS
 70
     0
 40
1.0
 41
1.0
 50
0.0
 71
     0
 42
3.5
  3
romans.shx
  4

  0
STYLE
  5
182
330
3
100
AcDbSymbolTableRecord
100
AcDbTextStyleTableRecord
  2
ACANSGDT
 70
     0
 40
0.0
 41
1.0
 50
0.0
 71
     0
 42
3.5
  3
amgdt.shx
  4

  0
STYLE
  5
25A
330
3
100
AcDbSymbolTableRecord
100
AcDbTextStyleTableRecord
  2
ACDINTS
 70
     0
 40
1.0
 41
1.0
 50
0.0
 71
     0
 42
3.5
  3
isocp.shx
  4

  0
STYLE
  5
269
330
3
100
AcDbSymbolTableRecord
100
AcDbTextStyleTableRecord
  2
ACDINGDT
 70
     0
 40
0.0
 41
1.0
 50
0.0
 71
     0
 42
3.5
  3
amgdt.shx
  4

  0
STYLE
  5
2A8
330
3
100
AcDbSymbolTableRecord
100
AcDbTextStyleTableRecord
  2

 70
     1
 40
0.0
 41
1.0
 50
0.0
 71
     0
 42
2.5
  3
genltshp.shx
  4

  0
STYLE
  5
3CB
330
3
100
AcDbSymbolTableRecord
100
AcDbTextStyleTableRecord
  2
ACISOTS
 70
     0
 40
1.0
 41
1.0
 50
0.0
 71
     0
 42
2.5
  3
ARIALN.TTF
  4

1001
ACAD
1000
Arial Narrow
1071
       34
  0
STYLE
  5
3CC
330
3
100
AcDbSymbolTableRecord
100
AcDbTextStyleTableRecord
  2
ACISOGDT
 70
     0
 40
0.0
 41
1.0
 50
0.0
 71
     0
 42
2.5
  3
amgdt.shx
  4

  0
ENDTAB
  0
TABLE
  2
VIEW
  5
6
330
0
100
AcDbSymbolTable
 70
     6
  0
VIEW
  5
51B
330
6
100
AcDbSymbolTableRecord
100
AcDbViewTableRecord
  2
AM_VIEW1
 70
     0
 40
2970.0
 10
5244.127408818744
 20
7963.547409082302
 41
4538.252933507171
 11
0.0
 21
0.0
 31
1.0
 12
0.0
 22
0.0
 32
0.0
 42
50.0
 43
0.0
 44
0.0
 50
0.0
 71
    16
281
     0
 72
     0
 73
     0
348
2F
  0
VIEW
  5
51C
330
6
100
AcDbSymbolTableRecord
100
AcDbViewTableRecord
  2
AM_VIEW2
 70
     0
 40
2970.0
 10
9105.874475311576
 20
7963.547409082302
 41
4538.252933507171
 11
0.0
 21
0.0
 31
1.0
 12
0.0
 22
0.0
 32
0.0
 42
50.0
 43
0.0
 44
0.0
 50
0.0
 71
    16
281
     0
 72
     0
 73
     0
348
2F
  0
VIEW
  5
51D
330
6
100
AcDbSymbolTableRecord
100
AcDbViewTableRecord
  2
AM_VIEW3
 70
     0
 40
2970.0
 10
5244.127408818744
 20
4993.547409082303
 41
4538.252933507171
 11
0.0
 21
0.0
 31
1.0
 12
0.0
 22
0.0
 32
0.0
 42
50.0
 43
0.0
 44
0.0
 50
0.0
 71
    16
281
     0
 72
     0
 73
     0
348
2F
  0
VIEW
  5
51E
330
6
100
AcDbSymbolTableRecord
100
AcDbViewTableRecord
  2
AM_VIEW4
 70
     0
 40
2970.0
 10
9105.874475311576
 20
4993.547409082303
 41
4538.252933507171
 11
0.0
 21
0.0
 31
1.0
 12
0.0
 22
0.0
 32
0.0
 42
50.0
 43
0.0
 44
0.0
 50
0.0
 71
    16
281
     0
 72
     0
 73
     0
348
2F
  0
VIEW
  5
51F
330
6
100
AcDbSymbolTableRecord
100
AcDbViewTableRecord
  2
AM_VIEW5
 70
     0
 40
2970.0
 10
7175.000942065159
 20
6478.547409082302
 41
4538.252933507172
 11
0.0
 21
0.0
 31
1.0
 12
0.0
 22
0.0
 32
0.0
 42
50.0
 43
0.0
 44
0.0
 50
0.0
 71
    16
281
     0
 72
     0
 73
     0
348
2F
  0
VIEW
  5
520
330
6
100
AcDbSymbolTableRecord
100
AcDbViewTableRecord
  2
AM_VIEW6
 70
     0
 40
5939.940599999999
 10
7175.000942065159
 20
6478.547409082302
 41
9076.415101955673
 11
0.0
 21
0.0
 31
1.0
 12
0.0
 22
0.0
 32
0.0
 42
50.0
 43
0.0
 44
0.0
 50
0.0
 71
    16
281
     0
 72
     0
 73
     0
348
2F
  0
ENDTAB
  0
TABLE
  2
UCS
  5
7
330
0
100
AcDbSymbolTable
 70
     0
  0
ENDTAB
  0
TABLE
  2
APPID
  5
9
330
0
100
AcDbSymbolTable
 70
    67
  0
APPID
  5
5E
330
9
100
AcDbSymbolTableRecord
100
AcDbRegAppTableRecord
  2
ACAD
 70
     0
  0
APPID
  5
65
330
9
100
AcDbSymbolTableRecord
100
AcDbRegAppTableRecord
  2
AcadAnnotative
 70
     0
  0
APPID
  5
6F
330
9
100
AcDbSymbolTableRecord
100
AcDbRegAppTableRecord
  2
ACAD_MLEADERVER
 70
     0
  0
APPID
  5
111
330
9
100
AcDbSymbolTableRecord
100
AcDbRegAppTableRecord
  2
MCAD_NO_VIS
 70
     0
  0
APPID
  5
112
330
9
100
AcDbSymbolTableRecord
100
AcDbRegAppTableRecord
  2
ACAD_TEMP_GRAPHIC
 70
     0
  0
APPID
  5
141
330
9
100
AcDbSymbolTableRecord
100
AcDbRegAppTableRecord
  2
AD_DRAW
 70
     0
  0
APPID
  5
144
330
9
100
AcDbSymbolTableRecord
100
AcDbRegAppTableRecord
  2
ACATTRIBSERVICES
 70
     0
  0
APPID
  5
165
330
9
100
AcDbSymbolTableRecord
100
AcDbRegAppTableRecord
  2
DESIGNERASSEMBLIES
 70
     0
  0
APPID
  5
16B
330
9
100
AcDbSymbolTableRecord
100
AcDbRegAppTableRecord
  2
ACADM_DIM_EDIT
 70
     0
  0
APPID
  5
16C
330
9
100
AcDbSymbolTableRecord
100
AcDbRegAppTableRecord
  2
AMDT_DM_ADJ
 70
     0
  0
APPID
  5
1C8
330
9
100
AcDbSymbolTableRecord
100
AcDbRegAppTableRecord
  2
ACAD_DSTYLE_DIMARC_LENGTH_SYMBOL
 70
     0
  0
APPID
  5
24A
330
9
100
AcDbSymbolTableRecord
100
AcDbRegAppTableRecord
  2
AcAecLayerStandard
 70
     0
  0
APPID
  5
280
330
9
100
AcDbSymbolTableRecord
100
AcDbRegAppTableRecord
  2
ACAD_DSTYLE_DIMJOGGED_JOGANGLE_SYMBOL
 70
     0
  0
APPID
  5
281
330
9
100
AcDbSymbolTableRecord
100
AcDbRegAppTableRecord
  2
AcadAnnoPO
 70
     0
  0
APPID
  5
282
330
9
100
AcDbSymbolTableRecord
100
AcDbRegAppTableRecord
  2
ACAD_EXEMPT_FROM_CAD_STANDARDS
 70
     0
  0
APPID
  5
283
330
9
100
AcDbSymbolTableRecord
100
AcDbRegAppTableRecord
  2
GENIUS_GENODEF_13
 70
     0
  0
APPID
  5
284
330
9
100
AcDbSymbolTableRecord
100
AcDbRegAppTableRecord
  2
GENIUS_GENOBJ-N-CRS_13
 70
     0
  0
APPID
  5
285
330
9
100
AcDbSymbolTableRecord
100
AcDbRegAppTableRecord
  2
GENIUS_GENOENT_13
 70
     0
  0
APPID
  5
286
330
9
100
AcDbSymbolTableRecord
100
AcDbRegAppTableRecord
  2
GENIUS_GENOLIS_13
 70
     0
  0
APPID
  5
287
330
9
100
AcDbSymbolTableRecord
100
AcDbRegAppTableRecord
  2
GENIUS_GENOREF_13
 70
     0
  0
APPID
  5
288
330
9
100
AcDbSymbolTableRecord
100
AcDbRegAppTableRecord
  2
GEVID1190879659
 70
     0
  0
APPID
  5
289
330
9
100
AcDbSymbolTableRecord
100
AcDbRegAppTableRecord
  2
GEVDC
 70
     0
  0
APPID
  5
28A
330
9
100
AcDbSymbolTableRecord
100
AcDbRegAppTableRecord
  2
GENIUS_GENBH_13
 70
     0
  0
APPID
  5
28B
330
9
100
AcDbSymbolTableRecord
100
AcDbRegAppTableRecord
  2
GENIUS_GENOBJ-NBEHI-BHF_13
 70
     0
  0
APPID
  5
28C
330
9
100
AcDbSymbolTableRecord
100
AcDbRegAppTableRecord
  2
GENIUS_GENOBJ-NBEHI-BHB_13
 70
     0
  0
APPID
  5
28D
330
9
100
AcDbSymbolTableRecord
100
AcDbRegAppTableRecord
  2
GEVID1190879660
 70
     0
  0
APPID
  5
28E
330
9
100
AcDbSymbolTableRecord
100
AcDbRegAppTableRecord
  2
GEVID1190879661
 70
     0
  0
APPID
  5
28F
330
9
100
AcDbSymbolTableRecord
100
AcDbRegAppTableRecord
  2
ACAD_DSTYLE_DIMRADIAL_EXTENSION
 70
     0
  0
APPID
  5
290
330
9
100
AcDbSymbolTableRecord
100
AcDbRegAppTableRecord
  2
GEVID1190879662
 70
     0
  0
APPID
  5
291
330
9
100
AcDbSymbolTableRecord
100
AcDbRegAppTableRecord
  2
GEVID1190879663
 70
     0
  0
APPID
  5
292
330
9
100
AcDbSymbolTableRecord
100
AcDbRegAppTableRecord
  2
GEVID1190879664
 70
     0
  0
APPID
  5
293
330
9
100
AcDbSymbolTableRecord
100
AcDbRegAppTableRecord
  2
GEVID1190879665
 70
     0
  0
APPID
  5
294
330
9
100
AcDbSymbolTableRecord
100
AcDbRegAppTableRecord
  2
GEVID1190879666
 70
     0
  0
APPID
  5
295
330
9
100
AcDbSymbolTableRecord
100
AcDbRegAppTableRecord
  2
GENIUS_GENOBJ-N-CEN_13
 70
     0
  0
APPID
  5
296
330
9
100
AcDbSymbolTableRecord
100
AcDbRegAppTableRecord
  2
GENIUS_GENCEN_19
 70
     0
  0
APPID
  5
297
330
9
100
AcDbSymbolTableRecord
100
AcDbRegAppTableRecord
  2
GEVID1190879667
 70
     0
  0
APPID
  5
298
330
9
100
AcDbSymbolTableRecord
100
AcDbRegAppTableRecord
  2
GENIUS_GENOBJ-N-CRC_13
 70
     0
  0
APPID
  5
299
330
9
100
AcDbSymbolTableRecord
100
AcDbRegAppTableRecord
  2
GENIUS_GENCRC_14
 70
     0
  0
APPID
  5
29A
330
9
100
AcDbSymbolTableRecord
100
AcDbRegAppTableRecord
  2
ACAD_PSEXT
 70
     0
  0
APPID
  5
29B
330
9
100
AcDbSymbolTableRecord
100
AcDbRegAppTableRecord
  2
GEVID1190888456
 70
     0
  0
APPID
  5
29C
330
9
100
AcDbSymbolTableRecord
100
AcDbRegAppTableRecord
  2
GEVID1190888457
 70
     0
  0
APPID
  5
29D
330
9
100
AcDbSymbolTableRecord
100
AcDbRegAppTableRecord
  2
GEVID1190888458
 70
     0
  0
APPID
  5
29E
330
9
100
AcDbSymbolTableRecord
100
AcDbRegAppTableRecord
  2
GEVID1190888459
 70
     0
  0
APPID
  5
29F
330
9
100
AcDbSymbolTableRecord
100
AcDbRegAppTableRecord
  2
GEVID1190888460
 70
     0
  0
APPID
  5
2A0
330
9
100
AcDbSymbolTableRecord
100
AcDbRegAppTableRecord
  2
GEVID1190888461
 70
     0
  0
APPID
  5
2A1
330
9
100
AcDbSymbolTableRecord
100
AcDbRegAppTableRecord
  2
GEVID1190888462
 70
     0
  0
APPID
  5
2A2
330
9
100
AcDbSymbolTableRecord
100
AcDbRegAppTableRecord
  2
ACAD_DSTYLE_DIMJAG
 70
     0
  0
APPID
  5
2A3
330
9
100
AcDbSymbolTableRecord
100
AcDbRegAppTableRecord
  2
ACAD_DSTYLE_DIMTALN
 70
     0
  0
APPID
  5
390
330
9
100
AcDbSymbolTableRecord
100
AcDbRegAppTableRecord
  2
GENIUS_GENBLLY_14
 70
     0
  0
APPID
  5
3D5
330
9
100
AcDbSymbolTableRecord
100
AcDbRegAppTableRecord
  2
DCO15
 70
     0
  0
APPID
  5
3D6
330
9
100
AcDbSymbolTableRecord
100
AcDbRegAppTableRecord
  2
GENIUS_GENREC_14
 70
     0
  0
APPID
  5
3D7
330
9
100
AcDbSymbolTableRecord
100
AcDbRegAppTableRecord
  2
GENIUS_GENOBJ-N-REC_13
 70
     0
  0
APPID
  5
519
330
9
100
AcDbSymbolTableRecord
100
AcDbRegAppTableRecord
  2
GENIUS_GENOBJ-N-TIT_13
 70
     0
  0
APPID
  5
51A
330
9
100
AcDbSymbolTableRecord
100
AcDbRegAppTableRecord
  2
GENIUS_GENTITLE_13
 70
     0
  0
APPID
  5
521
330
9
100
AcDbSymbolTableRecord
100
AcDbRegAppTableRecord
  2
GENIUS_GENSCREG_15
 70
     0
  0
APPID
  5
522
330
9
100
AcDbSymbolTableRecord
100
AcDbRegAppTableRecord
  2
GENIUS_GENOBJ-N-SDF_13
 70
     0
  0
APPID
  5
5BA
330
9
100
AcDbSymbolTableRecord
100
AcDbRegAppTableRecord
  2
ACAD_DSTYLE_DIMINSPECT
 70
     0
  0
APPID
  5
986
330
9
100
AcDbSymbolTableRecord
100
AcDbRegAppTableRecord
  2
GENIUS_GENDIMSH_14
 70
     0
  0
APPID
  5
AFA
330
9
100
AcDbSymbolTableRecord
100
AcDbRegAppTableRecord
  2
GENIUS_GENOBJ-N-HTC_13
 70
     0
  0
APPID
  5
AFB
330
9
100
AcDbSymbolTableRecord
100
AcDbRegAppTableRecord
  2
GENIUS_GENHATCH_13
 70
     0
  0
APPID
  5
B3E
330
9
100
AcDbSymbolTableRecord
100
AcDbRegAppTableRecord
  2
ACAUTHENVIRON
 70
     0
  0
APPID
  5
B42
330
9
100
AcDbSymbolTableRecord
100
AcDbRegAppTableRecord
  2
AcDbDynamicBlockTrueName
 70
     0
  0
APPID
  5
B43
330
9
100
AcDbSymbolTableRecord
100
AcDbRegAppTableRecord
  2
AcDbDynamicBlockGUID
 70
     0
  0
APPID
  5
B45
330
9
100
AcDbSymbolTableRecord
100
AcDbRegAppTableRecord
  2
ACDBBLOCKREPETAG
 70
     0
  0
APPID
  5
171C
330
9
100
AcDbSymbolTableRecord
100
AcDbRegAppTableRecord
  2
EAR3_SAP_ACAD
 70
     0
  0
APPID
  5
171D
330
9
100
AcDbSymbolTableRecord
100
AcDbRegAppTableRecord
  2
CADDESKTOPMDT
 70
     0
  0
APPID
  5
1860
330
9
100
AcDbSymbolTableRecord
100
AcDbRegAppTableRecord
  2
ACAD_NAV_VCDISPLAY
 70
     0
  0
ENDTAB
  0
TABLE
  2
DIMSTYLE
  5
A
330
0
100
AcDbSymbolTable
 70
    23
100
AcDbDimStyleTable
 71
     5
340
276
340
27B
340
5F
340
27C
340
3CE
  0
DIMSTYLE
105
5F
330
A
100
AcDbSymbolTableRecord
100
AcDbDimStyleTableRecord
  2
STANDARD
 70
     0
 41
2.68
140
3.5
178
     6
340
5D
  0
DIMSTYLE
105
18F
330
A
100
AcDbSymbolTableRecord
100
AcDbDimStyleTableRecord
  2
AM_ANSI
 70
     0
  4
mm
 41
0.1
 42
0.05
 43
0.5
 44
0.1
 47
0.1
 48
0.1
 78
     7
 79
     2
 90
     1
140
0.12
141
0.0
146
0.71
147
0.06
176
   256
177
   256
178
     2
274
     4
284
     7
340
5D
371
    -1
372
    -1
  0
DIMSTYLE
105
190
330
A
100
AcDbSymbolTableRecord
100
AcDbDimStyleTableRecord
  2
AM_ANSI$3
 70
     0
  4
mm
 41
0.1
 42
0.05
 43
0.5
 44
0.1
 47
0.1
 48
0.1
 78
     7
 79
     2
 90
     1
140
0.12
141
0.0
146
0.71
147
0.06
176
   256
177
   256
178
     2
274
     4
284
     7
288
     1
289
     0
340
5D
371
    -1
372
    -1
  0
DIMSTYLE
105
191
330
A
100
AcDbSymbolTableRecord
100
AcDbDimStyleTableRecord
  2
AM_ANSI$4
 70
     0
  4
mm
 41
0.1
 42
0.05
 43
0.5
 44
0.1
 47
0.1
 48
0.1
 78
     7
 79
     2
 90
     1
140
0.12
141
0.0
146
0.71
147
0.06
176
   256
177
   256
178
     2
274
     4
284
     7
288
     1
289
     0
340
5D
371
    -1
372
    -1
  0
DIMSTYLE
105
192
330
A
100
AcDbSymbolTableRecord
100
AcDbDimStyleTableRecord
  2
AM_ANSI$7
 70
     0
  4
mm
 41
0.1
 42
0.05
 43
0.5
 44
0.1
 47
0.1
 48
0.1
 78
     7
 79
     2
 90
     1
140
0.24
141
0.0
146
0.71
147
0.06
176
   256
177
   256
178
     2
274
     4
284
     7
340
5D
371
    -1
372
    -1
  0
DIMSTYLE
105
193
330
A
100
AcDbSymbolTableRecord
100
AcDbDimStyleTableRecord
  2
AM_ANSI$SF
 70
     0
  4
mm
 41
0.1
 42
0.05
 43
0.5
 44
0.1
 47
0.1
 48
0.1
 75
     1
 76
     1
 78
     7
 79
     2
 90
     1
140
0.12
141
0.0
146
0.71
147
0.06
176
   256
177
   256
178
     2
274
     4
284
     7
340
5D
371
    -1
372
    -1
  0
DIMSTYLE
105
198
330
A
100
AcDbSymbolTableRecord
100
AcDbDimStyleTableRecord
  2
AM_ANSI$SH
 70
     0
  4
mm
 41
0.1
 42
0.05
 43
0.5
 44
0.1
 47
0.1
 48
0.1
 75
     1
 76
     1
 78
     7
 79
     2
 90
     1
140
0.12
141
0.0
146
0.71
147
0.06
173
     1
176
   256
177
   256
178
     2
274
     4
284
     7
340
5D
343
194
371
    -1
372
    -1
  0
DIMSTYLE
105
276
330
A
100
AcDbSymbolTableRecord
100
AcDbDimStyleTableRecord
  2
AM_DIN
 70
     0
  4
"
 41
5.0
 42
1.0
 43
10.0
 44
1.0
 47
0.1
 48
0.1
 50
90.0
 73
     0
 74
     0
 77
     1
 78
     8
 79
     2
140
5.0
141
0.0
143
0.0393701
146
0.71
147
1.5
172
     1
176
   256
177
   256
178
     2
271
     2
272
     2
283
     0
284
     8
340
5D
371
    -1
372
    -1
1001
ACAD_DSTYLE_DIMJOGGED_JOGANGLE_SYMBOL
1070
   384
1040
1.570796326794896
  0
DIMSTYLE
105
277
330
A
100
AcDbSymbolTableRecord
100
AcDbDimStyleTableRecord
  2
AM_DIN$3
 70
     0
  4
"
 41
3.5
 42
1.0
 43
10.0
 44
1.0
 47
0.1
 48
0.1
 50
90.0
 73
     0
 77
     1
 78
     8
 79
     2
140
3.5
141
0.0
143
0.0393701
146
0.71
147
1.5
176
   256
177
   256
178
     2
271
     2
272
     2
283
     0
284
     8
288
     1
289
     0
340
5D
371
    -1
372
    -1
1001
ACAD_DSTYLE_DIMJOGGED_JOGANGLE_SYMBOL
1070
   384
1040
1.570796326794896
  0
DIMSTYLE
105
278
330
A
100
AcDbSymbolTableRecord
100
AcDbDimStyleTableRecord
  2
AM_DIN$4
 70
     0
  4
"
 41
4.0
 42
1.0
 43
10.0
 44
1.0
 47
0.1
 48
0.1
 50
90.0
 73
     0
 77
     1
 78
     8
 79
     2
140
3.5
141
0.0
143
0.0393701
146
0.71
147
1.5
176
   256
177
   256
178
     2
271
     2
272
     2
283
     0
284
     8
288
     1
289
     0
340
5D
371
    -1
372
    -1
1001
ACAD_DSTYLE_DIMJOGGED_JOGANGLE_SYMBOL
1070
   384
1040
1.570796326794896
  0
DIMSTYLE
105
279
330
A
100
AcDbSymbolTableRecord
100
AcDbDimStyleTableRecord
  2
AM_DIN$6
 70
     0
  4
"
 41
4.0
 42
0.0
 43
10.0
 44
1.0
 47
0.1
 48
0.1
 50
90.0
 73
     0
 74
     0
 78
     8
 79
     2
140
3.5
141
0.0
143
0.0393701
146
0.71
147
1.5
172
     1
176
   256
177
   256
178
     2
271
     2
272
     2
283
     0
284
     8
340
5D
371
    -1
372
    -1
1001
ACAD_DSTYLE_DIMJOGGED_JOGANGLE_SYMBOL
1070
   384
1040
1.570796326794896
  0
DIMSTYLE
105
27A
330
A
100
AcDbSymbolTableRecord
100
AcDbDimStyleTableRecord
  2
AM_DIN$7
 70
     0
  4
"
 41
4.0
 42
1.0
 43
10.0
 44
1.0
 47
0.1
 48
0.1
 50
90.0
 73
     0
 74
     0
 77
     1
 78
     8
 79
     2
140
5.0
141
0.0
143
0.0393701
146
0.71
147
1.5
172
     1
176
   256
177
   256
178
     2
271
     2
272
     2
283
     0
284
     8
340
5D
371
    -1
372
    -1
1001
ACAD_DSTYLE_DIMJOGGED_JOGANGLE_SYMBOL
1070
   384
1040
1.570796326794896
  0
DIMSTYLE
105
27B
330
A
100
AcDbSymbolTableRecord
100
AcDbDimStyleTableRecord
  2
AM_DIN$SF
 70
     0
  4
"
 41
4.0
 42
1.0
 43
10.0
 44
1.0
 47
0.1
 48
0.1
 50
90.0
 73
     0
 74
     0
 75
     1
 76
     1
 77
     1
 78
     8
 79
     2
140
3.5
141
0.0
143
0.0393701
146
0.71
147
1.5
172
     1
176
   256
177
   256
178
     2
271
     2
272
     2
283
     0
284
     8
340
5D
371
    -1
372
    -1
1001
ACAD_DSTYLE_DIMJOGGED_JOGANGLE_SYMBOL
1070
   384
1040
1.570796326794896
  0
DIMSTYLE
105
27C
330
A
100
AcDbSymbolTableRecord
100
AcDbDimStyleTableRecord
  2
AM_DIN$SH
 70
     0
  4
"
 41
4.0
 42
1.0
 43
10.0
 44
1.0
 47
0.1
 48
0.1
 50
90.0
 73
     0
 74
     0
 75
     1
 76
     1
 77
     1
 78
     8
 79
     2
140
3.5
141
0.0
143
0.0393701
144
2.0
146
0.71
147
1.5
172
     1
173
     1
176
   256
177
   256
178
     2
271
     2
272
     2
283
     0
284
     8
340
5D
343
194
371
    -1
372
    -1
1001
ACAD_DSTYLE_DIMJOGGED_JOGANGLE_SYMBOL
1070
   384
1040
1.570796326794896
  0
DIMSTYLE
105
32F
102
{ACAD_REACTORS
330
1631
102
}
330
A
100
AcDbSymbolTableRecord
100
AcDbDimStyleTableRecord
  2
AM_DIN$0
 70
     0
  4
"
 41
4.0
 42
0.0
 43
10.0
 44
1.0
 47
0.1
 48
0.1
 50
90.0
 73
     0
 74
     0
 77
     1
 78
     8
 79
     2
140
3.5
141
0.0
143
0.0393701
146
0.71
147
1.5
172
     1
176
   256
177
   256
178
     2
271
     2
272
     2
283
     0
284
     8
340
5D
371
    -1
372
    -1
1001
ACAD_DSTYLE_DIMJOGGED_JOGANGLE_SYMBOL
1070
   384
1040
1.570796326794896
  0
DIMSTYLE
105
330
330
A
100
AcDbSymbolTableRecord
100
AcDbDimStyleTableRecord
  2
AM_DIN$2
 70
     0
  4
"
 41
4.0
 42
0.0
 43
10.0
 44
1.0
 47
0.1
 48
0.1
 50
90.0
 73
     0
 74
     0
 77
     1
 78
     8
 79
     2
140
3.5
141
0.0
143
0.0393701
146
0.71
147
1.5
172
     1
176
   256
177
   256
178
     2
271
     2
272
     2
283
     0
284
     8
340
5D
371
    -1
372
    -1
1001
ACAD_DSTYLE_DIMJOGGED_JOGANGLE_SYMBOL
1070
   384
1040
1.570796326794896
  0
DIMSTYLE
105
3CE
330
A
100
AcDbSymbolTableRecord
100
AcDbDimStyleTableRecord
  2
AM_ISO
 70
     0
  4
"
 41
2.5
 42
1.0
 43
10.0
 44
1.0
 47
0.1
 48
0.1
 73
     0
 74
     0
 77
     1
 78
     8
 79
     2
 90
     1
140
3.5
141
0.0
143
0.0393701
146
0.71
147
1.5
172
     1
176
   256
177
   256
178
     2
271
     2
272
     3
274
     4
283
     0
284
     8
340
5D
371
    -1
372
    -1
1001
ACAD_DSTYLE_DIMJOGGED_JOGANGLE_SYMBOL
1070
   384
1040
0.7853981633974483
  0
DIMSTYLE
105
3CF
330
A
100
AcDbSymbolTableRecord
100
AcDbDimStyleTableRecord
  2
AM_ISO$3
 70
     0
  4
"
 41
2.5
 42
1.0
 43
10.0
 44
1.0
 47
0.1
 48
0.1
 73
     0
 77
     1
 78
     8
 79
     2
 90
     1
140
3.5
141
0.0
143
0.0393701
146
0.71
147
1.5
176
   256
177
   256
178
     2
271
     2
272
     3
274
     4
283
     0
284
     8
288
     1
289
     0
340
5D
371
    -1
372
    -1
1001
ACAD_DSTYLE_DIMJOGGED_JOGANGLE_SYMBOL
1070
   384
1040
0.7853981633974483
  0
DIMSTYLE
105
3D0
330
A
100
AcDbSymbolTableRecord
100
AcDbDimStyleTableRecord
  2
AM_ISO$4
 70
     0
  4
"
 41
2.5
 42
1.0
 43
10.0
 44
1.0
 47
0.1
 48
0.1
 73
     0
 77
     1
 78
     8
 79
     2
 90
     1
140
3.5
141
0.0
143
0.0393701
146
0.71
147
1.5
176
   256
177
   256
178
     2
271
     2
272
     3
274
     4
283
     0
284
     8
288
     1
289
     0
340
5D
371
    -1
372
    -1
1001
ACAD_DSTYLE_DIMJOGGED_JOGANGLE_SYMBOL
1070
   384
1040
0.7853981633974483
  0
DIMSTYLE
105
3D1
330
A
100
AcDbSymbolTableRecord
100
AcDbDimStyleTableRecord
  2
AM_ISO$6
 70
     0
  4
"
 41
2.5
 42
1.0
 43
10.0
 44
1.0
 47
0.1
 48
0.1
 73
     0
 74
     0
 78
     8
 79
     2
 90
     1
140
3.5
141
0.0
143
0.0393701
146
0.71
147
1.5
172
     1
176
   256
177
   256
178
     2
271
     2
272
     3
274
     4
283
     0
284
     8
340
5D
371
    -1
372
    -1
1001
ACAD_DSTYLE_DIMJOGGED_JOGANGLE_SYMBOL
1070
   384
1040
0.7853981633974483
  0
DIMSTYLE
105
3D2
330
A
100
AcDbSymbolTableRecord
100
AcDbDimStyleTableRecord
  2
AM_ISO$7
 70
     0
  4
"
 41
2.5
 42
1.0
 43
10.0
 44
1.0
 47
0.1
 48
0.1
 73
     0
 74
     0
 77
     1
 78
     8
 79
     2
 90
     1
140
5.0
141
0.0
143
0.0393701
146
0.71
147
1.5
172
     1
176
   256
177
   256
178
     2
271
     2
272
     3
274
     4
283
     0
284
     8
340
5D
371
    -1
372
    -1
1001
ACAD_DSTYLE_DIMJOGGED_JOGANGLE_SYMBOL
1070
   384
1040
0.7853981633974483
  0
DIMSTYLE
105
3D3
330
A
100
AcDbSymbolTableRecord
100
AcDbDimStyleTableRecord
  2
AM_ISO$SF
 70
     0
  4
"
 41
2.5
 42
1.0
 43
10.0
 44
1.0
 47
0.1
 48
0.1
 73
     0
 74
     0
 75
     1
 76
     1
 77
     1
 78
     8
 79
     2
 90
     1
140
3.5
141
0.0
143
0.0393701
146
0.71
147
1.5
172
     1
176
   256
177
   256
178
     2
271
     2
272
     3
274
     4
283
     0
284
     8
340
5D
371
    -1
372
    -1
1001
ACAD_DSTYLE_DIMJOGGED_JOGANGLE_SYMBOL
1070
   384
1040
0.7853981633974483
  0
DIMSTYLE
105
3D4
330
A
100
AcDbSymbolTableRecord
100
AcDbDimStyleTableRecord
  2
AM_ISO$SH
 70
     0
  4
"
 41
2.5
 42
1.0
 43
10.0
 44
1.0
 47
0.1
 48
0.1
 73
     0
 74
     0
 75
     1
 76
     1
 77
     1
 78
     8
 79
     2
 90
     1
140
3.5
141
0.0
143
0.0393701
144
2.0
146
0.71
147
1.5
172
     1
173
     1
176
   256
177
   256
178
     2
271
     2
272
     3
274
     4
283
     0
284
     8
340
5D
343
194
371
    -1
372
    -1
1001
ACAD_DSTYLE_DIMJOGGED_JOGANGLE_SYMBOL
1070
   384
1040
0.7853981633974483
  0
ENDTAB
  0
TABLE
  2
BLOCK_RECORD
  5
1
330
0
100
AcDbSymbolTable
 70
    11
  0
BLOCK_RECORD
  5
74
102
{ACAD_XDICTIONARY
360
A88
102
}
330
1
100
AcDbSymbolTableRecord
100
AcDbBlockTableRecord
  2
*Model_Space
340
77
 70
     0
280
     1
281
     0
  0
BLOCK_RECORD
  5
70
330
1
100
AcDbSymbolTableRecord
100
AcDbBlockTableRecord
  2
*Paper_Space
340
73
 70
     0
280
     1
281
     0
  0
BLOCK_RECORD
  5
194
330
1
100
AcDbSymbolTableRecord
100
AcDbBlockTableRecord
  2
GENAXEH
340
0
 70
     0
280
     1
281
     0
  0
BLOCK_RECORD
  5
1632
330
1
100
AcDbSymbolTableRecord
100
AcDbBlockTableRecord
  2
*D1
340
0
 70
     0
280
     1
281
     0
  0
BLOCK_RECORD
  5
1695
102
{ACAD_XDICTIONARY
360
16D1
102
}
330
1
100
AcDbSymbolTableRecord
100
AcDbBlockTableRecord
  2
wss2000 d
340
0
102
{BLKREFS
331
16D6
102
}
 70
     0
280
     1
281
     0
  0
BLOCK_RECORD
  5
16D9
330
1
100
AcDbSymbolTableRecord
100
AcDbBlockTableRecord
  2
*S3
340
0
102
{BLKREFS
331
166E
102
}
 70
     0
280
     1
281
     0
  0
BLOCK_RECORD
  5
16E1
330
1
100
AcDbSymbolTableRecord
100
AcDbBlockTableRecord
  2
*S4
340
0
102
{BLKREFS
331
1671
102
}
 70
     0
280
     1
281
     0
  0
BLOCK_RECORD
  5
16E9
330
1
100
AcDbSymbolTableRecord
100
AcDbBlockTableRecord
  2
*S5
340
0
102
{BLKREFS
331
1673
102
}
 70
     0
280
     1
281
     0
  0
BLOCK_RECORD
  5
16F1
330
1
100
AcDbSymbolTableRecord
100
AcDbBlockTableRecord
  2
*S6
340
0
102
{BLKREFS
331
1675
102
}
 70
     0
280
     1
281
     0
  0
BLOCK_RECORD
  5
182C
330
1
100
AcDbSymbolTableRecord
100
AcDbBlockTableRecord
  2
_ACMFILLED
340
0
 70
     0
280
     1
281
     0
  0
BLOCK_RECORD
  5
1837
330
1
100
AcDbSymbolTableRecord
100
AcDbBlockTableRecord
  2
_ACMFILLEDHALF
340
0
 70
     0
280
     1
281
     0
  0
BLOCK_RECORD
  5
1843
330
1
100
AcDbSymbolTableRecord
100
AcDbBlockTableRecord
  2
_ACMFILLED15
340
0
 70
     0
280
     1
281
     0
  0
ENDTAB
  0
ENDSEC
  0
SECTION
  2
BLOCKS
  0
BLOCK
  5
75
330
74
100
AcDbEntity
  8
0
100
AcDbBlockBegin
  2
*Model_Space
 70
     0
 10
0.0
 20
0.0
 30
0.0
  3
*Model_Space
  1

  0
ENDBLK
  5
76
330
74
100
AcDbEntity
  8
0
100
AcDbBlockEnd
  0
BLOCK
  5
71
330
70
100
AcDbEntity
 67
     1
  8
0
100
AcDbBlockBegin
  2
*Paper_Space
 70
     0
 10
0.0
 20
0.0
 30
0.0
  3
*Paper_Space
  1

  0
ENDBLK
  5
72
330
70
100
AcDbEntity
 67
     1
  8
0
100
AcDbBlockEnd
  0
BLOCK
  5
1783
330
194
100
AcDbEntity
  8
0
100
AcDbBlockBegin
  2
GENAXEH
 70
     0
 10
0.0
 20
0.0
 30
0.0
  3
GENAXEH
  1

  0
LINE
  5
1784
330
194
100
AcDbEntity
  8
0
100
AcDbLine
 10
-1.0
 20
0.0
 30
0.0
 11
1.0
 21
0.0
 31
0.0
  0
ENDBLK
  5
1785
330
194
100
AcDbEntity
  8
0
100
AcDbBlockEnd
  0
BLOCK
  5
1633
330
1632
100
AcDbEntity
  8
0
100
AcDbBlockBegin
  2
*D1
 70
     1
 10
0.0
 20
0.0
 30
0.0
  3
*D1
  1

  0
LINE
  5
186B
330
1632
100
AcDbEntity
  8
AM_5 ( Bemassung)
440
 16777216
100
AcDbLine
 10
4628.269490594578
 20
3763.662223686839
 30
0.0
 11
4788.516647938586
 21
3763.662223686839
 31
0.0
  0
LINE
  5
186C
330
1632
100
AcDbEntity
  8
AM_5 ( Bemassung)
440
 16777216
100
AcDbLine
 10
4628.269490594578
 20
3463.662219181298
 30
0.0
 11
4788.516647938586
 21
3463.662219181298
 31
0.0
  0
LINE
  5
186D
330
1632
100
AcDbEntity
  8
AM_5 ( Bemassung)
440
 16777216
100
AcDbLine
 10
4780.516647938585
 20
3739.662223686839
 30
0.0
 11
4780.516647938585
 21
3487.662219181299
 31
0.0
  0
SOLID
  5
186E
330
1632
100
AcDbEntity
  8
AM_5 ( Bemassung)
440
 16777216
100
AcDbTrace
 10
4776.516647938586
 20
3739.662223686839
 30
0.0
 11
4784.516647938586
 21
3739.662223686839
 31
0.0
 12
4780.516647938585
 22
3763.662223686839
 32
0.0
 13
4780.516647938585
 23
3763.662223686839
 33
0.0
  0
SOLID
  5
186F
330
1632
100
AcDbEntity
  8
AM_5 ( Bemassung)
440
 16777216
100
AcDbTrace
 10
4776.516647938586
 20
3487.662219181299
 30
0.0
 11
4784.516647938586
 21
3487.662219181299
 31
0.0
 12
4780.516647938585
 22
3463.662219181298
 32
0.0
 13
4780.516647938585
 23
3463.662219181298
 33
0.0
  0
MTEXT
  5
1870
330
1632
100
AcDbEntity
  8
AM_5 ( Bemassung)
 62
     2
440
 16777216
100
AcDbMText
 10
4756.254710694383
 20
3635.08692799433
 30
0.0
 40
24.0
 41
0.0
 46
0.0
 71
     5
 72
     1
  1
300
 11
0.0000000000000001
 21
1.0
 31
0.0
 73
     1
 44
1.0
  0
POINT
  5
1871
330
1632
100
AcDbEntity
  8
Defpoints
 62
     0
440
 16777216
100
AcDbPoint
 10
4628.269490594578
 20
3763.662223686839
 30
0.0
  0
POINT
  5
1872
330
1632
100
AcDbEntity
  8
Defpoints
 62
     0
440
 16777216
100
AcDbPoint
 10
4628.269490594578
 20
3463.662219181298
 30
0.0
  0
POINT
  5
1873
330
1632
100
AcDbEntity
  8
Defpoints
 62
     0
440
 16777216
100
AcDbPoint
 10
4780.516647938585
 20
3463.662219181298
 30
0.0
  0
ENDBLK
  5
1634
330
1632
100
AcDbEntity
  8
0
100
AcDbBlockEnd
  0
BLOCK
  5
16D3
330
1695
100
AcDbEntity
  8
0
100
AcDbBlockBegin
  2
wss2000 d
 70
     0
 10
0.0
 20
0.0
 30
0.0
  3
wss2000 d
  1

  0
LINE
  5
1696
330
1695
100
AcDbEntity
  8
AM_7 (Mittellinie)
100
AcDbLine
 10
0.0
 20
-35.24369785587897
 30
0.0
 11
0.0
 21
34.95768811259131
 31
0.0
  0
ARC
  5
1697
330
1695
100
AcDbEntity
  8
AM_0 ( Kontur 0.5 )
100
AcDbCircle
 10
0.0
 20
-21.0
 30
0.0
 40
6.29999999999999
100
AcDbArc
 50
270.0
 51
316.0373761590264
  0
ARC
  5
1698
330
1695
100
AcDbEntity
  8
AM_0 ( Kontur 0.5 )
100
AcDbCircle
 10
0.0
 20
0.0
 30
0.0
 40
6.29999999999999
100
AcDbArc
 50
314.9999999999263
 51
325.4392338905224
  0
ARC
  5
1699
330
1695
100
AcDbEntity
  8
AM_0 ( Kontur 0.5 )
100
AcDbCircle
 10
-21.0
 20
0.0
 30
0.0
 40
6.29999999999999
100
AcDbArc
 50
180.0
 51
325.3263051759659
  0
ARC
  5
169A
330
1695
100
AcDbEntity
  8
AM_0 ( Kontur 0.5 )
100
AcDbCircle
 10
0.0
 20
21.0
 30
0.0
 40
6.29999999999999
100
AcDbArc
 50
90.0
 51
137.148042089375
  0
ARC
  5
169B
330
1695
100
AcDbEntity
  8
AM_0 ( Kontur 0.5 )
100
AcDbCircle
 10
21.0
 20
0.0
 30
0.0
 40
6.24999999999999
100
AcDbArc
 50
0.0
 51
135.8589848842756
  0
LINE
  5
169C
330
1695
100
AcDbEntity
  8
AM_7 (Mittellinie)
100
AcDbLine
 10
11.53508099069949
 20
-16.72813650016997
 30
0.0
 11
11.53508099069949
 21
-5.728136500169966
 31
0.0
  0
LINE
  5
169D
330
1695
100
AcDbEntity
  8
AM_7 (Mittellinie)
100
AcDbLine
 10
6.035080990699497
 20
-11.22813650016996
 30
0.0
 11
17.03508099069949
 21
-11.22813650016996
 31
0.0
  0
CIRCLE
  5
169E
330
1695
100
AcDbEntity
  8
AM_0 ( Kontur 0.5 )
100
AcDbCircle
 10
11.53508099069949
 20
-11.22813650016996
 30
0.0
 40
2.5
  0
CIRCLE
  5
169F
330
1695
100
AcDbEntity
  8
AM_0 ( Kontur 0.5 )
100
AcDbCircle
 10
21.0
 20
0.0
 30
0.0
 40
9.093266739737359
  0
LINE
  5
16A0
330
1695
100
AcDbEntity
  8
AM_0 ( Kontur 0.5 )
100
AcDbLine
 10
5.25
 20
-30.09326673973919
 30
0.0
 11
10.5
 21
-21.0
 31
0.0
  0
LINE
  5
16A1
330
1695
100
AcDbEntity
  8
AM_0 ( Kontur 0.5 )
100
AcDbLine
 10
10.5
 20
-21.0
 30
0.0
 11
5.25
 21
-11.9067332602699
 31
0.0
  0
ARC
  5
16A2
330
1695
100
AcDbEntity
  8
AM_0 ( Kontur 0.5 )
100
AcDbCircle
 10
0.0
 20
-21.0
 30
0.0
 40
6.29999999999999
100
AcDbArc
 50
112.1553095698781
 51
270.0
  0
CIRCLE
  5
16A3
330
1695
100
AcDbEntity
  8
AM_0 ( Kontur 0.5 )
100
AcDbCircle
 10
0.0
 20
-21.0
 30
0.0
 40
9.093266739737359
  0
LINE
  5
16A4
330
1695
100
AcDbEntity
  8
AM_0 ( Kontur 0.5 )
100
AcDbLine
 10
-5.25
 20
-30.09326673973919
 30
0.0
 11
5.25
 21
-30.09326673973919
 31
0.0
  0
LINE
  5
16A5
330
1695
100
AcDbEntity
  8
AM_0 ( Kontur 0.5 )
100
AcDbLine
 10
-10.5
 20
-21.0
 30
0.0
 11
-5.25
 21
-30.09326673973919
 31
0.0
  0
LINE
  5
16A6
330
1695
100
AcDbEntity
  8
AM_0 ( Kontur 0.5 )
100
AcDbLine
 10
-5.25
 20
-11.9067332602699
 30
0.0
 11
-10.5
 21
-21.0
 31
0.0
  0
LINE
  5
16A7
330
1695
100
AcDbEntity
  8
AM_0 ( Kontur 0.5 )
100
AcDbLine
 10
5.25
 20
-11.9067332602699
 30
0.0
 11
-5.25
 21
-11.9067332602699
 31
0.0
  0
CIRCLE
  5
16A8
330
1695
100
AcDbEntity
  8
AM_0 ( Kontur 0.5 )
100
AcDbCircle
 10
0.0
 20
-21.0
 30
0.0
 40
5.29999999999999
  0
LINE
  5
16A9
330
1695
100
AcDbEntity
  8
AM_0 ( Kontur 0.5 )
100
AcDbLine
 10
-30.09326673969918
 20
-5.25
 30
0.0
 11
-21.0
 21
-10.5
 31
0.0
  0
LINE
  5
16AA
330
1695
100
AcDbEntity
  8
AM_0 ( Kontur 0.5 )
100
AcDbLine
 10
-21.0
 20
-10.5
 30
0.0
 11
-11.90673326019896
 21
-5.25
 31
0.0
  0
ARC
  5
16AB
330
1695
100
AcDbEntity
  8
AM_0 ( Kontur 0.5 )
100
AcDbCircle
 10
-21.0
 20
0.0
 30
0.0
 40
6.29999999999999
100
AcDbArc
 50
79.95132917648319
 51
180.0
  0
CIRCLE
  5
16AC
330
1695
100
AcDbEntity
  8
AM_0 ( Kontur 0.5 )
100
AcDbCircle
 10
-21.0
 20
0.0
 30
0.0
 40
9.093266739737359
  0
LINE
  5
16AD
330
1695
100
AcDbEntity
  8
AM_0 ( Kontur 0.5 )
100
AcDbLine
 10
-30.09326673969918
 20
5.25
 30
0.0
 11
-30.09326673969918
 21
-5.25
 31
0.0
  0
LINE
  5
16AE
330
1695
100
AcDbEntity
  8
AM_0 ( Kontur 0.5 )
100
AcDbLine
 10
-21.0
 20
10.5
 30
0.0
 11
-30.09326673969918
 21
5.25
 31
0.0
  0
LINE
  5
16AF
330
1695
100
AcDbEntity
  8
AM_0 ( Kontur 0.5 )
100
AcDbLine
 10
-11.90673326019896
 20
5.25
 30
0.0
 11
-21.0
 21
10.5
 31
0.0
  0
LINE
  5
16B0
330
1695
100
AcDbEntity
  8
AM_0 ( Kontur 0.5 )
100
AcDbLine
 10
-11.90673326019896
 20
-5.25
 30
0.0
 11
-11.90673326019896
 21
5.25
 31
0.0
  0
CIRCLE
  5
16B1
330
1695
100
AcDbEntity
  8
AM_0 ( Kontur 0.5 )
100
AcDbCircle
 10
-21.0
 20
0.0
 30
0.0
 40
5.29999999999999
  0
LINE
  5
16B2
330
1695
100
AcDbEntity
  8
AM_0 ( Kontur 0.5 )
100
AcDbLine
 10
-5.25
 20
30.0932667397301
 30
0.0
 11
-10.5
 21
21.0
 31
0.0
  0
LINE
  5
16B3
330
1695
100
AcDbEntity
  8
AM_0 ( Kontur 0.5 )
100
AcDbLine
 10
-10.5
 20
21.0
 30
0.0
 11
-5.25
 21
11.9067332602599
 31
0.0
  0
ARC
  5
16B4
330
1695
100
AcDbEntity
  8
AM_0 ( Kontur 0.5 )
100
AcDbCircle
 10
0.0
 20
21.0
 30
0.0
 40
6.29999999999999
100
AcDbArc
 50
287.6972430857415
 51
90.0
  0
CIRCLE
  5
16B5
330
1695
100
AcDbEntity
  8
AM_0 ( Kontur 0.5 )
100
AcDbCircle
 10
0.0
 20
21.0
 30
0.0
 40
9.093266739737359
  0
LINE
  5
16B6
330
1695
100
AcDbEntity
  8
AM_0 ( Kontur 0.5 )
100
AcDbLine
 10
5.25
 20
30.0932667397301
 30
0.0
 11
-5.25
 21
30.0932667397301
 31
0.0
  0
LINE
  5
16B7
330
1695
100
AcDbEntity
  8
AM_0 ( Kontur 0.5 )
100
AcDbLine
 10
10.5
 20
21.0
 30
0.0
 11
5.25
 21
30.0932667397301
 31
0.0
  0
LINE
  5
16B8
330
1695
100
AcDbEntity
  8
AM_0 ( Kontur 0.5 )
100
AcDbLine
 10
5.25
 20
11.9067332602599
 30
0.0
 11
10.5
 21
21.0
 31
0.0
  0
LINE
  5
16B9
330
1695
100
AcDbEntity
  8
AM_0 ( Kontur 0.5 )
100
AcDbLine
 10
-5.25
 20
11.9067332602599
 30
0.0
 11
5.25
 21
11.9067332602599
 31
0.0
  0
LINE
  5
16BA
330
1695
100
AcDbEntity
  8
AM_0 ( Kontur 0.5 )
100
AcDbLine
 10
-2.717599973500909
 20
10.14222117603003
 30
0.0
 11
-10.14222117600002
 21
2.717599973570031
 31
0.0
  0
CIRCLE
  5
16BB
330
1695
100
AcDbEntity
  8
AM_0 ( Kontur 0.5 )
100
AcDbCircle
 10
0.0
 20
0.0
 30
0.0
 40
5.29999999999999
  0
ARC
  5
16BC
330
1695
100
AcDbEntity
  8
AM_0 ( Kontur 0.5 )
100
AcDbCircle
 10
0.0
 20
0.0
 30
0.0
 40
6.29999999999999
100
AcDbArc
 50
102.1670833718451
 51
314.9999999999263
  0
CIRCLE
  5
16BD
330
1695
100
AcDbEntity
  8
AM_0 ( Kontur 0.5 )
100
AcDbCircle
 10
0.0
 20
0.0
 30
0.0
 40
9.093266739737359
  0
LINE
  5
16BE
330
1695
100
AcDbEntity
  8
AM_0 ( Kontur 0.5 )
100
AcDbLine
 10
7.424621202502746
 20
7.424621202460912
 30
0.0
 11
-2.717599973500909
 21
10.14222117603003
 31
0.0
  0
LINE
  5
16BF
330
1695
100
AcDbEntity
  8
AM_0 ( Kontur 0.5 )
100
AcDbLine
 10
10.14222117610188
 20
-2.717599973579126
 30
0.0
 11
7.424621202502746
 21
7.424621202460912
 31
0.0
  0
LINE
  5
16C0
330
1695
100
AcDbEntity
  8
AM_0 ( Kontur 0.5 )
100
AcDbLine
 10
2.717599973599134
 20
-10.14222117603913
 30
0.0
 11
10.14222117610188
 21
-2.717599973579126
 31
0.0
  0
LINE
  5
16C1
330
1695
100
AcDbEntity
  8
AM_0 ( Kontur 0.5 )
100
AcDbLine
 10
-7.424621202397247
 20
-7.424621202459093
 30
0.0
 11
2.717599973599134
 21
-10.14222117603913
 31
0.0
  0
LINE
  5
16C2
330
1695
100
AcDbEntity
  8
AM_0 ( Kontur 0.5 )
100
AcDbLine
 10
-10.14222117600002
 20
2.717599973570031
 30
0.0
 11
-7.424621202397247
 21
-7.424621202459093
 31
0.0
  0
CIRCLE
  5
16C3
330
1695
100
AcDbEntity
  8
AM_0 ( Kontur 0.5 )
100
AcDbCircle
 10
21.0
 20
0.0
 30
0.0
 40
9.093266739737359
  0
ARC
  5
16C4
330
1695
100
AcDbEntity
  8
AM_0 ( Kontur 0.5 )
100
AcDbCircle
 10
21.0
 20
0.0
 30
0.0
 40
6.24999999999999
100
AcDbArc
 50
265.8198484370203
 51
0.0
  0
CIRCLE
  5
16C5
330
1695
100
AcDbEntity
  8
AM_0 ( Kontur 0.5 )
100
AcDbCircle
 10
0.0
 20
21.0
 30
0.0
 40
5.29999999999999
  0
LINE
  5
16C6
330
1695
100
AcDbEntity
  8
AM_0 ( Kontur 0.5 )
100
AcDbLine
 10
30.09326673980104
 20
5.25
 30
0.0
 11
21.0
 21
10.5
 31
0.0
  0
LINE
  5
16C7
330
1695
100
AcDbEntity
  8
AM_0 ( Kontur 0.5 )
100
AcDbLine
 10
30.09326673980104
 20
-5.25
 30
0.0
 11
30.09326673980104
 21
5.25
 31
0.0
  0
LINE
  5
16C8
330
1695
100
AcDbEntity
  8
AM_0 ( Kontur 0.5 )
100
AcDbLine
 10
21.0
 20
-10.5
 30
0.0
 11
30.09326673980104
 21
-5.25
 31
0.0
  0
LINE
  5
16C9
330
1695
100
AcDbEntity
  8
AM_0 ( Kontur 0.5 )
100
AcDbLine
 10
11.90673326030082
 20
-5.25
 30
0.0
 11
21.0
 21
-10.5
 31
0.0
  0
LINE
  5
16CA
330
1695
100
AcDbEntity
  8
AM_0 ( Kontur 0.5 )
100
AcDbLine
 10
11.90673326030082
 20
5.25
 30
0.0
 11
11.90673326030082
 21
-5.25
 31
0.0
  0
LINE
  5
16CB
330
1695
100
AcDbEntity
  8
AM_0 ( Kontur 0.5 )
100
AcDbLine
 10
21.0
 20
10.5
 30
0.0
 11
11.90673326030082
 21
5.25
 31
0.0
  0
CIRCLE
  5
16CC
330
1695
100
AcDbEntity
  8
AM_7 (Mittellinie)
100
AcDbCircle
 10
0.0
 20
0.0
 30
0.0
 40
21.0
  0
CIRCLE
  5
16CD
330
1695
100
AcDbEntity
  8
AM_3 ( Verdeckt )
100
AcDbCircle
 10
0.0
 20
0.0
 30
0.0
 40
26.25
  0
CIRCLE
  5
16CE
330
1695
100
AcDbEntity
  8
AM_0 ( Kontur 0.5 )
100
AcDbCircle
 10
0.0
 20
0.0
 30
0.0
 40
29.25
  0
CIRCLE
  5
16CF
330
1695
100
AcDbEntity
  8
AM_0 ( Kontur 0.5 )
100
AcDbCircle
 10
21.0
 20
0.0
 30
0.0
 40
5.29999999999999
  0
LINE
  5
16D0
330
1695
100
AcDbEntity
  8
AM_7 (Mittellinie)
100
AcDbLine
 10
-35.30962921390165
 20
0.0
 30
0.0
 11
32.95463241769903
 21
0.0
 31
0.0
  0
ENDBLK
  5
16D4
330
1695
100
AcDbEntity
  8
0
100
AcDbBlockEnd
  0
BLOCK
  5
16DE
330
16D9
100
AcDbEntity
  8
0
100
AcDbBlockBegin
  2
*S3
 70
     1
 10
0.0
 20
0.0
 30
0.0
  3
*S3
  1

  0
LINE
  5
16DA
330
16D9
100
AcDbEntity
  8
AM_5 ( Bemassung)
 62
     3
100
AcDbLine
 10
4364.609093730233
 20
3449.24480418817
 30
0.0
 11
4498.948220069983
 21
3449.24480418817
 31
0.0
  0
LINE
  5
16DB
330
16D9
100
AcDbEntity
  8
AM_5 ( Bemassung)
 62
     3
100
AcDbLine
 10
4498.948220069983
 20
3449.24480418817
 30
0.0
 11
4624.664777297629
 21
3353.681761919619
 31
0.0
  0
TRACE
  5
16DC
330
16D9
100
AcDbEntity
  8
AM_5 ( Bemassung)
  6
Continuous
 62
     3
100
AcDbTrace
 10
4623.151883905842
 20
3351.691497229914
 30
0.0
 11
4626.177670689416
 21
3355.672026609324
 31
0.0
 12
4636.606365483627
 22
3344.604401532588
 32
0.0
 13
4636.606365483627
 23
3344.604401532588
 33
0.0
  0
MTEXT
  5
16DD
330
16D9
100
AcDbEntity
  8
AM_5 ( Bemassung)
 62
     2
100
AcDbMText
 10
4364.609093730233
 20
3469.24480418817
 30
0.0
 40
15.0
 41
0.0
 46
0.0
 71
     7
 72
     5
  1
Masse-\PElektrode
 73
     1
 44
1.0
  0
ENDBLK
  5
16DF
330
16D9
100
AcDbEntity
  8
0
100
AcDbBlockEnd
  0
BLOCK
  5
16E6
330
16E1
100
AcDbEntity
  8
0
100
AcDbBlockBegin
  2
*S4
 70
     1
 10
0.0
 20
0.0
 30
0.0
  3
*S4
  1

  0
LINE
  5
16E2
330
16E1
100
AcDbEntity
  8
AM_5 ( Bemassung)
 62
     3
100
AcDbLine
 10
4366.617961397355
 20
3556.025290659008
 30
0.0
 11
4501.908932281541
 21
3556.025290659008
 31
0.0
  0
LINE
  5
16E3
330
16E1
100
AcDbEntity
  8
AM_5 ( Bemassung)
 62
     3
100
AcDbLine
 10
4501.908932281541
 20
3556.025290659008
 30
0.0
 11
4633.417688443223
 21
3455.98275193122
 31
0.0
  0
TRACE
  5
16E4
330
16E1
100
AcDbEntity
  8
AM_5 ( Bemassung)
  6
Continuous
 62
     3
100
AcDbTrace
 10
4631.904060874041
 20
3453.993045537853
 30
0.0
 11
4634.931316012408
 21
3457.972458324587
 31
0.0
 12
4645.355926851181
 22
3446.90098647979
 32
0.0
 13
4645.355926851181
 23
3446.90098647979
 33
0.0
  0
MTEXT
  5
16E5
330
16E1
100
AcDbEntity
  8
AM_5 ( Bemassung)
 62
     2
100
AcDbMText
 10
4366.617961397355
 20
3576.025290659007
 30
0.0
 40
15.0
 41
0.0
 46
0.0
 71
     7
 72
     5
  1
Tiefstand-\PElektrode
 73
     1
 44
1.0
  0
ENDBLK
  5
16E7
330
16E1
100
AcDbEntity
  8
0
100
AcDbBlockEnd
  0
BLOCK
  5
16EE
330
16E9
100
AcDbEntity
  8
0
100
AcDbBlockBegin
  2
*S5
 70
     1
 10
0.0
 20
0.0
 30
0.0
  3
*S5
  1

  0
LINE
  5
16EA
330
16E9
100
AcDbEntity
  8
AM_5 ( Bemassung)
 62
     3
100
AcDbLine
 10
4370.83483214868
 20
3684.088520587621
 30
0.0
 11
4515.660889447451
 21
3684.088520587621
 31
0.0
  0
LINE
  5
16EB
330
16E9
100
AcDbEntity
  8
AM_5 ( Bemassung)
 62
     3
100
AcDbLine
 10
4515.660889447451
 20
3684.088520587621
 30
0.0
 11
4652.844307983118
 21
3589.775114384428
 31
0.0
  0
TRACE
  5
16EC
330
16E9
100
AcDbEntity
  8
AM_5 ( Bemassung)
  6
Continuous
 62
     3
100
AcDbTrace
 10
4651.427987910255
 20
3587.71500822182
 30
0.0
 11
4654.260628055977
 21
3591.835220547035
 31
0.0
 12
4665.204945008204
 22
3581.277193913273
 32
0.0
 13
4665.204945008204
 23
3581.277193913273
 33
0.0
  0
MTEXT
  5
16ED
330
16E9
100
AcDbEntity
  8
AM_5 ( Bemassung)
 62
     2
100
AcDbMText
 10
4370.83483214868
 20
3704.088520587621
 30
0.0
 40
15.0
 41
0.0
 46
0.0
 71
     7
 72
     5
  1
Höchstand-\PElektrode
 73
     1
 44
1.0
  0
ENDBLK
  5
16EF
330
16E9
100
AcDbEntity
  8
0
100
AcDbBlockEnd
  0
BLOCK
  5
16F6
330
16F1
100
AcDbEntity
  8
0
100
AcDbBlockBegin
  2
*S6
 70
     1
 10
0.0
 20
0.0
 30
0.0
  3
*S6
  1

  0
LINE
  5
16F2
330
16F1
100
AcDbEntity
  8
AM_5 ( Bemassung)
 62
     3
100
AcDbLine
 10
4371.716869992169
 20
3817.907272893548
 30
0.0
 11
4517.6144339701
 21
3817.907272893548
 31
0.0
  0
LINE
  5
16F3
330
16F1
100
AcDbEntity
  8
AM_5 ( Bemassung)
 62
     3
100
AcDbLine
 10
4517.6144339701
 20
3817.907272893548
 30
0.0
 11
4583.308798736285
 21
3853.929105085402
 31
0.0
  0
TRACE
  5
16F4
330
16F1
100
AcDbEntity
  8
AM_5 ( Bemassung)
  6
Continuous
 62
     3
100
AcDbTrace
 10
4584.510774828729
 20
3851.737016258918
 30
0.0
 11
4582.106822643842
 21
3856.121193911885
 31
0.0
 12
4596.461331747796
 22
3861.140961668911
 32
0.0
 13
4596.461331747796
 23
3861.140961668911
 33
0.0
  0
MTEXT
  5
16F5
330
16F1
100
AcDbEntity
  8
AM_5 ( Bemassung)
 62
     2
100
AcDbMText
 10
4371.716869992169
 20
3837.907272893547
 30
0.0
 40
15.0
 41
0.0
 46
0.0
 71
     7
 72
     5
  1
Kabellänge:\P3m
 73
     1
 44
1.0
  0
ENDBLK
  5
16F7
330
16F1
100
AcDbEntity
  8
0
100
AcDbBlockEnd
  0
BLOCK
  5
182D
330
182C
100
AcDbEntity
  8
0
100
AcDbBlockBegin
  2
_ACMFILLED
 70
     0
 10
0.0
 20
0.0
 30
0.0
  3
_ACMFILLED
  1

  0
TRACE
  5
182F
330
182C
100
AcDbEntity
  8
AM_0 ( Kontur 0.5 )
 62
     0
100
AcDbTrace
 10
-1.0
 20
-0.166666666
 30
0.0
 11
-1.0
 21
0.166666666
 31
0.0
 12
0.0
 22
0.0
 32
0.0
 13
0.0
 23
0.0
 33
0.0
  0
ENDBLK
  5
182E
330
182C
100
AcDbEntity
  8
0
100
AcDbBlockEnd
  0
BLOCK
  5
1838
330
1837
100
AcDbEntity
  8
0
100
AcDbBlockBegin
  2
_ACMFILLEDHALF
 70
     0
 10
0.0
 20
0.0
 30
0.0
  3
_ACMFILLEDHALF
  1

  0
TRACE
  5
183A
330
1837
100
AcDbEntity
  8
AM_0 ( Kontur 0.5 )
 62
     0
100
AcDbTrace
 10
-0.8
 20
0.0
 30
0.0
 11
-1.0
 21
0.166666666
 31
0.0
 12
0.0
 22
0.0
 32
0.0
 13
0.0
 23
0.0
 33
0.0
  0
LINE
  5
183B
330
1837
100
AcDbEntity
  8
AM_0 ( Kontur 0.5 )
 62
     0
100
AcDbLine
 10
-1.0
 20
0.0
 30
0.0
 11
-0.8
 21
0.0
 31
0.0
  0
ENDBLK
  5
1839
330
1837
100
AcDbEntity
  8
0
100
AcDbBlockEnd
  0
BLOCK
  5
1844
330
1843
100
AcDbEntity
  8
0
100
AcDbBlockBegin
  2
_ACMFILLED15
 70
     0
 10
0.0
 20
0.0
 30
0.0
  3
_ACMFILLED15
  1

  0
TRACE
  5
1846
330
1843
100
AcDbEntity
  8
AM_0 ( Kontur 0.5 )
 62
     0
100
AcDbTrace
 10
-1.0
 20
-0.131652497
 30
0.0
 11
-1.0
 21
0.131652497
 31
0.0
 12
0.0
 22
0.0
 32
0.0
 13
0.0
 23
0.0
 33
0.0
  0
ENDBLK
  5
1845
330
1843
100
AcDbEntity
  8
0
100
AcDbBlockEnd
  0
ENDSEC
  0
SECTION
  2
ENTITIES
  0
ARC
  5
1364
330
74
100
AcDbEntity
  8
AM_0 ( Kontur 0.5 )
100
AcDbCircle
 10
-3762.389606794699
 20
-1927.571636607232
 30
4310.181210953998
 40
2.975999999999998
210
0.1753563396752447
220
0.8958702403077214
230
0.408248290463886
100
AcDbArc
 50
286.4808554386998
 51
140.7684795164071
  0
ARC
  5
1365
330
74
100
AcDbEntity
  8
AM_0 ( Kontur 0.5 )
100
AcDbCircle
 10
-3762.389606794699
 20
-1927.571636607232
 30
4310.181210953998
 40
2.975999999999998
210
0.1753563396752447
220
0.8958702403077214
230
0.408248290463886
100
AcDbArc
 50
140.7684795164071
 51
248.8405389588832
  0
ARC
  5
1366
330
74
100
AcDbEntity
  8
AM_0 ( Kontur 0.5 )
100
AcDbCircle
 10
-3762.445584816868
 20
-1927.701989148825
 30
4310.472688098064
 40
0.9599999999999999
210
0.1753563396752447
220
0.8958702403077214
230
0.408248290463886
100
AcDbArc
 50
358.2674284669214
 51
140.7684795164071
  0
CIRCLE
  5
1367
330
74
100
AcDbEntity
  8
AM_0 ( Kontur 0.5 )
100
AcDbCircle
 10
-3762.650186039834
 20
-1928.842986212829
 30
4313.024035095295
 40
0.9599999999999999
210
0.1753563396752447
220
0.8958702403077214
230
0.408248290463886
  0
LINE
  5
1368
330
74
100
AcDbEntity
  8
AM_0 ( Kontur 0.5 )
100
AcDbLine
 10
4599.217056225517
 20
3914.108121898885
 30
-0.0264961602057952
 11
4598.479391513415
 21
3911.404613394977
 31
-0.0264961615648645
  0
ARC
  5
1369
330
74
100
AcDbEntity
  8
AM_0 ( Kontur 0.5 )
100
AcDbCircle
 10
-3762.44558481687
 20
-1927.701989148825
 30
4310.472688098065
 40
0.9599999999999999
210
0.1753563396752447
220
0.8958702403077214
230
0.408248290463886
100
AcDbArc
 50
140.7684795164071
 51
174.1508614899331
  0
LINE
  5
136A
330
74
100
AcDbEntity
  8
AM_0 ( Kontur 0.5 )
100
AcDbLine
 10
4600.34835059521
 20
3910.986013613181
 30
0.0264961629427489
 11
4601.095885639834
 21
3913.716213943348
 31
0.0264961629451932
  0
ARC
  5
136B
330
74
100
AcDbEntity
  8
AM_0 ( Kontur 0.5 )
100
AcDbCircle
 10
-4602.624601782832
 20
3865.937570514605
 30
0.0000000001373545
 40
1.603851729391173
210
0.0000000000000058
220
0.0000000000000079
230
-1.0
100
AcDbArc
 50
125.6578259393368
 51
179.1100680890715
  0
LINE
  5
1421
330
74
100
AcDbEntity
  8
AM_0 ( Kontur 0.5 )
100
AcDbLine
 10
4646.773053872479
 20
3285.270430502119
 30
0.0
 11
4642.374657806482
 21
3285.270430502119
 31
0.0
  0
ARC
  5
1422
330
74
100
AcDbEntity
  8
AM_0 ( Kontur 0.5 )
100
AcDbCircle
 10
4642.374657806482
 20
3287.270430532159
 30
0.0
 40
2.00000003003698
100
AcDbArc
 50
192.0362660000162
 51
270.0
  0
LINE
  5
1423
330
74
100
AcDbEntity
  8
AM_0 ( Kontur 0.5 )
100
AcDbLine
 10
4646.773053872479
 20
3285.270430502119
 30
0.0
 11
4651.171450938577
 21
3285.270430502119
 31
0.0
  0
ARC
  5
1424
330
74
100
AcDbEntity
  8
AM_0 ( Kontur 0.5 )
100
AcDbCircle
 10
4651.171450938577
 20
3287.270430532159
 30
0.0
 40
2.00000003003698
100
AcDbArc
 50
270.0
 51
347.9637339999838
  0
LINE
  5
1425
330
74
100
AcDbEntity
  8
AM_0 ( Kontur 0.5 )
100
AcDbLine
 10
4650.023053921279
 20
3381.770431951399
 30
0.0
 11
4650.023053921279
 21
3285.301579502589
 31
0.0
  0
LINE
  5
1426
330
74
100
AcDbEntity
  8
AM_0 ( Kontur 0.5 )
100
AcDbLine
 10
4652.816975963279
 20
3286.133659515079
 30
0.0
 11
4656.113013012777
 21
3381.71873895063
 31
0.0
  0
LINE
  5
1427
330
74
100
AcDbEntity
  8
AM_0 ( Kontur 0.5 )
100
AcDbLine
 10
4640.72913278178
 20
3286.133659515079
 30
0.0
 11
4637.433095732278
 21
3381.71873895063
 31
0.0
  0
LINE
  5
1428
330
74
100
AcDbEntity
  8
AM_0 ( Kontur 0.5 )
100
AcDbLine
 10
4643.523053823679
 20
3381.770431951399
 30
0.0
 11
4643.523053823679
 21
3285.301579502589
 31
0.0
  0
LINE
  5
1429
330
74
100
AcDbEntity
  8
AM_0 ( Kontur 0.5 )
100
AcDbLine
 10
4652.523053958881
 20
3380.815318937059
 30
0.0
 11
4652.523053958881
 21
3285.796263510019
 31
0.0
  0
LINE
  5
142A
330
74
100
AcDbEntity
  8
AM_0 ( Kontur 0.5 )
100
AcDbLine
 10
4641.023053786179
 20
3380.815318937059
 30
0.0
 11
4641.023053786179
 21
3285.796263510019
 31
0.0
  0
LINE
  5
142B
330
74
100
AcDbEntity
  8
AM_0 ( Kontur 0.5 )
100
AcDbLine
 10
4654.855689993881
 20
3294.958714647619
 30
0.0
 11
4653.127482967978
 21
3286.853369525888
 31
0.0
  0
LINE
  5
142C
330
74
100
AcDbEntity
  8
AM_0 ( Kontur 0.5 )
100
AcDbLine
 10
4638.690418751081
 20
3294.958714647619
 30
0.0
 11
4640.418625777078
 21
3286.853369525888
 31
0.0
  0
LINE
  5
142F
330
74
100
AcDbEntity
  8
AM_0 ( Kontur 0.5 )
100
AcDbLine
 10
4646.773053872479
 20
3406.270432319359
 30
0.0
 11
4658.273054045177
 21
3406.270432319359
 31
0.0
  0
LINE
  5
1430
330
74
100
AcDbEntity
  8
AM_0 ( Kontur 0.5 )
100
AcDbLine
 10
4655.320492000879
 20
3297.646128687981
 30
0.0
 11
4658.273054045177
 21
3383.270431973929
 31
0.0
  0
LINE
  5
1431
330
74
100
AcDbEntity
  8
AM_0 ( Kontur 0.5 )
100
AcDbLine
 10
4646.773053872479
 20
3408.770432356899
 30
0.0
 11
4658.273054045177
 21
3408.770432356899
 31
0.0
  0
LINE
  5
1432
330
74
100
AcDbEntity
  8
AM_0 ( Kontur 0.5 )
100
AcDbLine
 10
4646.773053872479
 20
3415.770432462029
 30
0.0
 11
4658.273054045177
 21
3415.770432462029
 31
0.0
  0
LINE
  5
1433
330
74
100
AcDbEntity
  8
AM_0 ( Kontur 0.5 )
100
AcDbLine
 10
4638.225616744181
 20
3297.646128687981
 30
0.0
 11
4635.273053699779
 21
3383.270431973929
 31
0.0
  0
ARC
  5
1434
330
74
100
AcDbEntity
  8
AM_0 ( Kontur 0.5 )
100
AcDbCircle
 10
4648.219676894277
 20
3297.99075169316
 30
0.0
 40
10.0000001501849
100
AcDbArc
 50
181.9749340000118
 51
197.650123999976
  0
ARC
  5
1435
330
74
100
AcDbEntity
  8
AM_0 ( Kontur 0.5 )
100
AcDbCircle
 10
4645.326431850778
 20
3297.99075169316
 30
0.0
 40
10.0000001501849
100
AcDbArc
 50
342.349876000024
 51
358.0250659999882
  0
LINE
  5
1436
330
74
100
AcDbEntity
  8
AM_0 ( Kontur 0.5 )
100
AcDbLine
 10
4656.773054022679
 20
3408.770432356899
 30
0.0
 11
4656.773054022679
 21
3406.270432319359
 31
0.0
  0
LINE
  5
1437
330
74
100
AcDbEntity
  8
AM_0 ( Kontur 0.5 )
100
AcDbLine
 10
4636.773053722277
 20
3408.770432356899
 30
0.0
 11
4636.773053722277
 21
3406.270432319359
 31
0.0
  0
LINE
  5
1438
330
74
100
AcDbEntity
  8
AM_0 ( Kontur 0.5 )
100
AcDbLine
 10
4646.773053872479
 20
3406.270432319359
 30
0.0
 11
4635.273053699779
 21
3406.270432319359
 31
0.0
  0
LINE
  5
1439
330
74
100
AcDbEntity
  8
AM_0 ( Kontur 0.5 )
100
AcDbLine
 10
4635.273053699779
 20
3406.270432319359
 30
0.0
 11
4635.273053699779
 21
3383.270431973929
 31
0.0
  0
LINE
  5
143A
330
74
100
AcDbEntity
  8
AM_0 ( Kontur 0.5 )
100
AcDbLine
 10
4642.023053801182
 20
3383.270431973929
 30
0.0
 11
4638.932204754779
 21
3383.270431973929
 31
0.0
  0
LINE
  5
143B
330
74
100
AcDbEntity
  8
AM_0 ( Kontur 0.5 )
100
AcDbLine
 10
4637.980667740481
 20
3382.929990968819
 30
0.0
 11
4641.378607791481
 21
3381.688511950169
 31
0.0
  0
ARC
  5
143C
330
74
100
AcDbEntity
  8
AM_0 ( Kontur 0.5 )
100
AcDbCircle
 10
4638.932204754779
 20
3381.770431951399
 30
0.0
 40
1.500000022527738
100
AcDbArc
 50
90.0
 51
181.9749340000118
  0
ARC
  5
143D
330
74
100
AcDbEntity
  8
AM_0 ( Kontur 0.5 )
100
AcDbCircle
 10
4642.273053804878
 20
3370.794519786559
 30
0.0
 40
1.250000018773119
100
AcDbArc
 50
180.0
 51
0.0
  0
ARC
  5
143E
330
74
100
AcDbEntity
  8
AM_0 ( Kontur 0.5 )
100
AcDbCircle
 10
4642.023053801182
 20
3381.770431951399
 30
0.0
 40
1.500000022527738
100
AcDbArc
 50
0.0
 51
90.0
  0
ARC
  5
143F
330
74
100
AcDbEntity
  8
AM_0 ( Kontur 0.5 )
100
AcDbCircle
 10
4642.273053804878
 20
3380.815318937059
 30
0.0
 40
1.250000018773119
100
AcDbArc
 50
0.0
 51
180.0
  0
LINE
  5
1440
330
74
100
AcDbEntity
  8
AM_0 ( Kontur 0.5 )
100
AcDbLine
 10
4651.523053943882
 20
3383.270431973929
 30
0.0
 11
4654.613903990281
 21
3383.270431973929
 31
0.0
  0
ARC
  5
1441
330
74
100
AcDbEntity
  8
AM_0 ( Kontur 0.5 )
100
AcDbCircle
 10
4651.273053940079
 20
3380.815318937059
 30
0.0
 40
1.250000018773119
100
AcDbArc
 50
0.0
 51
180.0
  0
LINE
  5
1442
330
74
100
AcDbEntity
  8
AM_0 ( Kontur 0.5 )
100
AcDbLine
 10
4655.565441004578
 20
3382.929990968819
 30
0.0
 11
4652.167500953479
 21
3381.688511950169
 31
0.0
  0
ARC
  5
1443
330
74
100
AcDbEntity
  8
AM_0 ( Kontur 0.5 )
100
AcDbCircle
 10
4651.273053940079
 20
3370.794519786559
 30
0.0
 40
1.250000018773119
100
AcDbArc
 50
180.0
 51
0.0
  0
ARC
  5
1444
330
74
100
AcDbEntity
  8
AM_0 ( Kontur 0.5 )
100
AcDbCircle
 10
4651.523053943882
 20
3381.770431951399
 30
0.0
 40
1.500000022527738
100
AcDbArc
 50
90.0
 51
180.0
  0
ARC
  5
1445
330
74
100
AcDbEntity
  8
AM_0 ( Kontur 0.5 )
100
AcDbCircle
 10
4654.613903990281
 20
3381.770431951399
 30
0.0
 40
1.500000022527738
100
AcDbArc
 50
358.0250659999882
 51
90.0
  0
LINE
  5
1446
330
74
100
AcDbEntity
  8
AM_0 ( Kontur 0.5 )
100
AcDbLine
 10
4646.773053872479
 20
3418.270432499581
 30
0.0
 11
4638.102999742278
 21
3418.270432499581
 31
0.0
  0
LINE
  5
1447
330
74
100
AcDbEntity
  8
AM_0 ( Kontur 0.5 )
100
AcDbLine
 10
4646.773053872479
 20
3415.770432462029
 30
0.0
 11
4635.273053699779
 21
3415.770432462029
 31
0.0
  0
LINE
  5
1448
330
74
100
AcDbEntity
  8
AM_0 ( Kontur 0.5 )
100
AcDbLine
 10
4646.773053872479
 20
3408.770432356899
 30
0.0
 11
4635.273053699779
 21
3408.770432356899
 31
0.0
  0
LINE
  5
1449
330
74
100
AcDbEntity
  8
AM_0 ( Kontur 0.5 )
100
AcDbLine
 10
4636.102999712277
 20
3415.770432462029
 30
0.0
 11
4636.102999712277
 21
3416.270432469538
 31
0.0
  0
LINE
  5
144A
330
74
100
AcDbEntity
  8
AM_0 ( Kontur 0.5 )
100
AcDbLine
 10
4637.668015735779
 20
3415.770432462029
 30
0.0
 11
4637.668015735779
 21
3408.770432356899
 31
0.0
  0
LINE
  5
144B
330
74
100
AcDbEntity
  8
AM_0 ( Kontur 0.5 )
100
AcDbLine
 10
4637.473390732881
 20
3415.770432462029
 30
0.0
 11
4637.473390732881
 21
3408.770432356899
 31
0.0
  0
LINE
  5
144C
330
74
100
AcDbEntity
  8
AM_0 ( Kontur 0.5 )
100
AcDbLine
 10
4636.111012712379
 20
3415.770432462029
 30
0.0
 11
4636.111012712379
 21
3408.770432356899
 31
0.0
  0
LINE
  5
144D
330
74
100
AcDbEntity
  8
AM_0 ( Kontur 0.5 )
100
AcDbLine
 10
4635.273053699779
 20
3408.770432356899
 30
0.0
 11
4635.273053699779
 21
3415.770432462029
 31
0.0
  0
LINE
  5
144E
330
74
100
AcDbEntity
  8
AM_0 ( Kontur 0.5 )
100
AcDbLine
 10
4638.446517747476
 20
3415.770432462029
 30
0.0
 11
4638.446517747476
 21
3408.770432356899
 31
0.0
  0
ARC
  5
144F
330
74
100
AcDbEntity
  8
AM_0 ( Kontur 0.5 )
100
AcDbCircle
 10
4638.102999742278
 20
3416.270432469538
 30
0.0
 40
2.00000003003698
100
AcDbArc
 50
90.0
 51
180.0
  0
LINE
  5
1450
330
74
100
AcDbEntity
  8
AM_0 ( Kontur 0.5 )
100
AcDbLine
 10
4642.728278811776
 20
3415.770432462029
 30
0.0
 11
4642.728278811776
 21
3408.770432356899
 31
0.0
  0
LINE
  5
1451
330
74
100
AcDbEntity
  8
AM_0 ( Kontur 0.5 )
100
AcDbLine
 10
4641.94977680008
 20
3415.770432462029
 30
0.0
 11
4641.94977680008
 21
3408.770432356899
 31
0.0
  0
LINE
  5
1452
330
74
100
AcDbEntity
  8
AM_0 ( Kontur 0.5 )
100
AcDbLine
 10
4642.144401802979
 20
3415.770432462029
 30
0.0
 11
4642.144401802979
 21
3408.770432356899
 31
0.0
  0
LINE
  5
1453
330
74
100
AcDbEntity
  8
AM_0 ( Kontur 0.5 )
100
AcDbLine
 10
4646.387237866682
 20
3415.770432462029
 30
0.0
 11
4646.387237866682
 21
3408.770432356899
 31
0.0
  0
LINE
  5
1454
330
74
100
AcDbEntity
  8
AM_0 ( Kontur 0.5 )
100
AcDbLine
 10
4646.773053872479
 20
3418.270432499581
 30
0.0
 11
4655.443109002681
 21
3418.270432499581
 31
0.0
  0
LINE
  5
1455
330
74
100
AcDbEntity
  8
AM_0 ( Kontur 0.5 )
100
AcDbLine
 10
4647.158870878279
 20
3415.770432462029
 30
0.0
 11
4647.158870878279
 21
3408.770432356899
 31
0.0
  0
LINE
  5
1456
330
74
100
AcDbEntity
  8
AM_0 ( Kontur 0.5 )
100
AcDbLine
 10
4650.81782993328
 20
3415.770432462029
 30
0.0
 11
4650.81782993328
 21
3408.770432356899
 31
0.0
  0
LINE
  5
1457
330
74
100
AcDbEntity
  8
AM_0 ( Kontur 0.5 )
100
AcDbLine
 10
4651.401706941977
 20
3415.770432462029
 30
0.0
 11
4651.401706941977
 21
3408.770432356899
 31
0.0
  0
LINE
  5
1458
330
74
100
AcDbEntity
  8
AM_0 ( Kontur 0.5 )
100
AcDbLine
 10
4651.59633094498
 20
3415.770432462029
 30
0.0
 11
4651.59633094498
 21
3408.770432356899
 31
0.0
  0
LINE
  5
1459
330
74
100
AcDbEntity
  8
AM_0 ( Kontur 0.5 )
100
AcDbLine
 10
4657.443109032778
 20
3415.770432462029
 30
0.0
 11
4657.443109032778
 21
3416.270432469538
 31
0.0
  0
LINE
  5
145A
330
74
100
AcDbEntity
  8
AM_0 ( Kontur 0.5 )
100
AcDbLine
 10
4655.099590997578
 20
3415.770432462029
 30
0.0
 11
4655.099590997578
 21
3408.770432356899
 31
0.0
  0
LINE
  5
145B
330
74
100
AcDbEntity
  8
AM_0 ( Kontur 0.5 )
100
AcDbLine
 10
4656.072718012179
 20
3415.770432462029
 30
0.0
 11
4656.072718012179
 21
3408.770432356899
 31
0.0
  0
LINE
  5
145C
330
74
100
AcDbEntity
  8
AM_0 ( Kontur 0.5 )
100
AcDbLine
 10
4655.87809300928
 20
3415.770432462029
 30
0.0
 11
4655.87809300928
 21
3408.770432356899
 31
0.0
  0
LINE
  5
145D
330
74
100
AcDbEntity
  8
AM_0 ( Kontur 0.5 )
100
AcDbLine
 10
4657.435096032679
 20
3415.770432462029
 30
0.0
 11
4657.435096032679
 21
3408.770432356899
 31
0.0
  0
ARC
  5
145E
330
74
100
AcDbEntity
  8
AM_0 ( Kontur 0.5 )
100
AcDbCircle
 10
4655.443109002681
 20
3416.270432469538
 30
0.0
 40
2.00000003003698
100
AcDbArc
 50
0.0
 51
90.0
  0
LINE
  5
145F
330
74
100
AcDbEntity
  8
AM_0 ( Kontur 0.5 )
100
AcDbLine
 10
4658.273054045177
 20
3406.270432319359
 30
0.0
 11
4658.273054045177
 21
3383.270431973929
 31
0.0
  0
LINE
  5
1460
330
74
100
AcDbEntity
  8
AM_0 ( Kontur 0.5 )
100
AcDbLine
 10
4658.273054045177
 20
3408.770432356899
 30
0.0
 11
4658.273054045177
 21
3415.770432462029
 31
0.0
  0
LINE
  5
1461
330
74
100
AcDbEntity
  8
AM_0 ( Kontur 0.5 )
100
AcDbLine
 10
4678.269491345576
 20
3763.662223686839
 30
0.0
 11
4678.269491345576
 21
3690.843997245599
 31
0.0
  0
LINE
  5
1462
330
74
100
AcDbEntity
  8
AM_3 ( Verdeckt )
100
AcDbLine
 10
4630.66949063068
 20
3763.662223686839
 30
0.0
 11
4630.66949063068
 21
3463.662219181298
 31
0.0
  0
LINE
  5
1463
330
74
100
AcDbEntity
  8
AM_3 ( Verdeckt )
100
AcDbLine
 10
4675.869491309477
 20
3763.662223686839
 30
0.0
 11
4675.869491309477
 21
3463.662219181298
 31
0.0
  0
LINE
  5
1464
330
74
100
AcDbEntity
  8
AM_0 ( Kontur 0.5 )
100
AcDbLine
 10
4626.680673291681
 20
3574.564859732188
 30
0.0
 11
4626.680673291681
 21
3551.270529203839
 31
0.0
  0
LINE
  5
1465
330
74
100
AcDbEntity
  8
AM_3 ( Verdeckt )
100
AcDbLine
 10
4634.68587269098
 20
3557.933430597109
 30
0.0
 11
4634.68587269098
 21
3558.433430604619
 31
0.0
  0
LINE
  5
1466
330
74
100
AcDbEntity
  8
AM_3 ( Verdeckt )
100
AcDbLine
 10
4656.02598201148
 20
3557.933430597109
 30
0.0
 11
4656.02598201148
 21
3558.433430604619
 31
0.0
  0
LINE
  5
1467
330
74
100
AcDbEntity
  8
AM_3 ( Verdeckt )
100
AcDbLine
 10
4635.985969031681
 20
3463.662219181298
 30
0.0
 11
4633.85592667848
 21
3525.433430109008
 31
0.0
  0
LINE
  5
1468
330
74
100
AcDbEntity
  8
AM_0 ( Kontur 0.5 )
100
AcDbLine
 10
4639.605926764878
 20
3463.662219181298
 30
0.0
 11
4639.605926764878
 21
3427.959261645089
 31
0.0
  0
LINE
  5
1469
330
74
100
AcDbEntity
  8
AM_0 ( Kontur 0.5 )
100
AcDbLine
 10
4642.105926802378
 20
3463.662219181298
 30
0.0
 11
4642.105926802378
 21
3427.464576637659
 31
0.0
  0
LINE
  5
146A
330
74
100
AcDbEntity
  8
AM_3 ( Verdeckt )
100
AcDbLine
 10
4638.092503689679
 20
3463.662219181298
 30
0.0
 11
4636.015968710981
 21
3523.881736085699
 31
0.0
  0
LINE
  5
146B
330
74
100
AcDbEntity
  8
AM_0 ( Kontur 0.5 )
100
AcDbLine
 10
4651.10592693758
 20
3463.662219181298
 30
0.0
 11
4651.10592693758
 21
3427.959261645089
 31
0.0
  0
LINE
  5
146C
330
74
100
AcDbEntity
  8
AM_3 ( Verdeckt )
100
AcDbLine
 10
4652.619351012678
 20
3463.662219181298
 30
0.0
 11
4654.69588599148
 21
3523.881736085699
 31
0.0
  0
LINE
  5
146D
330
74
100
AcDbEntity
  8
AM_0 ( Kontur 0.5 )
100
AcDbLine
 10
4648.60592690008
 20
3463.662219181298
 30
0.0
 11
4648.60592690008
 21
3427.464576637659
 31
0.0
  0
LINE
  5
146E
330
74
100
AcDbEntity
  8
AM_3 ( Verdeckt )
100
AcDbLine
 10
4654.725885392177
 20
3463.662219181298
 30
0.0
 11
4656.855927023982
 21
3525.433430109008
 31
0.0
  0
LINE
  5
146F
330
74
100
AcDbEntity
  8
AM_0 ( Kontur 0.5 )
100
AcDbLine
 10
4637.273291729878
 20
3437.121711782698
 30
0.0
 11
4639.001498755781
 21
3429.016366660969
 31
0.0
  0
ARC
  5
1470
330
74
100
AcDbEntity
  8
AM_0 ( Kontur 0.5 )
100
AcDbCircle
 10
4646.802549872979
 20
3440.15374882823
 30
0.0
 40
10.0000001501849
100
AcDbArc
 50
181.9749340000118
 51
197.650123999976
  0
LINE
  5
1471
330
74
100
AcDbEntity
  8
AM_0 ( Kontur 0.5 )
100
AcDbLine
 10
4645.355926851181
 20
3427.433428637189
 30
0.0
 11
4649.754323917277
 21
3427.433428637189
 31
0.0
  0
LINE
  5
1472
330
74
100
AcDbEntity
  8
AM_0 ( Kontur 0.5 )
100
AcDbLine
 10
4645.355926851181
 20
3427.433428637189
 30
0.0
 11
4640.957530785181
 21
3427.433428637189
 31
0.0
  0
ARC
  5
1473
330
74
100
AcDbEntity
  8
AM_0 ( Kontur 0.5 )
100
AcDbCircle
 10
4640.957530785181
 20
3429.43342866723
 30
0.0
 40
2.00000003003698
100
AcDbArc
 50
192.0362660000162
 51
270.0
  0
LINE
  5
1474
330
74
100
AcDbEntity
  8
AM_0 ( Kontur 0.5 )
100
AcDbLine
 10
4653.43856297258
 20
3437.121711782698
 30
0.0
 11
4651.71035594668
 21
3429.016366660969
 31
0.0
  0
ARC
  5
1475
330
74
100
AcDbEntity
  8
AM_0 ( Kontur 0.5 )
100
AcDbCircle
 10
4643.909304829477
 20
3440.15374882823
 30
0.0
 40
10.0000001501849
100
AcDbArc
 50
342.349876000024
 51
358.0250659999882
  0
ARC
  5
1476
330
74
100
AcDbEntity
  8
AM_0 ( Kontur 0.5 )
100
AcDbCircle
 10
4649.754323917277
 20
3429.43342866723
 30
0.0
 40
2.00000003003698
100
AcDbArc
 50
270.0
 51
347.9637339999838
  0
LINE
  5
1477
330
74
100
AcDbEntity
  8
AM_3 ( Verdeckt )
100
AcDbLine
 10
4636.563540719179
 20
3525.092989103889
 30
0.0
 11
4639.961480770179
 21
3523.851509085248
 31
0.0
  0
LINE
  5
1478
330
74
100
AcDbEntity
  8
AM_3 ( Verdeckt )
100
AcDbLine
 10
4640.605926779876
 20
3525.433430109008
 30
0.0
 11
4637.515077733477
 21
3525.433430109008
 31
0.0
  0
LINE
  5
1479
330
74
100
AcDbEntity
  8
AM_3 ( Verdeckt )
100
AcDbLine
 10
4645.355926851181
 20
3548.433430454429
 30
0.0
 11
4633.85592667848
 21
3548.433430454429
 31
0.0
  0
LINE
  5
147A
330
74
100
AcDbEntity
  8
AM_3 ( Verdeckt )
100
AcDbLine
 10
4645.355926851181
 20
3550.93343049198
 30
0.0
 11
4633.85592667848
 21
3550.93343049198
 31
0.0
  0
LINE
  5
147B
330
74
100
AcDbEntity
  8
AM_3 ( Verdeckt )
100
AcDbLine
 10
4645.355926851181
 20
3557.933430597109
 30
0.0
 11
4633.85592667848
 21
3557.933430597109
 31
0.0
  0
LINE
  5
147C
330
74
100
AcDbEntity
  8
AM_3 ( Verdeckt )
100
AcDbLine
 10
4633.85592667848
 20
3548.433430454429
 30
0.0
 11
4633.85592667848
 21
3525.433430109008
 31
0.0
  0
ARC
  5
147D
330
74
100
AcDbEntity
  8
AM_3 ( Verdeckt )
100
AcDbCircle
 10
4637.515077733477
 20
3523.933430086478
 30
0.0
 40
1.500000022527738
100
AcDbArc
 50
90.0
 51
181.9749340000118
  0
LINE
  5
147E
330
74
100
AcDbEntity
  8
AM_3 ( Verdeckt )
100
AcDbLine
 10
4636.056263711579
 20
3557.933430597109
 30
0.0
 11
4636.056263711579
 21
3550.93343049198
 31
0.0
  0
LINE
  5
147F
330
74
100
AcDbEntity
  8
AM_3 ( Verdeckt )
100
AcDbLine
 10
4636.250888714481
 20
3557.933430597109
 30
0.0
 11
4636.250888714481
 21
3550.93343049198
 31
0.0
  0
LINE
  5
1480
330
74
100
AcDbEntity
  8
AM_3 ( Verdeckt )
100
AcDbLine
 10
4637.029390726179
 20
3557.933430597109
 30
0.0
 11
4637.029390726179
 21
3550.93343049198
 31
0.0
  0
LINE
  5
1481
330
74
100
AcDbEntity
  8
AM_3 ( Verdeckt )
100
AcDbLine
 10
4635.355926701079
 20
3550.93343049198
 30
0.0
 11
4635.355926701079
 21
3548.433430454429
 31
0.0
  0
LINE
  5
1482
330
74
100
AcDbEntity
  8
AM_3 ( Verdeckt )
100
AcDbLine
 10
4633.85592667848
 20
3550.93343049198
 30
0.0
 11
4633.85592667848
 21
3557.933430597109
 31
0.0
  0
LINE
  5
1483
330
74
100
AcDbEntity
  8
AM_3 ( Verdeckt )
100
AcDbLine
 10
4634.69388569108
 20
3557.933430597109
 30
0.0
 11
4634.69388569108
 21
3550.93343049198
 31
0.0
  0
ARC
  5
1484
330
74
100
AcDbEntity
  8
AM_3 ( Verdeckt )
100
AcDbCircle
 10
4649.855926918779
 20
3512.957516921639
 30
0.0
 40
1.250000018773119
100
AcDbArc
 50
180.0
 51
0.0
  0
ARC
  5
1485
330
74
100
AcDbEntity
  8
AM_3 ( Verdeckt )
100
AcDbCircle
 10
4640.855926783679
 20
3512.957516921639
 30
0.0
 40
1.250000018773119
100
AcDbArc
 50
180.0
 51
0.0
  0
ARC
  5
1486
330
74
100
AcDbEntity
  8
AM_3 ( Verdeckt )
100
AcDbCircle
 10
4650.10592692258
 20
3523.933430086478
 30
0.0
 40
1.500000022527738
100
AcDbArc
 50
90.0
 51
180.0
  0
ARC
  5
1487
330
74
100
AcDbEntity
  8
AM_3 ( Verdeckt )
100
AcDbCircle
 10
4649.855926918779
 20
3522.978316072129
 30
0.0
 40
1.250000018773119
100
AcDbArc
 50
0.0
 51
180.0
  0
LINE
  5
1488
330
74
100
AcDbEntity
  8
AM_3 ( Verdeckt )
100
AcDbLine
 10
4645.355926851181
 20
3557.933430597109
 30
0.0
 11
4656.855927023982
 21
3557.933430597109
 31
0.0
  0
LINE
  5
1489
330
74
100
AcDbEntity
  8
AM_3 ( Verdeckt )
100
AcDbLine
 10
4645.355926851181
 20
3550.93343049198
 30
0.0
 11
4656.855927023982
 21
3550.93343049198
 31
0.0
  0
LINE
  5
148A
330
74
100
AcDbEntity
  8
AM_3 ( Verdeckt )
100
AcDbLine
 10
4645.355926851181
 20
3548.433430454429
 30
0.0
 11
4656.855927023982
 21
3548.433430454429
 31
0.0
  0
ARC
  5
148B
330
74
100
AcDbEntity
  8
AM_3 ( Verdeckt )
100
AcDbCircle
 10
4640.605926779876
 20
3523.933430086478
 30
0.0
 40
1.500000022527738
100
AcDbArc
 50
0.0
 51
90.0
  0
ARC
  5
148C
330
74
100
AcDbEntity
  8
AM_3 ( Verdeckt )
100
AcDbCircle
 10
4640.855926783679
 20
3522.978316072129
 30
0.0
 40
1.250000018773119
100
AcDbArc
 50
0.0
 51
180.0
  0
LINE
  5
148D
330
74
100
AcDbEntity
  8
AM_3 ( Verdeckt )
100
AcDbLine
 10
4640.727274781682
 20
3557.933430597109
 30
0.0
 11
4640.727274781682
 21
3550.93343049198
 31
0.0
  0
LINE
  5
148E
330
74
100
AcDbEntity
  8
AM_3 ( Verdeckt )
100
AcDbLine
 10
4640.532649778779
 20
3557.933430597109
 30
0.0
 11
4640.532649778779
 21
3550.93343049198
 31
0.0
  0
LINE
  5
148F
330
74
100
AcDbEntity
  8
AM_3 ( Verdeckt )
100
AcDbLine
 10
4641.31115179048
 20
3557.933430597109
 30
0.0
 11
4641.31115179048
 21
3550.93343049198
 31
0.0
  0
LINE
  5
1490
330
74
100
AcDbEntity
  8
AM_3 ( Verdeckt )
100
AcDbLine
 10
4649.400702911978
 20
3557.933430597109
 30
0.0
 11
4649.400702911978
 21
3550.93343049198
 31
0.0
  0
LINE
  5
1491
330
74
100
AcDbEntity
  8
AM_3 ( Verdeckt )
100
AcDbLine
 10
4644.97011084538
 20
3557.933430597109
 30
0.0
 11
4644.97011084538
 21
3550.93343049198
 31
0.0
  0
LINE
  5
1492
330
74
100
AcDbEntity
  8
AM_3 ( Verdeckt )
100
AcDbLine
 10
4645.741743856979
 20
3557.933430597109
 30
0.0
 11
4645.741743856979
 21
3550.93343049198
 31
0.0
  0
LINE
  5
1493
330
74
100
AcDbEntity
  8
AM_3 ( Verdeckt )
100
AcDbLine
 10
4656.855927023982
 20
3548.433430454429
 30
0.0
 11
4656.855927023982
 21
3525.433430109008
 31
0.0
  0
LINE
  5
1494
330
74
100
AcDbEntity
  8
AM_3 ( Verdeckt )
100
AcDbLine
 10
4654.148313983278
 20
3525.092989103889
 30
0.0
 11
4650.750373932277
 21
3523.851509085248
 31
0.0
  0
ARC
  5
1495
330
74
100
AcDbEntity
  8
AM_3 ( Verdeckt )
100
AcDbCircle
 10
4653.196776968979
 20
3523.933430086478
 30
0.0
 40
1.500000022527738
100
AcDbArc
 50
358.0250659999882
 51
90.0
  0
LINE
  5
1496
330
74
100
AcDbEntity
  8
AM_3 ( Verdeckt )
100
AcDbLine
 10
4650.10592692258
 20
3525.433430109008
 30
0.0
 11
4653.196776968979
 21
3525.433430109008
 31
0.0
  0
LINE
  5
1497
330
74
100
AcDbEntity
  8
AM_3 ( Verdeckt )
100
AcDbLine
 10
4654.655590990878
 20
3557.933430597109
 30
0.0
 11
4654.655590990878
 21
3550.93343049198
 31
0.0
  0
LINE
  5
1498
330
74
100
AcDbEntity
  8
AM_3 ( Verdeckt )
100
AcDbLine
 10
4653.682463976282
 20
3557.933430597109
 30
0.0
 11
4653.682463976282
 21
3550.93343049198
 31
0.0
  0
LINE
  5
1499
330
74
100
AcDbEntity
  8
AM_3 ( Verdeckt )
100
AcDbLine
 10
4654.460965987978
 20
3557.933430597109
 30
0.0
 11
4654.460965987978
 21
3550.93343049198
 31
0.0
  0
LINE
  5
149A
330
74
100
AcDbEntity
  8
AM_3 ( Verdeckt )
100
AcDbLine
 10
4650.179203923679
 20
3557.933430597109
 30
0.0
 11
4650.179203923679
 21
3550.93343049198
 31
0.0
  0
LINE
  5
149B
330
74
100
AcDbEntity
  8
AM_3 ( Verdeckt )
100
AcDbLine
 10
4649.984579920778
 20
3557.933430597109
 30
0.0
 11
4649.984579920778
 21
3550.93343049198
 31
0.0
  0
LINE
  5
149C
330
74
100
AcDbEntity
  8
AM_3 ( Verdeckt )
100
AcDbLine
 10
4656.855927023982
 20
3550.93343049198
 30
0.0
 11
4656.855927023982
 21
3557.933430597109
 31
0.0
  0
LINE
  5
149D
330
74
100
AcDbEntity
  8
AM_3 ( Verdeckt )
100
AcDbLine
 10
4655.355927001378
 20
3550.93343049198
 30
0.0
 11
4655.355927001378
 21
3548.433430454429
 31
0.0
  0
LINE
  5
149E
330
74
100
AcDbEntity
  8
AM_3 ( Verdeckt )
100
AcDbLine
 10
4656.017969011378
 20
3557.933430597109
 30
0.0
 11
4656.017969011378
 21
3550.93343049198
 31
0.0
  0
LINE
  5
149F
330
74
100
AcDbEntity
  8
AM_3 ( Verdeckt )
100
AcDbLine
 10
4645.355926851181
 20
3560.433430634649
 30
0.0
 11
4636.685872720979
 21
3560.433430634649
 31
0.0
  0
ARC
  5
14A0
330
74
100
AcDbEntity
  8
AM_3 ( Verdeckt )
100
AcDbCircle
 10
4636.685872720979
 20
3558.433430604619
 30
0.0
 40
2.00000003003698
100
AcDbArc
 50
90.0
 51
180.0
  0
LINE
  5
14A1
330
74
100
AcDbEntity
  8
AM_3 ( Verdeckt )
100
AcDbLine
 10
4645.355926851181
 20
3560.433430634649
 30
0.0
 11
4654.025981981482
 21
3560.433430634649
 31
0.0
  0
LINE
  5
14A2
330
74
100
AcDbEntity
  8
AM_3 ( Verdeckt )
100
AcDbLine
 10
4642.35592680618
 20
3571.02130879367
 30
0.0
 11
4642.35592680618
 21
3560.433430634649
 31
0.0
  0
LINE
  5
14A3
330
74
100
AcDbEntity
  8
AM_3 ( Verdeckt )
100
AcDbLine
 10
4648.355926896281
 20
3571.02130879367
 30
0.0
 11
4648.355926896281
 21
3560.433430634649
 31
0.0
  0
ARC
  5
14A4
330
74
100
AcDbEntity
  8
AM_3 ( Verdeckt )
100
AcDbCircle
 10
4654.025981981482
 20
3558.433430604619
 30
0.0
 40
2.00000003003698
100
AcDbArc
 50
0.0
 51
90.0
  0
LINE
  5
14A5
330
74
100
AcDbEntity
  8
AM_3 ( Verdeckt )
100
AcDbLine
 10
4667.390499182179
 20
3562.796680670148
 30
0.0
 11
4670.686536231682
 21
3658.381760105688
 31
0.0
  0
LINE
  5
14A6
330
74
100
AcDbEntity
  8
AM_3 ( Verdeckt )
100
AcDbLine
 10
4655.596577004979
 20
3657.478340092119
 30
0.0
 11
4655.596577004979
 21
3562.459284665079
 31
0.0
  0
LINE
  5
14A7
330
74
100
AcDbEntity
  8
AM_3 ( Verdeckt )
100
AcDbLine
 10
4658.096577042579
 20
3658.433453106459
 30
0.0
 11
4658.096577042579
 21
3561.964600657649
 31
0.0
  0
LINE
  5
14A8
330
74
100
AcDbEntity
  8
AM_3 ( Verdeckt )
100
AcDbLine
 10
4667.096577177781
 20
3657.478340092119
 30
0.0
 11
4667.096577177781
 21
3562.459284665079
 31
0.0
  0
LINE
  5
14A9
330
74
100
AcDbEntity
  8
AM_3 ( Verdeckt )
100
AcDbLine
 10
4664.596577140179
 20
3658.433453106459
 30
0.0
 11
4664.596577140179
 21
3561.964600657649
 31
0.0
  0
LINE
  5
14AA
330
74
100
AcDbEntity
  8
AM_3 ( Verdeckt )
100
AcDbLine
 10
4669.894015219779
 20
3574.309149843049
 30
0.0
 11
4673.141759268481
 21
3668.493731657459
 31
0.0
  0
LINE
  5
14AB
330
74
100
AcDbEntity
  8
AM_3 ( Verdeckt )
100
AcDbLine
 10
4652.799138962978
 20
3574.309149843049
 30
0.0
 11
4649.846576918679
 21
3659.933453128989
 31
0.0
  0
LINE
  5
14AC
330
74
100
AcDbEntity
  8
AM_3 ( Verdeckt )
100
AcDbLine
 10
4655.302656000578
 20
3562.796680670148
 30
0.0
 11
4652.006617951079
 21
3658.381760105688
 31
0.0
  0
LINE
  5
14AD
330
74
100
AcDbEntity
  8
AM_3 ( Verdeckt )
100
AcDbLine
 10
4661.346577091379
 20
3561.93345165718
 30
0.0
 11
4656.948180025278
 21
3561.93345165718
 31
0.0
  0
LINE
  5
14AE
330
74
100
AcDbEntity
  8
AM_3 ( Verdeckt )
100
AcDbLine
 10
4653.26394096998
 20
3571.621735802679
 30
0.0
 11
4654.99214899598
 21
3563.516390680951
 31
0.0
  0
ARC
  5
14AF
330
74
100
AcDbEntity
  8
AM_3 ( Verdeckt )
100
AcDbCircle
 10
4662.793199113079
 20
3574.65377184822
 30
0.0
 40
10.0000001501849
100
AcDbArc
 50
181.9749340000118
 51
197.650123999976
  0
ARC
  5
14B0
330
74
100
AcDbEntity
  8
AM_3 ( Verdeckt )
100
AcDbCircle
 10
4656.948180025278
 20
3563.933451687219
 30
0.0
 40
2.00000003003698
100
AcDbArc
 50
192.0362660000162
 51
270.0
  0
ARC
  5
14B1
330
74
100
AcDbEntity
  8
AM_3 ( Verdeckt )
100
AcDbCircle
 10
4665.744974157479
 20
3563.933451687219
 30
0.0
 40
2.00000003003698
100
AcDbArc
 50
270.0
 51
347.9637339999838
  0
LINE
  5
14B2
330
74
100
AcDbEntity
  8
AM_3 ( Verdeckt )
100
AcDbLine
 10
4661.346577091379
 20
3561.93345165718
 30
0.0
 11
4665.744974157479
 21
3561.93345165718
 31
0.0
  0
LINE
  5
14B3
330
74
100
AcDbEntity
  8
AM_3 ( Verdeckt )
100
AcDbLine
 10
4669.429213212781
 20
3571.621735802679
 30
0.0
 11
4667.701006186777
 21
3563.516390680951
 31
0.0
  0
ARC
  5
14B4
330
74
100
AcDbEntity
  8
AM_3 ( Verdeckt )
100
AcDbCircle
 10
4659.899955069678
 20
3574.65377184822
 30
0.0
 40
10.0000001501849
100
AcDbArc
 50
342.349876000024
 51
358.0250659999882
  0
ARC
  5
14B5
330
74
100
AcDbEntity
  8
AM_3 ( Verdeckt )
100
AcDbCircle
 10
4670.016632221581
 20
3692.9334536246
 30
0.0
 40
2.00000003003698
100
AcDbArc
 50
0.0
 51
90.0
  0
LINE
  5
14B6
330
74
100
AcDbEntity
  8
AM_3 ( Verdeckt )
100
AcDbLine
 10
4661.346577091379
 20
3682.933453474419
 30
0.0
 11
4673.141759268481
 21
3682.933453474419
 31
0.0
  0
LINE
  5
14B7
330
74
100
AcDbEntity
  8
AM_3 ( Verdeckt )
100
AcDbLine
 10
4661.346577091379
 20
3685.433453511959
 30
0.0
 11
4673.141759268481
 21
3685.433453511959
 31
0.0
  0
LINE
  5
14B8
330
74
100
AcDbEntity
  8
AM_3 ( Verdeckt )
100
AcDbLine
 10
4661.346577091379
 20
3692.433453617088
 30
0.0
 11
4673.141759268481
 21
3692.433453617088
 31
0.0
  0
LINE
  5
14B9
330
74
100
AcDbEntity
  8
AM_3 ( Verdeckt )
100
AcDbLine
 10
4649.846576918679
 20
3682.933453474419
 30
0.0
 11
4649.846576918679
 21
3659.933453128989
 31
0.0
  0
ARC
  5
14BA
330
74
100
AcDbEntity
  8
AM_3 ( Verdeckt )
100
AcDbCircle
 10
4656.84657702378
 20
3647.45753994162
 30
0.0
 40
1.250000018773119
100
AcDbArc
 50
180.0
 51
0.0
  0
LINE
  5
14BB
330
74
100
AcDbEntity
  8
AM_3 ( Verdeckt )
100
AcDbLine
 10
4656.596577020078
 20
3659.933453128989
 30
0.0
 11
4653.50572697358
 21
3659.933453128989
 31
0.0
  0
LINE
  5
14BC
330
74
100
AcDbEntity
  8
AM_3 ( Verdeckt )
100
AcDbLine
 10
4652.554189959377
 20
3659.593012123879
 30
0.0
 11
4655.952131010381
 21
3658.35153310524
 31
0.0
  0
ARC
  5
14BD
330
74
100
AcDbEntity
  8
AM_3 ( Verdeckt )
100
AcDbCircle
 10
4653.50572697358
 20
3658.433453106459
 30
0.0
 40
1.500000022527738
100
AcDbArc
 50
90.0
 51
181.9749340000118
  0
ARC
  5
14BE
330
74
100
AcDbEntity
  8
AM_3 ( Verdeckt )
100
AcDbCircle
 10
4656.84657702378
 20
3657.478340092119
 30
0.0
 40
1.250000018773119
100
AcDbArc
 50
0.0
 51
180.0
  0
ARC
  5
14BF
330
74
100
AcDbEntity
  8
AM_3 ( Verdeckt )
100
AcDbCircle
 10
4656.596577020078
 20
3658.433453106459
 30
0.0
 40
1.500000022527738
100
AcDbArc
 50
0.0
 51
90.0
  0
ARC
  5
14C0
330
74
100
AcDbEntity
  8
AM_3 ( Verdeckt )
100
AcDbCircle
 10
4665.84657715898
 20
3647.45753994162
 30
0.0
 40
1.250000018773119
100
AcDbArc
 50
180.0
 51
0.0
  0
ARC
  5
14C1
330
74
100
AcDbEntity
  8
AM_3 ( Verdeckt )
100
AcDbCircle
 10
4665.84657715898
 20
3657.478340092119
 30
0.0
 40
1.250000018773119
100
AcDbArc
 50
0.0
 51
180.0
  0
ARC
  5
14C2
330
74
100
AcDbEntity
  8
AM_3 ( Verdeckt )
100
AcDbCircle
 10
4666.096577162679
 20
3658.433453106459
 30
0.0
 40
1.500000022527738
100
AcDbArc
 50
90.0
 51
180.0
  0
LINE
  5
14C3
330
74
100
AcDbEntity
  8
AM_3 ( Verdeckt )
100
AcDbLine
 10
4670.138964223379
 20
3659.593012123879
 30
0.0
 11
4666.741024172377
 21
3658.35153310524
 31
0.0
  0
LINE
  5
14C4
330
74
100
AcDbEntity
  8
AM_3 ( Verdeckt )
100
AcDbLine
 10
4666.096577162679
 20
3659.933453128989
 30
0.0
 11
4669.18742720918
 21
3659.933453128989
 31
0.0
  0
ARC
  5
14C5
330
74
100
AcDbEntity
  8
AM_3 ( Verdeckt )
100
AcDbCircle
 10
4669.18742720918
 20
3658.433453106459
 30
0.0
 40
1.500000022527738
100
AcDbArc
 50
358.0250659999882
 51
90.0
  0
LINE
  5
14C6
330
74
100
AcDbEntity
  8
AM_3 ( Verdeckt )
100
AcDbLine
 10
4661.346577091379
 20
3694.933453654638
 30
0.0
 11
4652.676521961181
 21
3694.933453654638
 31
0.0
  0
LINE
  5
14C7
330
74
100
AcDbEntity
  8
AM_3 ( Verdeckt )
100
AcDbLine
 10
4661.346577091379
 20
3682.933453474419
 30
0.0
 11
4649.846576918679
 21
3682.933453474419
 31
0.0
  0
LINE
  5
14C8
330
74
100
AcDbEntity
  8
AM_3 ( Verdeckt )
100
AcDbLine
 10
4661.346577091379
 20
3685.433453511959
 30
0.0
 11
4649.846576918679
 21
3685.433453511959
 31
0.0
  0
LINE
  5
14C9
330
74
100
AcDbEntity
  8
AM_3 ( Verdeckt )
100
AcDbLine
 10
4661.346577091379
 20
3692.433453617088
 30
0.0
 11
4649.846576918679
 21
3692.433453617088
 31
0.0
  0
LINE
  5
14CA
330
74
100
AcDbEntity
  8
AM_3 ( Verdeckt )
100
AcDbLine
 10
4656.717925021879
 20
3692.433453617088
 30
0.0
 11
4656.717925021879
 21
3685.433453511959
 31
0.0
  0
LINE
  5
14CB
330
74
100
AcDbEntity
  8
AM_3 ( Verdeckt )
100
AcDbLine
 10
4657.301802030681
 20
3692.433453617088
 30
0.0
 11
4657.301802030681
 21
3685.433453511959
 31
0.0
  0
LINE
  5
14CC
330
74
100
AcDbEntity
  8
AM_3 ( Verdeckt )
100
AcDbLine
 10
4656.523300018979
 20
3692.433453617088
 30
0.0
 11
4656.523300018979
 21
3685.433453511959
 31
0.0
  0
LINE
  5
14CD
330
74
100
AcDbEntity
  8
AM_3 ( Verdeckt )
100
AcDbLine
 10
4649.846576918679
 20
3685.433453511959
 30
0.0
 11
4649.846576918679
 21
3692.433453617088
 31
0.0
  0
LINE
  5
14CE
330
74
100
AcDbEntity
  8
AM_3 ( Verdeckt )
100
AcDbLine
 10
4650.684534931278
 20
3692.433453617088
 30
0.0
 11
4650.684534931278
 21
3685.433453511959
 31
0.0
  0
LINE
  5
14CF
330
74
100
AcDbEntity
  8
AM_3 ( Verdeckt )
100
AcDbLine
 10
4653.020040966279
 20
3692.433453617088
 30
0.0
 11
4653.020040966279
 21
3685.433453511959
 31
0.0
  0
LINE
  5
14D0
330
74
100
AcDbEntity
  8
AM_3 ( Verdeckt )
100
AcDbLine
 10
4652.046913951679
 20
3692.433453617088
 30
0.0
 11
4652.046913951679
 21
3685.433453511959
 31
0.0
  0
LINE
  5
14D1
330
74
100
AcDbEntity
  8
AM_3 ( Verdeckt )
100
AcDbLine
 10
4652.241537954679
 20
3692.433453617088
 30
0.0
 11
4652.241537954679
 21
3685.433453511959
 31
0.0
  0
LINE
  5
14D2
330
74
100
AcDbEntity
  8
AM_3 ( Verdeckt )
100
AcDbLine
 10
4651.346576941182
 20
3685.433453511959
 30
0.0
 11
4651.346576941182
 21
3682.933453474419
 31
0.0
  0
ARC
  5
14D3
330
74
100
AcDbEntity
  8
AM_3 ( Verdeckt )
100
AcDbCircle
 10
4652.676521961181
 20
3692.9334536246
 30
0.0
 40
2.00000003003698
100
AcDbArc
 50
90.0
 51
180.0
  0
LINE
  5
14D4
330
74
100
AcDbEntity
  8
AM_3 ( Verdeckt )
100
AcDbLine
 10
4650.67652193108
 20
3692.433453617088
 30
0.0
 11
4650.67652193108
 21
3692.9334536246
 31
0.0
  0
LINE
  5
14D5
330
74
100
AcDbEntity
  8
AM_3 ( Verdeckt )
100
AcDbLine
 10
4666.169854163782
 20
3692.433453617088
 30
0.0
 11
4666.169854163782
 21
3685.433453511959
 31
0.0
  0
LINE
  5
14D6
330
74
100
AcDbEntity
  8
AM_3 ( Verdeckt )
100
AcDbLine
 10
4665.975230160879
 20
3692.433453617088
 30
0.0
 11
4665.975230160879
 21
3685.433453511959
 31
0.0
  0
LINE
  5
14D7
330
74
100
AcDbEntity
  8
AM_3 ( Verdeckt )
100
AcDbLine
 10
4669.673113216379
 20
3692.433453617088
 30
0.0
 11
4669.673113216379
 21
3685.433453511959
 31
0.0
  0
LINE
  5
14D8
330
74
100
AcDbEntity
  8
AM_3 ( Verdeckt )
100
AcDbLine
 10
4665.391353152076
 20
3692.433453617088
 30
0.0
 11
4665.391353152076
 21
3685.433453511959
 31
0.0
  0
LINE
  5
14D9
330
74
100
AcDbEntity
  8
AM_3 ( Verdeckt )
100
AcDbLine
 10
4670.451616228078
 20
3692.433453617088
 30
0.0
 11
4670.451616228078
 21
3685.433453511959
 31
0.0
  0
LINE
  5
14DA
330
74
100
AcDbEntity
  8
AM_3 ( Verdeckt )
100
AcDbLine
 10
4670.646240231079
 20
3692.433453617088
 30
0.0
 11
4670.646240231079
 21
3685.433453511959
 31
0.0
  0
LINE
  5
14DB
330
74
100
AcDbEntity
  8
AM_3 ( Verdeckt )
100
AcDbLine
 10
4661.732394097179
 20
3692.433453617088
 30
0.0
 11
4661.732394097179
 21
3685.433453511959
 31
0.0
  0
LINE
  5
14DC
330
74
100
AcDbEntity
  8
AM_3 ( Verdeckt )
100
AcDbLine
 10
4660.960761085578
 20
3692.433453617088
 30
0.0
 11
4660.960761085578
 21
3685.433453511959
 31
0.0
  0
LINE
  5
14DD
330
74
100
AcDbEntity
  8
AM_3 ( Verdeckt )
100
AcDbLine
 10
4671.346577241579
 20
3685.433453511959
 30
0.0
 11
4671.346577241579
 21
3682.933453474419
 31
0.0
  0
LINE
  5
14DE
330
74
100
AcDbEntity
  8
AM_3 ( Verdeckt )
100
AcDbLine
 10
4661.346577091379
 20
3694.933453654638
 30
0.0
 11
4670.016632221581
 21
3694.933453654638
 31
0.0
  0
LINE
  5
14DF
330
74
100
AcDbEntity
  8
AM_3 ( Verdeckt )
100
AcDbLine
 10
4673.141759268481
 20
3682.933453474419
 30
0.0
 11
4673.141759268481
 21
3668.493731657449
 31
0.0
  0
LINE
  5
14E0
330
74
100
AcDbEntity
  8
AM_3 ( Verdeckt )
100
AcDbLine
 10
4672.008619251479
 20
3692.433453617088
 30
0.0
 11
4672.008619251479
 21
3685.433453511959
 31
0.0
  0
LINE
  5
14E1
330
74
100
AcDbEntity
  8
AM_3 ( Verdeckt )
100
AcDbLine
 10
4673.141759268481
 20
3685.433453511959
 30
0.0
 11
4673.141759268481
 21
3692.433453617088
 31
0.0
  0
LINE
  5
14E2
330
74
100
AcDbEntity
  8
AM_3 ( Verdeckt )
100
AcDbLine
 10
4672.01663225158
 20
3692.433453617088
 30
0.0
 11
4672.01663225158
 21
3692.9334536246
 31
0.0
  0
LINE
  5
14E3
330
74
100
AcDbEntity
  8
AM_3 ( Verdeckt )
100
AcDbLine
 10
4664.346577136479
 20
3744.738878205581
 30
0.0
 11
4664.346577136479
 21
3710.806446893029
 31
0.0
  0
LINE
  5
14E4
330
74
100
AcDbEntity
  8
AM_0 ( Kontur 0.5 )
100
AcDbLine
 10
4643.773053827476
 20
3427.433428637189
 30
0.0
 11
4643.773053827476
 21
3418.270432499581
 31
0.0
  0
LINE
  5
14E5
330
74
100
AcDbEntity
  8
AM_3 ( Verdeckt )
100
AcDbLine
 10
4645.355926851181
 20
3713.159320580938
 30
0.0
 11
4645.355926851181
 21
3743.157845346949
 31
0.0
  0
LINE
  5
14E6
330
74
100
AcDbEntity
  8
AM_3 ( Verdeckt )
100
AcDbLine
 10
4648.355926896281
 20
3560.433430634649
 30
0.0
 11
4648.355926896281
 21
3744.918520781639
 31
0.0
  0
LINE
  5
14E7
330
74
100
AcDbEntity
  8
AM_0 ( Kontur 0.5 )
100
AcDbLine
 10
4649.773053917579
 20
3427.433428637189
 30
0.0
 11
4649.773053917579
 21
3418.270432499581
 31
0.0
  0
LINE
  5
14E8
330
74
100
AcDbEntity
  8
AM_3 ( Verdeckt )
100
AcDbLine
 10
4658.346577046279
 20
3706.06575382183
 30
0.0
 11
4658.346577046279
 21
3694.933453654638
 31
0.0
  0
LINE
  5
14E9
330
74
100
AcDbEntity
  8
AM_3 ( Verdeckt )
100
AcDbLine
 10
4664.346577136479
 20
3704.67058880088
 30
0.0
 11
4664.346577136479
 21
3694.933453654638
 31
0.0
  0
LINE
  5
14EA
330
74
100
AcDbEntity
  8
AM_3 ( Verdeckt )
100
AcDbLine
 10
4658.346577046279
 20
3694.933453654638
 30
0.0
 11
4658.346577046279
 21
3745.528793202959
 31
0.0
  0
LINE
  5
14EB
330
74
100
AcDbEntity
  8
AM_3 ( Verdeckt )
100
AcDbLine
 10
4642.35592680618
 20
3744.12860578425
 30
0.0
 11
4642.35592680618
 21
3560.433430634649
 31
0.0
  0
LINE
  5
14EC
330
74
100
AcDbEntity
  8
AM_3 ( Verdeckt )
100
AcDbLine
 10
4664.346577136479
 20
3744.738878205581
 30
0.0
 11
4664.346577136479
 21
3694.933453654638
 31
0.0
  0
LINE
  5
14ED
330
74
100
AcDbEntity
  8
AM_3 ( Verdeckt )
100
AcDbLine
 10
4661.346577091379
 20
3745.133835704269
 30
0.0
 11
4661.346577091379
 21
3709.441055872519
 31
0.0
  0
LINE
  5
14F0
330
74
100
AcDbEntity
  8
AM_3 ( Verdeckt )
100
AcDbLine
 10
4653.26949097008
 20
3711.319199704588
 30
0.0
 11
4653.26949097008
 21
3827.93348333617
 31
0.0
  0
LINE
  5
14F1
330
74
100
AcDbEntity
  8
AM_0 ( Kontur 0.5 )
100
AcDbLine
 10
4682.519491409377
 20
3763.662223686839
 30
0.0
 11
4682.519491409377
 21
3797.790432894538
 31
0.0
  0
LINE
  5
14F2
330
74
100
AcDbEntity
  8
AM_0 ( Kontur 0.5 )
100
AcDbLine
 10
4624.019490530779
 20
3763.662223686839
 30
0.0
 11
4624.019490530779
 21
3797.790432894538
 31
0.0
  0
LINE
  5
14F3
102
{ACAD_REACTORS
330
163F
102
}
330
74
100
AcDbEntity
  8
AM_0 ( Kontur 0.5 )
100
AcDbLine
 10
4624.019490530779
 20
3763.662223686839
 30
0.0
 11
4682.519491409377
 21
3763.662223686839
 31
0.0
  0
LINE
  5
14F4
330
74
100
AcDbEntity
  8
AM_3 ( Verdeckt )
100
AcDbLine
 10
4678.269491345576
 20
3763.662223686839
 30
0.0
 11
4678.269491345576
 21
3797.790432894538
 31
0.0
  0
LINE
  5
14F5
330
74
100
AcDbEntity
  8
AM_3 ( Verdeckt )
100
AcDbLine
 10
4628.269490594578
 20
3763.662223686839
 30
0.0
 11
4628.269490594578
 21
3797.790432894538
 31
0.0
  0
ARC
  5
14F6
330
74
100
AcDbEntity
  8
AM_0 ( Kontur 0.5 )
100
AcDbCircle
 10
4653.26949097008
 20
3720.605973040199
 30
0.0
 40
88.05625132247199
100
AcDbArc
 50
74.60699797529414
 51
105.3929989296348
  0
ARC
  5
14F7
330
74
100
AcDbEntity
  8
AM_3 ( Verdeckt )
100
AcDbCircle
 10
4653.26949097008
 20
3720.605973040199
 30
0.0
 40
83.80625125864341
100
AcDbArc
 50
74.60699765878614
 51
105.3930023412138
  0
ARC
  5
14F8
330
74
100
AcDbEntity
  8
AM_0 ( Kontur 0.5 )
100
AcDbCircle
 10
4632.019490650879
 20
3797.790432894538
 30
0.0
 40
8.000000120147927
100
AcDbArc
 50
105.3930020573475
 51
180.0
  0
ARC
  5
14F9
330
74
100
AcDbEntity
  8
AM_0 ( Kontur 0.5 )
100
AcDbCircle
 10
4674.51949128918
 20
3797.790432894538
 30
0.0
 40
8.000000120147927
100
AcDbArc
 50
0.0
 51
74.60699794265249
  0
ARC
  5
14FA
330
74
100
AcDbEntity
  8
AM_3 ( Verdeckt )
100
AcDbCircle
 10
4632.019490650879
 20
3797.790432894538
 30
0.0
 40
3.75000005631935
100
AcDbArc
 50
105.3930083994661
 51
180.0
  0
ARC
  5
14FB
330
74
100
AcDbEntity
  8
AM_3 ( Verdeckt )
100
AcDbCircle
 10
4674.51949128918
 20
3797.790432894538
 30
0.0
 40
3.75000005631935
100
AcDbArc
 50
0.0
 51
74.60699160053386
  0
LINE
  5
14FC
330
74
100
AcDbEntity
  8
AM_0 ( Kontur 0.5 )
100
AcDbLine
 10
4663.51949112398
 20
3808.662224362669
 30
0.0
 11
4663.51949112398
 21
3811.662224407729
 31
0.0
  0
LINE
  5
14FD
330
74
100
AcDbEntity
  8
AM_0 ( Kontur 0.5 )
100
AcDbLine
 10
4643.019490816179
 20
3808.662224362669
 30
0.0
 11
4643.019490816179
 21
3811.662224407729
 31
0.0
  0
LINE
  5
14FE
330
74
100
AcDbEntity
  8
AM_0 ( Kontur 0.5 )
100
AcDbLine
 10
4643.019490816179
 20
3808.662224362669
 30
0.0
 11
4663.51949112398
 21
3808.662224362669
 31
0.0
  0
LINE
  5
14FF
330
74
100
AcDbEntity
  8
AM_0 ( Kontur 0.5 )
100
AcDbLine
 10
4643.019490816179
 20
3811.662224407729
 30
0.0
 11
4663.51949112398
 21
3811.662224407729
 31
0.0
  0
LINE
  5
1500
330
74
100
AcDbEntity
  8
AM_3 ( Verdeckt )
100
AcDbLine
 10
4658.91949105488
 20
3800.603670044939
 30
0.0
 11
4658.91949105488
 21
3808.662224362669
 31
0.0
  0
LINE
  5
1501
330
74
100
AcDbEntity
  8
AM_3 ( Verdeckt )
100
AcDbLine
 10
4647.619490885179
 20
3800.603670044939
 30
0.0
 11
4647.619490885179
 21
3808.662224362669
 31
0.0
  0
LINE
  5
1502
330
74
100
AcDbEntity
  8
AM_3 ( Verdeckt )
100
AcDbLine
 10
4657.91949103988
 20
3800.603670044939
 30
0.0
 11
4657.91949103988
 21
3808.539362013429
 31
0.0
  0
LINE
  5
1503
330
74
100
AcDbEntity
  8
AM_3 ( Verdeckt )
100
AcDbLine
 10
4647.619490885179
 20
3800.603670044939
 30
0.0
 11
4658.91949105488
 21
3800.603670044939
 31
0.0
  0
LINE
  5
1504
330
74
100
AcDbEntity
  8
AM_3 ( Verdeckt )
100
AcDbLine
 10
4648.619490900279
 20
3800.603670044939
 30
0.0
 11
4648.619490900279
 21
3808.539362013429
 31
0.0
  0
LINE
  5
1505
330
74
100
AcDbEntity
  8
AM_3 ( Verdeckt )
100
AcDbLine
 10
4628.991948080979
 20
3796.930089421819
 30
0.0
 11
4626.906240747579
 21
3804.714055159879
 31
0.0
  0
LINE
  5
1506
330
74
100
AcDbEntity
  8
AM_0 ( Kontur 0.5 )
100
AcDbLine
 10
4664.274520323881
 20
3808.829278038809
 30
0.0
 11
4665.050977470881
 21
3811.727055561198
 31
0.0
  0
LINE
  5
1507
330
74
100
AcDbEntity
  8
AM_3 ( Verdeckt )
100
AcDbLine
 10
4666.63207185818
 20
3799.854744675398
 30
0.0
 11
4668.717779191582
 21
3807.638710413459
 31
0.0
  0
LINE
  5
1508
330
74
100
AcDbEntity
  8
AM_3 ( Verdeckt )
100
AcDbLine
 10
4667.597997698979
 20
3799.595925626409
 30
0.0
 11
4669.651905916482
 21
3807.261215448249
 31
0.0
  0
LINE
  5
1509
330
74
100
AcDbEntity
  8
AM_3 ( Verdeckt )
100
AcDbLine
 10
4677.54703385918
 20
3796.930089421819
 30
0.0
 11
4679.632741192579
 21
3804.714055159879
 31
0.0
  0
LINE
  5
150A
330
74
100
AcDbEntity
  8
AM_3 ( Verdeckt )
100
AcDbLine
 10
4666.63207185818
 20
3799.854744675398
 30
0.0
 11
4677.54703385918
 21
3796.930089421819
 31
0.0
  0
LINE
  5
150B
330
74
100
AcDbEntity
  8
AM_3 ( Verdeckt )
100
AcDbLine
 10
4676.58110801838
 20
3797.188908470808
 30
0.0
 11
4678.635016235879
 21
3804.854198292648
 31
0.0
  0
LINE
  5
150C
330
74
100
AcDbEntity
  8
AM_0 ( Kontur 0.5 )
100
AcDbLine
 10
4664.274520323881
 20
3808.829278038809
 30
0.0
 11
4684.076000060179
 21
3803.523487534519
 31
0.0
  0
LINE
  5
150D
330
74
100
AcDbEntity
  8
AM_0 ( Kontur 0.5 )
100
AcDbLine
 10
4684.076000060179
 20
3803.523487534519
 30
0.0
 11
4684.852457207179
 21
3806.42126505691
 31
0.0
  0
LINE
  5
150E
330
74
100
AcDbEntity
  8
AM_0 ( Kontur 0.5 )
100
AcDbLine
 10
4665.050977470881
 20
3811.727055561198
 30
0.0
 11
4684.852457207179
 21
3806.42126505691
 31
0.0
  0
LINE
  5
150F
330
74
100
AcDbEntity
  8
AM_0 ( Kontur 0.5 )
100
AcDbLine
 10
4622.46298187988
 20
3803.523487534519
 30
0.0
 11
4621.686524732981
 21
3806.42126505691
 31
0.0
  0
LINE
  5
1510
330
74
100
AcDbEntity
  8
AM_3 ( Verdeckt )
100
AcDbLine
 10
4629.957873921779
 20
3797.188908470808
 30
0.0
 11
4627.903965704278
 21
3804.854198292648
 31
0.0
  0
LINE
  5
1511
330
74
100
AcDbEntity
  8
AM_3 ( Verdeckt )
100
AcDbLine
 10
4639.90691008198
 20
3799.854744675398
 30
0.0
 11
4628.991948080979
 21
3796.930089421819
 31
0.0
  0
LINE
  5
1512
330
74
100
AcDbEntity
  8
AM_3 ( Verdeckt )
100
AcDbLine
 10
4639.90691008198
 20
3799.854744675398
 30
0.0
 11
4637.821202748578
 21
3807.638710413459
 31
0.0
  0
LINE
  5
1513
330
74
100
AcDbEntity
  8
AM_3 ( Verdeckt )
100
AcDbLine
 10
4638.940984241179
 20
3799.595925626409
 30
0.0
 11
4636.887076023678
 21
3807.261215448249
 31
0.0
  0
LINE
  5
1514
330
74
100
AcDbEntity
  8
AM_0 ( Kontur 0.5 )
100
AcDbLine
 10
4642.26446161628
 20
3808.829278038809
 30
0.0
 11
4622.46298187988
 21
3803.523487534519
 31
0.0
  0
LINE
  5
1515
330
74
100
AcDbEntity
  8
AM_0 ( Kontur 0.5 )
100
AcDbLine
 10
4642.26446161628
 20
3808.829278038809
 30
0.0
 11
4641.488004469279
 21
3811.727055561198
 31
0.0
  0
LINE
  5
1516
330
74
100
AcDbEntity
  8
AM_0 ( Kontur 0.5 )
100
AcDbLine
 10
4641.488004469279
 20
3811.727055561198
 30
0.0
 11
4621.686524732981
 21
3806.42126505691
 31
0.0
  0
LINE
  5
1517
330
74
100
AcDbEntity
  8
AM_0 ( Kontur 0.5 )
100
AcDbLine
 10
4645.546414642779
 20
3814.662224452789
 30
0.0
 11
4660.992567297379
 21
3814.662224452789
 31
0.0
  0
LINE
  5
1518
330
74
100
AcDbEntity
  8
AM_0 ( Kontur 0.5 )
100
AcDbLine
 10
4647.519490883682
 20
3825.662224617989
 30
0.0
 11
4659.019491056379
 21
3825.662224617989
 31
0.0
  0
LINE
  5
1519
330
74
100
AcDbEntity
  8
AM_0 ( Kontur 0.5 )
100
AcDbLine
 10
4663.51949112398
 20
3815.662224467799
 30
0.0
 11
4663.51949112398
 21
3820.6622245429
 31
0.0
  0
LINE
  5
151A
330
74
100
AcDbEntity
  8
AM_0 ( Kontur 0.5 )
100
AcDbLine
 10
4643.019490816179
 20
3815.662224467799
 30
0.0
 11
4643.019490816179
 21
3820.6622245429
 31
0.0
  0
LINE
  5
151B
330
74
100
AcDbEntity
  8
AM_0 ( Kontur 0.5 )
100
AcDbLine
 10
4645.546414642779
 20
3821.662224557921
 30
0.0
 11
4660.992567297379
 21
3821.662224557921
 31
0.0
  0
LINE
  5
151C
330
74
100
AcDbEntity
  8
AM_0 ( Kontur 0.5 )
100
AcDbLine
 10
4662.019491101481
 20
3821.516558900189
 30
0.0
 11
4662.019491101481
 21
3822.662224572929
 31
0.0
  0
LINE
  5
151D
330
74
100
AcDbEntity
  8
AM_0 ( Kontur 0.5 )
100
AcDbLine
 10
4644.51949083868
 20
3821.516558900189
 30
0.0
 11
4644.51949083868
 21
3822.662224572929
 31
0.0
  0
ARC
  5
151E
330
74
100
AcDbEntity
  8
AM_0 ( Kontur 0.5 )
100
AcDbCircle
 10
4659.019491056379
 20
3822.662224572929
 30
0.0
 40
3.000000045055478
100
AcDbArc
 50
0.0
 51
90.0
  0
ARC
  5
151F
330
74
100
AcDbEntity
  8
AM_0 ( Kontur 0.5 )
100
AcDbCircle
 10
4647.519490883682
 20
3822.662224572929
 30
0.0
 40
3.000000045055478
100
AcDbArc
 50
90.0
 51
180.0
  0
LINE
  5
1520
330
74
100
AcDbEntity
  8
AM_0 ( Kontur 0.5 )
100
AcDbLine
 10
4648.07333846928
 20
3815.662224467799
 30
0.0
 11
4648.07333846928
 21
3820.6622245429
 31
0.0
  0
LINE
  5
1521
330
74
100
AcDbEntity
  8
AM_0 ( Kontur 0.5 )
100
AcDbLine
 10
4658.465643470779
 20
3815.662224467799
 30
0.0
 11
4658.465643470779
 21
3820.6622245429
 31
0.0
  0
ARC
  5
1522
330
74
100
AcDbEntity
  8
AM_0 ( Kontur 0.5 )
100
AcDbCircle
 10
4645.546414642779
 20
3817.969552585638
 30
0.0
 40
3.6926719722726
100
AcDbArc
 50
46.81881482649226
 51
133.1811851735077
  0
ARC
  5
1523
330
74
100
AcDbEntity
  8
AM_0 ( Kontur 0.5 )
100
AcDbCircle
 10
4653.26949097008
 20
3807.66222434766
 30
0.0
 40
14.0000002102589
100
AcDbArc
 50
68.213210701698
 51
111.786789298302
  0
ARC
  5
1524
330
74
100
AcDbEntity
  8
AM_0 ( Kontur 0.5 )
100
AcDbCircle
 10
-4660.992567297379
 20
3817.969552585638
 30
0.0
 40
3.6926719722726
210
0.0
220
0.0
230
-1.0
100
AcDbArc
 50
46.81881482649226
 51
133.1811851735077
  0
ARC
  5
1525
330
74
100
AcDbEntity
  8
AM_0 ( Kontur 0.5 )
100
AcDbCircle
 10
-4645.546414642779
 20
3818.354896425061
 30
0.0
 40
3.6926719722726
210
0.0
220
0.0
230
-1.0
100
AcDbArc
 50
226.8188148264923
 51
313.1811851735077
  0
ARC
  5
1526
330
74
100
AcDbEntity
  8
AM_0 ( Kontur 0.5 )
100
AcDbCircle
 10
4660.992567297379
 20
3818.354896425061
 30
0.0
 40
3.6926719722726
100
AcDbArc
 50
226.8188148264923
 51
313.1811851735077
  0
ARC
  5
1527
330
74
100
AcDbEntity
  8
AM_0 ( Kontur 0.5 )
100
AcDbCircle
 10
-4653.26949097008
 20
3828.662224663048
 30
0.0
 40
14.0000002102589
210
0.0
220
0.0
230
-1.0
100
AcDbArc
 50
248.2132107016981
 51
291.7867892983019
  0
LINE
  5
1528
330
74
100
AcDbEntity
  8
AM_0 ( Kontur 0.5 )
100
AcDbLine
 10
4660.769491082678
 20
3811.662224407729
 30
0.0
 11
4660.769491082678
 21
3814.662224452789
 31
0.0
  0
LINE
  5
1529
330
74
100
AcDbEntity
  8
AM_0 ( Kontur 0.5 )
100
AcDbLine
 10
4645.769490857476
 20
3811.662224407729
 30
0.0
 11
4645.769490857476
 21
3814.662224452789
 31
0.0
  0
LINE
  5
152A
330
74
100
AcDbEntity
  8
AM_0 ( Kontur 0.5 )
100
AcDbLine
 10
4624.342820795179
 20
3807.133017441629
 30
0.0
 11
4623.566363648179
 21
3810.030794964019
 31
0.0
  0
LINE
  5
152B
330
74
100
AcDbEntity
  8
AM_0 ( Kontur 0.5 )
100
AcDbLine
 10
4667.707273533079
 20
3811.015303176479
 30
0.0
 11
4668.483730679978
 21
3813.91308069887
 31
0.0
  0
LINE
  5
152C
330
74
100
AcDbEntity
  8
AM_0 ( Kontur 0.5 )
100
AcDbLine
 10
4682.196161144982
 20
3807.133017441629
 30
0.0
 11
4682.97261829198
 21
3810.030794964019
 31
0.0
  0
LINE
  5
152D
330
74
100
AcDbEntity
  8
AM_0 ( Kontur 0.5 )
100
AcDbLine
 10
4668.268255602979
 20
3813.970817071739
 30
0.0
 11
4683.188093368978
 21
3809.973058591149
 31
0.0
  0
LINE
  5
152E
330
74
100
AcDbEntity
  8
AM_0 ( Kontur 0.5 )
100
AcDbLine
 10
4673.02111044028
 20
3824.085331611887
 30
0.0
 11
4684.129257609479
 21
3821.10891254851
 31
0.0
  0
LINE
  5
152F
330
74
100
AcDbEntity
  8
AM_0 ( Kontur 0.5 )
100
AcDbLine
 10
4685.887733403179
 20
3810.284968420088
 30
0.0
 11
4687.181828648081
 21
3815.11459762407
 31
0.0
  0
LINE
  5
1530
330
74
100
AcDbEntity
  8
AM_0 ( Kontur 0.5 )
100
AcDbLine
 10
4666.086253666776
 20
3815.590758924379
 30
0.0
 11
4667.380348911778
 21
3820.420388128358
 31
0.0
  0
LINE
  5
1531
330
74
100
AcDbEntity
  8
AM_0 ( Kontur 0.5 )
100
AcDbLine
 10
4670.07998894598
 20
3820.732297957309
 30
0.0
 11
4684.999826711879
 21
3816.734539476719
 31
0.0
  0
LINE
  5
1532
330
74
100
AcDbEntity
  8
AM_0 ( Kontur 0.5 )
100
AcDbLine
 10
4685.954057889476
 20
3816.328049817548
 30
0.0
 11
4686.250577984878
 21
3817.43467787915
 31
0.0
  0
LINE
  5
1533
330
74
100
AcDbEntity
  8
AM_0 ( Kontur 0.5 )
100
AcDbLine
 10
4669.050355675481
 20
3820.85738317487
 30
0.0
 11
4669.346875770981
 21
3821.964011236469
 31
0.0
  0
ARC
  5
1534
330
74
100
AcDbEntity
  8
AM_0 ( Kontur 0.5 )
100
AcDbCircle
 10
4683.352800462477
 20
3818.211135026119
 30
0.0
 40
3.000000045055478
100
AcDbArc
 50
344.9999999999804
 51
75.00000000000555
  0
ARC
  5
1535
330
74
100
AcDbEntity
  8
AM_0 ( Kontur 0.5 )
100
AcDbCircle
 10
4672.244653293379
 20
3821.187554089499
 30
0.0
 40
3.000000045055478
100
AcDbArc
 50
75.00000000000555
 51
164.9999999999803
  0
LINE
  5
1536
330
74
100
AcDbEntity
  8
AM_0 ( Kontur 0.5 )
100
AcDbLine
 10
4670.967895637178
 20
3814.282726900688
 30
0.0
 11
4672.261990882078
 21
3819.11235610467
 31
0.0
  0
LINE
  5
1537
330
74
100
AcDbEntity
  8
AM_0 ( Kontur 0.5 )
100
AcDbLine
 10
4681.00609143278
 20
3811.593000443789
 30
0.0
 11
4682.300186677776
 21
3816.422629647771
 31
0.0
  0
ARC
  5
1538
330
74
100
AcDbEntity
  8
AM_0 ( Kontur 0.5 )
100
AcDbCircle
 10
4669.124255112179
 20
3817.165450731279
 30
0.0
 40
3.6926719722726
100
AcDbArc
 50
31.81881482662284
 51
118.1811851735175
  0
ARC
  5
1539
330
74
100
AcDbEntity
  8
AM_0 ( Kontur 0.5 )
100
AcDbCircle
 10
4673.916441143079
 20
3805.210456945869
 30
0.0
 40
14.0000002102589
100
AcDbArc
 50
53.21321070171915
 51
96.78678929834241
  0
ARC
  5
153A
330
74
100
AcDbEntity
  8
AM_0 ( Kontur 0.5 )
100
AcDbCircle
 10
-4684.044092878179
 20
3813.167692250688
 30
0.0
 40
3.6926719722726
210
0.0
220
0.0
230
-1.0
100
AcDbArc
 50
61.81881482648245
 51
148.1811851734268
  0
ARC
  5
153B
330
74
100
AcDbEntity
  8
AM_0 ( Kontur 0.5 )
100
AcDbCircle
 10
-4669.223989436778
 20
3817.537664297769
 30
0.0
 40
3.6926719722726
210
0.0
220
0.0
230
-1.0
100
AcDbArc
 50
241.8188148264825
 51
328.1811851734267
  0
ARC
  5
153C
330
74
100
AcDbEntity
  8
AM_0 ( Kontur 0.5 )
100
AcDbCircle
 10
4684.143827202679
 20
3813.53990581718
 30
0.0
 40
3.6926719722726
100
AcDbArc
 50
211.8188148266228
 51
298.1811851735175
  0
ARC
  5
153D
330
74
100
AcDbEntity
  8
AM_0 ( Kontur 0.5 )
100
AcDbCircle
 10
-4679.351641171876
 20
3825.494899602579
 30
0.0
 40
14.0000002102589
210
0.0
220
0.0
230
-1.0
100
AcDbArc
 50
263.2132107016576
 51
306.7867892982809
  0
LINE
  5
153E
330
74
100
AcDbEntity
  8
AM_0 ( Kontur 0.5 )
100
AcDbLine
 10
4638.831708407081
 20
3811.015303176479
 30
0.0
 11
4638.055251260079
 21
3813.91308069887
 31
0.0
  0
LINE
  5
153F
330
74
100
AcDbEntity
  8
AM_0 ( Kontur 0.5 )
100
AcDbLine
 10
4638.270726337178
 20
3813.970817071739
 30
0.0
 11
4623.350888571183
 21
3809.973058591149
 31
0.0
  0
LINE
  5
1540
330
74
100
AcDbEntity
  8
AM_0 ( Kontur 0.5 )
100
AcDbLine
 10
4633.51787149988
 20
3824.085331611887
 30
0.0
 11
4622.409724330679
 21
3821.10891254851
 31
0.0
  0
LINE
  5
1541
330
74
100
AcDbEntity
  8
AM_0 ( Kontur 0.5 )
100
AcDbLine
 10
4620.651248536979
 20
3810.284968420088
 30
0.0
 11
4619.35715329208
 21
3815.11459762407
 31
0.0
  0
LINE
  5
1542
330
74
100
AcDbEntity
  8
AM_0 ( Kontur 0.5 )
100
AcDbLine
 10
4640.452728273281
 20
3815.590758924379
 30
0.0
 11
4639.158633028379
 21
3820.420388128358
 31
0.0
  0
LINE
  5
1543
330
74
100
AcDbEntity
  8
AM_0 ( Kontur 0.5 )
100
AcDbLine
 10
4636.458992994179
 20
3820.732297957309
 30
0.0
 11
4621.539155228278
 21
3816.734539476719
 31
0.0
  0
LINE
  5
1544
330
74
100
AcDbEntity
  8
AM_0 ( Kontur 0.5 )
100
AcDbLine
 10
4620.584924050678
 20
3816.328049817548
 30
0.0
 11
4620.288403955281
 21
3817.43467787915
 31
0.0
  0
LINE
  5
1545
330
74
100
AcDbEntity
  8
AM_0 ( Kontur 0.5 )
100
AcDbLine
 10
4637.488626264579
 20
3820.85738317487
 30
0.0
 11
4637.192106169179
 21
3821.964011236469
 31
0.0
  0
ARC
  5
1546
330
74
100
AcDbEntity
  8
AM_0 ( Kontur 0.5 )
100
AcDbCircle
 10
-4623.186181477678
 20
3818.211135026119
 30
0.0
 40
3.000000045055478
210
0.0
220
0.0
230
-1.0
100
AcDbArc
 50
344.9999999999804
 51
75.00000000000555
  0
ARC
  5
1547
330
74
100
AcDbEntity
  8
AM_0 ( Kontur 0.5 )
100
AcDbCircle
 10
-4634.294328646777
 20
3821.187554089499
 30
0.0
 40
3.000000045055478
210
0.0
220
0.0
230
-1.0
100
AcDbArc
 50
75.00000000000555
 51
164.9999999999803
  0
LINE
  5
1548
330
74
100
AcDbEntity
  8
AM_0 ( Kontur 0.5 )
100
AcDbLine
 10
4635.571086302978
 20
3814.282726900688
 30
0.0
 11
4634.276991057981
 21
3819.11235610467
 31
0.0
  0
LINE
  5
1549
330
74
100
AcDbEntity
  8
AM_0 ( Kontur 0.5 )
100
AcDbLine
 10
4625.532890507379
 20
3811.593000443789
 30
0.0
 11
4624.238795262379
 21
3816.422629647771
 31
0.0
  0
ARC
  5
154A
330
74
100
AcDbEntity
  8
AM_0 ( Kontur 0.5 )
100
AcDbCircle
 10
-4637.414726827981
 20
3817.165450731279
 30
0.0
 40
3.6926719722726
210
0.0
220
0.0
230
-1.0
100
AcDbArc
 50
31.81881482657323
 51
118.1811851735175
  0
ARC
  5
154B
330
74
100
AcDbEntity
  8
AM_0 ( Kontur 0.5 )
100
AcDbCircle
 10
-4632.622540797078
 20
3805.210456945869
 30
0.0
 40
14.0000002102589
210
0.0
220
0.0
230
-1.0
100
AcDbArc
 50
53.21321070171915
 51
96.78678929834241
  0
ARC
  5
154C
330
74
100
AcDbEntity
  8
AM_0 ( Kontur 0.5 )
100
AcDbCircle
 10
4622.494889061978
 20
3813.167692250688
 30
0.0
 40
3.6926719722726
100
AcDbArc
 50
61.81881482648245
 51
148.1811851733771
  0
ARC
  5
154D
330
74
100
AcDbEntity
  8
AM_0 ( Kontur 0.5 )
100
AcDbCircle
 10
4637.314992503378
 20
3817.537664297769
 30
0.0
 40
3.6926719722726
100
AcDbArc
 50
241.8188148264825
 51
328.1811851733772
  0
ARC
  5
154E
330
74
100
AcDbEntity
  8
AM_0 ( Kontur 0.5 )
100
AcDbCircle
 10
-4622.39515473738
 20
3813.53990581718
 30
0.0
 40
3.6926719722726
210
0.0
220
0.0
230
-1.0
100
AcDbArc
 50
211.8188148265732
 51
298.1811851735175
  0
ARC
  5
154F
330
74
100
AcDbEntity
  8
AM_0 ( Kontur 0.5 )
100
AcDbCircle
 10
4627.187340768279
 20
3825.494899602579
 30
0.0
 40
14.0000002102589
100
AcDbArc
 50
263.2132107016576
 51
306.7867892982809
  0
LINE
  5
1551
330
74
100
AcDbEntity
  8
AM_3 ( Verdeckt )
100
AcDbLine
 10
4675.677406502479
 20
3823.37357922716
 30
0.0
 11
4661.753994468582
 21
3771.410698101919
 31
0.0
  0
LINE
  5
1552
330
74
100
AcDbEntity
  8
AM_3 ( Verdeckt )
100
AcDbLine
 10
4681.472961547279
 20
3821.82066493323
 30
0.0
 11
4667.753994558679
 21
3770.620783104539
 31
0.0
  0
ARC
  5
1554
330
74
100
AcDbEntity
  8
AM_3 ( Verdeckt )
100
AcDbCircle
 10
4764.346578638281
 20
3744.738878205581
 30
0.0
 40
100.000001501849
100
AcDbArc
 50
169.0919472830429
 51
180.0
  0
ARC
  5
1555
330
74
100
AcDbEntity
  8
AM_3 ( Verdeckt )
100
AcDbCircle
 10
4761.34657859318
 20
3745.133835704269
 30
0.0
 40
100.000001501849
100
AcDbArc
 50
164.9999999999803
 51
180.0
  0
ARC
  5
1556
330
74
100
AcDbEntity
  8
AM_3 ( Verdeckt )
100
AcDbCircle
 10
4758.346578548178
 20
3745.528793202959
 30
0.0
 40
100.000001501849
100
AcDbArc
 50
169.5525112267195
 51
180.0
  0
ARC
  5
1557
330
74
100
AcDbEntity
  8
AM_3 ( Verdeckt )
100
AcDbCircle
 10
4764.346578638281
 20
3744.738878205581
 30
0.0
 40
100.000001501849
100
AcDbArc
 50
164.9999999999803
 51
169.0919472830429
  0
ARC
  5
1558
330
74
100
AcDbEntity
  8
AM_3 ( Verdeckt )
100
AcDbCircle
 10
4758.346578548178
 20
3745.528793202959
 30
0.0
 40
100.000001501849
100
AcDbArc
 50
164.9999999999803
 51
169.5525112267195
  0
ARC
  5
1559
330
74
100
AcDbEntity
  8
AM_3 ( Verdeckt )
100
AcDbCircle
 10
-4545.192403346877
 20
3745.133835704269
 30
0.0
 40
100.000001501849
210
0.0
220
0.0
230
-1.0
100
AcDbArc
 50
164.9999999999803
 51
180.0
  0
LINE
  5
155A
330
74
100
AcDbEntity
  8
AM_3 ( Verdeckt )
100
AcDbLine
 10
4630.86157543768
 20
3823.37357922716
 30
0.0
 11
4644.948509473978
 21
3770.8004256806
 31
0.0
  0
LINE
  5
155C
330
74
100
AcDbEntity
  8
AM_3 ( Verdeckt )
100
AcDbLine
 10
4625.066020392877
 20
3821.82066493323
 30
0.0
 11
4638.948509383881
 21
3770.010510683209
 31
0.0
  0
ARC
  5
155D
330
74
100
AcDbEntity
  8
AM_3 ( Verdeckt )
100
AcDbCircle
 10
4542.355925304277
 20
3744.12860578425
 30
0.0
 40
100.000001501849
100
AcDbArc
 50
11.26436272824902
 51
15.00000000001961
  0
ARC
  5
155E
330
74
100
AcDbEntity
  8
AM_3 ( Verdeckt )
100
AcDbCircle
 10
4548.355925394377
 20
3744.918520781639
 30
0.0
 40
100.000001501849
100
AcDbArc
 50
10.80324961519077
 51
15.00000000001961
  0
ARC
  5
155F
330
74
100
AcDbEntity
  8
AM_3 ( Verdeckt )
100
AcDbCircle
 10
4548.355925394377
 20
3744.918520781639
 30
0.0
 40
100.000001501849
100
AcDbArc
 50
0.0
 51
10.80324961519077
  0
ARC
  5
1560
330
74
100
AcDbEntity
  8
AM_3 ( Verdeckt )
100
AcDbCircle
 10
4542.355925304277
 20
3744.12860578425
 30
0.0
 40
100.000001501849
100
AcDbArc
 50
0.0
 51
11.26436272824902
  0
LINE
  5
1563
330
74
100
AcDbEntity
  8
AM_3 ( Verdeckt )
100
AcDbLine
 10
4656.269491015079
 20
3763.662223686839
 30
0.0
 11
4656.269491015079
 21
3694.933453654638
 31
0.0
  0
LINE
  5
1564
330
74
100
AcDbEntity
  8
AM_3 ( Verdeckt )
100
AcDbLine
 10
4650.269490924979
 20
3763.662223686839
 30
0.0
 11
4650.269490924979
 21
3694.933453654638
 31
0.0
  0
LINE
  5
1565
330
74
100
AcDbEntity
  8
AM_3 ( Verdeckt )
100
AcDbLine
 10
4653.26949097008
 20
3694.933453654638
 30
0.0
 11
4653.26949097008
 21
3707.246315821689
 31
0.0
  0
LINE
  5
1566
330
74
100
AcDbEntity
  8
AM_3 ( Verdeckt )
100
AcDbLine
 10
4645.355926851181
 20
3463.662219181298
 30
0.0
 11
4645.355926851181
 21
3709.086436736028
 31
0.0
  0
LINE
  5
1567
330
74
100
AcDbEntity
  8
AM_3 ( Verdeckt )
100
AcDbLine
 10
4656.269491015079
 20
3763.662223686839
 30
0.0
 11
4656.269491015079
 21
3825.662224617989
 31
0.0
  0
LINE
  5
1568
330
74
100
AcDbEntity
  8
AM_3 ( Verdeckt )
100
AcDbLine
 10
4650.269490924979
 20
3763.662223686839
 30
0.0
 11
4650.269490924979
 21
3825.662224617989
 31
0.0
  0
LINE
  5
156B
330
74
100
AcDbEntity
  8
AM_3 ( Verdeckt )
100
AcDbLine
 10
4658.096577042579
 20
3571.933451807369
 30
0.0
 11
4664.596577140179
 21
3571.933451807369
 31
0.0
  0
LINE
  5
156C
330
74
100
AcDbEntity
  8
AM_0 ( Kontur 0.5 )
100
AcDbLine
 10
4648.60592690008
 20
3437.433428787378
 30
0.0
 11
4642.105926802378
 21
3437.433428787378
 31
0.0
  0
LINE
  5
156D
330
74
100
AcDbEntity
  8
AM_0 ( Kontur 0.5 )
100
AcDbLine
 10
4643.523053823679
 20
3295.270430652311
 30
0.0
 11
4650.023053921279
 21
3295.270430652311
 31
0.0
  0
LINE
  5
156E
330
74
100
AcDbEntity
  8
AM_0 ( Kontur 0.5 )
100
AcDbLine
 10
4654.725885392177
 20
3463.662219181298
 30
0.0
 11
4678.269491345576
 21
3463.662219181298
 31
0.0
  0
LINE
  5
156F
330
74
100
AcDbEntity
  8
AM_0 ( Kontur 0.5 )
100
AcDbLine
 10
4628.269490594578
 20
3463.662219181298
 30
0.0
 11
4654.725885392177
 21
3463.662219181298
 31
0.0
  0
LINE
  5
1573
330
74
100
AcDbEntity
  8
AM_0 ( Kontur 0.5 )
100
AcDbLine
 10
4653.903364979578
 20
3439.809125823059
 30
0.0
 11
4654.725885392177
 21
3463.662219181298
 31
0.0
  0
LINE
  5
1574
330
74
100
AcDbEntity
  8
AM_0 ( Kontur 0.5 )
100
AcDbLine
 10
4636.80848972288
 20
3439.809125823059
 30
0.0
 11
4635.985969031681
 21
3463.662219181298
 31
0.0
  0
LINE
  5
1575
330
74
100
AcDbEntity
  8
AM_0 ( Kontur 0.5 )
100
AcDbLine
 10
4651.399848941979
 20
3428.29665765016
 30
0.0
 11
4652.619351012678
 21
3463.662219181298
 31
0.0
  0
LINE
  5
1576
330
74
100
AcDbEntity
  8
AM_3 ( Verdeckt )
100
AcDbLine
 10
4648.60592690008
 20
3523.933430086478
 30
0.0
 11
4648.60592690008
 21
3463.662219181298
 31
0.0
  0
LINE
  5
1577
330
74
100
AcDbEntity
  8
AM_3 ( Verdeckt )
100
AcDbLine
 10
4651.10592693758
 20
3522.978316072129
 30
0.0
 11
4651.10592693758
 21
3463.662219181298
 31
0.0
  0
LINE
  5
1578
330
74
100
AcDbEntity
  8
AM_0 ( Kontur 0.5 )
100
AcDbLine
 10
4645.355926851181
 20
3437.433428787378
 30
0.0
 11
4645.355926851181
 21
3463.662219181298
 31
0.0
  0
LINE
  5
1579
330
74
100
AcDbEntity
  8
AM_3 ( Verdeckt )
100
AcDbLine
 10
4642.105926802378
 20
3523.933430086478
 30
0.0
 11
4642.105926802378
 21
3463.662219181298
 31
0.0
  0
LINE
  5
157A
330
74
100
AcDbEntity
  8
AM_3 ( Verdeckt )
100
AcDbLine
 10
4639.605926764878
 20
3522.978316072129
 30
0.0
 11
4639.605926764878
 21
3463.662219181298
 31
0.0
  0
LINE
  5
157B
330
74
100
AcDbEntity
  8
AM_3 ( Verdeckt )
100
AcDbLine
 10
4646.773053872479
 20
3708.756915862249
 30
0.0
 11
4646.773053872479
 21
3463.662219181298
 31
0.0
  0
LINE
  5
157C
330
74
100
AcDbEntity
  8
AM_0 ( Kontur 0.5 )
100
AcDbLine
 10
4639.312005760479
 20
3428.29665765016
 30
0.0
 11
4638.092503689679
 21
3463.662219181298
 31
0.0
  0
LINE
  5
157E
330
74
100
AcDbEntity
  8
AM_0 ( Kontur 0.5 )
100
AcDbLine
 10
4626.680673291681
 20
3690.843997245599
 30
0.0
 11
4626.680673291681
 21
3667.54966671725
 31
0.0
  0
LINE
  5
157F
330
74
100
AcDbEntity
  8
AM_0 ( Kontur 0.5 )
100
AcDbLine
 10
4690.018150513379
 20
3690.843997245599
 30
0.0
 11
4626.680673291681
 21
3690.843997245599
 31
0.0
  0
LINE
  5
1580
330
74
100
AcDbEntity
  8
AM_0 ( Kontur 0.5 )
100
AcDbLine
 10
4690.018150513379
 20
3667.54966671725
 30
0.0
 11
4690.018150513379
 21
3690.843997245599
 31
0.0
  0
LINE
  5
1581
330
74
100
AcDbEntity
  8
AM_0 ( Kontur 0.5 )
100
AcDbLine
 10
4626.680673291681
 20
3667.54966671725
 30
0.0
 11
4690.018150513379
 21
3667.54966671725
 31
0.0
  0
LINE
  5
1582
330
74
100
AcDbEntity
  8
AM_0 ( Kontur 0.5 )
100
AcDbLine
 10
4690.018150513379
 20
3574.564859732188
 30
0.0
 11
4626.680673291681
 21
3574.564859732188
 31
0.0
  0
LINE
  5
1583
330
74
100
AcDbEntity
  8
AM_0 ( Kontur 0.5 )
100
AcDbLine
 10
4690.018150513379
 20
3551.270529203839
 30
0.0
 11
4690.018150513379
 21
3574.564859732188
 31
0.0
  0
LINE
  5
1584
330
74
100
AcDbEntity
  8
AM_0 ( Kontur 0.5 )
100
AcDbLine
 10
4626.680673291681
 20
3551.270529203839
 30
0.0
 11
4690.018150513379
 21
3551.270529203839
 31
0.0
  0
LINE
  5
1585
102
{ACAD_REACTORS
330
163F
102
}
330
74
100
AcDbEntity
  8
AM_0 ( Kontur 0.5 )
100
AcDbLine
 10
4628.269490594578
 20
3763.662223686839
 30
0.0
 11
4628.269490594578
 21
3690.843997245599
 31
0.0
  0
LINE
  5
1586
330
74
100
AcDbEntity
  8
AM_0 ( Kontur 0.5 )
100
AcDbLine
 10
4678.269491345576
 20
3667.54966671725
 30
0.0
 11
4678.269491345576
 21
3574.564859732188
 31
0.0
  0
LINE
  5
1587
330
74
100
AcDbEntity
  8
AM_0 ( Kontur 0.5 )
100
AcDbLine
 10
4678.269491345576
 20
3551.270529203839
 30
0.0
 11
4678.269491345576
 21
3463.662219181298
 31
0.0
  0
LINE
  5
1588
330
74
100
AcDbEntity
  8
AM_0 ( Kontur 0.5 )
100
AcDbLine
 10
4628.269490594578
 20
3551.270529203839
 30
0.0
 11
4628.269490594578
 21
3463.662219181298
 31
0.0
  0
LINE
  5
1589
330
74
100
AcDbEntity
  8
AM_0 ( Kontur 0.5 )
100
AcDbLine
 10
4628.269490594578
 20
3667.54966671725
 30
0.0
 11
4628.269490594578
 21
3574.564859732188
 31
0.0
  0
SPLINE
  5
15D7
330
74
100
AcDbEntity
  8
AM_0 ( Kontur 0.5 )
100
AcDbSpline
210
0.0
220
0.0
230
1.0
 70
  1064
 71
     3
 72
    15
 73
    11
 74
     9
 42
0.000000001
 43
0.0000000001
 44
0.0000000001
 40
0.0
 40
0.0
 40
0.0
 40
0.0
 40
25.14115554050444
 40
46.56985821041468
 40
64.8901696333597
 40
90.34723201791498
 40
108.2359526278917
 40
122.3468608294013
 40
136.4165364804215
 40
153.0752273871622
 40
153.0752273871622
 40
153.0752273871622
 40
153.0752273871622
 10
4630.861575437679
 20
3823.373579227166
 30
0.0
 10
4629.381169400653
 20
3831.672925408184
 30
0.0
 10
4626.638960550026
 20
3847.046100052704
 30
0.0
 10
4611.913380710413
 20
3865.253270289989
 30
0.0
 10
4589.619093891102
 20
3869.264546034108
 30
0.0
 10
4566.930162359257
 20
3857.550468633859
 30
0.0
 10
4572.014536834247
 20
3832.171050547124
 30
0.0
 10
4590.481474779328
 20
3832.707841521209
 30
0.0
 10
4602.478956612499
 20
3842.444324746174
 30
0.0
 10
4606.403674566069
 20
3852.079968651371
 30
0.0
 10
4608.531371889704
 20
3857.303715680109
 30
0.0
 11
4630.861575437679
 21
3823.373579227166
 31
0.0
 11
4624.139508703147
 21
3847.599423293541
 31
0.0
 11
4609.879783562736
 21
3863.594720634803
 31
0.0
 11
4591.859640545421
 21
3866.897485577874
 31
0.0
 11
4570.969492923533
 21
3852.348816993194
 31
0.0
 11
4575.472542404553
 21
3835.036137523127
 31
0.0
 11
4589.5562416443
 21
3834.160268813915
 31
0.0
 11
4600.885335440262
 21
3842.503374152289
 31
0.0
 11
4608.531371889704
 21
3857.303715680109
 31
0.0
  0
SPLINE
  5
15D8
330
74
100
AcDbEntity
  8
AM_0 ( Kontur 0.5 )
100
AcDbSpline
210
0.0
220
0.0
230
1.0
 70
     8
 71
     3
 72
    16
 73
    12
 74
     0
 42
0.000000001
 43
0.0000000001
 40
0.0
 40
0.0
 40
0.0
 40
0.0
 40
8.059457632403558
 40
8.059457632403558
 40
17.70569529280442
 40
17.70569529280442
 40
25.18517120156057
 40
25.18517120156057
 40
32.66464711031671
 40
32.66464711031671
 40
36.37483514628687
 40
36.37483514628687
 40
36.37483514628687
 40
36.37483514628687
 10
4625.066020392877
 20
3821.82066493323
 30
0.0
 10
4624.480239300831
 20
3824.980460151736
 30
0.0
 10
4624.014936320729
 20
3827.58420570251
 30
0.0
 10
4622.859215509371
 20
3833.131161162698
 30
0.0
 10
4622.142336564443
 20
3836.038844074906
 30
0.0
 10
4620.532820312739
 20
3840.948151858685
 30
0.0
 10
4619.717048655437
 20
3843.006226390784
 30
0.0
 10
4617.765047422129
 20
3846.954926353058
 30
0.0
 10
4616.615435422539
 20
3848.870089736863
 30
0.0
 10
4614.684804689637
 20
3851.504227571378
 30
0.0
 10
4608.345314292124
 20
3858.810805535947
 30
0.0
 10
4603.17877797955
 20
3860.014755781799
 30
0.0
  0
SPLINE
  5
15D9
330
74
100
AcDbEntity
  8
AM_0 ( Kontur 0.5 )
100
AcDbSpline
210
0.0
220
0.0
230
1.0
 70
     9
 71
     3
 72
    58
 73
    54
 74
     0
 42
0.000000001
 43
0.0000000001
 40
51.88536384744097
 40
51.88536384744097
 40
51.88536384744097
 40
51.88536384744097
 40
59.58383842200923
 40
59.58383842200923
 40
63.81734449069256
 40
63.81734449069256
 40
70.24767801417436
 40
70.24767801417436
 40
76.67801153765616
 40
76.67801153765616
 40
81.47289677085108
 40
81.47289677085108
 40
86.26778200404602
 40
86.26778200404602
 40
88.73103052007408
 40
88.73103052007408
 40
90.36900381980156
 40
90.36900381980156
 40
93.65647895959298
 40
93.65647895959298
 40
96.94395409938444
 40
96.94395409938444
 40
100.2314292391758
 40
100.2314292391758
 40
103.5189043789672
 40
103.5189043789672
 40
106.2373476658664
 40
106.2373476658664
 40
107.5627619414898
 40
107.5627619414898
 40
109.0608270621953
 40
109.0608270621953
 40
110.5588921829008
 40
110.5588921829008
 40
113.3675877104212
 40
113.3675877104212
 40
116.1762832379415
 40
116.1762832379415
 40
118.9849787654618
 40
118.9849787654618
 40
121.5656910171818
 40
121.5656910171818
 40
127.1926964169462
 40
127.1926964169462
 40
132.8197018167106
 40
132.8197018167106
 40
136.2813379484484
 40
136.2813379484484
 40
142.0300205675693
 40
142.0300205675693
 40
147.7787031866903
 40
147.7787031866903
 40
153.075227387162
 40
153.075227387162
 40
153.075227387162
 40
153.075227387162
 10
4603.178777979553
 20
3860.014755781799
 30
0.0
 10
4601.272512959695
 20
3860.639093175713
 30
0.0
 10
4599.238657859268
 20
3861.012735642697
 30
0.0
 10
4595.9422911739
 20
3861.175002904203
 30
0.0
 10
4594.744908077182
 20
3861.151085102441
 30
0.0
 10
4591.677492510507
 20
3860.876866185707
 30
0.0
 10
4589.770213729823
 20
3860.512180815592
 30
0.0
 10
4586.129852611586
 20
3859.405797667876
 30
0.0
 10
4584.399284459229
 20
3858.663951733745
 30
0.0
 10
4581.758574329442
 20
3857.115383907629
 30
0.0
 10
4580.752178078205
 20
3856.374602842244
 30
0.0
 10
4579.046137795528
 20
3854.786351488554
 30
0.0
 10
4578.346671638323
 20
3853.941867962264
 30
0.0
 10
4577.518617964375
 20
3852.594493416962
 30
0.0
 10
4577.277170082048
 20
3852.124480153724
 30
0.0
 10
4576.938742978394
 20
3851.311231006111
 30
0.0
 10
4576.820545900833
 20
3850.978454093484
 30
0.0
 10
4576.515949726386
 20
3849.942660058423
 30
0.0
 10
4576.37016337275
 20
3849.160365209467
 30
0.0
 10
4576.232219416346
 20
3847.522185487624
 30
0.0
 10
4576.239751378163
 20
3846.666818902535
 30
0.0
 10
4576.409361324044
 20
3844.997906736839
 30
0.0
 10
4576.571560535829
 20
3844.184700527227
 30
0.0
 10
4577.018244645545
 20
3842.710430797367
 30
0.0
 10
4577.302860048606
 20
3842.050653588028
 30
0.0
 10
4577.868584824217
 20
3841.062391115322
 30
0.0
 10
4578.140415333635
 20
3840.697015251394
 30
0.0
 10
4578.531197023052
 20
3840.277400719081
 30
0.0
 10
4578.657131840762
 20
3840.159213353098
 30
0.0
 10
4578.918250754798
 20
3839.94312989101
 30
0.0
 10
4579.047858931523
 20
3839.851964732007
 30
0.0
 10
4579.360734602155
 20
3839.666352524743
 30
0.0
 10
4579.538577971661
 20
3839.576850423846
 30
0.0
 10
4580.120971098661
 20
3839.336376943214
 30
0.0
 10
4580.589649381439
 20
3839.201004441074
 30
0.0
 10
4581.68212223179
 20
3839.020059191376
 30
0.0
 10
4582.304248216162
 20
3838.975047448883
 30
0.0
 10
4583.636494469025
 20
3838.997679076054
 30
0.0
 10
4584.346024027793
 20
3839.065021288494
 30
0.0
 10
4585.722128837065
 20
3839.298100053316
 30
0.0
 10
4586.387468167209
 20
3839.4551752344
 30
0.0
 10
4588.436683667946
 20
3840.073517985065
 30
0.0
 10
4589.724242422374
 20
3840.666250021062
 30
0.0
 10
4592.13184231461
 20
3842.153716996502
 30
0.0
 10
4593.25059547972
 20
3843.050082931712
 30
0.0
 10
4594.918243199415
 20
3844.70688832809
 30
0.0
 10
4595.520166257041
 20
3845.386566693549
 30
0.0
 10
4597.025137907309
 20
3847.300733880788
 30
0.0
 10
4597.879706314951
 20
3848.625846448488
 30
0.0
 10
4599.48659678542
 20
3851.525242102655
 30
0.0
 10
4600.236815399966
 20
3853.097336394842
 30
0.0
 10
4601.641125466995
 20
3856.295100463495
 30
0.0
 10
4602.298145674769
 20
3857.906187619344
 30
0.0
 10
4603.178777979553
 20
3860.014755781799
 30
0.0
  0
SPLINE
  5
15DA
330
74
100
AcDbEntity
  8
AM_0 ( Kontur 0.5 )
100
AcDbSpline
210
-0.0000000000003342
220
0.0000000000004543
230
1.0
 70
  1064
 71
     3
 72
    10
 73
     6
 74
     4
 42
0.000000001
 43
0.0000000001
 44
0.0000000001
 40
0.0
 40
0.0
 40
0.0
 40
0.0
 40
9.536292606455138
 40
18.85481041681224
 40
32.77432502673752
 40
32.77432502673752
 40
32.77432502673752
 40
32.77432502673752
 10
4602.389569568337
 20
3860.252029184108
 30
0.0
 10
4600.923558995633
 20
3857.437399509171
 30
-0.0000000000029093
 10
4598.025016285372
 20
3851.872416228503
 30
-0.0000000000086615
 10
4590.086753937283
 20
3843.681665007918
 30
0.0000000000034161
 10
4582.161675936621
 20
3842.554136290213
 30
0.0000000000012797
 10
4577.414576998989
 20
3841.878749829977
 30
0.0
 11
4602.389569568337
 21
3860.252029184108
 31
0.0
 11
4597.564778599705
 21
3852.026321385692
 31
-0.0000000000054791
 11
4590.831859678261
 21
3845.584072013057
 31
0.0
 11
4577.414576998989
 21
3841.878749829977
 31
0.0
  0
SPLINE
  5
15DB
330
74
100
AcDbEntity
  8
AM_0 ( Kontur 0.5 )
100
AcDbSpline
210
-0.0000000000007925
220
0.0000000000012172
230
-1.0
 70
  1064
 71
     3
 72
    10
 73
     6
 74
     4
 42
0.000000001
 43
0.0000000001
 44
0.0000000001
 40
0.0
 40
0.0
 40
0.0
 40
0.0
 40
6.74446839486074
 40
15.0033989819784
 40
25.70147935834695
 40
25.70147935834695
 40
25.70147935834695
 40
25.70147935834695
 10
4596.461331747796
 20
3861.140961668911
 30
0.0
 10
4595.356270552314
 20
3859.19874344671
 30
0.0000000000066054
 10
4592.898008011128
 20
3854.878184257793
 30
0.0000000000212995
 10
4586.586080518811
 20
3848.325863934306
 30
-0.0000000000077719
 10
4579.995953279431
 20
3848.116745831729
 30
-0.0000000000028037
 10
4576.276922308083
 20
3847.998733436533
 30
0.0
 11
4596.461331747796
 21
3861.140961668911
 31
0.0
 11
4592.89832852789
 21
3855.414456453318
 31
0.0000000000134176
 11
4586.817914869802
 21
3849.825314820709
 31
0.0
 11
4576.276922308083
 21
3847.998733436533
 31
0.0
  0
SPLINE
  5
15DD
330
74
100
AcDbEntity
  8
AM_0 ( Kontur 0.5 )
100
AcDbSpline
210
0.0
220
0.0
230
1.0
 70
     8
 71
     3
 72
    10
 73
     6
 74
     0
 42
0.000000001
 43
0.0000000001
 40
0.0
 40
0.0
 40
0.0
 40
0.0
 40
6.672315295072434
 40
12.96661742428595
 40
13.00511708285303
 40
13.00511708285303
 40
13.00511708285303
 40
13.00511708285303
 10
4610.020455452139
 20
3863.515041592695
 30
0.0
 10
4610.011469446365
 20
3865.877611176125
 30
0.0
 10
4609.994006527741
 20
3870.468901391266
 30
0.0
 10
4606.075561621377
 20
3873.181360492046
 30
0.0
 10
4604.088542322458
 20
3874.125444623587
 30
0.0
 10
4604.076459521297
 20
3874.131170189461
 30
0.0
  0
SPLINE
  5
15E0
330
74
100
AcDbEntity
  8
AM_0 ( Kontur 0.5 )
100
AcDbSpline
210
0.0
220
0.0
230
1.0
 70
  1064
 71
     3
 72
    11
 73
     7
 74
     5
 42
0.000000001
 43
0.0000000001
 44
0.0000000001
 40
0.0
 40
0.0
 40
0.0
 40
0.0
 40
8.80546124042261
 40
18.69318962988259
 40
32.07037661258205
 40
44.82008399152043
 40
44.82008399152043
 40
44.82008399152043
 40
44.82008399152043
 10
4597.515550154668
 20
3867.1046304261
 30
0.0
 10
4597.741389500066
 20
3870.024032912859
 30
0.0
 10
4598.220825794672
 20
3876.221657636978
 30
0.0
 10
4599.048808291393
 20
3887.01752283949
 30
0.0
 10
4594.143719884777
 20
3898.527856807601
 30
0.0
 10
4595.652214533694
 20
3907.274360865343
 30
0.0
 10
4596.38834738937
 20
3911.542582177119
 30
0.0
 11
4597.515550154668
 21
3867.1046304261
 31
0.0
 11
4598.193773437238
 21
3875.883933407292
 31
0.0
 11
4598.277876671187
 21
3885.771304106814
 31
0.0
 11
4595.386560232735
 21
3898.832292615455
 31
0.0
 11
4596.38834738937
 21
3911.542582177119
 31
0.0
  0
SPLINE
  5
15E1
330
74
100
AcDbEntity
  8
AM_0 ( Kontur 0.5 )
100
AcDbSpline
210
-0.0000000000002171
220
0.0000000000000144
230
1.0
 70
     8
 71
     3
 72
    38
 73
    34
 74
     0
 42
0.000000001
 43
0.0000000001
 40
0.0
 40
0.0
 40
0.0
 40
0.0
 40
5.372908826282775
 40
5.372908826282775
 40
8.712300179207129
 40
8.712300179207129
 40
12.30470844408995
 40
12.30470844408995
 40
15.89711670897276
 40
15.89711670897276
 40
18.19856862018019
 40
18.19856862018019
 40
19.23029997063819
 40
19.23029997063819
 40
20.26203132109618
 40
20.26203132109618
 40
22.32549402201218
 40
22.32549402201218
 40
26.30463109703415
 40
26.30463109703415
 40
30.28376817205612
 40
30.28376817205612
 40
31.56333681121956
 40
31.56333681121956
 40
32.63024736148996
 40
32.63024736148996
 40
33.69715791176035
 40
33.69715791176035
 40
35.83097901230114
 40
35.83097901230114
 40
41.01326067514068
 40
41.01326067514068
 40
44.82008399151952
 40
44.82008399151952
 40
44.82008399151952
 40
44.82008399151952
 10
4603.497677517284
 20
3866.174674728529
 30
0.0
 10
4603.635479976357
 20
3868.423223110071
 30
0.0
 10
4603.773300618545
 20
3870.20481650363
 30
0.0
 10
4603.99706876647
 20
3873.10185875118
 30
0.0
 10
4604.082906998714
 20
3874.21422440924
 30
0.0
 10
4604.261309296688
 20
3876.529648291786
 30
0.0
 10
4604.359087319317
 20
3877.780944356711
 30
0.0
 10
4604.493117782712
 20
3880.39497116832
 30
0.0
 10
4604.529243290818
 20
3881.755499413015
 30
0.0
 10
4604.462372745945
 20
3884.070566611205
 30
0.0
 10
4604.404475846766
 20
3884.995348123022
 30
0.0
 10
4604.254201423089
 20
3886.360991453915
 30
0.0
 10
4604.197670979087
 20
3886.789843099721
 30
0.0
 10
4604.070007603617
 20
3887.625425266227
 30
0.0
 10
4603.998889081071
 20
3888.035276461325
 30
0.0
 10
4603.769504407422
 20
3889.241615366428
 30
0.0
 10
4603.595369012479
 20
3890.014891845743
 30
0.0
 10
4603.062976662753
 20
3892.195453426154
 30
0.0
 10
4602.685417549589
 20
3893.526151144958
 30
0.0
 10
4602.024159024938
 20
3895.995531130025
 30
0.0
 10
4601.740920457837
 20
3897.133454390745
 30
0.0
 10
4601.488570406026
 20
3898.50309637581
 30
0.0
 10
4601.436441913342
 20
3898.825828662733
 30
0.0
 10
4601.35908261151
 20
3899.398428092019
 30
0.0
 10
4601.331142558588
 20
3899.648936311156
 30
0.0
 10
4601.285872163686
 20
3900.165023384091
 30
0.0
 10
4601.268846619063
 20
3900.427506945762
 30
0.0
 10
4601.234047483376
 20
3901.228947366241
 30
0.0
 10
4601.232602248074
 20
3901.781989469414
 30
0.0
 10
4601.295959435613
 20
3903.743603824379
 30
0.0
 10
4601.460739135267
 20
3905.246150495261
 30
0.0
 10
4601.870221101585
 20
3908.021235459948
 30
0.0
 10
4602.081258663961
 20
3909.248416953332
 30
0.0
 10
4602.232308367399
 20
3910.343191190337
 30
-0.0000000000009095
  0
SPLINE
  5
15E2
330
74
100
AcDbEntity
  8
AM_0 ( Kontur 0.5 )
100
AcDbSpline
210
0.0
220
0.0
230
1.0
 70
     8
 71
     3
 72
    12
 73
     8
 74
     0
 42
0.000000001
 43
0.0000000001
 40
19.0611431837879
 40
19.0611431837879
 40
19.0611431837879
 40
19.0611431837879
 40
28.08171395060248
 40
46.22453639773229
 40
61.26120952792028
 40
67.65754834140664
 40
73.24096422007179
 40
73.24096422007179
 40
73.24096422007179
 40
73.24096422007179
 10
4598.193773437238
 20
3875.883933407293
 30
0.0
 10
4595.200662899143
 20
3876.324075801615
 30
0.0
 10
4585.941456212753
 20
3875.904772592939
 30
0.0
 10
4572.040710238587
 20
3870.948889353395
 30
0.0
 10
4564.637551014647
 20
3858.17184438887
 30
0.0
 10
4566.284939817853
 20
3848.80562003581
 30
0.0
 10
4569.063519377244
 20
3845.845783081415
 30
0.0
 10
4570.358534645142
 20
3844.466289003774
 30
0.0
  0
SPLINE
  5
15E3
330
74
100
AcDbEntity
  8
AM_0 ( Kontur 0.5 )
100
AcDbSpline
210
0.0
220
0.0
230
1.0
 70
     8
 71
     3
 72
    32
 73
    28
 74
     0
 42
0.000000001
 43
0.0000000001
 40
19.0611431837879
 40
19.0611431837879
 40
19.0611431837879
 40
19.0611431837879
 40
24.55069578775022
 40
24.55069578775022
 40
27.39450479126228
 40
27.39450479126228
 40
29.16610813556848
 40
29.16610813556848
 40
30.93771147987467
 40
30.93771147987467
 40
34.48091816848705
 40
34.48091816848705
 40
40.51314518205137
 40
40.51314518205137
 40
44.92738594193061
 40
44.92738594193061
 40
47.69745227607082
 40
47.69745227607082
 40
50.46751861021103
 40
50.46751861021103
 40
55.09801596902221
 40
55.09801596902221
 40
59.72851332783335
 40
59.72851332783335
 40
62.21266188714202
 40
62.21266188714202
 40
62.45743371926913
 40
62.45743371926913
 40
62.45743371926913
 40
62.45743371926913
 10
4597.730304979105
 20
3869.874925483788
 30
0.0
 10
4595.96515416158
 20
3870.147130198056
 30
0.0
 10
4594.514434593738
 20
3870.19610847027
 30
0.0
 10
4592.194422844419
 20
3870.071626625726
 30
0.0
 10
4591.382619046362
 20
3869.994217906335
 30
0.0
 10
4590.040704977061
 20
3869.819417239975
 30
0.0
 10
4589.518865723234
 20
3869.740714900766
 30
0.0
 10
4588.490828672709
 20
3869.564390014673
 30
0.0
 10
4587.981622842795
 20
3869.46616776385
 30
0.0
 10
4586.472371421821
 20
3869.140418720744
 30
0.0
 10
4585.490792488505
 20
3868.881747201143
 30
0.0
 10
4582.930432116291
 20
3868.066159613171
 30
0.0
 10
4581.418159568773
 20
3867.427619693911
 30
0.0
 10
4579.028202150267
 20
3866.09742995466
 30
0.0
 10
4578.088583043223
 20
3865.466440336422
 30
0.0
 10
4576.677517419745
 20
3864.315795612128
 30
0.0
 10
4576.161204012925
 20
3863.841183061058
 30
0.0
 10
4575.181516889939
 20
3862.822855534563
 30
0.0
 10
4574.721387231664
 20
3862.282127619316
 30
0.0
 10
4573.601150374412
 20
3860.783303952717
 30
0.0
 10
4573.01587989443
 20
3859.789166542153
 30
0.0
 10
4572.142536003826
 20
3857.797997193936
 30
0.0
 10
4571.854316167672
 20
3856.803707662039
 30
0.0
 10
4571.645934706968
 20
3855.328833086451
 30
0.0
 10
4571.616543646776
 20
3854.820816303618
 30
0.0
 10
4571.631526295661
 20
3854.275864807173
 30
0.0
 10
4571.6332964015
 20
3854.227160943003
 30
0.0
 10
4571.63548460352
 20
3854.178662416787
 30
0.0
  0
ARC
  5
15E4
330
74
100
AcDbEntity
  8
AM_0 ( Kontur 0.5 )
100
AcDbCircle
 10
-622.5209003337689
 20
-2477.400666499823
 30
5539.636297796512
 40
2.975999999999998
210
0.6365163179512232
220
0.6543548810203314
230
0.4082482904638859
100
AcDbArc
 50
286.4808554386971
 51
140.76847951641
  0
ARC
  5
15E5
330
74
100
AcDbEntity
  8
AM_0 ( Kontur 0.5 )
100
AcDbCircle
 10
-622.5209003337689
 20
-2477.400666499823
 30
5539.636297796512
 40
2.975999999999998
210
0.6365163179512232
220
0.6543548810203314
230
0.4082482904638859
100
AcDbArc
 50
140.76847951641
 51
248.8405389588799
  0
ARC
  5
15E6
330
74
100
AcDbEntity
  8
AM_0 ( Kontur 0.5 )
100
AcDbCircle
 10
-622.5768783559342
 20
-2477.531019041415
 30
5539.927774940577
 40
0.9599999999999999
210
0.6365163179512232
220
0.6543548810203314
230
0.4082482904638859
100
AcDbArc
 50
358.2674284669181
 51
140.76847951641
  0
CIRCLE
  5
15E7
330
74
100
AcDbEntity
  8
AM_0 ( Kontur 0.5 )
100
AcDbCircle
 10
-622.7814795789031
 20
-2478.67201610542
 30
5542.479121937805
 40
0.9599999999999999
210
0.6365163179512234
220
0.6543548810203314
230
0.4082482904638859
  0
LINE
  5
15E8
330
74
100
AcDbEntity
  8
AM_0 ( Kontur 0.5 )
100
AcDbLine
 10
4679.190426873167
 20
3918.529458275005
 30
-0.0264961602057952
 11
4677.094997904974
 21
3916.668736668356
 31
-0.0264961615648645
  0
ARC
  5
15E9
330
74
100
AcDbEntity
  8
AM_0 ( Kontur 0.5 )
100
AcDbCircle
 10
-622.5768783559356
 20
-2477.531019041416
 30
5539.927774940577
 40
0.9599999999999999
210
0.6365163179512232
220
0.6543548810203314
230
0.4082482904638859
100
AcDbArc
 50
140.76847951641
 51
174.1508614899334
  0
LINE
  5
15EA
330
74
100
AcDbEntity
  8
AM_0 ( Kontur 0.5 )
100
AcDbLine
 10
4678.431264270659
 20
3915.296648469045
 30
0.0264961629427489
 11
4680.549548121947
 21
3917.174326825726
 31
0.0264961629451932
  0
ARC
  5
15EB
330
74
100
AcDbEntity
  8
AM_0 ( Kontur 0.5 )
100
AcDbCircle
 10
-4655.714420524627
 20
3876.328859780268
 30
0.0000000001361572
 40
1.603851729391173
210
0.0000000000000092
220
0.0000000000000034
230
-1.0
100
AcDbArc
 50
158.7911364449286
 51
212.2433785946663
  0
SPLINE
  5
15EE
330
74
100
AcDbEntity
  8
AM_0 ( Kontur 0.5 )
100
AcDbSpline
210
0.0
220
0.0
230
1.0
 70
     9
 71
     3
 72
    58
 73
    54
 74
     0
 42
0.000000001
 43
0.0000000001
 40
51.88536384744097
 40
51.88536384744097
 40
51.88536384744097
 40
51.88536384744097
 40
59.58383842200923
 40
59.58383842200923
 40
63.81734449069256
 40
63.81734449069256
 40
70.24767801417436
 40
70.24767801417436
 40
76.67801153765616
 40
76.67801153765616
 40
81.47289677085108
 40
81.47289677085108
 40
86.26778200404602
 40
86.26778200404602
 40
88.73103052007408
 40
88.73103052007408
 40
90.36900381980156
 40
90.36900381980156
 40
93.65647895959298
 40
93.65647895959298
 40
96.94395409938444
 40
96.94395409938444
 40
100.2314292391758
 40
100.2314292391758
 40
103.5189043789672
 40
103.5189043789672
 40
106.2373476658664
 40
106.2373476658664
 40
107.5627619414898
 40
107.5627619414898
 40
109.0608270621953
 40
109.0608270621953
 40
110.5588921829008
 40
110.5588921829008
 40
113.3675877104212
 40
113.3675877104212
 40
116.1762832379415
 40
116.1762832379415
 40
118.9849787654618
 40
118.9849787654618
 40
121.5656910171818
 40
121.5656910171818
 40
127.1926964169462
 40
127.1926964169462
 40
132.8197018167106
 40
132.8197018167106
 40
136.2813379484484
 40
136.2813379484484
 40
142.0300205675693
 40
142.0300205675693
 40
147.7787031866903
 40
147.7787031866903
 40
153.075227387162
 40
153.075227387162
 40
153.075227387162
 40
153.075227387162
 10
4652.941143482881
 20
3871.066181748513
 30
0.0
 10
4651.686090979333
 20
3872.630945858754
 30
0.0
 10
4650.187167339753
 20
3874.055517087362
 30
0.0
 10
4647.515479790107
 20
3875.993157308257
 30
0.0
 10
4646.499716682716
 20
3876.627604824775
 30
0.0
 10
4643.781174547913
 20
3878.074588907016
 30
0.0
 10
4641.984684255354
 20
3878.811698393569
 30
0.0
 10
4638.331505163373
 20
3879.874992925969
 30
0.0
 10
4636.476840764641
 20
3880.199679679657
 30
0.0
 10
4633.419077256478
 20
3880.346290149216
 30
0.0
 10
4632.171417237747
 20
3880.276044302354
 30
0.0
 10
4629.874656696492
 20
3879.878543579401
 30
0.0
 10
4628.82733765701
 20
3879.553692596977
 30
0.0
 10
4627.397464642827
 20
3878.878004639719
 30
0.0
 10
4626.938371892079
 20
3878.616387756262
 30
0.0
 10
4626.210459711867
 20
3878.120352537268
 30
0.0
 10
4625.929589184468
 20
3877.906290000704
 30
0.0
 10
4625.108366495815
 20
3877.205403841478
 30
0.0
 10
4624.558691164426
 20
3876.629994490084
 30
0.0
 10
4623.547765893841
 20
3875.333579651592
 30
0.0
 10
4623.086539286048
 20
3874.613177859812
 30
0.0
 10
4622.316361973764
 20
3873.122922090426
 30
0.0
 10
4622.007698281915
 20
3872.353286040731
 30
0.0
 10
4621.57593256949
 20
3870.874578395579
 30
0.0
 10
4621.453642917315
 20
3870.166512625616
 30
0.0
 10
4621.387208159523
 20
3869.029721677528
 30
0.0
 10
4621.415128931086
 20
3868.575175994119
 30
0.0
 10
4621.513013295565
 20
3868.01019339642
 30
0.0
 10
4621.553871345998
 20
3867.842388594626
 30
0.0
 10
4621.654423785674
 20
3867.518715369396
 30
0.0
 10
4621.713127949308
 20
3867.37153117574
 30
0.0
 10
4621.873676802684
 20
3867.045084943661
 30
0.0
 10
4621.973682178112
 20
3866.872928575707
 30
0.0
 10
4622.329938678386
 20
3866.353226203886
 30
0.0
 10
4622.648417273126
 20
3865.983690776927
 30
0.0
 10
4623.464352556616
 20
3865.235033495322
 30
0.0
 10
4623.960718611124
 20
3864.85729345598
 30
0.0
 10
4625.088713262825
 20
3864.148054191309
 30
0.0
 10
4625.719682589857
 20
3863.816625651974
 30
0.0
 10
4626.999432513673
 20
3863.259642448269
 30
0.0
 10
4627.642443939996
 20
3863.027510282542
 30
0.0
 10
4629.696438504295
 20
3862.425232725602
 30
0.0
 10
4631.0986223517
 20
3862.217821851538
 30
0.0
 10
4633.927782047631
 20
3862.147460931733
 30
0.0
 10
4635.354570830609
 20
3862.286580675192
 30
0.0
 10
4637.656652276807
 20
3862.762473576527
 30
0.0
 10
4638.532207947466
 20
3863.002632514218
 30
0.0
 10
4640.838735375029
 20
3863.78295739188
 30
0.0
 10
4642.278643706085
 20
3864.425510485854
 30
0.0
 10
4645.209033008021
 20
3865.975159053298
 30
0.0
 10
4646.696556178377
 20
3866.881571349551
 30
0.0
 10
4649.620389294441
 20
3868.791802150403
 30
0.0
 10
4651.051181084445
 20
3869.781808327564
 30
0.0
 10
4652.941143482881
 20
3871.066181748513
 30
0.0
  0
SPLINE
  5
15EF
330
74
100
AcDbEntity
  8
AM_0 ( Kontur 0.5 )
100
AcDbSpline
210
-0.0000000000000316
220
0.0000000000005631
230
1.0
 70
  1064
 71
     3
 72
    10
 73
     6
 74
     4
 42
0.000000001
 43
0.0000000001
 44
0.0000000001
 40
0.0
 40
0.0
 40
0.0
 40
0.0
 40
9.53629260645618
 40
18.85481041681467
 40
32.77432502673946
 40
32.77432502673946
 40
32.77432502673946
 40
32.77432502673946
 10
4652.409950512255
 20
3871.696247309968
 30
0.0
 10
4649.643866332676
 20
3870.140578477022
 30
-0.0000000000029093
 10
4644.174865437337
 20
3867.064766720083
 30
-0.0000000000086615
 10
4633.050382247513
 20
3864.544788858287
 30
0.0000000000034161
 10
4625.797618662294
 20
3867.932354754726
 30
0.0000000000012797
 10
4621.453234126593
 20
3869.961496987371
 30
0.0
 11
4652.409950512255
 21
3871.696247309968
 31
0.0
 11
4643.873584751299
 21
3867.445207875768
 31
-0.0000000000054791
 11
4634.714169154405
 21
3865.730600018164
 31
0.0
 11
4621.453234126593
 21
3869.961496987371
 31
0.0
  0
SPLINE
  5
15F0
330
74
100
AcDbEntity
  8
AM_0 ( Kontur 0.5 )
100
AcDbSpline
210
0.0000000000000016
220
0.0000000000014524
230
-1.0
 70
  1064
 71
     3
 72
    10
 73
     6
 74
     4
 42
0.000000001
 43
0.0000000001
 44
0.0000000001
 40
0.0
 40
0.0
 40
0.0
 40
0.0
 40
6.744468394861
 40
15.00339898197826
 40
25.70147935834704
 40
25.70147935834704
 40
25.70147935834704
 40
25.70147935834704
 10
4647.931518367665
 20
3875.68094932464
 30
0.0
 10
4645.944544003857
 20
3874.658547864361
 30
0.0000000000066054
 10
4641.524422594453
 20
3872.384165936793
 30
0.0000000000212995
 10
4632.657382116473
 20
3870.347275303562
 30
-0.0000000000077719
 10
4627.024500792836
 20
3873.774249976051
 30
-0.0000000000028037
 10
4623.845675962969
 20
3875.708207315882
 30
0.0
 11
4647.931518367665
 21
3875.68094932464
 31
0.0
 11
4641.817811424949
 21
3872.833065663416
 31
0.0000000000134176
 11
4633.671103663654
 21
3871.476199017467
 31
0.0
 11
4623.845675962969
 21
3875.708207315882
 31
0.0
  0
SPLINE
  5
15F1
330
74
100
AcDbEntity
  8
AM_0 ( Kontur 0.5 )
100
AcDbSpline
210
0.0
220
0.0
230
1.0
 70
     8
 71
     3
 72
    10
 73
     6
 74
     0
 42
0.000000001
 43
0.0000000001
 40
0.0
 40
0.0
 40
0.0
 40
0.0
 40
6.672315295072434
 40
12.96661742428595
 40
13.00511708285303
 40
13.00511708285303
 40
13.00511708285303
 40
13.00511708285303
 10
4660.583588981498
 20
3870.257739915373
 30
0.0
 10
4661.867418400133
 20
3872.241069895153
 30
0.0
 10
4664.362343201092
 20
3876.095366332992
 30
0.0
 10
4662.563633227256
 20
3880.508561013451
 30
0.0
 10
4661.415727020503
 20
3882.385220780751
 30
0.0
 10
4661.408738400472
 20
3882.396619700811
 30
0.0
  0
SPLINE
  5
15F2
330
74
100
AcDbEntity
  8
AM_0 ( Kontur 0.5 )
100
AcDbSpline
210
0.0
220
0.0
230
1.0
 70
     8
 71
     3
 72
    12
 73
     8
 74
     0
 42
0.000000001
 43
0.0000000001
 40
19.0611431837879
 40
19.0611431837879
 40
19.0611431837879
 40
19.0611431837879
 40
28.08171395060248
 40
46.22453639773229
 40
61.26120952792028
 40
67.65754834140664
 40
73.24096422007179
 40
73.24096422007179
 40
73.24096422007179
 40
73.24096422007179
 10
4657.440611619452
 20
3887.079796433662
 30
0.0
 10
4655.174754559242
 20
3889.084373147892
 30
0.0
 10
4647.191898369078
 20
3893.794227783575
 30
0.0
 10
4632.842567862195
 20
3897.242159239755
 30
0.0
 10
4619.659363356027
 20
3890.589132600016
 30
0.0
 10
4615.919414259012
 20
3881.845401745713
 30
0.0
 10
4616.628385767493
 20
3877.848090328694
 30
0.0
 10
4616.958816805496
 20
3875.985059522867
 30
0.0
  0
SPLINE
  5
15F3
330
74
100
AcDbEntity
  8
AM_0 ( Kontur 0.5 )
100
AcDbSpline
210
0.0
220
0.0
230
1.0
 70
     8
 71
     3
 72
    32
 73
    28
 74
     0
 42
0.000000001
 43
0.0000000001
 40
19.0611431837879
 40
19.0611431837879
 40
19.0611431837879
 40
19.0611431837879
 40
24.55069578775022
 40
24.55069578775022
 40
27.39450479126228
 40
27.39450479126228
 40
29.16610813556848
 40
29.16610813556848
 40
30.93771147987467
 40
30.93771147987467
 40
34.48091816848705
 40
34.48091816848705
 40
40.51314518205137
 40
40.51314518205137
 40
44.92738594193061
 40
44.92738594193061
 40
47.69745227607082
 40
47.69745227607082
 40
50.46751861021103
 40
50.46751861021103
 40
55.09801596902221
 40
55.09801596902221
 40
59.72851332783335
 40
59.72851332783335
 40
62.21266188714202
 40
62.21266188714202
 40
62.45743371926913
 40
62.45743371926913
 40
62.45743371926913
 40
62.45743371926913
 10
4653.768045599933
 20
3882.301173403048
 30
0.0
 10
4652.438690468303
 20
3883.493929769236
 30
0.0
 10
4651.250627310413
 20
3884.327891440138
 30
0.0
 10
4649.239806563565
 20
3885.491742878532
 30
0.0
 10
4648.517690436789
 20
3885.870643677984
 30
0.0
 10
4647.298426037396
 20
3886.45774074553
 30
0.0
 10
4646.818419455871
 20
3886.677066865099
 30
0.0
 10
4645.861162890468
 20
3887.091325854984
 30
0.0
 10
4645.381066184799
 20
3887.287400690139
 30
0.0
 10
4643.939166598634
 20
3887.839558162428
 30
0.0
 10
4642.975804355091
 20
3888.159466501021
 30
0.0
 10
4640.385964683003
 20
3888.875957130511
 30
0.0
 10
4638.770567181291
 20
3889.167834498464
 30
0.0
 10
4636.042147303487
 20
3889.360256365942
 30
0.0
 10
4634.910417323969
 20
3889.345450350083
 30
0.0
 10
4633.099859808064
 20
3889.153172018213
 30
0.0
 10
4632.408080449638
 20
3889.037942130804
 30
0.0
 10
4631.031082868988
 20
3888.720679663687
 30
0.0
 10
4630.35021391829
 20
3888.519375285373
 30
0.0
 10
4628.592885981253
 20
3887.876567754602
 30
0.0
 10
4627.559395373618
 20
3887.363978357761
 30
0.0
 10
4625.739705189841
 20
3886.173931064756
 30
0.0
 10
4624.954881965342
 20
3885.498849696714
 30
0.0
 10
4623.974233032585
 20
3884.377687122609
 30
0.0
 10
4623.671944592468
 20
3883.968338145539
 30
0.0
 10
4623.386626639919
 20
3883.503805822444
 30
0.0
 10
4623.361487936929
 20
3883.462053633618
 30
0.0
 10
4623.33681158358
 20
3883.420244868286
 30
0.0
  0
SPLINE
  5
15F4
330
74
100
AcDbEntity
  8
AM_0 ( Kontur 0.5 )
100
AcDbSpline
210
0.0
220
0.0
230
1.0
 70
  1064
 71
     3
 72
    11
 73
     7
 74
     5
 42
0.000000001
 43
0.0000000001
 44
0.0000000001
 40
0.0
 40
0.0
 40
0.0
 40
0.0
 40
8.805461240422513
 40
18.69318962988182
 40
32.07037661258186
 40
44.82008399151929
 40
44.82008399151929
 40
44.82008399151929
 40
44.82008399151929
 10
4652.073997149233
 20
3880.098707923648
 30
0.0
 10
4653.858828255422
 20
3882.419977449576
 30
0.0
 10
4657.647861608058
 20
3887.3478205512
 30
0.0
 10
4664.242115132638
 20
3895.935723725969
 30
0.0
 10
4666.426009568183
 20
3908.255556737362
 30
0.0
 10
4672.469966652605
 20
3914.755362280571
 30
0.0
 10
4675.419367494919
 20
3917.927213383456
 30
0.0
 11
4652.073997149233
 21
3880.098707923648
 31
0.0
 11
4657.440611619452
 21
3887.07979643366
 31
0.0
 11
4662.915366832491
 21
3895.313521475282
 31
0.0
 11
4667.633166655367
 21
3907.83116887411
 31
0.0
 11
4675.419367494919
 21
3917.927213383456
 31
0.0
  0
SPLINE
  5
15F5
330
74
100
AcDbEntity
  8
AM_0 ( Kontur 0.5 )
100
AcDbSpline
210
-0.0000000000001739
220
0.0000000000001307
230
1.0
 70
     8
 71
     3
 72
    38
 73
    34
 74
     0
 42
0.000000001
 43
0.0000000001
 40
0.0
 40
0.0
 40
0.0
 40
0.0
 40
5.372908826282775
 40
5.372908826282775
 40
8.712300179207129
 40
8.712300179207129
 40
12.30470844408995
 40
12.30470844408995
 40
15.89711670897276
 40
15.89711670897276
 40
18.19856862018019
 40
18.19856862018019
 40
19.23029997063819
 40
19.23029997063819
 40
20.26203132109618
 40
20.26203132109618
 40
22.32549402201218
 40
22.32549402201218
 40
26.30463109703415
 40
26.30463109703415
 40
30.28376817205612
 40
30.28376817205612
 40
31.56333681121956
 40
31.56333681121956
 40
32.63024736148996
 40
32.63024736148996
 40
33.69715791176035
 40
33.69715791176035
 40
35.83097901230114
 40
35.83097901230114
 40
41.01326067514068
 40
41.01326067514068
 40
44.82008399151952
 40
44.82008399151952
 40
44.82008399151952
 40
44.82008399151952
 10
4656.575133622001
 20
3876.050197600639
 30
0.0
 10
4657.919561136824
 20
3877.857813156905
 30
0.0
 10
4659.008771465007
 20
3879.274390161648
 30
0.0
 10
4660.779646289635
 20
3881.578067292586
 30
0.0
 10
4661.459534039669
 20
3882.462645274846
 30
0.0
 10
4662.874513310097
 20
3884.304071026824
 30
0.0
 10
4663.640337271789
 20
3885.298463325421
 30
0.0
 10
4665.181372566378
 20
3887.414192645951
 30
0.0
 10
4665.955273742594
 20
3888.533754670318
 30
0.0
 10
4667.16466630898
 20
3890.508945147784
 30
0.0
 10
4667.621658692099
 20
3891.315003990117
 30
0.0
 10
4668.242264212827
 20
3892.540733526868
 30
0.0
 10
4668.429331107088
 20
3892.930753272884
 30
0.0
 10
4668.779145595347
 20
3893.700250068343
 30
0.0
 10
4668.943610981378
 20
3894.082332498154
 30
0.0
 10
4669.41089546223
 20
3895.217901120663
 30
0.0
 10
4669.687738634014
 20
3895.960624156168
 30
0.0
 10
4670.43378345902
 20
3898.077628534787
 30
0.0
 10
4670.844959650863
 20
3899.398325866512
 30
0.0
 10
4671.640956735449
 20
3901.827623910886
 30
0.0
 10
4672.025748675777
 20
3902.935337139047
 30
0.0
 10
4672.563061574904
 20
3904.220208558424
 30
0.0
 10
4672.695811004336
 20
3904.518957780612
 30
0.0
 10
4672.94400673332
 20
3905.040736898737
 30
0.0
 10
4673.057534714656
 20
3905.265784475633
 30
0.0
 10
4673.301712702379
 20
3905.722700644986
 30
0.0
 10
4673.43092609409
 20
3905.95181063761
 30
0.0
 10
4673.839843697948
 20
3906.641958535292
 30
0.0
 10
4674.140920131129
 20
3907.105866541228
 30
0.0
 10
4675.266172140974
 20
3908.713894191848
 30
0.0
 10
4676.22543417191
 20
3909.882061647138
 30
0.0
 10
4678.085165452188
 20
3911.982102505581
 30
0.0
 10
4678.932652318037
 20
3912.894394828605
 30
0.0
 10
4679.657532949216
 20
3913.728597869514
 30
-0.0000000000009095
  0
ARC
  5
15F6
330
74
100
AcDbEntity
  8
AM_0 ( Kontur 0.5 )
100
AcDbCircle
 10
2630.676242796176
 20
-2263.109408894656
 30
5060.466478807473
 40
2.975999999999998
210
0.8860427247334937
220
0.219685282347637
230
0.4082482904638861
100
AcDbArc
 50
286.4808554386779
 51
140.7684795163895
  0
ARC
  5
15F7
330
74
100
AcDbEntity
  8
AM_0 ( Kontur 0.5 )
100
AcDbCircle
 10
2630.676242796176
 20
-2263.109408894656
 30
5060.466478807473
 40
2.975999999999998
210
0.8860427247334937
220
0.219685282347637
230
0.4082482904638861
100
AcDbArc
 50
140.7684795163895
 51
248.8405389588856
  0
ARC
  5
15F8
330
74
100
AcDbEntity
  8
AM_0 ( Kontur 0.5 )
100
AcDbCircle
 10
2630.620264774008
 20
-2263.239761436249
 30
5060.75795595154
 40
0.9599999999999996
210
0.8860427247334937
220
0.219685282347637
230
0.4082482904638861
100
AcDbArc
 50
358.2674284669149
 51
140.7684795163895
  0
CIRCLE
  5
15F9
330
74
100
AcDbEntity
  8
AM_0 ( Kontur 0.5 )
100
AcDbCircle
 10
2630.415663551041
 20
-2264.380758500253
 30
5063.309302948771
 40
0.9599999999999996
210
0.8860427247334937
220
0.219685282347637
230
0.4082482904638861
  0
LINE
  5
15FA
330
74
100
AcDbEntity
  8
AM_0 ( Kontur 0.5 )
100
AcDbLine
 10
4750.332758681042
 20
3888.846489573482
 30
-0.0264961602057952
 11
4747.570797814737
 21
3888.372485743133
 31
-0.0264961615648645
  0
ARC
  5
15FB
330
74
100
AcDbEntity
  8
AM_0 ( Kontur 0.5 )
100
AcDbCircle
 10
2630.620264774008
 20
-2263.23976143625
 30
5060.75795595154
 40
0.9599999999999996
210
0.8860427247334937
220
0.219685282347637
230
0.4082482904638861
100
AcDbArc
 50
140.7684795163895
 51
174.1508614899418
  0
LINE
  5
15FC
330
74
100
AcDbEntity
  8
AM_0 ( Kontur 0.5 )
100
AcDbLine
 10
4747.981275869412
 20
3886.501726113096
 30
0.0264961629427489
 11
4750.771599125908
 21
3886.978064868639
 31
0.0264961629451932
  0
ARC
  5
15FD
330
74
100
AcDbEntity
  8
AM_0 ( Kontur 0.5 )
100
AcDbCircle
 10
-4708.115529630504
 20
3865.40040336096
 30
0.0000000001178409
 40
1.603851729391173
210
0.0000000000000096
220
-0.0000000000000019
230
-1.0
100
AcDbArc
 50
190.657762904248
 51
244.110005053991
  0
SPLINE
  5
15FE
330
74
100
AcDbEntity
  8
AM_0 ( Kontur 0.5 )
100
AcDbSpline
210
0.0
220
0.0
230
1.0
 70
     8
 71
     3
 72
     8
 73
     4
 74
     0
 42
0.000000001
 43
0.0000000001
 40
0.0
 40
0.0
 40
0.0
 40
0.0
 40
0.293666086804071
 40
0.293666086804071
 40
0.293666086804071
 40
0.293666086804071
 10
4681.472961547259
 20
3821.820664933208
 30
0.0
 10
4681.553512883374
 20
3821.877306550484
 30
0.0
 10
4681.634064219487
 20
3821.933948167762
 30
0.0
 10
4681.714613048485
 20
3821.990592626708
 30
0.0
  0
SPLINE
  5
15FF
330
74
100
AcDbEntity
  8
AM_0 ( Kontur 0.5 )
100
AcDbSpline
210
0.0
220
0.0
230
1.0
 70
     8
 71
     3
 72
    10
 73
     6
 74
     0
 42
0.000000001
 43
0.0000000001
 40
25.63549976415782
 40
25.63549976415782
 40
25.63549976415782
 40
25.63549976415782
 40
32.66464711031671
 40
32.66464711031671
 40
36.37483514628687
 40
36.37483514628687
 40
36.37483514628687
 40
36.37483514628687
 10
4696.180477805168
 20
3842.249032103796
 30
0.0
 10
4697.459847734307
 20
3843.879228504324
 30
0.0
 10
4698.623184314985
 20
3845.622583168808
 30
0.0
 10
4700.13135925275
 20
3848.370344463555
 30
0.0
 10
4704.074173628244
 20
3857.203771593093
 30
0.0
 10
4702.981844804332
 20
3862.395053843567
 30
0.0
  0
SPLINE
  5
1600
330
74
100
AcDbEntity
  8
AM_0 ( Kontur 0.5 )
100
AcDbSpline
210
0.0
220
0.0
230
1.0
 70
     9
 71
     3
 72
    58
 73
    54
 74
     0
 42
0.000000001
 43
0.0000000001
 40
51.88536384744097
 40
51.88536384744097
 40
51.88536384744097
 40
51.88536384744097
 40
59.58383842200923
 40
59.58383842200923
 40
63.81734449069256
 40
63.81734449069256
 40
70.24767801417436
 40
70.24767801417436
 40
76.67801153765616
 40
76.67801153765616
 40
81.47289677085108
 40
81.47289677085108
 40
86.26778200404602
 40
86.26778200404602
 40
88.73103052007408
 40
88.73103052007408
 40
90.36900381980156
 40
90.36900381980156
 40
93.65647895959298
 40
93.65647895959298
 40
96.94395409938444
 40
96.94395409938444
 40
100.2314292391758
 40
100.2314292391758
 40
103.5189043789672
 40
103.5189043789672
 40
106.2373476658664
 40
106.2373476658664
 40
107.5627619414898
 40
107.5627619414898
 40
109.0608270621953
 40
109.0608270621953
 40
110.5588921829008
 40
110.5588921829008
 40
113.3675877104212
 40
113.3675877104212
 40
116.1762832379415
 40
116.1762832379415
 40
118.9849787654618
 40
118.9849787654618
 40
121.5656910171818
 40
121.5656910171818
 40
127.1926964169462
 40
127.1926964169462
 40
132.8197018167106
 40
132.8197018167106
 40
136.2813379484484
 40
136.2813379484484
 40
142.0300205675693
 40
142.0300205675693
 40
147.7787031866903
 40
147.7787031866903
 40
153.075227387162
 40
153.075227387162
 40
153.075227387162
 40
153.075227387162
 10
4702.981844804332
 20
3862.395053843563
 30
0.0
 10
4702.742062046058
 20
3864.38657279557
 30
0.0
 10
4702.221150614612
 20
3866.387779067613
 30
0.0
 10
4700.975106576438
 20
3869.443877600627
 30
0.0
 10
4700.447392540698
 20
3870.518966544869
 30
0.0
 10
4698.902517035288
 20
3873.183097537474
 30
0.0
 10
4697.765947269417
 20
3874.757555200837
 30
0.0
 10
4695.224737403938
 20
3877.589262311456
 30
0.0
 10
4693.821025572066
 20
3878.844170520451
 30
0.0
 10
4691.30153225467
 20
3880.583010859655
 30
0.0
 10
4690.204834513262
 20
3881.182046806259
 30
0.0
 10
4688.044385202296
 20
3882.057017996281
 30
0.0
 10
4686.983415730106
 20
3882.33405429413
 30
0.0
 10
4685.412328884148
 20
3882.515098970203
 30
0.0
 10
4684.884311897124
 20
3882.535288296903
 30
0.0
 10
4684.004232428248
 20
3882.498312506927
 30
0.0
 10
4683.652681914399
 20
3882.4647974516
 30
0.0
 10
4682.585205986764
 20
3882.30310868738
 30
0.0
 10
4681.814594316406
 20
3882.104623057884
 30
0.0
 10
4680.271602266993
 20
3881.537316375732
 30
0.0
 10
4679.49956041998
 20
3881.168995711366
 30
0.0
 10
4678.058693533913
 20
3880.309962552992
 30
0.0
 10
4677.390227302447
 20
3879.819283614132
 30
0.0
 10
4676.242863158927
 20
3878.791395754284
 30
0.0
 10
4675.765186193853
 20
3878.254612175306
 30
0.0
 10
4675.108602864072
 20
3877.324232915138
 30
0.0
 10
4674.892340851699
 20
3876.923456057279
 30
0.0
 10
4674.677192996557
 20
3876.391950568181
 30
0.0
 10
4674.623301400711
 20
3876.227866663771
 30
0.0
 10
4674.537817258756
 20
3875.899891647449
 30
0.0
 10
4674.509968519219
 20
3875.743898655953
 30
0.0
 10
4674.473974100736
 20
3875.381893851294
 30
0.0
 10
4674.46801772436
 20
3875.182887791781
 30
0.0
 10
4674.496205399778
 20
3874.553431912296
 30
0.0
 10
4674.571588778379
 20
3874.071454326389
 30
0.0
 10
4674.869296839992
 20
3873.004867235624
 30
0.0
 10
4675.091424790607
 20
3872.422007071477
 30
0.0
 10
4675.674968923991
 20
3871.224147099189
 30
0.0
 10
4676.035862520456
 20
3870.609555380753
 30
0.0
 10
4676.828671906208
 20
3869.46088509099
 30
0.0
 10
4677.252215507516
 20
3868.924266181022
 30
0.0
 10
4678.678662006116
 20
3867.328370723166
 30
0.0
 10
4679.760006516874
 20
3866.411946770154
 30
0.0
 10
4682.125606810095
 20
3864.858553549872
 30
0.0
 10
4683.4107964539
 20
3864.223440871906
 30
0.0
 10
4685.617151359198
 20
3863.412237401539
 30
0.0
 10
4686.487533114962
 20
3863.153955294136
 30
0.0
 10
4688.858386855851
 20
3862.598952385921
 30
0.0
 10
4690.420503145604
 20
3862.384468872086
 30
0.0
 10
4693.72734951625
 20
3862.153472715339
 30
0.0
 10
4695.46920691911
 20
3862.13794141639
 30
0.0
 10
4698.960852388524
 20
3862.216641600781
 30
0.0
 10
4700.698661867632
 20
3862.302055835439
 30
0.0
 10
4702.981844804332
 20
3862.395053843563
 30
0.0
  0
SPLINE
  5
1601
330
74
100
AcDbEntity
  8
AM_0 ( Kontur 0.5 )
100
AcDbSpline
210
0.0000000000002705
220
0.0000000000004949
230
1.0
 70
  1064
 71
     3
 72
    10
 73
     6
 74
     4
 42
0.000000001
 43
0.0000000001
 44
0.0000000001
 40
0.0
 40
0.0
 40
0.0
 40
0.0
 40
9.53629260645731
 40
18.85481041681438
 40
32.77432502674169
 40
32.77432502674169
 40
32.77432502674169
 40
32.77432502674169
 10
4702.863352752371
 20
3863.210595514724
 30
0.0
 10
4699.692868967343
 20
3863.349734923907
 30
-0.0000000000029093
 10
4693.42430390089
 20
3863.624836296099
 30
-0.0000000000086615
 10
4682.646103546331
 20
3867.357772376671
 30
0.0000000000034161
 10
4678.274925422783
 20
3874.063813245772
 30
0.0000000000012797
 10
4675.656602294007
 20
3878.080712446357
 30
0.0
 11
4702.863352752371
 21
3863.210595514724
 31
0.0
 11
4693.369283962152
 21
3864.106996363979
 31
-0.0000000000054791
 11
4684.685164980678
 21
3867.486471426405
 31
0.0
 11
4675.656602294007
 21
3878.080712446357
 31
0.0
  0
SPLINE
  5
1602
330
74
100
AcDbEntity
  8
AM_0 ( Kontur 0.5 )
100
AcDbSpline
210
0.0000000000007682
220
0.0000000000012326
230
-1.0
 70
  1064
 71
     3
 72
    10
 73
     6
 74
     4
 42
0.000000001
 43
0.0000000001
 44
0.0000000001
 40
0.0
 40
0.0
 40
0.0
 40
0.0
 40
6.744468394861251
 40
15.00339898197812
 40
25.7014793583494
 40
25.7014793583494
 40
25.7014793583494
 40
25.7014793583494
 10
4701.163611298284
 20
3868.959080846418
 30
0.0
 10
4698.936344559018
 20
3869.139787073676
 30
0.0000000000066054
 10
4693.981681037432
 20
3869.541776892197
 30
0.0000000000212995
 10
4685.375723033003
 20
3872.493186236198
 30
-0.0000000000077719
 10
4682.401083075935
 20
3878.377489469198
 30
-0.0000000000028037
 10
4680.722393465386
 20
3881.698200158599
 30
0.0
 11
4701.163611298284
 21
3868.959080846418
 31
0.0
 11
4694.467843911422
 21
3869.768125363314
 31
0.0000000000134176
 11
4686.832664012044
 21
3872.916769888652
 31
0.0
 11
4680.722393465386
 21
3881.698200158599
 31
0.0
  0
SPLINE
  5
1603
330
74
100
AcDbEntity
  8
AM_0 ( Kontur 0.5 )
100
AcDbSpline
210
0.0
220
0.0
230
1.0
 70
     8
 71
     3
 72
    10
 73
     6
 74
     0
 42
0.000000001
 43
0.0000000001
 40
0.0
 40
0.0
 40
0.0
 40
0.0
 40
6.672315295072434
 40
12.96661742428595
 40
13.00511708285303
 40
13.00511708285303
 40
13.00511708285303
 40
13.00511708285303
 10
4709.045604126774
 20
3857.673679649924
 30
0.0
 10
4711.18302058007
 20
3858.680291139042
 30
0.0
 10
4715.336760354139
 20
3860.636485577867
 30
0.0
 10
4716.139071615926
 20
3865.334138342474
 30
0.0
 10
4716.154949353611
 20
3867.533976618156
 30
0.0
 10
4716.155032051413
 20
3867.547347083724
 30
0.0
  0
SPLINE
  5
1604
330
74
100
AcDbEntity
  8
AM_0 ( Kontur 0.5 )
100
AcDbSpline
210
0.0
220
0.0
230
1.0
 70
     8
 71
     3
 72
    12
 73
     8
 74
     0
 42
0.000000001
 43
0.0000000001
 40
19.0611431837879
 40
19.0611431837879
 40
19.0611431837879
 40
19.0611431837879
 40
28.08171395060248
 40
46.22453639773229
 40
61.26120952792028
 40
67.65754834140664
 40
73.24096422007179
 40
73.24096422007179
 40
73.24096422007179
 40
73.24096422007179
 10
4715.257437756823
 20
3873.619620047259
 30
0.0
 10
4714.391395874343
 20
3876.518310696213
 30
0.0
 10
4710.098259238964
 20
3884.732791901502
 30
0.0
 10
4699.731983010747
 20
3895.236688058766
 30
0.0
 10
4685.023335940555
 20
3896.546400196998
 30
0.0
 10
4677.230876464112
 20
3891.095012868179
 30
0.0
 10
4675.722635794166
 20
3887.325881768578
 30
0.0
 10
4675.019688603525
 20
3885.569199184413
 30
0.0
  0
SPLINE
  5
1605
330
74
100
AcDbEntity
  8
AM_0 ( Kontur 0.5 )
100
AcDbSpline
210
0.0
220
0.0
230
1.0
 70
     8
 71
     3
 72
    32
 73
    28
 74
     0
 42
0.000000001
 43
0.0000000001
 40
19.0611431837879
 40
19.0611431837879
 40
19.0611431837879
 40
19.0611431837879
 40
24.55069578775022
 40
24.55069578775022
 40
27.39450479126228
 40
27.39450479126228
 40
29.16610813556848
 40
29.16610813556848
 40
30.93771147987467
 40
30.93771147987467
 40
34.48091816848705
 40
34.48091816848705
 40
40.51314518205137
 40
40.51314518205137
 40
44.92738594193061
 40
44.92738594193061
 40
47.69745227607082
 40
47.69745227607082
 40
50.46751861021103
 40
50.46751861021103
 40
55.09801596902221
 40
55.09801596902221
 40
59.72851332783335
 40
59.72851332783335
 40
62.21266188714202
 40
62.21266188714202
 40
62.45743371926913
 40
62.45743371926913
 40
62.45743371926913
 40
62.45743371926913
 10
4709.61555918102
 20
3871.500142429469
 30
0.0
 10
4709.116273576436
 20
3873.21495049457
 30
0.0
 10
4708.54756091463
 20
3874.550447422296
 30
0.0
 10
4707.454260461475
 20
3876.600482633149
 30
0.0
 10
4707.041020452844
 20
3877.303511943806
 30
0.0
 10
4706.31547859963
 20
3878.445824362361
 30
0.0
 10
4706.02361077466
 20
3878.885509974792
 30
0.0
 10
4705.429337982979
 20
3879.742709188382
 30
0.0
 10
4705.125118247437
 20
3880.162695545638
 30
0.0
 10
4704.192050787585
 20
3881.392873340169
 30
0.0
 10
4703.542780734072
 20
3882.173165948742
 30
0.0
 10
4701.721550128442
 20
3884.148956279311
 30
0.0
 10
4700.503721220989
 20
3885.249680694701
 30
0.0
 10
4698.288118487692
 20
3886.853552800854
 30
0.0
 10
4697.319146845921
 20
3887.438468112748
 30
0.0
 10
4695.679965599217
 20
3888.231042598687
 30
0.0
 10
4695.031616779711
 20
3888.498400815211
 30
0.0
 10
4693.694664440366
 20
3888.955933603629
 30
0.0
 10
4693.010139116373
 20
3889.144430451258
 30
0.0
 10
4691.178310582495
 20
3889.526277570359
 30
0.0
 10
4690.029969991675
 20
3889.636570876136
 30
0.0
 10
4687.856266684124
 20
3889.586582324731
 30
0.0
 10
4686.833327547557
 20
3889.427592167572
 30
0.0
 10
4685.408571902068
 20
3888.993139411189
 30
0.0
 10
4684.935731343972
 20
3888.805079068009
 30
0.0
 10
4684.448169768528
 20
3888.561193186094
 30
0.0
 10
4684.404777180634
 20
3888.539005735232
 30
0.0
 10
4684.361747387532
 20
3888.516526140517
 30
0.0
  0
SPLINE
  5
1606
330
74
100
AcDbEntity
  8
AM_0 ( Kontur 0.5 )
100
AcDbSpline
210
0.0
220
0.0
230
1.0
 70
  1064
 71
     3
 72
    11
 73
     7
 74
     5
 42
0.000000001
 43
0.0000000001
 44
0.0000000001
 40
0.0
 40
0.0
 40
0.0
 40
0.0
 40
8.805461240423049
 40
18.69318962988468
 40
32.07037661258157
 40
44.82008399151973
 40
44.82008399151973
 40
44.82008399151973
 40
44.82008399151973
 10
4707.01406096117
 20
3870.523996255279
 30
0.0
 10
4709.755380867796
 20
3871.55311211812
 30
0.0
 10
4715.574952546283
 20
3873.737831061278
 30
0.0
 10
4725.709245576643
 20
3877.549965012286
 30
0.0
 10
4734.068160704663
 20
3886.859971361196
 30
0.0
 10
4742.632700265312
 20
3889.189252677816
 30
0.0
 10
4746.812124414321
 20
3890.325922608008
 30
0.0
 11
4707.01406096117
 21
3870.523996255279
 31
0.0
 11
4715.257437756823
 21
3873.619620047259
 31
0.0
 11
4724.25397786436
 21
3877.721989947359
 31
0.0
 11
4734.869321373127
 21
3885.862236489136
 31
0.0
 11
4746.812124414321
 21
3890.325922608008
 31
0.0
  0
SPLINE
  5
1607
330
74
100
AcDbEntity
  8
AM_0 ( Kontur 0.5 )
100
AcDbSpline
210
-0.0000000000000787
220
0.0000000000002028
230
1.0
 70
     8
 71
     3
 72
    38
 73
    34
 74
     0
 42
0.000000001
 43
0.0000000001
 40
0.0
 40
0.0
 40
0.0
 40
0.0
 40
5.372908826282775
 40
5.372908826282775
 40
8.712300179207129
 40
8.712300179207129
 40
12.30470844408995
 40
12.30470844408995
 40
15.89711670897276
 40
15.89711670897276
 40
18.19856862018019
 40
18.19856862018019
 40
19.23029997063819
 40
19.23029997063819
 40
20.26203132109618
 40
20.26203132109618
 40
22.32549402201218
 40
22.32549402201218
 40
26.30463109703415
 40
26.30463109703415
 40
30.28376817205612
 40
30.28376817205612
 40
31.56333681121956
 40
31.56333681121956
 40
32.63024736148996
 40
32.63024736148996
 40
33.69715791176035
 40
33.69715791176035
 40
35.83097901230114
 40
35.83097901230114
 40
41.01326067514068
 40
41.01326067514068
 40
44.82008399151952
 40
44.82008399151952
 40
44.82008399151952
 40
44.82008399151952
 10
4708.699397535479
 20
3864.709333237247
 30
0.0
 10
4710.795511370849
 20
3865.534721710044
 30
0.0
 10
4712.468428166064
 20
3866.162749532422
 30
0.0
 10
4715.188607496231
 20
3867.184292668977
 30
0.0
 10
4716.233029527057
 20
3867.576604000539
 30
0.0
 10
4718.40691139248
 20
3868.393459416731
 30
0.0
 10
4719.582293053671
 20
3868.833664294426
 30
0.0
 10
4722.008048548256
 20
3869.816929577758
 30
0.0
 10
4723.25637259379
 20
3870.359174203641
 30
0.0
 10
4725.326274166514
 20
3871.398171451541
 30
0.0
 10
4726.13994207738
 20
3871.841474312297
 30
0.0
 10
4727.314125761969
 20
3872.554816295131
 30
0.0
 10
4727.678906294304
 20
3872.78729121515
 30
0.0
 10
4728.38224752889
 20
3873.256126583004
 30
0.0
 10
4728.723642610687
 20
3873.493792829027
 30
0.0
 10
4729.720014012531
 20
3874.211507892306
 30
0.0
 10
4730.347247176184
 20
3874.696129608337
 30
0.0
 10
4732.098506842515
 20
3876.100188012067
 30
0.0
 10
4733.144964175979
 20
3877.004751084499
 30
0.0
 10
4735.103520749867
 20
3878.647662066246
 30
0.0
 10
4736.015126859725
 20
3879.385271538561
 30
0.0
 10
4737.149795427561
 20
3880.192815318839
 30
0.0
 10
4737.420259557334
 20
3880.376452633349
 30
0.0
 10
4737.906517081911
 20
3880.688555481444
 30
0.0
 10
4738.121746510701
 20
3880.819747353888
 30
0.0
 10
4738.570347862991
 20
3881.07888458052
 30
0.0
 10
4738.801043313814
 20
3881.205245564562
 30
0.0
 10
4739.512687850174
 20
3881.575488432542
 30
0.0
 10
4740.013303173428
 20
3881.810524503622
 30
0.0
 10
4741.817904594078
 20
3882.582119425462
 30
0.0
 10
4743.24931271821
 20
3883.067783537544
 30
0.0
 10
4745.937447506224
 20
3883.869471384182
 30
0.0
 10
4747.1388396174
 20
3884.196837029352
 30
0.0
 10
4748.194878038143
 20
3884.522612253761
 30
-0.0000000000009095
  0
SPLINE
  5
1608
330
74
100
AcDbEntity
  8
AM_0 ( Kontur 0.5 )
100
AcDbSpline
210
0.0
220
0.0
230
1.0
 70
     8
 71
     3
 72
    11
 73
     7
 74
     0
 42
0.000000001
 43
0.0000000001
 40
0.0
 40
0.0
 40
0.0
 40
0.0
 40
5.545626556217444
 40
15.39916208386677
 40
22.56862297420775
 40
28.20996047833871
 40
28.20996047833871
 40
28.20996047833871
 40
28.20996047833871
 10
4675.677406502482
 20
3823.373579227166
 30
0.0
 10
4676.524107571601
 20
3825.034119861836
 30
0.0
 10
4678.87523721724
 20
3829.645128937349
 30
0.0
 10
4685.136674306512
 20
3834.272692521999
 30
0.0
 10
4691.665016403923
 20
3837.980013330002
 30
0.0
 10
4694.913765774169
 20
3840.849133583811
 30
0.0
 10
4696.180477805159
 20
3842.249032103784
 30
0.0
  0
SPLINE
  5
1609
330
74
100
AcDbEntity
  8
AM_0 ( Kontur 0.5 )
100
AcDbSpline
210
0.0
220
0.0
230
1.0
 70
     8
 71
     3
 72
    34
 73
    30
 74
     0
 42
0.000000001
 43
0.0000000001
 40
0.0
 40
0.0
 40
0.0
 40
0.0
 40
1.236501453324384
 40
1.236501453324384
 40
3.709504359973156
 40
3.709504359973156
 40
4.896403731368019
 40
4.896403731368019
 40
6.062864559665228
 40
6.062864559665228
 40
7.229325387962437
 40
7.229325387962437
 40
9.562247044556855
 40
9.562247044556855
 40
14.77684684608189
 40
14.77684684608189
 40
17.04478130285203
 40
17.04478130285203
 40
19.31271575962216
 40
19.31271575962216
 40
21.8109698334943
 40
21.8109698334943
 40
23.41819547098378
 40
23.41819547098378
 40
25.02542110847326
 40
25.02542110847326
 40
28.23987238345222
 40
28.23987238345222
 40
28.38215452181012
 40
28.38215452181012
 40
28.38215452181012
 40
28.38215452181012
 10
4681.022646765293
 20
3820.648068901956
 30
0.0
 10
4681.211434649202
 20
3821.018317581209
 30
0.0
 10
4681.392839542955
 20
3821.37393737841
 30
0.0
 10
4681.921918133805
 20
3822.390827411736
 30
0.0
 10
4682.25520022046
 20
3823.001576288622
 30
0.0
 10
4682.732999790791
 20
3823.787547709912
 30
0.0
 10
4682.885350567271
 20
3824.024187672455
 30
0.0
 10
4683.18279070274
 20
3824.456683394871
 30
0.0
 10
4683.324036086436
 20
3824.64803546818
 30
0.0
 10
4683.633561335869
 20
3825.037900679956
 30
0.0
 10
4683.799478487521
 20
3825.233145942017
 30
0.0
 10
4684.331094896388
 20
3825.819953491609
 30
0.0
 10
4684.730969877475
 20
3826.212620895061
 30
0.0
 10
4686.16180350869
 20
3827.482353628933
 30
0.0
 10
4687.364228201497
 20
3828.354844798806
 30
0.0
 10
4689.267427413706
 20
3829.595876033564
 30
0.0
 10
4689.867788312676
 20
3829.970876648129
 30
0.0
 10
4691.129795302536
 20
3830.750698895018
 30
0.0
 10
4691.78873195481
 20
3831.153962309656
 30
0.0
 10
4693.220672001486
 20
3832.055973230952
 30
0.0
 10
4693.998624461282
 20
3832.560301637439
 30
0.0
 10
4695.303028500471
 20
3833.47337080732
 30
0.0
 10
4695.822136902036
 20
3833.854560240378
 30
0.0
 10
4696.838771005594
 20
3834.645598063055
 30
0.0
 10
4697.339632924792
 20
3835.057066070938
 30
0.0
 10
4698.814512355128
 20
3836.340420938859
 30
0.0
 10
4699.761040965127
 20
3837.261220765513
 30
0.0
 10
4700.693973888294
 20
3838.294730885527
 30
0.0
 10
4700.733413756869
 20
3838.338673487769
 30
0.0
 10
4700.772747493608
 20
3838.382751530763
 30
0.0
  0
SPLINE
  5
160A
330
74
100
AcDbEntity
  8
AM_0 ( Kontur 0.5 )
100
AcDbSpline
210
0.0
220
0.0
230
1.0
 70
     8
 71
     3
 72
    14
 73
    10
 74
     0
 42
0.000000001
 43
0.0000000001
 40
25.43279474452373
 40
25.43279474452373
 40
25.43279474452373
 40
25.43279474452373
 40
46.56985821041407
 40
64.89016963335983
 40
90.34723201791431
 40
108.2359526278922
 40
122.3468608294018
 40
136.4165364804209
 40
153.075227387162
 40
153.075227387162
 40
153.075227387162
 40
153.075227387162
 10
4700.772747493511
 20
3838.382751530643
 30
0.0
 10
4705.216955969031
 20
3843.993273277026
 30
0.0
 10
4711.395079417412
 20
3856.790669200543
 30
0.0
 10
4705.634413798275
 20
3878.593434318867
 30
0.0
 10
4685.429080251274
 20
3894.205984387646
 30
0.0
 10
4664.576282381275
 20
3878.872147711318
 30
0.0
 10
4672.86726359878
 20
3862.362284838832
 30
0.0
 10
4686.761876517111
 20
3855.603704531027
 30
0.0
 10
4697.153392534053
 20
3856.118912598183
 30
0.0
 10
4702.786918580851
 20
3856.398221032208
 30
0.0
  0
SPLINE
  5
160C
330
74
100
AcDbEntity
  8
AM_0 ( Kontur 0.5 )
100
AcDbSpline
210
0.0
220
0.0
230
1.0
 70
     8
 71
     3
 72
    12
 73
     8
 74
     0
 42
0.000000001
 43
0.0000000001
 40
0.0
 40
0.0
 40
0.0
 40
0.0
 40
5.96658212488445
 40
17.07257895204202
 40
23.74180379409199
 40
30.81191022652319
 40
32.83958979507811
 40
32.83958979507811
 40
32.83958979507811
 40
32.83958979507811
 10
4650.269490924979
 20
3825.662224617989
 30
0.0
 10
4650.444752402382
 20
3827.664519539772
 30
0.0
 10
4650.946239744309
 20
3833.39381940055
 30
0.0
 10
4655.309415991648
 20
3840.213131362413
 30
0.0
 10
4658.924382488353
 20
3847.791755927401
 30
0.0
 10
4658.708528319968
 20
3853.224173123489
 30
0.0
 10
4658.105791088641
 20
3856.203076606375
 30
0.0
 10
4657.957787589171
 20
3856.862553522486
 30
0.0
  0
SPLINE
  5
160D
330
74
100
AcDbEntity
  8
AM_0 ( Kontur 0.5 )
100
AcDbSpline
210
0.0
220
0.0
230
1.0
 70
     8
 71
     3
 72
    42
 73
    38
 74
     0
 42
0.000000001
 43
0.0000000001
 40
0.0
 40
0.0
 40
0.0
 40
0.0
 40
1.275914584087538
 40
1.275914584087538
 40
3.827743752262618
 40
3.827743752262618
 40
5.070819623214243
 40
5.070819623214243
 40
5.92836242335473
 40
5.92836242335473
 40
7.643448023635704
 40
7.643448023635704
 40
9.358533623916679
 40
9.358533623916679
 40
13.29153871178261
 40
13.29153871178261
 40
16.56441989201914
 40
16.56441989201914
 40
18.56063417810693
 40
18.56063417810693
 40
20.55684846419472
 40
20.55684846419472
 40
22.2099179313804
 40
22.2099179313804
 40
23.43447758804179
 40
23.43447758804179
 40
24.23593409778909
 40
24.23593409778909
 40
25.03739060753639
 40
25.03739060753639
 40
26.64030362703099
 40
26.64030362703099
 40
29.4198219447447
 40
29.4198219447447
 40
31.87845812892173
 40
31.87845812892173
 40
32.37233711062747
 40
32.37233711062747
 40
32.37233711062747
 40
32.37233711062747
 10
4656.246637500177
 20
3825.13904317852
 30
0.0
 10
4656.284116021443
 20
3825.567220858618
 30
0.0
 10
4656.320345664343
 20
3825.980479712736
 30
0.0
 10
4656.433681261455
 20
3827.17220146734
 30
0.0
 10
4656.516216612993
 20
3827.902507354919
 30
0.0
 10
4656.669415335674
 20
3828.878536189036
 30
0.0
 10
4656.724266039954
 20
3829.180685831185
 30
0.0
 10
4656.825691549562
 20
3829.660560241008
 30
0.0
 10
4656.869540277368
 20
3829.847819412533
 30
0.0
 10
4657.008459089857
 20
3830.383857978669
 30
0.0
 10
4657.121866072404
 20
3830.74893762954
 30
0.0
 10
4657.394338112008
 20
3831.511443419067
 30
0.0
 10
4657.55291351561
 20
3831.906801015104
 30
0.0
 10
4658.145275621283
 20
3833.257395325423
 30
0.0
 10
4658.671907728281
 20
3834.274566885607
 30
0.0
 10
4659.771625563418
 20
3836.285321305143
 30
0.0
 10
4660.32116179705
 20
3837.254064434056
 30
0.0
 10
4661.228265560956
 20
3838.921634341512
 30
0.0
 10
4661.578135078221
 20
3839.579641407791
 30
0.0
 10
4662.272055383086
 20
3840.973556709309
 30
0.0
 10
4662.614909515052
 20
3841.70746559248
 30
0.0
 10
4663.202766700379
 20
3843.128929136258
 30
0.0
 10
4663.454420876759
 20
3843.802905557475
 30
0.0
 10
4663.845475456595
 20
3845.033880569732
 30
0.0
 10
4663.996999216631
 20
3845.575920806401
 30
0.0
 10
4664.213282779533
 20
3846.503199945281
 30
0.0
 10
4664.289681960418
 20
3846.878769530248
 30
0.0
 10
4664.419005088688
 20
3847.620724315063
 30
0.0
 10
4664.472804266034
 20
3847.990011685821
 30
0.0
 10
4664.604685305243
 20
3849.091255637321
 30
0.0
 10
4664.65331513715
 20
3849.816503649434
 30
0.0
 10
4664.6996653189
 20
3851.767704802489
 30
0.0
 10
4664.634327862397
 20
3852.970368458965
 30
0.0
 10
4664.393825058463
 20
3855.157379303316
 30
0.0
 10
4664.229657951795
 20
3856.156312954293
 30
0.0
 10
4664.003859053899
 20
3857.286211363862
 30
0.0
 10
4663.96518027487
 20
3857.473049040322
 30
0.0
 10
4663.925791408225
 20
3857.657768568464
 30
0.0
  0
SPLINE
  5
160E
330
74
100
AcDbEntity
  8
AM_0 ( Kontur 0.5 )
100
AcDbSpline
210
0.0
220
0.0
230
1.0
 70
     8
 71
     3
 72
     8
 73
     4
 74
     0
 42
0.000000001
 43
0.0000000001
 40
32.89329869068549
 40
32.89329869068549
 40
32.89329869068549
 40
32.89329869068549
 40
36.37483514628687
 40
36.37483514628687
 40
36.37483514628687
 40
36.37483514628687
 10
4657.957787589171
 20
3856.862553522483
 30
0.0
 10
4657.753522302839
 20
3858.809786204957
 30
0.0
 10
4656.383464650525
 20
3867.470189620442
 30
0.0
 10
4652.94114348288
 20
3871.066181748516
 30
0.0
  0
SPLINE
  5
160F
330
74
100
AcDbEntity
  8
AM_0 ( Kontur 0.5 )
100
AcDbSpline
210
0.0
220
0.0
230
1.0
 70
     8
 71
     3
 72
    14
 73
    10
 74
     0
 42
0.000000001
 43
0.0000000001
 40
33.41129278735794
 40
33.41129278735794
 40
33.41129278735794
 40
33.41129278735794
 40
46.56985821041407
 40
64.89016963335983
 40
90.34723201791431
 40
108.2359526278922
 40
122.3468608294018
 40
136.4165364804209
 40
153.075227387162
 40
153.075227387162
 40
153.075227387162
 40
153.075227387162
 10
4663.925791408228
 20
3857.657768568448
 30
0.0
 10
4663.598137043329
 20
3862.139235246354
 30
0.0
 10
4661.029065298588
 20
3872.650248762419
 30
0.0
 10
4646.642082015224
 20
3886.22353893626
 30
0.0
 10
4621.239561489446
 20
3888.815675956765
 30
0.0
 10
4611.625113970415
 20
3864.783861103802
 30
0.0
 10
4627.382751800699
 20
3855.139547150655
 30
0.0
 10
4642.75130974094
 20
3856.735198354659
 30
0.0
 10
4651.304608809512
 20
3862.658889731354
 30
0.0
 10
4655.941586995401
 20
3865.87028541312
 30
0.0
  0
DIMENSION
  5
1631
102
{ACAD_XDICTIONARY
360
163E
102
}
102
{ACAD_REACTORS
330
163F
102
}
330
74
100
AcDbEntity
  8
AM_5 ( Bemassung)
100
AcDbDimension
280
     0
  2
*D1
 10
4780.516647938585
 20
3463.662219181298
 30
0.0
 11
4780.516647938585
 21
3635.08692799433
 31
0.0
 70
   160
 71
     5
 42
300.0000045055408
 73
     0
 74
     0
 75
     0
  3
AM_DIN$0
100
AcDbAlignedDimension
 13
4628.269490594578
 23
3763.662223686839
 33
0.0
 14
4628.269490594578
 24
3463.662219181298
 34
0.0
 50
90.0
100
AcDbRotatedDimension
1001
ACAD_DSTYLE_DIMINSPECT
1070
   396
1000
100%
1070
   395
1000

1070
   394
1070
    33
1070
   393
1070
     0
1001
ACAD
1000
DSTYLE
1002
{
1070
   140
1040
3.0
1070
    41
1040
3.0
1070
    40
1040
8.0
1002
}
  0
INSERT
  5
166E
330
74
100
AcDbEntity
  8
AM_5 ( Bemassung)
100
AcDbBlockReference
  2
*S3
 10
0.0
 20
0.0
 30
0.0
  0
INSERT
  5
1671
330
74
100
AcDbEntity
  8
AM_5 ( Bemassung)
100
AcDbBlockReference
  2
*S4
 10
0.0
 20
0.0
 30
0.0
  0
INSERT
  5
1673
330
74
100
AcDbEntity
  8
AM_5 ( Bemassung)
100
AcDbBlockReference
  2
*S5
 10
0.0
 20
0.0
 30
0.0
  0
INSERT
  5
1675
330
74
100
AcDbEntity
  8
AM_5 ( Bemassung)
100
AcDbBlockReference
  2
*S6
 10
0.0
 20
0.0
 30
0.0
  0
INSERT
  5
16D6
330
74
100
AcDbEntity
  8
AM_0 ( Kontur 0.5 )
100
AcDbBlockReference
  2
wss2000 d
 10
4653.26949097008
 20
3163.123159744365
 30
0.0
  0
ENDSEC
  0
SECTION
  2
OBJECTS
  0
DICTIONARY
  5
C
330
0
100
AcDbDictionary
281
     1
  3
ACAD_CIP_PREVIOUS_PRODUCT_INFO
350
1818
  3
ACAD_COLOR
350
6A
  3
ACAD_DETAILVIEWSTYLE
350
180C
  3
ACAD_FIELDLIST
350
1834
  3
ACAD_GROUP
350
D
  3
ACAD_LAYOUT
350
69
  3
ACAD_MATERIAL
350
10
  3
ACAD_MLEADERSTYLE
350
6D
  3
ACAD_MLINESTYLE
350
66
  3
ACAD_PLOTSETTINGS
350
68
  3
ACAD_PLOTSTYLENAME
350
E
  3
ACAD_SCALELIST
350
3A
  3
ACAD_SECTIONVIEWSTYLE
350
180A
  3
ACAD_TABLESTYLE
350
6B
  3
ACAD_VISUALSTYLE
350
29
  3
ACDB_RECOMPOSE_DATA
350
188F
  3
AcDbVariableDictionary
350
1C9
  3
AcmDictionary
350
166
  3
AMG
350
10C
  3
AMGSNAPSETTINGS
350
19B
  3
ASE_INDEX_DICTIONARY
350
1153
  0
DICTIONARY
  5
1B6
330
8
100
AcDbDictionary
280
     1
281
     1
  0
DICTIONARY
  5
256
330
2
100
AcDbDictionary
280
     1
281
     1
  3
AMLAYER_GROUPCOLORS
360
257
  0
DICTIONARY
  5
1A2
330
5C
100
AcDbDictionary
280
     1
281
     1
  3
ADSK_XREC_LAYER_RECONCILED
360
D41
  0
DICTIONARY
  5
2C7
330
27F
100
AcDbDictionary
280
     1
281
     1
  3
ADSK_XREC_LAYER_RECONCILED
360
D4D
  0
DICTIONARY
  5
A88
330
74
100
AcDbDictionary
280
     1
281
     1
  3
ACAD_SORTENTS
360
A89
  0
DICTIONARY
  5
16D1
330
1695
100
AcDbDictionary
280
     1
281
     1
  3
ACAD_SORTENTS
360
16D2
  0
DICTIONARY
  5
163E
330
1631
100
AcDbDictionary
280
     1
281
     1
  3
ACAD_DIMASSOC
360
163F
  0
XRECORD
  5
1818
102
{ACAD_REACTORS
330
C
102
}
330
C
100
AcDbXrecord
280
     1
300
AMECH_PP
300
2016
300
PDSU_F_S
  0
DICTIONARY
  5
6A
102
{ACAD_REACTORS
330
C
102
}
330
C
100
AcDbDictionary
281
     1
  0
DICTIONARY
  5
180C
102
{ACAD_REACTORS
330
C
102
}
330
C
100
AcDbDictionary
281
     1
  3
Metric50
350
180D
  0
FIELDLIST
  5
1834
102
{ACAD_REACTORS
330
C
102
}
330
C
100
AcDbIdSet
 90
       16
330
1832
330
1833
330
1835
330
1836
330
183F
330
1840
330
1841
330
1849
330
184A
330
184B
330
184F
330
1850
330
1851
330
1856
330
1857
330
1858
100
AcDbFieldList
  0
DICTIONARY
  5
D
102
{ACAD_REACTORS
330
C
102
}
330
C
100
AcDbDictionary
281
     1
  0
DICTIONARY
  5
69
102
{ACAD_REACTORS
330
C
102
}
330
C
100
AcDbDictionary
281
     1
  3
Layout1
350
73
  3
Model
350
77
  0
DICTIONARY
  5
10
102
{ACAD_REACTORS
330
C
102
}
330
C
100
AcDbDictionary
281
     1
  3
ByBlock
350
19
  3
ByLayer
350
11
  3
Global
350
21
  0
DICTIONARY
  5
6D
102
{ACAD_REACTORS
330
C
102
}
330
C
100
AcDbDictionary
281
     1
  3
Standard
350
6E
  0
DICTIONARY
  5
66
102
{ACAD_REACTORS
330
C
102
}
330
C
100
AcDbDictionary
281
     1
  3
Standard
350
67
  0
DICTIONARY
  5
68
102
{ACAD_REACTORS
330
C
102
}
330
C
100
AcDbDictionary
281
     1
  0
ACDBDICTIONARYWDFLT
  5
E
102
{ACAD_REACTORS
330
C
102
}
330
C
100
AcDbDictionary
281
     1
  3
Normal
350
F
100
AcDbDictionaryWithDefault
340
F
  0
DICTIONARY
  5
3A
102
{ACAD_REACTORS
330
C
102
}
330
C
100
AcDbDictionary
281
     1
  3
A0
350
3B
  3
A1
350
3C
  3
A2
350
3D
  3
A3
350
3E
  3
A4
350
3F
  3
A5
350
40
  3
A6
350
41
  3
A7
350
42
  3
A8
350
43
  3
A9
350
44
  3
B0
350
45
  3
B1
350
46
  3
B2
350
47
  3
B3
350
48
  3
B4
350
49
  3
B5
350
4A
  3
B6
350
4B
  3
B7
350
4C
  3
B8
350
4D
  3
B9
350
4E
  3
C0
350
4F
  3
C1
350
50
  3
C2
350
51
  3
C3
350
52
  3
C4
350
53
  3
C5
350
54
  3
C6
350
55
  3
C7
350
56
  3
C8
350
57
  3
C9
350
58
  3
D0
350
59
  3
D1
350
5A
  3
D2
350
5B
  0
DICTIONARY
  5
180A
102
{ACAD_REACTORS
330
C
102
}
330
C
100
AcDbDictionary
281
     1
  3
Metric50
350
180B
  0
DICTIONARY
  5
6B
102
{ACAD_REACTORS
330
C
102
}
330
C
100
AcDbDictionary
281
     1
  3
Standard
350
6C
  0
DICTIONARY
  5
29
102
{ACAD_REACTORS
330
C
102
}
330
C
100
AcDbDictionary
281
     1
  3
2dWireframe
350
2F
  3
3D Hidden
350
31
  3
3dWireframe
350
30
  3
Basic
350
2E
  3
Brighten
350
35
  3
ColorChange
350
39
  3
Conceptual
350
32
  3
Dim
350
34
  3
EdgeColorOff
350
1809
  3
Facepattern
350
38
  3
Flat
350
2A
  3
FlatWithEdges
350
2B
  3
Gouraud
350
2C
  3
GouraudWithEdges
350
2D
  3
Hidden
350
1801
  3
JitterOff
350
1807
  3
Linepattern
350
37
  3
OverhangOff
350
1808
  3
Realistic
350
33
  3
Shaded
350
1806
  3
Shaded with edges
350
1805
  3
Shades of Gray
350
1802
  3
Sketchy
350
1803
  3
Thicken
350
36
  3
Wireframe
350
1800
  3
X-Ray
350
1804
  0
XRECORD
  5
188F
102
{ACAD_REACTORS
330
C
102
}
330
C
100
AcDbXrecord
280
     1
 90
        1
330
6C
330
180B
330
180D
  0
DICTIONARY
  5
1C9
102
{ACAD_REACTORS
330
C
102
}
330
C
100
AcDbDictionary
281
     1
  3
CANNOSCALE
350
1CC
  3
CMLEADERSTYLE
350
1CB
  3
CTABLESTYLE
350
1CA
  3
CVIEWDETAILSTYLE
350
1886
  3
CVIEWSECTIONSTYLE
350
1887
  3
DIMASSOC
350
1CF
  3
INDEXCTL
350
1CE
  3
LAYEREVAL
350
1888
  3
LAYERNOTIFY
350
1889
  3
LIGHTINGUNITS
350
2D3
  3
MSLTSCALE
350
2D2
  3
SORTENTS
350
1CD
  0
DICTIONARY
  5
166
102
{ACAD_REACTORS
330
C
102
}
330
C
100
AcDbDictionary
281
     1
  3
AcmBOM
350
2B6
  3
AcmStdDictionary
350
171
  3
AMDTSECTSYM_ARROWCOLOR
350
186
  0
DICTIONARY
  5
10C
102
{ACAD_REACTORS
330
C
102
}
330
C
100
AcDbDictionary
281
     1
  0
DICTIONARY
  5
19B
102
{ACAD_REACTORS
330
C
102
}
330
C
100
AcDbDictionary
281
     1
  0
DICTIONARY
  5
1153
102
{ACAD_REACTORS
330
C
102
}
330
C
100
AcDbDictionary
281
     1
  3
ASEBlockHierarchyIndexRecord
350
1154
1001
DCO15
1040
1635049673.674
  0
DICTIONARY
  5
257
102
{ACAD_REACTORS
330
256
102
}
330
256
100
AcDbDictionary
280
     1
281
     1
  0
XRECORD
  5
D41
102
{ACAD_REACTORS
330
1A2
102
}
330
1A2
100
AcDbXrecord
280
     1
290
     1
  0
XRECORD
  5
D4D
102
{ACAD_REACTORS
330
2C7
102
}
330
2C7
100
AcDbXrecord
280
     1
290
     1
  0
SORTENTSTABLE
  5
A89
102
{ACAD_REACTORS
330
A88
102
}
330
A88
100
AcDbSortentsTable
330
74
331
153C
  5
1527
331
14FD
  5
14E8
331
1487
  5
1472
331
14C6
  5
14B1
331
1538
  5
1523
331
1483
  5
146E
331
14C2
  5
14AD
331
1366
  5
157A
331
144D
  5
1438
331
14F9
  5
14E4
331
1534
  5
151F
331
14F5
  5
14E0
331
1449
  5
1434
331
147F
  5
146A
331
14BE
  5
14A9
331
1530
  5
151B
331
14BA
  5
14A5
331
147B
  5
1466
331
1445
  5
1430
331
14F1
  5
14DC
331
1441
  5
142C
331
15F4
  5
15F6
331
1575
  5
1560
331
15F0
  5
15F2
331
156D
  5
1558
331
15E8
  5
15E8
331
152C
  5
1517
331
14ED
  5
14D8
331
14B6
  5
14A1
331
1477
  5
1462
331
1528
  5
1513
331
14B2
  5
149D
331
1473
  5
145E
331
143D
  5
1428
331
14E9
  5
14D4
331
1524
  5
150F
331
14E5
  5
14D0
331
14AE
  5
1499
331
1439
  5
1424
331
146F
  5
145A
331
1520
  5
150B
331
14AA
  5
1495
331
146B
  5
1456
331
1435
  5
13CB
331
14E1
  5
14CC
331
1431
  5
13AE
331
1565
  5
1550
331
15E4
  5
15E4
331
15E0
  5
15E2
331
155D
  5
1548
331
15D8
  5
15D8
331
1559
  5
1544
331
151C
  5
1507
331
14DD
  5
14C8
331
14A6
  5
1491
331
1467
  5
1452
331
1518
  5
1503
331
1463
  5
144E
331
14A2
  5
148D
331
14D9
  5
14C4
331
1514
  5
14FF
331
14D5
  5
14C0
331
1429
  5
1369
331
145F
  5
144A
331
149E
  5
1489
331
1510
  5
14FB
331
149A
  5
1485
331
14D1
  5
14BC
331
1425
  5
1365
331
145B
  5
1446
331
1421
  5
1361
331
160F
  5
15ED
331
1555
  5
1540
331
1551
  5
153C
331
1607
  5
160A
331
1603
  5
1606
331
154D
  5
1538
331
1588
  5
1573
331
1549
  5
1534
331
150C
  5
14F7
331
1496
  5
1481
331
1547
  5
1532
331
1492
  5
147D
331
1508
  5
14F3
331
1543
  5
152E
331
1504
  5
14EF
331
148E
  5
1479
331
14CD
  5
14B8
331
14C9
  5
14B4
331
148A
  5
1475
331
1454
  5
143F
331
1500
  5
14EB
331
1369
  5
157D
331
1450
  5
143B
331
1584
  5
156F
331
1580
  5
156B
331
15FF
  5
1602
331
157C
  5
1567
331
15FB
  5
15FD
331
1578
  5
1563
331
153F
  5
152A
331
153B
  5
1526
331
14FC
  5
14E7
331
14C5
  5
14B0
331
1486
  5
1471
331
14C1
  5
14AC
331
1482
  5
146D
331
1365
  5
1579
331
144C
  5
1437
331
14F8
  5
14E3
331
1537
  5
1522
331
1533
  5
151E
331
14F4
  5
14DF
331
14BD
  5
14A8
331
1448
  5
1433
331
147E
  5
1469
331
14B9
  5
14A4
331
147A
  5
1465
331
1444
  5
142F
331
14F0
  5
14DB
331
1440
  5
142B
331
15F7
  5
15F9
331
1574
  5
155F
331
15F3
  5
15F5
331
15EF
  5
15F1
331
15EB
  5
15EB
331
156C
  5
1557
331
1568
  5
1553
331
152F
  5
151A
331
152B
  5
1516
331
1476
  5
1461
331
14B5
  5
14A0
331
14EC
  5
14D7
331
1527
  5
1512
331
1472
  5
145D
331
14B1
  5
149C
331
143C
  5
1427
331
14E8
  5
14D3
331
1523
  5
150E
331
146E
  5
1459
331
14AD
  5
1498
331
1438
  5
1423
331
14E4
  5
14CF
331
14A9
  5
1494
331
146A
  5
1455
331
1434
  5
13C1
331
14E0
  5
14CB
331
1430
  5
13AA
331
15E7
  5
15E7
331
15E3
  5
15E1
331
1564
  5
154F
331
1560
  5
154B
331
15DB
  5
15DB
331
155C
  5
1547
331
1558
  5
1543
331
151F
  5
150A
331
151B
  5
1506
331
14A5
  5
1490
331
1466
  5
1451
331
14DC
  5
14C7
331
1517
  5
1502
331
14A1
  5
148C
331
1462
  5
144D
331
142C
  5
136C
331
14D8
  5
14C3
331
1513
  5
14FE
331
149D
  5
1488
331
14D4
  5
14BF
331
1428
  5
1368
331
145E
  5
1449
331
1499
  5
1484
331
14D0
  5
14BB
331
1424
  5
1364
331
145A
  5
1445
331
160E
  5
15EF
331
15D7
  5
15D7
331
1554
  5
153F
331
160A
  5
1601
331
1606
  5
1609
331
154C
  5
1537
331
1602
  5
1605
331
1548
  5
1533
331
150F
  5
14FA
331
1495
  5
1480
331
150B
  5
14F6
331
1546
  5
1531
331
1491
  5
147C
331
1507
  5
14F2
331
1542
  5
152D
331
14CC
  5
14B7
331
148D
  5
1478
331
1457
  5
1442
331
1503
  5
14EE
331
14C8
  5
14B3
331
1489
  5
1474
331
1453
  5
143E
331
1368
  5
157C
331
1587
  5
1572
331
1583
  5
156E
331
15FE
  5
1600
331
157F
  5
156A
331
157B
  5
1566
331
15FA
  5
15FC
331
153E
  5
1529
331
14FF
  5
14EA
331
153A
  5
1525
331
1485
  5
1470
331
14C4
  5
14AF
331
144F
  5
143A
331
14FB
  5
14E6
331
1536
  5
1521
331
1481
  5
146C
331
14C0
  5
14AB
331
1364
  5
1578
331
144B
  5
1436
331
14F7
  5
14E2
331
1532
  5
151D
331
147D
  5
1468
331
14BC
  5
14A7
331
1447
  5
1432
331
14F3
  5
14DE
331
14B8
  5
14A3
331
1479
  5
1464
331
1443
  5
142E
331
15F6
  5
15F8
331
1577
  5
1562
331
15F2
  5
15F4
331
1573
  5
155E
331
15EE
  5
15F0
331
156F
  5
155A
331
15EA
  5
15EA
331
156B
  5
1556
331
152E
  5
1519
331
152A
  5
1515
331
14B4
  5
149F
331
1475
  5
1460
331
143F
  5
142A
331
14EB
  5
14D6
331
1526
  5
1511
331
14B0
  5
149B
331
1471
  5
145C
331
143B
  5
1426
331
14E7
  5
14D2
331
1522
  5
150D
331
14AC
  5
1497
331
146D
  5
1458
331
1437
  5
1422
331
14E3
  5
14CE
331
14A8
  5
1493
331
1469
  5
1454
331
1433
  5
13BA
331
1567
  5
1552
331
15E6
  5
15E6
331
1563
  5
154E
331
15E2
  5
15DE
331
155F
  5
154A
331
15DA
  5
15DA
331
151E
  5
1509
331
14DF
  5
14CA
331
151A
  5
1505
331
1465
  5
1450
331
14A4
  5
148F
331
142F
  5
1397
331
14DB
  5
14C6
331
1516
  5
1501
331
1461
  5
144C
331
14A0
  5
148B
331
142B
  5
136B
331
14D7
  5
14C2
331
1512
  5
14FD
331
149C
  5
1487
331
14D3
  5
14BE
331
1427
  5
1367
331
145D
  5
1448
331
1459
  5
1444
331
1498
  5
1483
331
1423
  5
1363
331
160D
  5
160F
331
1557
  5
1542
331
1609
  5
160D
331
1605
  5
1608
331
154F
  5
153A
331
154B
  5
1536
331
1601
  5
1604
331
150E
  5
14F9
331
1494
  5
147F
331
150A
  5
14F5
331
1506
  5
14F1
331
1490
  5
147B
331
14CF
  5
14BA
331
1545
  5
1530
331
1541
  5
152C
331
14CB
  5
14B6
331
148C
  5
1477
331
1456
  5
1441
331
1502
  5
14ED
331
1488
  5
1473
331
136B
  5
157F
331
1452
  5
143D
331
1586
  5
1571
331
1582
  5
156D
331
15FD
  5
15FF
331
157E
  5
1569
331
157A
  5
1565
331
15F9
  5
15FB
331
153D
  5
1528
331
14FE
  5
14E9
331
14C7
  5
14B2
331
14C3
  5
14AE
331
1484
  5
146F
331
1367
  5
157B
331
144E
  5
1439
331
14FA
  5
14E5
331
1539
  5
1524
331
1535
  5
1520
331
14F6
  5
14E1
331
14BF
  5
14AA
331
1480
  5
146B
331
144A
  5
1435
331
1531
  5
151C
331
14BB
  5
14A6
331
147C
  5
1467
331
1446
  5
1431
331
14F2
  5
14DD
331
1478
  5
1463
331
1442
  5
142D
331
1576
  5
1561
331
15F5
  5
15F7
331
15F1
  5
15F3
331
156E
  5
1559
331
15E9
  5
15E9
331
152D
  5
1518
331
14B7
  5
14A2
331
1529
  5
1514
331
1474
  5
145F
331
14B3
  5
149E
331
143E
  5
1429
331
14EA
  5
14D5
331
1525
  5
1510
331
14E6
  5
14D1
331
1470
  5
145B
331
14AF
  5
149A
331
143A
  5
1425
331
1521
  5
150C
331
146C
  5
1457
331
14AB
  5
1496
331
1436
  5
1421
331
14E2
  5
14CD
331
1468
  5
1453
331
1432
  5
13B3
331
15E5
  5
15E5
331
1566
  5
1551
331
15E1
  5
15E3
331
15DD
  5
15DD
331
155E
  5
1549
331
15D9
  5
15D9
331
155A
  5
1545
331
151D
  5
1508
331
14DE
  5
14C9
331
14A7
  5
1492
331
1519
  5
1504
331
14A3
  5
148E
331
1464
  5
144F
331
14DA
  5
14C5
331
1515
  5
1500
331
14D6
  5
14C1
331
149F
  5
148A
331
1460
  5
144B
331
142A
  5
136A
331
1511
  5
14FC
331
149B
  5
1486
331
14D2
  5
14BD
331
1426
  5
1366
331
145C
  5
1447
331
1422
  5
1362
331
1458
  5
1443
331
160C
  5
160E
331
1556
  5
1541
331
1552
  5
153D
331
1608
  5
160C
331
1604
  5
1607
331
154E
  5
1539
331
1589
  5
1574
331
154A
  5
1535
331
1600
  5
1603
331
150D
  5
14F8
331
1497
  5
1482
331
1493
  5
147E
331
1509
  5
14F4
331
1544
  5
152F
331
1505
  5
14F0
331
14CE
  5
14B9
331
148F
  5
147A
331
1540
  5
152B
331
14CA
  5
14B5
331
148B
  5
1476
331
1455
  5
1440
331
1501
  5
14EC
331
136A
  5
157E
331
1451
  5
143C
331
1585
  5
1570
331
1581
  5
156C
331
15FC
  5
15FE
331
1579
  5
1564
331
15F8
  5
15FA
  0
SORTENTSTABLE
  5
16D2
102
{ACAD_REACTORS
330
16D1
102
}
330
16D1
100
AcDbSortentsTable
330
1695
  0
DIMASSOC
  5
163F
102
{ACAD_REACTORS
330
163E
102
}
330
163E
100
AcDbDimAssoc
330
1631
 90
        1
 70
     0
 71
     0
  1
AcDbOsnapPointRef
 72
    11
331
14F3
 73
     0
 91
        0
 40
0.0726495726490515
 10
0.0
 20
0.0
 30
0.0
332
1585
 74
     0
 92
        0
 75
     0
  0
ACDBDETAILVIEWSTYLE
  5
180D
102
{ACAD_XDICTIONARY
360
188D
102
}
102
{ACAD_REACTORS
330
180C
330
1826
330
1828
330
182A
102
}
330
180C
100
AcDbModelDocViewStyle
 70
     0
  3
Metric50
290
     0
100
AcDbDetailViewStyle
 70
     0
 71
     0
 90
        3
 71
     1
340
5D
 62
   256
 40
5.0
340
0
 62
   256
 40
5.0
300

 40
0.0
280
     1
 71
     2
340
64
 90
       25
 62
   256
 71
     3
340
5D
 62
   256
 40
5.0
 90
        0
 40
15.0
 90
        1
300
%<\AcVar ViewDetailId>% (%<\AcVar ViewScale \f "%sn">%)
 71
     4
340
64
 90
       25
 62
   256
340
64
 90
       25
 62
   256
280
     0
  0
LAYOUT
  5
73
102
{ACAD_REACTORS
330
69
102
}
330
69
100
AcDbPlotSettings
  1

  2
\\OASE42\HP DesignJet 500 42+HPGL2 Card
  4

  6

 40
0.0
 41
0.0
 42
0.0
 43
0.0
 44
0.0
 45
0.0
 46
0.0
 47
0.0
 48
0.0
 49
0.0
140
0.0
141
0.0
142
1.0
143
1.0
 70
   688
 72
     0
 73
     0
 74
     5
  7
C:\Dokumente und Einstellungen\guzb562\Anwendungsdaten\Autodesk\Autodesk Mechanical Desktop 2008\R17.1\deu\Plot Styles\OASE.ctb
 75
    16
147
1.0
 76
     0
 77
     2
 78
   300
148
0.0
149
0.0
100
AcDbLayout
  1
Layout1
 70
     1
 71
     1
 10
0.0
 20
0.0
 11
12.0
 21
9.0
 12
0.0
 22
0.0
 32
0.0
 14
1.000000000000000E+20
 24
1.000000000000000E+20
 34
1.000000000000000E+20
 15
-1.000000000000000E+20
 25
-1.000000000000000E+20
 35
-1.000000000000000E+20
146
0.0
 13
0.0
 23
0.0
 33
0.0
 16
1.0
 26
0.0
 36
0.0
 17
0.0
 27
1.0
 37
0.0
 76
     0
330
70
  0
LAYOUT
  5
77
102
{ACAD_REACTORS
330
69
102
}
330
69
100
AcDbPlotSettings
  1

  2
HP DesignJet 500 42+HPGL2 Card.pc3
  4
User622
  6

 40
0.0
 41
0.0845947265625
 42
0.084716796875
 43
0.0
 44
841.0786743164063
 45
1189.05859375
 46
0.0
 47
0.0
 48
0.0
 49
0.0
140
0.0
141
0.0
142
1.0
143
8.825566186707652
 70
 11952
 72
     1
 73
     1
 74
     0
  7
C:\Dokumente und Einstellungen\guzb562\Anwendungsdaten\Autodesk\Autodesk Mechanical Desktop 2008\R17.1\deu\Plot Styles\OASE.ctb
 75
     0
147
0.1133071781282563
 76
     0
 77
     2
 78
   300
148
375.8176034259132
149
23.23337679269889
100
AcDbLayout
  1
Model
 70
     1
 71
     0
 10
0.0
 20
0.0
 11
12.0
 21
9.0
 12
0.0
 22
0.0
 32
0.0
 14
0.0
 24
0.0
 34
0.0
 15
0.0
 25
0.0
 35
0.0
146
0.0
 13
0.0
 23
0.0
 33
0.0
 16
1.0
 26
0.0
 36
0.0
 17
0.0
 27
1.0
 37
0.0
 76
     0
330
74
331
82
1001
ACAD_PSEXT
1000
HP DesignJet 500 42+HPGL2 Card.pc3
1000
HP DesignJet 500 42+HPGL2 Card
1000
\\oase42
1000

1070
     0
  0
MATERIAL
  5
19
102
{ACAD_XDICTIONARY
360
1A
102
}
102
{ACAD_REACTORS
330
10
102
}
330
10
100
AcDbMaterial
  1
ByBlock
 72
     0
 43
0.0208333333333333
 43
0.0
 43
0.0
 43
0.0
 43
0.0
 43
0.0208333333333333
 43
0.0
 43
0.0
 43
0.0
 43
0.0
 43
1.0
 43
0.0
 43
0.0
 43
0.0
 43
0.0
 43
1.0
 77
     0
 47
0.0208333333333333
 47
0.0
 47
0.0
 47
0.0
 47
0.0
 47
0.0208333333333333
 47
0.0
 47
0.0
 47
0.0
 47
0.0
 47
1.0
 47
0.0
 47
0.0
 47
0.0
 47
0.0
 47
1.0
171
     0
 49
0.0208333333333333
 49
0.0
 49
0.0
 49
0.0
 49
0.0
 49
0.0208333333333333
 49
0.0
 49
0.0
 49
0.0
 49
0.0
 49
1.0
 49
0.0
 49
0.0
 49
0.0
 49
0.0
 49
1.0
175
     0
142
0.0208333333333333
142
0.0
142
0.0
142
0.0
142
0.0
142
0.0208333333333333
142
0.0
142
0.0
142
0.0
142
0.0
142
1.0
142
0.0
142
0.0
142
0.0
142
0.0
142
1.0
179
     0
144
0.0208333333333333
144
0.0
144
0.0
144
0.0
144
0.0
144
0.0208333333333333
144
0.0
144
0.0
144
0.0
144
0.0
144
1.0
144
0.0
144
0.0
144
0.0
144
0.0
144
1.0
147
0.0208333333333333
147
0.0
147
0.0
147
0.0
147
0.0
147
0.0208333333333333
147
0.0
147
0.0
147
0.0
147
0.0
147
1.0
147
0.0
147
0.0
147
0.0
147
0.0
147
1.0
  0
MATERIAL
  5
11
102
{ACAD_XDICTIONARY
360
12
102
}
102
{ACAD_REACTORS
330
10
102
}
330
10
100
AcDbMaterial
  1
ByLayer
 72
     0
 43
0.0208333333333333
 43
0.0
 43
0.0
 43
0.0
 43
0.0
 43
0.0208333333333333
 43
0.0
 43
0.0
 43
0.0
 43
0.0
 43
1.0
 43
0.0
 43
0.0
 43
0.0
 43
0.0
 43
1.0
 77
     0
 47
0.0208333333333333
 47
0.0
 47
0.0
 47
0.0
 47
0.0
 47
0.0208333333333333
 47
0.0
 47
0.0
 47
0.0
 47
0.0
 47
1.0
 47
0.0
 47
0.0
 47
0.0
 47
0.0
 47
1.0
171
     0
 49
0.0208333333333333
 49
0.0
 49
0.0
 49
0.0
 49
0.0
 49
0.0208333333333333
 49
0.0
 49
0.0
 49
0.0
 49
0.0
 49
1.0
 49
0.0
 49
0.0
 49
0.0
 49
0.0
 49
1.0
175
     0
142
0.0208333333333333
142
0.0
142
0.0
142
0.0
142
0.0
142
0.0208333333333333
142
0.0
142
0.0
142
0.0
142
0.0
142
1.0
142
0.0
142
0.0
142
0.0
142
0.0
142
1.0
179
     0
144
0.0208333333333333
144
0.0
144
0.0
144
0.0
144
0.0
144
0.0208333333333333
144
0.0
144
0.0
144
0.0
144
0.0
144
1.0
144
0.0
144
0.0
144
0.0
144
0.0
144
1.0
147
0.0208333333333333
147
0.0
147
0.0
147
0.0
147
0.0
147
0.0208333333333333
147
0.0
147
0.0
147
0.0
147
0.0
147
1.0
147
0.0
147
0.0
147
0.0
147
0.0
147
1.0
  0
MATERIAL
  5
21
102
{ACAD_XDICTIONARY
360
22
102
}
102
{ACAD_REACTORS
330
10
102
}
330
10
100
AcDbMaterial
  1
Global
 72
     0
 43
0.0208333333333333
 43
0.0
 43
0.0
 43
0.0
 43
0.0
 43
0.0208333333333333
 43
0.0
 43
0.0
 43
0.0
 43
0.0
 43
1.0
 43
0.0
 43
0.0
 43
0.0
 43
0.0
 43
1.0
 77
     0
 47
0.0208333333333333
 47
0.0
 47
0.0
 47
0.0
 47
0.0
 47
0.0208333333333333
 47
0.0
 47
0.0
 47
0.0
 47
0.0
 47
1.0
 47
0.0
 47
0.0
 47
0.0
 47
0.0
 47
1.0
171
     0
 49
0.0208333333333333
 49
0.0
 49
0.0
 49
0.0
 49
0.0
 49
0.0208333333333333
 49
0.0
 49
0.0
 49
0.0
 49
0.0
 49
1.0
 49
0.0
 49
0.0
 49
0.0
 49
0.0
 49
1.0
175
     0
142
0.0208333333333333
142
0.0
142
0.0
142
0.0
142
0.0
142
0.0208333333333333
142
0.0
142
0.0
142
0.0
142
0.0
142
1.0
142
0.0
142
0.0
142
0.0
142
0.0
142
1.0
179
     0
144
0.0208333333333333
144
0.0
144
0.0
144
0.0
144
0.0
144
0.0208333333333333
144
0.0
144
0.0
144
0.0
144
0.0
144
1.0
144
0.0
144
0.0
144
0.0
144
0.0
144
1.0
147
0.0208333333333333
147
0.0
147
0.0
147
0.0
147
0.0
147
0.0208333333333333
147
0.0
147
0.0
147
0.0
147
0.0
147
1.0
147
0.0
147
0.0
147
0.0
147
0.0
147
1.0
  0
MLEADERSTYLE
  5
6E
102
{ACAD_REACTORS
330
6D
102
}
330
6D
100
AcDbMLeaderStyle
179
     2
170
     2
171
     1
172
     0
 90
        2
 40
0.0
 41
0.0
173
     1
 91
-1056964608
340
62
 92
       -2
290
     1
 42
0.09
291
     1
 43
0.36
  3
Standard
 44
0.18
300

342
5D
174
     1
178
     6
175
     1
176
     0
 93
-1056964608
 45
0.18
292
     0
297
     0
 46
0.18
 94
-1056964608
 47
1.0
 49
1.0
140
1.0
293
     1
141
0.0
294
     1
177
     0
142
1.0
295
     0
296
     0
143
0.125
271
     0
272
     9
273
     9
298
     0
  0
MLINESTYLE
  5
67
102
{ACAD_REACTORS
330
66
102
}
330
66
100
AcDbMlineStyle
  2
STANDARD
 70
     0
  3

 62
   256
 51
90.0
 52
90.0
 71
     2
 49
0.5
 62
   256
  6
BYLAYER
 49
-0.5
 62
   256
  6
BYLAYER
  0
ACDBPLACEHOLDER
  5
F
102
{ACAD_REACTORS
330
E
102
}
330
E
  0
SCALE
  5
3B
102
{ACAD_REACTORS
330
3A
102
}
330
3A
100
AcDbScale
 70
     0
300
1:1
140
1.0
141
1.0
290
     1
  0
SCALE
  5
3C
102
{ACAD_REACTORS
330
3A
102
}
330
3A
100
AcDbScale
 70
     0
300
1:2
140
1.0
141
2.0
290
     0
  0
SCALE
  5
3D
102
{ACAD_REACTORS
330
3A
102
}
330
3A
100
AcDbScale
 70
     0
300
1:4
140
1.0
141
4.0
290
     0
  0
SCALE
  5
3E
102
{ACAD_REACTORS
330
3A
102
}
330
3A
100
AcDbScale
 70
     0
300
1:5
140
1.0
141
5.0
290
     0
  0
SCALE
  5
3F
102
{ACAD_REACTORS
330
3A
102
}
330
3A
100
AcDbScale
 70
     0
300
1:8
140
1.0
141
8.0
290
     0
  0
SCALE
  5
40
102
{ACAD_REACTORS
330
3A
102
}
330
3A
100
AcDbScale
 70
     0
300
1:10
140
1.0
141
10.0
290
     0
  0
SCALE
  5
41
102
{ACAD_REACTORS
330
3A
102
}
330
3A
100
AcDbScale
 70
     0
300
1:16
140
1.0
141
16.0
290
     0
  0
SCALE
  5
42
102
{ACAD_REACTORS
330
3A
102
}
330
3A
100
AcDbScale
 70
     0
300
1:20
140
1.0
141
20.0
290
     0
  0
SCALE
  5
43
102
{ACAD_REACTORS
330
3A
102
}
330
3A
100
AcDbScale
 70
     0
300
1:30
140
1.0
141
30.0
290
     0
  0
SCALE
  5
44
102
{ACAD_REACTORS
330
3A
102
}
330
3A
100
AcDbScale
 70
     0
300
1:40
140
1.0
141
40.0
290
     0
  0
SCALE
  5
45
102
{ACAD_REACTORS
330
3A
102
}
330
3A
100
AcDbScale
 70
     0
300
1:50
140
1.0
141
50.0
290
     0
  0
SCALE
  5
46
102
{ACAD_REACTORS
330
3A
102
}
330
3A
100
AcDbScale
 70
     0
300
1:100
140
1.0
141
100.0
290
     0
  0
SCALE
  5
47
102
{ACAD_REACTORS
330
3A
102
}
330
3A
100
AcDbScale
 70
     0
300
2:1
140
2.0
141
1.0
290
     0
  0
SCALE
  5
48
102
{ACAD_REACTORS
330
3A
102
}
330
3A
100
AcDbScale
 70
     0
300
4:1
140
4.0
141
1.0
290
     0
  0
SCALE
  5
49
102
{ACAD_REACTORS
330
3A
102
}
330
3A
100
AcDbScale
 70
     0
300
8:1
140
8.0
141
1.0
290
     0
  0
SCALE
  5
4A
102
{ACAD_REACTORS
330
3A
102
}
330
3A
100
AcDbScale
 70
     0
300
10:1
140
10.0
141
1.0
290
     0
  0
SCALE
  5
4B
102
{ACAD_REACTORS
330
3A
102
}
330
3A
100
AcDbScale
 70
     0
300
100:1
140
100.0
141
1.0
290
     0
  0
SCALE
  5
4C
102
{ACAD_REACTORS
330
3A
102
}
330
3A
100
AcDbScale
 70
     0
300
1/128" = 1'-0"
140
0.0078125
141
12.0
290
     0
  0
SCALE
  5
4D
102
{ACAD_REACTORS
330
3A
102
}
330
3A
100
AcDbScale
 70
     0
300
1/64" = 1'-0"
140
0.015625
141
12.0
290
     0
  0
SCALE
  5
4E
102
{ACAD_REACTORS
330
3A
102
}
330
3A
100
AcDbScale
 70
     0
300
1/32" = 1'-0"
140
0.03125
141
12.0
290
     0
  0
SCALE
  5
4F
102
{ACAD_REACTORS
330
3A
102
}
330
3A
100
AcDbScale
 70
     0
300
1/16" = 1'-0"
140
0.0625
141
12.0
290
     0
  0
SCALE
  5
50
102
{ACAD_REACTORS
330
3A
102
}
330
3A
100
AcDbScale
 70
     0
300
3/32" = 1'-0"
140
0.09375
141
12.0
290
     0
  0
SCALE
  5
51
102
{ACAD_REACTORS
330
3A
102
}
330
3A
100
AcDbScale
 70
     0
300
1/8" = 1'-0"
140
0.125
141
12.0
290
     0
  0
SCALE
  5
52
102
{ACAD_REACTORS
330
3A
102
}
330
3A
100
AcDbScale
 70
     0
300
3/16" = 1'-0"
140
0.1875
141
12.0
290
     0
  0
SCALE
  5
53
102
{ACAD_REACTORS
330
3A
102
}
330
3A
100
AcDbScale
 70
     0
300
1/4" = 1'-0"
140
0.25
141
12.0
290
     0
  0
SCALE
  5
54
102
{ACAD_REACTORS
330
3A
102
}
330
3A
100
AcDbScale
 70
     0
300
3/8" = 1'-0"
140
0.375
141
12.0
290
     0
  0
SCALE
  5
55
102
{ACAD_REACTORS
330
3A
102
}
330
3A
100
AcDbScale
 70
     0
300
1/2" = 1'-0"
140
0.5
141
12.0
290
     0
  0
SCALE
  5
56
102
{ACAD_REACTORS
330
3A
102
}
330
3A
100
AcDbScale
 70
     0
300
3/4" = 1'-0"
140
0.75
141
12.0
290
     0
  0
SCALE
  5
57
102
{ACAD_REACTORS
330
3A
102
}
330
3A
100
AcDbScale
 70
     0
300
1" = 1'-0"
140
1.0
141
12.0
290
     0
  0
SCALE
  5
58
102
{ACAD_REACTORS
330
3A
102
}
330
3A
100
AcDbScale
 70
     0
300
1-1/2" = 1'-0"
140
1.5
141
12.0
290
     0
  0
SCALE
  5
59
102
{ACAD_REACTORS
330
3A
102
}
330
3A
100
AcDbScale
 70
     0
300
3" = 1'-0"
140
3.0
141
12.0
290
     0
  0
SCALE
  5
5A
102
{ACAD_REACTORS
330
3A
102
}
330
3A
100
AcDbScale
 70
     0
300
6" = 1'-0"
140
6.0
141
12.0
290
     0
  0
SCALE
  5
5B
102
{ACAD_REACTORS
330
3A
102
}
330
3A
100
AcDbScale
 70
     0
300
1'-0" = 1'-0"
140
12.0
141
12.0
290
     0
  0
ACDBSECTIONVIEWSTYLE
  5
180B
102
{ACAD_XDICTIONARY
360
188B
102
}
102
{ACAD_REACTORS
330
180A
330
1825
330
1827
330
1829
102
}
330
180A
100
AcDbModelDocViewStyle
 70
     0
  3
Metric50
290
     0
100
AcDbSectionViewStyle
 70
     0
 71
     0
 90
      102
 71
     1
340
5D
 62
   256
 40
5.0
340
0
340
0
 62
   256
 40
5.0
300
I, O, Q, S, X, Z
 40
10.0
 90
        0
 40
2.5
 90
        0
 71
     2
340
64
 90
       25
 62
   256
340
64
 90
       50
 62
   256
 40
5.0
 40
2.5
 40
5.0
 71
     3
340
5D
 62
   256
 40
5.0
 90
        0
 40
15.0
 90
        1
300
%<\AcVar ViewSectionStartId>%-%<\AcVar ViewSectionEndId>% (%<\AcVar ViewScale \f "%sn">%)
 71
     4
 62
   256
 62
   257
300
ANSI31
 40
1.0
 90
        0
290
     0
290
     0
 90
        6
 40
0.0
 40
1.570796326794896
 40
0.2617993877991494
 40
1.308996938995747
 40
-0.2617993877991494
 40
1.832595714594046
  0
TABLESTYLE
  5
6C
102
{ACAD_XDICTIONARY
360
1B2
102
}
102
{ACAD_REACTORS
330
6B
102
}
330
6B
100
AcDbTableStyle
280
     0
  3
Standard
 70
     0
 71
     0
 40
0.06
 41
0.06
280
     0
281
     0
  7
STANDARD
140
0.18
170
     2
 62
     0
 63
     7
283
     0
 90
      512
 91
        0
  1

274
    -2
284
     1
 64
     0
275
    -2
285
     1
 65
     0
276
    -2
286
     1
 66
     0
277
    -2
287
     1
 67
     0
278
    -2
288
     1
 68
     0
279
    -2
289
     1
 69
     0
  7
STANDARD
140
0.25
170
     5
 62
     0
 63
     7
283
     0
 90
      512
 91
        0
  1

274
    -2
284
     1
 64
     0
275
    -2
285
     1
 65
     0
276
    -2
286
     1
 66
     0
277
    -2
287
     1
 67
     0
278
    -2
288
     1
 68
     0
279
    -2
289
     1
 69
     0
  7
STANDARD
140
0.18
170
     5
 62
     0
 63
     7
283
     0
 90
      512
 91
        0
  1

274
    -2
284
     1
 64
     0
275
    -2
285
     1
 65
     0
276
    -2
286
     1
 66
     0
277
    -2
287
     1
 67
     0
278
    -2
288
     1
 68
     0
279
    -2
289
     1
 69
     0
  0
VISUALSTYLE
  5
2F
102
{ACAD_REACTORS
330
29
102
}
330
29
100
AcDbVisualStyle
  2
2dWireframe
 70
     4
177
     3
291
     0
 70
    58
 90
        0
176
     1
 90
        2
176
     1
 90
        0
176
     1
 90
        0
176
     1
 40
0.6
176
     1
 40
30.0
176
     1
 62
     7
176
     1
 90
        1
176
     1
 90
        4
176
     1
 62
     7
176
     1
 62
   257
176
     1
 90
        1
176
     1
 90
        1
176
     1
 40
1.0
176
     1
 90
        0
176
     1
 62
   257
176
     1
 40
1.0
176
     1
 90
        1
176
     1
 90
        6
176
     1
 90
        2
176
     1
 62
     7
176
     1
 90
        5
176
     1
 90
        0
176
     1
 90
        0
176
     1
290
     0
176
     1
 90
        1
176
     1
 40
0.0
176
     1
 90
        0
176
     1
290
     1
176
     1
290
     1
176
     1
290
     0
176
     1
290
     0
176
     1
290
     0
176
     1
290
     0
176
     1
290
     0
176
     1
290
     0
176
     1
290
     0
176
     1
 90
       50
176
     1
 40
0.0
176
     1
 40
1.0
176
     1
 90
        0
176
     1
 62
    18
420
        0
176
     1
 90
       50
176
     1
 90
        3
176
     1
 62
     5
420
      255
176
     1
290
     0
176
     1
 90
       50
176
     1
 90
       50
176
     1
 90
       50
176
     1
290
     0
176
     1
 90
       50
176
     1
 62
   256
176
     0
 40
1.0
176
     0
 90
        2
176
     1
  1
strokes_ogs.tif
176
     1
290
     0
176
     1
 40
1.0
176
     1
 40
1.0
176
     1
  0
VISUALSTYLE
  5
31
102
{ACAD_REACTORS
330
29
102
}
330
29
100
AcDbVisualStyle
  2
3D Hidden
 70
     6
177
     3
291
     0
 70
    58
 90
        1
176
     1
 90
        2
176
     1
 90
        2
176
     1
 90
        0
176
     1
 40
0.6
176
     1
 40
30.0
176
     1
 62
     7
176
     1
 90
        2
176
     1
 90
        2
176
     1
 62
     7
176
     1
 62
   257
176
     1
 90
        2
176
     1
 90
        1
176
     1
 40
40.0
176
     1
 90
        0
176
     1
 62
   257
176
     1
 40
1.0
176
     1
 90
        1
176
     1
 90
        6
176
     1
 90
        2
176
     1
 62
     7
176
     1
 90
        3
176
     1
 90
        0
176
     1
 90
        0
176
     1
290
     0
176
     1
 90
        1
176
     1
 40
0.0
176
     1
 90
        0
176
     1
290
     0
176
     1
290
     1
176
     1
290
     1
176
     1
290
     0
176
     1
290
     0
176
     1
290
     0
176
     1
290
     0
176
     1
290
     0
176
     1
290
     0
176
     1
 90
       50
176
     1
 40
0.0
176
     1
 40
1.0
176
     1
 90
        0
176
     1
 62
    18
420
        0
176
     1
 90
       50
176
     1
 90
        3
176
     1
 62
     5
420
      255
176
     1
290
     0
176
     1
 90
       50
176
     1
 90
       50
176
     1
 90
       50
176
     1
290
     0
176
     1
 90
       50
176
     1
 62
   256
176
     0
 40
1.0
176
     0
 90
        2
176
     1
  1
strokes_ogs.tif
176
     1
290
     0
176
     1
 40
1.0
176
     1
 40
1.0
176
     1
  0
VISUALSTYLE
  5
30
102
{ACAD_REACTORS
330
29
102
}
330
29
100
AcDbVisualStyle
  2
3dWireframe
 70
     5
177
     3
291
     0
 70
    58
 90
        0
176
     1
 90
        2
176
     1
 90
        0
176
     1
 90
        0
176
     1
 40
0.6
176
     1
 40
30.0
176
     1
 62
     7
176
     1
 90
        1
176
     1
 90
        4
176
     1
 62
     7
176
     1
 62
   257
176
     1
 90
        1
176
     1
 90
        1
176
     1
 40
1.0
176
     1
 90
        0
176
     1
 62
   257
176
     1
 40
1.0
176
     1
 90
        1
176
     1
 90
        6
176
     1
 90
        2
176
     1
 62
     7
176
     1
 90
        5
176
     1
 90
        0
176
     1
 90
        0
176
     1
290
     0
176
     1
 90
        1
176
     1
 40
0.0
176
     1
 90
        0
176
     1
290
     0
176
     1
290
     1
176
     1
290
     1
176
     1
290
     0
176
     1
290
     0
176
     1
290
     0
176
     1
290
     0
176
     1
290
     0
176
     1
290
     0
176
     1
 90
       50
176
     1
 40
0.0
176
     1
 40
1.0
176
     1
 90
        0
176
     1
 62
    18
420
        0
176
     1
 90
       50
176
     1
 90
        3
176
     1
 62
     5
420
      255
176
     1
290
     0
176
     1
 90
       50
176
     1
 90
       50
176
     1
 90
       50
176
     1
290
     0
176
     1
 90
       50
176
     1
 62
   256
176
     0
 40
1.0
176
     0
 90
        2
176
     1
  1
strokes_ogs.tif
176
     1
290
     0
176
     1
 40
1.0
176
     1
 40
1.0
176
     1
  0
VISUALSTYLE
  5
2E
102
{ACAD_REACTORS
330
29
102
}
330
29
100
AcDbVisualStyle
  2
Basic
 70
     7
177
     3
291
     1
 70
    58
 90
        1
176
     1
 90
        0
176
     1
 90
        1
176
     1
 90
        0
176
     1
 40
0.6
176
     1
 40
30.0
176
     1
 62
     7
176
     1
 90
        0
176
     1
 90
        4
176
     1
 62
     7
176
     1
 62
   257
176
     1
 90
        1
176
     1
 90
        1
176
     1
 40
1.0
176
     1
 90
        8
176
     1
 62
     7
176
     1
 40
1.0
176
     1
 90
        1
176
     1
 90
        6
176
     1
 90
        2
176
     1
 62
     7
176
     1
 90
        5
176
     1
 90
        0
176
     1
 90
        0
176
     1
290
     0
176
     1
 90
        1
176
     1
 40
0.0
176
     1
 90
        0
176
     1
290
     0
176
     1
290
     1
176
     1
290
     1
176
     1
290
     0
176
     1
290
     0
176
     1
290
     0
176
     1
290
     0
176
     1
290
     0
176
     1
290
     0
176
     1
 90
       50
176
     1
 40
0.0
176
     1
 40
1.0
176
     1
 90
        0
176
     1
 62
    18
420
        0
176
     1
 90
       50
176
     1
 90
        3
176
     1
 62
     5
420
      255
176
     1
290
     0
176
     1
 90
       50
176
     1
 90
       50
176
     1
 90
       50
176
     1
290
     0
176
     1
 90
       50
176
     1
 62
   256
176
     0
 40
1.0
176
     0
 90
        2
176
     1
  1
strokes_ogs.tif
176
     1
290
     0
176
     1
 40
1.0
176
     1
 40
1.0
176
     1
  0
VISUALSTYLE
  5
35
102
{ACAD_REACTORS
330
29
102
}
330
29
100
AcDbVisualStyle
  2
Brighten
 70
    12
177
     3
291
     1
 70
    58
 90
        2
176
     1
 90
        2
176
     1
 90
        0
176
     1
 90
        0
176
     1
 40
0.6
176
     1
 40
30.0
176
     1
 62
     7
176
     1
 90
        1
176
     1
 90
        4
176
     1
 62
     7
176
     1
 62
   257
176
     1
 90
        1
176
     1
 90
        1
176
     1
 40
1.0
176
     1
 90
        8
176
     1
 62
     7
176
     1
 40
1.0
176
     1
 90
        1
176
     1
 90
        6
176
     1
 90
        2
176
     1
 62
     7
176
     1
 90
        5
176
     1
 90
        0
176
     1
 90
        0
176
     1
290
     0
176
     1
 90
        1
176
     1
 40
50.0
176
     1
 90
        0
176
     1
290
     0
176
     1
290
     1
176
     1
290
     1
176
     1
290
     0
176
     1
290
     0
176
     1
290
     0
176
     1
290
     0
176
     1
290
     0
176
     1
290
     0
176
     1
 90
       50
176
     1
 40
0.0
176
     1
 40
1.0
176
     1
 90
        0
176
     1
 62
    18
420
        0
176
     1
 90
       50
176
     1
 90
        3
176
     1
 62
     5
420
      255
176
     1
290
     0
176
     1
 90
       50
176
     1
 90
       50
176
     1
 90
       50
176
     1
290
     0
176
     1
 90
       50
176
     1
 62
   256
176
     0
 40
1.0
176
     0
 90
        2
176
     1
  1
strokes_ogs.tif
176
     1
290
     0
176
     1
 40
1.0
176
     1
 40
1.0
176
     1
  0
VISUALSTYLE
  5
39
102
{ACAD_REACTORS
330
29
102
}
330
29
100
AcDbVisualStyle
  2
ColorChange
 70
    16
177
     3
291
     1
 70
    58
 90
        2
176
     1
 90
        2
176
     1
 90
        3
176
     1
 90
        0
176
     1
 40
0.6
176
     1
 40
30.0
176
     1
 62
     8
176
     1
 90
        1
176
     1
 90
        4
176
     1
 62
     7
176
     1
 62
   257
176
     1
 90
        1
176
     1
 90
        1
176
     1
 40
1.0
176
     1
 90
        8
176
     1
 62
     8
176
     1
 40
1.0
176
     1
 90
        1
176
     1
 90
        6
176
     1
 90
        2
176
     1
 62
     7
176
     1
 90
        5
176
     1
 90
        0
176
     1
 90
        0
176
     1
290
     0
176
     1
 90
        1
176
     1
 40
0.0
176
     1
 90
        0
176
     1
290
     0
176
     1
290
     1
176
     1
290
     1
176
     1
290
     0
176
     1
290
     0
176
     1
290
     0
176
     1
290
     0
176
     1
290
     0
176
     1
290
     0
176
     1
 90
       50
176
     1
 40
0.0
176
     1
 40
1.0
176
     1
 90
        0
176
     1
 62
    18
420
        0
176
     1
 90
       50
176
     1
 90
        3
176
     1
 62
     5
420
      255
176
     1
290
     0
176
     1
 90
       50
176
     1
 90
       50
176
     1
 90
       50
176
     1
290
     0
176
     1
 90
       50
176
     1
 62
   256
176
     0
 40
1.0
176
     0
 90
        2
176
     1
  1
strokes_ogs.tif
176
     1
290
     0
176
     1
 40
1.0
176
     1
 40
1.0
176
     1
  0
VISUALSTYLE
  5
32
102
{ACAD_REACTORS
330
29
102
}
330
29
100
AcDbVisualStyle
  2
Conceptual
 70
     9
177
     3
291
     0
 70
    58
 90
        3
176
     1
 90
        2
176
     1
 90
        0
176
     1
 90
        0
176
     1
 40
0.6
176
     1
 40
30.0
176
     1
 62
     7
176
     1
 90
        2
176
     1
 90
        2
176
     1
 62
     7
176
     1
 62
   257
176
     1
 90
        1
176
     1
 90
        1
176
     1
 40
40.0
176
     1
 90
        8
176
     1
 62
     7
176
     1
 40
1.0
176
     1
 90
        1
176
     1
 90
        6
176
     1
 90
        2
176
     1
 62
     7
176
     1
 90
        3
176
     1
 90
        0
176
     1
 90
        0
176
     1
290
     0
176
     1
 90
        1
176
     1
 40
0.0
176
     1
 90
        0
176
     1
290
     0
176
     1
290
     1
176
     1
290
     1
176
     1
290
     0
176
     1
290
     0
176
     1
290
     0
176
     1
290
     0
176
     1
290
     0
176
     1
290
     0
176
     1
 90
       50
176
     1
 40
0.0
176
     1
 40
1.0
176
     1
 90
        0
176
     1
 62
    18
420
        0
176
     1
 90
       50
176
     1
 90
        3
176
     1
 62
     5
420
      255
176
     1
290
     0
176
     1
 90
       50
176
     1
 90
       50
176
     1
 90
       50
176
     1
290
     0
176
     1
 90
       50
176
     1
 62
   256
176
     0
 40
1.0
176
     0
 90
        2
176
     1
  1
strokes_ogs.tif
176
     1
290
     0
176
     1
 40
1.0
176
     1
 40
1.0
176
     1
  0
VISUALSTYLE
  5
34
102
{ACAD_REACTORS
330
29
102
}
330
29
100
AcDbVisualStyle
  2
Dim
 70
    11
177
     3
291
     1
 70
    58
 90
        2
176
     1
 90
        2
176
     1
 90
        0
176
     1
 90
        0
176
     1
 40
0.6
176
     1
 40
30.0
176
     1
 62
     7
176
     1
 90
        1
176
     1
 90
        4
176
     1
 62
     7
176
     1
 62
   257
176
     1
 90
        1
176
     1
 90
        1
176
     1
 40
1.0
176
     1
 90
        8
176
     1
 62
     7
176
     1
 40
1.0
176
     1
 90
        1
176
     1
 90
        6
176
     1
 90
        2
176
     1
 62
     7
176
     1
 90
        5
176
     1
 90
        0
176
     1
 90
        0
176
     1
290
     0
176
     1
 90
        1
176
     1
 40
-50.0
176
     1
 90
        0
176
     1
290
     0
176
     1
290
     1
176
     1
290
     1
176
     1
290
     0
176
     1
290
     0
176
     1
290
     0
176
     1
290
     0
176
     1
290
     0
176
     1
290
     0
176
     1
 90
       50
176
     1
 40
0.0
176
     1
 40
1.0
176
     1
 90
        0
176
     1
 62
    18
420
        0
176
     1
 90
       50
176
     1
 90
        3
176
     1
 62
     5
420
      255
176
     1
290
     0
176
     1
 90
       50
176
     1
 90
       50
176
     1
 90
       50
176
     1
290
     0
176
     1
 90
       50
176
     1
 62
   256
176
     0
 40
1.0
176
     0
 90
        2
176
     1
  1
strokes_ogs.tif
176
     1
290
     0
176
     1
 40
1.0
176
     1
 40
1.0
176
     1
  0
VISUALSTYLE
  5
1809
102
{ACAD_REACTORS
330
29
102
}
330
29
100
AcDbVisualStyle
  2
EdgeColorOff
 70
    22
177
     3
291
     1
 70
    58
 90
        2
176
     0
 90
        2
176
     0
 90
        0
176
     0
 90
        0
176
     0
 40
0.6
176
     0
 40
30.0
176
     0
 62
     7
420
 16777215
176
     0
 90
        1
176
     0
 90
        4
176
     0
 62
     7
176
     0
 62
   257
176
     0
 90
        1
176
     0
 90
        1
176
     0
 40
1.0
176
     0
 90
        8
176
     2
 62
     7
176
     0
 40
1.0
176
     0
 90
        1
176
     0
 90
        6
176
     0
 90
        2
176
     0
 62
     7
176
     0
 90
        5
176
     0
 90
        0
176
     0
 90
        0
176
     0
290
     0
176
     0
 90
        1
176
     0
 40
0.0
176
     0
 90
        0
176
     0
290
     0
176
     0
290
     1
176
     0
290
     1
176
     0
290
     0
176
     0
290
     0
176
     0
290
     0
176
     0
290
     0
176
     0
290
     0
176
     0
290
     0
176
     0
 90
       50
176
     0
 40
0.0
176
     0
 40
1.0
176
     0
 90
        0
176
     0
 62
    18
420
        0
176
     0
 90
       50
176
     0
 90
        3
176
     0
 62
     5
420
      255
176
     0
290
     0
176
     0
 90
       50
176
     0
 90
       50
176
     0
 90
       50
176
     0
290
     0
176
     0
 90
       50
176
     0
 62
   256
176
     0
 40
1.0
176
     0
 90
        2
176
     0
  1
strokes_ogs.tif
176
     0
290
     0
176
     0
 40
1.0
176
     0
 40
1.0
176
     0
  0
VISUALSTYLE
  5
38
102
{ACAD_REACTORS
330
29
102
}
330
29
100
AcDbVisualStyle
  2
Facepattern
 70
    15
177
     3
291
     1
 70
    58
 90
        2
176
     1
 90
        2
176
     1
 90
        0
176
     1
 90
        0
176
     1
 40
0.6
176
     1
 40
30.0
176
     1
 62
     7
176
     1
 90
        1
176
     1
 90
        4
176
     1
 62
     7
176
     1
 62
   257
176
     1
 90
        1
176
     1
 90
        1
176
     1
 40
1.0
176
     1
 90
        8
176
     1
 62
     7
176
     1
 40
1.0
176
     1
 90
        1
176
     1
 90
        6
176
     1
 90
        2
176
     1
 62
     7
176
     1
 90
        5
176
     1
 90
        0
176
     1
 90
        0
176
     1
290
     0
176
     1
 90
        1
176
     1
 40
0.0
176
     1
 90
        0
176
     1
290
     0
176
     1
290
     1
176
     1
290
     1
176
     1
290
     0
176
     1
290
     0
176
     1
290
     0
176
     1
290
     0
176
     1
290
     0
176
     1
290
     0
176
     1
 90
       50
176
     1
 40
0.0
176
     1
 40
1.0
176
     1
 90
        0
176
     1
 62
    18
420
        0
176
     1
 90
       50
176
     1
 90
        3
176
     1
 62
     5
420
      255
176
     1
290
     0
176
     1
 90
       50
176
     1
 90
       50
176
     1
 90
       50
176
     1
290
     0
176
     1
 90
       50
176
     1
 62
   256
176
     0
 40
1.0
176
     0
 90
        2
176
     1
  1
strokes_ogs.tif
176
     1
290
     0
176
     1
 40
1.0
176
     1
 40
1.0
176
     1
  0
VISUALSTYLE
  5
2A
102
{ACAD_REACTORS
330
29
102
}
330
29
100
AcDbVisualStyle
  2
Flat
 70
     0
177
     3
291
     1
 70
    58
 90
        2
176
     1
 90
        1
176
     1
 90
        1
176
     1
 90
        2
176
     1
 40
0.6
176
     1
 40
30.0
176
     1
 62
     7
176
     1
 90
        0
176
     1
 90
        4
176
     1
 62
     7
176
     1
 62
   257
176
     1
 90
        1
176
     1
 90
        1
176
     1
 40
1.0
176
     1
 90
        8
176
     1
 62
     7
176
     1
 40
1.0
176
     1
 90
        1
176
     1
 90
        6
176
     1
 90
        2
176
     1
 62
     7
176
     1
 90
        5
176
     1
 90
        0
176
     1
 90
        0
176
     1
290
     0
176
     1
 90
       13
176
     1
 40
0.0
176
     1
 90
        0
176
     1
290
     0
176
     1
290
     1
176
     1
290
     1
176
     1
290
     0
176
     1
290
     0
176
     1
290
     0
176
     1
290
     0
176
     1
290
     0
176
     1
290
     0
176
     1
 90
       50
176
     1
 40
0.0
176
     1
 40
1.0
176
     1
 90
        0
176
     1
 62
    18
420
        0
176
     1
 90
       50
176
     1
 90
        3
176
     1
 62
     5
420
      255
176
     1
290
     0
176
     1
 90
       50
176
     1
 90
       50
176
     1
 90
       50
176
     1
290
     0
176
     1
 90
       50
176
     1
 62
   256
176
     0
 40
1.0
176
     0
 90
        2
176
     1
  1
strokes_ogs.tif
176
     1
290
     0
176
     1
 40
1.0
176
     1
 40
1.0
176
     1
  0
VISUALSTYLE
  5
2B
102
{ACAD_REACTORS
330
29
102
}
330
29
100
AcDbVisualStyle
  2
FlatWithEdges
 70
     1
177
     3
291
     1
 70
    58
 90
        2
176
     1
 90
        1
176
     1
 90
        1
176
     1
 90
        2
176
     1
 40
0.6
176
     1
 40
30.0
176
     1
 62
     7
176
     1
 90
        1
176
     1
 90
        4
176
     1
 62
     7
176
     1
 62
   257
176
     1
 90
        1
176
     1
 90
        1
176
     1
 40
1.0
176
     1
 90
        0
176
     1
 62
   257
176
     1
 40
1.0
176
     1
 90
        1
176
     1
 90
        6
176
     1
 90
        2
176
     1
 62
     7
176
     1
 90
        5
176
     1
 90
        0
176
     1
 90
        0
176
     1
290
     0
176
     1
 90
       13
176
     1
 40
0.0
176
     1
 90
        0
176
     1
290
     0
176
     1
290
     1
176
     1
290
     1
176
     1
290
     0
176
     1
290
     0
176
     1
290
     0
176
     1
290
     0
176
     1
290
     0
176
     1
290
     0
176
     1
 90
       50
176
     1
 40
0.0
176
     1
 40
1.0
176
     1
 90
        0
176
     1
 62
    18
420
        0
176
     1
 90
       50
176
     1
 90
        3
176
     1
 62
     5
420
      255
176
     1
290
     0
176
     1
 90
       50
176
     1
 90
       50
176
     1
 90
       50
176
     1
290
     0
176
     1
 90
       50
176
     1
 62
   256
176
     0
 40
1.0
176
     0
 90
        2
176
     1
  1
strokes_ogs.tif
176
     1
290
     0
176
     1
 40
1.0
176
     1
 40
1.0
176
     1
  0
VISUALSTYLE
  5
2C
102
{ACAD_REACTORS
330
29
102
}
330
29
100
AcDbVisualStyle
  2
Gouraud
 70
     2
177
     3
291
     1
 70
    58
 90
        2
176
     1
 90
        2
176
     1
 90
        1
176
     1
 90
        2
176
     1
 40
0.6
176
     1
 40
30.0
176
     1
 62
     7
176
     1
 90
        0
176
     1
 90
        4
176
     1
 62
     7
176
     1
 62
   257
176
     1
 90
        1
176
     1
 90
        1
176
     1
 40
1.0
176
     1
 90
        0
176
     1
 62
     7
176
     1
 40
1.0
176
     1
 90
        1
176
     1
 90
        6
176
     1
 90
        2
176
     1
 62
     7
176
     1
 90
        5
176
     1
 90
        0
176
     1
 90
        0
176
     1
290
     0
176
     1
 90
       13
176
     1
 40
0.0
176
     1
 90
        0
176
     1
290
     0
176
     1
290
     1
176
     1
290
     1
176
     1
290
     0
176
     1
290
     0
176
     1
290
     0
176
     1
290
     0
176
     1
290
     0
176
     1
290
     0
176
     1
 90
       50
176
     1
 40
0.0
176
     1
 40
1.0
176
     1
 90
        0
176
     1
 62
    18
420
        0
176
     1
 90
       50
176
     1
 90
        3
176
     1
 62
     5
420
      255
176
     1
290
     0
176
     1
 90
       50
176
     1
 90
       50
176
     1
 90
       50
176
     1
290
     0
176
     1
 90
       50
176
     1
 62
   256
176
     0
 40
1.0
176
     0
 90
        2
176
     1
  1
strokes_ogs.tif
176
     1
290
     0
176
     1
 40
1.0
176
     1
 40
1.0
176
     1
  0
VISUALSTYLE
  5
2D
102
{ACAD_REACTORS
330
29
102
}
330
29
100
AcDbVisualStyle
  2
GouraudWithEdges
 70
     3
177
     3
291
     1
 70
    58
 90
        2
176
     1
 90
        2
176
     1
 90
        1
176
     1
 90
        2
176
     1
 40
0.6
176
     1
 40
30.0
176
     1
 62
     7
176
     1
 90
        1
176
     1
 90
        4
176
     1
 62
     7
176
     1
 62
   257
176
     1
 90
        1
176
     1
 90
        1
176
     1
 40
1.0
176
     1
 90
        0
176
     1
 62
   257
176
     1
 40
1.0
176
     1
 90
        1
176
     1
 90
        6
176
     1
 90
        2
176
     1
 62
     7
176
     1
 90
        5
176
     1
 90
        0
176
     1
 90
        0
176
     1
290
     0
176
     1
 90
       13
176
     1
 40
0.0
176
     1
 90
        0
176
     1
290
     0
176
     1
290
     1
176
     1
290
     1
176
     1
290
     0
176
     1
290
     0
176
     1
290
     0
176
     1
290
     0
176
     1
290
     0
176
     1
290
     0
176
     1
 90
       50
176
     1
 40
0.0
176
     1
 40
1.0
176
     1
 90
        0
176
     1
 62
    18
420
        0
176
     1
 90
       50
176
     1
 90
        3
176
     1
 62
     5
420
      255
176
     1
290
     0
176
     1
 90
       50
176
     1
 90
       50
176
     1
 90
       50
176
     1
290
     0
176
     1
 90
       50
176
     1
 62
   256
176
     0
 40
1.0
176
     0
 90
        2
176
     1
  1
strokes_ogs.tif
176
     1
290
     0
176
     1
 40
1.0
176
     1
 40
1.0
176
     1
  0
VISUALSTYLE
  5
1801
102
{ACAD_REACTORS
330
29
102
}
330
29
100
AcDbVisualStyle
  2
Hidden
 70
     6
177
     3
291
     0
 70
    58
 90
        1
176
     1
 90
        2
176
     1
 90
        2
176
     1
 90
        0
176
     1
 40
0.6
176
     1
 40
30.0
176
     1
 62
     7
420
 16777215
176
     1
 90
        2
176
     1
 90
        2
176
     1
 62
     7
176
     1
 62
   257
176
     1
 90
        2
176
     1
 90
        1
176
     1
 40
40.0
176
     1
 90
        0
176
     1
 62
   257
176
     1
 40
1.0
176
     1
 90
        1
176
     1
 90
        6
176
     1
 90
        2
176
     1
 62
     7
176
     1
 90
        3
176
     1
 90
        0
176
     1
 90
        0
176
     1
290
     0
176
     1
 90
        1
176
     1
 40
0.0
176
     1
 90
        0
176
     1
290
     0
176
     1
290
     1
176
     1
290
     1
176
     1
290
     0
176
     1
290
     0
176
     1
290
     0
176
     1
290
     0
176
     1
290
     0
176
     1
290
     0
176
     1
 90
       50
176
     1
 40
0.0
176
     1
 40
1.0
176
     1
 90
        0
176
     1
 62
    18
420
        0
176
     1
 90
       50
176
     1
 90
        3
176
     1
 62
     5
420
      255
176
     1
290
     0
176
     1
 90
       50
176
     1
 90
       50
176
     1
 90
       50
176
     1
290
     0
176
     1
 90
       50
176
     1
 62
   256
176
     0
 40
1.0
176
     0
 90
        2
176
     1
  1
strokes_ogs.tif
176
     1
290
     0
176
     1
 40
1.0
176
     1
 40
1.0
176
     1
  0
VISUALSTYLE
  5
1807
102
{ACAD_REACTORS
330
29
102
}
330
29
100
AcDbVisualStyle
  2
JitterOff
 70
    20
177
     3
291
     1
 70
    58
 90
        2
176
     0
 90
        2
176
     0
 90
        0
176
     0
 90
        0
176
     0
 40
0.6
176
     0
 40
30.0
176
     0
 62
     7
420
 16777215
176
     0
 90
        1
176
     0
 90
        4
176
     0
 62
     7
176
     0
 62
   257
176
     0
 90
        1
176
     0
 90
        1
176
     0
 40
1.0
176
     0
 90
       10
176
     2
 62
     7
176
     0
 40
1.0
176
     0
 90
        1
176
     0
 90
        6
176
     0
 90
        2
176
     0
 62
     7
176
     0
 90
        5
176
     0
 90
        0
176
     0
 90
        0
176
     0
290
     0
176
     0
 90
        1
176
     0
 40
0.0
176
     0
 90
        0
176
     0
290
     0
176
     0
290
     1
176
     0
290
     1
176
     0
290
     0
176
     0
290
     0
176
     0
290
     0
176
     0
290
     0
176
     0
290
     0
176
     0
290
     0
176
     0
 90
       50
176
     0
 40
0.0
176
     0
 40
1.0
176
     0
 90
        0
176
     0
 62
    18
420
        0
176
     0
 90
       50
176
     0
 90
        3
176
     0
 62
     5
420
      255
176
     0
290
     0
176
     0
 90
       50
176
     0
 90
       50
176
     0
 90
       50
176
     0
290
     0
176
     0
 90
       50
176
     0
 62
   256
176
     0
 40
1.0
176
     0
 90
        2
176
     0
  1
strokes_ogs.tif
176
     0
290
     0
176
     0
 40
1.0
176
     0
 40
1.0
176
     0
  0
VISUALSTYLE
  5
37
102
{ACAD_REACTORS
330
29
102
}
330
29
100
AcDbVisualStyle
  2
Linepattern
 70
    14
177
     3
291
     1
 70
    58
 90
        2
176
     1
 90
        2
176
     1
 90
        0
176
     1
 90
        0
176
     1
 40
0.6
176
     1
 40
30.0
176
     1
 62
     7
176
     1
 90
        1
176
     1
 90
        4
176
     1
 62
     7
176
     1
 62
   257
176
     1
 90
        7
176
     1
 90
        7
176
     1
 40
1.0
176
     1
 90
        8
176
     1
 62
     7
176
     1
 40
1.0
176
     1
 90
        1
176
     1
 90
        6
176
     1
 90
        2
176
     1
 62
     7
176
     1
 90
        5
176
     1
 90
        0
176
     1
 90
        0
176
     1
290
     0
176
     1
 90
        1
176
     1
 40
0.0
176
     1
 90
        0
176
     1
290
     0
176
     1
290
     1
176
     1
290
     1
176
     1
290
     0
176
     1
290
     0
176
     1
290
     0
176
     1
290
     0
176
     1
290
     0
176
     1
290
     0
176
     1
 90
       50
176
     1
 40
0.0
176
     1
 40
1.0
176
     1
 90
        0
176
     1
 62
    18
420
        0
176
     1
 90
       50
176
     1
 90
        3
176
     1
 62
     5
420
      255
176
     1
290
     0
176
     1
 90
       50
176
     1
 90
       50
176
     1
 90
       50
176
     1
290
     0
176
     1
 90
       50
176
     1
 62
   256
176
     0
 40
1.0
176
     0
 90
        2
176
     1
  1
strokes_ogs.tif
176
     1
290
     0
176
     1
 40
1.0
176
     1
 40
1.0
176
     1
  0
VISUALSTYLE
  5
1808
102
{ACAD_REACTORS
330
29
102
}
330
29
100
AcDbVisualStyle
  2
OverhangOff
 70
    21
177
     3
291
     1
 70
    58
 90
        2
176
     0
 90
        2
176
     0
 90
        0
176
     0
 90
        0
176
     0
 40
0.6
176
     0
 40
30.0
176
     0
 62
     7
420
 16777215
176
     0
 90
        1
176
     0
 90
        4
176
     0
 62
     7
176
     0
 62
   257
176
     0
 90
        1
176
     0
 90
        1
176
     0
 40
1.0
176
     0
 90
        9
176
     2
 62
     7
176
     0
 40
1.0
176
     0
 90
        1
176
     0
 90
        6
176
     0
 90
        2
176
     0
 62
     7
176
     0
 90
        5
176
     0
 90
        0
176
     0
 90
        0
176
     0
290
     0
176
     0
 90
        1
176
     0
 40
0.0
176
     0
 90
        0
176
     0
290
     0
176
     0
290
     1
176
     0
290
     1
176
     0
290
     0
176
     0
290
     0
176
     0
290
     0
176
     0
290
     0
176
     0
290
     0
176
     0
290
     0
176
     0
 90
       50
176
     0
 40
0.0
176
     0
 40
1.0
176
     0
 90
        0
176
     0
 62
    18
420
        0
176
     0
 90
       50
176
     0
 90
        3
176
     0
 62
     5
420
      255
176
     0
290
     0
176
     0
 90
       50
176
     0
 90
       50
176
     0
 90
       50
176
     0
290
     0
176
     0
 90
       50
176
     0
 62
   256
176
     0
 40
1.0
176
     0
 90
        2
176
     0
  1
strokes_ogs.tif
176
     0
290
     0
176
     0
 40
1.0
176
     0
 40
1.0
176
     0
  0
VISUALSTYLE
  5
33
102
{ACAD_REACTORS
330
29
102
}
330
29
100
AcDbVisualStyle
  2
Realistic
 70
     8
177
     3
291
     0
 70
    58
 90
        2
176
     1
 90
        2
176
     1
 90
        0
176
     1
 90
        0
176
     1
 40
0.6
176
     1
 40
30.0
176
     1
 62
     7
176
     1
 90
        1
176
     1
 90
        0
176
     1
 62
     7
176
     1
 62
   257
176
     1
 90
        1
176
     1
 90
        1
176
     1
 40
1.0
176
     1
 90
        8
176
     1
 62
     8
176
     1
 40
1.0
176
     1
 90
        1
176
     1
 90
        6
176
     1
 90
        2
176
     1
 62
     7
176
     1
 90
        5
176
     1
 90
        0
176
     1
 90
        0
176
     1
290
     0
176
     1
 90
       13
176
     1
 40
0.0
176
     1
 90
        0
176
     1
290
     0
176
     1
290
     1
176
     1
290
     1
176
     1
290
     0
176
     1
290
     0
176
     1
290
     0
176
     1
290
     0
176
     1
290
     0
176
     1
290
     0
176
     1
 90
       50
176
     1
 40
0.0
176
     1
 40
1.0
176
     1
 90
        0
176
     1
 62
    18
420
        0
176
     1
 90
       50
176
     1
 90
        3
176
     1
 62
     5
420
      255
176
     1
290
     0
176
     1
 90
       50
176
     1
 90
       50
176
     1
 90
       50
176
     1
290
     0
176
     1
 90
       50
176
     1
 62
   256
176
     0
 40
1.0
176
     0
 90
        2
176
     1
  1
strokes_ogs.tif
176
     1
290
     0
176
     1
 40
1.0
176
     1
 40
1.0
176
     1
  0
VISUALSTYLE
  5
1806
102
{ACAD_REACTORS
330
29
102
}
330
29
100
AcDbVisualStyle
  2
Shaded
 70
    27
177
     3
291
     0
 70
    58
 90
        2
176
     1
 90
        2
176
     1
 90
        1
176
     1
 90
        2
176
     1
 40
0.6
176
     1
 40
30.0
176
     1
 62
     7
420
 16777215
176
     1
 90
        0
176
     1
 90
        4
176
     1
 62
     7
176
     1
 62
   257
176
     1
 90
        1
176
     1
 90
        1
176
     1
 40
1.0
176
     1
 90
        8
176
     1
 62
   257
176
     1
 40
1.0
176
     1
 90
        1
176
     1
 90
        6
176
     1
 90
        2
176
     1
 62
     8
420
  7895160
176
     1
 90
        3
176
     1
 90
        0
176
     1
 90
        0
176
     1
290
     0
176
     1
 90
        5
176
     1
 40
0.0
176
     1
 90
        0
176
     1
290
     0
176
     1
290
     1
176
     1
290
     1
176
     1
290
     0
176
     1
290
     0
176
     1
290
     0
176
     1
290
     0
176
     1
290
     0
176
     1
290
     0
176
     1
 90
       50
176
     1
 40
0.0
176
     1
 40
1.0
176
     1
 90
        0
176
     1
 62
    18
420
        0
176
     1
 90
       50
176
     1
 90
        3
176
     1
 62
     5
420
      255
176
     1
290
     0
176
     1
 90
       50
176
     1
 90
       50
176
     1
 90
       50
176
     1
290
     0
176
     1
 90
       50
176
     1
 62
   256
176
     0
 40
1.0
176
     0
 90
        2
176
     1
  1
strokes_ogs.tif
176
     1
290
     0
176
     1
 40
1.0
176
     1
 40
1.0
176
     1
  0
VISUALSTYLE
  5
1805
102
{ACAD_REACTORS
330
29
102
}
330
29
100
AcDbVisualStyle
  2
Shaded with edges
 70
    26
177
     3
291
     0
 70
    58
 90
        2
176
     1
 90
        2
176
     1
 90
        1
176
     1
 90
        2
176
     1
 40
0.6
176
     1
 40
30.0
176
     1
 62
     7
420
 16777215
176
     1
 90
        1
176
     1
 90
       10
176
     1
 62
     7
176
     1
 62
   257
176
     1
 90
        2
176
     1
 90
        1
176
     1
 40
1.0
176
     1
 90
        8
176
     1
 62
   257
176
     1
 40
1.0
176
     1
 90
        1
176
     1
 90
        6
176
     1
 90
        2
176
     1
 62
     7
176
     1
 90
        3
176
     1
 90
        0
176
     1
 90
        0
176
     1
290
     0
176
     1
 90
        5
176
     1
 40
0.0
176
     1
 90
        0
176
     1
290
     0
176
     1
290
     1
176
     1
290
     1
176
     1
290
     0
176
     1
290
     0
176
     1
290
     0
176
     1
290
     0
176
     1
290
     0
176
     1
290
     0
176
     1
 90
       50
176
     1
 40
0.0
176
     1
 40
1.0
176
     1
 90
        0
176
     1
 62
    18
420
        0
176
     1
 90
       50
176
     1
 90
        3
176
     1
 62
     5
420
      255
176
     1
290
     0
176
     1
 90
       50
176
     1
 90
       50
176
     1
 90
       50
176
     1
290
     0
176
     1
 90
       50
176
     1
 62
   256
176
     0
 40
1.0
176
     0
 90
        2
176
     1
  1
strokes_ogs.tif
176
     1
290
     0
176
     1
 40
1.0
176
     1
 40
1.0
176
     1
  0
VISUALSTYLE
  5
1802
102
{ACAD_REACTORS
330
29
102
}
330
29
100
AcDbVisualStyle
  2
Shades of Gray
 70
    23
177
     3
291
     0
 70
    58
 90
        2
176
     1
 90
        2
176
     1
 90
        3
176
     1
 90
        0
176
     1
 40
0.6
176
     1
 40
30.0
176
     1
 62
     7
420
 16777215
176
     1
 90
        2
176
     1
 90
        2
176
     1
 62
     7
176
     1
 62
     7
176
     1
 90
        1
176
     1
 90
        1
176
     1
 40
40.0
176
     1
 90
        8
176
     1
 62
     7
176
     1
 40
1.0
176
     1
 90
        1
176
     1
 90
        6
176
     1
 90
        2
176
     1
 62
     7
176
     1
 90
        3
176
     1
 90
        0
176
     1
 90
        0
176
     1
290
     0
176
     1
 90
        1
176
     1
 40
0.0
176
     1
 90
        0
176
     1
290
     0
176
     1
290
     1
176
     1
290
     1
176
     1
290
     0
176
     1
290
     0
176
     1
290
     0
176
     1
290
     0
176
     1
290
     0
176
     1
290
     0
176
     1
 90
       50
176
     1
 40
0.0
176
     1
 40
1.0
176
     1
 90
        0
176
     1
 62
    18
420
        0
176
     1
 90
       50
176
     1
 90
        3
176
     1
 62
     5
420
      255
176
     1
290
     0
176
     1
 90
       50
176
     1
 90
       50
176
     1
 90
       50
176
     1
290
     0
176
     1
 90
       50
176
     1
 62
   256
176
     0
 40
1.0
176
     0
 90
        2
176
     1
  1
strokes_ogs.tif
176
     1
290
     0
176
     1
 40
1.0
176
     1
 40
1.0
176
     1
  0
VISUALSTYLE
  5
1803
102
{ACAD_REACTORS
330
29
102
}
330
29
100
AcDbVisualStyle
  2
Sketchy
 70
    24
177
     3
291
     0
 70
    58
 90
        1
176
     1
 90
        2
176
     1
 90
        2
176
     1
 90
        0
176
     1
 40
0.6
176
     1
 40
30.0
176
     1
 62
     7
420
 16777215
176
     1
 90
        2
176
     1
 90
        2
176
     1
 62
     7
176
     1
 62
     7
176
     1
 90
        1
176
     1
 90
        1
176
     1
 40
40.0
176
     1
 90
       11
176
     1
 62
     7
176
     1
 40
1.0
176
     1
 90
        1
176
     1
 90
        6
176
     1
 90
        2
176
     1
 62
     7
176
     1
 90
        6
176
     1
 90
        0
176
     1
 90
        0
176
     1
290
     0
176
     1
 90
        1
176
     1
 40
0.0
176
     1
 90
        0
176
     1
290
     0
176
     1
290
     1
176
     1
290
     1
176
     1
290
     0
176
     1
290
     0
176
     1
290
     0
176
     1
290
     0
176
     1
290
     0
176
     1
290
     0
176
     1
 90
       50
176
     1
 40
0.0
176
     1
 40
1.0
176
     1
 90
        0
176
     1
 62
    18
420
        0
176
     1
 90
       50
176
     1
 90
        3
176
     1
 62
     5
420
      255
176
     1
290
     0
176
     1
 90
       50
176
     1
 90
       50
176
     1
 90
       50
176
     1
290
     0
176
     1
 90
       50
176
     1
 62
   256
176
     0
 40
1.0
176
     0
 90
        2
176
     1
  1
strokes_ogs.tif
176
     1
290
     0
176
     1
 40
1.0
176
     1
 40
1.0
176
     1
  0
VISUALSTYLE
  5
36
102
{ACAD_REACTORS
330
29
102
}
330
29
100
AcDbVisualStyle
  2
Thicken
 70
    13
177
     3
291
     1
 70
    58
 90
        2
176
     1
 90
        2
176
     1
 90
        0
176
     1
 90
        0
176
     1
 40
0.6
176
     1
 40
30.0
176
     1
 62
     7
176
     1
 90
        1
176
     1
 90
        4
176
     1
 62
     7
176
     1
 62
   257
176
     1
 90
        1
176
     1
 90
        1
176
     1
 40
1.0
176
     1
 90
       12
176
     1
 62
     7
176
     1
 40
1.0
176
     1
 90
        1
176
     1
 90
        6
176
     1
 90
        2
176
     1
 62
     7
176
     1
 90
        5
176
     1
 90
        0
176
     1
 90
        0
176
     1
290
     0
176
     1
 90
        1
176
     1
 40
0.0
176
     1
 90
        0
176
     1
290
     0
176
     1
290
     1
176
     1
290
     1
176
     1
290
     0
176
     1
290
     0
176
     1
290
     0
176
     1
290
     0
176
     1
290
     0
176
     1
290
     0
176
     1
 90
       50
176
     1
 40
0.0
176
     1
 40
1.0
176
     1
 90
        0
176
     1
 62
    18
420
        0
176
     1
 90
       50
176
     1
 90
        3
176
     1
 62
     5
420
      255
176
     1
290
     0
176
     1
 90
       50
176
     1
 90
       50
176
     1
 90
       50
176
     1
290
     0
176
     1
 90
       50
176
     1
 62
   256
176
     0
 40
1.0
176
     0
 90
        2
176
     1
  1
strokes_ogs.tif
176
     1
290
     0
176
     1
 40
1.0
176
     1
 40
1.0
176
     1
  0
VISUALSTYLE
  5
1800
102
{ACAD_REACTORS
330
29
102
}
330
29
100
AcDbVisualStyle
  2
Wireframe
 70
     5
177
     3
291
     0
 70
    58
 90
        0
176
     1
 90
        2
176
     1
 90
        0
176
     1
 90
        0
176
     1
 40
0.6
176
     1
 40
30.0
176
     1
 62
     7
420
 16777215
176
     1
 90
        1
176
     1
 90
        4
176
     1
 62
     7
176
     1
 62
   257
176
     1
 90
        1
176
     1
 90
        1
176
     1
 40
1.0
176
     1
 90
        0
176
     1
 62
   257
176
     1
 40
1.0
176
     1
 90
        1
176
     1
 90
        6
176
     1
 90
        2
176
     1
 62
     7
176
     1
 90
        3
176
     1
 90
        0
176
     1
 90
        0
176
     1
290
     0
176
     1
 90
        1
176
     1
 40
0.0
176
     1
 90
        0
176
     1
290
     0
176
     1
290
     1
176
     1
290
     1
176
     1
290
     0
176
     1
290
     0
176
     1
290
     0
176
     1
290
     0
176
     1
290
     0
176
     1
290
     0
176
     1
 90
       50
176
     1
 40
0.0
176
     1
 40
1.0
176
     1
 90
        0
176
     1
 62
    18
420
        0
176
     1
 90
       50
176
     1
 90
        3
176
     1
 62
     5
420
      255
176
     1
290
     0
176
     1
 90
       50
176
     1
 90
       50
176
     1
 90
       50
176
     1
290
     0
176
     1
 90
       50
176
     1
 62
   256
176
     0
 40
1.0
176
     0
 90
        2
176
     1
  1
strokes_ogs.tif
176
     1
290
     0
176
     1
 40
1.0
176
     1
 40
1.0
176
     1
  0
VISUALSTYLE
  5
1804
102
{ACAD_REACTORS
330
29
102
}
330
29
100
AcDbVisualStyle
  2
X-Ray
 70
    25
177
     3
291
     0
 70
    58
 90
        2
176
     1
 90
        2
176
     1
 90
        1
176
     1
 90
        1
176
     1
 40
0.5
176
     1
 40
30.0
176
     1
 62
     7
420
 16777215
176
     1
 90
        1
176
     1
 90
        0
176
     1
 62
     7
176
     1
 62
   257
176
     1
 90
        1
176
     1
 90
        1
176
     1
 40
1.0
176
     1
 90
        8
176
     1
 62
     7
176
     1
 40
1.0
176
     1
 90
        1
176
     1
 90
        6
176
     1
 90
        2
176
     1
 62
     7
176
     1
 90
        3
176
     1
 90
        0
176
     1
 90
        0
176
     1
290
     0
176
     1
 90
       13
176
     1
 40
0.0
176
     1
 90
        0
176
     1
290
     0
176
     1
290
     1
176
     1
290
     1
176
     1
290
     0
176
     1
290
     0
176
     1
290
     0
176
     1
290
     0
176
     1
290
     0
176
     1
290
     0
176
     1
 90
       50
176
     1
 40
0.0
176
     1
 40
1.0
176
     1
 90
        0
176
     1
 62
    18
420
        0
176
     1
 90
       50
176
     1
 90
        3
176
     1
 62
     5
420
      255
176
     1
290
     0
176
     1
 90
       50
176
     1
 90
       50
176
     1
 90
       50
176
     1
290
     0
176
     1
 90
       50
176
     1
 62
   256
176
     0
 40
1.0
176
     0
 90
        2
176
     1
  1
strokes_ogs.tif
176
     1
290
     0
176
     1
 40
1.0
176
     1
 40
1.0
176
     1
  0
DICTIONARYVAR
  5
1CC
102
{ACAD_REACTORS
330
1C9
102
}
330
1C9
100
DictionaryVariables
280
     0
  1
1:8
  0
DICTIONARYVAR
  5
1CB
102
{ACAD_REACTORS
330
1C9
102
}
330
1C9
100
DictionaryVariables
280
     0
  1
STANDARD
  0
DICTIONARYVAR
  5
1CA
102
{ACAD_REACTORS
330
1C9
102
}
330
1C9
100
DictionaryVariables
280
     0
  1
STANDARD
  0
DICTIONARYVAR
  5
1886
102
{ACAD_REACTORS
330
1C9
102
}
330
1C9
100
DictionaryVariables
280
     0
  1
Metric50
  0
DICTIONARYVAR
  5
1887
102
{ACAD_REACTORS
330
1C9
102
}
330
1C9
100
DictionaryVariables
280
     0
  1
Metric50
  0
DICTIONARYVAR
  5
1CF
102
{ACAD_REACTORS
330
1C9
102
}
330
1C9
100
DictionaryVariables
280
     0
  1
1
  0
DICTIONARYVAR
  5
1CE
102
{ACAD_REACTORS
330
1C9
102
}
330
1C9
100
DictionaryVariables
280
     0
  1
0
  0
DICTIONARYVAR
  5
1888
102
{ACAD_REACTORS
330
1C9
102
}
330
1C9
100
DictionaryVariables
280
     0
  1
1
  0
DICTIONARYVAR
  5
1889
102
{ACAD_REACTORS
330
1C9
102
}
330
1C9
100
DictionaryVariables
280
     0
  1
15
  0
DICTIONARYVAR
  5
2D3
102
{ACAD_REACTORS
330
1C9
102
}
330
1C9
100
DictionaryVariables
280
     0
  1
0
  0
DICTIONARYVAR
  5
2D2
102
{ACAD_REACTORS
330
1C9
102
}
330
1C9
100
DictionaryVariables
280
     0
  1
0
  0
DICTIONARYVAR
  5
1CD
102
{ACAD_REACTORS
330
1C9
102
}
330
1C9
100
DictionaryVariables
280
     0
  1
127
  0
DICTIONARY
  5
2B6
102
{ACAD_REACTORS
330
166
102
}
330
166
100
AcDbDictionary
281
     1
  0
DICTIONARY
  5
171
102
{ACAD_REACTORS
330
166
102
}
330
166
100
AcDbDictionary
281
     1
  0
XRECORD
  5
186
102
{ACAD_REACTORS
330
166
102
}
330
166
100
AcDbXrecord
280
     1
 90
-1023410169
  0
XRECORD
  5
1154
102
{ACAD_REACTORS
330
1153
102
}
330
1153
100
AcDbXrecord
280
     1
  0
DICTIONARY
  5
188D
330
180D
100
AcDbDictionary
280
     1
281
     1
  3
ACAD_XREC_ROUNDTRIP
360
188E
  0
DICTIONARY
  5
1A
330
19
100
AcDbDictionary
280
     1
281
     1
  3
ACAD_XREC_ROUNDTRIP
360
16FD
  3
BUMPTILE
360
1C
  3
DIFFUSETILE
360
1B
  3
OPACITYTILE
360
1F
  3
REFLECTIONTILE
360
1E
  3
REFRACTIONTILE
360
20
  3
SPECULARTILE
360
1D
  0
DICTIONARY
  5
12
330
11
100
AcDbDictionary
280
     1
281
     1
  3
ACAD_XREC_ROUNDTRIP
360
16FC
  3
BUMPTILE
360
14
  3
DIFFUSETILE
360
13
  3
OPACITYTILE
360
17
  3
REFLECTIONTILE
360
16
  3
REFRACTIONTILE
360
18
  3
SPECULARTILE
360
15
  0
DICTIONARY
  5
22
330
21
100
AcDbDictionary
280
     1
281
     1
  3
ACAD_XREC_ROUNDTRIP
360
16FE
  3
BUMPTILE
360
24
  3
DIFFUSETILE
360
23
  3
OPACITYTILE
360
27
  3
REFLECTIONTILE
360
26
  3
REFRACTIONTILE
360
28
  3
SPECULARTILE
360
25
  0
DICTIONARY
  5
188B
330
180B
100
AcDbDictionary
280
     1
281
     1
  3
ACAD_XREC_ROUNDTRIP
360
188C
  0
DICTIONARY
  5
1B2
330
6C
100
AcDbDictionary
280
     1
281
     1
  3
ACAD_ROUNDTRIP_2008_TABLESTYLE_CELLSTYLEMAP
360
188A
  0
XRECORD
  5
188E
102
{ACAD_REACTORS
330
188D
102
}
330
188D
100
AcDbXrecord
280
     1
102
DISPLAYNAME
  1
Metric50
102
FLAGS
 90
        0
  0
XRECORD
  5
16FD
102
{ACAD_REACTORS
330
1A
102
}
330
1A
100
AcDbXrecord
280
     1
102
MATERIAL
148
0.0
149
0.0
149
0.0
 93
        0
 94
      127
282
     0
 72
     0
 77
     0
171
     0
175
     0
179
     0
273
     0
  0
XRECORD
  5
1C
102
{ACAD_REACTORS
330
1A
102
}
330
1A
100
AcDbXrecord
280
     1
270
     1
271
     1
  0
XRECORD
  5
1B
102
{ACAD_REACTORS
330
1A
102
}
330
1A
100
AcDbXrecord
280
     1
270
     1
271
     1
  0
XRECORD
  5
1F
102
{ACAD_REACTORS
330
1A
102
}
330
1A
100
AcDbXrecord
280
     1
270
     1
271
     1
  0
XRECORD
  5
1E
102
{ACAD_REACTORS
330
1A
102
}
330
1A
100
AcDbXrecord
280
     1
270
     1
271
     1
  0
XRECORD
  5
20
102
{ACAD_REACTORS
330
1A
102
}
330
1A
100
AcDbXrecord
280
     1
270
     1
271
     1
  0
XRECORD
  5
1D
102
{ACAD_REACTORS
330
1A
102
}
330
1A
100
AcDbXrecord
280
     1
270
     1
271
     1
  0
XRECORD
  5
16FC
102
{ACAD_REACTORS
330
12
102
}
330
12
100
AcDbXrecord
280
     1
102
MATERIAL
148
0.0
149
0.0
149
0.0
 93
        0
 94
      127
282
     0
 72
     0
 77
     0
171
     0
175
     0
179
     0
273
     0
  0
XRECORD
  5
14
102
{ACAD_REACTORS
330
12
102
}
330
12
100
AcDbXrecord
280
     1
270
     1
271
     1
  0
XRECORD
  5
13
102
{ACAD_REACTORS
330
12
102
}
330
12
100
AcDbXrecord
280
     1
270
     1
271
     1
  0
XRECORD
  5
17
102
{ACAD_REACTORS
330
12
102
}
330
12
100
AcDbXrecord
280
     1
270
     1
271
     1
  0
XRECORD
  5
16
102
{ACAD_REACTORS
330
12
102
}
330
12
100
AcDbXrecord
280
     1
270
     1
271
     1
  0
XRECORD
  5
18
102
{ACAD_REACTORS
330
12
102
}
330
12
100
AcDbXrecord
280
     1
270
     1
271
     1
  0
XRECORD
  5
15
102
{ACAD_REACTORS
330
12
102
}
330
12
100
AcDbXrecord
280
     1
270
     1
271
     1
  0
XRECORD
  5
16FE
102
{ACAD_REACTORS
330
22
102
}
330
22
100
AcDbXrecord
280
     1
102
MATERIAL
148
0.0
149
0.0
149
0.0
 93
        0
 94
      127
282
     0
 72
     0
 77
     0
171
     0
175
     0
179
     0
273
     0
  0
XRECORD
  5
24
102
{ACAD_REACTORS
330
22
102
}
330
22
100
AcDbXrecord
280
     1
270
     1
271
     1
  0
XRECORD
  5
23
102
{ACAD_REACTORS
330
22
102
}
330
22
100
AcDbXrecord
280
     1
270
     1
271
     1
  0
XRECORD
  5
27
102
{ACAD_REACTORS
330
22
102
}
330
22
100
AcDbXrecord
280
     1
270
     1
271
     1
  0
XRECORD
  5
26
102
{ACAD_REACTORS
330
22
102
}
330
22
100
AcDbXrecord
280
     1
270
     1
271
     1
  0
XRECORD
  5
28
102
{ACAD_REACTORS
330
22
102
}
330
22
100
AcDbXrecord
280
     1
270
     1
271
     1
  0
XRECORD
  5
25
102
{ACAD_REACTORS
330
22
102
}
330
22
100
AcDbXrecord
280
     1
270
     1
271
     1
  0
XRECORD
  5
188C
102
{ACAD_REACTORS
330
188B
102
}
330
188B
100
AcDbXrecord
280
     1
102
DISPLAYNAME
  1
Metric50
102
FLAGS
 90
        0
  0
CELLSTYLEMAP
  5
188A
102
{ACAD_REACTORS
330
1B2
102
}
330
1B2
100
AcDbCellStyleMap
 90
        3
300
CELLSTYLE
  1
TABLEFORMAT_BEGIN
 90
        5
170
     1
 91
        0
 92
    32768
 62
   257
 93
        1
300
CONTENTFORMAT
  1
CONTENTFORMAT_BEGIN
 90
        0
 91
        0
 92
      512
 93
        0
300

 40
0.0
140
1.0
 94
        5
 62
     0
340
5D
144
0.25
309
CONTENTFORMAT_END
171
     1
301
MARGIN
  1
CELLMARGIN_BEGIN
 40
0.06
 40
0.06
 40
0.06
 40
0.06
 40
0.18
 40
0.18
309
CELLMARGIN_END
 94
        6
 95
        1
302
GRIDFORMAT
  1
GRIDFORMAT_BEGIN
 90
        0
 91
        1
 62
     0
 92
       -2
340
0
 93
        0
 40
0.045
309
GRIDFORMAT_END
 95
        2
302
GRIDFORMAT
  1
GRIDFORMAT_BEGIN
 90
        0
 91
        1
 62
     0
 92
       -2
340
0
 93
        0
 40
0.045
309
GRIDFORMAT_END
 95
        4
302
GRIDFORMAT
  1
GRIDFORMAT_BEGIN
 90
        0
 91
        1
 62
     0
 92
       -2
340
0
 93
        0
 40
0.045
309
GRIDFORMAT_END
 95
        8
302
GRIDFORMAT
  1
GRIDFORMAT_BEGIN
 90
        0
 91
        1
 62
     0
 92
       -2
340
0
 93
        0
 40
0.045
309
GRIDFORMAT_END
 95
       16
302
GRIDFORMAT
  1
GRIDFORMAT_BEGIN
 90
        0
 91
        1
 62
     0
 92
       -2
340
0
 93
        0
 40
0.045
309
GRIDFORMAT_END
 95
       32
302
GRIDFORMAT
  1
GRIDFORMAT_BEGIN
 90
        0
 91
        1
 62
     0
 92
       -2
340
0
 93
        0
 40
0.045
309
GRIDFORMAT_END
309
TABLEFORMAT_END
  1
CELLSTYLE_BEGIN
 90
        1
 91
        1
300
_TITLE
309
CELLSTYLE_END
300
CELLSTYLE
  1
TABLEFORMAT_BEGIN
 90
        5
170
     1
 91
        0
 92
        0
 62
   257
 93
        1
300
CONTENTFORMAT
  1
CONTENTFORMAT_BEGIN
 90
        0
 91
        0
 92
      512
 93
        0
300

 40
0.0
140
1.0
 94
        5
 62
     0
340
5D
144
0.18
309
CONTENTFORMAT_END
171
     1
301
MARGIN
  1
CELLMARGIN_BEGIN
 40
0.06
 40
0.06
 40
0.06
 40
0.06
 40
0.18
 40
0.18
309
CELLMARGIN_END
 94
        6
 95
        1
302
GRIDFORMAT
  1
GRIDFORMAT_BEGIN
 90
        0
 91
        1
 62
     0
 92
       -2
340
0
 93
        0
 40
0.045
309
GRIDFORMAT_END
 95
        2
302
GRIDFORMAT
  1
GRIDFORMAT_BEGIN
 90
        0
 91
        1
 62
     0
 92
       -2
340
0
 93
        0
 40
0.045
309
GRIDFORMAT_END
 95
        4
302
GRIDFORMAT
  1
GRIDFORMAT_BEGIN
 90
        0
 91
        1
 62
     0
 92
       -2
340
0
 93
        0
 40
0.045
309
GRIDFORMAT_END
 95
        8
302
GRIDFORMAT
  1
GRIDFORMAT_BEGIN
 90
        0
 91
        1
 62
     0
 92
       -2
340
0
 93
        0
 40
0.045
309
GRIDFORMAT_END
 95
       16
302
GRIDFORMAT
  1
GRIDFORMAT_BEGIN
 90
        0
 91
        1
 62
     0
 92
       -2
340
0
 93
        0
 40
0.045
309
GRIDFORMAT_END
 95
       32
302
GRIDFORMAT
  1
GRIDFORMAT_BEGIN
 90
        0
 91
        1
 62
     0
 92
       -2
340
0
 93
        0
 40
0.045
309
GRIDFORMAT_END
309
TABLEFORMAT_END
  1
CELLSTYLE_BEGIN
 90
        2
 91
        1
300
_HEADER
309
CELLSTYLE_END
300
CELLSTYLE
  1
TABLEFORMAT_BEGIN
 90
        5
170
     1
 91
        0
 92
        0
 62
   257
 93
        1
300
CONTENTFORMAT
  1
CONTENTFORMAT_BEGIN
 90
        0
 91
        0
 92
      512
 93
        0
300

 40
0.0
140
1.0
 94
        2
 62
     0
340
5D
144
0.18
309
CONTENTFORMAT_END
171
     1
301
MARGIN
  1
CELLMARGIN_BEGIN
 40
0.06
 40
0.06
 40
0.06
 40
0.06
 40
0.18
 40
0.18
309
CELLMARGIN_END
 94
        6
 95
        1
302
GRIDFORMAT
  1
GRIDFORMAT_BEGIN
 90
        0
 91
        1
 62
     0
 92
       -2
340
0
 93
        0
 40
0.045
309
GRIDFORMAT_END
 95
        2
302
GRIDFORMAT
  1
GRIDFORMAT_BEGIN
 90
        0
 91
        1
 62
     0
 92
       -2
340
0
 93
        0
 40
0.045
309
GRIDFORMAT_END
 95
        4
302
GRIDFORMAT
  1
GRIDFORMAT_BEGIN
 90
        0
 91
        1
 62
     0
 92
       -2
340
0
 93
        0
 40
0.045
309
GRIDFORMAT_END
 95
        8
302
GRIDFORMAT
  1
GRIDFORMAT_BEGIN
 90
        0
 91
        1
 62
     0
 92
       -2
340
0
 93
        0
 40
0.045
309
GRIDFORMAT_END
 95
       16
302
GRIDFORMAT
  1
GRIDFORMAT_BEGIN
 90
        0
 91
        1
 62
     0
 92
       -2
340
0
 93
        0
 40
0.045
309
GRIDFORMAT_END
 95
       32
302
GRIDFORMAT
  1
GRIDFORMAT_BEGIN
 90
        0
 91
        1
 62
     0
 92
       -2
340
0
 93
        0
 40
0.045
309
GRIDFORMAT_END
309
TABLEFORMAT_END
  1
CELLSTYLE_BEGIN
 90
        3
 91
        2
300
_DATA
309
CELLSTYLE_END
  0
ENDSEC
  0
SECTION
  2
ACDSDATA
 70
     2
 71
     8
  0
ACDSSCHEMA
 90
        0
  1
AcDb_Thumbnail_Schema
  2
AcDbDs::ID
280
    10
 91
        8
  2
Thumbnail_Data
280
    15
 91
        0
101
ACDSRECORD
 95
        0
 90
        1
  2
AcDbDs::TreatedAsObjectData
280
     1
291
     1
101
ACDSRECORD
 95
        0
 90
        2
  2
AcDbDs::Legacy
280
     1
291
     1
101
ACDSRECORD
  1
AcDbDs::ID
 90
        3
  2
AcDs:Indexable
280
     1
291
     1
101
ACDSRECORD
  1
AcDbDs::ID
 90
        4
  2
AcDbDs::HandleAttribute
280
     7
282
     1
  0
ACDSSCHEMA
 90
        1
  1
AcDbDs::TreatedAsObjectDataSchema
  2
AcDbDs::TreatedAsObjectData
280
     1
 91
        0
  0
ACDSSCHEMA
 90
        2
  1
AcDbDs::LegacySchema
  2
AcDbDs::Legacy
280
     1
 91
        0
  0
ACDSSCHEMA
 90
        3
  1
AcDbDs::IndexedPropertySchema
  2
AcDs:Indexable
280
     1
 91
        0
  0
ACDSSCHEMA
 90
        4
  1
AcDbDs::HandleAttributeSchema
  2
AcDbDs::HandleAttribute
280
     7
 91
        1
284
     1
  0
ACDSRECORD
 90
        0
  2
AcDbDs::ID
280
    10
320
77
  2
Thumbnail_Data
280
    15
 94
     1396
310
89504E470D0A1A0A0000000D4948445200000100000000770803000000DBFC6E9900000300504C5445000000000000C8C8C80000000000000000000000000000000000000000000000000000330000660000990000CC0000FF0033000033330033660033990033CC0033FF0066000066330066660066990066CC0066FF0099
310
000099330099660099990099CC0099FF00CC0000CC3300CC6600CC9900CCCC00CCFF00FF0000FF3300FF6600FF9900FFCC00FFFF3300003300333300663300993300CC3300FF3333003333333333663333993333CC3333FF3366003366333366663366993366CC3366FF3399003399333399663399993399CC3399FF33CC00
310
33CC3333CC6633CC9933CCCC33CCFF33FF0033FF3333FF6633FF9933FFCC33FFFF6600006600336600666600996600CC6600FF6633006633336633666633996633CC6633FF6666006666336666666666996666CC6666FF6699006699336699666699996699CC6699FF66CC0066CC3366CC6666CC9966CCCC66CCFF66FF0066
310
FF3366FF6666FF9966FFCC66FFFF9900009900339900669900999900CC9900FF9933009933339933669933999933CC9933FF9966009966339966669966999966CC9966FF9999009999339999669999999999CC9999FF99CC0099CC3399CC6699CC9999CCCC99CCFF99FF0099FF3399FF6699FF9999FFCC99FFFFCC0000CC00
310
33CC0066CC0099CC00CCCC00FFCC3300CC3333CC3366CC3399CC33CCCC33FFCC6600CC6633CC6666CC6699CC66CCCC66FFCC9900CC9933CC9966CC9999CC99CCCC99FFCCCC00CCCC33CCCC66CCCC99CCCCCCCCCCFFCCFF00CCFF33CCFF66CCFF99CCFFCCCCFFFFFF0000FF0033FF0066FF0099FF00CCFF00FFFF3300FF3333
310
FF3366FF3399FF33CCFF33FFFF6600FF6633FF6666FF6699FF66CCFF66FFFF9900FF9933FF9966FF9999FF99CCFF99FFFFCC00FFCC33FFCC66FFCC99FFCCCCFFCCFFFFFF00FFFF33FFFF66FFFF99FFFFCCFFFFFF0000000D0D0D1A1A1A2828283535354343435050505D5D5D6B6B6B787878868686939393A1A1A1AEAEAEBB
310
BBBBC9C9C9D6D6D6E4E4E4F1F1F1FFFFFF00000000000000000000000000000000000000000000000000000000000008F1915C0000022F4944415478DAED9D4172C4200C04F51C5DF8FF03F846BEA17B0CD8866559875C5229B5A692AD5CA77700591822F21732016A306D4C00D6FFC203102A001B440460AF6A40C8003CF9
310
FF9A35BB5FCBCFF7FB0CC0BFFF6700C5ABAA6BFF3F0DFF6E7F580E5C795C8CFBAED3FE59008C9F0800AA6203001B3E09000EFB3DF1E308608CFE6A7F5E0D5CFAD7B516D540CECC4AB80228E6EB2FF679E870DF7E44A81168020390000007502401000B40B7EA05D711909A80A98A123A00854D021E013CB70403C00D40B2D3
310
3920006CB80F000120003400195B087DD814F10060AFC6B77C25C0200998BBC205800808C0648E08E0C59DE339607318D8D4116B8B86FB5540E9007A08A800EE1070019C21000368214003283EDD02D8EA86945765D8004A08E0004C75B135E80D803CF6030A0234809C950BC0EFC3D02E005C43E40D40F60A606FD3DBEE96
310
282301CA9903367A21D72A503605FCAD02BB21E00198CC15E73000735BB8CE812800AF4D51AF009EAB20A503E80EA900EE6180057099FC00401D01F81C023A80D6152603A8E7E7168F42A47E80E25F962E67489D1ADBFC5A4D4147055608602706950EE08D00EFD0E8EAF4AC083704C81B74149E80F93531E44D6A4A073074
310
44A0007A47847A77C2DD11E102383B2260007518A0015C372A09594A0760012000048000100002001A804402E00424140A8542A15028140A1195E0FEE14F8387FD84466092724E060E00F972FD63FEEBA226207BFD0F1BBF2290C893A0A594F10B616C0C4429FC8FF50DDF1B0CAA4651D7650000000049454E44AE426082
  0
ENDSEC
  0
EOF
