  0
SECTION
  2
HEADER
  9
$ACADVER
  1
AC1027
  9
$ACADMAINTVER
 70
   105
  9
$DWGCODEPAGE
  3
ANSI_1252
  9
$LASTSAVEDBY
  1
guzb562
  9
$REQUIREDVERSIONS
160
                 0
  9
$INSBASE
 10
0.0
 20
0.0
 30
0.0
  9
$EXTMIN
 10
4171.801782226888
 20
3024.382341569733
 30
-508.8161185357875
  9
$EXTMAX
 10
4445.452895813451
 20
4390.738232241405
 30
0.0155285464893496
  9
$LIMMIN
 10
0.0
 20
0.0
  9
$LIMMAX
 10
8400.0
 20
5940.0
  9
$ORTHOMODE
 70
     0
  9
$REGENMODE
 70
     1
  9
$FILLMODE
 70
     1
  9
$QTEXTMODE
 70
     0
  9
$MIRRTEXT
 70
     1
  9
$LTSCALE
 40
20.0
  9
$ATTMODE
 70
     1
  9
$TEXTSIZE
 40
3.5
  9
$TRACEWID
 40
1.0
  9
$TEXTSTYLE
  7
STANDARD
  9
$CLAYER
  8
AM_0 ( Kontur 0.5 )
  9
$CELTYPE
  6
ByLayer
  9
$CECOLOR
 62
   256
  9
$CELTSCALE
 40
1.0
  9
$DISPSILH
 70
     0
  9
$DIMSCALE
 40
1.0
  9
$DIMASZ
 40
5.0
  9
$DIMEXO
 40
1.0
  9
$DIMDLI
 40
10.0
  9
$DIMRND
 40
0.0
  9
$DIMDLE
 40
0.0
  9
$DIMEXE
 40
1.0
  9
$DIMTP
 40
0.1
  9
$DIMTM
 40
0.1
  9
$DIMTXT
 40
5.0
  9
$DIMCEN
 40
0.0
  9
$DIMTSZ
 40
0.0
  9
$DIMTOL
 70
     0
  9
$DIMLIM
 70
     0
  9
$DIMTIH
 70
     0
  9
$DIMTOH
 70
     0
  9
$DIMSE1
 70
     0
  9
$DIMSE2
 70
     0
  9
$DIMTAD
 70
     1
  9
$DIMZIN
 70
     8
  9
$DIMBLK
  1

  9
$DIMASO
 70
     1
  9
$DIMSHO
 70
     1
  9
$DIMPOST
  1

  9
$DIMAPOST
  1
"
  9
$DIMALT
 70
     0
  9
$DIMALTD
 70
     2
  9
$DIMALTF
 40
0.0393701
  9
$DIMLFAC
 40
1.0
  9
$DIMTOFL
 70
     1
  9
$DIMTVP
 40
0.0
  9
$DIMTIX
 70
     0
  9
$DIMSOXD
 70
     0
  9
$DIMSAH
 70
     0
  9
$DIMBLK1
  1

  9
$DIMBLK2
  1

  9
$DIMSTYLE
  2
AM_DIN
  9
$DIMCLRD
 70
   256
  9
$DIMCLRE
 70
   256
  9
$DIMCLRT
 70
     2
  9
$DIMTFAC
 40
0.71
  9
$DIMGAP
 40
1.5
  9
$DIMJUST
 70
     0
  9
$DIMSD1
 70
     0
  9
$DIMSD2
 70
     0
  9
$DIMTOLJ
 70
     0
  9
$DIMTZIN
 70
     8
  9
$DIMALTZ
 70
     0
  9
$DIMALTTZ
 70
     0
  9
$DIMUPT
 70
     0
  9
$DIMDEC
 70
     2
  9
$DIMTDEC
 70
     2
  9
$DIMALTU
 70
     2
  9
$DIMALTTD
 70
     2
  9
$DIMTXSTY
  7
STANDARD
  9
$DIMAUNIT
 70
     0
  9
$DIMADEC
 70
     0
  9
$DIMALTRND
 40
0.0
  9
$DIMAZIN
 70
     2
  9
$DIMDSEP
 70
    46
  9
$DIMATFIT
 70
     3
  9
$DIMFRAC
 70
     0
  9
$DIMLDRBLK
  1

  9
$DIMLUNIT
 70
     2
  9
$DIMLWD
 70
    -1
  9
$DIMLWE
 70
    -1
  9
$DIMTMOVE
 70
     0
  9
$DIMFXL
 40
1.0
  9
$DIMFXLON
 70
     0
  9
$DIMJOGANG
 40
1.570796326794896
  9
$DIMTFILL
 70
     0
  9
$DIMTFILLCLR
 70
     0
  9
$DIMARCSYM
 70
     0
  9
$DIMLTYPE
  6

  9
$DIMLTEX1
  6

  9
$DIMLTEX2
  6

  9
$DIMTXTDIRECTION
 70
     0
  9
$LUNITS
 70
     2
  9
$LUPREC
 70
     2
  9
$SKETCHINC
 40
1.0
  9
$FILLETRAD
 40
2.0
  9
$AUNITS
 70
     0
  9
$AUPREC
 70
     0
  9
$MENU
  1
ACAD
  9
$ELEVATION
 40
0.0
  9
$PELEVATION
 40
0.0
  9
$THICKNESS
 40
0.0
  9
$LIMCHECK
 70
     0
  9
$CHAMFERA
 40
50.0
  9
$CHAMFERB
 40
50.0
  9
$CHAMFERC
 40
0.0
  9
$CHAMFERD
 40
0.0
  9
$SKPOLY
 70
     0
  9
$TDCREATE
 40
2454720.408622477
  9
$TDUCREATE
 40
2454720.366955811
  9
$TDUPDATE
 40
2458150.427266412
  9
$TDUUPDATE
 40
2458150.385599746
  9
$TDINDWG
 40
0.0706781481
  9
$TDUSRTIMER
 40
0.0706767130
  9
$USRTIMER
 70
     1
  9
$ANGBASE
 50
0.0
  9
$ANGDIR
 70
     0
  9
$PDMODE
 70
     0
  9
$PDSIZE
 40
0.0
  9
$PLINEWID
 40
0.0
  9
$SPLFRAME
 70
     0
  9
$SPLINETYPE
 70
     6
  9
$SPLINESEGS
 70
    12
  9
$HANDSEED
  5
40EB
  9
$SURFTAB1
 70
     6
  9
$SURFTAB2
 70
     6
  9
$SURFTYPE
 70
     6
  9
$SURFU
 70
     6
  9
$SURFV
 70
     6
  9
$UCSBASE
  2

  9
$UCSNAME
  2

  9
$UCSORG
 10
0.0
 20
0.0
 30
0.0
  9
$UCSXDIR
 10
1.0
 20
0.0
 30
0.0
  9
$UCSYDIR
 10
0.0
 20
1.0
 30
0.0
  9
$UCSORTHOREF
  2

  9
$UCSORTHOVIEW
 70
     0
  9
$UCSORGTOP
 10
0.0
 20
0.0
 30
0.0
  9
$UCSORGBOTTOM
 10
0.0
 20
0.0
 30
0.0
  9
$UCSORGLEFT
 10
0.0
 20
0.0
 30
0.0
  9
$UCSORGRIGHT
 10
0.0
 20
0.0
 30
0.0
  9
$UCSORGFRONT
 10
0.0
 20
0.0
 30
0.0
  9
$UCSORGBACK
 10
0.0
 20
0.0
 30
0.0
  9
$PUCSBASE
  2

  9
$PUCSNAME
  2

  9
$PUCSORG
 10
0.0
 20
0.0
 30
0.0
  9
$PUCSXDIR
 10
1.0
 20
0.0
 30
0.0
  9
$PUCSYDIR
 10
0.0
 20
1.0
 30
0.0
  9
$PUCSORTHOREF
  2

  9
$PUCSORTHOVIEW
 70
     0
  9
$PUCSORGTOP
 10
0.0
 20
0.0
 30
0.0
  9
$PUCSORGBOTTOM
 10
0.0
 20
0.0
 30
0.0
  9
$PUCSORGLEFT
 10
0.0
 20
0.0
 30
0.0
  9
$PUCSORGRIGHT
 10
0.0
 20
0.0
 30
0.0
  9
$PUCSORGFRONT
 10
0.0
 20
0.0
 30
0.0
  9
$PUCSORGBACK
 10
0.0
 20
0.0
 30
0.0
  9
$USERI1
 70
     0
  9
$USERI2
 70
     0
  9
$USERI3
 70
     0
  9
$USERI4
 70
     0
  9
$USERI5
 70
     0
  9
$USERR1
 40
0.0
  9
$USERR2
 40
0.0
  9
$USERR3
 40
0.0
  9
$USERR4
 40
0.0
  9
$USERR5
 40
0.0
  9
$WORLDVIEW
 70
     1
  9
$SHADEDGE
 70
     3
  9
$SHADEDIF
 70
    70
  9
$TILEMODE
 70
     1
  9
$MAXACTVP
 70
    64
  9
$PINSBASE
 10
0.0
 20
0.0
 30
0.0
  9
$PLIMCHECK
 70
     0
  9
$PEXTMIN
 10
1.000000000000000E+20
 20
1.000000000000000E+20
 30
1.000000000000000E+20
  9
$PEXTMAX
 10
-1.000000000000000E+20
 20
-1.000000000000000E+20
 30
-1.000000000000000E+20
  9
$PLIMMIN
 10
0.0
 20
0.0
  9
$PLIMMAX
 10
12.0
 20
9.0
  9
$UNITMODE
 70
     0
  9
$VISRETAIN
 70
     1
  9
$PLINEGEN
 70
     0
  9
$PSLTSCALE
 70
     1
  9
$TREEDEPTH
 70
  3020
  9
$CMLSTYLE
  2
Standard
  9
$CMLJUST
 70
     0
  9
$CMLSCALE
 40
1.0
  9
$PROXYGRAPHICS
 70
     1
  9
$MEASUREMENT
 70
     1
  9
$CELWEIGHT
370
    -1
  9
$ENDCAPS
280
     0
  9
$JOINSTYLE
280
     0
  9
$LWDISPLAY
290
     0
  9
$INSUNITS
 70
     4
  9
$HYPERLINKBASE
  1

  9
$STYLESHEET
  1

  9
$XEDIT
290
     1
  9
$CEPSNTYPE
380
     0
  9
$PSTYLEMODE
290
     1
  9
$FINGERPRINTGUID
  2
{EE3A4C8B-CB95-4292-8B86-E419C7FA8982}
  9
$VERSIONGUID
  2
{3E03486B-72EB-48A8-A2D9-7A3BEAEB08E6}
  9
$EXTNAMES
290
     1
  9
$PSVPSCALE
 40
0.0
  9
$OLESTARTUP
290
     0
  9
$SORTENTS
280
   127
  9
$INDEXCTL
280
     0
  9
$HIDETEXT
280
     0
  9
$XCLIPFRAME
280
     0
  9
$HALOGAP
280
     0
  9
$OBSCOLOR
 70
   257
  9
$OBSLTYPE
280
     0
  9
$INTERSECTIONDISPLAY
280
     0
  9
$INTERSECTIONCOLOR
 70
   257
  9
$DIMASSOC
280
     2
  9
$PROJECTNAME
  1

  9
$CAMERADISPLAY
290
     0
  9
$LENSLENGTH
 40
50.0
  9
$CAMERAHEIGHT
 40
0.0
  9
$STEPSPERSEC
 40
2.0
  9
$STEPSIZE
 40
6.0
  9
$3DDWFPREC
 40
2.0
  9
$PSOLWIDTH
 40
0.25
  9
$PSOLHEIGHT
 40
4.0
  9
$LOFTANG1
 40
1.570796326794896
  9
$LOFTANG2
 40
1.570796326794896
  9
$LOFTMAG1
 40
0.0
  9
$LOFTMAG2
 40
0.0
  9
$LOFTPARAM
 70
     7
  9
$LOFTNORMALS
280
     1
  9
$LATITUDE
 40
37.795
  9
$LONGITUDE
 40
-122.394
  9
$NORTHDIRECTION
 40
0.0
  9
$TIMEZONE
 70
 -8000
  9
$LIGHTGLYPHDISPLAY
280
     1
  9
$TILEMODELIGHTSYNCH
280
     1
  9
$CMATERIAL
347
11
  9
$SOLIDHIST
280
     1
  9
$SHOWHIST
280
     1
  9
$DWFFRAME
280
     2
  9
$DGNFRAME
280
     0
  9
$REALWORLDSCALE
290
     1
  9
$INTERFERECOLOR
 62
     1
  9
$INTERFEREOBJVS
345
33
  9
$INTERFEREVPVS
346
30
  9
$CSHADOW
280
     0
  9
$SHADOWPLANELOCATION
 40
0.0
  0
ENDSEC
  0
SECTION
  2
CLASSES
  0
CLASS
  1
ACDBDICTIONARYWDFLT
  2
AcDbDictionaryWithDefault
  3
ObjectDBX Classes
 90
        0
 91
        1
280
     0
281
     0
  0
CLASS
  1
MATERIAL
  2
AcDbMaterial
  3
ObjectDBX Classes
 90
     1153
 91
        3
280
     0
281
     0
  0
CLASS
  1
VISUALSTYLE
  2
AcDbVisualStyle
  3
ObjectDBX Classes
 90
     4095
 91
       26
280
     0
281
     0
  0
CLASS
  1
SCALE
  2
AcDbScale
  3
ObjectDBX Classes
 90
     1153
 91
       33
280
     0
281
     0
  0
CLASS
  1
TABLESTYLE
  2
AcDbTableStyle
  3
ObjectDBX Classes
 90
     4095
 91
        1
280
     0
281
     0
  0
CLASS
  1
MLEADERSTYLE
  2
AcDbMLeaderStyle
  3
ACDB_MLEADERSTYLE_CLASS
 90
     4095
 91
        1
280
     0
281
     0
  0
CLASS
  1
AMGSETTINGSOBJ
  2
AmgSettingsObj
  3
"AcadM|Product Description: AutoCAD Mechanical|Company: Autodesk, Inc."
 90
     1024
 91
        2
280
     0
281
     0
  0
CLASS
  1
ACME_DOCUMENT
  2
AcMeDbDoc
  3
AcMeServices
 90
     1024
 91
        2
280
     0
281
     0
  0
CLASS
  1
ACMESCOPE
  2
AcMeScope
  3
AcMeServices
 90
     1024
 91
        1
280
     0
281
     0
  0
CLASS
  1
ACMECOMMANDHISTORY
  2
AcMeCommandHistory
  3
AcMeServices
 90
     1024
 91
        1
280
     0
281
     0
  0
CLASS
  1
ACIMSYSVARMAN
  2
AcImSysVarManager
  3
AcMeServices
 90
     1024
 91
        5
280
     0
281
     0
  0
CLASS
  1
ACIMINTSYSVAR
  2
AcImIntSysVar
  3
AcMeServices
 90
     1024
 91
       28
280
     0
281
     0
  0
CLASS
  1
ACMEDRAWINGMAN
  2
AcMeDrawingMan
  3
AcMeServices
 90
     1024
 91
        2
280
     0
281
     0
  0
CLASS
  1
ACMEVIEW
  2
AcMeView
  3
AcMeServices
 90
     1024
 91
        2
280
     0
281
     0
  0
CLASS
  1
ACDBENTITYCACHE
  2
AcMeEntityCache
  3
AcMeServices
 90
     1024
 91
        1
280
     0
281
     0
  0
CLASS
  1
GSMANAGER
  2
AcMeGSManager
  3
AcMeServices
 90
     1024
 91
        0
280
     0
281
     0
  0
CLASS
  1
AMDTINTERNALREACTOR
  2
AmdtInternalReactor
  3
AcMeServices
 90
     1024
 91
        1
280
     0
281
     0
  0
CLASS
  1
ACMESTATEMGR
  2
AcMeStateMgr
  3
AcMeServices
 90
     1024
 91
        1
280
     0
281
     0
  0
CLASS
  1
ACGREFMASTER
  2
AcGrefMaster
  3
AcAttribServices
 90
     1024
 91
        1
280
     0
281
     0
  0
CLASS
  1
AM_DRAWING_MGR
  2
AcDmDwgMgr
  3
AcMechDwgViewMgmt
 90
     1024
 91
        1
280
     0
281
     0
  0
CLASS
  1
AM_DWG_DOCUMENT
  2
AcDmDwgDocument
  3
AcMechDwgViewMgmt
 90
     1024
 91
        1
280
     0
281
     0
  0
CLASS
  1
AM_DWG_SHEET
  2
AcDmSheet
  3
AcMechDwgViewMgmt
 90
     1024
 91
        1
280
     0
281
     0
  0
CLASS
  1
AM_VIEWDIMPARMAP
  2
AcDmViewDimParMap
  3
AcMechDwgViewMgmt
 90
     1024
 91
        1
280
     0
281
     0
  0
CLASS
  1
ACIMREALSYSVAR
  2
AcImRealSysVar
  3
AcMeServices
 90
     1024
 91
        1
280
     0
281
     0
  0
CLASS
  1
AM_DWGMGR_NAME
  2
AcDmDwgMgrName
  3
AcMechDwgViewMgmt
 90
     1024
 91
        1
280
     0
281
     0
  0
CLASS
  1
ACME_DATABASE
  2
AcMeDbDatabase
  3
AcMeServices
 90
     1024
 91
        1
280
     0
281
     0
  0
CLASS
  1
ACRFINSADJUSTERMGR
  2
AcRfInsAdjusterMgr
  3
AcMeServices
 90
     1024
 91
        1
280
     0
281
     0
  0
CLASS
  1
ACGREFACADMASTER
  2
AcGrefacadMaster
  3
AcGrefServices
 90
     1024
 91
        1
280
     0
281
     0
  0
CLASS
  1
AMDTMENUSTATEMGR
  2
AmdtMenuStateMgr
  3
McadcomServices
 90
     1024
 91
        1
280
     0
281
     0
  0
CLASS
  1
AMDTMCOMMENUSTATE
  2
AmdtMcomMenuState
  3
McadcomServices
 90
     1024
 91
        1
280
     0
281
     0
  0
CLASS
  1
AMIMASTER
  2
AmiMaster
  3
AmiServices
 90
     1024
 91
        1
280
     0
281
     0
  0
CLASS
  1
MAPIAMMOUDLE
  2
MApiAmModule
  3
MApiAmServices
 90
     1024
 91
        1
280
     0
281
     0
  0
CLASS
  1
ACIMSTRSYSVAR
  2
AcImStrSysVar
  3
AcMeServices
 90
     1024
 91
        5
280
     0
281
     0
  0
CLASS
  1
AMDTADMENUSTATE
  2
AmdtAdMenuState
  3
DesignerServices
 90
     1024
 91
        0
280
     0
281
     0
  0
CLASS
  1
ADAPPL
  2
AcAdAppl
  3
DesignerAssemblies
 90
     1024
 91
        2
280
     0
281
     0
  0
CLASS
  1
DEPMGR
  2
AcAdDepMgr
  3
DesignerAssemblies
 90
     1024
 91
        2
280
     0
281
     0
  0
CLASS
  1
PARAMMGR
  2
AcAdParamMgr
  3
DesignerAssemblies
 90
     1024
 91
        2
280
     0
281
     0
  0
CLASS
  1
PARAMSCOPE
  2
AcAdParamScope
  3
DesignerAssemblies
 90
     1024
 91
        2
280
     0
281
     0
  0
CLASS
  1
NAMEDAPPL
  2
AcAdNamedAppl
  3
DesignerAssemblies
 90
     1024
 91
        2
280
     0
281
     0
  0
CLASS
  1
AMDTDMMENUSTATE
  2
AmdtDmMenuState
  3
AcMechDwgViewMgmt
 90
     1024
 91
        0
280
     0
281
     0
  0
CLASS
  1
AMDTAMMENUSTATE
  2
AmdtAmMenuState
  3
DesignerAssemblies
 90
     1024
 91
        1
280
     0
281
     0
  0
CLASS
  1
ACAMPROJECT
  2
AcAmProject
  3
DesignerAssemblies
 90
     1024
 91
        1
280
     0
281
     0
  0
CLASS
  1
ACAMGRCOMPDEF
  2
AcAmGrCompDef
  3
DesignerAssemblies
 90
     1024
 91
        1
280
     0
281
     0
  0
CLASS
  1
ACCMCONTEXT
  2
AcCmContext
  3
DesignerAssemblies
 90
     1024
 91
        1
280
     0
281
     0
  0
CLASS
  1
ACAMCOMPDEF
  2
AcAmCompDef
  3
DesignerAssemblies
 90
     1024
 91
        1
280
     0
281
     0
  0
CLASS
  1
ACAMCOMPDEFMGR
  2
AcAmCompDefMgr
  3
DesignerAssemblies
 90
     1024
 91
        1
280
     0
281
     0
  0
CLASS
  1
AMCONTEXTMGR
  2
AcAmContextMgr
  3
DesignerAssemblies
 90
     1024
 91
        1
280
     0
281
     0
  0
CLASS
  1
ACAMCONTEXTMODELER
  2
AcAmContextModeler
  3
DesignerAssemblies
 90
     1024
 91
        1
280
     0
281
     0
  0
CLASS
  1
ACMDATADICTIONARY
  2
AcmDataDictionary
  3
"AcmSymBB|Product Description: AutoCAD Mechanical|Company: Autodesk, Inc."
 90
     1024
 91
        1
280
     0
281
     0
  0
CLASS
  1
CATALOGSTATE
  2
AcAmCatalogState
  3
DesignerAssemblies
 90
     1024
 91
        1
280
     0
281
     0
  0
CLASS
  1
ACAMGRCOMPDEFSET
  2
AcAmGrCompDefSet
  3
DesignerAssemblies
 90
     1024
 91
        1
280
     0
281
     0
  0
CLASS
  1
AMDTBROWSERDBTAB
  2
AmdtBrowserDbTab
  3
McadcomServices
 90
     1024
 91
        1
280
     0
281
     0
  0
CLASS
  1
CBROWSERAPPOBJECT
  2
CBrowserAppObject
  3
McadcomServices
 90
     1024
 91
        2
280
     0
281
     0
  0
CLASS
  1
DM_PLACEHOLDER
  2
AcDmSelsetPlaceholder
  3
McadcomServices
 90
     1024
 91
        1
280
     0
281
     0
  0
CLASS
  1
ACMSTANDARDANSI
  2
AcmStandardANSI
  3
"Amdt_StdImp|Product Description: AutoCAD Mechanical|Company: Autodesk, Inc."
 90
     1024
 91
        1
280
     0
281
     0
  0
CLASS
  1
AMGOBJPROPCFG
  2
AmgObjPropCfg
  3
"AmgLay|Product Description: AutoCAD Mechanical|Company: Autodesk, Inc."
 90
     1024
 91
        1
280
     0
281
     0
  0
CLASS
  1
ACMSURFSTANDARDANSI
  2
AcmSurfTextStdANSI
  3
"Amdt_StdImp|Product Description: AutoCAD Mechanical|Company: Autodesk, Inc."
 90
     1024
 91
        1
280
     0
281
     0
  0
CLASS
  1
ACMFCFSTANDARDANSI
  2
AcmFCFStdANSI
  3
"Amdt_StdImp|Product Description: AutoCAD Mechanical|Company: Autodesk, Inc."
 90
     1024
 91
        1
280
     0
281
     0
  0
CLASS
  1
ACMWELDSTANDARDANSI
  2
AcmWeldingStdANSI
  3
"Amdt_StdImp|Product Description: AutoCAD Mechanical|Company: Autodesk, Inc."
 90
     1024
 91
        1
280
     0
281
     0
  0
CLASS
  1
ACMIDSTANDARDANSI
  2
AcmIdStdANSI
  3
"Amdt_StdImp|Product Description: AutoCAD Mechanical|Company: Autodesk, Inc."
 90
     1024
 91
        1
280
     0
281
     0
  0
CLASS
  1
ACMDATUMSTANDARDANSI
  2
AcmDatumStdANSI
  3
"Amdt_StdImp|Product Description: AutoCAD Mechanical|Company: Autodesk, Inc."
 90
     1024
 91
        1
280
     0
281
     0
  0
CLASS
  1
ACMBOMSTANDARDANSI
  2
AcmBOMStdANSI
  3
"Amdt_StdImp|Product Description: AutoCAD Mechanical|Company: Autodesk, Inc."
 90
     1024
 91
        1
280
     0
281
     0
  0
CLASS
  1
ACMDETAILSTANDARDANSI
  2
AmdtDetailSymStdANSI
  3
"Amdt_StdImp|Product Description: AutoCAD Mechanical|Company: Autodesk, Inc."
 90
     1024
 91
        1
280
     0
281
     0
  0
CLASS
  1
ACMSECTIONSTANDARDANSI
  2
AmdtSectionSymStdANSI
  3
"Amdt_StdImp|Product Description: AutoCAD Mechanical|Company: Autodesk, Inc."
 90
     1024
 91
        1
280
     0
281
     0
  0
CLASS
  1
ACMCENTERLINESTANDARDANSI
  2
AmdtCenterLineStdANSI
  3
"Amdt_StdImp|Product Description: AutoCAD Mechanical|Company: Autodesk, Inc."
 90
     1024
 91
        1
280
     0
281
     0
  0
CLASS
  1
ACMTHREADLINESTANDARDANSI
  2
AmdtThreadLineStdANSI
  3
"Amdt_StdImp|Product Description: AutoCAD Mechanical|Company: Autodesk, Inc."
 90
     1024
 91
        1
280
     0
281
     0
  0
CLASS
  1
ACMNOTESTANDARDANSI
  2
AmdtNoteStdANSI
  3
"Amdt_StdImp|Product Description: AutoCAD Mechanical|Company: Autodesk, Inc."
 90
     1024
 91
        1
280
     0
281
     0
  0
CLASS
  1
ACMTAPERSTANDARDANSI
  2
AcmTaperStdANSI
  3
"Amdt_StdImp|Product Description: AutoCAD Mechanical|Company: Autodesk, Inc."
 90
     1024
 91
        1
280
     0
281
     0
  0
CLASS
  1
ACMANOOTATIONVIEWSTANDARDANSI
  2
AmdtAnViewStdANSI
  3
"Amdt_StdImp|Product Description: AutoCAD Mechanical|Company: Autodesk, Inc."
 90
     1024
 91
        1
280
     0
281
     0
  0
CLASS
  1
AMDTNOTETEMPLATEDB
  2
AmdtNoteTemplateDB
  3
AcmSymBB|Product Description: AutoCAD Mechanical|Company: Autodesk, Inc.
 90
     1024
 91
       18
280
     0
281
     0
  0
CLASS
  1
ACAMGLAYSTD
  2
AcAmgLayStd
  3
"AmgLay|Product Description: AutoCAD Mechanical|Company: Autodesk, Inc."
 90
     1024
 91
        3
280
     0
281
     0
  0
CLASS
  1
ACAMGDIMSTD
  2
AcAmgDimStd
  3
"AmgDim|Product Description: AutoCAD Mechanical|Company: Autodesk, Inc."
 90
     1024
 91
        3
280
     0
281
     0
  0
CLASS
  1
ACAMGHOLECHARTSTDANSI
  2
AcAmgHoleChartStdANSI
  3
AmgDim|Product Description: AutoCAD Mechanical|Company: Autodesk, Inc.
 90
     1024
 91
        1
280
     0
281
     0
  0
CLASS
  1
ACAMGTITLESTD
  2
AcAmgTitleStd
  3
"AmgTitle|Product Description: AutoCAD Mechanical|Company: Autodesk, Inc."
 90
     1024
 91
        3
280
     0
281
     0
  0
CLASS
  1
ACAMGFILTERDAT
  2
AcAmgFilterDat
  3
"AcadM|Product Description: AutoCAD Mechanical|Company: Autodesk, Inc."
 90
     1024
 91
        0
280
     0
281
     0
  0
CLASS
  1
CELLSTYLEMAP
  2
AcDbCellStyleMap
  3
ObjectDBX Classes
 90
     1152
 91
        2
280
     0
281
     0
  0
CLASS
  1
DICTIONARYVAR
  2
AcDbDictionaryVar
  3
ObjectDBX Classes
 90
        0
 91
       20
280
     0
281
     0
  0
CLASS
  1
ACMDATAENTRYPART
  2
AcmDataEntryPart
  3
AcmSymBB|Product Description: AutoCAD Mechanical|Company: Autodesk, Inc.
 90
     1024
 91
        0
280
     0
281
     0
  0
CLASS
  1
ACMPARTREF
  2
AcmPartRef
  3
"AcmSymBB|Product Description: AutoCAD Mechanical|Company: Autodesk, Inc."
 90
     1024
 91
        0
280
     0
281
     1
  0
CLASS
  1
ACDBLINERES
  2
AcDbLineRes
  3
AcGrefServices
 90
     1024
 91
        0
280
     0
281
     0
  0
CLASS
  1
ACMSTANDARDDIN
  2
AcmStandardDIN
  3
"Amdt_StdImp|Product Description: AutoCAD Mechanical|Company: Autodesk, Inc."
 90
     1024
 91
        1
280
     0
281
     0
  0
CLASS
  1
AMDTEDGESTANDARDDIN13715
  2
AmdtEdgeStdDIN13715
  3
"Amdt_StdImp|Product Description: AutoCAD Mechanical|Company: Autodesk, Inc."
 90
     1024
 91
        1
280
     0
281
     0
  0
CLASS
  1
ACMSURFSTANDARDDIN2002
  2
AcmSurfTextStdDIN2002
  3
"Amdt_StdImp|Product Description: AutoCAD Mechanical|Company: Autodesk, Inc."
 90
     1024
 91
        1
280
     0
281
     0
  0
CLASS
  1
ACMFCFSTANDARDDIN
  2
AcmFCFStdDIN
  3
"Amdt_StdImp|Product Description: AutoCAD Mechanical|Company: Autodesk, Inc."
 90
     1024
 91
        1
280
     0
281
     0
  0
CLASS
  1
ACMWELDSTANDARDDIN
  2
AcmWeldingStdDIN
  3
"Amdt_StdImp|Product Description: AutoCAD Mechanical|Company: Autodesk, Inc."
 90
     1024
 91
        1
280
     0
281
     0
  0
CLASS
  1
ACMIDSTANDARDDIN
  2
AcmIdStdDIN
  3
"Amdt_StdImp|Product Description: AutoCAD Mechanical|Company: Autodesk, Inc."
 90
     1024
 91
        1
280
     0
281
     0
  0
CLASS
  1
ACMDATUMSTANDARDDIN
  2
AcmDatumStdDIN
  3
"Amdt_StdImp|Product Description: AutoCAD Mechanical|Company: Autodesk, Inc."
 90
     1024
 91
        1
280
     0
281
     0
  0
CLASS
  1
ACMBOMSTANDARDDIN
  2
AcmBOMStdDIN
  3
"Amdt_StdImp|Product Description: AutoCAD Mechanical|Company: Autodesk, Inc."
 90
     1024
 91
        1
280
     0
281
     0
  0
CLASS
  1
ACMDETAILSTANDARDDIN
  2
AmdtDetailSymStdDIN
  3
"Amdt_StdImp|Product Description: AutoCAD Mechanical|Company: Autodesk, Inc."
 90
     1024
 91
        1
280
     0
281
     0
  0
CLASS
  1
ACMSECTIONSTANDARDDIN
  2
AmdtSectionSymStdDIN
  3
"Amdt_StdImp|Product Description: AutoCAD Mechanical|Company: Autodesk, Inc."
 90
     1024
 91
        1
280
     0
281
     0
  0
CLASS
  1
ACMCENTERLINESTANDARDDIN
  2
AmdtCenterLineStdDIN
  3
"Amdt_StdImp|Product Description: AutoCAD Mechanical|Company: Autodesk, Inc."
 90
     1024
 91
        1
280
     0
281
     0
  0
CLASS
  1
ACMTHREADLINESTANDARDDIN
  2
AmdtThreadLineStdDIN
  3
"Amdt_StdImp|Product Description: AutoCAD Mechanical|Company: Autodesk, Inc."
 90
     1024
 91
        1
280
     0
281
     0
  0
CLASS
  1
ACMNOTESTANDARDDIN
  2
AmdtNoteStdDIN
  3
"Amdt_StdImp|Product Description: AutoCAD Mechanical|Company: Autodesk, Inc."
 90
     1024
 91
        1
280
     0
281
     0
  0
CLASS
  1
ACMTAPERSTANDARDDIN
  2
AcmTaperStdDIN
  3
"Amdt_StdImp|Product Description: AutoCAD Mechanical|Company: Autodesk, Inc."
 90
     1024
 91
        1
280
     0
281
     0
  0
CLASS
  1
ACMANOOTATIONVIEWSTANDARDDIN
  2
AmdtAnViewStdDIN
  3
"Amdt_StdImp|Product Description: AutoCAD Mechanical|Company: Autodesk, Inc."
 90
     1024
 91
        1
280
     0
281
     0
  0
CLASS
  1
ACAMGHOLECHARTSTDDIN
  2
AcAmgHoleChartStdDIN
  3
AmgDim|Product Description: AutoCAD Mechanical|Company: Autodesk, Inc.
 90
     1024
 91
        1
280
     0
281
     0
  0
CLASS
  1
ACMDATAENTRYBLOCK
  2
AcmDataEntryBlock
  3
AcmSymBB|Product Description: AutoCAD Mechanical|Company: Autodesk, Inc.
 90
     1024
 91
        1
280
     0
281
     0
  0
CLASS
  1
ACMBOM
  2
AcmBom
  3
"AcmSymBB|Product Description: AutoCAD Mechanical|Company: Autodesk, Inc."
 90
     1024
 91
        1
280
     0
281
     0
  0
CLASS
  1
AMDTFORMULAUPDATEDISPATCHER
  2
AmdtFormulaUpdateDispatcher
  3
AcMeServices
 90
     1024
 91
        1
280
     0
281
     0
  0
CLASS
  1
ACMBOMROW
  2
AcmBomRow
  3
"AcmSymBB|Product Description: AutoCAD Mechanical|Company: Autodesk, Inc."
 90
     1024
 91
        0
280
     0
281
     0
  0
CLASS
  1
ACMPARTLIST
  2
AcmPartList
  3
"AcmSymBB|Product Description: AutoCAD Mechanical|Company: Autodesk, Inc."
 90
     1024
 91
        0
280
     0
281
     1
  0
CLASS
  1
CAMSSTRUCTBTNSTATE
  2
StructBtnState
  3
DesignerAssemblies
 90
     1024
 91
        1
280
     0
281
     0
  0
CLASS
  1
ACRFATTGENMGR
  2
AcRfAttGeneralMgr
  3
AcAttribServices
 90
     1024
 91
        1
280
     0
281
     0
  0
CLASS
  1
ACRFOBJATTMGR
  2
AcRfObjAttGroupMgr
  3
AcAttribServices
 90
     1024
 91
        1
280
     0
281
     0
  0
CLASS
  1
ACRFMCADAPIATTHOLDER
  2
AcRfMCADAPIAttHolder
  3
AcAttribServices
 90
     1024
 91
        1
280
     0
281
     0
  0
CLASS
  1
AMDTSYSATTR
  2
AmdtSystemAttribute
  3
AcAttribServices
 90
     1024
 91
        1
280
     0
281
     0
  0
CLASS
  1
SORTENTSTABLE
  2
AcDbSortentsTable
  3
ObjectDBX Classes
 90
        0
 91
        1
280
     0
281
     0
  0
CLASS
  1
ACMSTANDARDISO
  2
AcmStandardISO
  3
"Amdt_StdImp|Product Description: AutoCAD Mechanical|Company: Autodesk, Inc."
 90
     1024
 91
        1
280
     0
281
     0
  0
CLASS
  1
AMDTEDGESTANDARDISO
  2
AmdtEdgeStdISO
  3
"Amdt_StdImp|Product Description: AutoCAD Mechanical|Company: Autodesk, Inc."
 90
     1024
 91
        1
280
     0
281
     0
  0
CLASS
  1
ACMSURFSTANDARDISO2002
  2
AcmSurfTextStdISO2002
  3
"Amdt_StdImp|Product Description: AutoCAD Mechanical|Company: Autodesk, Inc."
 90
     1024
 91
        1
280
     0
281
     0
  0
CLASS
  1
ACMFCFSTANDARDISO
  2
AcmFCFStdISO
  3
"Amdt_StdImp|Product Description: AutoCAD Mechanical|Company: Autodesk, Inc."
 90
     1024
 91
        1
280
     0
281
     0
  0
CLASS
  1
ACMWELDSTANDARDISO
  2
AcmWeldingStdISO
  3
"Amdt_StdImp|Product Description: AutoCAD Mechanical|Company: Autodesk, Inc."
 90
     1024
 91
        1
280
     0
281
     0
  0
CLASS
  1
ACMIDSTANDARDISO
  2
AcmIdStdISO
  3
"Amdt_StdImp|Product Description: AutoCAD Mechanical|Company: Autodesk, Inc."
 90
     1024
 91
        1
280
     0
281
     0
  0
CLASS
  1
ACMDATUMSTANDARDISO
  2
AcmDatumStdISO
  3
"Amdt_StdImp|Product Description: AutoCAD Mechanical|Company: Autodesk, Inc."
 90
     1024
 91
        1
280
     0
281
     0
  0
CLASS
  1
ACMBOMSTANDARDISO
  2
AcmBOMStdISO
  3
"Amdt_StdImp|Product Description: AutoCAD Mechanical|Company: Autodesk, Inc."
 90
     1024
 91
        1
280
     0
281
     0
  0
CLASS
  1
ACMDETAILSTANDARDISO
  2
AmdtDetailSymStdISO
  3
"Amdt_StdImp|Product Description: AutoCAD Mechanical|Company: Autodesk, Inc."
 90
     1024
 91
        1
280
     0
281
     0
  0
CLASS
  1
ACMSECTIONSTANDARDISO2001
  2
AmdtSectionSymStdISO2001
  3
"Amdt_StdImp|Product Description: AutoCAD Mechanical|Company: Autodesk, Inc."
 90
     1024
 91
        1
280
     0
281
     0
  0
CLASS
  1
ACMCENTERLINESTANDARDISO
  2
AmdtCenterLineStdISO
  3
"Amdt_StdImp|Product Description: AutoCAD Mechanical|Company: Autodesk, Inc."
 90
     1024
 91
        1
280
     0
281
     0
  0
CLASS
  1
ACMNOTESTANDARDISO
  2
AmdtNoteStdISO
  3
"Amdt_StdImp|Product Description: AutoCAD Mechanical|Company: Autodesk, Inc."
 90
     1024
 91
        1
280
     0
281
     0
  0
CLASS
  1
ACAMGHOLECHARTSTDISO
  2
AcAmgHoleChartStdISO
  3
AmgDim|Product Description: AutoCAD Mechanical|Company: Autodesk, Inc.
 90
     1024
 91
        1
280
     0
281
     0
  0
CLASS
  1
ACMTHREADLINESTANDARDISO
  2
AmdtThreadLineStdISO
  3
"Amdt_StdImp|Product Description: AutoCAD Mechanical|Company: Autodesk, Inc."
 90
     1024
 91
        1
280
     0
281
     0
  0
CLASS
  1
ACMTAPERSTANDARDISO
  2
AcmTaperStdISO
  3
"Amdt_StdImp|Product Description: AutoCAD Mechanical|Company: Autodesk, Inc."
 90
     1024
 91
        1
280
     0
281
     0
  0
CLASS
  1
ACMANOOTATIONVIEWSTANDARDISO
  2
AmdtAnViewStdISO
  3
"Amdt_StdImp|Product Description: AutoCAD Mechanical|Company: Autodesk, Inc."
 90
     1024
 91
        1
280
     0
281
     0
  0
CLASS
  1
ACMSTANDARDGB
  2
AcmStandardGB
  3
"Amdt_StdImp|Product Description: AutoCAD Mechanical|Company: Autodesk, Inc."
 90
     1024
 91
        0
280
     0
281
     0
  0
CLASS
  1
ACMSURFSTANDARDGB
  2
AcmSurfTextStdGB
  3
"Amdt_StdImp|Product Description: AutoCAD Mechanical|Company: Autodesk, Inc."
 90
     1024
 91
        0
280
     0
281
     0
  0
CLASS
  1
ACMFCFSTANDARDGB
  2
AcmFCFStdGB
  3
"Amdt_StdImp|Product Description: AutoCAD Mechanical|Company: Autodesk, Inc."
 90
     1024
 91
        0
280
     0
281
     0
  0
CLASS
  1
ACMWELDSTANDARDGB
  2
AcmWeldingStdGB
  3
"Amdt_StdImp|Product Description: AutoCAD Mechanical|Company: Autodesk, Inc."
 90
     1024
 91
        0
280
     0
281
     0
  0
CLASS
  1
ACMIDSTANDARDGB
  2
AcmIdStdGB
  3
"Amdt_StdImp|Product Description: AutoCAD Mechanical|Company: Autodesk, Inc."
 90
     1024
 91
        0
280
     0
281
     0
  0
CLASS
  1
ACMDATUMSTANDARDGB
  2
AcmDatumStdGB
  3
"Amdt_StdImp|Product Description: AutoCAD Mechanical|Company: Autodesk, Inc."
 90
     1024
 91
        0
280
     0
281
     0
  0
CLASS
  1
ACMBOMSTANDARDGB
  2
AcmBOMStdGB
  3
"Amdt_StdImp|Product Description: AutoCAD Mechanical|Company: Autodesk, Inc."
 90
     1024
 91
        0
280
     0
281
     0
  0
CLASS
  1
ACMDETAILSTANDARDGB
  2
AmdtDetailSymStdGB
  3
"Amdt_StdImp|Product Description: AutoCAD Mechanical|Company: Autodesk, Inc."
 90
     1024
 91
        0
280
     0
281
     0
  0
CLASS
  1
ACMSECTIONSTANDARDGB1998
  2
AmdtSectionSymStdGB1998
  3
"Amdt_StdImp|Product Description: AutoCAD Mechanical|Company: Autodesk, Inc."
 90
     1024
 91
        0
280
     0
281
     0
  0
CLASS
  1
ACMCENTERLINESTANDARDGB
  2
AmdtCenterLineStdGB
  3
"Amdt_StdImp|Product Description: AutoCAD Mechanical|Company: Autodesk, Inc."
 90
     1024
 91
        0
280
     0
281
     0
  0
CLASS
  1
ACMTHREADLINESTANDARDGB
  2
AmdtThreadLineStdGB
  3
"Amdt_StdImp|Product Description: AutoCAD Mechanical|Company: Autodesk, Inc."
 90
     1024
 91
        0
280
     0
281
     0
  0
CLASS
  1
ACMNOTESTANDARDGB
  2
AmdtNoteStdGB
  3
"Amdt_StdImp|Product Description: AutoCAD Mechanical|Company: Autodesk, Inc."
 90
     1024
 91
        0
280
     0
281
     0
  0
CLASS
  1
ACMTAPERSTANDARDGB
  2
AcmTaperStdGB
  3
"Amdt_StdImp|Product Description: AutoCAD Mechanical|Company: Autodesk, Inc."
 90
     1024
 91
        0
280
     0
281
     0
  0
CLASS
  1
ACMANOOTATIONVIEWSTANDARDGB
  2
AmdtAnViewStdGB
  3
"Amdt_StdImp|Product Description: AutoCAD Mechanical|Company: Autodesk, Inc."
 90
     1024
 91
        0
280
     0
281
     0
  0
CLASS
  1
ACAMGHOLECHARTSTDGB
  2
AcAmgHoleChartStdGB
  3
AmgDim|Product Description: AutoCAD Mechanical|Company: Autodesk, Inc.
 90
     1024
 91
        0
280
     0
281
     0
  0
CLASS
  1
ACMSTANDARDCSN
  2
AcmStandardCSN
  3
"Amdt_StdImp|Product Description: AutoCAD Mechanical|Company: Autodesk, Inc."
 90
     1024
 91
        0
280
     0
281
     0
  0
CLASS
  1
ACMSURFSTANDARDCSN
  2
AcmSurfTextStdCSN
  3
"Amdt_StdImp|Product Description: AutoCAD Mechanical|Company: Autodesk, Inc."
 90
     1024
 91
        0
280
     0
281
     0
  0
CLASS
  1
ACMFCFSTANDARDCSN
  2
AcmFCFStdCSN
  3
"Amdt_StdImp|Product Description: AutoCAD Mechanical|Company: Autodesk, Inc."
 90
     1024
 91
        0
280
     0
281
     0
  0
CLASS
  1
ACMWELDSTANDARDCSN
  2
AcmWeldingStdCSN
  3
"Amdt_StdImp|Product Description: AutoCAD Mechanical|Company: Autodesk, Inc."
 90
     1024
 91
        0
280
     0
281
     0
  0
CLASS
  1
ACMIDSTANDARDCSN
  2
AcmIdStdCSN
  3
"Amdt_StdImp|Product Description: AutoCAD Mechanical|Company: Autodesk, Inc."
 90
     1024
 91
        0
280
     0
281
     0
  0
CLASS
  1
ACMDATUMSTANDARDCSN
  2
AcmDatumStdCSN
  3
"Amdt_StdImp|Product Description: AutoCAD Mechanical|Company: Autodesk, Inc."
 90
     1024
 91
        0
280
     0
281
     0
  0
CLASS
  1
ACMBOMSTANDARDCSN
  2
AcmBOMStdCSN
  3
"Amdt_StdImp|Product Description: AutoCAD Mechanical|Company: Autodesk, Inc."
 90
     1024
 91
        0
280
     0
281
     0
  0
CLASS
  1
ACMDETAILSTANDARDCSN
  2
AmdtDetailSymStdCSN
  3
"Amdt_StdImp|Product Description: AutoCAD Mechanical|Company: Autodesk, Inc."
 90
     1024
 91
        0
280
     0
281
     0
  0
CLASS
  1
ACMSECTIONSTANDARDCSN2002
  2
AmdtSectionSymStdCSN2002
  3
"Amdt_StdImp|Product Description: AutoCAD Mechanical|Company: Autodesk, Inc."
 90
     1024
 91
        0
280
     0
281
     0
  0
CLASS
  1
ACMCENTERLINESTANDARDCSN
  2
AmdtCenterLineStdCSN
  3
"Amdt_StdImp|Product Description: AutoCAD Mechanical|Company: Autodesk, Inc."
 90
     1024
 91
        0
280
     0
281
     0
  0
CLASS
  1
ACMTHREADLINESTANDARDCSN
  2
AmdtThreadLineStdCSN
  3
"Amdt_StdImp|Product Description: AutoCAD Mechanical|Company: Autodesk, Inc."
 90
     1024
 91
        0
280
     0
281
     0
  0
CLASS
  1
ACMNOTESTANDARDCSN
  2
AmdtNoteStdCSN
  3
"Amdt_StdImp|Product Description: AutoCAD Mechanical|Company: Autodesk, Inc."
 90
     1024
 91
        0
280
     0
281
     0
  0
CLASS
  1
ACMTAPERSTANDARDCSN
  2
AcmTaperStdCSN
  3
"Amdt_StdImp|Product Description: AutoCAD Mechanical|Company: Autodesk, Inc."
 90
     1024
 91
        0
280
     0
281
     0
  0
CLASS
  1
ACMANOOTATIONVIEWSTANDARDCSN
  2
AmdtAnViewStdCSN
  3
"Amdt_StdImp|Product Description: AutoCAD Mechanical|Company: Autodesk, Inc."
 90
     1024
 91
        0
280
     0
281
     0
  0
CLASS
  1
ACAMGHOLECHARTSTDCSN
  2
AcAmgHoleChartStdCSN
  3
AmgDim|Product Description: AutoCAD Mechanical|Company: Autodesk, Inc.
 90
     1024
 91
        0
280
     0
281
     0
  0
CLASS
  1
DIMASSOC
  2
AcDbDimAssoc
  3
"AcDbDimAssoc|Product Desc:     AcDim ARX App For Dimension|Company:          Autodesk, Inc.|WEB Address:      www.autodesk.com"
 90
        0
 91
        9
280
     0
281
     0
  0
CLASS
  1
ACDBCIRCARCRES
  2
AcDbCircArcRes
  3
AcGrefServices
 90
     1024
 91
        0
280
     0
281
     0
  0
CLASS
  1
ACDB_BLKREFOBJECTCONTEXTDATA_CLASS
  2
AcDbBlkRefObjectContextData
  3
ObjectDBX Classes
 90
     1153
 91
        0
280
     0
281
     0
  0
CLASS
  1
ACAD_EVALUATION_GRAPH
  2
AcDbEvalGraph
  3
ObjectDBX Classes
 90
     1153
 91
        0
280
     0
281
     0
  0
CLASS
  1
ACAECUSTOBJ
  2
AcAeEditorObj
  3
AcAeEditorObj
 90
     1024
 91
        0
280
     0
281
     0
  0
CLASS
  1
ACDB_DYNAMICBLOCKPURGEPREVENTER_VERSION
  2
AcDbDynamicBlockPurgePreventer
  3
ObjectDBX Classes
 90
     1153
 91
        0
280
     0
281
     0
  0
CLASS
  1
ACDBSECTIONVIEWSTYLE
  2
AcDbSectionViewStyle
  3
ObjectDBX Classes
 90
     1025
 91
        4
280
     0
281
     0
  0
CLASS
  1
ACDBDETAILVIEWSTYLE
  2
AcDbDetailViewStyle
  3
ObjectDBX Classes
 90
     1025
 91
        4
280
     0
281
     0
  0
CLASS
  1
ACMSECTIONSTANDARDCUSTOM
  2
AmdtSectionSymStdCustom
  3
"Amdt_StdImp|Product Description: AutoCAD Mechanical|Company: Autodesk, Inc."
 90
     1024
 91
        3
280
     0
281
     0
  0
CLASS
  1
ACMDETAILTANDARDCUSTOM
  2
AmdtDetailSymStdCustom
  3
"Amdt_StdImp|Product Description: AutoCAD Mechanical|Company: Autodesk, Inc."
 90
     1024
 91
        3
280
     0
281
     0
  0
CLASS
  1
FIELD
  2
AcDbField
  3
ObjectDBX Classes
 90
     1152
 91
       16
280
     0
281
     0
  0
CLASS
  1
FIELDLIST
  2
AcDbFieldList
  3
ObjectDBX Classes
 90
     1152
 91
        1
280
     0
281
     0
  0
CLASS
  1
EXACXREFPANELOBJECT
  2
ExAcXREFPanelObject
  3
EXAC_ESW
 90
     1025
 91
        1
280
     0
281
     0
  0
CLASS
  1
NPOCOLLECTION
  2
AcDbImpNonPersistentObjectsCollection
  3
ObjectDBX Classes
 90
     1153
 91
        1
280
     0
281
     0
  0
ENDSEC
  0
SECTION
  2
TABLES
  0
TABLE
  2
VPORT
  5
8
102
{ACAD_XDICTIONARY
360
1B6
102
}
330
0
100
AcDbSymbolTable
 70
     1
  0
VPORT
  5
82
330
8
100
AcDbSymbolTableRecord
100
AcDbViewportTableRecord
  2
*Active
 70
     0
 10
0.0
 20
0.0
 11
1.0
 21
1.0
 12
4308.627339020169
 22
3707.560286905569
 13
0.0
 23
0.0
 14
50.0
 24
50.0
 15
200.0
 25
200.0
 16
0.0
 26
0.0
 36
1.0
 17
0.0
 27
0.0
 37
0.0
 40
1378.067512591714
 41
2.263233190271817
 42
50.0
 43
0.0
 44
0.0
 50
0.0
 51
0.0
 71
    16
 72
 20000
 73
     1
 74
     1
 75
     0
 76
     0
 77
     0
 78
     0
281
     0
 65
     1
110
0.0
120
0.0
130
0.0
111
1.0
121
0.0
131
0.0
112
0.0
122
1.0
132
0.0
 79
     0
146
0.0
348
2F
 60
     3
 61
     5
292
     1
282
     1
141
0.0
142
0.0
 63
   250
421
  3355443
1001
ACAD_NAV_VCDISPLAY
1070
     3
  0
ENDTAB
  0
TABLE
  2
LTYPE
  5
5
330
0
100
AcDbSymbolTable
 70
    22
  0
LTYPE
  5
62
330
5
100
AcDbSymbolTableRecord
100
AcDbLinetypeTableRecord
  2
ByBlock
 70
     0
  3

 72
    65
 73
     0
 40
0.0
  0
LTYPE
  5
63
330
5
100
AcDbSymbolTableRecord
100
AcDbLinetypeTableRecord
  2
ByLayer
 70
     0
  3

 72
    65
 73
     0
 40
0.0
  0
LTYPE
  5
64
330
5
100
AcDbSymbolTableRecord
100
AcDbLinetypeTableRecord
  2
CONTINUOUS
 70
     0
  3
Solid line
 72
    65
 73
     0
 40
0.0
  0
LTYPE
  5
78
330
5
100
AcDbSymbolTableRecord
100
AcDbLinetypeTableRecord
  2
DASHED
 70
     0
  3
Dashed line
 72
    65
 73
     2
 40
0.75
 49
0.5
 74
     0
 49
-0.25
 74
     0
  0
LTYPE
  5
79
330
5
100
AcDbSymbolTableRecord
100
AcDbLinetypeTableRecord
  2
CENTER
 70
     0
  3
Center line
 72
    65
 73
     4
 40
2.0
 49
1.25
 74
     0
 49
-0.25
 74
     0
 49
0.25
 74
     0
 49
-0.25
 74
     0
  0
LTYPE
  5
13E
330
5
100
AcDbSymbolTableRecord
100
AcDbLinetypeTableRecord
  2
HIDDEN
 70
     0
  3
Verdeckt
 72
    65
 73
     2
 40
0.375
 49
0.25
 74
     0
 49
-0.125
 74
     0
  0
LTYPE
  5
13F
330
5
100
AcDbSymbolTableRecord
100
AcDbLinetypeTableRecord
  2
PHANTOM2
 70
     0
  3
Phantom (.5x) ___ _ _ ___ _ _ ___ _ _ ___ _ _
 72
    65
 73
     6
 40
1.25
 49
0.625
 74
     0
 49
-0.125
 74
     0
 49
0.125
 74
     0
 49
-0.125
 74
     0
 49
0.125
 74
     0
 49
-0.125
 74
     0
  0
LTYPE
  5
183
330
5
100
AcDbSymbolTableRecord
100
AcDbLinetypeTableRecord
  2
ACANSTGB
 70
     0
  3
__ . . __ . .
 72
    65
 73
     6
 40
0.35433070866
 49
0.15748031496
 74
     0
 49
-0.03937007874
 74
     0
 49
0.03937007874
 74
     0
 49
-0.03937007874
 74
     0
 49
0.03937007874
 74
     0
 49
-0.03937007874
 74
     0
  0
LTYPE
  5
184
330
5
100
AcDbSymbolTableRecord
100
AcDbLinetypeTableRecord
  2
ACANSTGL
 70
     0
  3
_ _ _ _ _
 72
    65
 73
     2
 40
0.11811023622
 49
0.07874015748
 74
     0
 49
-0.03937007874
 74
     0
  0
LTYPE
  5
26A
330
5
100
AcDbSymbolTableRecord
100
AcDbLinetypeTableRecord
  2
ACDINWELD
 70
     0
  3
_ _ _ _ _
 72
    65
 73
     2
 40
2.0
 49
2.0
 74
     0
 49
-1.0
 74
     0
  0
LTYPE
  5
26B
330
5
100
AcDbSymbolTableRecord
100
AcDbLinetypeTableRecord
  2
ACDINTGB
 70
     0
  3
__ . . __ . .
 72
    65
 73
     6
 40
9.0
 49
4.0
 74
     0
 49
-1.0
 74
     0
 49
1.0
 74
     0
 49
-1.0
 74
     0
 49
1.0
 74
     0
 49
-1.0
 74
     0
  0
LTYPE
  5
26C
330
5
100
AcDbSymbolTableRecord
100
AcDbLinetypeTableRecord
  2
ACDINTGL
 70
     0
  3
_ _ _ _ _
 72
    65
 73
     2
 40
3.0
 49
2.0
 74
     0
 49
-1.0
 74
     0
  0
LTYPE
  5
2A6
330
5
100
AcDbSymbolTableRecord
100
AcDbLinetypeTableRecord
  2
Amconstr
 70
     0
  3
_______________________
 72
    65
 73
     2
 40
9999.0
 49
9999.0
 74
     0
 49
0.0
 74
     0
  0
LTYPE
  5
2A7
330
5
100
AcDbSymbolTableRecord
100
AcDbLinetypeTableRecord
  2
Amzigzag
 70
     0
  3
/\/-/\/-/\/-/\/-/\/-/\/
 72
    65
 73
     2
 40
11.0001
 49
0.0001
 74
     4
 75
   136
340
2A8
 46
0.04
 50
0.0
 44
0.0
 45
0.0
 49
-11.0
 74
     0
  0
LTYPE
  5
38A
330
5
100
AcDbSymbolTableRecord
100
AcDbLinetypeTableRecord
  2
HIDDEN2
 70
     0
  3
Hidden (.5x) _ _ _ _ _ _ _ _ _ _ _ _ _ _ _ _ _
 72
    65
 73
     2
 40
0.1875
 49
0.125
 74
     0
 49
-0.0625
 74
     0
  0
LTYPE
  5
38B
330
5
100
AcDbSymbolTableRecord
100
AcDbLinetypeTableRecord
  2
CENTER2
 70
     0
  3
Center (.5x) ___ _ ___ _ ___ _ ___ _ ___ _ ___
 72
    65
 73
     4
 40
1.125
 49
0.75
 74
     0
 49
-0.125
 74
     0
 49
0.125
 74
     0
 49
-0.125
 74
     0
  0
LTYPE
  5
3C3
330
5
100
AcDbSymbolTableRecord
100
AcDbLinetypeTableRecord
  2
AM_ISO02W050
 70
     0
  3
__ __ __ __ __ __ __ __ __ __ __ __ __ __ __
 72
    65
 73
     2
 40
7.5
 49
6.0
 74
     0
 49
-1.5
 74
     0
  0
LTYPE
  5
3C4
330
5
100
AcDbSymbolTableRecord
100
AcDbLinetypeTableRecord
  2
AM_ISO08W050
 70
     0
  3
____ . ____ . ____ . ____ . ____ . ____ . ____
 72
    65
 73
     4
 40
18.0
 49
12.0
 74
     0
 49
-1.5
 74
     0
 49
3.0
 74
     0
 49
-1.5
 74
     0
  0
LTYPE
  5
3C5
330
5
100
AcDbSymbolTableRecord
100
AcDbLinetypeTableRecord
  2
AM_ISO09W050
 70
     0
  3
_____ . . _____ . . _____ . . ____ .. ____
 72
    65
 73
     6
 40
22.5
 49
12.0
 74
     0
 49
-1.5
 74
     0
 49
3.0
 74
     0
 49
-1.5
 74
     0
 49
3.0
 74
     0
 49
-1.5
 74
     0
  0
LTYPE
  5
3C6
330
5
100
AcDbSymbolTableRecord
100
AcDbLinetypeTableRecord
  2
AM_ISO08W050x2
 70
     0
  3
__ . __ . __ . __ . __ . __
 72
    65
 73
     4
 40
9.0
 49
6.0
 74
     0
 49
-0.75
 74
     0
 49
1.5
 74
     0
 49
-0.75
 74
     0
  0
LTYPE
  5
3C7
330
5
100
AcDbSymbolTableRecord
100
AcDbLinetypeTableRecord
  2
AM_ISO02W050x2
 70
     0
  3
 _ _ _ _ _ _ _ _ _ _ _ _
 72
    65
 73
     2
 40
3.75
 49
3.0
 74
     0
 49
-0.75
 74
     0
  0
LTYPE
  5
3C8
330
5
100
AcDbSymbolTableRecord
100
AcDbLinetypeTableRecord
  2
ACISOWELD
 70
     0
  3
_ _ _ _ _
 72
    65
 73
     2
 40
2.0
 49
2.0
 74
     0
 49
-1.0
 74
     0
  0
LTYPE
  5
3C9
330
5
100
AcDbSymbolTableRecord
100
AcDbLinetypeTableRecord
  2
ACISOTGB
 70
     0
  3
__ . . __ . .
 72
    65
 73
     6
 40
9.0
 49
4.0
 74
     0
 49
-1.0
 74
     0
 49
1.0
 74
     0
 49
-1.0
 74
     0
 49
1.0
 74
     0
 49
-1.0
 74
     0
  0
LTYPE
  5
3CA
330
5
100
AcDbSymbolTableRecord
100
AcDbLinetypeTableRecord
  2
ACISOTGL
 70
     0
  3
_ _ _ _ _
 72
    65
 73
     2
 40
3.0
 49
2.0
 74
     0
 49
-1.0
 74
     0
  0
ENDTAB
  0
TABLE
  2
LAYER
  5
2
102
{ACAD_XDICTIONARY
360
256
102
}
330
0
100
AcDbSymbolTable
 70
    11
  0
LAYER
  5
5C
102
{ACAD_XDICTIONARY
360
1A2
102
}
330
2
100
AcDbSymbolTableRecord
100
AcDbLayerTableRecord
  2
0
 70
     0
 62
     7
  6
CONTINUOUS
370
    -3
390
F
347
21
348
0
  0
LAYER
  5
7A
102
{ACAD_XDICTIONARY
360
1A4
102
}
330
2
100
AcDbSymbolTableRecord
100
AcDbLayerTableRecord
  2
2
 70
     0
 62
     7
  6
CONTINUOUS
370
    -3
390
F
347
21
348
0
  0
LAYER
  5
27F
102
{ACAD_XDICTIONARY
360
2C7
102
}
330
2
100
AcDbSymbolTableRecord
100
AcDbLayerTableRecord
  2
Defpoints
 70
     0
 62
     7
  6
CONTINUOUS
290
     0
370
    -3
390
F
347
21
348
0
  0
LAYER
  5
2AA
102
{ACAD_XDICTIONARY
360
2C9
102
}
330
2
100
AcDbSymbolTableRecord
100
AcDbLayerTableRecord
  2
AM_3 ( Verdeckt )
 70
     0
 62
     6
  6
AM_ISO02W050
370
    25
390
F
347
21
348
0
1001
AcAecLayerStandard
1000

1000

  0
LAYER
  5
2AC
102
{ACAD_XDICTIONARY
360
2CB
102
}
330
2
100
AcDbSymbolTableRecord
100
AcDbLayerTableRecord
  2
AM_7 (Mittellinie)
 70
     0
 62
     4
  6
AM_ISO08W050
370
    25
390
F
347
21
348
0
1001
AcAecLayerStandard
1000

1000

  0
LAYER
  5
2B1
102
{ACAD_XDICTIONARY
360
2CF
102
}
330
2
100
AcDbSymbolTableRecord
100
AcDbLayerTableRecord
  2
AM_5 ( Bemassung)
 70
     0
 62
     3
  6
CONTINUOUS
370
    25
390
F
347
21
348
0
1001
AcAecLayerStandard
1000

1000

  0
LAYER
  5
9FC
102
{ACAD_XDICTIONARY
360
A1F
102
}
330
2
100
AcDbSymbolTableRecord
100
AcDbLayerTableRecord
  2
AM_0 ( Kontur 0.5 )
 70
     0
 62
     7
  6
CONTINUOUS
370
    50
390
F
347
21
348
0
1001
AcAecLayerStandard
1000

1000

  0
LAYER
  5
13C9
102
{ACAD_XDICTIONARY
360
13CA
102
}
330
2
100
AcDbSymbolTableRecord
100
AcDbLayerTableRecord
  2
8
 70
     0
 62
     7
  6
CONTINUOUS
370
    -3
390
F
347
21
348
0
  0
LAYER
  5
2153
330
2
100
AcDbSymbolTableRecord
100
AcDbLayerTableRecord
  2
AM_11 ( Phanton)
 70
     0
 62
     3
  6
AM_ISO09W050
370
    25
390
F
347
21
348
0
1001
AcAecLayerStandard
1000

1000

  0
LAYER
  5
3844
330
2
100
AcDbSymbolTableRecord
100
AcDbLayerTableRecord
  2
10_ZEICH-ELEMENTE
 70
     0
 62
     7
  6
CONTINUOUS
370
    -3
390
F
347
21
348
0
  0
LAYER
  5
3845
330
2
100
AcDbSymbolTableRecord
100
AcDbLayerTableRecord
  2
60
 70
     0
 62
     7
  6
CONTINUOUS
370
    -3
390
F
347
21
348
0
  0
ENDTAB
  0
TABLE
  2
STYLE
  5
3
330
0
100
AcDbSymbolTable
 70
     9
  0
STYLE
  5
5D
330
3
100
AcDbSymbolTableRecord
100
AcDbTextStyleTableRecord
  2
STANDARD
 70
     0
 40
0.0
 41
1.0
 50
0.0
 71
     0
 42
3.5
  3
ARIALUNI.TTF
  4

1001
ACAD
1000
@Arial Unicode MS
1071
       34
  0
STYLE
  5
174
330
3
100
AcDbSymbolTableRecord
100
AcDbTextStyleTableRecord
  2
ACANSTS
 70
     0
 40
1.0
 41
1.0
 50
0.0
 71
     0
 42
3.5
  3
romans.shx
  4

  0
STYLE
  5
182
330
3
100
AcDbSymbolTableRecord
100
AcDbTextStyleTableRecord
  2
ACANSGDT
 70
     0
 40
0.0
 41
1.0
 50
0.0
 71
     0
 42
3.5
  3
amgdt.shx
  4

  0
STYLE
  5
25A
330
3
100
AcDbSymbolTableRecord
100
AcDbTextStyleTableRecord
  2
ACDINTS
 70
     0
 40
1.0
 41
1.0
 50
0.0
 71
     0
 42
3.5
  3
isocp.shx
  4

  0
STYLE
  5
269
330
3
100
AcDbSymbolTableRecord
100
AcDbTextStyleTableRecord
  2
ACDINGDT
 70
     0
 40
0.0
 41
1.0
 50
0.0
 71
     0
 42
3.5
  3
amgdt.shx
  4

  0
STYLE
  5
2A8
330
3
100
AcDbSymbolTableRecord
100
AcDbTextStyleTableRecord
  2

 70
     1
 40
0.0
 41
1.0
 50
0.0
 71
     0
 42
2.5
  3
genltshp.shx
  4

  0
STYLE
  5
3CB
330
3
100
AcDbSymbolTableRecord
100
AcDbTextStyleTableRecord
  2
ACISOTS
 70
     0
 40
1.0
 41
1.0
 50
0.0
 71
     0
 42
2.5
  3
ARIALN.TTF
  4

1001
ACAD
1000
Arial Narrow
1071
       34
  0
STYLE
  5
3CC
330
3
100
AcDbSymbolTableRecord
100
AcDbTextStyleTableRecord
  2
ACISOGDT
 70
     0
 40
0.0
 41
1.0
 50
0.0
 71
     0
 42
2.5
  3
amgdt.shx
  4

  0
STYLE
  5
3846
330
3
100
AcDbSymbolTableRecord
100
AcDbTextStyleTableRecord
  2
TEXTSTYLE_1
 70
     0
 40
0.0
 41
1.0
 50
0.0
 71
     0
 42
0.2
  3
txt
  4

  0
ENDTAB
  0
TABLE
  2
VIEW
  5
6
330
0
100
AcDbSymbolTable
 70
     7
  0
VIEW
  5
51B
330
6
100
AcDbSymbolTableRecord
100
AcDbViewTableRecord
  2
AM_VIEW1
 70
     0
 40
2970.0
 10
5244.127408818744
 20
7963.547409082302
 41
4538.252933507171
 11
0.0
 21
0.0
 31
1.0
 12
0.0
 22
0.0
 32
0.0
 42
50.0
 43
0.0
 44
0.0
 50
0.0
 71
    16
281
     0
 72
     0
 73
     0
348
2F
  0
VIEW
  5
51C
330
6
100
AcDbSymbolTableRecord
100
AcDbViewTableRecord
  2
AM_VIEW2
 70
     0
 40
2970.0
 10
9105.874475311576
 20
7963.547409082302
 41
4538.252933507171
 11
0.0
 21
0.0
 31
1.0
 12
0.0
 22
0.0
 32
0.0
 42
50.0
 43
0.0
 44
0.0
 50
0.0
 71
    16
281
     0
 72
     0
 73
     0
348
2F
  0
VIEW
  5
51D
330
6
100
AcDbSymbolTableRecord
100
AcDbViewTableRecord
  2
AM_VIEW3
 70
     0
 40
2970.0
 10
5244.127408818744
 20
4993.547409082303
 41
4538.252933507171
 11
0.0
 21
0.0
 31
1.0
 12
0.0
 22
0.0
 32
0.0
 42
50.0
 43
0.0
 44
0.0
 50
0.0
 71
    16
281
     0
 72
     0
 73
     0
348
2F
  0
VIEW
  5
51E
330
6
100
AcDbSymbolTableRecord
100
AcDbViewTableRecord
  2
AM_VIEW4
 70
     0
 40
2970.0
 10
9105.874475311576
 20
4993.547409082303
 41
4538.252933507171
 11
0.0
 21
0.0
 31
1.0
 12
0.0
 22
0.0
 32
0.0
 42
50.0
 43
0.0
 44
0.0
 50
0.0
 71
    16
281
     0
 72
     0
 73
     0
348
2F
  0
VIEW
  5
51F
330
6
100
AcDbSymbolTableRecord
100
AcDbViewTableRecord
  2
AM_VIEW5
 70
     0
 40
2970.0
 10
7175.000942065159
 20
6478.547409082302
 41
4538.252933507172
 11
0.0
 21
0.0
 31
1.0
 12
0.0
 22
0.0
 32
0.0
 42
50.0
 43
0.0
 44
0.0
 50
0.0
 71
    16
281
     0
 72
     0
 73
     0
348
2F
  0
VIEW
  5
520
330
6
100
AcDbSymbolTableRecord
100
AcDbViewTableRecord
  2
AM_VIEW6
 70
     0
 40
5939.940599999999
 10
7175.000942065159
 20
6478.547409082302
 41
9076.415101955673
 11
0.0
 21
0.0
 31
1.0
 12
0.0
 22
0.0
 32
0.0
 42
50.0
 43
0.0
 44
0.0
 50
0.0
 71
    16
281
     0
 72
     0
 73
     0
348
2F
  0
ENDTAB
  0
TABLE
  2
UCS
  5
7
330
0
100
AcDbSymbolTable
 70
     0
  0
ENDTAB
  0
TABLE
  2
APPID
  5
9
330
0
100
AcDbSymbolTable
 70
    70
  0
APPID
  5
5E
330
9
100
AcDbSymbolTableRecord
100
AcDbRegAppTableRecord
  2
ACAD
 70
     0
  0
APPID
  5
65
330
9
100
AcDbSymbolTableRecord
100
AcDbRegAppTableRecord
  2
AcadAnnotative
 70
     0
  0
APPID
  5
6F
330
9
100
AcDbSymbolTableRecord
100
AcDbRegAppTableRecord
  2
ACAD_MLEADERVER
 70
     0
  0
APPID
  5
111
330
9
100
AcDbSymbolTableRecord
100
AcDbRegAppTableRecord
  2
MCAD_NO_VIS
 70
     0
  0
APPID
  5
112
330
9
100
AcDbSymbolTableRecord
100
AcDbRegAppTableRecord
  2
ACAD_TEMP_GRAPHIC
 70
     0
  0
APPID
  5
141
330
9
100
AcDbSymbolTableRecord
100
AcDbRegAppTableRecord
  2
AD_DRAW
 70
     0
  0
APPID
  5
144
330
9
100
AcDbSymbolTableRecord
100
AcDbRegAppTableRecord
  2
ACATTRIBSERVICES
 70
     0
  0
APPID
  5
165
330
9
100
AcDbSymbolTableRecord
100
AcDbRegAppTableRecord
  2
DESIGNERASSEMBLIES
 70
     0
  0
APPID
  5
16B
330
9
100
AcDbSymbolTableRecord
100
AcDbRegAppTableRecord
  2
ACADM_DIM_EDIT
 70
     0
  0
APPID
  5
16C
330
9
100
AcDbSymbolTableRecord
100
AcDbRegAppTableRecord
  2
AMDT_DM_ADJ
 70
     0
  0
APPID
  5
1C8
330
9
100
AcDbSymbolTableRecord
100
AcDbRegAppTableRecord
  2
ACAD_DSTYLE_DIMARC_LENGTH_SYMBOL
 70
     0
  0
APPID
  5
24A
330
9
100
AcDbSymbolTableRecord
100
AcDbRegAppTableRecord
  2
AcAecLayerStandard
 70
     0
  0
APPID
  5
280
330
9
100
AcDbSymbolTableRecord
100
AcDbRegAppTableRecord
  2
ACAD_DSTYLE_DIMJOGGED_JOGANGLE_SYMBOL
 70
     0
  0
APPID
  5
281
330
9
100
AcDbSymbolTableRecord
100
AcDbRegAppTableRecord
  2
AcadAnnoPO
 70
     0
  0
APPID
  5
282
330
9
100
AcDbSymbolTableRecord
100
AcDbRegAppTableRecord
  2
ACAD_EXEMPT_FROM_CAD_STANDARDS
 70
     0
  0
APPID
  5
283
330
9
100
AcDbSymbolTableRecord
100
AcDbRegAppTableRecord
  2
GENIUS_GENODEF_13
 70
     0
  0
APPID
  5
284
330
9
100
AcDbSymbolTableRecord
100
AcDbRegAppTableRecord
  2
GENIUS_GENOBJ-N-CRS_13
 70
     0
  0
APPID
  5
285
330
9
100
AcDbSymbolTableRecord
100
AcDbRegAppTableRecord
  2
GENIUS_GENOENT_13
 70
     0
  0
APPID
  5
286
330
9
100
AcDbSymbolTableRecord
100
AcDbRegAppTableRecord
  2
GENIUS_GENOLIS_13
 70
     0
  0
APPID
  5
287
330
9
100
AcDbSymbolTableRecord
100
AcDbRegAppTableRecord
  2
GENIUS_GENOREF_13
 70
     0
  0
APPID
  5
288
330
9
100
AcDbSymbolTableRecord
100
AcDbRegAppTableRecord
  2
GEVID1190879659
 70
     0
  0
APPID
  5
289
330
9
100
AcDbSymbolTableRecord
100
AcDbRegAppTableRecord
  2
GEVDC
 70
     0
  0
APPID
  5
28A
330
9
100
AcDbSymbolTableRecord
100
AcDbRegAppTableRecord
  2
GENIUS_GENBH_13
 70
     0
  0
APPID
  5
28B
330
9
100
AcDbSymbolTableRecord
100
AcDbRegAppTableRecord
  2
GENIUS_GENOBJ-NBEHI-BHF_13
 70
     0
  0
APPID
  5
28C
330
9
100
AcDbSymbolTableRecord
100
AcDbRegAppTableRecord
  2
GENIUS_GENOBJ-NBEHI-BHB_13
 70
     0
  0
APPID
  5
28D
330
9
100
AcDbSymbolTableRecord
100
AcDbRegAppTableRecord
  2
GEVID1190879660
 70
     0
  0
APPID
  5
28E
330
9
100
AcDbSymbolTableRecord
100
AcDbRegAppTableRecord
  2
GEVID1190879661
 70
     0
  0
APPID
  5
28F
330
9
100
AcDbSymbolTableRecord
100
AcDbRegAppTableRecord
  2
ACAD_DSTYLE_DIMRADIAL_EXTENSION
 70
     0
  0
APPID
  5
290
330
9
100
AcDbSymbolTableRecord
100
AcDbRegAppTableRecord
  2
GEVID1190879662
 70
     0
  0
APPID
  5
291
330
9
100
AcDbSymbolTableRecord
100
AcDbRegAppTableRecord
  2
GEVID1190879663
 70
     0
  0
APPID
  5
292
330
9
100
AcDbSymbolTableRecord
100
AcDbRegAppTableRecord
  2
GEVID1190879664
 70
     0
  0
APPID
  5
293
330
9
100
AcDbSymbolTableRecord
100
AcDbRegAppTableRecord
  2
GEVID1190879665
 70
     0
  0
APPID
  5
294
330
9
100
AcDbSymbolTableRecord
100
AcDbRegAppTableRecord
  2
GEVID1190879666
 70
     0
  0
APPID
  5
295
330
9
100
AcDbSymbolTableRecord
100
AcDbRegAppTableRecord
  2
GENIUS_GENOBJ-N-CEN_13
 70
     0
  0
APPID
  5
296
330
9
100
AcDbSymbolTableRecord
100
AcDbRegAppTableRecord
  2
GENIUS_GENCEN_19
 70
     0
  0
APPID
  5
297
330
9
100
AcDbSymbolTableRecord
100
AcDbRegAppTableRecord
  2
GEVID1190879667
 70
     0
  0
APPID
  5
298
330
9
100
AcDbSymbolTableRecord
100
AcDbRegAppTableRecord
  2
GENIUS_GENOBJ-N-CRC_13
 70
     0
  0
APPID
  5
299
330
9
100
AcDbSymbolTableRecord
100
AcDbRegAppTableRecord
  2
GENIUS_GENCRC_14
 70
     0
  0
APPID
  5
29A
330
9
100
AcDbSymbolTableRecord
100
AcDbRegAppTableRecord
  2
ACAD_PSEXT
 70
     0
  0
APPID
  5
29B
330
9
100
AcDbSymbolTableRecord
100
AcDbRegAppTableRecord
  2
GEVID1190888456
 70
     0
  0
APPID
  5
29C
330
9
100
AcDbSymbolTableRecord
100
AcDbRegAppTableRecord
  2
GEVID1190888457
 70
     0
  0
APPID
  5
29D
330
9
100
AcDbSymbolTableRecord
100
AcDbRegAppTableRecord
  2
GEVID1190888458
 70
     0
  0
APPID
  5
29E
330
9
100
AcDbSymbolTableRecord
100
AcDbRegAppTableRecord
  2
GEVID1190888459
 70
     0
  0
APPID
  5
29F
330
9
100
AcDbSymbolTableRecord
100
AcDbRegAppTableRecord
  2
GEVID1190888460
 70
     0
  0
APPID
  5
2A0
330
9
100
AcDbSymbolTableRecord
100
AcDbRegAppTableRecord
  2
GEVID1190888461
 70
     0
  0
APPID
  5
2A1
330
9
100
AcDbSymbolTableRecord
100
AcDbRegAppTableRecord
  2
GEVID1190888462
 70
     0
  0
APPID
  5
2A2
330
9
100
AcDbSymbolTableRecord
100
AcDbRegAppTableRecord
  2
ACAD_DSTYLE_DIMJAG
 70
     0
  0
APPID
  5
2A3
330
9
100
AcDbSymbolTableRecord
100
AcDbRegAppTableRecord
  2
ACAD_DSTYLE_DIMTALN
 70
     0
  0
APPID
  5
390
330
9
100
AcDbSymbolTableRecord
100
AcDbRegAppTableRecord
  2
GENIUS_GENBLLY_14
 70
     0
  0
APPID
  5
3D5
330
9
100
AcDbSymbolTableRecord
100
AcDbRegAppTableRecord
  2
DCO15
 70
     0
  0
APPID
  5
3D6
330
9
100
AcDbSymbolTableRecord
100
AcDbRegAppTableRecord
  2
GENIUS_GENREC_14
 70
     0
  0
APPID
  5
3D7
330
9
100
AcDbSymbolTableRecord
100
AcDbRegAppTableRecord
  2
GENIUS_GENOBJ-N-REC_13
 70
     0
  0
APPID
  5
519
330
9
100
AcDbSymbolTableRecord
100
AcDbRegAppTableRecord
  2
GENIUS_GENOBJ-N-TIT_13
 70
     0
  0
APPID
  5
51A
330
9
100
AcDbSymbolTableRecord
100
AcDbRegAppTableRecord
  2
GENIUS_GENTITLE_13
 70
     0
  0
APPID
  5
521
330
9
100
AcDbSymbolTableRecord
100
AcDbRegAppTableRecord
  2
GENIUS_GENSCREG_15
 70
     0
  0
APPID
  5
522
330
9
100
AcDbSymbolTableRecord
100
AcDbRegAppTableRecord
  2
GENIUS_GENOBJ-N-SDF_13
 70
     0
  0
APPID
  5
5BA
330
9
100
AcDbSymbolTableRecord
100
AcDbRegAppTableRecord
  2
ACAD_DSTYLE_DIMINSPECT
 70
     0
  0
APPID
  5
986
330
9
100
AcDbSymbolTableRecord
100
AcDbRegAppTableRecord
  2
GENIUS_GENDIMSH_14
 70
     0
  0
APPID
  5
AFA
330
9
100
AcDbSymbolTableRecord
100
AcDbRegAppTableRecord
  2
GENIUS_GENOBJ-N-HTC_13
 70
     0
  0
APPID
  5
AFB
330
9
100
AcDbSymbolTableRecord
100
AcDbRegAppTableRecord
  2
GENIUS_GENHATCH_13
 70
     0
  0
APPID
  5
B3E
330
9
100
AcDbSymbolTableRecord
100
AcDbRegAppTableRecord
  2
ACAUTHENVIRON
 70
     0
  0
APPID
  5
B42
330
9
100
AcDbSymbolTableRecord
100
AcDbRegAppTableRecord
  2
AcDbDynamicBlockTrueName
 70
     0
  0
APPID
  5
B43
330
9
100
AcDbSymbolTableRecord
100
AcDbRegAppTableRecord
  2
AcDbDynamicBlockGUID
 70
     0
  0
APPID
  5
B45
330
9
100
AcDbSymbolTableRecord
100
AcDbRegAppTableRecord
  2
ACDBBLOCKREPETAG
 70
     0
  0
APPID
  5
3392
330
9
100
AcDbSymbolTableRecord
100
AcDbRegAppTableRecord
  2
GENIUS_GENOBJ-N-FIL_13
 70
     0
  0
APPID
  5
35D0
330
9
100
AcDbSymbolTableRecord
100
AcDbRegAppTableRecord
  2
AcDbAttr
 70
     0
  0
APPID
  5
3D8F
330
9
100
AcDbSymbolTableRecord
100
AcDbRegAppTableRecord
  2
EAR3_SAP_ACAD
 70
     0
  0
APPID
  5
3D90
330
9
100
AcDbSymbolTableRecord
100
AcDbRegAppTableRecord
  2
CADDESKTOPMDT
 70
     0
  0
APPID
  5
3EAD
330
9
100
AcDbSymbolTableRecord
100
AcDbRegAppTableRecord
  2
GENIUS_GENDTOL_13
 70
     0
  0
APPID
  5
3F8A
330
9
100
AcDbSymbolTableRecord
100
AcDbRegAppTableRecord
  2
ACAD_NAV_VCDISPLAY
 70
     0
  0
ENDTAB
  0
TABLE
  2
DIMSTYLE
  5
A
330
0
100
AcDbSymbolTable
 70
    26
100
AcDbDimStyleTable
 71
     5
340
276
340
27B
340
5F
340
27C
340
3CE
  0
DIMSTYLE
105
5F
330
A
100
AcDbSymbolTableRecord
100
AcDbDimStyleTableRecord
  2
STANDARD
 70
     0
 41
2.68
140
3.5
178
     6
340
5D
  0
DIMSTYLE
105
18F
330
A
100
AcDbSymbolTableRecord
100
AcDbDimStyleTableRecord
  2
AM_ANSI
 70
     0
  4
mm
 41
0.1
 42
0.05
 43
0.5
 44
0.1
 47
0.1
 48
0.1
 78
     7
 79
     2
 90
     1
140
0.12
141
0.0
146
0.71
147
0.06
176
   256
177
   256
178
     2
274
     4
284
     7
340
5D
371
    -1
372
    -1
  0
DIMSTYLE
105
190
330
A
100
AcDbSymbolTableRecord
100
AcDbDimStyleTableRecord
  2
AM_ANSI$3
 70
     0
  4
mm
 41
0.1
 42
0.05
 43
0.5
 44
0.1
 47
0.1
 48
0.1
 78
     7
 79
     2
 90
     1
140
0.12
141
0.0
146
0.71
147
0.06
176
   256
177
   256
178
     2
274
     4
284
     7
288
     1
289
     0
340
5D
371
    -1
372
    -1
  0
DIMSTYLE
105
191
330
A
100
AcDbSymbolTableRecord
100
AcDbDimStyleTableRecord
  2
AM_ANSI$4
 70
     0
  4
mm
 41
0.1
 42
0.05
 43
0.5
 44
0.1
 47
0.1
 48
0.1
 78
     7
 79
     2
 90
     1
140
0.12
141
0.0
146
0.71
147
0.06
176
   256
177
   256
178
     2
274
     4
284
     7
288
     1
289
     0
340
5D
371
    -1
372
    -1
  0
DIMSTYLE
105
192
330
A
100
AcDbSymbolTableRecord
100
AcDbDimStyleTableRecord
  2
AM_ANSI$7
 70
     0
  4
mm
 41
0.1
 42
0.05
 43
0.5
 44
0.1
 47
0.1
 48
0.1
 78
     7
 79
     2
 90
     1
140
0.24
141
0.0
146
0.71
147
0.06
176
   256
177
   256
178
     2
274
     4
284
     7
340
5D
371
    -1
372
    -1
  0
DIMSTYLE
105
193
330
A
100
AcDbSymbolTableRecord
100
AcDbDimStyleTableRecord
  2
AM_ANSI$SF
 70
     0
  4
mm
 41
0.1
 42
0.05
 43
0.5
 44
0.1
 47
0.1
 48
0.1
 75
     1
 76
     1
 78
     7
 79
     2
 90
     1
140
0.12
141
0.0
146
0.71
147
0.06
176
   256
177
   256
178
     2
274
     4
284
     7
340
5D
371
    -1
372
    -1
  0
DIMSTYLE
105
198
330
A
100
AcDbSymbolTableRecord
100
AcDbDimStyleTableRecord
  2
AM_ANSI$SH
 70
     0
  4
mm
 41
0.1
 42
0.05
 43
0.5
 44
0.1
 47
0.1
 48
0.1
 75
     1
 76
     1
 78
     7
 79
     2
 90
     1
140
0.12
141
0.0
146
0.71
147
0.06
173
     1
176
   256
177
   256
178
     2
274
     4
284
     7
340
5D
343
194
371
    -1
372
    -1
  0
DIMSTYLE
105
276
330
A
100
AcDbSymbolTableRecord
100
AcDbDimStyleTableRecord
  2
AM_DIN
 70
     0
  4
"
 41
5.0
 42
1.0
 43
10.0
 44
1.0
 47
0.1
 48
0.1
 50
90.0
 73
     0
 74
     0
 77
     1
 78
     8
 79
     2
140
5.0
141
0.0
143
0.0393701
146
0.71
147
1.5
172
     1
176
   256
177
   256
178
     2
271
     2
272
     2
283
     0
284
     8
340
5D
371
    -1
372
    -1
1001
ACAD_DSTYLE_DIMJOGGED_JOGANGLE_SYMBOL
1070
   384
1040
1.570796326794896
  0
DIMSTYLE
105
277
330
A
100
AcDbSymbolTableRecord
100
AcDbDimStyleTableRecord
  2
AM_DIN$3
 70
     0
  4
"
 41
3.5
 42
1.0
 43
10.0
 44
1.0
 47
0.1
 48
0.1
 50
90.0
 73
     0
 77
     1
 78
     8
 79
     2
140
3.5
141
0.0
143
0.0393701
146
0.71
147
1.5
176
   256
177
   256
178
     2
271
     2
272
     2
283
     0
284
     8
288
     1
289
     0
340
5D
371
    -1
372
    -1
1001
ACAD_DSTYLE_DIMJOGGED_JOGANGLE_SYMBOL
1070
   384
1040
1.570796326794896
  0
DIMSTYLE
105
278
330
A
100
AcDbSymbolTableRecord
100
AcDbDimStyleTableRecord
  2
AM_DIN$4
 70
     0
  4
"
 41
4.0
 42
1.0
 43
10.0
 44
1.0
 47
0.1
 48
0.1
 50
90.0
 73
     0
 77
     1
 78
     8
 79
     2
140
3.5
141
0.0
143
0.0393701
146
0.71
147
1.5
176
   256
177
   256
178
     2
271
     2
272
     2
283
     0
284
     8
288
     1
289
     0
340
5D
371
    -1
372
    -1
1001
ACAD_DSTYLE_DIMJOGGED_JOGANGLE_SYMBOL
1070
   384
1040
1.570796326794896
  0
DIMSTYLE
105
279
330
A
100
AcDbSymbolTableRecord
100
AcDbDimStyleTableRecord
  2
AM_DIN$6
 70
     0
  4
"
 41
4.0
 42
0.0
 43
10.0
 44
1.0
 47
0.1
 48
0.1
 50
90.0
 73
     0
 74
     0
 78
     8
 79
     2
140
3.5
141
0.0
143
0.0393701
146
0.71
147
1.5
172
     1
176
   256
177
   256
178
     2
271
     2
272
     2
283
     0
284
     8
340
5D
371
    -1
372
    -1
1001
ACAD_DSTYLE_DIMJOGGED_JOGANGLE_SYMBOL
1070
   384
1040
1.570796326794896
  0
DIMSTYLE
105
27A
330
A
100
AcDbSymbolTableRecord
100
AcDbDimStyleTableRecord
  2
AM_DIN$7
 70
     0
  4
"
 41
4.0
 42
1.0
 43
10.0
 44
1.0
 47
0.1
 48
0.1
 50
90.0
 73
     0
 74
     0
 77
     1
 78
     8
 79
     2
140
5.0
141
0.0
143
0.0393701
146
0.71
147
1.5
172
     1
176
   256
177
   256
178
     2
271
     2
272
     2
283
     0
284
     8
340
5D
371
    -1
372
    -1
1001
ACAD_DSTYLE_DIMJOGGED_JOGANGLE_SYMBOL
1070
   384
1040
1.570796326794896
  0
DIMSTYLE
105
27B
330
A
100
AcDbSymbolTableRecord
100
AcDbDimStyleTableRecord
  2
AM_DIN$SF
 70
     0
  4
"
 41
4.0
 42
1.0
 43
10.0
 44
1.0
 47
0.1
 48
0.1
 50
90.0
 73
     0
 74
     0
 75
     1
 76
     1
 77
     1
 78
     8
 79
     2
140
3.5
141
0.0
143
0.0393701
146
0.71
147
1.5
172
     1
176
   256
177
   256
178
     2
271
     2
272
     2
283
     0
284
     8
340
5D
371
    -1
372
    -1
1001
ACAD_DSTYLE_DIMJOGGED_JOGANGLE_SYMBOL
1070
   384
1040
1.570796326794896
  0
DIMSTYLE
105
27C
330
A
100
AcDbSymbolTableRecord
100
AcDbDimStyleTableRecord
  2
AM_DIN$SH
 70
     0
  4
"
 41
4.0
 42
1.0
 43
10.0
 44
1.0
 47
0.1
 48
0.1
 50
90.0
 73
     0
 74
     0
 75
     1
 76
     1
 77
     1
 78
     8
 79
     2
140
3.5
141
0.0
143
0.0393701
144
2.0
146
0.71
147
1.5
172
     1
173
     1
176
   256
177
   256
178
     2
271
     2
272
     2
283
     0
284
     8
340
5D
343
194
371
    -1
372
    -1
1001
ACAD_DSTYLE_DIMJOGGED_JOGANGLE_SYMBOL
1070
   384
1040
1.570796326794896
  0
DIMSTYLE
105
32F
102
{ACAD_REACTORS
330
3E71
330
2716
330
1C83
330
1CE4
102
}
330
A
100
AcDbSymbolTableRecord
100
AcDbDimStyleTableRecord
  2
AM_DIN$0
 70
     0
  4
"
 41
4.0
 42
0.0
 43
10.0
 44
1.0
 47
0.1
 48
0.1
 50
90.0
 73
     0
 74
     0
 77
     1
 78
     8
 79
     2
140
3.5
141
0.0
143
0.0393701
146
0.71
147
1.5
172
     1
176
   256
177
   256
178
     2
271
     2
272
     2
283
     0
284
     8
340
5D
371
    -1
372
    -1
1001
ACAD_DSTYLE_DIMJOGGED_JOGANGLE_SYMBOL
1070
   384
1040
1.570796326794896
  0
DIMSTYLE
105
330
330
A
100
AcDbSymbolTableRecord
100
AcDbDimStyleTableRecord
  2
AM_DIN$2
 70
     0
  4
"
 41
4.0
 42
0.0
 43
10.0
 44
1.0
 47
0.1
 48
0.1
 50
90.0
 73
     0
 74
     0
 77
     1
 78
     8
 79
     2
140
3.5
141
0.0
143
0.0393701
146
0.71
147
1.5
172
     1
176
   256
177
   256
178
     2
271
     2
272
     2
283
     0
284
     8
340
5D
371
    -1
372
    -1
1001
ACAD_DSTYLE_DIMJOGGED_JOGANGLE_SYMBOL
1070
   384
1040
1.570796326794896
  0
DIMSTYLE
105
3CE
330
A
100
AcDbSymbolTableRecord
100
AcDbDimStyleTableRecord
  2
AM_ISO
 70
     0
  4
"
 41
2.5
 42
1.0
 43
10.0
 44
1.0
 47
0.1
 48
0.1
 73
     0
 74
     0
 77
     1
 78
     8
 79
     2
 90
     1
140
3.5
141
0.0
143
0.0393701
146
0.71
147
1.5
172
     1
176
   256
177
   256
178
     2
271
     2
272
     3
274
     4
283
     0
284
     8
340
5D
371
    -1
372
    -1
1001
ACAD_DSTYLE_DIMJOGGED_JOGANGLE_SYMBOL
1070
   384
1040
0.7853981633974483
  0
DIMSTYLE
105
3CF
330
A
100
AcDbSymbolTableRecord
100
AcDbDimStyleTableRecord
  2
AM_ISO$3
 70
     0
  4
"
 41
2.5
 42
1.0
 43
10.0
 44
1.0
 47
0.1
 48
0.1
 73
     0
 77
     1
 78
     8
 79
     2
 90
     1
140
3.5
141
0.0
143
0.0393701
146
0.71
147
1.5
176
   256
177
   256
178
     2
271
     2
272
     3
274
     4
283
     0
284
     8
288
     1
289
     0
340
5D
371
    -1
372
    -1
1001
ACAD_DSTYLE_DIMJOGGED_JOGANGLE_SYMBOL
1070
   384
1040
0.7853981633974483
  0
DIMSTYLE
105
3D0
330
A
100
AcDbSymbolTableRecord
100
AcDbDimStyleTableRecord
  2
AM_ISO$4
 70
     0
  4
"
 41
2.5
 42
1.0
 43
10.0
 44
1.0
 47
0.1
 48
0.1
 73
     0
 77
     1
 78
     8
 79
     2
 90
     1
140
3.5
141
0.0
143
0.0393701
146
0.71
147
1.5
176
   256
177
   256
178
     2
271
     2
272
     3
274
     4
283
     0
284
     8
288
     1
289
     0
340
5D
371
    -1
372
    -1
1001
ACAD_DSTYLE_DIMJOGGED_JOGANGLE_SYMBOL
1070
   384
1040
0.7853981633974483
  0
DIMSTYLE
105
3D1
330
A
100
AcDbSymbolTableRecord
100
AcDbDimStyleTableRecord
  2
AM_ISO$6
 70
     0
  4
"
 41
2.5
 42
1.0
 43
10.0
 44
1.0
 47
0.1
 48
0.1
 73
     0
 74
     0
 78
     8
 79
     2
 90
     1
140
3.5
141
0.0
143
0.0393701
146
0.71
147
1.5
172
     1
176
   256
177
   256
178
     2
271
     2
272
     3
274
     4
283
     0
284
     8
340
5D
371
    -1
372
    -1
1001
ACAD_DSTYLE_DIMJOGGED_JOGANGLE_SYMBOL
1070
   384
1040
0.7853981633974483
  0
DIMSTYLE
105
3D2
330
A
100
AcDbSymbolTableRecord
100
AcDbDimStyleTableRecord
  2
AM_ISO$7
 70
     0
  4
"
 41
2.5
 42
1.0
 43
10.0
 44
1.0
 47
0.1
 48
0.1
 73
     0
 74
     0
 77
     1
 78
     8
 79
     2
 90
     1
140
5.0
141
0.0
143
0.0393701
146
0.71
147
1.5
172
     1
176
   256
177
   256
178
     2
271
     2
272
     3
274
     4
283
     0
284
     8
340
5D
371
    -1
372
    -1
1001
ACAD_DSTYLE_DIMJOGGED_JOGANGLE_SYMBOL
1070
   384
1040
0.7853981633974483
  0
DIMSTYLE
105
3D3
330
A
100
AcDbSymbolTableRecord
100
AcDbDimStyleTableRecord
  2
AM_ISO$SF
 70
     0
  4
"
 41
2.5
 42
1.0
 43
10.0
 44
1.0
 47
0.1
 48
0.1
 73
     0
 74
     0
 75
     1
 76
     1
 77
     1
 78
     8
 79
     2
 90
     1
140
3.5
141
0.0
143
0.0393701
146
0.71
147
1.5
172
     1
176
   256
177
   256
178
     2
271
     2
272
     3
274
     4
283
     0
284
     8
340
5D
371
    -1
372
    -1
1001
ACAD_DSTYLE_DIMJOGGED_JOGANGLE_SYMBOL
1070
   384
1040
0.7853981633974483
  0
DIMSTYLE
105
3D4
330
A
100
AcDbSymbolTableRecord
100
AcDbDimStyleTableRecord
  2
AM_ISO$SH
 70
     0
  4
"
 41
2.5
 42
1.0
 43
10.0
 44
1.0
 47
0.1
 48
0.1
 73
     0
 74
     0
 75
     1
 76
     1
 77
     1
 78
     8
 79
     2
 90
     1
140
3.5
141
0.0
143
0.0393701
144
2.0
146
0.71
147
1.5
172
     1
173
     1
176
   256
177
   256
178
     2
271
     2
272
     3
274
     4
283
     0
284
     8
340
5D
343
194
371
    -1
372
    -1
1001
ACAD_DSTYLE_DIMJOGGED_JOGANGLE_SYMBOL
1070
   384
1040
0.7853981633974483
  0
DIMSTYLE
105
3847
330
A
100
AcDbSymbolTableRecord
100
AcDbDimStyleTableRecord
  2
DIMSTYLE_1
 70
     0
 41
4.0
 47
0.1
 48
0.1
 73
     0
 74
     0
 77
     1
 78
     8
140
3.5
271
     3
272
     3
284
     8
340
5D
341
3840
342
3840
343
3840
344
3840
  0
DIMSTYLE
105
3848
330
A
100
AcDbSymbolTableRecord
100
AcDbDimStyleTableRecord
  2
DIMSTYLE_3
 70
     0
 41
4.0
 47
0.5
 48
0.5
 73
     0
 74
     0
 77
     1
 78
     8
140
3.5
271
     2
272
     2
284
     8
340
5D
341
3840
342
3840
343
3840
344
3840
  0
DIMSTYLE
105
3849
330
A
100
AcDbSymbolTableRecord
100
AcDbDimStyleTableRecord
  2
DIMSTYLE_4
 70
     0
 41
4.0
 47
0.1
 48
0.1
 73
     0
 74
     0
 77
     1
 78
     8
140
3.500000052199998
271
     3
272
     3
284
     8
340
5D
341
3840
342
3840
343
3840
344
3840
  0
ENDTAB
  0
TABLE
  2
BLOCK_RECORD
  5
1
330
0
100
AcDbSymbolTable
 70
    63
  0
BLOCK_RECORD
  5
74
102
{ACAD_XDICTIONARY
360
A88
102
}
330
1
100
AcDbSymbolTableRecord
100
AcDbBlockTableRecord
  2
*Model_Space
340
77
 70
     0
280
     1
281
     0
  0
BLOCK_RECORD
  5
70
330
1
100
AcDbSymbolTableRecord
100
AcDbBlockTableRecord
  2
*Paper_Space
340
73
 70
     0
280
     1
281
     0
  0
BLOCK_RECORD
  5
194
330
1
100
AcDbSymbolTableRecord
100
AcDbBlockTableRecord
  2
GENAXEH
340
0
 70
     0
280
     1
281
     0
  0
BLOCK_RECORD
  5
1C84
330
1
100
AcDbSymbolTableRecord
100
AcDbBlockTableRecord
  2
*D1
340
0
 70
     0
280
     1
281
     0
  0
BLOCK_RECORD
  5
1CE5
330
1
100
AcDbSymbolTableRecord
100
AcDbBlockTableRecord
  2
*D3
340
0
 70
     0
280
     1
281
     0
  0
BLOCK_RECORD
  5
2717
330
1
100
AcDbSymbolTableRecord
100
AcDbBlockTableRecord
  2
*D8
340
0
 70
     0
280
     1
281
     0
  0
BLOCK_RECORD
  5
3840
330
1
100
AcDbSymbolTableRecord
100
AcDbBlockTableRecord
  2
_FILLED
340
0
102
{BLKREFS
102
}
 70
     0
280
     1
281
     0
  0
BLOCK_RECORD
  5
3E72
330
1
100
AcDbSymbolTableRecord
100
AcDbBlockTableRecord
  2
*D59
340
0
 70
     0
280
     1
281
     0
  0
BLOCK_RECORD
  5
3F56
330
1
100
AcDbSymbolTableRecord
100
AcDbBlockTableRecord
  2
_ACMFILLED
340
0
 70
     0
280
     1
281
     0
  0
BLOCK_RECORD
  5
3F61
330
1
100
AcDbSymbolTableRecord
100
AcDbBlockTableRecord
  2
_ACMFILLEDHALF
340
0
 70
     0
280
     1
281
     0
  0
BLOCK_RECORD
  5
3F6D
330
1
100
AcDbSymbolTableRecord
100
AcDbBlockTableRecord
  2
_ACMFILLED15
340
0
 70
     0
280
     1
281
     0
  0
ENDTAB
  0
ENDSEC
  0
SECTION
  2
BLOCKS
  0
BLOCK
  5
75
330
74
100
AcDbEntity
  8
0
100
AcDbBlockBegin
  2
*Model_Space
 70
     0
 10
0.0
 20
0.0
 30
0.0
  3
*Model_Space
  1

  0
ENDBLK
  5
76
330
74
100
AcDbEntity
  8
0
100
AcDbBlockEnd
  0
BLOCK
  5
71
330
70
100
AcDbEntity
 67
     1
  8
0
100
AcDbBlockBegin
  2
*Paper_Space
 70
     0
 10
0.0
 20
0.0
 30
0.0
  3
*Paper_Space
  1

  0
ENDBLK
  5
72
330
70
100
AcDbEntity
 67
     1
  8
0
100
AcDbBlockEnd
  0
BLOCK
  5
3DF6
330
194
100
AcDbEntity
  8
0
100
AcDbBlockBegin
  2
GENAXEH
 70
     0
 10
0.0
 20
0.0
 30
0.0
  3
GENAXEH
  1

  0
LINE
  5
3DF7
330
194
100
AcDbEntity
  8
0
100
AcDbLine
 10
-1.0
 20
0.0
 30
0.0
 11
1.0
 21
0.0
 31
0.0
  0
ENDBLK
  5
3DF8
330
194
100
AcDbEntity
  8
0
100
AcDbBlockEnd
  0
BLOCK
  5
1C85
330
1C84
100
AcDbEntity
  8
0
100
AcDbBlockBegin
  2
*D1
 70
     1
 10
0.0
 20
0.0
 30
0.0
  3
*D1
  1

  0
LINE
  5
3F19
330
1C84
100
AcDbEntity
  8
AM_5 ( Bemassung)
440
 16777216
100
AcDbLine
 10
4313.258493769557
 20
4277.007843153748
 30
0.0
 11
4444.068896005588
 21
4277.007843153748
 31
0.0
  0
LINE
  5
3F1A
330
1C84
100
AcDbEntity
  8
AM_5 ( Bemassung)
440
 16777216
100
AcDbLine
 10
4312.896915125572
 20
4305.497874673906
 30
0.0
 11
4444.068896005588
 21
4305.497874673906
 31
0.0
  0
LINE
  5
3F1B
330
1C84
100
AcDbEntity
  8
AM_5 ( Bemassung)
440
 16777216
100
AcDbLine
 10
4424.068896005588
 20
4257.007843153749
 30
0.0
 11
4424.068896005588
 21
4237.007843153748
 31
0.0
  0
LINE
  5
3F1C
330
1C84
100
AcDbEntity
  8
AM_5 ( Bemassung)
440
 16777216
100
AcDbLine
 10
4424.068896005588
 20
4325.497874673906
 30
0.0
 11
4424.068896005588
 21
4390.515610008148
 31
0.0
  0
LINE
  5
3F1D
330
1C84
100
AcDbEntity
  8
AM_5 ( Bemassung)
440
 16777216
100
AcDbLine
 10
4424.068896005588
 20
4277.007843153748
 30
0.0
 11
4424.068896005588
 21
4305.497874673906
 31
0.0
  0
SOLID
  5
3F1E
330
1C84
100
AcDbEntity
  8
AM_5 ( Bemassung)
440
 16777216
100
AcDbTrace
 10
4420.735562672255
 20
4257.007843153749
 30
0.0
 11
4427.402229338921
 21
4257.007843153749
 31
0.0
 12
4424.068896005588
 22
4277.007843153748
 32
0.0
 13
4424.068896005588
 23
4277.007843153748
 33
0.0
  0
SOLID
  5
3F1F
330
1C84
100
AcDbEntity
  8
AM_5 ( Bemassung)
440
 16777216
100
AcDbTrace
 10
4420.735562672255
 20
4325.497874673906
 30
0.0
 11
4427.402229338921
 21
4325.497874673906
 31
0.0
 12
4424.068896005588
 22
4305.497874673906
 32
0.0
 13
4424.068896005588
 23
4305.497874673906
 33
0.0
  0
MTEXT
  5
3F20
330
1C84
100
AcDbEntity
  8
AM_5 ( Bemassung)
 62
     2
440
 16777216
100
AcDbMText
 10
4405.850614968751
 20
4368.006742341028
 30
0.0
 40
20.0
 41
0.0
 46
0.0
 71
     5
 72
     1
  1
28
 11
0.0000000000000001
 21
1.0
 31
0.0
 73
     1
 44
1.0
  0
POINT
  5
3F21
330
1C84
100
AcDbEntity
  8
Defpoints
 62
     0
440
 16777216
100
AcDbPoint
 10
4313.258493769557
 20
4277.007843153748
 30
0.0
  0
POINT
  5
3F22
330
1C84
100
AcDbEntity
  8
Defpoints
 62
     0
440
 16777216
100
AcDbPoint
 10
4312.896915125572
 20
4305.497874673906
 30
0.0
  0
POINT
  5
3F23
330
1C84
100
AcDbEntity
  8
Defpoints
 62
     0
440
 16777216
100
AcDbPoint
 10
4424.068896005588
 20
4305.497874673906
 30
0.0
  0
ENDBLK
  5
1C86
330
1C84
100
AcDbEntity
  8
0
100
AcDbBlockEnd
  0
BLOCK
  5
1CE6
330
1CE5
100
AcDbEntity
  8
0
100
AcDbBlockBegin
  2
*D3
 70
     1
 10
0.0
 20
0.0
 30
0.0
  3
*D3
  1

  0
LINE
  5
3EFA
330
1CE5
100
AcDbEntity
  8
AM_5 ( Bemassung)
440
 16777216
100
AcDbLine
 10
4370.396914261969
 20
4285.497874974278
 30
0.0
 11
4370.396914261969
 21
4349.497875683907
 31
0.0
  0
LINE
  5
3EFB
330
1CE5
100
AcDbEntity
  8
AM_5 ( Bemassung)
440
 16777216
100
AcDbLine
 10
4255.396915989071
 20
4285.497874974278
 30
0.0
 11
4255.396915989071
 21
4349.497875683907
 31
0.0
  0
LINE
  5
3EFC
330
1CE5
100
AcDbEntity
  8
AM_5 ( Bemassung)
440
 16777216
100
AcDbLine
 10
4350.396914261969
 20
4329.497875683906
 30
0.0
 11
4275.396915989071
 21
4329.497875683906
 31
0.0
  0
SOLID
  5
3EFD
330
1CE5
100
AcDbEntity
  8
AM_5 ( Bemassung)
440
 16777216
100
AcDbTrace
 10
4350.396914261969
 20
4332.831209017239
 30
0.0
 11
4350.396914261969
 21
4326.164542350573
 31
0.0
 12
4370.396914261969
 22
4329.497875683906
 32
0.0
 13
4370.396914261969
 23
4329.497875683906
 33
0.0
  0
SOLID
  5
3EFE
330
1CE5
100
AcDbEntity
  8
AM_5 ( Bemassung)
440
 16777216
100
AcDbTrace
 10
4275.396915989071
 20
4332.831209017239
 30
0.0
 11
4275.396915989071
 21
4326.164542350573
 31
0.0
 12
4255.396915989071
 22
4329.497875683906
 32
0.0
 13
4255.396915989071
 23
4329.497875683906
 33
0.0
  0
MTEXT
  5
3EFF
330
1CE5
100
AcDbEntity
  8
AM_5 ( Bemassung)
 62
     2
440
 16777216
100
AcDbMText
 10
4312.89691512552
 20
4347.866224933565
 30
0.0
 40
20.0
 41
0.0
 46
0.0
 71
     5
 72
     1
  1
%%c 115
 73
     1
 44
1.0
  0
POINT
  5
3F00
330
1CE5
100
AcDbEntity
  8
Defpoints
 62
     0
440
 16777216
100
AcDbPoint
 10
4370.396914261969
 20
4285.497874974278
 30
0.0
  0
POINT
  5
3F01
330
1CE5
100
AcDbEntity
  8
Defpoints
 62
     0
440
 16777216
100
AcDbPoint
 10
4255.396915989071
 20
4285.497874974278
 30
0.0
  0
POINT
  5
3F02
330
1CE5
100
AcDbEntity
  8
Defpoints
 62
     0
440
 16777216
100
AcDbPoint
 10
4255.396915989071
 20
4329.497875683906
 30
0.0
  0
ENDBLK
  5
1CE7
330
1CE5
100
AcDbEntity
  8
0
100
AcDbBlockEnd
  0
BLOCK
  5
2718
330
2717
100
AcDbEntity
  8
0
100
AcDbBlockBegin
  2
*D8
 70
     1
 10
0.0
 20
0.0
 30
0.0
  3
*D8
  1

  0
LINE
  5
3F03
330
2717
100
AcDbEntity
  8
AM_5 ( Bemassung)
440
 16777216
100
AcDbLine
 10
4286.896915516051
 20
4231.953782306527
 30
0.0
 11
4286.896915516051
 21
4168.38155048348
 31
0.0
  0
LINE
  5
3F04
330
2717
100
AcDbEntity
  8
AM_5 ( Bemassung)
440
 16777216
100
AcDbLine
 10
4338.896914735092
 20
4231.953782306527
 30
0.0
 11
4338.896914735092
 21
4168.38155048348
 31
0.0
  0
LINE
  5
3F05
330
2717
100
AcDbEntity
  8
AM_5 ( Bemassung)
440
 16777216
100
AcDbLine
 10
4358.896914735091
 20
4188.381550483479
 30
0.0
 11
4378.896914735092
 21
4188.381550483479
 31
0.0
  0
LINE
  5
3F06
330
2717
100
AcDbEntity
  8
AM_5 ( Bemassung)
440
 16777216
100
AcDbLine
 10
4266.896915516051
 20
4188.381550483479
 30
0.0
 11
4172.424882773897
 21
4188.381550483479
 31
0.0
  0
LINE
  5
3F07
330
2717
100
AcDbEntity
  8
AM_5 ( Bemassung)
440
 16777216
100
AcDbLine
 10
4338.896914735092
 20
4188.381550483479
 30
0.0
 11
4286.896915516051
 21
4188.381550483479
 31
0.0
  0
SOLID
  5
3F08
330
2717
100
AcDbEntity
  8
AM_5 ( Bemassung)
440
 16777216
100
AcDbTrace
 10
4358.896914735091
 20
4191.714883816813
 30
0.0
 11
4358.896914735091
 21
4185.048217150147
 31
0.0
 12
4338.896914735092
 22
4188.381550483479
 32
0.0
 13
4338.896914735092
 23
4188.381550483479
 33
0.0
  0
SOLID
  5
3F09
330
2717
100
AcDbEntity
  8
AM_5 ( Bemassung)
440
 16777216
100
AcDbTrace
 10
4266.896915516051
 20
4191.714883816813
 30
0.0
 11
4266.896915516051
 21
4185.048217150147
 31
0.0
 12
4286.896915516051
 22
4188.381550483479
 32
0.0
 13
4286.896915516051
 23
4188.381550483479
 33
0.0
  0
MTEXT
  5
3F0A
330
2717
100
AcDbEntity
  8
AM_5 ( Bemassung)
 62
     2
440
 16777216
100
AcDbMText
 10
4209.660899144973
 20
4206.749899733139
 30
0.0
 40
20.0
 41
0.0
 46
0.0
 71
     5
 72
     1
  1
%%c 52
 73
     1
 44
1.0
  0
POINT
  5
3F0B
330
2717
100
AcDbEntity
  8
Defpoints
 62
     0
440
 16777216
100
AcDbPoint
 10
4286.896915516051
 20
4231.953782306527
 30
0.0
  0
POINT
  5
3F0C
330
2717
100
AcDbEntity
  8
Defpoints
 62
     0
440
 16777216
100
AcDbPoint
 10
4338.896914735092
 20
4231.953782306527
 30
0.0
  0
POINT
  5
3F0D
330
2717
100
AcDbEntity
  8
Defpoints
 62
     0
440
 16777216
100
AcDbPoint
 10
4338.896914735092
 20
4188.381550483479
 30
0.0
  0
ENDBLK
  5
2719
330
2717
100
AcDbEntity
  8
0
100
AcDbBlockEnd
  0
BLOCK
  5
3841
330
3840
100
AcDbEntity
  8
0
100
AcDbBlockBegin
  2
_FILLED
 70
     0
 10
0.0
 20
0.0
 30
0.0
  3
_FILLED
  1

  0
SOLID
  5
3842
330
3840
100
AcDbEntity
  8
0
  6
ByBlock
 62
     0
100
AcDbTrace
 10
0.0
 20
0.0
 30
0.0
 11
-1.0
 21
0.1875
 31
0.0
 12
-1.0
 22
-0.1875
 32
0.0
 13
-1.0
 23
-0.1875
 33
0.0
  0
ENDBLK
  5
3843
330
3840
100
AcDbEntity
  8
0
  6
ByBlock
 62
     0
100
AcDbBlockEnd
  0
BLOCK
  5
3E73
330
3E72
100
AcDbEntity
  8
0
100
AcDbBlockBegin
  2
*D59
 70
     1
 10
0.0
 20
0.0
 30
0.0
  3
*D59
  1

  0
LINE
  5
3EDB
330
3E72
100
AcDbEntity
  8
AM_5 ( Bemassung)
440
 16777216
100
AcDbLine
 10
4424.068896005588
 20
4277.007843153748
 30
0.0
 11
4445.231675617985
 21
4277.007843153748
 31
0.0
  0
LINE
  5
3EDC
330
3E72
100
AcDbEntity
  8
AM_5 ( Bemassung)
440
 16777216
100
AcDbLine
 10
4333.464000500081
 20
3298.974075051847
 30
0.0
 11
4445.231675617985
 21
3298.974075051847
 31
0.0
  0
LINE
  5
3EDD
330
3E72
100
AcDbEntity
  8
AM_5 ( Bemassung)
440
 16777216
100
AcDbLine
 10
4425.231675617984
 20
4257.007843153749
 30
0.0
 11
4425.231675617984
 21
3318.974075051847
 31
0.0
  0
SOLID
  5
3EDE
330
3E72
100
AcDbEntity
  8
AM_5 ( Bemassung)
440
 16777216
100
AcDbTrace
 10
4421.898342284651
 20
4257.007843153749
 30
0.0
 11
4428.565008951317
 21
4257.007843153749
 31
0.0
 12
4425.231675617984
 22
4277.007843153748
 32
0.0
 13
4425.231675617984
 23
4277.007843153748
 33
0.0
  0
SOLID
  5
3EDF
330
3E72
100
AcDbEntity
  8
AM_5 ( Bemassung)
440
 16777216
100
AcDbTrace
 10
4421.898342284651
 20
3318.974075051847
 30
0.0
 11
4428.565008951317
 21
3318.974075051847
 31
0.0
 12
4425.231675617984
 22
3298.974075051847
 32
0.0
 13
4425.231675617984
 23
3298.974075051847
 33
0.0
  0
MTEXT
  5
3EE0
330
3E72
100
AcDbEntity
  8
AM_5 ( Bemassung)
 62
     2
440
 16777216
100
AcDbMText
 10
4407.013394581148
 20
3796.51422870821
 30
0.0
 40
20.0
 41
0.0
 46
0.0
 71
     5
 72
     1
  1
1000-500
 11
0.0000000000000001
 21
1.0
 31
0.0
 73
     1
 44
1.0
  0
POINT
  5
3EE1
330
3E72
100
AcDbEntity
  8
Defpoints
 62
     0
440
 16777216
100
AcDbPoint
 10
4424.068896005588
 20
4277.007843153748
 30
0.0
  0
POINT
  5
3EE2
330
3E72
100
AcDbEntity
  8
Defpoints
 62
     0
440
 16777216
100
AcDbPoint
 10
4333.464000500081
 20
3298.974075051847
 30
0.0
  0
POINT
  5
3EE3
330
3E72
100
AcDbEntity
  8
Defpoints
 62
     0
440
 16777216
100
AcDbPoint
 10
4425.231675617984
 20
3298.974075051847
 30
0.0
  0
ENDBLK
  5
3E74
330
3E72
100
AcDbEntity
  8
0
100
AcDbBlockEnd
  0
BLOCK
  5
3F57
330
3F56
100
AcDbEntity
  8
0
100
AcDbBlockBegin
  2
_ACMFILLED
 70
     0
 10
0.0
 20
0.0
 30
0.0
  3
_ACMFILLED
  1

  0
TRACE
  5
3F59
330
3F56
100
AcDbEntity
  8
AM_0 ( Kontur 0.5 )
 62
     0
100
AcDbTrace
 10
-1.0
 20
-0.166666666
 30
0.0
 11
-1.0
 21
0.166666666
 31
0.0
 12
0.0
 22
0.0
 32
0.0
 13
0.0
 23
0.0
 33
0.0
  0
ENDBLK
  5
3F58
330
3F56
100
AcDbEntity
  8
0
100
AcDbBlockEnd
  0
BLOCK
  5
3F62
330
3F61
100
AcDbEntity
  8
0
100
AcDbBlockBegin
  2
_ACMFILLEDHALF
 70
     0
 10
0.0
 20
0.0
 30
0.0
  3
_ACMFILLEDHALF
  1

  0
TRACE
  5
3F64
330
3F61
100
AcDbEntity
  8
AM_0 ( Kontur 0.5 )
 62
     0
100
AcDbTrace
 10
-0.8
 20
0.0
 30
0.0
 11
-1.0
 21
0.166666666
 31
0.0
 12
0.0
 22
0.0
 32
0.0
 13
0.0
 23
0.0
 33
0.0
  0
LINE
  5
3F65
330
3F61
100
AcDbEntity
  8
AM_0 ( Kontur 0.5 )
 62
     0
100
AcDbLine
 10
-1.0
 20
0.0
 30
0.0
 11
-0.8
 21
0.0
 31
0.0
  0
ENDBLK
  5
3F63
330
3F61
100
AcDbEntity
  8
0
100
AcDbBlockEnd
  0
BLOCK
  5
3F6E
330
3F6D
100
AcDbEntity
  8
0
100
AcDbBlockBegin
  2
_ACMFILLED15
 70
     0
 10
0.0
 20
0.0
 30
0.0
  3
_ACMFILLED15
  1

  0
TRACE
  5
3F70
330
3F6D
100
AcDbEntity
  8
AM_0 ( Kontur 0.5 )
 62
     0
100
AcDbTrace
 10
-1.0
 20
-0.131652497
 30
0.0
 11
-1.0
 21
0.131652497
 31
0.0
 12
0.0
 22
0.0
 32
0.0
 13
0.0
 23
0.0
 33
0.0
  0
ENDBLK
  5
3F6F
330
3F6D
100
AcDbEntity
  8
0
100
AcDbBlockEnd
  0
ENDSEC
  0
SECTION
  2
ENTITIES
  0
LINE
  5
17DA
330
74
100
AcDbEntity
  8
8
 62
     9
100
AcDbLine
 10
4398.829697703598
 20
4276.992691145379
 30
-508.800592358586
 11
4309.731178563999
 21
4276.992691145379
 31
-508.800592358586
  0
LINE
  5
17DB
330
74
100
AcDbEntity
  8
AM_3 ( Verdeckt )
100
AcDbLine
 10
4381.97786584391
 20
4269.521312934276
 30
-254.400296179293
 11
4388.867916920307
 21
4269.521312934276
 31
-254.400296179293
  0
LINE
  5
17DC
330
74
100
AcDbEntity
  8
AM_3 ( Verdeckt )
100
AcDbLine
 10
4377.517716771207
 20
4271.521312904236
 30
-254.400296179293
 11
4395.102533903616
 21
4271.521312904236
 31
-254.400296179293
  0
LINE
  5
17DD
330
74
100
AcDbEntity
  8
AM_3 ( Verdeckt )
100
AcDbLine
 10
4372.194313039313
 20
4273.521312874208
 30
-254.400296179293
 11
4399.834448332011
 21
4273.521312874208
 31
-254.400296179293
  0
LINE
  5
17DE
330
74
100
AcDbEntity
  8
8
 62
     9
100
AcDbLine
 10
4364.07332476361
 20
4275.521312844166
 30
-254.400296179293
 11
4413.934274432715
 21
4275.521312844166
 31
-254.400296179293
  0
ARC
  5
17DF
330
74
100
AcDbEntity
  8
AM_0 ( Kontur 0.5 )
100
AcDbCircle
 10
4163.116293175572
 20
4224.701054211819
 30
0.0
 40
119.999998197781
100
AcDbArc
 50
4.131104206219915
 51
30.44029185820237
  0
ARC
  5
17E0
330
74
100
AcDbEntity
  8
AM_0 ( Kontur 0.5 )
100
AcDbCircle
 10
4284.300612738272
 20
4233.453782283997
 30
0.0
 40
1.49999997747226
100
AcDbArc
 50
184.1311042062199
 51
270.0
  0
POLYLINE
  5
17E1
330
74
100
AcDbEntity
  8
AM_0 ( Kontur 0.5 )
100
AcDb3dPolyline
 66
     1
 10
0.0
 20
0.0
 30
0.0
 70
     8
  0
VERTEX
  5
17E2
330
17E1
100
AcDbEntity
  8
AM_0 ( Kontur 0.5 )
100
AcDbVertex
100
AcDb3dPolylineVertex
 10
4285.203724305269
 20
4277.599870607388
 30
-254.400296179293
 70
    32
  0
VERTEX
  5
17E3
330
17E1
100
AcDbEntity
  8
AM_0 ( Kontur 0.5 )
100
AcDbVertex
100
AcDb3dPolylineVertex
 10
4283.374428482046
 20
4279.340503027319
 30
-254.400296179293
 70
    32
  0
VERTEX
  5
17E4
330
17E1
100
AcDbEntity
  8
AM_0 ( Kontur 0.5 )
100
AcDbVertex
100
AcDb3dPolylineVertex
 10
4282.725783199889
 20
4280.414669944209
 30
-254.400296179293
 70
    32
  0
SEQEND
  5
17E5
330
17E1
100
AcDbEntity
  8
AM_0 ( Kontur 0.5 )
 62
     3
  0
LINE
  5
17E6
330
74
100
AcDbEntity
  8
AM_0 ( Kontur 0.5 )
100
AcDbLine
 10
4280.316208725671
 20
4285.407440666069
 30
-254.400296179293
 11
4282.725783200872
 21
4280.414669943779
 31
-254.400296179293
  0
POLYLINE
  5
17E7
330
74
100
AcDbEntity
  8
AM_0 ( Kontur 0.5 )
100
AcDb3dPolyline
 66
     1
 10
0.0
 20
0.0
 30
0.0
 70
     8
  0
VERTEX
  5
17E8
330
17E7
100
AcDbEntity
  8
AM_0 ( Kontur 0.5 )
100
AcDbVertex
100
AcDb3dPolylineVertex
 10
4285.565075105969
 20
4280.414669944207
 30
-254.400296179293
 70
    32
  0
VERTEX
  5
17E9
330
17E7
100
AcDbEntity
  8
AM_0 ( Kontur 0.5 )
100
AcDbVertex
100
AcDb3dPolylineVertex
 10
4285.728413123023
 20
4279.002316864603
 30
-254.400296179293
 70
    32
  0
VERTEX
  5
17EA
330
17E7
100
AcDbEntity
  8
AM_0 ( Kontur 0.5 )
100
AcDbVertex
100
AcDb3dPolylineVertex
 10
4285.472668754125
 20
4278.084471912457
 30
-254.400296179293
 70
    32
  0
VERTEX
  5
17EB
330
17E7
100
AcDbEntity
  8
AM_0 ( Kontur 0.5 )
100
AcDbVertex
100
AcDb3dPolylineVertex
 10
4284.861818974339
 20
4277.324977381543
 30
-254.400296179293
 70
    32
  0
VERTEX
  5
17EC
330
17E7
100
AcDbEntity
  8
AM_0 ( Kontur 0.5 )
100
AcDbVertex
100
AcDb3dPolylineVertex
 10
4284.025011023212
 20
4276.951748008178
 30
-254.400296179293
 70
    32
  0
VERTEX
  5
17ED
330
17E7
100
AcDbEntity
  8
AM_0 ( Kontur 0.5 )
100
AcDbVertex
100
AcDb3dPolylineVertex
 10
4283.080275247984
 20
4277.007760681764
 30
-254.400296179293
 70
    32
  0
VERTEX
  5
17EE
330
17E7
100
AcDbEntity
  8
AM_0 ( Kontur 0.5 )
100
AcDbVertex
100
AcDb3dPolylineVertex
 10
4282.130839378277
 20
4277.363109242767
 30
-254.400296179293
 70
    32
  0
VERTEX
  5
17EF
330
17E7
100
AcDbEntity
  8
AM_0 ( Kontur 0.5 )
100
AcDbVertex
100
AcDb3dPolylineVertex
 10
4280.901576596143
 20
4278.182065921941
 30
-254.400296179293
 70
    32
  0
VERTEX
  5
17F0
330
17E7
100
AcDbEntity
  8
AM_0 ( Kontur 0.5 )
100
AcDbVertex
100
AcDb3dPolylineVertex
 10
4279.960963259646
 20
4279.212580862618
 30
-254.400296179293
 70
    32
  0
VERTEX
  5
17F1
330
17E7
100
AcDbEntity
  8
AM_0 ( Kontur 0.5 )
100
AcDbVertex
100
AcDb3dPolylineVertex
 10
4279.225604685531
 20
4280.414669944212
 30
-254.400296179293
 70
    32
  0
SEQEND
  5
17F2
330
17E7
100
AcDbEntity
  8
AM_0 ( Kontur 0.5 )
 62
     3
  0
LINE
  5
17F3
330
74
100
AcDbEntity
  8
AM_0 ( Kontur 0.5 )
100
AcDbLine
 10
4284.220332194971
 20
4285.407440666069
 30
-254.400296179293
 11
4285.565075106968
 21
4280.414669943779
 31
-254.400296179293
  0
LINE
  5
17F4
330
74
100
AcDbEntity
  8
AM_0 ( Kontur 0.5 )
100
AcDbLine
 10
4276.816030211372
 20
4285.407440666069
 30
-254.400296179293
 11
4279.225604686572
 21
4280.414669943779
 31
-254.400296179293
  0
POLYLINE
  5
17F5
330
74
100
AcDbEntity
  8
AM_0 ( Kontur 0.5 )
100
AcDb3dPolyline
 66
     1
 10
0.0
 20
0.0
 30
0.0
 70
     8
  0
VERTEX
  5
17F6
330
17F5
100
AcDbEntity
  8
AM_0 ( Kontur 0.5 )
100
AcDbVertex
100
AcDb3dPolylineVertex
 10
4274.760134894871
 20
4280.414669944207
 30
-254.400296179293
 70
    32
  0
VERTEX
  5
17F7
330
17F5
100
AcDbEntity
  8
AM_0 ( Kontur 0.5 )
100
AcDbVertex
100
AcDb3dPolylineVertex
 10
4275.498774626717
 20
4278.71372591758
 30
-254.400296179293
 70
    32
  0
VERTEX
  5
17F8
330
17F5
100
AcDbEntity
  8
AM_0 ( Kontur 0.5 )
100
AcDbVertex
100
AcDb3dPolylineVertex
 10
4275.437813531438
 20
4277.890674443812
 30
-254.400296179293
 70
    32
  0
VERTEX
  5
17F9
330
17F5
100
AcDbEntity
  8
AM_0 ( Kontur 0.5 )
100
AcDbVertex
100
AcDb3dPolylineVertex
 10
4274.925045519657
 20
4277.15788351256
 30
-254.400296179293
 70
    32
  0
VERTEX
  5
17FA
330
17F5
100
AcDbEntity
  8
AM_0 ( Kontur 0.5 )
100
AcDbVertex
100
AcDb3dPolylineVertex
 10
4274.457549616301
 20
4276.911148265042
 30
-254.400296179293
 70
    32
  0
VERTEX
  5
17FB
330
17F5
100
AcDbEntity
  8
AM_0 ( Kontur 0.5 )
100
AcDbVertex
100
AcDb3dPolylineVertex
 10
4273.988248625407
 20
4276.956899136547
 30
-254.400296179293
 70
    32
  0
VERTEX
  5
17FC
330
17F5
100
AcDbEntity
  8
AM_0 ( Kontur 0.5 )
100
AcDbVertex
100
AcDb3dPolylineVertex
 10
4273.305911665658
 20
4277.449951884
 30
-254.400296179293
 70
    32
  0
VERTEX
  5
17FD
330
17F5
100
AcDbEntity
  8
AM_0 ( Kontur 0.5 )
100
AcDbVertex
100
AcDb3dPolylineVertex
 10
4272.280450465742
 20
4278.851718354816
 30
-254.400296179293
 70
    32
  0
VERTEX
  5
17FE
330
17F5
100
AcDbEntity
  8
AM_0 ( Kontur 0.5 )
100
AcDbVertex
100
AcDb3dPolylineVertex
 10
4271.329238226317
 20
4280.414669944216
 30
-254.400296179293
 70
    32
  0
SEQEND
  5
17FF
330
17F5
100
AcDbEntity
  8
AM_0 ( Kontur 0.5 )
 62
     3
  0
LINE
  5
1800
330
74
100
AcDbEntity
  8
AM_0 ( Kontur 0.5 )
100
AcDbLine
 10
4272.595650211869
 20
4285.407440666069
 30
-254.400296179293
 11
4274.76013489547
 21
4280.414669943779
 31
-254.400296179293
  0
LINE
  5
1801
330
74
100
AcDbEntity
  8
AM_0 ( Kontur 0.5 )
100
AcDbLine
 10
4268.588470854068
 20
4285.407440666069
 30
-254.400296179293
 11
4271.329238226972
 21
4280.414669943779
 31
-254.400296179293
  0
POLYLINE
  5
1802
330
74
100
AcDbEntity
  8
AM_0 ( Kontur 0.5 )
100
AcDb3dPolyline
 66
     1
 10
0.0
 20
0.0
 30
0.0
 70
     8
  0
VERTEX
  5
1803
330
1802
100
AcDbEntity
  8
AM_0 ( Kontur 0.5 )
100
AcDbVertex
100
AcDb3dPolylineVertex
 10
4351.033695356269
 20
4280.414669944207
 30
-254.400296179293
 70
    32
  0
VERTEX
  5
1804
330
1802
100
AcDbEntity
  8
AM_0 ( Kontur 0.5 )
100
AcDbVertex
100
AcDb3dPolylineVertex
 10
4350.295055624422
 20
4278.71372591758
 30
-254.400296179293
 70
    32
  0
VERTEX
  5
1805
330
1802
100
AcDbEntity
  8
AM_0 ( Kontur 0.5 )
100
AcDbVertex
100
AcDb3dPolylineVertex
 10
4350.356016719699
 20
4277.890674443812
 30
-254.400296179293
 70
    32
  0
VERTEX
  5
1806
330
1802
100
AcDbEntity
  8
AM_0 ( Kontur 0.5 )
100
AcDbVertex
100
AcDb3dPolylineVertex
 10
4350.868784731384
 20
4277.15788351256
 30
-254.400296179293
 70
    32
  0
VERTEX
  5
1807
330
1802
100
AcDbEntity
  8
AM_0 ( Kontur 0.5 )
100
AcDbVertex
100
AcDb3dPolylineVertex
 10
4351.336280634742
 20
4276.911148265042
 30
-254.400296179293
 70
    32
  0
VERTEX
  5
1808
330
1802
100
AcDbEntity
  8
AM_0 ( Kontur 0.5 )
100
AcDbVertex
100
AcDb3dPolylineVertex
 10
4351.805581625637
 20
4276.956899136547
 30
-254.400296179293
 70
    32
  0
VERTEX
  5
1809
330
1802
100
AcDbEntity
  8
AM_0 ( Kontur 0.5 )
100
AcDbVertex
100
AcDb3dPolylineVertex
 10
4352.487918585386
 20
4277.449951884
 30
-254.400296179293
 70
    32
  0
VERTEX
  5
180A
330
1802
100
AcDbEntity
  8
AM_0 ( Kontur 0.5 )
100
AcDbVertex
100
AcDb3dPolylineVertex
 10
4353.5133797853
 20
4278.851718354816
 30
-254.400296179293
 70
    32
  0
VERTEX
  5
180B
330
1802
100
AcDbEntity
  8
AM_0 ( Kontur 0.5 )
100
AcDbVertex
100
AcDb3dPolylineVertex
 10
4354.464592024721
 20
4280.414669944216
 30
-254.400296179293
 70
    32
  0
SEQEND
  5
180C
330
1802
100
AcDbEntity
  8
AM_0 ( Kontur 0.5 )
 62
     3
  0
LINE
  5
180D
330
74
100
AcDbEntity
  8
AM_0 ( Kontur 0.5 )
100
AcDbLine
 10
4357.20535939697
 20
4285.407440666069
 30
-254.400296179293
 11
4354.464592024068
 21
4280.414669943779
 31
-254.400296179293
  0
LINE
  5
180E
330
74
100
AcDbEntity
  8
AM_0 ( Kontur 0.5 )
100
AcDbLine
 10
4353.198180039171
 20
4285.407440666069
 30
-254.400296179293
 11
4351.033695355567
 21
4280.414669943779
 31
-254.400296179293
  0
LINE
  5
180F
330
74
100
AcDbEntity
  8
AM_0 ( Kontur 0.5 )
100
AcDbLine
 10
4345.477621525366
 20
4285.407440666069
 30
-254.400296179293
 11
4343.06804705017
 21
4280.414669943779
 31
-254.400296179293
  0
POLYLINE
  5
1810
330
74
100
AcDbEntity
  8
AM_0 ( Kontur 0.5 )
100
AcDb3dPolyline
 66
     1
 10
0.0
 20
0.0
 30
0.0
 70
     8
  0
VERTEX
  5
1811
330
1810
100
AcDbEntity
  8
AM_0 ( Kontur 0.5 )
100
AcDbVertex
100
AcDb3dPolylineVertex
 10
4340.59010594577
 20
4277.599870607388
 30
-254.400296179293
 70
    32
  0
VERTEX
  5
1812
330
1810
100
AcDbEntity
  8
AM_0 ( Kontur 0.5 )
100
AcDbVertex
100
AcDb3dPolylineVertex
 10
4342.419401768995
 20
4279.340503027319
 30
-254.400296179293
 70
    32
  0
VERTEX
  5
1813
330
1810
100
AcDbEntity
  8
AM_0 ( Kontur 0.5 )
100
AcDbVertex
100
AcDb3dPolylineVertex
 10
4343.068047051247
 20
4280.414669944209
 30
-254.400296179293
 70
    32
  0
SEQEND
  5
1814
330
1810
100
AcDbEntity
  8
AM_0 ( Kontur 0.5 )
 62
     3
  0
POLYLINE
  5
1815
330
74
100
AcDbEntity
  8
AM_0 ( Kontur 0.5 )
100
AcDb3dPolyline
 66
     1
 10
0.0
 20
0.0
 30
0.0
 70
     8
  0
VERTEX
  5
1816
330
1815
100
AcDbEntity
  8
AM_0 ( Kontur 0.5 )
100
AcDbVertex
100
AcDb3dPolylineVertex
 10
4340.228755145171
 20
4280.414669944207
 30
-254.400296179293
 70
    32
  0
VERTEX
  5
1817
330
1815
100
AcDbEntity
  8
AM_0 ( Kontur 0.5 )
100
AcDbVertex
100
AcDb3dPolylineVertex
 10
4340.065417128116
 20
4279.002316864603
 30
-254.400296179293
 70
    32
  0
VERTEX
  5
1818
330
1815
100
AcDbEntity
  8
AM_0 ( Kontur 0.5 )
100
AcDbVertex
100
AcDb3dPolylineVertex
 10
4340.321161496915
 20
4278.084471912457
 30
-254.400296179293
 70
    32
  0
VERTEX
  5
1819
330
1815
100
AcDbEntity
  8
AM_0 ( Kontur 0.5 )
100
AcDbVertex
100
AcDb3dPolylineVertex
 10
4340.932011276702
 20
4277.324977381543
 30
-254.400296179293
 70
    32
  0
VERTEX
  5
181A
330
1815
100
AcDbEntity
  8
AM_0 ( Kontur 0.5 )
100
AcDbVertex
100
AcDb3dPolylineVertex
 10
4341.768819227827
 20
4276.951748008178
 30
-254.400296179293
 70
    32
  0
VERTEX
  5
181B
330
1815
100
AcDbEntity
  8
AM_0 ( Kontur 0.5 )
100
AcDbVertex
100
AcDb3dPolylineVertex
 10
4342.713555003056
 20
4277.007760681764
 30
-254.400296179293
 70
    32
  0
VERTEX
  5
181C
330
1815
100
AcDbEntity
  8
AM_0 ( Kontur 0.5 )
100
AcDbVertex
100
AcDb3dPolylineVertex
 10
4343.662990872763
 20
4277.363109242767
 30
-254.400296179293
 70
    32
  0
VERTEX
  5
181D
330
1815
100
AcDbEntity
  8
AM_0 ( Kontur 0.5 )
100
AcDbVertex
100
AcDb3dPolylineVertex
 10
4344.892253654999
 20
4278.182065921941
 30
-254.400296179293
 70
    32
  0
VERTEX
  5
181E
330
1815
100
AcDbEntity
  8
AM_0 ( Kontur 0.5 )
100
AcDbVertex
100
AcDb3dPolylineVertex
 10
4345.832866991496
 20
4279.212580862618
 30
-254.400296179293
 70
    32
  0
VERTEX
  5
181F
330
1815
100
AcDbEntity
  8
AM_0 ( Kontur 0.5 )
100
AcDbVertex
100
AcDb3dPolylineVertex
 10
4346.568225565509
 20
4280.414669944212
 30
-254.400296179293
 70
    32
  0
SEQEND
  5
1820
330
1815
100
AcDbEntity
  8
AM_0 ( Kontur 0.5 )
 62
     3
  0
LINE
  5
1821
330
74
100
AcDbEntity
  8
AM_0 ( Kontur 0.5 )
100
AcDbLine
 10
4348.977800039666
 20
4285.407440666069
 30
-254.400296179293
 11
4346.568225564571
 21
4280.414669943779
 31
-254.400296179293
  0
LINE
  5
1822
330
74
100
AcDbEntity
  8
AM_0 ( Kontur 0.5 )
100
AcDbLine
 10
4341.573498056169
 20
4285.407440666069
 30
-254.400296179293
 11
4340.228755144173
 21
4280.414669943779
 31
-254.400296179293
  0
LINE
  5
1823
330
74
100
AcDbEntity
  8
AM_0 ( Kontur 0.5 )
100
AcDbLine
 10
4333.362970066469
 20
4285.407440666069
 30
-254.400296179293
 11
4331.65142436007
 21
4280.414669943779
 31
-254.400296179293
  0
POLYLINE
  5
1824
330
74
100
AcDbEntity
  8
AM_0 ( Kontur 0.5 )
100
AcDb3dPolyline
 66
     1
 10
0.0
 20
0.0
 30
0.0
 70
     8
  0
VERTEX
  5
1825
330
1824
100
AcDbEntity
  8
AM_0 ( Kontur 0.5 )
100
AcDbVertex
100
AcDb3dPolylineVertex
 10
4327.773034243469
 20
4277.052741981998
 30
-254.400296179293
 70
    32
  0
VERTEX
  5
1826
330
1824
100
AcDbEntity
  8
AM_0 ( Kontur 0.5 )
100
AcDbVertex
100
AcDb3dPolylineVertex
 10
4329.718553285412
 20
4277.920111522848
 30
-254.400296179293
 70
    32
  0
VERTEX
  5
1827
330
1824
100
AcDbEntity
  8
AM_0 ( Kontur 0.5 )
100
AcDbVertex
100
AcDb3dPolylineVertex
 10
4330.515708851992
 20
4278.608850264717
 30
-254.400296179293
 70
    32
  0
VERTEX
  5
1828
330
1824
100
AcDbEntity
  8
AM_0 ( Kontur 0.5 )
100
AcDbVertex
100
AcDb3dPolylineVertex
 10
4331.131779173099
 20
4279.469225938986
 30
-254.400296179293
 70
    32
  0
VERTEX
  5
1829
330
1824
100
AcDbEntity
  8
AM_0 ( Kontur 0.5 )
100
AcDbVertex
100
AcDb3dPolylineVertex
 10
4331.651424361273
 20
4280.414669944224
 30
-254.400296179293
 70
    32
  0
SEQEND
  5
182A
330
1824
100
AcDbEntity
  8
AM_0 ( Kontur 0.5 )
 62
     3
  0
POLYLINE
  5
182B
330
74
100
AcDbEntity
  8
AM_0 ( Kontur 0.5 )
100
AcDb3dPolyline
 66
     1
 10
0.0
 20
0.0
 30
0.0
 70
     8
  0
VERTEX
  5
182C
330
182B
100
AcDbEntity
  8
AM_0 ( Kontur 0.5 )
100
AcDbVertex
100
AcDb3dPolylineVertex
 10
4325.262790054765
 20
4280.414669944216
 30
-254.400296179293
 70
    32
  0
VERTEX
  5
182D
330
182B
100
AcDbEntity
  8
AM_0 ( Kontur 0.5 )
100
AcDbVertex
100
AcDb3dPolylineVertex
 10
4325.511593660745
 20
4278.955783326701
 30
-254.400296179293
 70
    32
  0
VERTEX
  5
182E
330
182B
100
AcDbEntity
  8
AM_0 ( Kontur 0.5 )
100
AcDbVertex
100
AcDb3dPolylineVertex
 10
4325.823806378546
 20
4278.316878239728
 30
-254.400296179293
 70
    32
  0
VERTEX
  5
182F
330
182B
100
AcDbEntity
  8
AM_0 ( Kontur 0.5 )
100
AcDbVertex
100
AcDb3dPolylineVertex
 10
4326.317504393602
 20
4277.780088890152
 30
-254.400296179293
 70
    32
  0
VERTEX
  5
1830
330
182B
100
AcDbEntity
  8
AM_0 ( Kontur 0.5 )
100
AcDbVertex
100
AcDb3dPolylineVertex
 10
4326.945645838723
 20
4277.36345327781
 30
-254.400296179293
 70
    32
  0
VERTEX
  5
1831
330
182B
100
AcDbEntity
  8
AM_0 ( Kontur 0.5 )
100
AcDbVertex
100
AcDb3dPolylineVertex
 10
4327.652986260159
 20
4277.083788927921
 30
-254.400296179293
 70
    32
  0
VERTEX
  5
1832
330
182B
100
AcDbEntity
  8
AM_0 ( Kontur 0.5 )
100
AcDbVertex
100
AcDb3dPolylineVertex
 10
4328.389235415251
 20
4276.953783448077
 30
-254.400296179293
 70
    32
  0
VERTEX
  5
1833
330
182B
100
AcDbEntity
  8
AM_0 ( Kontur 0.5 )
100
AcDbVertex
100
AcDb3dPolylineVertex
 10
4329.130688024338
 20
4276.963962752705
 30
-254.400296179293
 70
    32
  0
VERTEX
  5
1834
330
182B
100
AcDbEntity
  8
AM_0 ( Kontur 0.5 )
100
AcDbVertex
100
AcDb3dPolylineVertex
 10
4330.569906052565
 20
4277.337366302065
 30
-254.400296179293
 70
    32
  0
VERTEX
  5
1835
330
182B
100
AcDbEntity
  8
AM_0 ( Kontur 0.5 )
100
AcDbVertex
100
AcDb3dPolylineVertex
 10
4331.849950703089
 20
4278.074841438566
 30
-254.400296179293
 70
    32
  0
VERTEX
  5
1836
330
182B
100
AcDbEntity
  8
AM_0 ( Kontur 0.5 )
100
AcDbVertex
100
AcDb3dPolylineVertex
 10
4332.826627976062
 20
4279.13343540217
 30
-254.400296179293
 70
    32
  0
VERTEX
  5
1837
330
182B
100
AcDbEntity
  8
AM_0 ( Kontur 0.5 )
100
AcDbVertex
100
AcDb3dPolylineVertex
 10
4333.545707323019
 20
4280.414669944224
 30
-254.400296179293
 70
    32
  0
SEQEND
  5
1838
330
182B
100
AcDbEntity
  8
AM_0 ( Kontur 0.5 )
 62
     3
  0
LINE
  5
1839
330
74
100
AcDbEntity
  8
AM_0 ( Kontur 0.5 )
100
AcDbLine
 10
4335.257253028172
 20
4285.407440666069
 30
-254.400296179293
 11
4333.54570732177
 21
4280.414669943779
 31
-254.400296179293
  0
LINE
  5
183A
330
74
100
AcDbEntity
  8
AM_0 ( Kontur 0.5 )
100
AcDbLine
 10
4325.583066275767
 20
4285.407440666069
 30
-254.400296179293
 11
4325.262790053566
 21
4280.414669943779
 31
-254.400296179293
  0
LINE
  5
183B
330
74
100
AcDbEntity
  8
AM_0 ( Kontur 0.5 )
100
AcDbLine
 10
4318.132547268072
 20
4285.407440666069
 30
-254.400296179293
 11
4317.379597648971
 21
4280.414669943779
 31
-254.400296179293
  0
LINE
  5
183C
330
74
100
AcDbEntity
  8
AM_0 ( Kontur 0.5 )
100
AcDbLine
 10
4307.661282982972
 20
4285.407440666069
 30
-254.400296179293
 11
4308.41423260217
 21
4280.414669943779
 31
-254.400296179293
  0
POLYLINE
  5
183D
330
74
100
AcDbEntity
  8
AM_0 ( Kontur 0.5 )
100
AcDb3dPolyline
 66
     1
 10
0.0
 20
0.0
 30
0.0
 70
     8
  0
VERTEX
  5
183E
330
183D
100
AcDbEntity
  8
AM_0 ( Kontur 0.5 )
100
AcDbVertex
100
AcDb3dPolylineVertex
 10
4308.414232603371
 20
4280.414669943879
 30
-254.400296179293
 70
    32
  0
VERTEX
  5
183F
330
183D
100
AcDbEntity
  8
AM_0 ( Kontur 0.5 )
100
AcDbVertex
100
AcDb3dPolylineVertex
 10
4308.984781639361
 20
4278.993861416168
 30
-254.400296179293
 70
    32
  0
VERTEX
  5
1840
330
183D
100
AcDbEntity
  8
AM_0 ( Kontur 0.5 )
100
AcDbVertex
100
AcDb3dPolylineVertex
 10
4309.412136761852
 20
4278.380665935111
 30
-254.400296179293
 70
    32
  0
VERTEX
  5
1841
330
183D
100
AcDbEntity
  8
AM_0 ( Kontur 0.5 )
100
AcDbVertex
100
AcDb3dPolylineVertex
 10
4309.973538810423
 20
4277.870353853169
 30
-254.400296179293
 70
    32
  0
VERTEX
  5
1842
330
183D
100
AcDbEntity
  8
AM_0 ( Kontur 0.5 )
100
AcDbVertex
100
AcDb3dPolylineVertex
 10
4310.6380366418
 20
4277.468652775922
 30
-254.400296179293
 70
    32
  0
VERTEX
  5
1843
330
183D
100
AcDbEntity
  8
AM_0 ( Kontur 0.5 )
100
AcDbVertex
100
AcDb3dPolylineVertex
 10
4312.137040591138
 20
4277.007843153748
 30
-254.400296179293
 70
    32
  0
VERTEX
  5
1844
330
183D
100
AcDbEntity
  8
AM_0 ( Kontur 0.5 )
100
AcDbVertex
100
AcDb3dPolylineVertex
 10
4313.682271409006
 20
4277.015811635504
 30
-254.400296179293
 70
    32
  0
VERTEX
  5
1845
330
183D
100
AcDbEntity
  8
AM_0 ( Kontur 0.5 )
100
AcDbVertex
100
AcDb3dPolylineVertex
 10
4315.147105637392
 20
4277.479202753033
 30
-254.400296179293
 70
    32
  0
VERTEX
  5
1846
330
183D
100
AcDbEntity
  8
AM_0 ( Kontur 0.5 )
100
AcDbVertex
100
AcDb3dPolylineVertex
 10
4315.809486984558
 20
4277.876495751355
 30
-254.400296179293
 70
    32
  0
VERTEX
  5
1847
330
183D
100
AcDbEntity
  8
AM_0 ( Kontur 0.5 )
100
AcDbVertex
100
AcDb3dPolylineVertex
 10
4316.378852126931
 20
4278.381970274558
 30
-254.400296179293
 70
    32
  0
VERTEX
  5
1848
330
183D
100
AcDbEntity
  8
AM_0 ( Kontur 0.5 )
100
AcDbVertex
100
AcDb3dPolylineVertex
 10
4316.811914177363
 20
4278.99257010784
 30
-254.400296179293
 70
    32
  0
VERTEX
  5
1849
330
183D
100
AcDbEntity
  8
AM_0 ( Kontur 0.5 )
100
AcDbVertex
100
AcDb3dPolylineVertex
 10
4317.379597650128
 20
4280.414669943882
 30
-254.400296179293
 70
    32
  0
SEQEND
  5
184A
330
183D
100
AcDbEntity
  8
AM_0 ( Kontur 0.5 )
 62
     3
  0
LINE
  5
184B
330
74
100
AcDbEntity
  8
AM_0 ( Kontur 0.5 )
100
AcDbLine
 10
4292.430860184572
 20
4285.407440666069
 30
-254.400296179293
 11
4294.142405891071
 21
4280.414669943779
 31
-254.400296179293
  0
POLYLINE
  5
184C
330
74
100
AcDbEntity
  8
AM_0 ( Kontur 0.5 )
100
AcDb3dPolyline
 66
     1
 10
0.0
 20
0.0
 30
0.0
 70
     8
  0
VERTEX
  5
184D
330
184C
100
AcDbEntity
  8
AM_0 ( Kontur 0.5 )
100
AcDbVertex
100
AcDb3dPolylineVertex
 10
4294.14240589207
 20
4280.414669944098
 30
-254.400296179293
 70
    32
  0
VERTEX
  5
184E
330
184C
100
AcDbEntity
  8
AM_0 ( Kontur 0.5 )
100
AcDbVertex
100
AcDb3dPolylineVertex
 10
4295.278121402194
 20
4278.608850263725
 30
-254.400296179293
 70
    32
  0
VERTEX
  5
184F
330
184C
100
AcDbEntity
  8
AM_0 ( Kontur 0.5 )
100
AcDbVertex
100
AcDb3dPolylineVertex
 10
4296.07527696936
 20
4277.920111521708
 30
-254.400296179293
 70
    32
  0
VERTEX
  5
1850
330
184C
100
AcDbEntity
  8
AM_0 ( Kontur 0.5 )
100
AcDbVertex
100
AcDb3dPolylineVertex
 10
4297.01423755692
 20
4277.432894235731
 30
-254.400296179293
 70
    32
  0
VERTEX
  5
1851
330
184C
100
AcDbEntity
  8
AM_0 ( Kontur 0.5 )
100
AcDbVertex
100
AcDb3dPolylineVertex
 10
4298.020796012773
 20
4277.052741981248
 30
-254.400296179293
 70
    32
  0
SEQEND
  5
1852
330
184C
100
AcDbEntity
  8
AM_0 ( Kontur 0.5 )
 62
     3
  0
POLYLINE
  5
1853
330
74
100
AcDbEntity
  8
AM_0 ( Kontur 0.5 )
100
AcDb3dPolyline
 66
     1
 10
0.0
 20
0.0
 30
0.0
 70
     8
  0
VERTEX
  5
1854
330
1853
100
AcDbEntity
  8
AM_0 ( Kontur 0.5 )
100
AcDbVertex
100
AcDb3dPolylineVertex
 10
4292.248122930273
 20
4280.414669944098
 30
-254.400296179293
 70
    32
  0
VERTEX
  5
1855
330
1853
100
AcDbEntity
  8
AM_0 ( Kontur 0.5 )
100
AcDbVertex
100
AcDb3dPolylineVertex
 10
4293.410385158056
 20
4278.563853773527
 30
-254.400296179293
 70
    32
  0
VERTEX
  5
1856
330
1853
100
AcDbEntity
  8
AM_0 ( Kontur 0.5 )
100
AcDbVertex
100
AcDb3dPolylineVertex
 10
4294.547685357429
 20
4277.644595942938
 30
-254.400296179293
 70
    32
  0
VERTEX
  5
1857
330
1853
100
AcDbEntity
  8
AM_0 ( Kontur 0.5 )
100
AcDbVertex
100
AcDb3dPolylineVertex
 10
4295.932350661291
 20
4277.092352444061
 30
-254.400296179293
 70
    32
  0
VERTEX
  5
1858
330
1853
100
AcDbEntity
  8
AM_0 ( Kontur 0.5 )
100
AcDbVertex
100
AcDb3dPolylineVertex
 10
4297.421050173417
 20
4276.97055895238
 30
-254.400296179293
 70
    32
  0
VERTEX
  5
1859
330
1853
100
AcDbEntity
  8
AM_0 ( Kontur 0.5 )
100
AcDbVertex
100
AcDb3dPolylineVertex
 10
4298.150582434432
 20
4277.093586492898
 30
-254.400296179293
 70
    32
  0
VERTEX
  5
185A
330
1853
100
AcDbEntity
  8
AM_0 ( Kontur 0.5 )
100
AcDbVertex
100
AcDb3dPolylineVertex
 10
4298.838238003394
 20
4277.352208940381
 30
-254.400296179293
 70
    32
  0
VERTEX
  5
185B
330
1853
100
AcDbEntity
  8
AM_0 ( Kontur 0.5 )
100
AcDbVertex
100
AcDb3dPolylineVertex
 10
4299.455289008838
 20
4277.754404279956
 30
-254.400296179293
 70
    32
  0
VERTEX
  5
185C
330
1853
100
AcDbEntity
  8
AM_0 ( Kontur 0.5 )
100
AcDbVertex
100
AcDb3dPolylineVertex
 10
4299.930435596978
 20
4278.291439801876
 30
-254.400296179293
 70
    32
  0
VERTEX
  5
185D
330
1853
100
AcDbEntity
  8
AM_0 ( Kontur 0.5 )
100
AcDbVertex
100
AcDb3dPolylineVertex
 10
4300.231101336506
 20
4278.937941131543
 30
-254.400296179293
 70
    32
  0
VERTEX
  5
185E
330
1853
100
AcDbEntity
  8
AM_0 ( Kontur 0.5 )
100
AcDbVertex
100
AcDb3dPolylineVertex
 10
4300.531040198586
 20
4280.414669944092
 30
-254.400296179293
 70
    32
  0
SEQEND
  5
185F
330
1853
100
AcDbEntity
  8
AM_0 ( Kontur 0.5 )
 62
     3
  0
LINE
  5
1860
330
74
100
AcDbEntity
  8
AM_0 ( Kontur 0.5 )
100
AcDbLine
 10
4300.210763975272
 20
4285.407440666069
 30
-254.400296179293
 11
4300.531040197473
 21
4280.414669943779
 31
-254.400296179293
  0
LINE
  5
1861
330
74
100
AcDbEntity
  8
AM_0 ( Kontur 0.5 )
100
AcDbLine
 10
4290.536577222871
 20
4285.407440666069
 30
-254.400296179293
 11
4292.248122929273
 21
4280.414669943779
 31
-254.400296179293
  0
LINE
  5
1862
330
74
100
AcDbEntity
  8
AM_0 ( Kontur 0.5 )
100
AcDbLine
 10
4284.300612738272
 20
4231.953782306527
 30
0.0
 11
4338.896914735069
 21
4231.953782306527
 31
0.0
  0
LINE
  5
1863
102
{ACAD_REACTORS
330
1CF2
102
}
330
74
100
AcDbEntity
  8
AM_0 ( Kontur 0.5 )
100
AcDbLine
 10
4255.396915989071
 20
4285.497874974278
 30
0.0
 11
4370.396914261969
 21
4285.497874974278
 31
0.0
  0
ARC
  5
1864
330
74
100
AcDbEntity
  8
AM_0 ( Kontur 0.5 )
100
AcDbCircle
 10
4259.396915929072
 20
4289.027824704727
 30
0.0
 40
3.99999993992603
100
AcDbArc
 50
116.2410610688709
 51
180.0
  0
ARC
  5
1865
330
74
100
AcDbEntity
  8
AM_0 ( Kontur 0.5 )
100
AcDbCircle
 10
4366.396914322071
 20
4289.027824704727
 30
0.0
 40
3.99999993992603
100
AcDbArc
 50
0.0
 51
63.75893893110452
  0
ARC
  5
1866
330
74
100
AcDbEntity
  8
AM_0 ( Kontur 0.5 )
100
AcDbCircle
 10
4312.896915125572
 20
4180.497876551218
 30
0.0
 40
124.999998122688
100
AcDbArc
 50
63.75893893112909
 51
116.2410610688709
  0
LINE
  5
1867
102
{ACAD_REACTORS
330
1CF2
102
}
330
74
100
AcDbEntity
  8
AM_0 ( Kontur 0.5 )
100
AcDbLine
 10
4255.396915989071
 20
4289.027824704727
 30
0.0
 11
4255.396915989071
 21
4285.497874974278
 31
0.0
  0
LINE
  5
1868
102
{ACAD_REACTORS
330
1CF2
102
}
330
74
100
AcDbEntity
  8
AM_0 ( Kontur 0.5 )
100
AcDbLine
 10
4370.396914261969
 20
4289.027824704727
 30
0.0
 11
4370.396914261969
 21
4285.497874974278
 31
0.0
  0
LINE
  5
1869
330
74
100
AcDbEntity
  8
AM_0 ( Kontur 0.5 )
100
AcDbLine
 10
4341.49321751257
 20
4231.953782306527
 30
0.0
 11
4338.896914735069
 21
4231.953782306527
 31
0.0
  0
ARC
  5
186A
330
74
100
AcDbEntity
  8
AM_0 ( Kontur 0.5 )
100
AcDbCircle
 10
4341.493217512771
 20
4233.453782283997
 30
0.0
 40
1.49999997747226
100
AcDbArc
 50
270.0
 51
355.8688957937802
  0
ARC
  5
186B
330
74
100
AcDbEntity
  8
AM_0 ( Kontur 0.5 )
100
AcDbCircle
 10
4462.677537075468
 20
4224.701054211819
 30
0.0
 40
119.999998197781
100
AcDbArc
 50
149.5597081417976
 51
175.86889579378
  0
LINE
  5
186C
330
74
100
AcDbEntity
  8
AM_0 ( Kontur 0.5 )
100
AcDbLine
 10
4286.896915515972
 20
4231.953782306527
 30
0.0
 11
4284.300612738272
 21
4231.953782306527
 31
0.0
  0
LINE
  5
186D
330
74
100
AcDbEntity
  8
AM_0 ( Kontur 0.5 )
100
AcDbLine
 10
4338.896914735069
 20
4231.953782306527
 30
0.0
 11
4341.493219418369
 21
4231.953782306527
 31
0.0
  0
TEXT
  5
186E
330
74
100
AcDbEntity
  8
2
 62
     2
100
AcDbText
 10
4377.469758179011
 20
4280.831736330326
 30
-254.400296179293
 40
6.999999894870548
  1
WSP
 41
1.199999999999999
100
AcDbText
  0
LINE
  5
1920
330
74
100
AcDbEntity
  8
AM_0 ( Kontur 0.5 )
100
AcDbLine
 10
4280.796915607665
 20
3225.811761529986
 30
-254.400296179293
 11
4280.796915607665
 21
3217.011761662155
 31
-254.400296179293
  0
LINE
  5
1933
330
74
100
AcDbEntity
  8
AM_0 ( Kontur 0.5 )
100
AcDbLine
 10
4280.796915607665
 20
3263.011760971306
 30
-254.400296179293
 11
4280.796915607665
 21
3255.011761091445
 31
-254.400296179293
  0
LINE
  5
1934
330
74
100
AcDbEntity
  8
AM_0 ( Kontur 0.5 )
100
AcDbLine
 10
4280.796915607665
 20
3250.811761154526
 30
-254.400296179293
 11
4280.796915607665
 21
3230.011761466915
 31
-254.400296179293
  0
LINE
  5
1938
330
74
100
AcDbEntity
  8
AM_0 ( Kontur 0.5 )
100
AcDbLine
 10
4280.796915607665
 20
3255.011761091445
 30
-254.400296179293
 11
4312.896915125572
 21
3255.011761091445
 31
-254.400296179293
  0
LINE
  5
1939
330
74
100
AcDbEntity
  8
AM_0 ( Kontur 0.5 )
100
AcDbLine
 10
4280.796915607665
 20
3250.811761154526
 30
-254.400296179293
 11
4312.896915125572
 21
3250.811761154527
 31
-254.400296179293
  0
LINE
  5
193A
330
74
100
AcDbEntity
  8
AM_0 ( Kontur 0.5 )
100
AcDbLine
 10
4280.796915607665
 20
3230.011761466915
 30
-254.400296179293
 11
4312.896915125572
 21
3230.011761466915
 31
-254.400296179293
  0
LINE
  5
193B
330
74
100
AcDbEntity
  8
AM_0 ( Kontur 0.5 )
100
AcDbLine
 10
4280.796915607665
 20
3225.811761529986
 30
-254.400296179293
 11
4312.896915125572
 21
3225.811761529986
 31
-254.400296179293
  0
ARC
  5
193E
330
74
100
AcDbEntity
  8
AM_0 ( Kontur 0.5 )
100
AcDbCircle
 10
4282.796915577629
 20
3217.011761662155
 30
-254.400296179293
 40
1.99999996996301
100
AcDbArc
 50
180.0
 51
270.0
  0
ARC
  5
193F
330
74
100
AcDbEntity
  8
AM_0 ( Kontur 0.5 )
100
AcDbCircle
 10
4282.796915577629
 20
3263.011760971306
 30
-254.400296179293
 40
1.99999996996301
100
AcDbArc
 50
90.0
 51
180.0
  0
LINE
  5
1970
330
74
100
AcDbEntity
  8
AM_0 ( Kontur 0.5 )
100
AcDbLine
 10
4282.796915577629
 20
3265.011760941265
 30
-254.400296179293
 11
4312.896915125572
 21
3265.011760941265
 31
-254.400296179293
  0
LINE
  5
1992
330
74
100
AcDbEntity
  8
AM_0 ( Kontur 0.5 )
100
AcDbLine
 10
4338.896914735092
 20
4231.953782306527
 30
-254.400296179293
 11
4338.896914735092
 21
3265.479202002107
 31
-254.400296179293
  0
LINE
  5
1994
330
74
100
AcDbEntity
  8
AM_0 ( Kontur 0.5 )
100
AcDbLine
 10
4286.896915516051
 20
4231.953782306527
 30
-254.400296179293
 11
4286.896915516051
 21
3265.479202002107
 31
-254.400296179293
  0
LINE
  5
19F3
330
74
100
AcDbEntity
  8
AM_7 (Mittellinie)
100
AcDbLine
 10
4312.896915125572
 20
4302.026264517037
 30
-254.400296179293
 11
4312.896915125572
 21
3265.479202002107
 31
-254.400296179293
  0
LINE
  5
1BE3
330
74
100
AcDbEntity
  8
AM_0 ( Kontur 0.5 )
100
AcDbLine
 10
4282.346915584386
 20
3255.011761091445
 30
-254.400296179293
 11
4282.346915584386
 21
3250.811761154526
 31
-254.400296179293
  0
LINE
  5
1BE4
330
74
100
AcDbEntity
  8
AM_0 ( Kontur 0.5 )
100
AcDbLine
 10
4282.346915584386
 20
3230.011761466915
 30
-254.400296179293
 11
4282.346915584386
 21
3225.811761529986
 31
-254.400296179293
  0
LINE
  5
1BE5
330
74
100
AcDbEntity
  8
AM_0 ( Kontur 0.5 )
100
AcDbLine
 10
4282.796915577629
 20
3215.011761692192
 30
-254.400296179293
 11
4312.896915125572
 21
3215.011761692192
 31
-254.400296179293
  0
LINE
  5
1BEA
330
74
100
AcDbEntity
  8
AM_0 ( Kontur 0.5 )
100
AcDbLine
 10
4344.996914643476
 20
3225.811761529986
 30
-254.400296179293
 11
4344.996914643476
 21
3217.011761662155
 31
-254.400296179293
  0
LINE
  5
1BEB
330
74
100
AcDbEntity
  8
AM_0 ( Kontur 0.5 )
100
AcDbLine
 10
4344.996914643476
 20
3263.011760971306
 30
-254.400296179293
 11
4344.996914643476
 21
3255.011761091445
 31
-254.400296179293
  0
LINE
  5
1BEC
330
74
100
AcDbEntity
  8
AM_0 ( Kontur 0.5 )
100
AcDbLine
 10
4344.996914643476
 20
3250.811761154526
 30
-254.400296179293
 11
4344.996914643476
 21
3230.011761466915
 31
-254.400296179293
  0
LINE
  5
1BED
330
74
100
AcDbEntity
  8
AM_0 ( Kontur 0.5 )
100
AcDbLine
 10
4344.996914643476
 20
3255.011761091445
 30
-254.400296179293
 11
4312.896915125572
 21
3255.011761091445
 31
-254.400296179293
  0
LINE
  5
1BEE
330
74
100
AcDbEntity
  8
AM_0 ( Kontur 0.5 )
100
AcDbLine
 10
4344.996914643476
 20
3250.811761154526
 30
-254.400296179293
 11
4312.896915125572
 21
3250.811761154527
 31
-254.400296179293
  0
LINE
  5
1BEF
330
74
100
AcDbEntity
  8
AM_0 ( Kontur 0.5 )
100
AcDbLine
 10
4344.996914643476
 20
3230.011761466915
 30
-254.400296179293
 11
4312.896915125572
 21
3230.011761466915
 31
-254.400296179293
  0
LINE
  5
1BF0
330
74
100
AcDbEntity
  8
AM_0 ( Kontur 0.5 )
100
AcDbLine
 10
4344.996914643476
 20
3225.811761529986
 30
-254.400296179293
 11
4312.896915125572
 21
3225.811761529986
 31
-254.400296179293
  0
ARC
  5
1BF1
330
74
100
AcDbEntity
  8
AM_0 ( Kontur 0.5 )
100
AcDbCircle
 10
4342.996914673514
 20
3217.011761662155
 30
-254.400296179293
 40
1.99999996996301
100
AcDbArc
 50
270.0
 51
0.0
  0
ARC
  5
1BF2
330
74
100
AcDbEntity
  8
AM_0 ( Kontur 0.5 )
100
AcDbCircle
 10
4342.996914673514
 20
3263.011760971306
 30
-254.400296179293
 40
1.99999996996301
100
AcDbArc
 50
0.0
 51
90.0
  0
LINE
  5
1BF3
330
74
100
AcDbEntity
  8
AM_0 ( Kontur 0.5 )
100
AcDbLine
 10
4342.996914673514
 20
3265.011760941265
 30
-254.400296179293
 11
4312.896915125572
 21
3265.011760941265
 31
-254.400296179293
  0
LINE
  5
1BF4
330
74
100
AcDbEntity
  8
AM_0 ( Kontur 0.5 )
100
AcDbLine
 10
4343.446914666754
 20
3255.011761091445
 30
-254.400296179293
 11
4343.446914666754
 21
3250.811761154526
 31
-254.400296179293
  0
LINE
  5
1BF5
330
74
100
AcDbEntity
  8
AM_0 ( Kontur 0.5 )
100
AcDbLine
 10
4343.446914666754
 20
3230.011761466915
 30
-254.400296179293
 11
4343.446914666754
 21
3225.811761529986
 31
-254.400296179293
  0
LINE
  5
1BF6
330
74
100
AcDbEntity
  8
AM_0 ( Kontur 0.5 )
100
AcDbLine
 10
4342.996914673514
 20
3215.011761692192
 30
-254.400296179293
 11
4312.896915125572
 21
3215.011761692192
 31
-254.400296179293
  0
DIMENSION
  5
1C83
330
74
100
AcDbEntity
  8
AM_5 ( Bemassung)
100
AcDbDimension
280
     0
  2
*D1
 10
4424.068896005588
 20
4305.497874673906
 30
0.0
 11
4405.850614968751
 21
4368.006742341028
 31
0.0
 70
    32
 71
     5
 42
28.49003152015757
 73
     0
 74
     0
 75
     0
  3
AM_DIN$0
100
AcDbAlignedDimension
 13
4313.258493769557
 23
4277.007843153748
 33
0.0
 14
4312.896915125572
 24
4305.497874673906
 34
0.0
 50
90.0
100
AcDbRotatedDimension
1001
ACAD_DSTYLE_DIMINSPECT
1070
   396
1000
100%
1070
   395
1000

1070
   394
1070
    33
1070
   393
1070
     0
1001
ACAD
1000
DSTYLE
1002
{
1070
    40
1040
20.0
1070
    41
1040
1.0
1070
   140
1040
1.0
1070
   147
1040
0.4
1070
   271
1070
     0
1002
}
  0
DIMENSION
  5
1CE4
102
{ACAD_XDICTIONARY
360
1CF1
102
}
102
{ACAD_REACTORS
330
1CF2
102
}
330
74
100
AcDbEntity
  8
AM_5 ( Bemassung)
100
AcDbDimension
280
     0
  2
*D3
 10
4255.396915989071
 20
4329.497875683906
 30
0.0
 11
4312.89691512552
 21
4347.866224933565
 31
0.0
 70
    32
  1
%%c <>
 71
     5
 42
114.9999982728977
 73
     0
 74
     0
 75
     0
  3
AM_DIN$0
100
AcDbAlignedDimension
 13
4370.396914261969
 23
4285.497874974278
 33
0.0
 14
4255.396915989071
 24
4285.497874974278
 34
0.0
100
AcDbRotatedDimension
1001
ACAD_DSTYLE_DIMINSPECT
1070
   396
1000
100%
1070
   395
1000

1070
   394
1070
    33
1070
   393
1070
     0
1001
ACAD
1000
DSTYLE
1002
{
1070
    40
1040
20.0
1070
    41
1040
1.0
1070
   140
1040
1.0
1070
   147
1040
0.4
1002
}
  0
DIMENSION
  5
2716
330
74
100
AcDbEntity
  8
AM_5 ( Bemassung)
100
AcDbDimension
280
     0
  2
*D8
 10
4338.896914735092
 20
4188.381550483479
 30
0.0
 11
4209.660899144973
 21
4188.381550483479
 31
0.0
 70
   160
  1
%%c <>
 71
     5
 42
51.99999921904055
 73
     0
 74
     0
 75
     0
  3
AM_DIN$0
100
AcDbAlignedDimension
 13
4286.896915516051
 23
4231.953782306527
 33
0.0
 14
4338.896914735092
 24
4231.953782306527
 34
0.0
 50
0.0000000000001132
100
AcDbRotatedDimension
1001
ACAD_DSTYLE_DIMINSPECT
1070
   396
1000
100%
1070
   395
1000

1070
   394
1070
    33
1070
   393
1070
     0
1001
ACAD
1000
DSTYLE
1002
{
1070
    40
1040
20.0
1070
    41
1040
1.0
1070
   140
1040
1.0
1070
   147
1040
0.4
1002
}
  0
LINE
  5
3AC3
330
74
100
AcDbEntity
  8
AM_7 (Mittellinie)
100
AcDbLine
 10
4259.348150688473
 20
3082.075919838046
 30
0.0
 11
4365.553012710971
 21
3082.075919838046
 31
0.0
  0
LINE
  5
3AD3
330
74
100
AcDbEntity
  8
AM_7 (Mittellinie)
100
AcDbLine
 10
4312.896915125572
 20
3028.418924761747
 30
0.0
 11
4312.896915125572
 21
3134.213503100947
 31
0.0
  0
LINE
  5
3AD4
330
74
100
AcDbEntity
  8
AM_3 ( Verdeckt )
  6
AM_ISO02W050x2
100
AcDbLine
 10
4318.896915125571
 20
3033.075915190646
 30
0.0
 11
4318.817235106371
 21
3034.253540529846
 31
0.0
  0
LINE
  5
3AD5
330
74
100
AcDbEntity
  8
AM_3 ( Verdeckt )
  6
AM_ISO02W050x2
100
AcDbLine
 10
4318.817235106371
 20
3034.253540529846
 30
0.0
 11
4318.572695749671
 21
3035.426901286646
 31
0.0
  0
LINE
  5
3AD6
330
74
100
AcDbEntity
  8
AM_3 ( Verdeckt )
  6
AM_ISO02W050x2
100
AcDbLine
 10
4318.572695749671
 20
3035.426901286646
 30
0.0
 11
4318.147601132272
 21
3036.584312385446
 31
0.0
  0
LINE
  5
3AD7
330
74
100
AcDbEntity
  8
AM_3 ( Verdeckt )
  6
AM_ISO02W050x2
100
AcDbLine
 10
4318.147601132272
 20
3036.584312385446
 30
0.0
 11
4317.519282507672
 21
3037.698283639846
 31
0.0
  0
LINE
  5
3AD8
330
74
100
AcDbEntity
  8
AM_3 ( Verdeckt )
  6
AM_ISO02W050x2
100
AcDbLine
 10
4317.519282507672
 20
3037.698283639846
 30
0.0
 11
4316.66606391037
 21
3038.716846082746
 31
0.0
  0
LINE
  5
3AD9
330
74
100
AcDbEntity
  8
AM_3 ( Verdeckt )
  6
AM_ISO02W050x2
100
AcDbLine
 10
4316.66606391037
 20
3038.716846082746
 30
0.0
 11
4315.58237841527
 21
3039.559198182347
 31
0.0
  0
LINE
  5
3ADA
330
74
100
AcDbEntity
  8
AM_3 ( Verdeckt )
  6
AM_ISO02W050x2
100
AcDbLine
 10
4315.58237841527
 20
3039.559198182347
 30
0.0
 11
4314.299097559172
 21
3040.125163394746
 31
0.0
  0
LINE
  5
3ADB
330
74
100
AcDbEntity
  8
AM_3 ( Verdeckt )
  6
AM_ISO02W050x2
100
AcDbLine
 10
4314.299097559172
 20
3040.125163394746
 30
0.0
 11
4312.896915125572
 21
3040.325919838046
 31
0.0
  0
LINE
  5
3ADC
330
74
100
AcDbEntity
  8
AM_3 ( Verdeckt )
  6
AM_ISO02W050x2
100
AcDbLine
 10
4318.896915125571
 20
3033.075910903847
 30
0.0
 11
4318.687637620872
 21
3036.419187364946
 31
0.0
  0
LINE
  5
3ADD
330
74
100
AcDbEntity
  8
AM_3 ( Verdeckt )
  6
AM_ISO02W050x2
100
AcDbLine
 10
4318.687637620872
 20
3036.419187364946
 30
0.0
 11
4318.132071467272
 21
3039.314927830846
 31
0.0
  0
LINE
  5
3ADE
330
74
100
AcDbEntity
  8
AM_3 ( Verdeckt )
  6
AM_ISO02W050x2
100
AcDbLine
 10
4318.132071467272
 20
3039.314927830846
 30
0.0
 11
4317.550624896671
 21
3041.136372365846
 31
0.0
  0
LINE
  5
3ADF
330
74
100
AcDbEntity
  8
AM_3 ( Verdeckt )
  6
AM_ISO02W050x2
100
AcDbLine
 10
4317.550624896671
 20
3041.136372365846
 30
0.0
 11
4316.571310150571
 21
3043.171226805546
 31
0.0
  0
LINE
  5
3AE0
330
74
100
AcDbEntity
  8
AM_3 ( Verdeckt )
  6
AM_ISO02W050x2
100
AcDbLine
 10
4316.571310150571
 20
3043.171226805546
 30
0.0
 11
4315.869257487272
 21
3044.168841537546
 31
0.0
  0
LINE
  5
3AE1
330
74
100
AcDbEntity
  8
AM_3 ( Verdeckt )
  6
AM_ISO02W050x2
100
AcDbLine
 10
4315.869257487272
 20
3044.168841537546
 30
0.0
 11
4315.005049225971
 21
3045.031730868047
 31
0.0
  0
LINE
  5
3AE2
330
74
100
AcDbEntity
  8
AM_3 ( Verdeckt )
  6
AM_ISO02W050x2
100
AcDbLine
 10
4315.005049225971
 20
3045.031730868047
 30
0.0
 11
4313.995267428172
 21
3045.630132142246
 31
0.0
  0
LINE
  5
3AE3
330
74
100
AcDbEntity
  8
AM_3 ( Verdeckt )
  6
AM_ISO02W050x2
100
AcDbLine
 10
4313.995267428172
 20
3045.630132142246
 30
0.0
 11
4312.896915125572
 21
3045.845919838047
 31
0.0
  0
LINE
  5
3AE4
330
74
100
AcDbEntity
  8
AM_3 ( Verdeckt )
  6
AM_ISO02W050x2
100
AcDbLine
 10
4312.896915125572
 20
3040.325919838046
 30
0.0
 11
4311.494734178472
 21
3040.125163826446
 31
0.0
  0
LINE
  5
3AE5
330
74
100
AcDbEntity
  8
AM_3 ( Verdeckt )
  6
AM_ISO02W050x2
100
AcDbLine
 10
4311.494734178472
 20
3040.125163826446
 30
0.0
 11
4310.211454442572
 21
3039.559199758746
 31
0.0
  0
LINE
  5
3AE6
330
74
100
AcDbEntity
  8
AM_3 ( Verdeckt )
  6
AM_ISO02W050x2
100
AcDbLine
 10
4310.211454442572
 20
3039.559199758746
 30
0.0
 11
4309.127769520471
 21
3038.716849184846
 31
0.0
  0
LINE
  5
3AE7
330
74
100
AcDbEntity
  8
AM_3 ( Verdeckt )
  6
AM_ISO02W050x2
100
AcDbLine
 10
4309.127769520471
 20
3038.716849184846
 30
0.0
 11
4308.274550968872
 21
3037.698288349146
 31
0.0
  0
LINE
  5
3AE8
330
74
100
AcDbEntity
  8
AM_3 ( Verdeckt )
  6
AM_ISO02W050x2
100
AcDbLine
 10
4308.274550968872
 20
3037.698288349146
 30
0.0
 11
4307.646231974572
 21
3036.584318625646
 31
0.0
  0
LINE
  5
3AE9
330
74
100
AcDbEntity
  8
AM_3 ( Verdeckt )
  6
AM_ISO02W050x2
100
AcDbLine
 10
4307.646231974572
 20
3036.584318625646
 30
0.0
 11
4307.221136674772
 21
3035.426908947446
 31
0.0
  0
LINE
  5
3AEA
330
74
100
AcDbEntity
  8
AM_3 ( Verdeckt )
  6
AM_ISO02W050x2
100
AcDbLine
 10
4307.221136674772
 20
3035.426908947446
 30
0.0
 11
4306.976596370971
 21
3034.253549530246
 31
0.0
  0
LINE
  5
3AEB
330
74
100
AcDbEntity
  8
AM_3 ( Verdeckt )
  6
AM_ISO02W050x2
100
AcDbLine
 10
4306.976596370971
 20
3034.253549530246
 30
0.0
 11
4306.896915125571
 21
3033.075925490246
 31
0.0
  0
LINE
  5
3AEC
330
74
100
AcDbEntity
  8
AM_3 ( Verdeckt )
  6
AM_ISO02W050x2
100
AcDbLine
 10
4312.896915125572
 20
3045.845919838047
 30
0.0
 11
4311.798562827772
 21
3045.630132144146
 31
0.0
  0
LINE
  5
3AED
330
74
100
AcDbEntity
  8
AM_3 ( Verdeckt )
  6
AM_ISO02W050x2
100
AcDbLine
 10
4311.798562827772
 20
3045.630132144146
 30
0.0
 11
4310.788781033571
 21
3045.031730874746
 31
0.0
  0
LINE
  5
3AEE
330
74
100
AcDbEntity
  8
AM_3 ( Verdeckt )
  6
AM_ISO02W050x2
100
AcDbLine
 10
4310.788781033571
 20
3045.031730874746
 30
0.0
 11
4309.924572774372
 21
3044.168841550246
 31
0.0
  0
LINE
  5
3AEF
330
74
100
AcDbEntity
  8
AM_3 ( Verdeckt )
  6
AM_ISO02W050x2
100
AcDbLine
 10
4309.924572774372
 20
3044.168841550246
 30
0.0
 11
4309.222520111672
 21
3043.171226823946
 31
0.0
  0
LINE
  5
3AF0
330
74
100
AcDbEntity
  8
AM_3 ( Verdeckt )
  6
AM_ISO02W050x2
100
AcDbLine
 10
4309.222520111672
 20
3043.171226823946
 30
0.0
 11
4308.243205364472
 21
3041.136372392146
 31
0.0
  0
LINE
  5
3AF1
330
74
100
AcDbEntity
  8
AM_3 ( Verdeckt )
  6
AM_ISO02W050x2
100
AcDbLine
 10
4308.243205364472
 20
3041.136372392146
 30
0.0
 11
4307.466460459772
 21
3038.506366455846
 31
0.0
  0
LINE
  5
3AF2
330
74
100
AcDbEntity
  8
AM_3 ( Verdeckt )
  6
AM_ISO02W050x2
100
AcDbLine
 10
4307.466460459772
 20
3038.506366455846
 30
0.0
 11
4306.982771052271
 21
3035.228484521646
 31
0.0
  0
LINE
  5
3AF3
330
74
100
AcDbEntity
  8
AM_3 ( Verdeckt )
  6
AM_ISO02W050x2
100
AcDbLine
 10
4306.982771052271
 20
3035.228484521646
 30
0.0
 11
4306.896915125571
 21
3033.075910945946
 31
0.0
  0
ARC
  5
3AF4
330
74
100
AcDbEntity
  8
AM_3 ( Verdeckt )
  6
AM_ISO02W050x2
100
AcDbCircle
 10
4312.896915125572
 20
3082.075919838046
 30
0.0
 40
49.37
100
AcDbArc
 50
344.4804858121205
 51
353.0195141879151
  0
ARC
  5
3AF5
330
74
100
AcDbEntity
  8
AM_3 ( Verdeckt )
  6
AM_ISO02W050x2
100
AcDbCircle
 10
4312.896915125572
 20
3082.075919838046
 30
0.0
 40
49.37
100
AcDbArc
 50
254.4804858121199
 51
263.0195149295762
  0
LINE
  5
3AF6
330
74
100
AcDbEntity
  8
AM_3 ( Verdeckt )
  6
AM_ISO02W050x2
100
AcDbLine
 10
4337.19168392547
 20
3039.101915085046
 30
0.0
 11
4335.718920210772
 21
3042.110612745246
 31
0.0
  0
LINE
  5
3AF7
330
74
100
AcDbEntity
  8
AM_3 ( Verdeckt )
  6
AM_ISO02W050x2
100
AcDbLine
 10
4335.718920210772
 20
3042.110612745246
 30
0.0
 11
4334.097492111872
 21
3044.573322130546
 31
0.0
  0
LINE
  5
3AF8
330
74
100
AcDbEntity
  8
AM_3 ( Verdeckt )
  6
AM_ISO02W050x2
100
AcDbLine
 10
4334.097492111872
 20
3044.573322130546
 30
0.0
 11
4332.86326887947
 21
3046.033607486645
 31
0.0
  0
LINE
  5
3AF9
330
74
100
AcDbEntity
  8
AM_3 ( Verdeckt )
  6
AM_ISO02W050x2
100
AcDbLine
 10
4332.86326887947
 20
3046.033607486645
 30
0.0
 11
4331.179794948272
 21
3047.538800326746
 31
0.0
  0
LINE
  5
3AFA
330
74
100
AcDbEntity
  8
AM_3 ( Verdeckt )
  6
AM_ISO02W050x2
100
AcDbLine
 10
4331.179794948272
 20
3047.538800326746
 30
0.0
 11
4330.149412232072
 21
3048.191812236046
 31
0.0
  0
LINE
  5
3AFB
330
74
100
AcDbEntity
  8
AM_3 ( Verdeckt )
  6
AM_ISO02W050x2
100
AcDbLine
 10
4330.149412232072
 20
3048.191812236046
 30
0.0
 11
4329.020774456972
 21
3048.658299843646
 31
0.0
  0
LINE
  5
3AFC
330
74
100
AcDbEntity
  8
AM_3 ( Verdeckt )
  6
AM_ISO02W050x2
100
AcDbLine
 10
4329.020774456972
 20
3048.658299843646
 30
0.0
 11
4327.858859468072
 21
3048.824723768746
 31
0.0
  0
LINE
  5
3AFD
330
74
100
AcDbEntity
  8
AM_3 ( Verdeckt )
  6
AM_ISO02W050x2
100
AcDbLine
 10
4327.858859468072
 20
3048.824723768746
 30
0.0
 11
4326.761535880172
 21
3048.603764375146
 31
0.0
  0
LINE
  5
3AFE
330
74
100
AcDbEntity
  8
AM_3 ( Verdeckt )
  6
AM_ISO02W050x2
100
AcDbLine
 10
4337.191682284972
 20
3039.101919045546
 30
0.0
 11
4336.667409839271
 21
3040.159410770146
 31
0.0
  0
LINE
  5
3AFF
330
74
100
AcDbEntity
  8
AM_3 ( Verdeckt )
  6
AM_ISO02W050x2
100
AcDbLine
 10
4336.667409839271
 20
3040.159410770146
 30
0.0
 11
4335.992459210872
 21
3041.149873597245
 31
0.0
  0
LINE
  5
3B00
330
74
100
AcDbEntity
  8
AM_3 ( Verdeckt )
  6
AM_ISO02W050x2
100
AcDbLine
 10
4335.992459210872
 20
3041.149873597245
 30
0.0
 11
4335.156800942572
 21
3042.056505354846
 31
0.0
  0
LINE
  5
3B01
330
74
100
AcDbEntity
  8
AM_3 ( Verdeckt )
  6
AM_ISO02W050x2
100
AcDbLine
 10
4335.156800942572
 20
3042.056505354846
 30
0.0
 11
4334.150011882271
 21
3042.845233468746
 31
0.0
  0
LINE
  5
3B02
330
74
100
AcDbEntity
  8
AM_3 ( Verdeckt )
  6
AM_ISO02W050x2
100
AcDbLine
 10
4334.150011882271
 20
3042.845233468746
 30
0.0
 11
4332.971953711671
 21
3043.459749840947
 31
0.0
  0
LINE
  5
3B03
330
74
100
AcDbEntity
  8
AM_3 ( Verdeckt )
  6
AM_ISO02W050x2
100
AcDbLine
 10
4332.971953711671
 20
3043.459749840947
 30
0.0
 11
4331.648404670372
 21
3043.823273220046
 31
0.0
  0
LINE
  5
3B04
330
74
100
AcDbEntity
  8
AM_3 ( Verdeckt )
  6
AM_ISO02W050x2
100
AcDbLine
 10
4331.648404670372
 20
3043.823273220046
 30
0.0
 11
4330.246222242872
 21
3043.855066573146
 31
0.0
  0
LINE
  5
3B05
330
74
100
AcDbEntity
  8
AM_3 ( Verdeckt )
  6
AM_ISO02W050x2
100
AcDbLine
 10
4330.246222242872
 20
3043.855066573146
 30
0.0
 11
4328.873948426771
 21
3043.503949355646
 31
0.0
  0
LINE
  5
3B06
330
74
100
AcDbEntity
  8
AM_3 ( Verdeckt )
  6
AM_ISO02W050x2
100
AcDbLine
 10
4326.761535880172
 20
3048.603764375146
 30
0.0
 11
4325.829369048072
 21
3047.984081314047
 31
0.0
  0
LINE
  5
3B07
330
74
100
AcDbEntity
  8
AM_3 ( Verdeckt )
  6
AM_ISO02W050x2
100
AcDbLine
 10
4325.829369048072
 20
3047.984081314047
 30
0.0
 11
4325.12545056787
 21
3047.044803866147
 31
0.0
  0
LINE
  5
3B08
330
74
100
AcDbEntity
  8
AM_3 ( Verdeckt )
  6
AM_ISO02W050x2
100
AcDbLine
 10
4325.12545056787
 20
3047.044803866147
 30
0.0
 11
4324.65723969377
 21
3045.916879897546
 31
0.0
  0
LINE
  5
3B09
330
74
100
AcDbEntity
  8
AM_3 ( Verdeckt )
  6
AM_ISO02W050x2
100
AcDbLine
 10
4324.65723969377
 20
3045.916879897546
 30
0.0
 11
4324.390398235572
 21
3044.726540147947
 31
0.0
  0
LINE
  5
3B0A
330
74
100
AcDbEntity
  8
AM_3 ( Verdeckt )
  6
AM_ISO02W050x2
100
AcDbLine
 10
4324.390398235572
 20
3044.726540147947
 30
0.0
 11
4324.264334463172
 21
3042.471812257846
 31
0.0
  0
LINE
  5
3B0B
330
74
100
AcDbEntity
  8
AM_3 ( Verdeckt )
  6
AM_ISO02W050x2
100
AcDbLine
 10
4324.264334463172
 20
3042.471812257846
 30
0.0
 11
4324.553175442572
 21
3039.744756196746
 31
0.0
  0
LINE
  5
3B0C
330
74
100
AcDbEntity
  8
AM_3 ( Verdeckt )
  6
AM_ISO02W050x2
100
AcDbLine
 10
4324.553175442572
 20
3039.744756196746
 30
0.0
 11
4325.360695808272
 21
3036.531288245146
 31
0.0
  0
LINE
  5
3B0D
330
74
100
AcDbEntity
  8
AM_3 ( Verdeckt )
  6
AM_ISO02W050x2
100
AcDbLine
 10
4325.360695808272
 20
3036.531288245146
 30
0.0
 11
4326.105129519272
 21
3034.509713935547
 31
0.0
  0
LINE
  5
3B0E
330
74
100
AcDbEntity
  8
AM_3 ( Verdeckt )
  6
AM_ISO02W050x2
100
AcDbLine
 10
4328.873948426771
 20
3043.503949355646
 30
0.0
 11
4327.655328148472
 21
3042.781883567946
 31
0.0
  0
LINE
  5
3B0F
330
74
100
AcDbEntity
  8
AM_3 ( Verdeckt )
  6
AM_ISO02W050x2
100
AcDbLine
 10
4327.655328148472
 20
3042.781883567946
 30
0.0
 11
4326.686317337972
 21
3041.767911055646
 31
0.0
  0
LINE
  5
3B10
330
74
100
AcDbEntity
  8
AM_3 ( Verdeckt )
  6
AM_ISO02W050x2
100
AcDbLine
 10
4326.686317337972
 20
3041.767911055646
 30
0.0
 11
4326.007476627672
 21
3040.574972335547
 31
0.0
  0
LINE
  5
3B11
330
74
100
AcDbEntity
  8
AM_3 ( Verdeckt )
  6
AM_ISO02W050x2
100
AcDbLine
 10
4326.007476627672
 20
3040.574972335547
 30
0.0
 11
4325.608991827772
 21
3039.307432223047
 31
0.0
  0
LINE
  5
3B12
330
74
100
AcDbEntity
  8
AM_3 ( Verdeckt )
  6
AM_ISO02W050x2
100
AcDbLine
 10
4325.608991827772
 20
3039.307432223047
 30
0.0
 11
4325.45479852637
 21
3038.037811126347
 31
0.0
  0
LINE
  5
3B13
330
74
100
AcDbEntity
  8
AM_3 ( Verdeckt )
  6
AM_ISO02W050x2
100
AcDbLine
 10
4325.45479852637
 20
3038.037811126347
 30
0.0
 11
4325.504983187872
 21
3036.805827085446
 31
0.0
  0
LINE
  5
3B14
330
74
100
AcDbEntity
  8
AM_3 ( Verdeckt )
  6
AM_ISO02W050x2
100
AcDbLine
 10
4325.504983187872
 20
3036.805827085446
 30
0.0
 11
4325.728082615472
 21
3035.628202812747
 31
0.0
  0
LINE
  5
3B15
330
74
100
AcDbEntity
  8
AM_3 ( Verdeckt )
  6
AM_ISO02W050x2
100
AcDbLine
 10
4325.728082615472
 20
3035.628202812747
 30
0.0
 11
4326.105123953372
 21
3034.509727372746
 31
0.0
  0
LINE
  5
3B16
330
74
100
AcDbEntity
  8
AM_3 ( Verdeckt )
  6
AM_ISO02W050x2
100
AcDbLine
 10
4351.787794408272
 20
3051.670321929546
 30
0.0
 11
4349.275759408471
 21
3053.886393843946
 31
0.0
  0
LINE
  5
3B17
330
74
100
AcDbEntity
  8
AM_3 ( Verdeckt )
  6
AM_ISO02W050x2
100
AcDbLine
 10
4349.275759408471
 20
3053.886393843946
 30
0.0
 11
4346.835317093971
 21
3055.541146969246
 31
0.0
  0
LINE
  5
3B18
330
74
100
AcDbEntity
  8
AM_3 ( Verdeckt )
  6
AM_ISO02W050x2
100
AcDbLine
 10
4346.835317093971
 20
3055.541146969246
 30
0.0
 11
4345.136216498672
 21
3056.417957938546
 31
0.0
  0
LINE
  5
3B19
330
74
100
AcDbEntity
  8
AM_3 ( Verdeckt )
  6
AM_ISO02W050x2
100
AcDbLine
 10
4345.136216498672
 20
3056.417957938546
 30
0.0
 11
4343.00487702777
 21
3057.164337213746
 31
0.0
  0
LINE
  5
3B1A
330
74
100
AcDbEntity
  8
AM_3 ( Verdeckt )
  6
AM_ISO02W050x2
100
AcDbLine
 10
4343.00487702777
 20
3057.164337213746
 30
0.0
 11
4341.803030686771
 21
3057.373331156747
 31
0.0
  0
LINE
  5
3B1B
330
74
100
AcDbEntity
  8
AM_3 ( Verdeckt )
  6
AM_ISO02W050x2
100
AcDbLine
 10
4341.803030686771
 20
3057.373331156747
 30
0.0
 11
4340.581788267871
 21
3057.372398531846
 31
0.0
  0
LINE
  5
3B1C
330
74
100
AcDbEntity
  8
AM_3 ( Verdeckt )
  6
AM_ISO02W050x2
100
AcDbLine
 10
4340.581788267871
 20
3057.372398531846
 30
0.0
 11
4339.444631112272
 21
3057.081508573946
 31
0.0
  0
LINE
  5
3B1D
330
74
100
AcDbEntity
  8
AM_3 ( Verdeckt )
  6
AM_ISO02W050x2
100
AcDbLine
 10
4339.444631112272
 20
3057.081508573946
 30
0.0
 11
4338.515393807972
 21
3056.457441155646
 31
0.0
  0
LINE
  5
3B1E
330
74
100
AcDbEntity
  8
AM_3 ( Verdeckt )
  6
AM_ISO02W050x2
100
AcDbLine
 10
4351.787791377072
 20
3051.670324960746
 30
0.0
 11
4350.898742232071
 21
3052.446689541945
 31
0.0
  0
LINE
  5
3B1F
330
74
100
AcDbEntity
  8
AM_3 ( Verdeckt )
  6
AM_ISO02W050x2
100
AcDbLine
 10
4350.898742232071
 20
3052.446689541945
 30
0.0
 11
4349.896135446772
 21
3053.103465452446
 31
0.0
  0
LINE
  5
3B20
330
74
100
AcDbEntity
  8
AM_3 ( Verdeckt )
  6
AM_ISO02W050x2
100
AcDbLine
 10
4349.896135446772
 20
3053.103465452446
 30
0.0
 11
4348.777134923671
 21
3053.621291402447
 31
0.0
  0
LINE
  5
3B21
330
74
100
AcDbEntity
  8
AM_3 ( Verdeckt )
  6
AM_ISO02W050x2
100
AcDbLine
 10
4348.777134923671
 20
3053.621291402447
 30
0.0
 11
4347.545149935372
 21
3053.964699670246
 31
0.0
  0
LINE
  5
3B22
330
74
100
AcDbEntity
  8
AM_3 ( Verdeckt )
  6
AM_ISO02W050x2
100
AcDbLine
 10
4347.545149935372
 20
3053.964699670246
 30
0.0
 11
4346.221600868972
 21
3054.081615424746
 31
0.0
  0
LINE
  5
3B23
330
74
100
AcDbEntity
  8
AM_3 ( Verdeckt )
  6
AM_ISO02W050x2
100
AcDbLine
 10
4346.221600868972
 20
3054.081615424746
 30
0.0
 11
4344.859686624872
 21
3053.910966944247
 31
0.0
  0
LINE
  5
3B24
330
74
100
AcDbEntity
  8
AM_3 ( Verdeckt )
  6
AM_ISO02W050x2
100
AcDbLine
 10
4344.859686624872
 20
3053.910966944247
 30
0.0
 11
4343.552072189772
 21
3053.403748188346
 31
0.0
  0
LINE
  5
3B25
330
74
100
AcDbEntity
  8
AM_3 ( Verdeckt )
  6
AM_ISO02W050x2
100
AcDbLine
 10
4343.552072189772
 20
3053.403748188346
 30
0.0
 11
4342.41862324007
 21
3052.554211723446
 31
0.0
  0
LINE
  5
3B26
330
74
100
AcDbEntity
  8
AM_3 ( Verdeckt )
  6
AM_ISO02W050x2
100
AcDbLine
 10
4338.515393807972
 20
3056.457441155646
 30
0.0
 11
4337.891326391672
 21
3055.528203856046
 31
0.0
  0
LINE
  5
3B27
330
74
100
AcDbEntity
  8
AM_3 ( Verdeckt )
  6
AM_ISO02W050x2
100
AcDbLine
 10
4337.891326391672
 20
3055.528203856046
 30
0.0
 11
4337.600436432972
 21
3054.391046706446
 31
0.0
  0
LINE
  5
3B28
330
74
100
AcDbEntity
  8
AM_3 ( Verdeckt )
  6
AM_ISO02W050x2
100
AcDbLine
 10
4337.600436432972
 20
3054.391046706446
 30
0.0
 11
4337.599503805271
 21
3053.169804293246
 31
0.0
  0
LINE
  5
3B29
330
74
100
AcDbEntity
  8
AM_3 ( Verdeckt )
  6
AM_ISO02W050x2
100
AcDbLine
 10
4337.599503805271
 20
3053.169804293246
 30
0.0
 11
4337.808497744672
 21
3051.967957956747
 31
0.0
  0
LINE
  5
3B2A
330
74
100
AcDbEntity
  8
AM_3 ( Verdeckt )
  6
AM_ISO02W050x2
100
AcDbLine
 10
4337.808497744672
 20
3051.967957956747
 30
0.0
 11
4338.554877013572
 21
3049.836618490547
 31
0.0
  0
LINE
  5
3B2B
330
74
100
AcDbEntity
  8
AM_3 ( Verdeckt )
  6
AM_ISO02W050x2
100
AcDbLine
 10
4338.554877013572
 20
3049.836618490547
 30
0.0
 11
4339.865330456272
 21
3047.427681869046
 31
0.0
  0
LINE
  5
3B2C
330
74
100
AcDbEntity
  8
AM_3 ( Verdeckt )
  6
AM_ISO02W050x2
100
AcDbLine
 10
4339.865330456272
 20
3047.427681869046
 30
0.0
 11
4341.84112293977
 21
3044.767849265447
 31
0.0
  0
LINE
  5
3B2D
330
74
100
AcDbEntity
  8
AM_3 ( Verdeckt )
  6
AM_ISO02W050x2
100
AcDbLine
 10
4341.84112293977
 20
3044.767849265447
 30
0.0
 11
4343.302513004271
 21
3043.185040585146
 31
0.0
  0
LINE
  5
3B2E
330
74
100
AcDbEntity
  8
AM_3 ( Verdeckt )
  6
AM_ISO02W050x2
100
AcDbLine
 10
4342.41862324007
 20
3052.554211723446
 30
0.0
 11
4341.569087521172
 21
3051.420764130245
 31
0.0
  0
LINE
  5
3B2F
330
74
100
AcDbEntity
  8
AM_3 ( Verdeckt )
  6
AM_ISO02W050x2
100
AcDbLine
 10
4341.569087521172
 20
3051.420764130245
 30
0.0
 11
4341.06186874787
 21
3050.113151296646
 31
0.0
  0
LINE
  5
3B30
330
74
100
AcDbEntity
  8
AM_3 ( Verdeckt )
  6
AM_ISO02W050x2
100
AcDbLine
 10
4341.06186874787
 20
3050.113151296646
 30
0.0
 11
4340.89121959377
 21
3048.751238536546
 31
0.0
  0
LINE
  5
3B31
330
74
100
AcDbEntity
  8
AM_3 ( Verdeckt )
  6
AM_ISO02W050x2
100
AcDbLine
 10
4340.89121959377
 20
3048.751238536546
 30
0.0
 11
4341.008134243971
 21
3047.427690638946
 31
0.0
  0
LINE
  5
3B32
330
74
100
AcDbEntity
  8
AM_3 ( Verdeckt )
  6
AM_ISO02W050x2
100
AcDbLine
 10
4341.008134243971
 20
3047.427690638946
 30
0.0
 11
4341.35154116787
 21
3046.195706471846
 31
0.0
  0
LINE
  5
3B33
330
74
100
AcDbEntity
  8
AM_3 ( Verdeckt )
  6
AM_ISO02W050x2
100
AcDbLine
 10
4341.35154116787
 20
3046.195706471846
 30
0.0
 11
4341.869365630873
 21
3045.076706470646
 31
0.0
  0
LINE
  5
3B34
330
74
100
AcDbEntity
  8
AM_3 ( Verdeckt )
  6
AM_ISO02W050x2
100
AcDbLine
 10
4341.869365630873
 20
3045.076706470646
 30
0.0
 11
4342.526139924472
 21
3044.074099962846
 31
0.0
  0
LINE
  5
3B35
330
74
100
AcDbEntity
  8
AM_3 ( Verdeckt )
  6
AM_ISO02W050x2
100
AcDbLine
 10
4342.526139924472
 20
3044.074099962846
 30
0.0
 11
4343.302502719871
 21
3043.185050869546
 31
0.0
  0
LINE
  5
3B36
330
74
100
AcDbEntity
  8
AM_3 ( Verdeckt )
  6
AM_ISO02W050x2
100
AcDbLine
 10
4360.463121066972
 20
3068.867705428246
 30
0.0
 11
4357.294249339171
 21
3069.953774736546
 31
0.0
  0
LINE
  5
3B37
330
74
100
AcDbEntity
  8
AM_3 ( Verdeckt )
  6
AM_ISO02W050x2
100
AcDbLine
 10
4357.294249339171
 20
3069.953774736546
 30
0.0
 11
4354.406328028772
 21
3070.548650438946
 31
0.0
  0
LINE
  5
3B38
330
74
100
AcDbEntity
  8
AM_3 ( Verdeckt )
  6
AM_ISO02W050x2
100
AcDbLine
 10
4354.406328028772
 20
3070.548650438946
 30
0.0
 11
4352.501022733771
 21
3070.708500499646
 31
0.0
  0
LINE
  5
3B39
330
74
100
AcDbEntity
  8
AM_3 ( Verdeckt )
  6
AM_ISO02W050x2
100
AcDbLine
 10
4352.501022733771
 20
3070.708500499646
 30
0.0
 11
4350.246294836872
 21
3070.582436731247
 31
0.0
  0
LINE
  5
3B3A
330
74
100
AcDbEntity
  8
AM_3 ( Verdeckt )
  6
AM_ISO02W050x2
100
AcDbLine
 10
4350.246294836872
 20
3070.582436731247
 30
0.0
 11
4349.055955081872
 21
3070.315595274646
 31
0.0
  0
LINE
  5
3B3B
330
74
100
AcDbEntity
  8
AM_3 ( Verdeckt )
  6
AM_ISO02W050x2
100
AcDbLine
 10
4349.055955081872
 20
3070.315595274646
 30
0.0
 11
4347.92803110687
 21
3069.847384400946
 31
0.0
  0
LINE
  5
3B3C
330
74
100
AcDbEntity
  8
AM_3 ( Verdeckt )
  6
AM_ISO02W050x2
100
AcDbLine
 10
4347.92803110687
 20
3069.847384400946
 30
0.0
 11
4346.988753653072
 21
3069.143465919247
 31
0.0
  0
LINE
  5
3B3D
330
74
100
AcDbEntity
  8
AM_3 ( Verdeckt )
  6
AM_ISO02W050x2
100
AcDbLine
 10
4346.988753653072
 20
3069.143465919247
 30
0.0
 11
4346.369070588472
 21
3068.211299083446
 31
0.0
  0
LINE
  5
3B3E
330
74
100
AcDbEntity
  8
AM_3 ( Verdeckt )
  6
AM_ISO02W050x2
100
AcDbLine
 10
4360.463117106472
 20
3068.867707068746
 30
0.0
 11
4359.344640935371
 21
3069.244750036646
 31
0.0
  0
LINE
  5
3B3F
330
74
100
AcDbEntity
  8
AM_3 ( Verdeckt )
  6
AM_ISO02W050x2
100
AcDbLine
 10
4359.344640935371
 20
3069.244750036646
 30
0.0
 11
4358.16701578747
 21
3069.467850851946
 31
0.0
  0
LINE
  5
3B40
330
74
100
AcDbEntity
  8
AM_3 ( Verdeckt )
  6
AM_ISO02W050x2
100
AcDbLine
 10
4358.16701578747
 20
3069.467850851946
 30
0.0
 11
4356.935030695372
 21
3069.518036687546
 31
0.0
  0
LINE
  5
3B41
330
74
100
AcDbEntity
  8
AM_3 ( Verdeckt )
  6
AM_ISO02W050x2
100
AcDbLine
 10
4356.935030695372
 20
3069.518036687546
 30
0.0
 11
4355.665408325772
 21
3069.363844313546
 31
0.0
  0
LINE
  5
3B42
330
74
100
AcDbEntity
  8
AM_3 ( Verdeckt )
  6
AM_ISO02W050x2
100
AcDbLine
 10
4355.665408325772
 20
3069.363844313546
 30
0.0
 11
4354.397866710772
 21
3068.965360086446
 31
0.0
  0
LINE
  5
3B43
330
74
100
AcDbEntity
  8
AM_3 ( Verdeckt )
  6
AM_ISO02W050x2
100
AcDbLine
 10
4354.397866710772
 20
3068.965360086446
 30
0.0
 11
4353.20492636197
 21
3068.286519430547
 31
0.0
  0
LINE
  5
3B44
330
74
100
AcDbEntity
  8
AM_3 ( Verdeckt )
  6
AM_ISO02W050x2
100
AcDbLine
 10
4353.20492636197
 20
3068.286519430547
 30
0.0
 11
4352.190952363372
 21
3067.317508023246
 31
0.0
  0
LINE
  5
3B45
330
74
100
AcDbEntity
  8
AM_3 ( Verdeckt )
  6
AM_ISO02W050x2
100
AcDbLine
 10
4352.190952363372
 20
3067.317508023246
 30
0.0
 11
4351.468885607872
 21
3066.098886536746
 31
0.0
  0
LINE
  5
3B46
330
74
100
AcDbEntity
  8
AM_3 ( Verdeckt )
  6
AM_ISO02W050x2
100
AcDbLine
 10
4346.369070588472
 20
3068.211299083446
 30
0.0
 11
4346.14811119497
 21
3067.113975500646
 31
0.0
  0
LINE
  5
3B47
330
74
100
AcDbEntity
  8
AM_3 ( Verdeckt )
  6
AM_ISO02W050x2
100
AcDbLine
 10
4346.14811119497
 20
3067.113975500646
 30
0.0
 11
4346.31453511697
 21
3065.952060517046
 31
0.0
  0
LINE
  5
3B48
330
74
100
AcDbEntity
  8
AM_3 ( Verdeckt )
  6
AM_ISO02W050x2
100
AcDbLine
 10
4346.31453511697
 20
3065.952060517046
 30
0.0
 11
4346.781022719771
 21
3064.823422746047
 31
0.0
  0
LINE
  5
3B49
330
74
100
AcDbEntity
  8
AM_3 ( Verdeckt )
  6
AM_ISO02W050x2
100
AcDbLine
 10
4346.781022719771
 20
3064.823422746047
 30
0.0
 11
4347.434034624071
 21
3063.793040032646
 31
0.0
  0
LINE
  5
3B4A
330
74
100
AcDbEntity
  8
AM_3 ( Verdeckt )
  6
AM_ISO02W050x2
100
AcDbLine
 10
4347.434034624071
 20
3063.793040032646
 30
0.0
 11
4348.939227456571
 21
3062.109566103446
 31
0.0
  0
LINE
  5
3B4B
330
74
100
AcDbEntity
  8
AM_3 ( Verdeckt )
  6
AM_ISO02W050x2
100
AcDbLine
 10
4348.939227456571
 20
3062.109566103446
 30
0.0
 11
4351.071788705271
 21
3060.385487685146
 31
0.0
  0
LINE
  5
3B4C
330
74
100
AcDbEntity
  8
AM_3 ( Verdeckt )
  6
AM_ISO02W050x2
100
AcDbLine
 10
4351.071788705271
 20
3060.385487685146
 30
0.0
 11
4353.915056811472
 21
3058.684225832046
 31
0.0
  0
LINE
  5
3B4D
330
74
100
AcDbEntity
  8
AM_3 ( Verdeckt )
  6
AM_ISO02W050x2
100
AcDbLine
 10
4353.915056811472
 20
3058.684225832046
 30
0.0
 11
4355.870919839672
 21
3057.781151054246
 31
0.0
  0
LINE
  5
3B4E
330
74
100
AcDbEntity
  8
AM_3 ( Verdeckt )
  6
AM_ISO02W050x2
100
AcDbLine
 10
4351.468885607872
 20
3066.098886536746
 30
0.0
 11
4351.117768560372
 21
3064.726614259346
 31
0.0
  0
LINE
  5
3B4F
330
74
100
AcDbEntity
  8
AM_3 ( Verdeckt )
  6
AM_ISO02W050x2
100
AcDbLine
 10
4351.117768560372
 20
3064.726614259346
 30
0.0
 11
4351.149561284672
 21
3063.324433304846
 31
0.0
  0
LINE
  5
3B50
330
74
100
AcDbEntity
  8
AM_3 ( Verdeckt )
  6
AM_ISO02W050x2
100
AcDbLine
 10
4351.149561284672
 20
3063.324433304846
 30
0.0
 11
4351.513083473572
 21
3062.000885376646
 31
0.0
  0
LINE
  5
3B51
330
74
100
AcDbEntity
  8
AM_3 ( Verdeckt )
  6
AM_ISO02W050x2
100
AcDbLine
 10
4351.513083473572
 20
3062.000885376646
 30
0.0
 11
4352.12759837827
 21
3060.822827863446
 31
0.0
  0
LINE
  5
3B52
330
74
100
AcDbEntity
  8
AM_3 ( Verdeckt )
  6
AM_ISO02W050x2
100
AcDbLine
 10
4352.12759837827
 20
3060.822827863446
 30
0.0
 11
4352.916324936272
 21
3059.816039047447
 31
0.0
  0
LINE
  5
3B53
330
74
100
AcDbEntity
  8
AM_3 ( Verdeckt )
  6
AM_ISO02W050x2
100
AcDbLine
 10
4352.916324936272
 20
3059.816039047447
 30
0.0
 11
4353.822955120371
 21
3058.980380692246
 31
0.0
  0
LINE
  5
3B54
330
74
100
AcDbEntity
  8
AM_3 ( Verdeckt )
  6
AM_ISO02W050x2
100
AcDbLine
 10
4353.822955120371
 20
3058.980380692246
 30
0.0
 11
4354.813416347371
 21
3058.305429701446
 31
0.0
  0
LINE
  5
3B55
330
74
100
AcDbEntity
  8
AM_3 ( Verdeckt )
  6
AM_ISO02W050x2
100
AcDbLine
 10
4354.813416347371
 20
3058.305429701446
 30
0.0
 11
4355.87090640247
 21
3057.781156620047
 31
0.0
  0
LINE
  5
3B56
330
74
100
AcDbEntity
  8
AM_3 ( Verdeckt )
  6
AM_ISO02W050x2
100
AcDbLine
 10
4361.89692405977
 20
3088.075919838046
 30
0.0
 11
4358.553647598571
 21
3087.866642333346
 31
0.0
  0
LINE
  5
3B57
330
74
100
AcDbEntity
  8
AM_3 ( Verdeckt )
  6
AM_ISO02W050x2
100
AcDbLine
 10
4358.553647598571
 20
3087.866642333346
 30
0.0
 11
4355.657907132772
 21
3087.311076179747
 31
0.0
  0
LINE
  5
3B58
330
74
100
AcDbEntity
  8
AM_3 ( Verdeckt )
  6
AM_ISO02W050x2
100
AcDbLine
 10
4355.657907132772
 20
3087.311076179747
 30
0.0
 11
4353.836462597672
 21
3086.729629609147
 31
0.0
  0
LINE
  5
3B59
330
74
100
AcDbEntity
  8
AM_3 ( Verdeckt )
  6
AM_ISO02W050x2
100
AcDbLine
 10
4353.836462597672
 20
3086.729629609147
 30
0.0
 11
4351.801608157972
 21
3085.750314863047
 31
0.0
  0
LINE
  5
3B5A
330
74
100
AcDbEntity
  8
AM_3 ( Verdeckt )
  6
AM_ISO02W050x2
100
AcDbLine
 10
4351.801608157972
 20
3085.750314863047
 30
0.0
 11
4350.803993426072
 21
3085.048262199746
 31
0.0
  0
LINE
  5
3B5B
330
74
100
AcDbEntity
  8
AM_3 ( Verdeckt )
  6
AM_ISO02W050x2
100
AcDbLine
 10
4350.803993426072
 20
3085.048262199746
 30
0.0
 11
4349.941104095572
 21
3084.184053938447
 31
0.0
  0
LINE
  5
3B5C
330
74
100
AcDbEntity
  8
AM_3 ( Verdeckt )
  6
AM_ISO02W050x2
100
AcDbLine
 10
4349.941104095572
 20
3084.184053938447
 30
0.0
 11
4349.34270282137
 21
3083.174272140646
 31
0.0
  0
LINE
  5
3B5D
330
74
100
AcDbEntity
  8
AM_3 ( Verdeckt )
  6
AM_ISO02W050x2
100
AcDbLine
 10
4349.34270282137
 20
3083.174272140646
 30
0.0
 11
4349.126915125572
 21
3082.075919838046
 31
0.0
  0
LINE
  5
3B5E
330
74
100
AcDbEntity
  8
AM_3 ( Verdeckt )
  6
AM_ISO02W050x2
100
AcDbLine
 10
4361.896919772972
 20
3088.075919838046
 30
0.0
 11
4360.719294433772
 21
3087.996239818846
 31
0.0
  0
LINE
  5
3B5F
330
74
100
AcDbEntity
  8
AM_3 ( Verdeckt )
  6
AM_ISO02W050x2
100
AcDbLine
 10
4360.719294433772
 20
3087.996239818846
 30
0.0
 11
4359.545933676971
 21
3087.751700462146
 31
0.0
  0
LINE
  5
3B60
330
74
100
AcDbEntity
  8
AM_3 ( Verdeckt )
  6
AM_ISO02W050x2
100
AcDbLine
 10
4359.545933676971
 20
3087.751700462146
 30
0.0
 11
4358.38852257817
 21
3087.326605844746
 31
0.0
  0
LINE
  5
3B61
330
74
100
AcDbEntity
  8
AM_3 ( Verdeckt )
  6
AM_ISO02W050x2
100
AcDbLine
 10
4358.38852257817
 20
3087.326605844746
 30
0.0
 11
4357.27455132377
 21
3086.698287220146
 31
0.0
  0
LINE
  5
3B62
330
74
100
AcDbEntity
  8
AM_3 ( Verdeckt )
  6
AM_ISO02W050x2
100
AcDbLine
 10
4357.27455132377
 20
3086.698287220146
 30
0.0
 11
4356.255988880872
 21
3085.845068622846
 31
0.0
  0
LINE
  5
3B63
330
74
100
AcDbEntity
  8
AM_3 ( Verdeckt )
  6
AM_ISO02W050x2
100
AcDbLine
 10
4356.255988880872
 20
3085.845068622846
 30
0.0
 11
4355.41363678127
 21
3084.761383127746
 31
0.0
  0
LINE
  5
3B64
330
74
100
AcDbEntity
  8
AM_3 ( Verdeckt )
  6
AM_ISO02W050x2
100
AcDbLine
 10
4355.41363678127
 20
3084.761383127746
 30
0.0
 11
4354.847671568871
 21
3083.478102271647
 31
0.0
  0
LINE
  5
3B65
330
74
100
AcDbEntity
  8
AM_3 ( Verdeckt )
  6
AM_ISO02W050x2
100
AcDbLine
 10
4354.847671568871
 20
3083.478102271647
 30
0.0
 11
4354.646915125571
 21
3082.075919838046
 31
0.0
  0
LINE
  5
3B66
330
74
100
AcDbEntity
  8
AM_3 ( Verdeckt )
  6
AM_ISO02W050x2
100
AcDbLine
 10
4349.126915125572
 20
3082.075919838046
 30
0.0
 11
4349.342702819472
 21
3080.977567540247
 31
0.0
  0
LINE
  5
3B67
330
74
100
AcDbEntity
  8
AM_3 ( Verdeckt )
  6
AM_ISO02W050x2
100
AcDbLine
 10
4349.342702819472
 20
3080.977567540247
 30
0.0
 11
4349.94110408877
 21
3079.967785746046
 31
0.0
  0
LINE
  5
3B68
330
74
100
AcDbEntity
  8
AM_3 ( Verdeckt )
  6
AM_ISO02W050x2
100
AcDbLine
 10
4349.94110408877
 20
3079.967785746046
 30
0.0
 11
4350.803993413272
 21
3079.103577486846
 31
0.0
  0
LINE
  5
3B69
330
74
100
AcDbEntity
  8
AM_3 ( Verdeckt )
  6
AM_ISO02W050x2
100
AcDbLine
 10
4350.803993413272
 20
3079.103577486846
 30
0.0
 11
4351.801608139572
 21
3078.401524824146
 31
0.0
  0
LINE
  5
3B6A
330
74
100
AcDbEntity
  8
AM_3 ( Verdeckt )
  6
AM_ISO02W050x2
100
AcDbLine
 10
4351.801608139572
 20
3078.401524824146
 30
0.0
 11
4353.836462571472
 21
3077.422210076946
 31
0.0
  0
LINE
  5
3B6B
330
74
100
AcDbEntity
  8
AM_3 ( Verdeckt )
  6
AM_ISO02W050x2
100
AcDbLine
 10
4353.836462571472
 20
3077.422210076946
 30
0.0
 11
4356.466468507771
 21
3076.645465172247
 31
0.0
  0
LINE
  5
3B6C
330
74
100
AcDbEntity
  8
AM_3 ( Verdeckt )
  6
AM_ISO02W050x2
100
AcDbLine
 10
4356.466468507771
 20
3076.645465172247
 30
0.0
 11
4359.744350441871
 21
3076.161775764746
 31
0.0
  0
LINE
  5
3B6D
330
74
100
AcDbEntity
  8
AM_3 ( Verdeckt )
  6
AM_ISO02W050x2
100
AcDbLine
 10
4359.744350441871
 20
3076.161775764746
 30
0.0
 11
4361.896924017672
 21
3076.075919838046
 31
0.0
  0
LINE
  5
3B6E
330
74
100
AcDbEntity
  8
AM_3 ( Verdeckt )
  6
AM_ISO02W050x2
100
AcDbLine
 10
4354.646915125571
 20
3082.075919838046
 30
0.0
 11
4354.847671137172
 21
3080.673738890946
 31
0.0
  0
LINE
  5
3B6F
330
74
100
AcDbEntity
  8
AM_3 ( Verdeckt )
  6
AM_ISO02W050x2
100
AcDbLine
 10
4354.847671137172
 20
3080.673738890946
 30
0.0
 11
4355.41363520477
 21
3079.390459155046
 31
0.0
  0
LINE
  5
3B70
330
74
100
AcDbEntity
  8
AM_3 ( Verdeckt )
  6
AM_ISO02W050x2
100
AcDbLine
 10
4355.41363520477
 20
3079.390459155046
 30
0.0
 11
4356.255985778772
 21
3078.306774232947
 31
0.0
  0
LINE
  5
3B71
330
74
100
AcDbEntity
  8
AM_3 ( Verdeckt )
  6
AM_ISO02W050x2
100
AcDbLine
 10
4356.255985778772
 20
3078.306774232947
 30
0.0
 11
4357.27454661437
 21
3077.453555681346
 31
0.0
  0
LINE
  5
3B72
330
74
100
AcDbEntity
  8
AM_3 ( Verdeckt )
  6
AM_ISO02W050x2
100
AcDbLine
 10
4357.27454661437
 20
3077.453555681346
 30
0.0
 11
4358.38851633787
 21
3076.825236687046
 31
0.0
  0
LINE
  5
3B73
330
74
100
AcDbEntity
  8
AM_3 ( Verdeckt )
  6
AM_ISO02W050x2
100
AcDbLine
 10
4358.38851633787
 20
3076.825236687046
 30
0.0
 11
4359.545926016071
 21
3076.400141387246
 31
0.0
  0
LINE
  5
3B74
330
74
100
AcDbEntity
  8
AM_3 ( Verdeckt )
  6
AM_ISO02W050x2
100
AcDbLine
 10
4359.545926016071
 20
3076.400141387246
 30
0.0
 11
4360.719285433371
 21
3076.155601083446
 31
0.0
  0
LINE
  5
3B75
330
74
100
AcDbEntity
  8
AM_3 ( Verdeckt )
  6
AM_ISO02W050x2
100
AcDbLine
 10
4360.719285433371
 20
3076.155601083446
 30
0.0
 11
4361.896909473371
 21
3076.075919838046
 31
0.0
  0
LINE
  5
3B76
330
74
100
AcDbEntity
  8
AM_3 ( Verdeckt )
  6
AM_ISO02W050x2
100
AcDbLine
 10
4355.870919878571
 20
3106.370688637947
 30
0.0
 11
4352.862222218372
 21
3104.897924923247
 31
0.0
  0
LINE
  5
3B77
330
74
100
AcDbEntity
  8
AM_3 ( Verdeckt )
  6
AM_ISO02W050x2
100
AcDbLine
 10
4352.862222218372
 20
3104.897924923247
 30
0.0
 11
4350.399512833071
 21
3103.276496824346
 31
0.0
  0
LINE
  5
3B78
330
74
100
AcDbEntity
  8
AM_3 ( Verdeckt )
  6
AM_ISO02W050x2
100
AcDbLine
 10
4350.399512833071
 20
3103.276496824346
 30
0.0
 11
4348.93922747687
 21
3102.042273591946
 31
0.0
  0
LINE
  5
3B79
330
74
100
AcDbEntity
  8
AM_3 ( Verdeckt )
  6
AM_ISO02W050x2
100
AcDbLine
 10
4348.93922747687
 20
3102.042273591946
 30
0.0
 11
4347.43403463687
 21
3100.358799660746
 31
0.0
  0
LINE
  5
3B7A
330
74
100
AcDbEntity
  8
AM_3 ( Verdeckt )
  6
AM_ISO02W050x2
100
AcDbLine
 10
4347.43403463687
 20
3100.358799660746
 30
0.0
 11
4346.78102272757
 21
3099.328416944546
 31
0.0
  0
LINE
  5
3B7B
330
74
100
AcDbEntity
  8
AM_3 ( Verdeckt )
  6
AM_ISO02W050x2
100
AcDbLine
 10
4346.78102272757
 20
3099.328416944546
 30
0.0
 11
4346.314535119971
 21
3098.199779169446
 31
0.0
  0
LINE
  5
3B7C
330
74
100
AcDbEntity
  8
AM_3 ( Verdeckt )
  6
AM_ISO02W050x2
100
AcDbLine
 10
4346.314535119971
 20
3098.199779169446
 30
0.0
 11
4346.148111194871
 21
3097.037864180546
 31
0.0
  0
LINE
  5
3B7D
330
74
100
AcDbEntity
  8
AM_3 ( Verdeckt )
  6
AM_ISO02W050x2
100
AcDbLine
 10
4346.148111194871
 20
3097.037864180546
 30
0.0
 11
4346.369070588472
 21
3095.940540592645
 31
0.0
  0
LINE
  5
3B7E
330
74
100
AcDbEntity
  8
AM_3 ( Verdeckt )
  6
AM_ISO02W050x2
100
AcDbLine
 10
4355.870915918071
 20
3106.370686997447
 30
0.0
 11
4354.813424193472
 21
3105.846414551745
 31
0.0
  0
LINE
  5
3B7F
330
74
100
AcDbEntity
  8
AM_3 ( Verdeckt )
  6
AM_ISO02W050x2
100
AcDbLine
 10
4354.813424193472
 20
3105.846414551745
 30
0.0
 11
4353.822961366371
 21
3105.171463923346
 31
0.0
  0
LINE
  5
3B80
330
74
100
AcDbEntity
  8
AM_3 ( Verdeckt )
  6
AM_ISO02W050x2
100
AcDbLine
 10
4353.822961366371
 20
3105.171463923346
 30
0.0
 11
4352.91632960877
 21
3104.335805655046
 31
0.0
  0
LINE
  5
3B81
330
74
100
AcDbEntity
  8
AM_3 ( Verdeckt )
  6
AM_ISO02W050x2
100
AcDbLine
 10
4352.91632960877
 20
3104.335805655046
 30
0.0
 11
4352.127601494871
 21
3103.329016594746
 31
0.0
  0
LINE
  5
3B82
330
74
100
AcDbEntity
  8
AM_3 ( Verdeckt )
  6
AM_ISO02W050x2
100
AcDbLine
 10
4352.127601494871
 20
3103.329016594746
 30
0.0
 11
4351.513085122672
 21
3102.150958424147
 31
0.0
  0
LINE
  5
3B83
330
74
100
AcDbEntity
  8
AM_3 ( Verdeckt )
  6
AM_ISO02W050x2
100
AcDbLine
 10
4351.513085122672
 20
3102.150958424147
 30
0.0
 11
4351.149561743572
 21
3100.827409382846
 31
0.0
  0
LINE
  5
3B84
330
74
100
AcDbEntity
  8
AM_3 ( Verdeckt )
  6
AM_ISO02W050x2
100
AcDbLine
 10
4351.149561743572
 20
3100.827409382846
 30
0.0
 11
4351.117768390372
 21
3099.425226955347
 31
0.0
  0
LINE
  5
3B85
330
74
100
AcDbEntity
  8
AM_3 ( Verdeckt )
  6
AM_ISO02W050x2
100
AcDbLine
 10
4351.117768390372
 20
3099.425226955347
 30
0.0
 11
4351.468885607872
 21
3098.052953139247
 31
0.0
  0
LINE
  5
3B86
330
74
100
AcDbEntity
  8
AM_3 ( Verdeckt )
  6
AM_ISO02W050x2
100
AcDbLine
 10
4346.369070588472
 20
3095.940540592645
 30
0.0
 11
4346.988753649472
 21
3095.008373760546
 31
0.0
  0
LINE
  5
3B87
330
74
100
AcDbEntity
  8
AM_3 ( Verdeckt )
  6
AM_ISO02W050x2
100
AcDbLine
 10
4346.988753649472
 20
3095.008373760546
 30
0.0
 11
4347.928031097372
 21
3094.304455280346
 31
0.0
  0
LINE
  5
3B88
330
74
100
AcDbEntity
  8
AM_3 ( Verdeckt )
  6
AM_ISO02W050x2
100
AcDbLine
 10
4347.928031097372
 20
3094.304455280346
 30
0.0
 11
4349.055955066072
 21
3093.836244406246
 31
0.0
  0
LINE
  5
3B89
330
74
100
AcDbEntity
  8
AM_3 ( Verdeckt )
  6
AM_ISO02W050x2
100
AcDbLine
 10
4349.055955066072
 20
3093.836244406246
 30
0.0
 11
4350.246294815671
 21
3093.569402948047
 31
0.0
  0
LINE
  5
3B8A
330
74
100
AcDbEntity
  8
AM_3 ( Verdeckt )
  6
AM_ISO02W050x2
100
AcDbLine
 10
4350.246294815671
 20
3093.569402948047
 30
0.0
 11
4352.501022705772
 21
3093.443339175646
 31
0.0
  0
LINE
  5
3B8B
330
74
100
AcDbEntity
  8
AM_3 ( Verdeckt )
  6
AM_ISO02W050x2
100
AcDbLine
 10
4352.501022705772
 20
3093.443339175646
 30
0.0
 11
4355.22807876687
 21
3093.732180155046
 31
0.0
  0
LINE
  5
3B8C
330
74
100
AcDbEntity
  8
AM_3 ( Verdeckt )
  6
AM_ISO02W050x2
100
AcDbLine
 10
4355.22807876687
 20
3093.732180155046
 30
0.0
 11
4358.441546718473
 21
3094.539700520746
 31
0.0
  0
LINE
  5
3B8D
330
74
100
AcDbEntity
  8
AM_3 ( Verdeckt )
  6
AM_ISO02W050x2
100
AcDbLine
 10
4358.441546718473
 20
3094.539700520746
 30
0.0
 11
4360.463121027971
 21
3095.284134231746
 31
0.0
  0
LINE
  5
3B8E
330
74
100
AcDbEntity
  8
AM_3 ( Verdeckt )
  6
AM_ISO02W050x2
100
AcDbLine
 10
4351.468885607872
 20
3098.052953139247
 30
0.0
 11
4352.19095139567
 21
3096.834332860947
 31
0.0
  0
LINE
  5
3B8F
330
74
100
AcDbEntity
  8
AM_3 ( Verdeckt )
  6
AM_ISO02W050x2
100
AcDbLine
 10
4352.19095139567
 20
3096.834332860947
 30
0.0
 11
4353.204923907972
 21
3095.865322050447
 31
0.0
  0
LINE
  5
3B90
330
74
100
AcDbEntity
  8
AM_3 ( Verdeckt )
  6
AM_ISO02W050x2
100
AcDbLine
 10
4353.204923907972
 20
3095.865322050447
 30
0.0
 11
4354.397862628072
 21
3095.186481340146
 31
0.0
  0
LINE
  5
3B91
330
74
100
AcDbEntity
  8
AM_3 ( Verdeckt )
  6
AM_ISO02W050x2
100
AcDbLine
 10
4354.397862628072
 20
3095.186481340146
 30
0.0
 11
4355.665402740572
 21
3094.787996540246
 31
0.0
  0
LINE
  5
3B92
330
74
100
AcDbEntity
  8
AM_3 ( Verdeckt )
  6
AM_ISO02W050x2
100
AcDbLine
 10
4355.665402740572
 20
3094.787996540246
 30
0.0
 11
4356.935023837272
 21
3094.633803238846
 31
0.0
  0
LINE
  5
3B93
330
74
100
AcDbEntity
  8
AM_3 ( Verdeckt )
  6
AM_ISO02W050x2
100
AcDbLine
 10
4356.935023837272
 20
3094.633803238846
 30
0.0
 11
4358.167007878072
 21
3094.683987900346
 31
0.0
  0
LINE
  5
3B94
330
74
100
AcDbEntity
  8
AM_3 ( Verdeckt )
  6
AM_ISO02W050x2
100
AcDbLine
 10
4358.167007878072
 20
3094.683987900346
 30
0.0
 11
4359.34463215077
 21
3094.907087327946
 31
0.0
  0
LINE
  5
3B95
330
74
100
AcDbEntity
  8
AM_3 ( Verdeckt )
  6
AM_ISO02W050x2
100
AcDbLine
 10
4359.34463215077
 20
3094.907087327946
 30
0.0
 11
4360.463107590872
 21
3095.284128665846
 31
0.0
  0
LINE
  5
3B96
330
74
100
AcDbEntity
  8
AM_3 ( Verdeckt )
  6
AM_ISO02W050x2
100
AcDbLine
 10
4343.302513034072
 20
3120.966799120746
 30
0.0
 11
4341.086441119673
 21
3118.454764120946
 31
0.0
  0
LINE
  5
3B97
330
74
100
AcDbEntity
  8
AM_3 ( Verdeckt )
  6
AM_ISO02W050x2
100
AcDbLine
 10
4341.086441119673
 20
3118.454764120946
 30
0.0
 11
4339.431687994371
 21
3116.014321806446
 31
0.0
  0
LINE
  5
3B98
330
74
100
AcDbEntity
  8
AM_3 ( Verdeckt )
  6
AM_ISO02W050x2
100
AcDbLine
 10
4339.431687994371
 20
3116.014321806446
 30
0.0
 11
4338.554877024972
 21
3114.315221211147
 31
0.0
  0
LINE
  5
3B99
330
74
100
AcDbEntity
  8
AM_3 ( Verdeckt )
  6
AM_ISO02W050x2
100
AcDbLine
 10
4338.554877024972
 20
3114.315221211147
 30
0.0
 11
4337.808497749872
 21
3112.183881740246
 31
0.0
  0
LINE
  5
3B9A
330
74
100
AcDbEntity
  8
AM_3 ( Verdeckt )
  6
AM_ISO02W050x2
100
AcDbLine
 10
4337.808497749872
 20
3112.183881740246
 30
0.0
 11
4337.599503806872
 21
3110.982035399247
 31
0.0
  0
LINE
  5
3B9B
330
74
100
AcDbEntity
  8
AM_3 ( Verdeckt )
  6
AM_ISO02W050x2
100
AcDbLine
 10
4337.599503806872
 20
3110.982035399247
 30
0.0
 11
4337.600436431771
 21
3109.760792980346
 31
0.0
  0
LINE
  5
3B9C
330
74
100
AcDbEntity
  8
AM_3 ( Verdeckt )
  6
AM_ISO02W050x2
100
AcDbLine
 10
4337.600436431771
 20
3109.760792980346
 30
0.0
 11
4337.891326389672
 21
3108.623635824746
 31
0.0
  0
LINE
  5
3B9D
330
74
100
AcDbEntity
  8
AM_3 ( Verdeckt )
  6
AM_ISO02W050x2
100
AcDbLine
 10
4337.891326389672
 20
3108.623635824746
 30
0.0
 11
4338.515393807972
 21
3107.694398520446
 31
0.0
  0
LINE
  5
3B9E
330
74
100
AcDbEntity
  8
AM_3 ( Verdeckt )
  6
AM_ISO02W050x2
100
AcDbLine
 10
4343.302510002772
 20
3120.966796089546
 30
0.0
 11
4342.526145421671
 21
3120.077746944546
 31
0.0
  0
LINE
  5
3B9F
330
74
100
AcDbEntity
  8
AM_3 ( Verdeckt )
  6
AM_ISO02W050x2
100
AcDbLine
 10
4342.526145421671
 20
3120.077746944546
 30
0.0
 11
4341.869369511171
 21
3119.075140159246
 31
0.0
  0
LINE
  5
3BA0
330
74
100
AcDbEntity
  8
AM_3 ( Verdeckt )
  6
AM_ISO02W050x2
100
AcDbLine
 10
4341.869369511171
 20
3119.075140159246
 30
0.0
 11
4341.351543561072
 21
3117.956139636147
 31
0.0
  0
LINE
  5
3BA1
330
74
100
AcDbEntity
  8
AM_3 ( Verdeckt )
  6
AM_ISO02W050x2
100
AcDbLine
 10
4341.351543561072
 20
3117.956139636147
 30
0.0
 11
4341.008135293272
 21
3116.724154647847
 31
0.0
  0
LINE
  5
3BA2
330
74
100
AcDbEntity
  8
AM_3 ( Verdeckt )
  6
AM_ISO02W050x2
100
AcDbLine
 10
4341.008135293272
 20
3116.724154647847
 30
0.0
 11
4340.891219538872
 21
3115.400605581446
 31
0.0
  0
LINE
  5
3BA3
330
74
100
AcDbEntity
  8
AM_3 ( Verdeckt )
  6
AM_ISO02W050x2
100
AcDbLine
 10
4340.891219538872
 20
3115.400605581446
 30
0.0
 11
4341.061868019372
 21
3114.038691337347
 31
0.0
  0
LINE
  5
3BA4
330
74
100
AcDbEntity
  8
AM_3 ( Verdeckt )
  6
AM_ISO02W050x2
100
AcDbLine
 10
4341.061868019372
 20
3114.038691337347
 30
0.0
 11
4341.569086775272
 21
3112.731076902246
 31
0.0
  0
LINE
  5
3BA5
330
74
100
AcDbEntity
  8
AM_3 ( Verdeckt )
  6
AM_ISO02W050x2
100
AcDbLine
 10
4341.569086775272
 20
3112.731076902246
 30
0.0
 11
4342.41862324007
 21
3111.597627952546
 31
0.0
  0
LINE
  5
3BA6
330
74
100
AcDbEntity
  8
AM_3 ( Verdeckt )
  6
AM_ISO02W050x2
100
AcDbLine
 10
4338.515393807972
 20
3107.694398520446
 30
0.0
 11
4339.44463110757
 21
3107.070331104146
 31
0.0
  0
LINE
  5
3BA7
330
74
100
AcDbEntity
  8
AM_3 ( Verdeckt )
  6
AM_ISO02W050x2
100
AcDbLine
 10
4339.44463110757
 20
3107.070331104146
 30
0.0
 11
4340.58178825717
 21
3106.779441145446
 31
0.0
  0
LINE
  5
3BA8
330
74
100
AcDbEntity
  8
AM_3 ( Verdeckt )
  6
AM_ISO02W050x2
100
AcDbLine
 10
4340.58178825717
 20
3106.779441145446
 30
0.0
 11
4341.803030670371
 21
3106.778508517746
 31
0.0
  0
LINE
  5
3BA9
330
74
100
AcDbEntity
  8
AM_3 ( Verdeckt )
  6
AM_ISO02W050x2
100
AcDbLine
 10
4341.803030670371
 20
3106.778508517746
 30
0.0
 11
4343.004877006872
 21
3106.987502457146
 31
0.0
  0
LINE
  5
3BAA
330
74
100
AcDbEntity
  8
AM_3 ( Verdeckt )
  6
AM_ISO02W050x2
100
AcDbLine
 10
4343.004877006872
 20
3106.987502457146
 30
0.0
 11
4345.136216473071
 21
3107.733881726046
 31
0.0
  0
LINE
  5
3BAB
330
74
100
AcDbEntity
  8
AM_3 ( Verdeckt )
  6
AM_ISO02W050x2
100
AcDbLine
 10
4345.136216473071
 20
3107.733881726046
 30
0.0
 11
4347.545153094471
 21
3109.044335168746
 31
0.0
  0
LINE
  5
3BAC
330
74
100
AcDbEntity
  8
AM_3 ( Verdeckt )
  6
AM_ISO02W050x2
100
AcDbLine
 10
4347.545153094471
 20
3109.044335168746
 30
0.0
 11
4350.204985698072
 21
3111.020127652246
 31
0.0
  0
LINE
  5
3BAD
330
74
100
AcDbEntity
  8
AM_3 ( Verdeckt )
  6
AM_ISO02W050x2
100
AcDbLine
 10
4350.204985698072
 20
3111.020127652246
 30
0.0
 11
4351.787794378473
 21
3112.481517716747
 31
0.0
  0
LINE
  5
3BAE
330
74
100
AcDbEntity
  8
AM_3 ( Verdeckt )
  6
AM_ISO02W050x2
100
AcDbLine
 10
4342.41862324007
 20
3111.597627952546
 30
0.0
 11
4343.552070833371
 21
3110.748092233647
 31
0.0
  0
LINE
  5
3BAF
330
74
100
AcDbEntity
  8
AM_3 ( Verdeckt )
  6
AM_ISO02W050x2
100
AcDbLine
 10
4343.552070833371
 20
3110.748092233647
 30
0.0
 11
4344.859683666972
 21
3110.240873460346
 31
0.0
  0
LINE
  5
3BB0
330
74
100
AcDbEntity
  8
AM_3 ( Verdeckt )
  6
AM_ISO02W050x2
100
AcDbLine
 10
4344.859683666972
 20
3110.240873460346
 30
0.0
 11
4346.221596427072
 21
3110.070224306246
 31
0.0
  0
LINE
  5
3BB1
330
74
100
AcDbEntity
  8
AM_3 ( Verdeckt )
  6
AM_ISO02W050x2
100
AcDbLine
 10
4346.221596427072
 20
3110.070224306246
 30
0.0
 11
4347.545144324672
 21
3110.187138956446
 31
0.0
  0
LINE
  5
3BB2
330
74
100
AcDbEntity
  8
AM_3 ( Verdeckt )
  6
AM_ISO02W050x2
100
AcDbLine
 10
4347.545144324672
 20
3110.187138956446
 30
0.0
 11
4348.777128491772
 21
3110.530545880346
 31
0.0
  0
LINE
  5
3BB3
330
74
100
AcDbEntity
  8
AM_3 ( Verdeckt )
  6
AM_ISO02W050x2
100
AcDbLine
 10
4348.777128491772
 20
3110.530545880346
 30
0.0
 11
4349.896128492972
 21
3111.048370343346
 31
0.0
  0
LINE
  5
3BB4
330
74
100
AcDbEntity
  8
AM_3 ( Verdeckt )
  6
AM_ISO02W050x2
100
AcDbLine
 10
4349.896128492972
 20
3111.048370343346
 30
0.0
 11
4350.898735000772
 21
3111.705144636947
 31
0.0
  0
LINE
  5
3BB5
330
74
100
AcDbEntity
  8
AM_3 ( Verdeckt )
  6
AM_ISO02W050x2
100
AcDbLine
 10
4350.898735000772
 20
3111.705144636947
 30
0.0
 11
4351.787784094072
 21
3112.481507432346
 31
0.0
  0
LINE
  5
3BB6
330
74
100
AcDbEntity
  8
AM_3 ( Verdeckt )
  6
AM_ISO02W050x2
100
AcDbLine
 10
4326.10512953537
 20
3129.642125779446
 30
0.0
 11
4325.019060227072
 21
3126.473254051646
 31
0.0
  0
LINE
  5
3BB7
330
74
100
AcDbEntity
  8
AM_3 ( Verdeckt )
  6
AM_ISO02W050x2
100
AcDbLine
 10
4325.019060227072
 20
3126.473254051646
 30
0.0
 11
4324.424184524573
 21
3123.585332741246
 31
0.0
  0
LINE
  5
3BB8
330
74
100
AcDbEntity
  8
AM_3 ( Verdeckt )
  6
AM_ISO02W050x2
100
AcDbLine
 10
4324.424184524573
 20
3123.585332741246
 30
0.0
 11
4324.264334463872
 21
3121.680027446246
 31
0.0
  0
LINE
  5
3BB9
330
74
100
AcDbEntity
  8
AM_3 ( Verdeckt )
  6
AM_ISO02W050x2
100
AcDbLine
 10
4324.264334463872
 20
3121.680027446246
 30
0.0
 11
4324.390398232372
 21
3119.425299549346
 31
0.0
  0
LINE
  5
3BBA
330
74
100
AcDbEntity
  8
AM_3 ( Verdeckt )
  6
AM_ISO02W050x2
100
AcDbLine
 10
4324.390398232372
 20
3119.425299549346
 30
0.0
 11
4324.65723968897
 21
3118.234959794346
 31
0.0
  0
LINE
  5
3BBB
330
74
100
AcDbEntity
  8
AM_3 ( Verdeckt )
  6
AM_ISO02W050x2
100
AcDbLine
 10
4324.65723968897
 20
3118.234959794346
 30
0.0
 11
4325.125450562572
 21
3117.107035819346
 31
0.0
  0
LINE
  5
3BBC
330
74
100
AcDbEntity
  8
AM_3 ( Verdeckt )
  6
AM_ISO02W050x2
100
AcDbLine
 10
4325.125450562572
 20
3117.107035819346
 30
0.0
 11
4325.82936904437
 21
3116.167758365547
 31
0.0
  0
LINE
  5
3BBD
330
74
100
AcDbEntity
  8
AM_3 ( Verdeckt )
  6
AM_ISO02W050x2
100
AcDbLine
 10
4325.82936904437
 20
3116.167758365547
 30
0.0
 11
4326.761535880172
 21
3115.548075300946
 31
0.0
  0
LINE
  5
3BBE
330
74
100
AcDbEntity
  8
AM_3 ( Verdeckt )
  6
AM_ISO02W050x2
100
AcDbLine
 10
4326.105127894872
 20
3129.642121818946
 30
0.0
 11
4325.728084926971
 21
3128.523645647846
 31
0.0
  0
LINE
  5
3BBF
330
74
100
AcDbEntity
  8
AM_3 ( Verdeckt )
  6
AM_ISO02W050x2
100
AcDbLine
 10
4325.728084926971
 20
3128.523645647846
 30
0.0
 11
4325.504984111671
 21
3127.346020499947
 31
0.0
  0
LINE
  5
3BC0
330
74
100
AcDbEntity
  8
AM_3 ( Verdeckt )
  6
AM_ISO02W050x2
100
AcDbLine
 10
4325.504984111671
 20
3127.346020499947
 30
0.0
 11
4325.454798276071
 21
3126.114035407848
 31
0.0
  0
LINE
  5
3BC1
330
74
100
AcDbEntity
  8
AM_3 ( Verdeckt )
  6
AM_ISO02W050x2
100
AcDbLine
 10
4325.454798276071
 20
3126.114035407848
 30
0.0
 11
4325.608990650072
 21
3124.844413038246
 31
0.0
  0
LINE
  5
3BC2
330
74
100
AcDbEntity
  8
AM_3 ( Verdeckt )
  6
AM_ISO02W050x2
100
AcDbLine
 10
4325.608990650072
 20
3124.844413038246
 30
0.0
 11
4326.007474877171
 21
3123.576871423246
 31
0.0
  0
LINE
  5
3BC3
330
74
100
AcDbEntity
  8
AM_3 ( Verdeckt )
  6
AM_ISO02W050x2
100
AcDbLine
 10
4326.007474877171
 20
3123.576871423246
 30
0.0
 11
4326.686315533072
 21
3122.383931074447
 31
0.0
  0
LINE
  5
3BC4
330
74
100
AcDbEntity
  8
AM_3 ( Verdeckt )
  6
AM_ISO02W050x2
100
AcDbLine
 10
4326.686315533072
 20
3122.383931074447
 30
0.0
 11
4327.655326940372
 21
3121.369957075847
 31
0.0
  0
LINE
  5
3BC5
330
74
100
AcDbEntity
  8
AM_3 ( Verdeckt )
  6
AM_ISO02W050x2
100
AcDbLine
 10
4327.655326940372
 20
3121.369957075847
 30
0.0
 11
4328.873948426771
 21
3120.647890320346
 31
0.0
  0
LINE
  5
3BC6
330
74
100
AcDbEntity
  8
AM_3 ( Verdeckt )
  6
AM_ISO02W050x2
100
AcDbLine
 10
4326.761535880172
 20
3115.548075300946
 30
0.0
 11
4327.85885946297
 21
3115.327115907446
 31
0.0
  0
LINE
  5
3BC7
330
74
100
AcDbEntity
  8
AM_3 ( Verdeckt )
  6
AM_ISO02W050x2
100
AcDbLine
 10
4327.85885946297
 20
3115.327115907446
 30
0.0
 11
4329.02077444657
 21
3115.493539829446
 31
0.0
  0
LINE
  5
3BC8
330
74
100
AcDbEntity
  8
AM_3 ( Verdeckt )
  6
AM_ISO02W050x2
100
AcDbLine
 10
4329.02077444657
 20
3115.493539829446
 30
0.0
 11
4330.149412217571
 21
3115.960027432246
 31
0.0
  0
LINE
  5
3BC9
330
74
100
AcDbEntity
  8
AM_3 ( Verdeckt )
  6
AM_ISO02W050x2
100
AcDbLine
 10
4330.149412217571
 20
3115.960027432246
 30
0.0
 11
4331.179794930972
 21
3116.613039336546
 31
0.0
  0
LINE
  5
3BCA
330
74
100
AcDbEntity
  8
AM_3 ( Verdeckt )
  6
AM_ISO02W050x2
100
AcDbLine
 10
4331.179794930972
 20
3116.613039336546
 30
0.0
 11
4332.863268860172
 21
3118.118232169047
 31
0.0
  0
LINE
  5
3BCB
330
74
100
AcDbEntity
  8
AM_3 ( Verdeckt )
  6
AM_ISO02W050x2
100
AcDbLine
 10
4332.863268860172
 20
3118.118232169047
 30
0.0
 11
4334.587347278471
 21
3120.250793417746
 31
0.0
  0
LINE
  5
3BCC
330
74
100
AcDbEntity
  8
AM_3 ( Verdeckt )
  6
AM_ISO02W050x2
100
AcDbLine
 10
4334.587347278471
 20
3120.250793417746
 30
0.0
 11
4336.288609131572
 21
3123.094061523946
 31
0.0
  0
LINE
  5
3BCD
330
74
100
AcDbEntity
  8
AM_3 ( Verdeckt )
  6
AM_ISO02W050x2
100
AcDbLine
 10
4336.288609131572
 20
3123.094061523946
 30
0.0
 11
4337.191683909372
 21
3125.049924552146
 31
0.0
  0
LINE
  5
3BCE
330
74
100
AcDbEntity
  8
AM_3 ( Verdeckt )
  6
AM_ISO02W050x2
100
AcDbLine
 10
4328.873948426771
 20
3120.647890320346
 30
0.0
 11
4330.24622070427
 21
3120.296773272846
 31
0.0
  0
LINE
  5
3BCF
330
74
100
AcDbEntity
  8
AM_3 ( Verdeckt )
  6
AM_ISO02W050x2
100
AcDbLine
 10
4330.24622070427
 20
3120.296773272846
 30
0.0
 11
4331.648401658772
 21
3120.328565997147
 31
0.0
  0
LINE
  5
3BD0
330
74
100
AcDbEntity
  8
AM_3 ( Verdeckt )
  6
AM_ISO02W050x2
100
AcDbLine
 10
4331.648401658772
 20
3120.328565997147
 30
0.0
 11
4332.971949586872
 21
3120.692088186046
 31
0.0
  0
LINE
  5
3BD1
330
74
100
AcDbEntity
  8
AM_3 ( Verdeckt )
  6
AM_ISO02W050x2
100
AcDbLine
 10
4332.971949586872
 20
3120.692088186046
 30
0.0
 11
4334.150007100172
 21
3121.306603090746
 31
0.0
  0
LINE
  5
3BD2
330
74
100
AcDbEntity
  8
AM_3 ( Verdeckt )
  6
AM_ISO02W050x2
100
AcDbLine
 10
4334.150007100172
 20
3121.306603090746
 30
0.0
 11
4335.156795916172
 21
3122.095329648745
 31
0.0
  0
LINE
  5
3BD3
330
74
100
AcDbEntity
  8
AM_3 ( Verdeckt )
  6
AM_ISO02W050x2
100
AcDbLine
 10
4335.156795916172
 20
3122.095329648745
 30
0.0
 11
4335.992454271272
 21
3123.001959832846
 31
0.0
  0
LINE
  5
3BD4
330
74
100
AcDbEntity
  8
AM_3 ( Verdeckt )
  6
AM_ISO02W050x2
100
AcDbLine
 10
4335.992454271272
 20
3123.001959832846
 30
0.0
 11
4336.667405262072
 21
3123.992421059846
 31
0.0
  0
LINE
  5
3BD5
330
74
100
AcDbEntity
  8
AM_3 ( Verdeckt )
  6
AM_ISO02W050x2
100
AcDbLine
 10
4336.667405262072
 20
3123.992421059846
 30
0.0
 11
4337.19167834347
 21
3125.049911114946
 31
0.0
  0
LINE
  5
3BD6
330
74
100
AcDbEntity
  8
AM_3 ( Verdeckt )
  6
AM_ISO02W050x2
100
AcDbLine
 10
4306.896915125571
 20
3131.075928772246
 30
0.0
 11
4307.10619263027
 21
3127.732652311046
 31
0.0
  0
LINE
  5
3BD7
330
74
100
AcDbEntity
  8
AM_3 ( Verdeckt )
  6
AM_ISO02W050x2
100
AcDbLine
 10
4307.10619263027
 20
3127.732652311046
 30
0.0
 11
4307.661758783871
 21
3124.836911845247
 31
0.0
  0
LINE
  5
3BD8
330
74
100
AcDbEntity
  8
AM_3 ( Verdeckt )
  6
AM_ISO02W050x2
100
AcDbLine
 10
4307.661758783871
 20
3124.836911845247
 30
0.0
 11
4308.243205354471
 21
3123.015467310146
 31
0.0
  0
LINE
  5
3BD9
330
74
100
AcDbEntity
  8
AM_3 ( Verdeckt )
  6
AM_ISO02W050x2
100
AcDbLine
 10
4308.243205354471
 20
3123.015467310146
 30
0.0
 11
4309.222520100572
 21
3120.980612870447
 31
0.0
  0
LINE
  5
3BDA
330
74
100
AcDbEntity
  8
AM_3 ( Verdeckt )
  6
AM_ISO02W050x2
100
AcDbLine
 10
4309.222520100572
 20
3120.980612870447
 30
0.0
 11
4309.924572763871
 21
3119.982998138546
 31
0.0
  0
LINE
  5
3BDB
330
74
100
AcDbEntity
  8
AM_3 ( Verdeckt )
  6
AM_ISO02W050x2
100
AcDbLine
 10
4309.924572763871
 20
3119.982998138546
 30
0.0
 11
4310.788781025173
 21
3119.120108808046
 31
0.0
  0
LINE
  5
3BDC
330
74
100
AcDbEntity
  8
AM_3 ( Verdeckt )
  6
AM_ISO02W050x2
100
AcDbLine
 10
4310.788781025173
 20
3119.120108808046
 30
0.0
 11
4311.79856282297
 21
3118.521707533846
 31
0.0
  0
LINE
  5
3BDD
330
74
100
AcDbEntity
  8
AM_3 ( Verdeckt )
  6
AM_ISO02W050x2
100
AcDbLine
 10
4311.79856282297
 20
3118.521707533846
 30
0.0
 11
4312.896915125572
 21
3118.305919838046
 31
0.0
  0
LINE
  5
3BDE
330
74
100
AcDbEntity
  8
AM_3 ( Verdeckt )
  6
AM_ISO02W050x2
100
AcDbLine
 10
4306.896915125571
 20
3131.075924485446
 30
0.0
 11
4306.97659514477
 21
3129.898299146246
 31
0.0
  0
LINE
  5
3BDF
330
74
100
AcDbEntity
  8
AM_3 ( Verdeckt )
  6
AM_ISO02W050x2
100
AcDbLine
 10
4306.97659514477
 20
3129.898299146246
 30
0.0
 11
4307.221134501472
 21
3128.724938389446
 31
0.0
  0
LINE
  5
3BE0
330
74
100
AcDbEntity
  8
AM_3 ( Verdeckt )
  6
AM_ISO02W050x2
100
AcDbLine
 10
4307.221134501472
 20
3128.724938389446
 30
0.0
 11
4307.646229118772
 21
3127.567527290646
 31
0.0
  0
LINE
  5
3BE1
330
74
100
AcDbEntity
  8
AM_3 ( Verdeckt )
  6
AM_ISO02W050x2
100
AcDbLine
 10
4307.646229118772
 20
3127.567527290646
 30
0.0
 11
4308.274547743471
 21
3126.453556036246
 31
0.0
  0
LINE
  5
3BE2
330
74
100
AcDbEntity
  8
AM_3 ( Verdeckt )
  6
AM_ISO02W050x2
100
AcDbLine
 10
4308.274547743471
 20
3126.453556036246
 30
0.0
 11
4309.127766340771
 21
3125.434993593346
 31
0.0
  0
LINE
  5
3BE3
330
74
100
AcDbEntity
  8
AM_3 ( Verdeckt )
  6
AM_ISO02W050x2
100
AcDbLine
 10
4309.127766340771
 20
3125.434993593346
 30
0.0
 11
4310.211451835872
 21
3124.592641493746
 31
0.0
  0
LINE
  5
3BE4
330
74
100
AcDbEntity
  8
AM_3 ( Verdeckt )
  6
AM_ISO02W050x2
100
AcDbLine
 10
4310.211451835872
 20
3124.592641493746
 30
0.0
 11
4311.494732691971
 21
3124.026676281346
 31
0.0
  0
LINE
  5
3BE5
330
74
100
AcDbEntity
  8
AM_3 ( Verdeckt )
  6
AM_ISO02W050x2
100
AcDbLine
 10
4311.494732691971
 20
3124.026676281346
 30
0.0
 11
4312.896915125572
 21
3123.825919838046
 31
0.0
  0
LINE
  5
3BE6
330
74
100
AcDbEntity
  8
AM_3 ( Verdeckt )
  6
AM_ISO02W050x2
100
AcDbLine
 10
4312.896915125572
 20
3118.305919838046
 30
0.0
 11
4313.995267423371
 21
3118.521707531946
 31
0.0
  0
LINE
  5
3BE7
330
74
100
AcDbEntity
  8
AM_3 ( Verdeckt )
  6
AM_ISO02W050x2
100
AcDbLine
 10
4313.995267423371
 20
3118.521707531946
 30
0.0
 11
4315.00504921757
 21
3119.120108801246
 31
0.0
  0
LINE
  5
3BE8
330
74
100
AcDbEntity
  8
AM_3 ( Verdeckt )
  6
AM_ISO02W050x2
100
AcDbLine
 10
4315.00504921757
 20
3119.120108801246
 30
0.0
 11
4315.869257476772
 21
3119.982998125746
 31
0.0
  0
LINE
  5
3BE9
330
74
100
AcDbEntity
  8
AM_3 ( Verdeckt )
  6
AM_ISO02W050x2
100
AcDbLine
 10
4315.869257476772
 20
3119.982998125746
 30
0.0
 11
4316.571310139372
 21
3120.980612852046
 31
0.0
  0
LINE
  5
3BEA
330
74
100
AcDbEntity
  8
AM_3 ( Verdeckt )
  6
AM_ISO02W050x2
100
AcDbLine
 10
4316.571310139372
 20
3120.980612852046
 30
0.0
 11
4317.550624886671
 21
3123.015467283947
 31
0.0
  0
LINE
  5
3BEB
330
74
100
AcDbEntity
  8
AM_3 ( Verdeckt )
  6
AM_ISO02W050x2
100
AcDbLine
 10
4317.550624886671
 20
3123.015467283947
 30
0.0
 11
4318.327369791371
 21
3125.645473220246
 31
0.0
  0
LINE
  5
3BEC
330
74
100
AcDbEntity
  8
AM_3 ( Verdeckt )
  6
AM_ISO02W050x2
100
AcDbLine
 10
4318.327369791371
 20
3125.645473220246
 30
0.0
 11
4318.81105919887
 21
3128.923355154346
 31
0.0
  0
LINE
  5
3BED
330
74
100
AcDbEntity
  8
AM_3 ( Verdeckt )
  6
AM_ISO02W050x2
100
AcDbLine
 10
4318.81105919887
 20
3128.923355154346
 30
0.0
 11
4318.896915125571
 21
3131.075928730146
 31
0.0
  0
LINE
  5
3BEE
330
74
100
AcDbEntity
  8
AM_3 ( Verdeckt )
  6
AM_ISO02W050x2
100
AcDbLine
 10
4312.896915125572
 20
3123.825919838046
 30
0.0
 11
4314.299096072572
 21
3124.026675849646
 31
0.0
  0
LINE
  5
3BEF
330
74
100
AcDbEntity
  8
AM_3 ( Verdeckt )
  6
AM_ISO02W050x2
100
AcDbLine
 10
4314.299096072572
 20
3124.026675849646
 30
0.0
 11
4315.58237580857
 21
3124.592639917247
 31
0.0
  0
LINE
  5
3BF0
330
74
100
AcDbEntity
  8
AM_3 ( Verdeckt )
  6
AM_ISO02W050x2
100
AcDbLine
 10
4315.58237580857
 20
3124.592639917247
 30
0.0
 11
4316.666060730672
 21
3125.434990491247
 31
0.0
  0
LINE
  5
3BF1
330
74
100
AcDbEntity
  8
AM_3 ( Verdeckt )
  6
AM_ISO02W050x2
100
AcDbLine
 10
4316.666060730672
 20
3125.434990491247
 30
0.0
 11
4317.51927928227
 21
3126.453551326846
 31
0.0
  0
LINE
  5
3BF2
330
74
100
AcDbEntity
  8
AM_3 ( Verdeckt )
  6
AM_ISO02W050x2
100
AcDbLine
 10
4317.51927928227
 20
3126.453551326846
 30
0.0
 11
4318.147598276572
 21
3127.567521050346
 31
0.0
  0
LINE
  5
3BF3
330
74
100
AcDbEntity
  8
AM_3 ( Verdeckt )
  6
AM_ISO02W050x2
100
AcDbLine
 10
4318.147598276572
 20
3127.567521050346
 30
0.0
 11
4318.57269357627
 21
3128.724930728546
 31
0.0
  0
LINE
  5
3BF4
330
74
100
AcDbEntity
  8
AM_3 ( Verdeckt )
  6
AM_ISO02W050x2
100
AcDbLine
 10
4318.57269357627
 20
3128.724930728546
 30
0.0
 11
4318.81723388017
 21
3129.898290145846
 31
0.0
  0
LINE
  5
3BF5
330
74
100
AcDbEntity
  8
AM_3 ( Verdeckt )
  6
AM_ISO02W050x2
100
AcDbLine
 10
4318.81723388017
 20
3129.898290145846
 30
0.0
 11
4318.896915125571
 21
3131.075914185846
 31
0.0
  0
LINE
  5
3BF6
330
74
100
AcDbEntity
  8
AM_3 ( Verdeckt )
  6
AM_ISO02W050x2
100
AcDbLine
 10
4288.602146325572
 20
3125.049924591046
 30
0.0
 11
4290.074910040272
 21
3122.041226930847
 31
0.0
  0
LINE
  5
3BF7
330
74
100
AcDbEntity
  8
AM_3 ( Verdeckt )
  6
AM_ISO02W050x2
100
AcDbLine
 10
4290.074910040272
 20
3122.041226930847
 30
0.0
 11
4291.696338139272
 21
3119.578517545547
 31
0.0
  0
LINE
  5
3BF8
330
74
100
AcDbEntity
  8
AM_3 ( Verdeckt )
  6
AM_ISO02W050x2
100
AcDbLine
 10
4291.696338139272
 20
3119.578517545547
 30
0.0
 11
4292.930561371671
 21
3118.118232189346
 31
0.0
  0
LINE
  5
3BF9
330
74
100
AcDbEntity
  8
AM_3 ( Verdeckt )
  6
AM_ISO02W050x2
100
AcDbLine
 10
4292.930561371671
 20
3118.118232189346
 30
0.0
 11
4294.614035302772
 21
3116.613039349346
 31
0.0
  0
LINE
  5
3BFA
330
74
100
AcDbEntity
  8
AM_3 ( Verdeckt )
  6
AM_ISO02W050x2
100
AcDbLine
 10
4294.614035302772
 20
3116.613039349346
 30
0.0
 11
4295.644418018972
 21
3115.960027440046
 31
0.0
  0
LINE
  5
3BFB
330
74
100
AcDbEntity
  8
AM_3 ( Verdeckt )
  6
AM_ISO02W050x2
100
AcDbLine
 10
4295.644418018972
 20
3115.960027440046
 30
0.0
 11
4296.773055794171
 21
3115.493539832447
 31
0.0
  0
LINE
  5
3BFC
330
74
100
AcDbEntity
  8
AM_3 ( Verdeckt )
  6
AM_ISO02W050x2
100
AcDbLine
 10
4296.773055794171
 20
3115.493539832447
 30
0.0
 11
4297.934970782971
 21
3115.327115907347
 31
0.0
  0
LINE
  5
3BFD
330
74
100
AcDbEntity
  8
AM_3 ( Verdeckt )
  6
AM_ISO02W050x2
100
AcDbLine
 10
4297.934970782971
 20
3115.327115907347
 30
0.0
 11
4299.03229437097
 21
3115.548075300946
 31
0.0
  0
LINE
  5
3BFE
330
74
100
AcDbEntity
  8
AM_3 ( Verdeckt )
  6
AM_ISO02W050x2
100
AcDbLine
 10
4288.602147966072
 20
3125.049920630547
 30
0.0
 11
4289.126420411871
 21
3123.992428905947
 31
0.0
  0
LINE
  5
3BFF
330
74
100
AcDbEntity
  8
AM_3 ( Verdeckt )
  6
AM_ISO02W050x2
100
AcDbLine
 10
4289.126420411871
 20
3123.992428905947
 30
0.0
 11
4289.801371040272
 21
3123.001966078846
 31
0.0
  0
LINE
  5
3C00
330
74
100
AcDbEntity
  8
AM_3 ( Verdeckt )
  6
AM_ISO02W050x2
100
AcDbLine
 10
4289.801371040272
 20
3123.001966078846
 30
0.0
 11
4290.637029308472
 21
3122.095334321246
 31
0.0
  0
LINE
  5
3C01
330
74
100
AcDbEntity
  8
AM_3 ( Verdeckt )
  6
AM_ISO02W050x2
100
AcDbLine
 10
4290.637029308472
 20
3122.095334321246
 30
0.0
 11
4291.64381836887
 21
3121.306606207346
 31
0.0
  0
LINE
  5
3C02
330
74
100
AcDbEntity
  8
AM_3 ( Verdeckt )
  6
AM_ISO02W050x2
100
AcDbLine
 10
4291.64381836887
 20
3121.306606207346
 30
0.0
 11
4292.821876539473
 21
3120.692089835146
 31
0.0
  0
LINE
  5
3C03
330
74
100
AcDbEntity
  8
AM_3 ( Verdeckt )
  6
AM_ISO02W050x2
100
AcDbLine
 10
4292.821876539473
 20
3120.692089835146
 30
0.0
 11
4294.145425580771
 21
3120.328566456047
 31
0.0
  0
LINE
  5
3C04
330
74
100
AcDbEntity
  8
AM_3 ( Verdeckt )
  6
AM_ISO02W050x2
100
AcDbLine
 10
4294.145425580771
 20
3120.328566456047
 30
0.0
 11
4295.547608008272
 21
3120.296773102846
 31
0.0
  0
LINE
  5
3C05
330
74
100
AcDbEntity
  8
AM_3 ( Verdeckt )
  6
AM_ISO02W050x2
100
AcDbLine
 10
4295.547608008272
 20
3120.296773102846
 30
0.0
 11
4296.919881824272
 21
3120.647890320346
 31
0.0
  0
LINE
  5
3C06
330
74
100
AcDbEntity
  8
AM_3 ( Verdeckt )
  6
AM_ISO02W050x2
100
AcDbLine
 10
4299.03229437097
 20
3115.548075300946
 30
0.0
 11
4299.964461203071
 21
3116.167758361946
 31
0.0
  0
LINE
  5
3C07
330
74
100
AcDbEntity
  8
AM_3 ( Verdeckt )
  6
AM_ISO02W050x2
100
AcDbLine
 10
4299.964461203071
 20
3116.167758361946
 30
0.0
 11
4300.668379683272
 21
3117.107035809846
 31
0.0
  0
LINE
  5
3C08
330
74
100
AcDbEntity
  8
AM_3 ( Verdeckt )
  6
AM_ISO02W050x2
100
AcDbLine
 10
4300.668379683272
 20
3117.107035809846
 30
0.0
 11
4301.136590557372
 21
3118.234959778546
 31
0.0
  0
LINE
  5
3C09
330
74
100
AcDbEntity
  8
AM_3 ( Verdeckt )
  6
AM_ISO02W050x2
100
AcDbLine
 10
4301.136590557372
 20
3118.234959778546
 30
0.0
 11
4301.403432015471
 21
3119.425299528146
 31
0.0
  0
LINE
  5
3C0A
330
74
100
AcDbEntity
  8
AM_3 ( Verdeckt )
  6
AM_ISO02W050x2
100
AcDbLine
 10
4301.403432015471
 20
3119.425299528146
 30
0.0
 11
4301.529495787971
 21
3121.680027418246
 31
0.0
  0
LINE
  5
3C0B
330
74
100
AcDbEntity
  8
AM_3 ( Verdeckt )
  6
AM_ISO02W050x2
100
AcDbLine
 10
4301.529495787971
 20
3121.680027418246
 30
0.0
 11
4301.240654808572
 21
3124.407083479346
 31
0.0
  0
LINE
  5
3C0C
330
74
100
AcDbEntity
  8
AM_3 ( Verdeckt )
  6
AM_ISO02W050x2
100
AcDbLine
 10
4301.240654808572
 20
3124.407083479346
 30
0.0
 11
4300.433134442871
 21
3127.620551430946
 31
0.0
  0
LINE
  5
3C0D
330
74
100
AcDbEntity
  8
AM_3 ( Verdeckt )
  6
AM_ISO02W050x2
100
AcDbLine
 10
4300.433134442871
 20
3127.620551430946
 30
0.0
 11
4299.688700731872
 21
3129.642125740446
 31
0.0
  0
LINE
  5
3C0E
330
74
100
AcDbEntity
  8
AM_3 ( Verdeckt )
  6
AM_ISO02W050x2
100
AcDbLine
 10
4296.919881824272
 20
3120.647890320346
 30
0.0
 11
4298.13850210257
 21
3121.369956108146
 31
0.0
  0
LINE
  5
3C0F
330
74
100
AcDbEntity
  8
AM_3 ( Verdeckt )
  6
AM_ISO02W050x2
100
AcDbLine
 10
4298.13850210257
 20
3121.369956108146
 30
0.0
 11
4299.107512913072
 21
3122.383928620446
 31
0.0
  0
LINE
  5
3C10
330
74
100
AcDbEntity
  8
AM_3 ( Verdeckt )
  6
AM_ISO02W050x2
100
AcDbLine
 10
4299.107512913072
 20
3122.383928620446
 30
0.0
 11
4299.786353623471
 21
3123.576867340546
 31
0.0
  0
LINE
  5
3C11
330
74
100
AcDbEntity
  8
AM_3 ( Verdeckt )
  6
AM_ISO02W050x2
100
AcDbLine
 10
4299.786353623471
 20
3123.576867340546
 30
0.0
 11
4300.184838423372
 21
3124.844407453046
 31
0.0
  0
LINE
  5
3C12
330
74
100
AcDbEntity
  8
AM_3 ( Verdeckt )
  6
AM_ISO02W050x2
100
AcDbLine
 10
4300.184838423372
 20
3124.844407453046
 30
0.0
 11
4300.339031724771
 21
3126.114028549747
 31
0.0
  0
LINE
  5
3C13
330
74
100
AcDbEntity
  8
AM_3 ( Verdeckt )
  6
AM_ISO02W050x2
100
AcDbLine
 10
4300.339031724771
 20
3126.114028549747
 30
0.0
 11
4300.288847063272
 21
3127.346012590547
 31
0.0
  0
LINE
  5
3C14
330
74
100
AcDbEntity
  8
AM_3 ( Verdeckt )
  6
AM_ISO02W050x2
100
AcDbLine
 10
4300.288847063272
 20
3127.346012590547
 30
0.0
 11
4300.065747635672
 21
3128.523636863246
 31
0.0
  0
LINE
  5
3C15
330
74
100
AcDbEntity
  8
AM_3 ( Verdeckt )
  6
AM_ISO02W050x2
100
AcDbLine
 10
4300.065747635672
 20
3128.523636863246
 30
0.0
 11
4299.688706297772
 21
3129.642112303346
 31
0.0
  0
LINE
  5
3C16
330
74
100
AcDbEntity
  8
AM_3 ( Verdeckt )
  6
AM_ISO02W050x2
100
AcDbLine
 10
4274.006035842872
 20
3112.481517746546
 30
0.0
 11
4276.518070842672
 21
3110.265445832146
 31
0.0
  0
LINE
  5
3C17
330
74
100
AcDbEntity
  8
AM_3 ( Verdeckt )
  6
AM_ISO02W050x2
100
AcDbLine
 10
4276.518070842672
 20
3110.265445832146
 30
0.0
 11
4278.958513157172
 21
3108.610692706846
 31
0.0
  0
LINE
  5
3C18
330
74
100
AcDbEntity
  8
AM_3 ( Verdeckt )
  6
AM_ISO02W050x2
100
AcDbLine
 10
4278.958513157172
 20
3108.610692706846
 30
0.0
 11
4280.65761375247
 21
3107.733881737446
 31
0.0
  0
LINE
  5
3C19
330
74
100
AcDbEntity
  8
AM_3 ( Verdeckt )
  6
AM_ISO02W050x2
100
AcDbLine
 10
4280.65761375247
 20
3107.733881737446
 30
0.0
 11
4282.788953223372
 21
3106.987502462346
 31
0.0
  0
LINE
  5
3C1A
330
74
100
AcDbEntity
  8
AM_3 ( Verdeckt )
  6
AM_ISO02W050x2
100
AcDbLine
 10
4282.788953223372
 20
3106.987502462346
 30
0.0
 11
4283.990799564372
 21
3106.778508519346
 31
0.0
  0
LINE
  5
3C1B
330
74
100
AcDbEntity
  8
AM_3 ( Verdeckt )
  6
AM_ISO02W050x2
100
AcDbLine
 10
4283.990799564372
 20
3106.778508519346
 30
0.0
 11
4285.21204198327
 21
3106.779441144246
 31
0.0
  0
LINE
  5
3C1C
330
74
100
AcDbEntity
  8
AM_3 ( Verdeckt )
  6
AM_ISO02W050x2
100
AcDbLine
 10
4285.21204198327
 20
3106.779441144246
 30
0.0
 11
4286.349199138872
 21
3107.070331102146
 31
0.0
  0
LINE
  5
3C1D
330
74
100
AcDbEntity
  8
AM_3 ( Verdeckt )
  6
AM_ISO02W050x2
100
AcDbLine
 10
4286.349199138872
 20
3107.070331102146
 30
0.0
 11
4287.278436443171
 21
3107.694398520446
 31
0.0
  0
LINE
  5
3C1E
330
74
100
AcDbEntity
  8
AM_3 ( Verdeckt )
  6
AM_ISO02W050x2
100
AcDbLine
 10
4274.006038874072
 20
3112.481514715246
 30
0.0
 11
4274.895088019071
 21
3111.705150134146
 31
0.0
  0
LINE
  5
3C1F
330
74
100
AcDbEntity
  8
AM_3 ( Verdeckt )
  6
AM_ISO02W050x2
100
AcDbLine
 10
4274.895088019071
 20
3111.705150134146
 30
0.0
 11
4275.89769480437
 21
3111.048374223646
 31
0.0
  0
LINE
  5
3C20
330
74
100
AcDbEntity
  8
AM_3 ( Verdeckt )
  6
AM_ISO02W050x2
100
AcDbLine
 10
4275.89769480437
 20
3111.048374223646
 30
0.0
 11
4277.01669532747
 21
3110.530548273546
 31
0.0
  0
LINE
  5
3C21
330
74
100
AcDbEntity
  8
AM_3 ( Verdeckt )
  6
AM_ISO02W050x2
100
AcDbLine
 10
4277.01669532747
 20
3110.530548273546
 30
0.0
 11
4278.248680315772
 21
3110.187140005746
 31
0.0
  0
LINE
  5
3C22
330
74
100
AcDbEntity
  8
AM_3 ( Verdeckt )
  6
AM_ISO02W050x2
100
AcDbLine
 10
4278.248680315772
 20
3110.187140005746
 30
0.0
 11
4279.57222938217
 21
3110.070224251347
 31
0.0
  0
LINE
  5
3C23
330
74
100
AcDbEntity
  8
AM_3 ( Verdeckt )
  6
AM_ISO02W050x2
100
AcDbLine
 10
4279.57222938217
 20
3110.070224251347
 30
0.0
 11
4280.934143626272
 21
3110.240872731846
 31
0.0
  0
LINE
  5
3C24
330
74
100
AcDbEntity
  8
AM_3 ( Verdeckt )
  6
AM_ISO02W050x2
100
AcDbLine
 10
4280.934143626272
 20
3110.240872731846
 30
0.0
 11
4282.241758061272
 21
3110.748091487746
 31
0.0
  0
LINE
  5
3C25
330
74
100
AcDbEntity
  8
AM_3 ( Verdeckt )
  6
AM_ISO02W050x2
100
AcDbLine
 10
4282.241758061272
 20
3110.748091487746
 30
0.0
 11
4283.375207010972
 21
3111.597627952546
 31
0.0
  0
LINE
  5
3C26
330
74
100
AcDbEntity
  8
AM_3 ( Verdeckt )
  6
AM_ISO02W050x2
100
AcDbLine
 10
4287.278436443171
 20
3107.694398520446
 30
0.0
 11
4287.90250385937
 21
3108.623635820046
 31
0.0
  0
LINE
  5
3C27
330
74
100
AcDbEntity
  8
AM_3 ( Verdeckt )
  6
AM_ISO02W050x2
100
AcDbLine
 10
4287.90250385937
 20
3108.623635820046
 30
0.0
 11
4288.193393818171
 21
3109.760792969646
 31
0.0
  0
LINE
  5
3C28
330
74
100
AcDbEntity
  8
AM_3 ( Verdeckt )
  6
AM_ISO02W050x2
100
AcDbLine
 10
4288.193393818171
 20
3109.760792969646
 30
0.0
 11
4288.194326445871
 21
3110.982035382847
 31
0.0
  0
LINE
  5
3C29
330
74
100
AcDbEntity
  8
AM_3 ( Verdeckt )
  6
AM_ISO02W050x2
100
AcDbLine
 10
4288.194326445871
 20
3110.982035382847
 30
0.0
 11
4287.98533250637
 21
3112.183881719346
 31
0.0
  0
LINE
  5
3C2A
330
74
100
AcDbEntity
  8
AM_3 ( Verdeckt )
  6
AM_ISO02W050x2
100
AcDbLine
 10
4287.98533250637
 20
3112.183881719346
 30
0.0
 11
4287.238953237571
 21
3114.315221185547
 31
0.0
  0
LINE
  5
3C2B
330
74
100
AcDbEntity
  8
AM_3 ( Verdeckt )
  6
AM_ISO02W050x2
100
AcDbLine
 10
4287.238953237571
 20
3114.315221185547
 30
0.0
 11
4285.928499794771
 21
3116.724157806946
 31
0.0
  0
LINE
  5
3C2C
330
74
100
AcDbEntity
  8
AM_3 ( Verdeckt )
  6
AM_ISO02W050x2
100
AcDbLine
 10
4285.928499794771
 20
3116.724157806946
 30
0.0
 11
4283.952707311372
 21
3119.383990410546
 31
0.0
  0
LINE
  5
3C2D
330
74
100
AcDbEntity
  8
AM_3 ( Verdeckt )
  6
AM_ISO02W050x2
100
AcDbLine
 10
4283.952707311372
 20
3119.383990410546
 30
0.0
 11
4282.49131724687
 21
3120.966799090945
 31
0.0
  0
LINE
  5
3C2E
330
74
100
AcDbEntity
  8
AM_3 ( Verdeckt )
  6
AM_ISO02W050x2
100
AcDbLine
 10
4283.375207010972
 20
3111.597627952546
 30
0.0
 11
4284.22474272997
 21
3112.731075545847
 31
0.0
  0
LINE
  5
3C2F
330
74
100
AcDbEntity
  8
AM_3 ( Verdeckt )
  6
AM_ISO02W050x2
100
AcDbLine
 10
4284.22474272997
 20
3112.731075545847
 30
0.0
 11
4284.731961503272
 21
3114.038688379447
 31
0.0
  0
LINE
  5
3C30
330
74
100
AcDbEntity
  8
AM_3 ( Verdeckt )
  6
AM_ISO02W050x2
100
AcDbLine
 10
4284.731961503272
 20
3114.038688379447
 30
0.0
 11
4284.902610657371
 21
3115.400601139546
 31
0.0
  0
LINE
  5
3C31
330
74
100
AcDbEntity
  8
AM_3 ( Verdeckt )
  6
AM_ISO02W050x2
100
AcDbLine
 10
4284.902610657371
 20
3115.400601139546
 30
0.0
 11
4284.785696007072
 21
3116.724149037147
 31
0.0
  0
LINE
  5
3C32
330
74
100
AcDbEntity
  8
AM_3 ( Verdeckt )
  6
AM_ISO02W050x2
100
AcDbLine
 10
4284.785696007072
 20
3116.724149037147
 30
0.0
 11
4284.442289083172
 21
3117.956133204247
 31
0.0
  0
LINE
  5
3C33
330
74
100
AcDbEntity
  8
AM_3 ( Verdeckt )
  6
AM_ISO02W050x2
100
AcDbLine
 10
4284.442289083172
 20
3117.956133204247
 30
0.0
 11
4283.92446462027
 21
3119.075133205446
 31
0.0
  0
LINE
  5
3C34
330
74
100
AcDbEntity
  8
AM_3 ( Verdeckt )
  6
AM_ISO02W050x2
100
AcDbLine
 10
4283.92446462027
 20
3119.075133205446
 30
0.0
 11
4283.267690326672
 21
3120.077739713246
 31
0.0
  0
LINE
  5
3C35
330
74
100
AcDbEntity
  8
AM_3 ( Verdeckt )
  6
AM_ISO02W050x2
100
AcDbLine
 10
4283.267690326672
 20
3120.077739713246
 30
0.0
 11
4282.49132753127
 21
3120.966788806546
 31
0.0
  0
LINE
  5
3C36
330
74
100
AcDbEntity
  8
AM_3 ( Verdeckt )
  6
AM_ISO02W050x2
100
AcDbLine
 10
4265.330709184172
 20
3095.284134247846
 30
0.0
 11
4268.499580911972
 21
3094.198064939546
 31
0.0
  0
LINE
  5
3C37
330
74
100
AcDbEntity
  8
AM_3 ( Verdeckt )
  6
AM_ISO02W050x2
100
AcDbLine
 10
4268.499580911972
 20
3094.198064939546
 30
0.0
 11
4271.387502222371
 21
3093.603189237046
 31
0.0
  0
LINE
  5
3C38
330
74
100
AcDbEntity
  8
AM_3 ( Verdeckt )
  6
AM_ISO02W050x2
100
AcDbLine
 10
4271.387502222371
 20
3093.603189237046
 30
0.0
 11
4273.292807517372
 21
3093.443339176346
 31
0.0
  0
LINE
  5
3C39
330
74
100
AcDbEntity
  8
AM_3 ( Verdeckt )
  6
AM_ISO02W050x2
100
AcDbLine
 10
4273.292807517372
 20
3093.443339176346
 30
0.0
 11
4275.547535414172
 21
3093.569402944846
 31
0.0
  0
LINE
  5
3C3A
330
74
100
AcDbEntity
  8
AM_3 ( Verdeckt )
  6
AM_ISO02W050x2
100
AcDbLine
 10
4275.547535414172
 20
3093.569402944846
 30
0.0
 11
4276.737875169272
 21
3093.836244401446
 31
0.0
  0
LINE
  5
3C3B
330
74
100
AcDbEntity
  8
AM_3 ( Verdeckt )
  6
AM_ISO02W050x2
100
AcDbLine
 10
4276.737875169272
 20
3093.836244401446
 30
0.0
 11
4277.865799144271
 21
3094.304455275046
 31
0.0
  0
LINE
  5
3C3C
330
74
100
AcDbEntity
  8
AM_3 ( Verdeckt )
  6
AM_ISO02W050x2
100
AcDbLine
 10
4277.865799144271
 20
3094.304455275046
 30
0.0
 11
4278.805076598071
 21
3095.008373756846
 31
0.0
  0
LINE
  5
3C3D
330
74
100
AcDbEntity
  8
AM_3 ( Verdeckt )
  6
AM_ISO02W050x2
100
AcDbLine
 10
4278.805076598071
 20
3095.008373756846
 30
0.0
 11
4279.424759662671
 21
3095.940540592645
 31
0.0
  0
LINE
  5
3C3E
330
74
100
AcDbEntity
  8
AM_3 ( Verdeckt )
  6
AM_ISO02W050x2
100
AcDbLine
 10
4265.33071314467
 20
3095.284132607347
 30
0.0
 11
4266.449189315772
 21
3094.907089639446
 31
0.0
  0
LINE
  5
3C3F
330
74
100
AcDbEntity
  8
AM_3 ( Verdeckt )
  6
AM_ISO02W050x2
100
AcDbLine
 10
4266.449189315772
 20
3094.907089639446
 30
0.0
 11
4267.626814463671
 21
3094.683988824146
 31
0.0
  0
LINE
  5
3C40
330
74
100
AcDbEntity
  8
AM_3 ( Verdeckt )
  6
AM_ISO02W050x2
100
AcDbLine
 10
4267.626814463671
 20
3094.683988824146
 30
0.0
 11
4268.858799555672
 21
3094.633802988546
 31
0.0
  0
LINE
  5
3C41
330
74
100
AcDbEntity
  8
AM_3 ( Verdeckt )
  6
AM_ISO02W050x2
100
AcDbLine
 10
4268.858799555672
 20
3094.633802988546
 30
0.0
 11
4270.128421925372
 21
3094.787995362546
 31
0.0
  0
LINE
  5
3C42
330
74
100
AcDbEntity
  8
AM_3 ( Verdeckt )
  6
AM_ISO02W050x2
100
AcDbLine
 10
4270.128421925372
 20
3094.787995362546
 30
0.0
 11
4271.395963540371
 21
3095.186479589646
 31
0.0
  0
LINE
  5
3C43
330
74
100
AcDbEntity
  8
AM_3 ( Verdeckt )
  6
AM_ISO02W050x2
100
AcDbLine
 10
4271.395963540371
 20
3095.186479589646
 30
0.0
 11
4272.588903889172
 21
3095.865320245546
 31
0.0
  0
LINE
  5
3C44
330
74
100
AcDbEntity
  8
AM_3 ( Verdeckt )
  6
AM_ISO02W050x2
100
AcDbLine
 10
4272.588903889172
 20
3095.865320245546
 30
0.0
 11
4273.60287788777
 21
3096.834331652847
 31
0.0
  0
LINE
  5
3C45
330
74
100
AcDbEntity
  8
AM_3 ( Verdeckt )
  6
AM_ISO02W050x2
100
AcDbLine
 10
4273.60287788777
 20
3096.834331652847
 30
0.0
 11
4274.324944643171
 21
3098.052953139247
 31
0.0
  0
LINE
  5
3C46
330
74
100
AcDbEntity
  8
AM_3 ( Verdeckt )
  6
AM_ISO02W050x2
100
AcDbLine
 10
4279.424759662671
 20
3095.940540592645
 30
0.0
 11
4279.645719056172
 21
3097.037864175446
 31
0.0
  0
LINE
  5
3C47
330
74
100
AcDbEntity
  8
AM_3 ( Verdeckt )
  6
AM_ISO02W050x2
100
AcDbLine
 10
4279.645719056172
 20
3097.037864175446
 30
0.0
 11
4279.479295134171
 21
3098.199779159046
 31
0.0
  0
LINE
  5
3C48
330
74
100
AcDbEntity
  8
AM_3 ( Verdeckt )
  6
AM_ISO02W050x2
100
AcDbLine
 10
4279.479295134171
 20
3098.199779159046
 30
0.0
 11
4279.012807531272
 21
3099.328416930046
 31
0.0
  0
LINE
  5
3C49
330
74
100
AcDbEntity
  8
AM_3 ( Verdeckt )
  6
AM_ISO02W050x2
100
AcDbLine
 10
4279.012807531272
 20
3099.328416930046
 30
0.0
 11
4278.359795626972
 21
3100.358799643446
 31
0.0
  0
LINE
  5
3C4A
330
74
100
AcDbEntity
  8
AM_3 ( Verdeckt )
  6
AM_ISO02W050x2
100
AcDbLine
 10
4278.359795626972
 20
3100.358799643446
 30
0.0
 11
4276.854602794572
 21
3102.042273572646
 31
0.0
  0
LINE
  5
3C4B
330
74
100
AcDbEntity
  8
AM_3 ( Verdeckt )
  6
AM_ISO02W050x2
100
AcDbLine
 10
4276.854602794572
 20
3102.042273572646
 30
0.0
 11
4274.72204154587
 21
3103.766351990946
 31
0.0
  0
LINE
  5
3C4C
330
74
100
AcDbEntity
  8
AM_3 ( Verdeckt )
  6
AM_ISO02W050x2
100
AcDbLine
 10
4274.72204154587
 20
3103.766351990946
 30
0.0
 11
4271.878773439672
 21
3105.467613844046
 31
0.0
  0
LINE
  5
3C4D
330
74
100
AcDbEntity
  8
AM_3 ( Verdeckt )
  6
AM_ISO02W050x2
100
AcDbLine
 10
4271.878773439672
 20
3105.467613844046
 30
0.0
 11
4269.922910411472
 21
3106.370688621846
 31
0.0
  0
LINE
  5
3C4E
330
74
100
AcDbEntity
  8
AM_3 ( Verdeckt )
  6
AM_ISO02W050x2
100
AcDbLine
 10
4274.324944643171
 20
3098.052953139247
 30
0.0
 11
4274.676061690672
 21
3099.425225416747
 31
0.0
  0
LINE
  5
3C4F
330
74
100
AcDbEntity
  8
AM_3 ( Verdeckt )
  6
AM_ISO02W050x2
100
AcDbLine
 10
4274.676061690672
 20
3099.425225416747
 30
0.0
 11
4274.644268966471
 21
3100.827406371247
 31
0.0
  0
LINE
  5
3C50
330
74
100
AcDbEntity
  8
AM_3 ( Verdeckt )
  6
AM_ISO02W050x2
100
AcDbLine
 10
4274.644268966471
 20
3100.827406371247
 30
0.0
 11
4274.280746777572
 21
3102.150954299347
 31
0.0
  0
LINE
  5
3C51
330
74
100
AcDbEntity
  8
AM_3 ( Verdeckt )
  6
AM_ISO02W050x2
100
AcDbLine
 10
4274.280746777572
 20
3102.150954299347
 30
0.0
 11
4273.666231872772
 21
3103.329011812646
 31
0.0
  0
LINE
  5
3C52
330
74
100
AcDbEntity
  8
AM_3 ( Verdeckt )
  6
AM_ISO02W050x2
100
AcDbLine
 10
4273.666231872772
 20
3103.329011812646
 30
0.0
 11
4272.877505314772
 21
3104.335800628647
 31
0.0
  0
LINE
  5
3C53
330
74
100
AcDbEntity
  8
AM_3 ( Verdeckt )
  6
AM_ISO02W050x2
100
AcDbLine
 10
4272.877505314772
 20
3104.335800628647
 30
0.0
 11
4271.970875130771
 21
3105.171458983746
 31
0.0
  0
LINE
  5
3C54
330
74
100
AcDbEntity
  8
AM_3 ( Verdeckt )
  6
AM_ISO02W050x2
100
AcDbLine
 10
4271.970875130771
 20
3105.171458983746
 30
0.0
 11
4270.98041390377
 21
3105.846409974546
 31
0.0
  0
LINE
  5
3C55
330
74
100
AcDbEntity
  8
AM_3 ( Verdeckt )
  6
AM_ISO02W050x2
100
AcDbLine
 10
4270.98041390377
 20
3105.846409974546
 30
0.0
 11
4269.922923848671
 21
3106.370683055946
 31
0.0
  0
LINE
  5
3C56
330
74
100
AcDbEntity
  8
AM_3 ( Verdeckt )
  6
AM_ISO02W050x2
100
AcDbLine
 10
4263.896906191372
 20
3076.075919838046
 30
0.0
 11
4267.240182652471
 21
3076.285197342746
 31
0.0
  0
LINE
  5
3C57
330
74
100
AcDbEntity
  8
AM_3 ( Verdeckt )
  6
AM_ISO02W050x2
100
AcDbLine
 10
4267.240182652471
 20
3076.285197342746
 30
0.0
 11
4270.13592311837
 21
3076.840763496346
 31
0.0
  0
LINE
  5
3C58
330
74
100
AcDbEntity
  8
AM_3 ( Verdeckt )
  6
AM_ISO02W050x2
100
AcDbLine
 10
4270.13592311837
 20
3076.840763496346
 30
0.0
 11
4271.957367653372
 21
3077.422210066946
 31
0.0
  0
LINE
  5
3C59
330
74
100
AcDbEntity
  8
AM_3 ( Verdeckt )
  6
AM_ISO02W050x2
100
AcDbLine
 10
4271.957367653372
 20
3077.422210066946
 30
0.0
 11
4273.992222093072
 21
3078.401524813046
 31
0.0
  0
LINE
  5
3C5A
330
74
100
AcDbEntity
  8
AM_3 ( Verdeckt )
  6
AM_ISO02W050x2
100
AcDbLine
 10
4273.992222093072
 20
3078.401524813046
 30
0.0
 11
4274.989836825072
 21
3079.103577476346
 31
0.0
  0
LINE
  5
3C5B
330
74
100
AcDbEntity
  8
AM_3 ( Verdeckt )
  6
AM_ISO02W050x2
100
AcDbLine
 10
4274.989836825072
 20
3079.103577476346
 30
0.0
 11
4275.852726155572
 21
3079.967785737645
 31
0.0
  0
LINE
  5
3C5C
330
74
100
AcDbEntity
  8
AM_3 ( Verdeckt )
  6
AM_ISO02W050x2
100
AcDbLine
 10
4275.852726155572
 20
3079.967785737645
 30
0.0
 11
4276.451127429772
 21
3080.977567535446
 31
0.0
  0
LINE
  5
3C5D
330
74
100
AcDbEntity
  8
AM_3 ( Verdeckt )
  6
AM_ISO02W050x2
100
AcDbLine
 10
4276.451127429772
 20
3080.977567535446
 30
0.0
 11
4276.666915125572
 21
3082.075919838046
 31
0.0
  0
LINE
  5
3C5E
330
74
100
AcDbEntity
  8
AM_3 ( Verdeckt )
  6
AM_ISO02W050x2
100
AcDbLine
 10
4263.89691047817
 20
3076.075919838046
 30
0.0
 11
4265.074535817372
 21
3076.155599857246
 31
0.0
  0
LINE
  5
3C5F
330
74
100
AcDbEntity
  8
AM_3 ( Verdeckt )
  6
AM_ISO02W050x2
100
AcDbLine
 10
4265.074535817372
 20
3076.155599857246
 30
0.0
 11
4266.247896574172
 21
3076.400139213947
 31
0.0
  0
LINE
  5
3C60
330
74
100
AcDbEntity
  8
AM_3 ( Verdeckt )
  6
AM_ISO02W050x2
100
AcDbLine
 10
4266.247896574172
 20
3076.400139213947
 30
0.0
 11
4267.405307672971
 21
3076.825233831246
 31
0.0
  0
LINE
  5
3C61
330
74
100
AcDbEntity
  8
AM_3 ( Verdeckt )
  6
AM_ISO02W050x2
100
AcDbLine
 10
4267.405307672971
 20
3076.825233831246
 30
0.0
 11
4268.519278927371
 21
3077.453552455946
 31
0.0
  0
LINE
  5
3C62
330
74
100
AcDbEntity
  8
AM_3 ( Verdeckt )
  6
AM_ISO02W050x2
100
AcDbLine
 10
4268.519278927371
 20
3077.453552455946
 30
0.0
 11
4269.537841370271
 21
3078.306771053246
 31
0.0
  0
LINE
  5
3C63
330
74
100
AcDbEntity
  8
AM_3 ( Verdeckt )
  6
AM_ISO02W050x2
100
AcDbLine
 10
4269.537841370271
 20
3078.306771053246
 30
0.0
 11
4270.380193469872
 21
3079.390456548346
 31
0.0
  0
LINE
  5
3C64
330
74
100
AcDbEntity
  8
AM_3 ( Verdeckt )
  6
AM_ISO02W050x2
100
AcDbLine
 10
4270.380193469872
 20
3079.390456548346
 30
0.0
 11
4270.946158682272
 21
3080.673737404446
 31
0.0
  0
LINE
  5
3C65
330
74
100
AcDbEntity
  8
AM_3 ( Verdeckt )
  6
AM_ISO02W050x2
100
AcDbLine
 10
4270.946158682272
 20
3080.673737404446
 30
0.0
 11
4271.146915125571
 21
3082.075919838046
 31
0.0
  0
LINE
  5
3C66
330
74
100
AcDbEntity
  8
AM_3 ( Verdeckt )
  6
AM_ISO02W050x2
100
AcDbLine
 10
4276.666915125572
 20
3082.075919838046
 30
0.0
 11
4276.451127431672
 21
3083.174272135846
 31
0.0
  0
LINE
  5
3C67
330
74
100
AcDbEntity
  8
AM_3 ( Verdeckt )
  6
AM_ISO02W050x2
100
AcDbLine
 10
4276.451127431672
 20
3083.174272135846
 30
0.0
 11
4275.852726162272
 21
3084.184053930046
 31
0.0
  0
LINE
  5
3C68
330
74
100
AcDbEntity
  8
AM_3 ( Verdeckt )
  6
AM_ISO02W050x2
100
AcDbLine
 10
4275.852726162272
 20
3084.184053930046
 30
0.0
 11
4274.989836837773
 21
3085.048262189246
 31
0.0
  0
LINE
  5
3C69
330
74
100
AcDbEntity
  8
AM_3 ( Verdeckt )
  6
AM_ISO02W050x2
100
AcDbLine
 10
4274.989836837773
 20
3085.048262189246
 30
0.0
 11
4273.992222111473
 21
3085.750314851847
 31
0.0
  0
LINE
  5
3C6A
330
74
100
AcDbEntity
  8
AM_3 ( Verdeckt )
  6
AM_ISO02W050x2
100
AcDbLine
 10
4273.992222111473
 20
3085.750314851847
 30
0.0
 11
4271.957367679672
 21
3086.729629599146
 31
0.0
  0
LINE
  5
3C6B
330
74
100
AcDbEntity
  8
AM_3 ( Verdeckt )
  6
AM_ISO02W050x2
100
AcDbLine
 10
4271.957367679672
 20
3086.729629599146
 30
0.0
 11
4269.32736174337
 21
3087.506374503846
 31
0.0
  0
LINE
  5
3C6C
330
74
100
AcDbEntity
  8
AM_3 ( Verdeckt )
  6
AM_ISO02W050x2
100
AcDbLine
 10
4269.32736174337
 20
3087.506374503846
 30
0.0
 11
4266.049479809171
 21
3087.990063911346
 31
0.0
  0
LINE
  5
3C6D
330
74
100
AcDbEntity
  8
AM_3 ( Verdeckt )
  6
AM_ISO02W050x2
100
AcDbLine
 10
4266.049479809171
 20
3087.990063911346
 30
0.0
 11
4263.896906233473
 21
3088.075919838046
 31
0.0
  0
LINE
  5
3C6E
330
74
100
AcDbEntity
  8
AM_3 ( Verdeckt )
  6
AM_ISO02W050x2
100
AcDbLine
 10
4271.146915125571
 20
3082.075919838046
 30
0.0
 11
4270.946159113971
 21
3083.478100785046
 31
0.0
  0
LINE
  5
3C6F
330
74
100
AcDbEntity
  8
AM_3 ( Verdeckt )
  6
AM_ISO02W050x2
100
AcDbLine
 10
4270.946159113971
 20
3083.478100785046
 30
0.0
 11
4270.38019504627
 21
3084.761380521046
 31
0.0
  0
LINE
  5
3C70
330
74
100
AcDbEntity
  8
AM_3 ( Verdeckt )
  6
AM_ISO02W050x2
100
AcDbLine
 10
4270.38019504627
 20
3084.761380521046
 30
0.0
 11
4269.537844472372
 21
3085.845065443147
 31
0.0
  0
LINE
  5
3C71
330
74
100
AcDbEntity
  8
AM_3 ( Verdeckt )
  6
AM_ISO02W050x2
100
AcDbLine
 10
4269.537844472372
 20
3085.845065443147
 30
0.0
 11
4268.519283636671
 21
3086.698283994746
 31
0.0
  0
LINE
  5
3C72
330
74
100
AcDbEntity
  8
AM_3 ( Verdeckt )
  6
AM_ISO02W050x2
100
AcDbLine
 10
4268.519283636671
 20
3086.698283994746
 30
0.0
 11
4267.405313913172
 21
3087.326602989046
 31
0.0
  0
LINE
  5
3C73
330
74
100
AcDbEntity
  8
AM_3 ( Verdeckt )
  6
AM_ISO02W050x2
100
AcDbLine
 10
4267.405313913172
 20
3087.326602989046
 30
0.0
 11
4266.247904234972
 21
3087.751698288746
 31
0.0
  0
LINE
  5
3C74
330
74
100
AcDbEntity
  8
AM_3 ( Verdeckt )
  6
AM_ISO02W050x2
100
AcDbLine
 10
4266.247904234972
 20
3087.751698288746
 30
0.0
 11
4265.074544817772
 21
3087.996238592646
 31
0.0
  0
LINE
  5
3C75
330
74
100
AcDbEntity
  8
AM_3 ( Verdeckt )
  6
AM_ISO02W050x2
100
AcDbLine
 10
4265.074544817772
 20
3087.996238592646
 30
0.0
 11
4263.896920777772
 21
3088.075919838046
 31
0.0
  0
LINE
  5
3C76
330
74
100
AcDbEntity
  8
AM_3 ( Verdeckt )
  6
AM_ISO02W050x2
100
AcDbLine
 10
4269.922910372572
 20
3057.781151038146
 30
0.0
 11
4272.931608032773
 21
3059.253914752746
 31
0.0
  0
LINE
  5
3C77
330
74
100
AcDbEntity
  8
AM_3 ( Verdeckt )
  6
AM_ISO02W050x2
100
AcDbLine
 10
4272.931608032773
 20
3059.253914752746
 30
0.0
 11
4275.394317418072
 21
3060.875342851746
 31
0.0
  0
LINE
  5
3C78
330
74
100
AcDbEntity
  8
AM_3 ( Verdeckt )
  6
AM_ISO02W050x2
100
AcDbLine
 10
4275.394317418072
 20
3060.875342851746
 30
0.0
 11
4276.854602774171
 21
3062.109566084146
 31
0.0
  0
LINE
  5
3C79
330
74
100
AcDbEntity
  8
AM_3 ( Verdeckt )
  6
AM_ISO02W050x2
100
AcDbLine
 10
4276.854602774171
 20
3062.109566084146
 30
0.0
 11
4278.359795614272
 21
3063.793040015346
 31
0.0
  0
LINE
  5
3C7A
330
74
100
AcDbEntity
  8
AM_3 ( Verdeckt )
  6
AM_ISO02W050x2
100
AcDbLine
 10
4278.359795614272
 20
3063.793040015346
 30
0.0
 11
4279.012807523571
 21
3064.823422731446
 31
0.0
  0
LINE
  5
3C7B
330
74
100
AcDbEntity
  8
AM_3 ( Verdeckt )
  6
AM_ISO02W050x2
100
AcDbLine
 10
4279.012807523571
 20
3064.823422731446
 30
0.0
 11
4279.479295131172
 21
3065.952060506646
 31
0.0
  0
LINE
  5
3C7C
330
74
100
AcDbEntity
  8
AM_3 ( Verdeckt )
  6
AM_ISO02W050x2
100
AcDbLine
 10
4279.479295131172
 20
3065.952060506646
 30
0.0
 11
4279.64571905627
 21
3067.113975495446
 31
0.0
  0
LINE
  5
3C7D
330
74
100
AcDbEntity
  8
AM_3 ( Verdeckt )
  6
AM_ISO02W050x2
100
AcDbLine
 10
4279.64571905627
 20
3067.113975495446
 30
0.0
 11
4279.424759662671
 21
3068.211299083446
 31
0.0
  0
LINE
  5
3C7E
330
74
100
AcDbEntity
  8
AM_3 ( Verdeckt )
  6
AM_ISO02W050x2
100
AcDbLine
 10
4269.922914333072
 20
3057.781152678546
 30
0.0
 11
4270.98040605767
 21
3058.305425124346
 31
0.0
  0
LINE
  5
3C7F
330
74
100
AcDbEntity
  8
AM_3 ( Verdeckt )
  6
AM_ISO02W050x2
100
AcDbLine
 10
4270.98040605767
 20
3058.305425124346
 30
0.0
 11
4271.970868884771
 21
3058.980375752746
 31
0.0
  0
LINE
  5
3C80
330
74
100
AcDbEntity
  8
AM_3 ( Verdeckt )
  6
AM_ISO02W050x2
100
AcDbLine
 10
4271.970868884771
 20
3058.980375752746
 30
0.0
 11
4272.877500642372
 21
3059.816034020946
 31
0.0
  0
LINE
  5
3C81
330
74
100
AcDbEntity
  8
AM_3 ( Verdeckt )
  6
AM_ISO02W050x2
100
AcDbLine
 10
4272.877500642372
 20
3059.816034020946
 30
0.0
 11
4273.666228756272
 21
3060.822823081346
 31
0.0
  0
LINE
  5
3C82
330
74
100
AcDbEntity
  8
AM_3 ( Verdeckt )
  6
AM_ISO02W050x2
100
AcDbLine
 10
4273.666228756272
 20
3060.822823081346
 30
0.0
 11
4274.280745128471
 21
3062.000881251945
 31
0.0
  0
LINE
  5
3C83
330
74
100
AcDbEntity
  8
AM_3 ( Verdeckt )
  6
AM_ISO02W050x2
100
AcDbLine
 10
4274.280745128471
 20
3062.000881251945
 30
0.0
 11
4274.644268507572
 21
3063.324430293246
 31
0.0
  0
LINE
  5
3C84
330
74
100
AcDbEntity
  8
AM_3 ( Verdeckt )
  6
AM_ISO02W050x2
100
AcDbLine
 10
4274.644268507572
 20
3063.324430293246
 30
0.0
 11
4274.676061860672
 21
3064.726612720746
 31
0.0
  0
LINE
  5
3C85
330
74
100
AcDbEntity
  8
AM_3 ( Verdeckt )
  6
AM_ISO02W050x2
100
AcDbLine
 10
4274.676061860672
 20
3064.726612720746
 30
0.0
 11
4274.324944643171
 21
3066.098886536746
 31
0.0
  0
LINE
  5
3C86
330
74
100
AcDbEntity
  8
AM_3 ( Verdeckt )
  6
AM_ISO02W050x2
100
AcDbLine
 10
4279.424759662671
 20
3068.211299083446
 30
0.0
 11
4278.805076601572
 21
3069.143465915546
 31
0.0
  0
LINE
  5
3C87
330
74
100
AcDbEntity
  8
AM_3 ( Verdeckt )
  6
AM_ISO02W050x2
100
AcDbLine
 10
4278.805076601572
 20
3069.143465915546
 30
0.0
 11
4277.865799153672
 21
3069.847384395747
 31
0.0
  0
LINE
  5
3C88
330
74
100
AcDbEntity
  8
AM_3 ( Verdeckt )
  6
AM_ISO02W050x2
100
AcDbLine
 10
4277.865799153672
 20
3069.847384395747
 30
0.0
 11
4276.737875185072
 21
3070.315595269847
 31
0.0
  0
LINE
  5
3C89
330
74
100
AcDbEntity
  8
AM_3 ( Verdeckt )
  6
AM_ISO02W050x2
100
AcDbLine
 10
4276.737875185072
 20
3070.315595269847
 30
0.0
 11
4275.547535435472
 21
3070.582436727946
 31
0.0
  0
LINE
  5
3C8A
330
74
100
AcDbEntity
  8
AM_3 ( Verdeckt )
  6
AM_ISO02W050x2
100
AcDbLine
 10
4275.547535435472
 20
3070.582436727946
 30
0.0
 11
4273.292807545372
 21
3070.708500500446
 31
0.0
  0
LINE
  5
3C8B
330
74
100
AcDbEntity
  8
AM_3 ( Verdeckt )
  6
AM_ISO02W050x2
100
AcDbLine
 10
4273.292807545372
 20
3070.708500500446
 30
0.0
 11
4270.565751484271
 21
3070.419659521046
 31
0.0
  0
LINE
  5
3C8C
330
74
100
AcDbEntity
  8
AM_3 ( Verdeckt )
  6
AM_ISO02W050x2
100
AcDbLine
 10
4270.565751484271
 20
3070.419659521046
 30
0.0
 11
4267.352283532672
 21
3069.612139155346
 31
0.0
  0
LINE
  5
3C8D
330
74
100
AcDbEntity
  8
AM_3 ( Verdeckt )
  6
AM_ISO02W050x2
100
AcDbLine
 10
4267.352283532672
 20
3069.612139155346
 30
0.0
 11
4265.330709223071
 21
3068.867705444346
 31
0.0
  0
LINE
  5
3C8E
330
74
100
AcDbEntity
  8
AM_3 ( Verdeckt )
  6
AM_ISO02W050x2
100
AcDbLine
 10
4274.324944643171
 20
3066.098886536746
 30
0.0
 11
4273.602878855473
 21
3067.317506815046
 31
0.0
  0
LINE
  5
3C8F
330
74
100
AcDbEntity
  8
AM_3 ( Verdeckt )
  6
AM_ISO02W050x2
100
AcDbLine
 10
4273.602878855473
 20
3067.317506815046
 30
0.0
 11
4272.588906343171
 21
3068.286517625546
 31
0.0
  0
LINE
  5
3C90
330
74
100
AcDbEntity
  8
AM_3 ( Verdeckt )
  6
AM_ISO02W050x2
100
AcDbLine
 10
4272.588906343171
 20
3068.286517625546
 30
0.0
 11
4271.395967623071
 21
3068.965358335946
 31
0.0
  0
LINE
  5
3C91
330
74
100
AcDbEntity
  8
AM_3 ( Verdeckt )
  6
AM_ISO02W050x2
100
AcDbLine
 10
4271.395967623071
 20
3068.965358335946
 30
0.0
 11
4270.128427510572
 21
3069.363843135846
 31
0.0
  0
LINE
  5
3C92
330
74
100
AcDbEntity
  8
AM_3 ( Verdeckt )
  6
AM_ISO02W050x2
100
AcDbLine
 10
4270.128427510572
 20
3069.363843135846
 30
0.0
 11
4268.858806413872
 21
3069.518036437246
 31
0.0
  0
LINE
  5
3C93
330
74
100
AcDbEntity
  8
AM_3 ( Verdeckt )
  6
AM_ISO02W050x2
100
AcDbLine
 10
4268.858806413872
 20
3069.518036437246
 30
0.0
 11
4267.626822372972
 21
3069.467851775746
 31
0.0
  0
LINE
  5
3C94
330
74
100
AcDbEntity
  8
AM_3 ( Verdeckt )
  6
AM_ISO02W050x2
100
AcDbLine
 10
4267.626822372972
 20
3069.467851775746
 30
0.0
 11
4266.449198100271
 21
3069.244752348146
 31
0.0
  0
LINE
  5
3C95
330
74
100
AcDbEntity
  8
AM_3 ( Verdeckt )
  6
AM_ISO02W050x2
100
AcDbLine
 10
4266.449198100271
 20
3069.244752348146
 30
0.0
 11
4265.330722660272
 21
3068.867711010247
 31
0.0
  0
LINE
  5
3C96
330
74
100
AcDbEntity
  8
AM_3 ( Verdeckt )
  6
AM_ISO02W050x2
100
AcDbLine
 10
4282.491317217071
 20
3043.185040555346
 30
0.0
 11
4284.707389131471
 21
3045.697075555146
 31
0.0
  0
LINE
  5
3C97
330
74
100
AcDbEntity
  8
AM_3 ( Verdeckt )
  6
AM_ISO02W050x2
100
AcDbLine
 10
4284.707389131471
 20
3045.697075555146
 30
0.0
 11
4286.362142256773
 21
3048.137517869646
 31
0.0
  0
LINE
  5
3C98
330
74
100
AcDbEntity
  8
AM_3 ( Verdeckt )
  6
AM_ISO02W050x2
100
AcDbLine
 10
4286.362142256773
 20
3048.137517869646
 30
0.0
 11
4287.238953226072
 21
3049.836618464946
 31
0.0
  0
LINE
  5
3C99
330
74
100
AcDbEntity
  8
AM_3 ( Verdeckt )
  6
AM_ISO02W050x2
100
AcDbLine
 10
4287.238953226072
 20
3049.836618464946
 30
0.0
 11
4287.98533250127
 21
3051.967957935846
 31
0.0
  0
LINE
  5
3C9A
330
74
100
AcDbEntity
  8
AM_3 ( Verdeckt )
  6
AM_ISO02W050x2
100
AcDbLine
 10
4287.98533250127
 20
3051.967957935846
 30
0.0
 11
4288.194326444272
 21
3053.169804276846
 31
0.0
  0
LINE
  5
3C9B
330
74
100
AcDbEntity
  8
AM_3 ( Verdeckt )
  6
AM_ISO02W050x2
100
AcDbLine
 10
4288.194326444272
 20
3053.169804276846
 30
0.0
 11
4288.193393819372
 21
3054.391046695746
 31
0.0
  0
LINE
  5
3C9C
330
74
100
AcDbEntity
  8
AM_3 ( Verdeckt )
  6
AM_ISO02W050x2
100
AcDbLine
 10
4288.193393819372
 20
3054.391046695746
 30
0.0
 11
4287.902503861472
 21
3055.528203851346
 31
0.0
  0
LINE
  5
3C9D
330
74
100
AcDbEntity
  8
AM_3 ( Verdeckt )
  6
AM_ISO02W050x2
100
AcDbLine
 10
4287.902503861472
 20
3055.528203851346
 30
0.0
 11
4287.278436443171
 21
3056.457441155646
 31
0.0
  0
LINE
  5
3C9E
330
74
100
AcDbEntity
  8
AM_3 ( Verdeckt )
  6
AM_ISO02W050x2
100
AcDbLine
 10
4282.491320248271
 20
3043.185043586547
 30
0.0
 11
4283.267684829472
 21
3044.074092731546
 31
0.0
  0
LINE
  5
3C9F
330
74
100
AcDbEntity
  8
AM_3 ( Verdeckt )
  6
AM_ISO02W050x2
100
AcDbLine
 10
4283.267684829472
 20
3044.074092731546
 30
0.0
 11
4283.92446073997
 21
3045.076699516846
 31
0.0
  0
LINE
  5
3CA0
330
74
100
AcDbEntity
  8
AM_3 ( Verdeckt )
  6
AM_ISO02W050x2
100
AcDbLine
 10
4283.92446073997
 20
3045.076699516846
 30
0.0
 11
4284.442286689972
 21
3046.195700039946
 31
0.0
  0
LINE
  5
3CA1
330
74
100
AcDbEntity
  8
AM_3 ( Verdeckt )
  6
AM_ISO02W050x2
100
AcDbLine
 10
4284.442286689972
 20
3046.195700039946
 30
0.0
 11
4284.785694957771
 21
3047.427685028246
 31
0.0
  0
LINE
  5
3CA2
330
74
100
AcDbEntity
  8
AM_3 ( Verdeckt )
  6
AM_ISO02W050x2
100
AcDbLine
 10
4284.785694957771
 20
3047.427685028246
 30
0.0
 11
4284.902610712271
 21
3048.751234094646
 31
0.0
  0
LINE
  5
3CA3
330
74
100
AcDbEntity
  8
AM_3 ( Verdeckt )
  6
AM_ISO02W050x2
100
AcDbLine
 10
4284.902610712271
 20
3048.751234094646
 30
0.0
 11
4284.731962231772
 21
3050.113148338747
 31
0.0
  0
LINE
  5
3CA4
330
74
100
AcDbEntity
  8
AM_3 ( Verdeckt )
  6
AM_ISO02W050x2
100
AcDbLine
 10
4284.731962231772
 20
3050.113148338747
 30
0.0
 11
4284.224743475872
 21
3051.420762773746
 31
0.0
  0
LINE
  5
3CA5
330
74
100
AcDbEntity
  8
AM_3 ( Verdeckt )
  6
AM_ISO02W050x2
100
AcDbLine
 10
4284.224743475872
 20
3051.420762773746
 30
0.0
 11
4283.375207010972
 21
3052.554211723446
 31
0.0
  0
LINE
  5
3CA6
330
74
100
AcDbEntity
  8
AM_3 ( Verdeckt )
  6
AM_ISO02W050x2
100
AcDbLine
 10
4287.278436443171
 20
3056.457441155646
 30
0.0
 11
4286.349199143572
 21
3057.081508571846
 31
0.0
  0
LINE
  5
3CA7
330
74
100
AcDbEntity
  8
AM_3 ( Verdeckt )
  6
AM_ISO02W050x2
100
AcDbLine
 10
4286.349199143572
 20
3057.081508571846
 30
0.0
 11
4285.212041993972
 21
3057.372398530646
 31
0.0
  0
LINE
  5
3CA8
330
74
100
AcDbEntity
  8
AM_3 ( Verdeckt )
  6
AM_ISO02W050x2
100
AcDbLine
 10
4285.212041993972
 20
3057.372398530646
 30
0.0
 11
4283.99079958077
 21
3057.373331158346
 31
0.0
  0
LINE
  5
3CA9
330
74
100
AcDbEntity
  8
AM_3 ( Verdeckt )
  6
AM_ISO02W050x2
100
AcDbLine
 10
4283.99079958077
 20
3057.373331158346
 30
0.0
 11
4282.788953244272
 21
3057.164337218845
 31
0.0
  0
LINE
  5
3CAA
330
74
100
AcDbEntity
  8
AM_3 ( Verdeckt )
  6
AM_ISO02W050x2
100
AcDbLine
 10
4282.788953244272
 20
3057.164337218845
 30
0.0
 11
4280.657613778072
 21
3056.417957950046
 31
0.0
  0
LINE
  5
3CAB
330
74
100
AcDbEntity
  8
AM_3 ( Verdeckt )
  6
AM_ISO02W050x2
100
AcDbLine
 10
4280.657613778072
 20
3056.417957950046
 30
0.0
 11
4278.248677156572
 21
3055.107504507246
 31
0.0
  0
LINE
  5
3CAC
330
74
100
AcDbEntity
  8
AM_3 ( Verdeckt )
  6
AM_ISO02W050x2
100
AcDbLine
 10
4278.248677156572
 20
3055.107504507246
 30
0.0
 11
4275.588844552972
 21
3053.131712023846
 31
0.0
  0
LINE
  5
3CAD
330
74
100
AcDbEntity
  8
AM_3 ( Verdeckt )
  6
AM_ISO02W050x2
100
AcDbLine
 10
4275.588844552972
 20
3053.131712023846
 30
0.0
 11
4274.006035872671
 21
3051.670321959346
 31
0.0
  0
LINE
  5
3CAE
330
74
100
AcDbEntity
  8
AM_3 ( Verdeckt )
  6
AM_ISO02W050x2
100
AcDbLine
 10
4283.375207010972
 20
3052.554211723446
 30
0.0
 11
4282.241759417772
 21
3053.403747442446
 31
0.0
  0
LINE
  5
3CAF
330
74
100
AcDbEntity
  8
AM_3 ( Verdeckt )
  6
AM_ISO02W050x2
100
AcDbLine
 10
4282.241759417772
 20
3053.403747442446
 30
0.0
 11
4280.934146584171
 21
3053.910966215746
 31
0.0
  0
LINE
  5
3CB0
330
74
100
AcDbEntity
  8
AM_3 ( Verdeckt )
  6
AM_ISO02W050x2
100
AcDbLine
 10
4280.934146584171
 20
3053.910966215746
 30
0.0
 11
4279.572233824072
 21
3054.081615369846
 31
0.0
  0
LINE
  5
3CB1
330
74
100
AcDbEntity
  8
AM_3 ( Verdeckt )
  6
AM_ISO02W050x2
100
AcDbLine
 10
4279.572233824072
 20
3054.081615369846
 30
0.0
 11
4278.248685926472
 21
3053.964700719546
 31
0.0
  0
LINE
  5
3CB2
330
74
100
AcDbEntity
  8
AM_3 ( Verdeckt )
  6
AM_ISO02W050x2
100
AcDbLine
 10
4278.248685926472
 20
3053.964700719546
 30
0.0
 11
4277.016701759372
 21
3053.621293795647
 31
0.0
  0
LINE
  5
3CB3
330
74
100
AcDbEntity
  8
AM_3 ( Verdeckt )
  6
AM_ISO02W050x2
100
AcDbLine
 10
4277.016701759372
 20
3053.621293795647
 30
0.0
 11
4275.897701758172
 21
3053.103469332746
 31
0.0
  0
LINE
  5
3CB4
330
74
100
AcDbEntity
  8
AM_3 ( Verdeckt )
  6
AM_ISO02W050x2
100
AcDbLine
 10
4275.897701758172
 20
3053.103469332746
 30
0.0
 11
4274.895095250371
 21
3052.446695039146
 31
0.0
  0
LINE
  5
3CB5
330
74
100
AcDbEntity
  8
AM_3 ( Verdeckt )
  6
AM_ISO02W050x2
100
AcDbLine
 10
4274.895095250371
 20
3052.446695039146
 30
0.0
 11
4274.006046157071
 21
3051.670332243746
 31
0.0
  0
LINE
  5
3CB6
330
74
100
AcDbEntity
  8
AM_3 ( Verdeckt )
  6
AM_ISO02W050x2
100
AcDbLine
 10
4299.688700715772
 20
3034.509713896647
 30
0.0
 11
4300.77477002407
 21
3037.678585624446
 31
0.0
  0
LINE
  5
3CB7
330
74
100
AcDbEntity
  8
AM_3 ( Verdeckt )
  6
AM_ISO02W050x2
100
AcDbLine
 10
4300.77477002407
 20
3037.678585624446
 30
0.0
 11
4301.369645726471
 21
3040.566506934846
 31
0.0
  0
LINE
  5
3CB8
330
74
100
AcDbEntity
  8
AM_3 ( Verdeckt )
  6
AM_ISO02W050x2
100
AcDbLine
 10
4301.369645726471
 20
3040.566506934846
 30
0.0
 11
4301.529495787172
 21
3042.471812229845
 31
0.0
  0
LINE
  5
3CB9
330
74
100
AcDbEntity
  8
AM_3 ( Verdeckt )
  6
AM_ISO02W050x2
100
AcDbLine
 10
4301.529495787172
 20
3042.471812229845
 30
0.0
 11
4301.403432018772
 21
3044.726540126646
 31
0.0
  0
LINE
  5
3CBA
330
74
100
AcDbEntity
  8
AM_3 ( Verdeckt )
  6
AM_ISO02W050x2
100
AcDbLine
 10
4301.403432018772
 20
3044.726540126646
 30
0.0
 11
4301.136590562172
 21
3045.916879881747
 31
0.0
  0
LINE
  5
3CBB
330
74
100
AcDbEntity
  8
AM_3 ( Verdeckt )
  6
AM_ISO02W050x2
100
AcDbLine
 10
4301.136590562172
 20
3045.916879881747
 30
0.0
 11
4300.66837968847
 21
3047.044803856746
 31
0.0
  0
LINE
  5
3CBC
330
74
100
AcDbEntity
  8
AM_3 ( Verdeckt )
  6
AM_ISO02W050x2
100
AcDbLine
 10
4300.66837968847
 20
3047.044803856746
 30
0.0
 11
4299.964461206772
 21
3047.984081310546
 31
0.0
  0
LINE
  5
3CBD
330
74
100
AcDbEntity
  8
AM_3 ( Verdeckt )
  6
AM_ISO02W050x2
100
AcDbLine
 10
4299.964461206772
 20
3047.984081310546
 30
0.0
 11
4299.03229437097
 21
3048.603764375146
 31
0.0
  0
LINE
  5
3CBE
330
74
100
AcDbEntity
  8
AM_3 ( Verdeckt )
  6
AM_ISO02W050x2
100
AcDbLine
 10
4299.688702356272
 20
3034.509717857146
 30
0.0
 11
4300.065745324172
 21
3035.628194028246
 31
0.0
  0
LINE
  5
3CBF
330
74
100
AcDbEntity
  8
AM_3 ( Verdeckt )
  6
AM_ISO02W050x2
100
AcDbLine
 10
4300.065745324172
 20
3035.628194028246
 30
0.0
 11
4300.28884613947
 21
3036.805819176147
 31
0.0
  0
LINE
  5
3CC0
330
74
100
AcDbEntity
  8
AM_3 ( Verdeckt )
  6
AM_ISO02W050x2
100
AcDbLine
 10
4300.28884613947
 20
3036.805819176147
 30
0.0
 11
4300.33903197507
 21
3038.037804268146
 31
0.0
  0
LINE
  5
3CC1
330
74
100
AcDbEntity
  8
AM_3 ( Verdeckt )
  6
AM_ISO02W050x2
100
AcDbLine
 10
4300.33903197507
 20
3038.037804268146
 30
0.0
 11
4300.184839601072
 21
3039.307426637846
 31
0.0
  0
LINE
  5
3CC2
330
74
100
AcDbEntity
  8
AM_3 ( Verdeckt )
  6
AM_ISO02W050x2
100
AcDbLine
 10
4300.184839601072
 20
3039.307426637846
 30
0.0
 11
4299.786355373973
 21
3040.574968252846
 31
0.0
  0
LINE
  5
3CC3
330
74
100
AcDbEntity
  8
AM_3 ( Verdeckt )
  6
AM_ISO02W050x2
100
AcDbLine
 10
4299.786355373973
 20
3040.574968252846
 30
0.0
 11
4299.107514718071
 21
3041.767908601646
 31
0.0
  0
LINE
  5
3CC4
330
74
100
AcDbEntity
  8
AM_3 ( Verdeckt )
  6
AM_ISO02W050x2
100
AcDbLine
 10
4299.107514718071
 20
3041.767908601646
 30
0.0
 11
4298.138503310772
 21
3042.781882600246
 31
0.0
  0
LINE
  5
3CC5
330
74
100
AcDbEntity
  8
AM_3 ( Verdeckt )
  6
AM_ISO02W050x2
100
AcDbLine
 10
4298.138503310772
 20
3042.781882600246
 30
0.0
 11
4296.919881824272
 21
3043.503949355646
 31
0.0
  0
LINE
  5
3CC6
330
74
100
AcDbEntity
  8
AM_3 ( Verdeckt )
  6
AM_ISO02W050x2
100
AcDbLine
 10
4299.03229437097
 20
3048.603764375146
 30
0.0
 11
4297.934970788172
 21
3048.824723768646
 31
0.0
  0
LINE
  5
3CC7
330
74
100
AcDbEntity
  8
AM_3 ( Verdeckt )
  6
AM_ISO02W050x2
100
AcDbLine
 10
4297.934970788172
 20
3048.824723768646
 30
0.0
 11
4296.77305580457
 21
3048.658299846646
 31
0.0
  0
LINE
  5
3CC8
330
74
100
AcDbEntity
  8
AM_3 ( Verdeckt )
  6
AM_ISO02W050x2
100
AcDbLine
 10
4296.77305580457
 20
3048.658299846646
 30
0.0
 11
4295.644418033572
 21
3048.191812243746
 31
0.0
  0
LINE
  5
3CC9
330
74
100
AcDbEntity
  8
AM_3 ( Verdeckt )
  6
AM_ISO02W050x2
100
AcDbLine
 10
4295.644418033572
 20
3048.191812243746
 30
0.0
 11
4294.61403532017
 21
3047.538800339446
 31
0.0
  0
LINE
  5
3CCA
330
74
100
AcDbEntity
  8
AM_3 ( Verdeckt )
  6
AM_ISO02W050x2
100
AcDbLine
 10
4294.61403532017
 20
3047.538800339446
 30
0.0
 11
4292.930561390972
 21
3046.033607507045
 31
0.0
  0
LINE
  5
3CCB
330
74
100
AcDbEntity
  8
AM_3 ( Verdeckt )
  6
AM_ISO02W050x2
100
AcDbLine
 10
4292.930561390972
 20
3046.033607507045
 30
0.0
 11
4291.206482972671
 21
3043.901046258346
 31
0.0
  0
LINE
  5
3CCC
330
74
100
AcDbEntity
  8
AM_3 ( Verdeckt )
  6
AM_ISO02W050x2
100
AcDbLine
 10
4291.206482972671
 20
3043.901046258346
 30
0.0
 11
4289.505221119571
 21
3041.057778152146
 31
0.0
  0
LINE
  5
3CCD
330
74
100
AcDbEntity
  8
AM_3 ( Verdeckt )
  6
AM_ISO02W050x2
100
AcDbLine
 10
4289.505221119571
 20
3041.057778152146
 30
0.0
 11
4288.602146341772
 21
3039.101915123946
 31
0.0
  0
LINE
  5
3CCE
330
74
100
AcDbEntity
  8
AM_3 ( Verdeckt )
  6
AM_ISO02W050x2
100
AcDbLine
 10
4296.919881824272
 20
3043.503949355646
 30
0.0
 11
4295.547609546871
 21
3043.855066403145
 31
0.0
  0
LINE
  5
3CCF
330
74
100
AcDbEntity
  8
AM_3 ( Verdeckt )
  6
AM_ISO02W050x2
100
AcDbLine
 10
4295.547609546871
 20
3043.855066403145
 30
0.0
 11
4294.145428592371
 21
3043.823273678946
 31
0.0
  0
LINE
  5
3CD0
330
74
100
AcDbEntity
  8
AM_3 ( Verdeckt )
  6
AM_ISO02W050x2
100
AcDbLine
 10
4294.145428592371
 20
3043.823273678946
 30
0.0
 11
4292.82188066417
 21
3043.459751490046
 31
0.0
  0
LINE
  5
3CD1
330
74
100
AcDbEntity
  8
AM_3 ( Verdeckt )
  6
AM_ISO02W050x2
100
AcDbLine
 10
4292.82188066417
 20
3043.459751490046
 30
0.0
 11
4291.643823150972
 21
3042.845236585245
 31
0.0
  0
LINE
  5
3CD2
330
74
100
AcDbEntity
  8
AM_3 ( Verdeckt )
  6
AM_ISO02W050x2
100
AcDbLine
 10
4291.643823150972
 20
3042.845236585245
 30
0.0
 11
4290.637034334972
 21
3042.056510027246
 31
0.0
  0
LINE
  5
3CD3
330
74
100
AcDbEntity
  8
AM_3 ( Verdeckt )
  6
AM_ISO02W050x2
100
AcDbLine
 10
4290.637034334972
 20
3042.056510027246
 30
0.0
 11
4289.801375979771
 21
3041.149879843246
 31
0.0
  0
LINE
  5
3CD4
330
74
100
AcDbEntity
  8
AM_3 ( Verdeckt )
  6
AM_ISO02W050x2
100
AcDbLine
 10
4289.801375979771
 20
3041.149879843246
 30
0.0
 11
4289.126424988972
 21
3040.159418616246
 31
0.0
  0
LINE
  5
3CD5
330
74
100
AcDbEntity
  8
AM_3 ( Verdeckt )
  6
AM_ISO02W050x2
100
AcDbLine
 10
4289.126424988972
 20
3040.159418616246
 30
0.0
 11
4288.60215190757
 21
3039.101928561147
 31
0.0
  0
LINE
  5
3CD6
330
74
100
AcDbEntity
  8
AM_3 ( Verdeckt )
  6
AM_ISO02W050x2
100
AcDbLine
 10
4318.896915125571
 20
3033.075910903847
 30
0.0
 11
4318.687637620872
 21
3036.419187364946
 31
0.0
  0
LINE
  5
3CD7
330
74
100
AcDbEntity
  8
AM_3 ( Verdeckt )
  6
AM_ISO02W050x2
100
AcDbLine
 10
4318.687637620872
 20
3036.419187364946
 30
0.0
 11
4318.132071467272
 21
3039.314927830846
 31
0.0
  0
LINE
  5
3CD8
330
74
100
AcDbEntity
  8
AM_3 ( Verdeckt )
  6
AM_ISO02W050x2
100
AcDbLine
 10
4318.132071467272
 20
3039.314927830846
 30
0.0
 11
4317.550624896671
 21
3041.136372365846
 31
0.0
  0
LINE
  5
3CD9
330
74
100
AcDbEntity
  8
AM_3 ( Verdeckt )
  6
AM_ISO02W050x2
100
AcDbLine
 10
4317.550624896671
 20
3041.136372365846
 30
0.0
 11
4316.571310150571
 21
3043.171226805546
 31
0.0
  0
LINE
  5
3CDA
330
74
100
AcDbEntity
  8
AM_3 ( Verdeckt )
  6
AM_ISO02W050x2
100
AcDbLine
 10
4316.571310150571
 20
3043.171226805546
 30
0.0
 11
4315.869257487272
 21
3044.168841537546
 31
0.0
  0
LINE
  5
3CDB
330
74
100
AcDbEntity
  8
AM_3 ( Verdeckt )
  6
AM_ISO02W050x2
100
AcDbLine
 10
4315.869257487272
 20
3044.168841537546
 30
0.0
 11
4315.005049225971
 21
3045.031730868047
 31
0.0
  0
LINE
  5
3CDC
330
74
100
AcDbEntity
  8
AM_3 ( Verdeckt )
  6
AM_ISO02W050x2
100
AcDbLine
 10
4315.005049225971
 20
3045.031730868047
 30
0.0
 11
4313.995267428172
 21
3045.630132142246
 31
0.0
  0
LINE
  5
3CDD
330
74
100
AcDbEntity
  8
AM_3 ( Verdeckt )
  6
AM_ISO02W050x2
100
AcDbLine
 10
4313.995267428172
 20
3045.630132142246
 30
0.0
 11
4312.896915125572
 21
3045.845919838047
 31
0.0
  0
LINE
  5
3CDE
330
74
100
AcDbEntity
  8
AM_3 ( Verdeckt )
  6
AM_ISO02W050x2
100
AcDbLine
 10
4318.896915125571
 20
3033.075915190646
 30
0.0
 11
4318.817235106371
 21
3034.253540529846
 31
0.0
  0
LINE
  5
3CDF
330
74
100
AcDbEntity
  8
AM_3 ( Verdeckt )
  6
AM_ISO02W050x2
100
AcDbLine
 10
4318.817235106371
 20
3034.253540529846
 30
0.0
 11
4318.572695749671
 21
3035.426901286646
 31
0.0
  0
LINE
  5
3CE0
330
74
100
AcDbEntity
  8
AM_3 ( Verdeckt )
  6
AM_ISO02W050x2
100
AcDbLine
 10
4318.572695749671
 20
3035.426901286646
 30
0.0
 11
4318.147601132272
 21
3036.584312385446
 31
0.0
  0
LINE
  5
3CE1
330
74
100
AcDbEntity
  8
AM_3 ( Verdeckt )
  6
AM_ISO02W050x2
100
AcDbLine
 10
4318.147601132272
 20
3036.584312385446
 30
0.0
 11
4317.519282507672
 21
3037.698283639846
 31
0.0
  0
LINE
  5
3CE2
330
74
100
AcDbEntity
  8
AM_3 ( Verdeckt )
  6
AM_ISO02W050x2
100
AcDbLine
 10
4317.519282507672
 20
3037.698283639846
 30
0.0
 11
4316.66606391037
 21
3038.716846082746
 31
0.0
  0
LINE
  5
3CE3
330
74
100
AcDbEntity
  8
AM_3 ( Verdeckt )
  6
AM_ISO02W050x2
100
AcDbLine
 10
4316.66606391037
 20
3038.716846082746
 30
0.0
 11
4315.58237841527
 21
3039.559198182347
 31
0.0
  0
LINE
  5
3CE4
330
74
100
AcDbEntity
  8
AM_3 ( Verdeckt )
  6
AM_ISO02W050x2
100
AcDbLine
 10
4315.58237841527
 20
3039.559198182347
 30
0.0
 11
4314.299097559172
 21
3040.125163394746
 31
0.0
  0
LINE
  5
3CE5
330
74
100
AcDbEntity
  8
AM_3 ( Verdeckt )
  6
AM_ISO02W050x2
100
AcDbLine
 10
4314.299097559172
 20
3040.125163394746
 30
0.0
 11
4312.896915125572
 21
3040.325919838046
 31
0.0
  0
LINE
  5
3CE6
330
74
100
AcDbEntity
  8
AM_3 ( Verdeckt )
  6
AM_ISO02W050x2
100
AcDbLine
 10
4312.896915125572
 20
3045.845919838047
 30
0.0
 11
4311.798562827772
 21
3045.630132144146
 31
0.0
  0
LINE
  5
3CE7
330
74
100
AcDbEntity
  8
AM_3 ( Verdeckt )
  6
AM_ISO02W050x2
100
AcDbLine
 10
4311.798562827772
 20
3045.630132144146
 30
0.0
 11
4310.788781033571
 21
3045.031730874746
 31
0.0
  0
LINE
  5
3CE8
330
74
100
AcDbEntity
  8
AM_3 ( Verdeckt )
  6
AM_ISO02W050x2
100
AcDbLine
 10
4310.788781033571
 20
3045.031730874746
 30
0.0
 11
4309.924572774372
 21
3044.168841550246
 31
0.0
  0
LINE
  5
3CE9
330
74
100
AcDbEntity
  8
AM_3 ( Verdeckt )
  6
AM_ISO02W050x2
100
AcDbLine
 10
4309.924572774372
 20
3044.168841550246
 30
0.0
 11
4309.222520111672
 21
3043.171226823946
 31
0.0
  0
LINE
  5
3CEA
330
74
100
AcDbEntity
  8
AM_3 ( Verdeckt )
  6
AM_ISO02W050x2
100
AcDbLine
 10
4309.222520111672
 20
3043.171226823946
 30
0.0
 11
4308.243205364472
 21
3041.136372392146
 31
0.0
  0
LINE
  5
3CEB
330
74
100
AcDbEntity
  8
AM_3 ( Verdeckt )
  6
AM_ISO02W050x2
100
AcDbLine
 10
4308.243205364472
 20
3041.136372392146
 30
0.0
 11
4307.466460459772
 21
3038.506366455846
 31
0.0
  0
LINE
  5
3CEC
330
74
100
AcDbEntity
  8
AM_3 ( Verdeckt )
  6
AM_ISO02W050x2
100
AcDbLine
 10
4307.466460459772
 20
3038.506366455846
 30
0.0
 11
4306.982771052271
 21
3035.228484521646
 31
0.0
  0
LINE
  5
3CED
330
74
100
AcDbEntity
  8
AM_3 ( Verdeckt )
  6
AM_ISO02W050x2
100
AcDbLine
 10
4306.982771052271
 20
3035.228484521646
 30
0.0
 11
4306.896915125571
 21
3033.075910945946
 31
0.0
  0
LINE
  5
3CEE
330
74
100
AcDbEntity
  8
AM_3 ( Verdeckt )
  6
AM_ISO02W050x2
100
AcDbLine
 10
4312.896915125572
 20
3040.325919838046
 30
0.0
 11
4311.494734178472
 21
3040.125163826446
 31
0.0
  0
LINE
  5
3CEF
330
74
100
AcDbEntity
  8
AM_3 ( Verdeckt )
  6
AM_ISO02W050x2
100
AcDbLine
 10
4311.494734178472
 20
3040.125163826446
 30
0.0
 11
4310.211454442572
 21
3039.559199758746
 31
0.0
  0
LINE
  5
3CF0
330
74
100
AcDbEntity
  8
AM_3 ( Verdeckt )
  6
AM_ISO02W050x2
100
AcDbLine
 10
4310.211454442572
 20
3039.559199758746
 30
0.0
 11
4309.127769520471
 21
3038.716849184846
 31
0.0
  0
LINE
  5
3CF1
330
74
100
AcDbEntity
  8
AM_3 ( Verdeckt )
  6
AM_ISO02W050x2
100
AcDbLine
 10
4309.127769520471
 20
3038.716849184846
 30
0.0
 11
4308.274550968872
 21
3037.698288349146
 31
0.0
  0
LINE
  5
3CF2
330
74
100
AcDbEntity
  8
AM_3 ( Verdeckt )
  6
AM_ISO02W050x2
100
AcDbLine
 10
4308.274550968872
 20
3037.698288349146
 30
0.0
 11
4307.646231974572
 21
3036.584318625646
 31
0.0
  0
LINE
  5
3CF3
330
74
100
AcDbEntity
  8
AM_3 ( Verdeckt )
  6
AM_ISO02W050x2
100
AcDbLine
 10
4307.646231974572
 20
3036.584318625646
 30
0.0
 11
4307.221136674772
 21
3035.426908947446
 31
0.0
  0
LINE
  5
3CF4
330
74
100
AcDbEntity
  8
AM_3 ( Verdeckt )
  6
AM_ISO02W050x2
100
AcDbLine
 10
4307.221136674772
 20
3035.426908947446
 30
0.0
 11
4306.976596370971
 21
3034.253549530246
 31
0.0
  0
LINE
  5
3CF5
330
74
100
AcDbEntity
  8
AM_3 ( Verdeckt )
  6
AM_ISO02W050x2
100
AcDbLine
 10
4306.976596370971
 20
3034.253549530246
 30
0.0
 11
4306.896915125571
 21
3033.075925490246
 31
0.0
  0
ARC
  5
3CF6
330
74
100
AcDbEntity
  8
AM_3 ( Verdeckt )
  6
AM_ISO02W050x2
100
AcDbCircle
 10
4312.896915125572
 20
3082.075919838046
 30
0.0
 40
49.37
100
AcDbArc
 50
276.9804850704238
 51
285.5195141878802
  0
ARC
  5
3CF7
330
74
100
AcDbEntity
  8
AM_3 ( Verdeckt )
  6
AM_ISO02W050x2
100
AcDbCircle
 10
4312.896915125572
 20
3082.075919838046
 30
0.0
 40
49.37
100
AcDbArc
 50
299.4804858120905
 51
308.0195141879169
  0
ARC
  5
3CF8
330
74
100
AcDbEntity
  8
AM_3 ( Verdeckt )
  6
AM_ISO02W050x2
100
AcDbCircle
 10
4312.896915125572
 20
3082.075919838046
 30
0.0
 40
49.37
100
AcDbArc
 50
321.9804858121189
 51
330.5195141878686
  0
ARC
  5
3CF9
330
74
100
AcDbEntity
  8
AM_3 ( Verdeckt )
  6
AM_ISO02W050x2
100
AcDbCircle
 10
4312.896915125572
 20
3082.075919838046
 30
0.0
 40
49.37
100
AcDbArc
 50
6.980485812084893
 51
15.51951418787947
  0
ARC
  5
3CFA
330
74
100
AcDbEntity
  8
AM_3 ( Verdeckt )
  6
AM_ISO02W050x2
100
AcDbCircle
 10
4312.896915125572
 20
3082.075919838046
 30
0.0
 40
49.37
100
AcDbArc
 50
29.4804858121314
 51
38.01951418788109
  0
ARC
  5
3CFB
330
74
100
AcDbEntity
  8
AM_3 ( Verdeckt )
  6
AM_ISO02W050x2
100
AcDbCircle
 10
4312.896915125572
 20
3082.075919838046
 30
0.0
 40
49.37
100
AcDbArc
 50
51.980485812083
 51
60.51951418790949
  0
ARC
  5
3CFC
330
74
100
AcDbEntity
  8
AM_3 ( Verdeckt )
  6
AM_ISO02W050x2
100
AcDbCircle
 10
4312.896915125572
 20
3082.075919838046
 30
0.0
 40
49.37
100
AcDbArc
 50
74.48048581211979
 51
83.01951418791555
  0
ARC
  5
3CFD
330
74
100
AcDbEntity
  8
AM_3 ( Verdeckt )
  6
AM_ISO02W050x2
100
AcDbCircle
 10
4312.896915125572
 20
3082.075919838046
 30
0.0
 40
49.37
100
AcDbArc
 50
96.98048581208446
 51
105.5195141878802
  0
ARC
  5
3CFE
330
74
100
AcDbEntity
  8
AM_3 ( Verdeckt )
  6
AM_ISO02W050x2
100
AcDbCircle
 10
4312.896915125572
 20
3082.075919838046
 30
0.0
 40
49.37
100
AcDbArc
 50
119.4804850703992
 51
128.019514187917
  0
ARC
  5
3CFF
330
74
100
AcDbEntity
  8
AM_3 ( Verdeckt )
  6
AM_ISO02W050x2
100
AcDbCircle
 10
4312.896915125572
 20
3082.075919838046
 30
0.0
 40
49.37
100
AcDbArc
 50
141.9804858121189
 51
150.5195141878686
  0
ARC
  5
3D00
330
74
100
AcDbEntity
  8
AM_3 ( Verdeckt )
  6
AM_ISO02W050x2
100
AcDbCircle
 10
4312.896915125572
 20
3082.075919838046
 30
0.0
 40
49.37
100
AcDbArc
 50
164.4804858121205
 51
173.019514187915
  0
ARC
  5
3D01
330
74
100
AcDbEntity
  8
AM_3 ( Verdeckt )
  6
AM_ISO02W050x2
100
AcDbCircle
 10
4312.896915125572
 20
3082.075919838046
 30
0.0
 40
49.37
100
AcDbArc
 50
186.9804858120849
 51
195.5195141878795
  0
ARC
  5
3D02
330
74
100
AcDbEntity
  8
AM_3 ( Verdeckt )
  6
AM_ISO02W050x2
100
AcDbCircle
 10
4312.896915125572
 20
3082.075919838046
 30
0.0
 40
49.37
100
AcDbArc
 50
209.4804858121314
 51
218.0195141878811
  0
ARC
  5
3D03
330
74
100
AcDbEntity
  8
AM_3 ( Verdeckt )
  6
AM_ISO02W050x2
100
AcDbCircle
 10
4312.896915125572
 20
3082.075919838046
 30
0.0
 40
49.37
100
AcDbArc
 50
231.980485812083
 51
240.5195141879095
  0
ARC
  5
3D04
330
74
100
AcDbEntity
  8
AM_3 ( Verdeckt )
  6
AM_ISO02W050x2
100
AcDbCircle
 10
4312.896915125572
 20
3082.075919838046
 30
0.0
 40
44.78
100
AcDbArc
 50
344.6869454323033
 51
352.8130545677088
  0
ARC
  5
3D05
330
74
100
AcDbEntity
  8
AM_3 ( Verdeckt )
  6
AM_ISO02W050x2
100
AcDbCircle
 10
4312.896915125572
 20
3082.075919838046
 30
0.0
 40
44.78
100
AcDbArc
 50
277.1869454322935
 51
285.3130545676965
  0
ARC
  5
3D06
330
74
100
AcDbEntity
  8
AM_3 ( Verdeckt )
  6
AM_ISO02W050x2
100
AcDbCircle
 10
4312.896915125572
 20
3082.075919838046
 30
0.0
 40
44.78
100
AcDbArc
 50
299.6869454322784
 51
307.8130545676831
  0
ARC
  5
3D07
330
74
100
AcDbEntity
  8
AM_3 ( Verdeckt )
  6
AM_ISO02W050x2
100
AcDbCircle
 10
4312.896915125572
 20
3082.075919838046
 30
0.0
 40
44.78
100
AcDbArc
 50
322.1869454323218
 51
330.3130545677241
  0
ARC
  5
3D08
330
74
100
AcDbEntity
  8
AM_3 ( Verdeckt )
  6
AM_ISO02W050x2
100
AcDbCircle
 10
4312.896915125572
 20
3082.075919838046
 30
0.0
 40
44.78
100
AcDbArc
 50
254.6869454323036
 51
262.8130545677064
  0
ARC
  5
3D09
330
74
100
AcDbEntity
  8
AM_3 ( Verdeckt )
  6
AM_ISO02W050x2
100
AcDbCircle
 10
4312.896915125572
 20
3082.075919838046
 30
0.0
 40
44.78
100
AcDbArc
 50
232.186945432317
 51
240.3130545677216
  0
ARC
  5
3D0A
330
74
100
AcDbEntity
  8
AM_3 ( Verdeckt )
  6
AM_ISO02W050x2
100
AcDbCircle
 10
4312.896915125572
 20
3082.075919838046
 30
0.0
 40
44.78
100
AcDbArc
 50
209.6869454322759
 51
217.8130545676782
  0
ARC
  5
3D0B
330
74
100
AcDbEntity
  8
AM_3 ( Verdeckt )
  6
AM_ISO02W050x2
100
AcDbCircle
 10
4312.896915125572
 20
3082.075919838046
 30
0.0
 40
44.78
100
AcDbArc
 50
187.1869454322911
 51
195.3130545676966
  0
ARC
  5
3D0C
330
74
100
AcDbEntity
  8
AM_3 ( Verdeckt )
  6
AM_ISO02W050x2
100
AcDbCircle
 10
4312.896915125572
 20
3082.075919838046
 30
0.0
 40
44.78
100
AcDbArc
 50
164.6869454323033
 51
172.8130545677088
  0
ARC
  5
3D0D
330
74
100
AcDbEntity
  8
AM_3 ( Verdeckt )
  6
AM_ISO02W050x2
100
AcDbCircle
 10
4312.896915125572
 20
3082.075919838046
 30
0.0
 40
44.78
100
AcDbArc
 50
142.1869454323218
 51
150.3130545677241
  0
ARC
  5
3D0E
330
74
100
AcDbEntity
  8
AM_3 ( Verdeckt )
  6
AM_ISO02W050x2
100
AcDbCircle
 10
4312.896915125572
 20
3082.075919838046
 30
0.0
 40
44.78
100
AcDbArc
 50
119.6869454322784
 51
127.8130545676831
  0
ARC
  5
3D0F
330
74
100
AcDbEntity
  8
AM_3 ( Verdeckt )
  6
AM_ISO02W050x2
100
AcDbCircle
 10
4312.896915125572
 20
3082.075919838046
 30
0.0
 40
44.78
100
AcDbArc
 50
97.18694543229359
 51
105.3130545676964
  0
ARC
  5
3D10
330
74
100
AcDbEntity
  8
AM_3 ( Verdeckt )
  6
AM_ISO02W050x2
100
AcDbCircle
 10
4312.896915125572
 20
3082.075919838046
 30
0.0
 40
44.78
100
AcDbArc
 50
74.68694543230355
 51
82.81305456770637
  0
ARC
  5
3D11
330
74
100
AcDbEntity
  8
AM_3 ( Verdeckt )
  6
AM_ISO02W050x2
100
AcDbCircle
 10
4312.896915125572
 20
3082.075919838046
 30
0.0
 40
44.78
100
AcDbArc
 50
52.1869454323169
 51
60.31305456772161
  0
ARC
  5
3D12
330
74
100
AcDbEntity
  8
AM_3 ( Verdeckt )
  6
AM_ISO02W050x2
100
AcDbCircle
 10
4312.896915125572
 20
3082.075919838046
 30
0.0
 40
44.78
100
AcDbArc
 50
29.68694543227591
 51
37.8130545676782
  0
ARC
  5
3D13
330
74
100
AcDbEntity
  8
AM_3 ( Verdeckt )
  6
AM_ISO02W050x2
100
AcDbCircle
 10
4312.896915125572
 20
3082.075919838046
 30
0.0
 40
44.78
100
AcDbArc
 50
7.186945432291167
 51
15.31305456769667
  0
ARC
  5
3D14
330
74
100
AcDbEntity
  8
AM_3 ( Verdeckt )
  6
AM_ISO02W050x2
100
AcDbCircle
 10
4312.896915125572
 20
3082.075919838046
 30
0.0
 40
26.15
100
AcDbArc
 50
96.58763415021956
 51
0.0
  0
CIRCLE
  5
3D15
330
74
100
AcDbEntity
  8
AM_3 ( Verdeckt )
  6
AM_ISO02W050x2
100
AcDbCircle
 10
4312.896915125572
 20
3082.075919838046
 30
0.0
 40
5.0
  0
CIRCLE
  5
3D16
330
74
100
AcDbEntity
  8
AM_3 ( Verdeckt )
  6
AM_ISO02W050x2
100
AcDbCircle
 10
4312.896915125572
 20
3082.075919838046
 30
0.0
 40
9.0
  0
ARC
  5
3D17
330
74
100
AcDbEntity
  8
AM_3 ( Verdeckt )
  6
AM_ISO02W050x2
100
AcDbCircle
 10
4312.896915125572
 20
3082.075919838046
 30
0.0
 40
31.0
100
AcDbArc
 50
74.83863102178698
 51
105.161368978213
  0
LINE
  5
3D18
330
74
100
AcDbEntity
  8
AM_3 ( Verdeckt )
  6
AM_ISO02W050x2
100
AcDbLine
 10
4315.896915125572
 20
3091.562748368346
 30
0.0
 11
4315.896915125572
 21
3111.230683310346
 31
0.0
  0
LINE
  5
3D19
330
74
100
AcDbEntity
  8
AM_3 ( Verdeckt )
  6
AM_ISO02W050x2
100
AcDbLine
 10
4309.896915125571
 20
3091.562752818546
 30
0.0
 11
4309.896915125571
 21
3111.230679312246
 31
0.0
  0
ARC
  5
3D1A
330
74
100
AcDbEntity
  8
AM_3 ( Verdeckt )
  6
AM_ISO02W050x2
100
AcDbCircle
 10
4312.896915125572
 20
3082.075919838046
 30
0.0
 40
26.15
100
AcDbArc
 50
0.0
 51
83.41236584978043
  0
ARC
  5
3D1B
330
74
100
AcDbEntity
  8
AM_3 ( Verdeckt )
  6
AM_ISO02W050x2
100
AcDbCircle
 10
4308.396915125571
 20
3111.230679312246
 30
0.0
 40
1.5
100
AcDbArc
 50
0.0
 51
98.77428964781834
  0
ARC
  5
3D1C
330
74
100
AcDbEntity
  8
AM_3 ( Verdeckt )
  6
AM_ISO02W050x2
100
AcDbCircle
 10
4317.396915125572
 20
3111.230679312246
 30
0.0
 40
1.5
100
AcDbArc
 50
81.22571035218165
 51
180.0
  0
ARC
  5
3D1D
330
74
100
AcDbEntity
  8
AM_3 ( Verdeckt )
  6
AM_ISO02W050x2
100
AcDbCircle
 10
4304.396915125571
 20
3113.444694120746
 30
0.0
 40
1.5
100
AcDbArc
 50
180.0
 51
285.1613686066062
  0
ARC
  5
3D1E
330
74
100
AcDbEntity
  8
AM_3 ( Verdeckt )
  6
AM_ISO02W050x2
100
AcDbCircle
 10
4321.396915125571
 20
3113.444694120746
 30
0.0
 40
1.5
100
AcDbArc
 50
254.8386313933938
 51
0.0
  0
ARC
  5
3D1F
330
74
100
AcDbEntity
  8
AM_3 ( Verdeckt )
  6
AM_ISO02W050x2
100
AcDbCircle
 10
4308.396915125571
 20
3091.562752818546
 30
0.0
 40
1.5
100
AcDbArc
 50
295.3769335252244
 51
0.0
  0
ARC
  5
3D20
330
74
100
AcDbEntity
  8
AM_3 ( Verdeckt )
  6
AM_ISO02W050x2
100
AcDbCircle
 10
4317.396915125572
 20
3091.562752818546
 30
0.0
 40
1.5
100
AcDbArc
 50
180.0
 51
244.6230664747755
  0
ARC
  5
3D21
330
74
100
AcDbEntity
  8
AM_3 ( Verdeckt )
  6
AM_ISO02W050x2
100
AcDbCircle
 10
4306.931076762972
 20
3073.435389030746
 30
0.0
 40
1.5
100
AcDbArc
 50
55.37693352520554
 51
120.0000000000115
  0
ARC
  5
3D22
330
74
100
AcDbEntity
  8
AM_3 ( Verdeckt )
  6
AM_ISO02W050x2
100
AcDbCircle
 10
4302.431076762972
 20
3081.229617664846
 30
0.0
 40
1.5
100
AcDbArc
 50
300.0000000000115
 51
4.623066474816113
  0
LINE
  5
3D23
330
74
100
AcDbEntity
  8
AM_3 ( Verdeckt )
  6
AM_ISO02W050x2
100
AcDbLine
 10
4303.181080616972
 20
3079.930581784247
 30
0.0
 11
4286.148149317272
 21
3070.096614313245
 31
0.0
  0
LINE
  5
3D24
330
74
100
AcDbEntity
  8
AM_3 ( Verdeckt )
  6
AM_ISO02W050x2
100
AcDbLine
 10
4306.181076762972
 20
3074.734427136446
 30
0.0
 11
4289.148152779672
 21
3064.900463889546
 31
0.0
  0
ARC
  5
3D25
330
74
100
AcDbEntity
  8
AM_3 ( Verdeckt )
  6
AM_ISO02W050x2
100
AcDbCircle
 10
4289.898152779672
 20
3063.601425783846
 30
0.0
 40
1.5
100
AcDbArc
 50
120.0000000000115
 51
218.7742896478093
  0
ARC
  5
3D26
330
74
100
AcDbEntity
  8
AM_3 ( Verdeckt )
  6
AM_ISO02W050x2
100
AcDbCircle
 10
4285.398152779673
 20
3071.395654417946
 30
0.0
 40
1.5
100
AcDbArc
 50
201.2257103521798
 51
300.0000000000115
  0
ARC
  5
3D27
330
74
100
AcDbEntity
  8
AM_3 ( Verdeckt )
  6
AM_ISO02W050x2
100
AcDbCircle
 10
4281.480759711172
 20
3073.752748628846
 30
0.0
 40
1.5
100
AcDbArc
 50
14.83863139341446
 51
120.0000000000115
  0
ARC
  5
3D28
330
74
100
AcDbEntity
  8
AM_3 ( Verdeckt )
  6
AM_ISO02W050x2
100
AcDbCircle
 10
4312.896915125572
 20
3082.075919838046
 30
0.0
 40
31.0
100
AcDbArc
 50
194.838631021826
 51
225.1613689781997
  0
ARC
  5
3D29
330
74
100
AcDbEntity
  8
AM_3 ( Verdeckt )
  6
AM_ISO02W050x2
100
AcDbCircle
 10
4289.980759711172
 20
3059.030316764546
 30
0.0
 40
1.5
100
AcDbArc
 50
300.0000000000115
 51
45.16136860663004
  0
ARC
  5
3D2A
330
74
100
AcDbEntity
  8
AM_3 ( Verdeckt )
  6
AM_ISO02W050x2
100
AcDbCircle
 10
4323.36275348817
 20
3081.229617664846
 30
0.0
 40
1.5
100
AcDbArc
 50
175.3769335251839
 51
239.9999999999885
  0
ARC
  5
3D2B
330
74
100
AcDbEntity
  8
AM_3 ( Verdeckt )
  6
AM_ISO02W050x2
100
AcDbCircle
 10
4318.862753488171
 20
3073.435389030746
 30
0.0
 40
1.5
100
AcDbArc
 50
59.99999999998847
 51
124.6230664747944
  0
LINE
  5
3D2C
330
74
100
AcDbEntity
  8
AM_3 ( Verdeckt )
  6
AM_ISO02W050x2
100
AcDbLine
 10
4319.612749634171
 20
3074.734429361547
 30
0.0
 11
4336.64568093387
 21
3064.900461890545
 31
0.0
  0
LINE
  5
3D2D
330
74
100
AcDbEntity
  8
AM_3 ( Verdeckt )
  6
AM_ISO02W050x2
100
AcDbLine
 10
4322.61275348817
 20
3079.930579559146
 30
0.0
 11
4339.64567747147
 21
3070.096616312246
 31
0.0
  0
ARC
  5
3D2E
330
74
100
AcDbEntity
  8
AM_3 ( Verdeckt )
  6
AM_ISO02W050x2
100
AcDbCircle
 10
4340.39567747147
 20
3071.395654417946
 30
0.0
 40
1.5
100
AcDbArc
 50
239.9999999999885
 51
338.7742896478201
  0
ARC
  5
3D2F
330
74
100
AcDbEntity
  8
AM_3 ( Verdeckt )
  6
AM_ISO02W050x2
100
AcDbCircle
 10
4335.895677471472
 20
3063.601425783846
 30
0.0
 40
1.5
100
AcDbArc
 50
321.2257103521907
 51
59.99999999998847
  0
ARC
  5
3D30
330
74
100
AcDbEntity
  8
AM_3 ( Verdeckt )
  6
AM_ISO02W050x2
100
AcDbCircle
 10
4335.813070539972
 20
3059.030316764546
 30
0.0
 40
1.5
100
AcDbArc
 50
134.8386313933699
 51
239.9999999999885
  0
ARC
  5
3D31
330
74
100
AcDbEntity
  8
AM_3 ( Verdeckt )
  6
AM_ISO02W050x2
100
AcDbCircle
 10
4312.896915125572
 20
3082.075919838046
 30
0.0
 40
31.0
100
AcDbArc
 50
314.8386310218003
 51
345.1613689781741
  0
ARC
  5
3D32
330
74
100
AcDbEntity
  8
AM_3 ( Verdeckt )
  6
AM_ISO02W050x2
100
AcDbCircle
 10
4344.31307053997
 20
3073.752748628846
 30
0.0
 40
1.5
100
AcDbArc
 50
59.99999999998847
 51
165.1613686065855
  0
CIRCLE
  5
3D6E
330
74
100
AcDbEntity
  8
AM_0 ( Kontur 0.5 )
100
AcDbCircle
 10
4312.896915125572
 20
3082.075919838046
 30
0.0
 40
57.4999991363975
  0
DIMENSION
  5
3E71
330
74
100
AcDbEntity
  8
AM_5 ( Bemassung)
100
AcDbDimension
280
     0
  2
*D59
 10
4425.231675617984
 20
3298.974075051847
 30
0.0
 11
4425.231675617983
 21
3796.51422870821
 31
0.0
 70
   160
  1
1000-500
 71
     5
 42
978.0337681019018
 73
     0
 74
     0
 75
     0
  3
AM_DIN$0
100
AcDbAlignedDimension
 13
4424.068896005588
 23
4277.007843153748
 33
0.0
 14
4333.464000500081
 24
3298.974075051847
 34
0.0
 50
90.00000000000003
100
AcDbRotatedDimension
1001
ACAD_DSTYLE_DIMINSPECT
1070
   396
1000
100%
1070
   395
1000

1070
   394
1070
    33
1070
   393
1070
     0
1001
ACAD
1000
DSTYLE
1002
{
1070
   147
1040
0.4
1070
    41
1040
1.0
1070
   140
1040
1.0
1070
    40
1040
20.0
1002
}
  0
ENDSEC
  0
SECTION
  2
OBJECTS
  0
DICTIONARY
  5
C
330
0
100
AcDbDictionary
281
     1
  3
ACAD_CIP_PREVIOUS_PRODUCT_INFO
350
3F42
  3
ACAD_COLOR
350
6A
  3
ACAD_DETAILVIEWSTYLE
350
3F35
  3
ACAD_FIELDLIST
350
3F5E
  3
ACAD_GROUP
350
D
  3
ACAD_LAYOUT
350
69
  3
ACAD_MATERIAL
350
10
  3
ACAD_MLEADERSTYLE
350
6D
  3
ACAD_MLINESTYLE
350
66
  3
ACAD_PLOTSETTINGS
350
68
  3
ACAD_PLOTSTYLENAME
350
E
  3
ACAD_SCALELIST
350
3A
  3
ACAD_SECTIONVIEWSTYLE
350
3F33
  3
ACAD_TABLESTYLE
350
6B
  3
ACAD_VISUALSTYLE
350
29
  3
ACDB_RECOMPOSE_DATA
350
40EA
  3
AcDbVariableDictionary
350
1C9
  3
AcmDictionary
350
166
  3
AMG
350
10C
  3
AMGSNAPSETTINGS
350
19B
  3
ASE_INDEX_DICTIONARY
350
3D6F
  0
DICTIONARY
  5
1B6
330
8
100
AcDbDictionary
280
     1
281
     1
  0
DICTIONARY
  5
256
330
2
100
AcDbDictionary
280
     1
281
     1
  3
ACAD_LAYERSTATES
360
40CC
  3
AMLAYER_GROUPCOLORS
360
257
  0
DICTIONARY
  5
1A2
330
5C
100
AcDbDictionary
280
     1
281
     1
  3
ADSK_XREC_LAYER_RECONCILED
360
D41
  0
DICTIONARY
  5
1A4
330
7A
100
AcDbDictionary
280
     1
281
     1
  3
ADSK_XREC_LAYER_RECONCILED
360
D42
  0
DICTIONARY
  5
2C7
330
27F
100
AcDbDictionary
280
     1
281
     1
  3
ADSK_XREC_LAYER_RECONCILED
360
D4D
  0
DICTIONARY
  5
2C9
330
2AA
100
AcDbDictionary
280
     1
281
     1
  3
ADSK_XREC_LAYER_RECONCILED
360
D4E
  0
DICTIONARY
  5
2CB
330
2AC
100
AcDbDictionary
280
     1
281
     1
  3
ADSK_XREC_LAYER_RECONCILED
360
D4F
  0
DICTIONARY
  5
2CF
330
2B1
100
AcDbDictionary
280
     1
281
     1
  3
ADSK_XREC_LAYER_RECONCILED
360
D51
  0
DICTIONARY
  5
A1F
330
9FC
100
AcDbDictionary
280
     1
281
     1
  3
ADSK_XREC_LAYER_RECONCILED
360
D54
  0
DICTIONARY
  5
13CA
330
13C9
100
AcDbDictionary
280
     1
281
     1
  0
DICTIONARY
  5
A88
330
74
100
AcDbDictionary
280
     1
281
     1
  3
ACAD_SORTENTS
360
A89
  0
DICTIONARY
  5
1CF1
330
1CE4
100
AcDbDictionary
280
     1
281
     1
  3
ACAD_DIMASSOC
360
1CF2
  0
XRECORD
  5
3F42
102
{ACAD_REACTORS
330
C
102
}
330
C
100
AcDbXrecord
280
     1
300
AMECH_PP
300
2016
300
PDSU_F_S
  0
DICTIONARY
  5
6A
102
{ACAD_REACTORS
330
C
102
}
330
C
100
AcDbDictionary
281
     1
  0
DICTIONARY
  5
3F35
102
{ACAD_REACTORS
330
C
102
}
330
C
100
AcDbDictionary
281
     1
  3
Metric50
350
3F36
  0
FIELDLIST
  5
3F5E
102
{ACAD_REACTORS
330
C
102
}
330
C
100
AcDbIdSet
 90
       16
330
3F5C
330
3F5D
330
3F5F
330
3F60
330
3F69
330
3F6A
330
3F6B
330
3F73
330
3F74
330
3F75
330
3F79
330
3F7A
330
3F7B
330
3F80
330
3F81
330
3F82
100
AcDbFieldList
  0
DICTIONARY
  5
D
102
{ACAD_REACTORS
330
C
102
}
330
C
100
AcDbDictionary
281
     1
  0
DICTIONARY
  5
69
102
{ACAD_REACTORS
330
C
102
}
330
C
100
AcDbDictionary
281
     1
  3
Layout1
350
73
  3
Model
350
77
  0
DICTIONARY
  5
10
102
{ACAD_REACTORS
330
C
102
}
330
C
100
AcDbDictionary
281
     1
  3
ByBlock
350
19
  3
ByLayer
350
11
  3
Global
350
21
  0
DICTIONARY
  5
6D
102
{ACAD_REACTORS
330
C
102
}
330
C
100
AcDbDictionary
281
     1
  3
Standard
350
6E
  0
DICTIONARY
  5
66
102
{ACAD_REACTORS
330
C
102
}
330
C
100
AcDbDictionary
281
     1
  3
Standard
350
67
  0
DICTIONARY
  5
68
102
{ACAD_REACTORS
330
C
102
}
330
C
100
AcDbDictionary
281
     1
  0
ACDBDICTIONARYWDFLT
  5
E
102
{ACAD_REACTORS
330
C
102
}
330
C
100
AcDbDictionary
281
     1
  3
Normal
350
F
100
AcDbDictionaryWithDefault
340
F
  0
DICTIONARY
  5
3A
102
{ACAD_REACTORS
330
C
102
}
330
C
100
AcDbDictionary
281
     1
  3
A0
350
3B
  3
A1
350
3C
  3
A2
350
3D
  3
A3
350
3E
  3
A4
350
3F
  3
A5
350
40
  3
A6
350
41
  3
A7
350
42
  3
A8
350
43
  3
A9
350
44
  3
B0
350
45
  3
B1
350
46
  3
B2
350
47
  3
B3
350
48
  3
B4
350
49
  3
B5
350
4A
  3
B6
350
4B
  3
B7
350
4C
  3
B8
350
4D
  3
B9
350
4E
  3
C0
350
4F
  3
C1
350
50
  3
C2
350
51
  3
C3
350
52
  3
C4
350
53
  3
C5
350
54
  3
C6
350
55
  3
C7
350
56
  3
C8
350
57
  3
C9
350
58
  3
D0
350
59
  3
D1
350
5A
  3
D2
350
5B
  0
DICTIONARY
  5
3F33
102
{ACAD_REACTORS
330
C
102
}
330
C
100
AcDbDictionary
281
     1
  3
Metric50
350
3F34
  0
DICTIONARY
  5
6B
102
{ACAD_REACTORS
330
C
102
}
330
C
100
AcDbDictionary
281
     1
  3
Standard
350
6C
  0
DICTIONARY
  5
29
102
{ACAD_REACTORS
330
C
102
}
330
C
100
AcDbDictionary
281
     1
  3
2dWireframe
350
2F
  3
3D Hidden
350
31
  3
3dWireframe
350
30
  3
Basic
350
2E
  3
Brighten
350
35
  3
ColorChange
350
39
  3
Conceptual
350
32
  3
Dim
350
34
  3
EdgeColorOff
350
3F32
  3
Facepattern
350
38
  3
Flat
350
2A
  3
FlatWithEdges
350
2B
  3
Gouraud
350
2C
  3
GouraudWithEdges
350
2D
  3
Hidden
350
3F2A
  3
JitterOff
350
3F30
  3
Linepattern
350
37
  3
OverhangOff
350
3F31
  3
Realistic
350
33
  3
Shaded
350
3F2F
  3
Shaded with edges
350
3F2E
  3
Shades of Gray
350
3F2B
  3
Sketchy
350
3F2C
  3
Thicken
350
36
  3
Wireframe
350
3F29
  3
X-Ray
350
3F2D
  0
XRECORD
  5
40EA
102
{ACAD_REACTORS
330
C
102
}
330
C
100
AcDbXrecord
280
     1
 90
        1
330
6C
330
3F34
330
3F36
  0
DICTIONARY
  5
1C9
102
{ACAD_REACTORS
330
C
102
}
330
C
100
AcDbDictionary
281
     1
  3
CANNOSCALE
350
1CC
  3
CMLEADERSTYLE
350
1CB
  3
CTABLESTYLE
350
1CA
  3
CVIEWDETAILSTYLE
350
40E1
  3
CVIEWSECTIONSTYLE
350
40E2
  3
DIMASSOC
350
1CF
  3
INDEXCTL
350
1CE
  3
LAYEREVAL
350
40E3
  3
LAYERNOTIFY
350
40E4
  3
LIGHTINGUNITS
350
2D3
  3
MSLTSCALE
350
2D2
  3
SORTENTS
350
1CD
  0
DICTIONARY
  5
166
102
{ACAD_REACTORS
330
C
102
}
330
C
100
AcDbDictionary
281
     1
  3
AcmBOM
350
2B6
  3
AcmStdDictionary
350
171
  3
AMDTSECTSYM_ARROWCOLOR
350
186
  0
DICTIONARY
  5
10C
102
{ACAD_REACTORS
330
C
102
}
330
C
100
AcDbDictionary
281
     1
  0
DICTIONARY
  5
19B
102
{ACAD_REACTORS
330
C
102
}
330
C
100
AcDbDictionary
281
     1
  0
DICTIONARY
  5
3D6F
102
{ACAD_REACTORS
330
C
102
}
330
C
100
AcDbDictionary
281
     1
  3
ASEBlockHierarchyIndexRecord
350
3D70
1001
DCO15
1040
1664597948.832
  0
DICTIONARY
  5
40CC
102
{ACAD_REACTORS
330
256
102
}
330
256
100
AcDbDictionary
281
     1
  0
DICTIONARY
  5
257
102
{ACAD_REACTORS
330
256
102
}
330
256
100
AcDbDictionary
280
     1
281
     1
  0
XRECORD
  5
D41
102
{ACAD_REACTORS
330
1A2
102
}
330
1A2
100
AcDbXrecord
280
     1
290
     1
  0
XRECORD
  5
D42
102
{ACAD_REACTORS
330
1A4
102
}
330
1A4
100
AcDbXrecord
280
     1
290
     1
  0
XRECORD
  5
D4D
102
{ACAD_REACTORS
330
2C7
102
}
330
2C7
100
AcDbXrecord
280
     1
290
     1
  0
XRECORD
  5
D4E
102
{ACAD_REACTORS
330
2C9
102
}
330
2C9
100
AcDbXrecord
280
     1
290
     1
  0
XRECORD
  5
D4F
102
{ACAD_REACTORS
330
2CB
102
}
330
2CB
100
AcDbXrecord
280
     1
290
     1
  0
XRECORD
  5
D51
102
{ACAD_REACTORS
330
2CF
102
}
330
2CF
100
AcDbXrecord
280
     1
290
     1
  0
XRECORD
  5
D54
102
{ACAD_REACTORS
330
A1F
102
}
330
A1F
100
AcDbXrecord
280
     1
290
     1
  0
SORTENTSTABLE
  5
A89
102
{ACAD_REACTORS
330
A88
102
}
330
A88
100
AcDbSortentsTable
330
74
331
183D
  5
183D
331
17E6
  5
17E6
331
182B
  5
182B
331
1BEA
  5
1BEA
331
17E7
  5
17E7
331
2716
  5
30F1
331
1BEB
  5
1BEB
331
1BEC
  5
1BEC
331
1BED
  5
1BED
331
1CE4
  5
1CE4
331
1BEE
  5
1BEE
331
19F3
  5
19F3
331
1970
  5
1970
331
1BEF
  5
1BEF
331
1BF0
  5
1BF0
331
1BF1
  5
1BF1
331
1BF2
  5
1BF2
331
1938
  5
1938
331
1BF3
  5
1BF3
331
1939
  5
1939
331
1BF4
  5
1BF4
331
193A
  5
193A
331
1BF5
  5
1BF5
331
193B
  5
193B
331
1BF6
  5
1BF6
331
1920
  5
1920
331
1BE3
  5
1BE3
331
1BE4
  5
1BE4
331
1BE5
  5
1BE5
331
193E
  5
193E
331
1992
  5
1992
331
1860
  5
1860
331
193F
  5
193F
331
1861
  5
1861
331
1994
  5
1994
331
1862
  5
1862
331
1863
  5
1863
331
1864
  5
1864
331
1865
  5
1865
331
180D
  5
180D
331
1866
  5
1866
331
180E
  5
180E
331
1853
  5
1853
331
1867
  5
1867
331
180F
  5
180F
331
1933
  5
1933
331
1868
  5
1868
331
1934
  5
1934
331
1869
  5
1869
331
186A
  5
186A
331
186B
  5
186B
331
1800
  5
1800
331
186C
  5
186C
331
17DA
  5
17DA
331
1801
  5
1801
331
186D
  5
186D
331
17DB
  5
17DB
331
1802
  5
1802
331
186E
  5
186E
331
17DC
  5
17DC
331
1821
  5
1821
331
17DD
  5
17DD
331
1822
  5
1822
331
17DE
  5
17DE
331
1823
  5
1823
331
17DF
  5
17DF
331
1810
  5
1810
331
184B
  5
184B
331
1824
  5
1824
331
17F3
  5
17F3
331
17E0
  5
17E0
331
184C
  5
184C
331
17F4
  5
17F4
331
1839
  5
1839
331
17E1
  5
17E1
331
17F5
  5
17F5
331
183A
  5
183A
331
183B
  5
183B
331
183C
  5
183C
331
1815
  5
1815
331
1C83
  5
1C83
  0
DIMASSOC
  5
1CF2
102
{ACAD_REACTORS
330
1CF1
102
}
330
1CF1
100
AcDbDimAssoc
330
1CE4
 90
        3
 70
     0
 71
     0
  1
AcDbOsnapPointRef
 72
     6
331
1863
 73
     0
 91
        0
 40
1.0
 10
0.0
 20
0.0
 30
0.0
332
1868
 74
     0
 92
        0
 75
     0
  1
AcDbOsnapPointRef
 72
     6
331
1863
 73
     0
 91
        0
 40
0.0
 10
0.0
 20
0.0
 30
0.0
332
1867
 74
     0
 92
        0
 75
     0
  0
ACDBDETAILVIEWSTYLE
  5
3F36
102
{ACAD_XDICTIONARY
360
40E8
102
}
102
{ACAD_REACTORS
330
3F35
330
3F50
330
3F52
330
3F54
102
}
330
3F35
100
AcDbModelDocViewStyle
 70
     0
  3
Metric50
290
     0
100
AcDbDetailViewStyle
 70
     0
 71
     0
 90
        3
 71
     1
340
5D
 62
   256
 40
5.0
340
0
 62
   256
 40
5.0
300

 40
0.0
280
     1
 71
     2
340
64
 90
       25
 62
   256
 71
     3
340
5D
 62
   256
 40
5.0
 90
        0
 40
15.0
 90
        1
300
%<\AcVar ViewDetailId>% (%<\AcVar ViewScale \f "%sn">%)
 71
     4
340
64
 90
       25
 62
   256
340
64
 90
       25
 62
   256
280
     0
  0
LAYOUT
  5
73
102
{ACAD_REACTORS
330
69
102
}
330
69
100
AcDbPlotSettings
  1

  2
\\OASE42\HP DesignJet 500 42+HPGL2 Card
  4

  6

 40
0.0
 41
0.0
 42
0.0
 43
0.0
 44
0.0
 45
0.0
 46
0.0
 47
0.0
 48
0.0
 49
0.0
140
0.0
141
0.0
142
1.0
143
1.0
 70
   688
 72
     0
 73
     0
 74
     5
  7
C:\Dokumente und Einstellungen\guzb562\Anwendungsdaten\Autodesk\Autodesk Mechanical Desktop 2008\R17.1\deu\Plot Styles\OASE.ctb
 75
    16
147
1.0
 76
     0
 77
     2
 78
   300
148
0.0
149
0.0
100
AcDbLayout
  1
Layout1
 70
     1
 71
     1
 10
0.0
 20
0.0
 11
12.0
 21
9.0
 12
0.0
 22
0.0
 32
0.0
 14
1.000000000000000E+20
 24
1.000000000000000E+20
 34
1.000000000000000E+20
 15
-1.000000000000000E+20
 25
-1.000000000000000E+20
 35
-1.000000000000000E+20
146
0.0
 13
0.0
 23
0.0
 33
0.0
 16
1.0
 26
0.0
 36
0.0
 17
0.0
 27
1.0
 37
0.0
 76
     0
330
70
  0
LAYOUT
  5
77
102
{ACAD_REACTORS
330
69
102
}
330
69
100
AcDbPlotSettings
  1

  2
HP DesignJet 500 42+HPGL2 Card.pc3
  4
User622
  6

 40
0.0
 41
0.0845947265625
 42
0.084716796875
 43
0.0
 44
841.0786743164063
 45
1189.05859375
 46
0.0
 47
0.0
 48
0.0
 49
0.0
140
0.0
141
0.0
142
1.0
143
8.825566186707652
 70
 11952
 72
     1
 73
     1
 74
     0
  7
C:\Dokumente und Einstellungen\guzb562\Anwendungsdaten\Autodesk\Autodesk Mechanical Desktop 2008\R17.1\deu\Plot Styles\OASE.ctb
 75
     0
147
0.1133071781282563
 76
     0
 77
     2
 78
   300
148
375.8176034259132
149
23.23337679269889
100
AcDbLayout
  1
Model
 70
     1
 71
     0
 10
0.0
 20
0.0
 11
12.0
 21
9.0
 12
0.0
 22
0.0
 32
0.0
 14
0.0
 24
0.0
 34
0.0
 15
0.0
 25
0.0
 35
0.0
146
0.0
 13
0.0
 23
0.0
 33
0.0
 16
1.0
 26
0.0
 36
0.0
 17
0.0
 27
1.0
 37
0.0
 76
     0
330
74
331
82
1001
ACAD_PSEXT
1000
HP DesignJet 500 42+HPGL2 Card.pc3
1000
HP DesignJet 500 42+HPGL2 Card
1000
\\oase42
1000

1070
     0
  0
MATERIAL
  5
19
102
{ACAD_XDICTIONARY
360
1A
102
}
102
{ACAD_REACTORS
330
10
102
}
330
10
100
AcDbMaterial
  1
ByBlock
 72
     0
 43
0.0208333333333333
 43
0.0
 43
0.0
 43
0.0
 43
0.0
 43
0.0208333333333333
 43
0.0
 43
0.0
 43
0.0
 43
0.0
 43
1.0
 43
0.0
 43
0.0
 43
0.0
 43
0.0
 43
1.0
 77
     0
 47
0.0208333333333333
 47
0.0
 47
0.0
 47
0.0
 47
0.0
 47
0.0208333333333333
 47
0.0
 47
0.0
 47
0.0
 47
0.0
 47
1.0
 47
0.0
 47
0.0
 47
0.0
 47
0.0
 47
1.0
171
     0
 49
0.0208333333333333
 49
0.0
 49
0.0
 49
0.0
 49
0.0
 49
0.0208333333333333
 49
0.0
 49
0.0
 49
0.0
 49
0.0
 49
1.0
 49
0.0
 49
0.0
 49
0.0
 49
0.0
 49
1.0
175
     0
142
0.0208333333333333
142
0.0
142
0.0
142
0.0
142
0.0
142
0.0208333333333333
142
0.0
142
0.0
142
0.0
142
0.0
142
1.0
142
0.0
142
0.0
142
0.0
142
0.0
142
1.0
179
     0
144
0.0208333333333333
144
0.0
144
0.0
144
0.0
144
0.0
144
0.0208333333333333
144
0.0
144
0.0
144
0.0
144
0.0
144
1.0
144
0.0
144
0.0
144
0.0
144
0.0
144
1.0
147
0.0208333333333333
147
0.0
147
0.0
147
0.0
147
0.0
147
0.0208333333333333
147
0.0
147
0.0
147
0.0
147
0.0
147
1.0
147
0.0
147
0.0
147
0.0
147
0.0
147
1.0
  0
MATERIAL
  5
11
102
{ACAD_XDICTIONARY
360
12
102
}
102
{ACAD_REACTORS
330
10
102
}
330
10
100
AcDbMaterial
  1
ByLayer
 72
     0
 43
0.0208333333333333
 43
0.0
 43
0.0
 43
0.0
 43
0.0
 43
0.0208333333333333
 43
0.0
 43
0.0
 43
0.0
 43
0.0
 43
1.0
 43
0.0
 43
0.0
 43
0.0
 43
0.0
 43
1.0
 77
     0
 47
0.0208333333333333
 47
0.0
 47
0.0
 47
0.0
 47
0.0
 47
0.0208333333333333
 47
0.0
 47
0.0
 47
0.0
 47
0.0
 47
1.0
 47
0.0
 47
0.0
 47
0.0
 47
0.0
 47
1.0
171
     0
 49
0.0208333333333333
 49
0.0
 49
0.0
 49
0.0
 49
0.0
 49
0.0208333333333333
 49
0.0
 49
0.0
 49
0.0
 49
0.0
 49
1.0
 49
0.0
 49
0.0
 49
0.0
 49
0.0
 49
1.0
175
     0
142
0.0208333333333333
142
0.0
142
0.0
142
0.0
142
0.0
142
0.0208333333333333
142
0.0
142
0.0
142
0.0
142
0.0
142
1.0
142
0.0
142
0.0
142
0.0
142
0.0
142
1.0
179
     0
144
0.0208333333333333
144
0.0
144
0.0
144
0.0
144
0.0
144
0.0208333333333333
144
0.0
144
0.0
144
0.0
144
0.0
144
1.0
144
0.0
144
0.0
144
0.0
144
0.0
144
1.0
147
0.0208333333333333
147
0.0
147
0.0
147
0.0
147
0.0
147
0.0208333333333333
147
0.0
147
0.0
147
0.0
147
0.0
147
1.0
147
0.0
147
0.0
147
0.0
147
0.0
147
1.0
  0
MATERIAL
  5
21
102
{ACAD_XDICTIONARY
360
22
102
}
102
{ACAD_REACTORS
330
10
102
}
330
10
100
AcDbMaterial
  1
Global
 72
     0
 43
0.0208333333333333
 43
0.0
 43
0.0
 43
0.0
 43
0.0
 43
0.0208333333333333
 43
0.0
 43
0.0
 43
0.0
 43
0.0
 43
1.0
 43
0.0
 43
0.0
 43
0.0
 43
0.0
 43
1.0
 77
     0
 47
0.0208333333333333
 47
0.0
 47
0.0
 47
0.0
 47
0.0
 47
0.0208333333333333
 47
0.0
 47
0.0
 47
0.0
 47
0.0
 47
1.0
 47
0.0
 47
0.0
 47
0.0
 47
0.0
 47
1.0
171
     0
 49
0.0208333333333333
 49
0.0
 49
0.0
 49
0.0
 49
0.0
 49
0.0208333333333333
 49
0.0
 49
0.0
 49
0.0
 49
0.0
 49
1.0
 49
0.0
 49
0.0
 49
0.0
 49
0.0
 49
1.0
175
     0
142
0.0208333333333333
142
0.0
142
0.0
142
0.0
142
0.0
142
0.0208333333333333
142
0.0
142
0.0
142
0.0
142
0.0
142
1.0
142
0.0
142
0.0
142
0.0
142
0.0
142
1.0
179
     0
144
0.0208333333333333
144
0.0
144
0.0
144
0.0
144
0.0
144
0.0208333333333333
144
0.0
144
0.0
144
0.0
144
0.0
144
1.0
144
0.0
144
0.0
144
0.0
144
0.0
144
1.0
147
0.0208333333333333
147
0.0
147
0.0
147
0.0
147
0.0
147
0.0208333333333333
147
0.0
147
0.0
147
0.0
147
0.0
147
1.0
147
0.0
147
0.0
147
0.0
147
0.0
147
1.0
  0
MLEADERSTYLE
  5
6E
102
{ACAD_REACTORS
330
6D
102
}
330
6D
100
AcDbMLeaderStyle
179
     2
170
     2
171
     1
172
     0
 90
        2
 40
0.0
 41
0.0
173
     1
 91
-1056964608
340
62
 92
       -2
290
     1
 42
0.09
291
     1
 43
0.36
  3
Standard
 44
0.18
300

342
5D
174
     1
178
     6
175
     1
176
     0
 93
-1056964608
 45
0.18
292
     0
297
     0
 46
0.18
 94
-1056964608
 47
1.0
 49
1.0
140
1.0
293
     1
141
0.0
294
     1
177
     0
142
1.0
295
     0
296
     0
143
0.125
271
     0
272
     9
273
     9
298
     0
  0
MLINESTYLE
  5
67
102
{ACAD_REACTORS
330
66
102
}
330
66
100
AcDbMlineStyle
  2
STANDARD
 70
     0
  3

 62
   256
 51
90.0
 52
90.0
 71
     2
 49
0.5
 62
   256
  6
BYLAYER
 49
-0.5
 62
   256
  6
BYLAYER
  0
ACDBPLACEHOLDER
  5
F
102
{ACAD_REACTORS
330
E
102
}
330
E
  0
SCALE
  5
3B
102
{ACAD_REACTORS
330
3A
102
}
330
3A
100
AcDbScale
 70
     0
300
1:1
140
1.0
141
1.0
290
     1
  0
SCALE
  5
3C
102
{ACAD_REACTORS
330
3A
102
}
330
3A
100
AcDbScale
 70
     0
300
1:2
140
1.0
141
2.0
290
     0
  0
SCALE
  5
3D
102
{ACAD_REACTORS
330
3A
102
}
330
3A
100
AcDbScale
 70
     0
300
1:4
140
1.0
141
4.0
290
     0
  0
SCALE
  5
3E
102
{ACAD_REACTORS
330
3A
102
}
330
3A
100
AcDbScale
 70
     0
300
1:5
140
1.0
141
5.0
290
     0
  0
SCALE
  5
3F
102
{ACAD_REACTORS
330
3A
102
}
330
3A
100
AcDbScale
 70
     0
300
1:8
140
1.0
141
8.0
290
     0
  0
SCALE
  5
40
102
{ACAD_REACTORS
330
3A
102
}
330
3A
100
AcDbScale
 70
     0
300
1:10
140
1.0
141
10.0
290
     0
  0
SCALE
  5
41
102
{ACAD_REACTORS
330
3A
102
}
330
3A
100
AcDbScale
 70
     0
300
1:16
140
1.0
141
16.0
290
     0
  0
SCALE
  5
42
102
{ACAD_REACTORS
330
3A
102
}
330
3A
100
AcDbScale
 70
     0
300
1:20
140
1.0
141
20.0
290
     0
  0
SCALE
  5
43
102
{ACAD_REACTORS
330
3A
102
}
330
3A
100
AcDbScale
 70
     0
300
1:30
140
1.0
141
30.0
290
     0
  0
SCALE
  5
44
102
{ACAD_REACTORS
330
3A
102
}
330
3A
100
AcDbScale
 70
     0
300
1:40
140
1.0
141
40.0
290
     0
  0
SCALE
  5
45
102
{ACAD_REACTORS
330
3A
102
}
330
3A
100
AcDbScale
 70
     0
300
1:50
140
1.0
141
50.0
290
     0
  0
SCALE
  5
46
102
{ACAD_REACTORS
330
3A
102
}
330
3A
100
AcDbScale
 70
     0
300
1:100
140
1.0
141
100.0
290
     0
  0
SCALE
  5
47
102
{ACAD_REACTORS
330
3A
102
}
330
3A
100
AcDbScale
 70
     0
300
2:1
140
2.0
141
1.0
290
     0
  0
SCALE
  5
48
102
{ACAD_REACTORS
330
3A
102
}
330
3A
100
AcDbScale
 70
     0
300
4:1
140
4.0
141
1.0
290
     0
  0
SCALE
  5
49
102
{ACAD_REACTORS
330
3A
102
}
330
3A
100
AcDbScale
 70
     0
300
8:1
140
8.0
141
1.0
290
     0
  0
SCALE
  5
4A
102
{ACAD_REACTORS
330
3A
102
}
330
3A
100
AcDbScale
 70
     0
300
10:1
140
10.0
141
1.0
290
     0
  0
SCALE
  5
4B
102
{ACAD_REACTORS
330
3A
102
}
330
3A
100
AcDbScale
 70
     0
300
100:1
140
100.0
141
1.0
290
     0
  0
SCALE
  5
4C
102
{ACAD_REACTORS
330
3A
102
}
330
3A
100
AcDbScale
 70
     0
300
1/128" = 1'-0"
140
0.0078125
141
12.0
290
     0
  0
SCALE
  5
4D
102
{ACAD_REACTORS
330
3A
102
}
330
3A
100
AcDbScale
 70
     0
300
1/64" = 1'-0"
140
0.015625
141
12.0
290
     0
  0
SCALE
  5
4E
102
{ACAD_REACTORS
330
3A
102
}
330
3A
100
AcDbScale
 70
     0
300
1/32" = 1'-0"
140
0.03125
141
12.0
290
     0
  0
SCALE
  5
4F
102
{ACAD_REACTORS
330
3A
102
}
330
3A
100
AcDbScale
 70
     0
300
1/16" = 1'-0"
140
0.0625
141
12.0
290
     0
  0
SCALE
  5
50
102
{ACAD_REACTORS
330
3A
102
}
330
3A
100
AcDbScale
 70
     0
300
3/32" = 1'-0"
140
0.09375
141
12.0
290
     0
  0
SCALE
  5
51
102
{ACAD_REACTORS
330
3A
102
}
330
3A
100
AcDbScale
 70
     0
300
1/8" = 1'-0"
140
0.125
141
12.0
290
     0
  0
SCALE
  5
52
102
{ACAD_REACTORS
330
3A
102
}
330
3A
100
AcDbScale
 70
     0
300
3/16" = 1'-0"
140
0.1875
141
12.0
290
     0
  0
SCALE
  5
53
102
{ACAD_REACTORS
330
3A
102
}
330
3A
100
AcDbScale
 70
     0
300
1/4" = 1'-0"
140
0.25
141
12.0
290
     0
  0
SCALE
  5
54
102
{ACAD_REACTORS
330
3A
102
}
330
3A
100
AcDbScale
 70
     0
300
3/8" = 1'-0"
140
0.375
141
12.0
290
     0
  0
SCALE
  5
55
102
{ACAD_REACTORS
330
3A
102
}
330
3A
100
AcDbScale
 70
     0
300
1/2" = 1'-0"
140
0.5
141
12.0
290
     0
  0
SCALE
  5
56
102
{ACAD_REACTORS
330
3A
102
}
330
3A
100
AcDbScale
 70
     0
300
3/4" = 1'-0"
140
0.75
141
12.0
290
     0
  0
SCALE
  5
57
102
{ACAD_REACTORS
330
3A
102
}
330
3A
100
AcDbScale
 70
     0
300
1" = 1'-0"
140
1.0
141
12.0
290
     0
  0
SCALE
  5
58
102
{ACAD_REACTORS
330
3A
102
}
330
3A
100
AcDbScale
 70
     0
300
1-1/2" = 1'-0"
140
1.5
141
12.0
290
     0
  0
SCALE
  5
59
102
{ACAD_REACTORS
330
3A
102
}
330
3A
100
AcDbScale
 70
     0
300
3" = 1'-0"
140
3.0
141
12.0
290
     0
  0
SCALE
  5
5A
102
{ACAD_REACTORS
330
3A
102
}
330
3A
100
AcDbScale
 70
     0
300
6" = 1'-0"
140
6.0
141
12.0
290
     0
  0
SCALE
  5
5B
102
{ACAD_REACTORS
330
3A
102
}
330
3A
100
AcDbScale
 70
     0
300
1'-0" = 1'-0"
140
12.0
141
12.0
290
     0
  0
ACDBSECTIONVIEWSTYLE
  5
3F34
102
{ACAD_XDICTIONARY
360
40E6
102
}
102
{ACAD_REACTORS
330
3F33
330
3F4F
330
3F51
330
3F53
102
}
330
3F33
100
AcDbModelDocViewStyle
 70
     0
  3
Metric50
290
     0
100
AcDbSectionViewStyle
 70
     0
 71
     0
 90
      102
 71
     1
340
5D
 62
   256
 40
5.0
340
0
340
0
 62
   256
 40
5.0
300
I, O, Q, S, X, Z
 40
10.0
 90
        0
 40
2.5
 90
        0
 71
     2
340
64
 90
       25
 62
   256
340
64
 90
       50
 62
   256
 40
5.0
 40
2.5
 40
5.0
 71
     3
340
5D
 62
   256
 40
5.0
 90
        0
 40
15.0
 90
        1
300
%<\AcVar ViewSectionStartId>%-%<\AcVar ViewSectionEndId>% (%<\AcVar ViewScale \f "%sn">%)
 71
     4
 62
   256
 62
   257
300
ANSI31
 40
1.0
 90
        0
290
     0
290
     0
 90
        6
 40
0.0
 40
1.570796326794896
 40
0.2617993877991494
 40
1.308996938995747
 40
-0.2617993877991494
 40
1.832595714594046
  0
TABLESTYLE
  5
6C
102
{ACAD_XDICTIONARY
360
1B2
102
}
102
{ACAD_REACTORS
330
6B
102
}
330
6B
100
AcDbTableStyle
280
     0
  3
Standard
 70
     0
 71
     0
 40
0.06
 41
0.06
280
     0
281
     0
  7
STANDARD
140
0.18
170
     2
 62
     0
 63
     7
283
     0
 90
      512
 91
        0
  1

274
    -2
284
     1
 64
     0
275
    -2
285
     1
 65
     0
276
    -2
286
     1
 66
     0
277
    -2
287
     1
 67
     0
278
    -2
288
     1
 68
     0
279
    -2
289
     1
 69
     0
  7
STANDARD
140
0.25
170
     5
 62
     0
 63
     7
283
     0
 90
      512
 91
        0
  1

274
    -2
284
     1
 64
     0
275
    -2
285
     1
 65
     0
276
    -2
286
     1
 66
     0
277
    -2
287
     1
 67
     0
278
    -2
288
     1
 68
     0
279
    -2
289
     1
 69
     0
  7
STANDARD
140
0.18
170
     5
 62
     0
 63
     7
283
     0
 90
      512
 91
        0
  1

274
    -2
284
     1
 64
     0
275
    -2
285
     1
 65
     0
276
    -2
286
     1
 66
     0
277
    -2
287
     1
 67
     0
278
    -2
288
     1
 68
     0
279
    -2
289
     1
 69
     0
  0
VISUALSTYLE
  5
2F
102
{ACAD_REACTORS
330
29
102
}
330
29
100
AcDbVisualStyle
  2
2dWireframe
 70
     4
177
     3
291
     0
 70
    58
 90
        0
176
     1
 90
        2
176
     1
 90
        0
176
     1
 90
        0
176
     1
 40
0.6
176
     1
 40
30.0
176
     1
 62
     7
176
     1
 90
        1
176
     1
 90
        4
176
     1
 62
     7
176
     1
 62
   257
176
     1
 90
        1
176
     1
 90
        1
176
     1
 40
1.0
176
     1
 90
        0
176
     1
 62
   257
176
     1
 40
1.0
176
     1
 90
        1
176
     1
 90
        6
176
     1
 90
        2
176
     1
 62
     7
176
     1
 90
        5
176
     1
 90
        0
176
     1
 90
        0
176
     1
290
     0
176
     1
 90
        1
176
     1
 40
0.0
176
     1
 90
        0
176
     1
290
     1
176
     1
290
     1
176
     1
290
     0
176
     1
290
     0
176
     1
290
     0
176
     1
290
     0
176
     1
290
     0
176
     1
290
     0
176
     1
290
     0
176
     1
 90
       50
176
     1
 40
0.0
176
     1
 40
1.0
176
     1
 90
        0
176
     1
 62
    18
420
        0
176
     1
 90
       50
176
     1
 90
        3
176
     1
 62
     5
420
      255
176
     1
290
     0
176
     1
 90
       50
176
     1
 90
       50
176
     1
 90
       50
176
     1
290
     0
176
     1
 90
       50
176
     1
 62
   256
176
     0
 40
1.0
176
     0
 90
        2
176
     1
  1
strokes_ogs.tif
176
     1
290
     0
176
     1
 40
1.0
176
     1
 40
1.0
176
     1
1001
ACAD
1000
AcDbSavedByObjectVersion
1070
     0
1000
AcDbSavedByObjectVersion
1070
     0
  0
VISUALSTYLE
  5
31
102
{ACAD_REACTORS
330
29
102
}
330
29
100
AcDbVisualStyle
  2
3D Hidden
 70
     6
177
     3
291
     0
 70
    58
 90
        1
176
     1
 90
        2
176
     1
 90
        2
176
     1
 90
        0
176
     1
 40
0.6
176
     1
 40
30.0
176
     1
 62
     7
176
     1
 90
        2
176
     1
 90
        2
176
     1
 62
     7
176
     1
 62
   257
176
     1
 90
        2
176
     1
 90
        1
176
     1
 40
40.0
176
     1
 90
        0
176
     1
 62
   257
176
     1
 40
1.0
176
     1
 90
        1
176
     1
 90
        6
176
     1
 90
        2
176
     1
 62
     7
176
     1
 90
        3
176
     1
 90
        0
176
     1
 90
        0
176
     1
290
     0
176
     1
 90
        1
176
     1
 40
0.0
176
     1
 90
        0
176
     1
290
     0
176
     1
290
     1
176
     1
290
     1
176
     1
290
     0
176
     1
290
     0
176
     1
290
     0
176
     1
290
     0
176
     1
290
     0
176
     1
290
     0
176
     1
 90
       50
176
     1
 40
0.0
176
     1
 40
1.0
176
     1
 90
        0
176
     1
 62
    18
420
        0
176
     1
 90
       50
176
     1
 90
        3
176
     1
 62
     5
420
      255
176
     1
290
     0
176
     1
 90
       50
176
     1
 90
       50
176
     1
 90
       50
176
     1
290
     0
176
     1
 90
       50
176
     1
 62
   256
176
     0
 40
1.0
176
     0
 90
        2
176
     1
  1
strokes_ogs.tif
176
     1
290
     0
176
     1
 40
1.0
176
     1
 40
1.0
176
     1
1001
ACAD
1000
AcDbSavedByObjectVersion
1070
     0
1000
AcDbSavedByObjectVersion
1070
     0
  0
VISUALSTYLE
  5
30
102
{ACAD_REACTORS
330
29
102
}
330
29
100
AcDbVisualStyle
  2
3dWireframe
 70
     5
177
     3
291
     0
 70
    58
 90
        0
176
     1
 90
        2
176
     1
 90
        0
176
     1
 90
        0
176
     1
 40
0.6
176
     1
 40
30.0
176
     1
 62
     7
176
     1
 90
        1
176
     1
 90
        4
176
     1
 62
     7
176
     1
 62
   257
176
     1
 90
        1
176
     1
 90
        1
176
     1
 40
1.0
176
     1
 90
        0
176
     1
 62
   257
176
     1
 40
1.0
176
     1
 90
        1
176
     1
 90
        6
176
     1
 90
        2
176
     1
 62
     7
176
     1
 90
        5
176
     1
 90
        0
176
     1
 90
        0
176
     1
290
     0
176
     1
 90
        1
176
     1
 40
0.0
176
     1
 90
        0
176
     1
290
     0
176
     1
290
     1
176
     1
290
     1
176
     1
290
     0
176
     1
290
     0
176
     1
290
     0
176
     1
290
     0
176
     1
290
     0
176
     1
290
     0
176
     1
 90
       50
176
     1
 40
0.0
176
     1
 40
1.0
176
     1
 90
        0
176
     1
 62
    18
420
        0
176
     1
 90
       50
176
     1
 90
        3
176
     1
 62
     5
420
      255
176
     1
290
     0
176
     1
 90
       50
176
     1
 90
       50
176
     1
 90
       50
176
     1
290
     0
176
     1
 90
       50
176
     1
 62
   256
176
     0
 40
1.0
176
     0
 90
        2
176
     1
  1
strokes_ogs.tif
176
     1
290
     0
176
     1
 40
1.0
176
     1
 40
1.0
176
     1
1001
ACAD
1000
AcDbSavedByObjectVersion
1070
     0
1000
AcDbSavedByObjectVersion
1070
     0
  0
VISUALSTYLE
  5
2E
102
{ACAD_REACTORS
330
29
102
}
330
29
100
AcDbVisualStyle
  2
Basic
 70
     7
177
     3
291
     1
 70
    58
 90
        1
176
     1
 90
        0
176
     1
 90
        1
176
     1
 90
        0
176
     1
 40
0.6
176
     1
 40
30.0
176
     1
 62
     7
176
     1
 90
        0
176
     1
 90
        4
176
     1
 62
     7
176
     1
 62
   257
176
     1
 90
        1
176
     1
 90
        1
176
     1
 40
1.0
176
     1
 90
        8
176
     1
 62
     7
176
     1
 40
1.0
176
     1
 90
        1
176
     1
 90
        6
176
     1
 90
        2
176
     1
 62
     7
176
     1
 90
        5
176
     1
 90
        0
176
     1
 90
        0
176
     1
290
     0
176
     1
 90
        1
176
     1
 40
0.0
176
     1
 90
        0
176
     1
290
     0
176
     1
290
     1
176
     1
290
     1
176
     1
290
     0
176
     1
290
     0
176
     1
290
     0
176
     1
290
     0
176
     1
290
     0
176
     1
290
     0
176
     1
 90
       50
176
     1
 40
0.0
176
     1
 40
1.0
176
     1
 90
        0
176
     1
 62
    18
420
        0
176
     1
 90
       50
176
     1
 90
        3
176
     1
 62
     5
420
      255
176
     1
290
     0
176
     1
 90
       50
176
     1
 90
       50
176
     1
 90
       50
176
     1
290
     0
176
     1
 90
       50
176
     1
 62
   256
176
     0
 40
1.0
176
     0
 90
        2
176
     1
  1
strokes_ogs.tif
176
     1
290
     0
176
     1
 40
1.0
176
     1
 40
1.0
176
     1
1001
ACAD
1000
AcDbSavedByObjectVersion
1070
     0
1000
AcDbSavedByObjectVersion
1070
     0
  0
VISUALSTYLE
  5
35
102
{ACAD_REACTORS
330
29
102
}
330
29
100
AcDbVisualStyle
  2
Brighten
 70
    12
177
     3
291
     1
 70
    58
 90
        2
176
     1
 90
        2
176
     1
 90
        0
176
     1
 90
        0
176
     1
 40
0.6
176
     1
 40
30.0
176
     1
 62
     7
176
     1
 90
        1
176
     1
 90
        4
176
     1
 62
     7
176
     1
 62
   257
176
     1
 90
        1
176
     1
 90
        1
176
     1
 40
1.0
176
     1
 90
        8
176
     1
 62
     7
176
     1
 40
1.0
176
     1
 90
        1
176
     1
 90
        6
176
     1
 90
        2
176
     1
 62
     7
176
     1
 90
        5
176
     1
 90
        0
176
     1
 90
        0
176
     1
290
     0
176
     1
 90
        1
176
     1
 40
50.0
176
     1
 90
        0
176
     1
290
     0
176
     1
290
     1
176
     1
290
     1
176
     1
290
     0
176
     1
290
     0
176
     1
290
     0
176
     1
290
     0
176
     1
290
     0
176
     1
290
     0
176
     1
 90
       50
176
     1
 40
0.0
176
     1
 40
1.0
176
     1
 90
        0
176
     1
 62
    18
420
        0
176
     1
 90
       50
176
     1
 90
        3
176
     1
 62
     5
420
      255
176
     1
290
     0
176
     1
 90
       50
176
     1
 90
       50
176
     1
 90
       50
176
     1
290
     0
176
     1
 90
       50
176
     1
 62
   256
176
     0
 40
1.0
176
     0
 90
        2
176
     1
  1
strokes_ogs.tif
176
     1
290
     0
176
     1
 40
1.0
176
     1
 40
1.0
176
     1
1001
ACAD
1000
AcDbSavedByObjectVersion
1070
     0
1000
AcDbSavedByObjectVersion
1070
     0
  0
VISUALSTYLE
  5
39
102
{ACAD_REACTORS
330
29
102
}
330
29
100
AcDbVisualStyle
  2
ColorChange
 70
    16
177
     3
291
     1
 70
    58
 90
        2
176
     1
 90
        2
176
     1
 90
        3
176
     1
 90
        0
176
     1
 40
0.6
176
     1
 40
30.0
176
     1
 62
     8
176
     1
 90
        1
176
     1
 90
        4
176
     1
 62
     7
176
     1
 62
   257
176
     1
 90
        1
176
     1
 90
        1
176
     1
 40
1.0
176
     1
 90
        8
176
     1
 62
     8
176
     1
 40
1.0
176
     1
 90
        1
176
     1
 90
        6
176
     1
 90
        2
176
     1
 62
     7
176
     1
 90
        5
176
     1
 90
        0
176
     1
 90
        0
176
     1
290
     0
176
     1
 90
        1
176
     1
 40
0.0
176
     1
 90
        0
176
     1
290
     0
176
     1
290
     1
176
     1
290
     1
176
     1
290
     0
176
     1
290
     0
176
     1
290
     0
176
     1
290
     0
176
     1
290
     0
176
     1
290
     0
176
     1
 90
       50
176
     1
 40
0.0
176
     1
 40
1.0
176
     1
 90
        0
176
     1
 62
    18
420
        0
176
     1
 90
       50
176
     1
 90
        3
176
     1
 62
     5
420
      255
176
     1
290
     0
176
     1
 90
       50
176
     1
 90
       50
176
     1
 90
       50
176
     1
290
     0
176
     1
 90
       50
176
     1
 62
   256
176
     0
 40
1.0
176
     0
 90
        2
176
     1
  1
strokes_ogs.tif
176
     1
290
     0
176
     1
 40
1.0
176
     1
 40
1.0
176
     1
1001
ACAD
1000
AcDbSavedByObjectVersion
1070
     0
1000
AcDbSavedByObjectVersion
1070
     0
  0
VISUALSTYLE
  5
32
102
{ACAD_REACTORS
330
29
102
}
330
29
100
AcDbVisualStyle
  2
Conceptual
 70
     9
177
     3
291
     0
 70
    58
 90
        3
176
     1
 90
        2
176
     1
 90
        0
176
     1
 90
        0
176
     1
 40
0.6
176
     1
 40
30.0
176
     1
 62
     7
176
     1
 90
        2
176
     1
 90
        2
176
     1
 62
     7
176
     1
 62
   257
176
     1
 90
        1
176
     1
 90
        1
176
     1
 40
40.0
176
     1
 90
        8
176
     1
 62
     7
176
     1
 40
1.0
176
     1
 90
        1
176
     1
 90
        6
176
     1
 90
        2
176
     1
 62
     7
176
     1
 90
        3
176
     1
 90
        0
176
     1
 90
        0
176
     1
290
     0
176
     1
 90
        1
176
     1
 40
0.0
176
     1
 90
        0
176
     1
290
     0
176
     1
290
     1
176
     1
290
     1
176
     1
290
     0
176
     1
290
     0
176
     1
290
     0
176
     1
290
     0
176
     1
290
     0
176
     1
290
     0
176
     1
 90
       50
176
     1
 40
0.0
176
     1
 40
1.0
176
     1
 90
        0
176
     1
 62
    18
420
        0
176
     1
 90
       50
176
     1
 90
        3
176
     1
 62
     5
420
      255
176
     1
290
     0
176
     1
 90
       50
176
     1
 90
       50
176
     1
 90
       50
176
     1
290
     0
176
     1
 90
       50
176
     1
 62
   256
176
     0
 40
1.0
176
     0
 90
        2
176
     1
  1
strokes_ogs.tif
176
     1
290
     0
176
     1
 40
1.0
176
     1
 40
1.0
176
     1
1001
ACAD
1000
AcDbSavedByObjectVersion
1070
     0
1000
AcDbSavedByObjectVersion
1070
     0
  0
VISUALSTYLE
  5
34
102
{ACAD_REACTORS
330
29
102
}
330
29
100
AcDbVisualStyle
  2
Dim
 70
    11
177
     3
291
     1
 70
    58
 90
        2
176
     1
 90
        2
176
     1
 90
        0
176
     1
 90
        0
176
     1
 40
0.6
176
     1
 40
30.0
176
     1
 62
     7
176
     1
 90
        1
176
     1
 90
        4
176
     1
 62
     7
176
     1
 62
   257
176
     1
 90
        1
176
     1
 90
        1
176
     1
 40
1.0
176
     1
 90
        8
176
     1
 62
     7
176
     1
 40
1.0
176
     1
 90
        1
176
     1
 90
        6
176
     1
 90
        2
176
     1
 62
     7
176
     1
 90
        5
176
     1
 90
        0
176
     1
 90
        0
176
     1
290
     0
176
     1
 90
        1
176
     1
 40
-50.0
176
     1
 90
        0
176
     1
290
     0
176
     1
290
     1
176
     1
290
     1
176
     1
290
     0
176
     1
290
     0
176
     1
290
     0
176
     1
290
     0
176
     1
290
     0
176
     1
290
     0
176
     1
 90
       50
176
     1
 40
0.0
176
     1
 40
1.0
176
     1
 90
        0
176
     1
 62
    18
420
        0
176
     1
 90
       50
176
     1
 90
        3
176
     1
 62
     5
420
      255
176
     1
290
     0
176
     1
 90
       50
176
     1
 90
       50
176
     1
 90
       50
176
     1
290
     0
176
     1
 90
       50
176
     1
 62
   256
176
     0
 40
1.0
176
     0
 90
        2
176
     1
  1
strokes_ogs.tif
176
     1
290
     0
176
     1
 40
1.0
176
     1
 40
1.0
176
     1
1001
ACAD
1000
AcDbSavedByObjectVersion
1070
     0
1000
AcDbSavedByObjectVersion
1070
     0
  0
VISUALSTYLE
  5
3F32
102
{ACAD_REACTORS
330
29
102
}
330
29
100
AcDbVisualStyle
  2
EdgeColorOff
 70
    22
177
     3
291
     1
 70
    58
 90
        2
176
     0
 90
        2
176
     0
 90
        0
176
     0
 90
        0
176
     0
 40
0.6
176
     0
 40
30.0
176
     0
 62
     7
420
 16777215
176
     0
 90
        1
176
     0
 90
        4
176
     0
 62
     7
176
     0
 62
   257
176
     0
 90
        1
176
     0
 90
        1
176
     0
 40
1.0
176
     0
 90
        8
176
     2
 62
     7
176
     0
 40
1.0
176
     0
 90
        1
176
     0
 90
        6
176
     0
 90
        2
176
     0
 62
     7
176
     0
 90
        5
176
     0
 90
        0
176
     0
 90
        0
176
     0
290
     0
176
     0
 90
        1
176
     0
 40
0.0
176
     0
 90
        0
176
     0
290
     0
176
     0
290
     1
176
     0
290
     1
176
     0
290
     0
176
     0
290
     0
176
     0
290
     0
176
     0
290
     0
176
     0
290
     0
176
     0
290
     0
176
     0
 90
       50
176
     0
 40
0.0
176
     0
 40
1.0
176
     0
 90
        0
176
     0
 62
    18
420
        0
176
     0
 90
       50
176
     0
 90
        3
176
     0
 62
     5
420
      255
176
     0
290
     0
176
     0
 90
       50
176
     0
 90
       50
176
     0
 90
       50
176
     0
290
     0
176
     0
 90
       50
176
     0
 62
   256
176
     0
 40
1.0
176
     0
 90
        2
176
     0
  1
strokes_ogs.tif
176
     0
290
     0
176
     0
 40
1.0
176
     0
 40
1.0
176
     0
  0
VISUALSTYLE
  5
38
102
{ACAD_REACTORS
330
29
102
}
330
29
100
AcDbVisualStyle
  2
Facepattern
 70
    15
177
     3
291
     1
 70
    58
 90
        2
176
     1
 90
        2
176
     1
 90
        0
176
     1
 90
        0
176
     1
 40
0.6
176
     1
 40
30.0
176
     1
 62
     7
176
     1
 90
        1
176
     1
 90
        4
176
     1
 62
     7
176
     1
 62
   257
176
     1
 90
        1
176
     1
 90
        1
176
     1
 40
1.0
176
     1
 90
        8
176
     1
 62
     7
176
     1
 40
1.0
176
     1
 90
        1
176
     1
 90
        6
176
     1
 90
        2
176
     1
 62
     7
176
     1
 90
        5
176
     1
 90
        0
176
     1
 90
        0
176
     1
290
     0
176
     1
 90
        1
176
     1
 40
0.0
176
     1
 90
        0
176
     1
290
     0
176
     1
290
     1
176
     1
290
     1
176
     1
290
     0
176
     1
290
     0
176
     1
290
     0
176
     1
290
     0
176
     1
290
     0
176
     1
290
     0
176
     1
 90
       50
176
     1
 40
0.0
176
     1
 40
1.0
176
     1
 90
        0
176
     1
 62
    18
420
        0
176
     1
 90
       50
176
     1
 90
        3
176
     1
 62
     5
420
      255
176
     1
290
     0
176
     1
 90
       50
176
     1
 90
       50
176
     1
 90
       50
176
     1
290
     0
176
     1
 90
       50
176
     1
 62
   256
176
     0
 40
1.0
176
     0
 90
        2
176
     1
  1
strokes_ogs.tif
176
     1
290
     0
176
     1
 40
1.0
176
     1
 40
1.0
176
     1
1001
ACAD
1000
AcDbSavedByObjectVersion
1070
     0
1000
AcDbSavedByObjectVersion
1070
     0
  0
VISUALSTYLE
  5
2A
102
{ACAD_REACTORS
330
29
102
}
330
29
100
AcDbVisualStyle
  2
Flat
 70
     0
177
     3
291
     1
 70
    58
 90
        2
176
     1
 90
        1
176
     1
 90
        1
176
     1
 90
        2
176
     1
 40
0.6
176
     1
 40
30.0
176
     1
 62
     7
176
     1
 90
        0
176
     1
 90
        4
176
     1
 62
     7
176
     1
 62
   257
176
     1
 90
        1
176
     1
 90
        1
176
     1
 40
1.0
176
     1
 90
        8
176
     1
 62
     7
176
     1
 40
1.0
176
     1
 90
        1
176
     1
 90
        6
176
     1
 90
        2
176
     1
 62
     7
176
     1
 90
        5
176
     1
 90
        0
176
     1
 90
        0
176
     1
290
     0
176
     1
 90
       13
176
     1
 40
0.0
176
     1
 90
        0
176
     1
290
     0
176
     1
290
     1
176
     1
290
     1
176
     1
290
     0
176
     1
290
     0
176
     1
290
     0
176
     1
290
     0
176
     1
290
     0
176
     1
290
     0
176
     1
 90
       50
176
     1
 40
0.0
176
     1
 40
1.0
176
     1
 90
        0
176
     1
 62
    18
420
        0
176
     1
 90
       50
176
     1
 90
        3
176
     1
 62
     5
420
      255
176
     1
290
     0
176
     1
 90
       50
176
     1
 90
       50
176
     1
 90
       50
176
     1
290
     0
176
     1
 90
       50
176
     1
 62
   256
176
     0
 40
1.0
176
     0
 90
        2
176
     1
  1
strokes_ogs.tif
176
     1
290
     0
176
     1
 40
1.0
176
     1
 40
1.0
176
     1
1001
ACAD
1000
AcDbSavedByObjectVersion
1070
     0
1000
AcDbSavedByObjectVersion
1070
     0
  0
VISUALSTYLE
  5
2B
102
{ACAD_REACTORS
330
29
102
}
330
29
100
AcDbVisualStyle
  2
FlatWithEdges
 70
     1
177
     3
291
     1
 70
    58
 90
        2
176
     1
 90
        1
176
     1
 90
        1
176
     1
 90
        2
176
     1
 40
0.6
176
     1
 40
30.0
176
     1
 62
     7
176
     1
 90
        1
176
     1
 90
        4
176
     1
 62
     7
176
     1
 62
   257
176
     1
 90
        1
176
     1
 90
        1
176
     1
 40
1.0
176
     1
 90
        0
176
     1
 62
   257
176
     1
 40
1.0
176
     1
 90
        1
176
     1
 90
        6
176
     1
 90
        2
176
     1
 62
     7
176
     1
 90
        5
176
     1
 90
        0
176
     1
 90
        0
176
     1
290
     0
176
     1
 90
       13
176
     1
 40
0.0
176
     1
 90
        0
176
     1
290
     0
176
     1
290
     1
176
     1
290
     1
176
     1
290
     0
176
     1
290
     0
176
     1
290
     0
176
     1
290
     0
176
     1
290
     0
176
     1
290
     0
176
     1
 90
       50
176
     1
 40
0.0
176
     1
 40
1.0
176
     1
 90
        0
176
     1
 62
    18
420
        0
176
     1
 90
       50
176
     1
 90
        3
176
     1
 62
     5
420
      255
176
     1
290
     0
176
     1
 90
       50
176
     1
 90
       50
176
     1
 90
       50
176
     1
290
     0
176
     1
 90
       50
176
     1
 62
   256
176
     0
 40
1.0
176
     0
 90
        2
176
     1
  1
strokes_ogs.tif
176
     1
290
     0
176
     1
 40
1.0
176
     1
 40
1.0
176
     1
1001
ACAD
1000
AcDbSavedByObjectVersion
1070
     0
1000
AcDbSavedByObjectVersion
1070
     0
  0
VISUALSTYLE
  5
2C
102
{ACAD_REACTORS
330
29
102
}
330
29
100
AcDbVisualStyle
  2
Gouraud
 70
     2
177
     3
291
     1
 70
    58
 90
        2
176
     1
 90
        2
176
     1
 90
        1
176
     1
 90
        2
176
     1
 40
0.6
176
     1
 40
30.0
176
     1
 62
     7
176
     1
 90
        0
176
     1
 90
        4
176
     1
 62
     7
176
     1
 62
   257
176
     1
 90
        1
176
     1
 90
        1
176
     1
 40
1.0
176
     1
 90
        0
176
     1
 62
     7
176
     1
 40
1.0
176
     1
 90
        1
176
     1
 90
        6
176
     1
 90
        2
176
     1
 62
     7
176
     1
 90
        5
176
     1
 90
        0
176
     1
 90
        0
176
     1
290
     0
176
     1
 90
       13
176
     1
 40
0.0
176
     1
 90
        0
176
     1
290
     0
176
     1
290
     1
176
     1
290
     1
176
     1
290
     0
176
     1
290
     0
176
     1
290
     0
176
     1
290
     0
176
     1
290
     0
176
     1
290
     0
176
     1
 90
       50
176
     1
 40
0.0
176
     1
 40
1.0
176
     1
 90
        0
176
     1
 62
    18
420
        0
176
     1
 90
       50
176
     1
 90
        3
176
     1
 62
     5
420
      255
176
     1
290
     0
176
     1
 90
       50
176
     1
 90
       50
176
     1
 90
       50
176
     1
290
     0
176
     1
 90
       50
176
     1
 62
   256
176
     0
 40
1.0
176
     0
 90
        2
176
     1
  1
strokes_ogs.tif
176
     1
290
     0
176
     1
 40
1.0
176
     1
 40
1.0
176
     1
1001
ACAD
1000
AcDbSavedByObjectVersion
1070
     0
1000
AcDbSavedByObjectVersion
1070
     0
  0
VISUALSTYLE
  5
2D
102
{ACAD_REACTORS
330
29
102
}
330
29
100
AcDbVisualStyle
  2
GouraudWithEdges
 70
     3
177
     3
291
     1
 70
    58
 90
        2
176
     1
 90
        2
176
     1
 90
        1
176
     1
 90
        2
176
     1
 40
0.6
176
     1
 40
30.0
176
     1
 62
     7
176
     1
 90
        1
176
     1
 90
        4
176
     1
 62
     7
176
     1
 62
   257
176
     1
 90
        1
176
     1
 90
        1
176
     1
 40
1.0
176
     1
 90
        0
176
     1
 62
   257
176
     1
 40
1.0
176
     1
 90
        1
176
     1
 90
        6
176
     1
 90
        2
176
     1
 62
     7
176
     1
 90
        5
176
     1
 90
        0
176
     1
 90
        0
176
     1
290
     0
176
     1
 90
       13
176
     1
 40
0.0
176
     1
 90
        0
176
     1
290
     0
176
     1
290
     1
176
     1
290
     1
176
     1
290
     0
176
     1
290
     0
176
     1
290
     0
176
     1
290
     0
176
     1
290
     0
176
     1
290
     0
176
     1
 90
       50
176
     1
 40
0.0
176
     1
 40
1.0
176
     1
 90
        0
176
     1
 62
    18
420
        0
176
     1
 90
       50
176
     1
 90
        3
176
     1
 62
     5
420
      255
176
     1
290
     0
176
     1
 90
       50
176
     1
 90
       50
176
     1
 90
       50
176
     1
290
     0
176
     1
 90
       50
176
     1
 62
   256
176
     0
 40
1.0
176
     0
 90
        2
176
     1
  1
strokes_ogs.tif
176
     1
290
     0
176
     1
 40
1.0
176
     1
 40
1.0
176
     1
1001
ACAD
1000
AcDbSavedByObjectVersion
1070
     0
1000
AcDbSavedByObjectVersion
1070
     0
  0
VISUALSTYLE
  5
3F2A
102
{ACAD_REACTORS
330
29
102
}
330
29
100
AcDbVisualStyle
  2
Hidden
 70
     6
177
     3
291
     0
 70
    58
 90
        1
176
     1
 90
        2
176
     1
 90
        2
176
     1
 90
        0
176
     1
 40
0.6
176
     1
 40
30.0
176
     1
 62
     7
420
 16777215
176
     1
 90
        2
176
     1
 90
        2
176
     1
 62
     7
176
     1
 62
   257
176
     1
 90
        2
176
     1
 90
        1
176
     1
 40
40.0
176
     1
 90
        0
176
     1
 62
   257
176
     1
 40
1.0
176
     1
 90
        1
176
     1
 90
        6
176
     1
 90
        2
176
     1
 62
     7
176
     1
 90
        3
176
     1
 90
        0
176
     1
 90
        0
176
     1
290
     0
176
     1
 90
        1
176
     1
 40
0.0
176
     1
 90
        0
176
     1
290
     0
176
     1
290
     1
176
     1
290
     1
176
     1
290
     0
176
     1
290
     0
176
     1
290
     0
176
     1
290
     0
176
     1
290
     0
176
     1
290
     0
176
     1
 90
       50
176
     1
 40
0.0
176
     1
 40
1.0
176
     1
 90
        0
176
     1
 62
    18
420
        0
176
     1
 90
       50
176
     1
 90
        3
176
     1
 62
     5
420
      255
176
     1
290
     0
176
     1
 90
       50
176
     1
 90
       50
176
     1
 90
       50
176
     1
290
     0
176
     1
 90
       50
176
     1
 62
   256
176
     0
 40
1.0
176
     0
 90
        2
176
     1
  1
strokes_ogs.tif
176
     1
290
     0
176
     1
 40
1.0
176
     1
 40
1.0
176
     1
  0
VISUALSTYLE
  5
3F30
102
{ACAD_REACTORS
330
29
102
}
330
29
100
AcDbVisualStyle
  2
JitterOff
 70
    20
177
     3
291
     1
 70
    58
 90
        2
176
     0
 90
        2
176
     0
 90
        0
176
     0
 90
        0
176
     0
 40
0.6
176
     0
 40
30.0
176
     0
 62
     7
420
 16777215
176
     0
 90
        1
176
     0
 90
        4
176
     0
 62
     7
176
     0
 62
   257
176
     0
 90
        1
176
     0
 90
        1
176
     0
 40
1.0
176
     0
 90
       10
176
     2
 62
     7
176
     0
 40
1.0
176
     0
 90
        1
176
     0
 90
        6
176
     0
 90
        2
176
     0
 62
     7
176
     0
 90
        5
176
     0
 90
        0
176
     0
 90
        0
176
     0
290
     0
176
     0
 90
        1
176
     0
 40
0.0
176
     0
 90
        0
176
     0
290
     0
176
     0
290
     1
176
     0
290
     1
176
     0
290
     0
176
     0
290
     0
176
     0
290
     0
176
     0
290
     0
176
     0
290
     0
176
     0
290
     0
176
     0
 90
       50
176
     0
 40
0.0
176
     0
 40
1.0
176
     0
 90
        0
176
     0
 62
    18
420
        0
176
     0
 90
       50
176
     0
 90
        3
176
     0
 62
     5
420
      255
176
     0
290
     0
176
     0
 90
       50
176
     0
 90
       50
176
     0
 90
       50
176
     0
290
     0
176
     0
 90
       50
176
     0
 62
   256
176
     0
 40
1.0
176
     0
 90
        2
176
     0
  1
strokes_ogs.tif
176
     0
290
     0
176
     0
 40
1.0
176
     0
 40
1.0
176
     0
  0
VISUALSTYLE
  5
37
102
{ACAD_REACTORS
330
29
102
}
330
29
100
AcDbVisualStyle
  2
Linepattern
 70
    14
177
     3
291
     1
 70
    58
 90
        2
176
     1
 90
        2
176
     1
 90
        0
176
     1
 90
        0
176
     1
 40
0.6
176
     1
 40
30.0
176
     1
 62
     7
176
     1
 90
        1
176
     1
 90
        4
176
     1
 62
     7
176
     1
 62
   257
176
     1
 90
        7
176
     1
 90
        7
176
     1
 40
1.0
176
     1
 90
        8
176
     1
 62
     7
176
     1
 40
1.0
176
     1
 90
        1
176
     1
 90
        6
176
     1
 90
        2
176
     1
 62
     7
176
     1
 90
        5
176
     1
 90
        0
176
     1
 90
        0
176
     1
290
     0
176
     1
 90
        1
176
     1
 40
0.0
176
     1
 90
        0
176
     1
290
     0
176
     1
290
     1
176
     1
290
     1
176
     1
290
     0
176
     1
290
     0
176
     1
290
     0
176
     1
290
     0
176
     1
290
     0
176
     1
290
     0
176
     1
 90
       50
176
     1
 40
0.0
176
     1
 40
1.0
176
     1
 90
        0
176
     1
 62
    18
420
        0
176
     1
 90
       50
176
     1
 90
        3
176
     1
 62
     5
420
      255
176
     1
290
     0
176
     1
 90
       50
176
     1
 90
       50
176
     1
 90
       50
176
     1
290
     0
176
     1
 90
       50
176
     1
 62
   256
176
     0
 40
1.0
176
     0
 90
        2
176
     1
  1
strokes_ogs.tif
176
     1
290
     0
176
     1
 40
1.0
176
     1
 40
1.0
176
     1
1001
ACAD
1000
AcDbSavedByObjectVersion
1070
     0
1000
AcDbSavedByObjectVersion
1070
     0
  0
VISUALSTYLE
  5
3F31
102
{ACAD_REACTORS
330
29
102
}
330
29
100
AcDbVisualStyle
  2
OverhangOff
 70
    21
177
     3
291
     1
 70
    58
 90
        2
176
     0
 90
        2
176
     0
 90
        0
176
     0
 90
        0
176
     0
 40
0.6
176
     0
 40
30.0
176
     0
 62
     7
420
 16777215
176
     0
 90
        1
176
     0
 90
        4
176
     0
 62
     7
176
     0
 62
   257
176
     0
 90
        1
176
     0
 90
        1
176
     0
 40
1.0
176
     0
 90
        9
176
     2
 62
     7
176
     0
 40
1.0
176
     0
 90
        1
176
     0
 90
        6
176
     0
 90
        2
176
     0
 62
     7
176
     0
 90
        5
176
     0
 90
        0
176
     0
 90
        0
176
     0
290
     0
176
     0
 90
        1
176
     0
 40
0.0
176
     0
 90
        0
176
     0
290
     0
176
     0
290
     1
176
     0
290
     1
176
     0
290
     0
176
     0
290
     0
176
     0
290
     0
176
     0
290
     0
176
     0
290
     0
176
     0
290
     0
176
     0
 90
       50
176
     0
 40
0.0
176
     0
 40
1.0
176
     0
 90
        0
176
     0
 62
    18
420
        0
176
     0
 90
       50
176
     0
 90
        3
176
     0
 62
     5
420
      255
176
     0
290
     0
176
     0
 90
       50
176
     0
 90
       50
176
     0
 90
       50
176
     0
290
     0
176
     0
 90
       50
176
     0
 62
   256
176
     0
 40
1.0
176
     0
 90
        2
176
     0
  1
strokes_ogs.tif
176
     0
290
     0
176
     0
 40
1.0
176
     0
 40
1.0
176
     0
  0
VISUALSTYLE
  5
33
102
{ACAD_REACTORS
330
29
102
}
330
29
100
AcDbVisualStyle
  2
Realistic
 70
     8
177
     3
291
     0
 70
    58
 90
        2
176
     1
 90
        2
176
     1
 90
        0
176
     1
 90
        0
176
     1
 40
0.6
176
     1
 40
30.0
176
     1
 62
     7
176
     1
 90
        1
176
     1
 90
        0
176
     1
 62
     7
176
     1
 62
   257
176
     1
 90
        1
176
     1
 90
        1
176
     1
 40
1.0
176
     1
 90
        8
176
     1
 62
     8
176
     1
 40
1.0
176
     1
 90
        1
176
     1
 90
        6
176
     1
 90
        2
176
     1
 62
     7
176
     1
 90
        5
176
     1
 90
        0
176
     1
 90
        0
176
     1
290
     0
176
     1
 90
       13
176
     1
 40
0.0
176
     1
 90
        0
176
     1
290
     0
176
     1
290
     1
176
     1
290
     1
176
     1
290
     0
176
     1
290
     0
176
     1
290
     0
176
     1
290
     0
176
     1
290
     0
176
     1
290
     0
176
     1
 90
       50
176
     1
 40
0.0
176
     1
 40
1.0
176
     1
 90
        0
176
     1
 62
    18
420
        0
176
     1
 90
       50
176
     1
 90
        3
176
     1
 62
     5
420
      255
176
     1
290
     0
176
     1
 90
       50
176
     1
 90
       50
176
     1
 90
       50
176
     1
290
     0
176
     1
 90
       50
176
     1
 62
   256
176
     0
 40
1.0
176
     0
 90
        2
176
     1
  1
strokes_ogs.tif
176
     1
290
     0
176
     1
 40
1.0
176
     1
 40
1.0
176
     1
1001
ACAD
1000
AcDbSavedByObjectVersion
1070
     0
1000
AcDbSavedByObjectVersion
1070
     0
  0
VISUALSTYLE
  5
3F2F
102
{ACAD_REACTORS
330
29
102
}
330
29
100
AcDbVisualStyle
  2
Shaded
 70
    27
177
     3
291
     0
 70
    58
 90
        2
176
     1
 90
        2
176
     1
 90
        1
176
     1
 90
        2
176
     1
 40
0.6
176
     1
 40
30.0
176
     1
 62
     7
420
 16777215
176
     1
 90
        0
176
     1
 90
        4
176
     1
 62
     7
176
     1
 62
   257
176
     1
 90
        1
176
     1
 90
        1
176
     1
 40
1.0
176
     1
 90
        8
176
     1
 62
   257
176
     1
 40
1.0
176
     1
 90
        1
176
     1
 90
        6
176
     1
 90
        2
176
     1
 62
     8
420
  7895160
176
     1
 90
        3
176
     1
 90
        0
176
     1
 90
        0
176
     1
290
     0
176
     1
 90
        5
176
     1
 40
0.0
176
     1
 90
        0
176
     1
290
     0
176
     1
290
     1
176
     1
290
     1
176
     1
290
     0
176
     1
290
     0
176
     1
290
     0
176
     1
290
     0
176
     1
290
     0
176
     1
290
     0
176
     1
 90
       50
176
     1
 40
0.0
176
     1
 40
1.0
176
     1
 90
        0
176
     1
 62
    18
420
        0
176
     1
 90
       50
176
     1
 90
        3
176
     1
 62
     5
420
      255
176
     1
290
     0
176
     1
 90
       50
176
     1
 90
       50
176
     1
 90
       50
176
     1
290
     0
176
     1
 90
       50
176
     1
 62
   256
176
     0
 40
1.0
176
     0
 90
        2
176
     1
  1
strokes_ogs.tif
176
     1
290
     0
176
     1
 40
1.0
176
     1
 40
1.0
176
     1
  0
VISUALSTYLE
  5
3F2E
102
{ACAD_REACTORS
330
29
102
}
330
29
100
AcDbVisualStyle
  2
Shaded with edges
 70
    26
177
     3
291
     0
 70
    58
 90
        2
176
     1
 90
        2
176
     1
 90
        1
176
     1
 90
        2
176
     1
 40
0.6
176
     1
 40
30.0
176
     1
 62
     7
420
 16777215
176
     1
 90
        1
176
     1
 90
       10
176
     1
 62
     7
176
     1
 62
   257
176
     1
 90
        2
176
     1
 90
        1
176
     1
 40
1.0
176
     1
 90
        8
176
     1
 62
   257
176
     1
 40
1.0
176
     1
 90
        1
176
     1
 90
        6
176
     1
 90
        2
176
     1
 62
     7
176
     1
 90
        3
176
     1
 90
        0
176
     1
 90
        0
176
     1
290
     0
176
     1
 90
        5
176
     1
 40
0.0
176
     1
 90
        0
176
     1
290
     0
176
     1
290
     1
176
     1
290
     1
176
     1
290
     0
176
     1
290
     0
176
     1
290
     0
176
     1
290
     0
176
     1
290
     0
176
     1
290
     0
176
     1
 90
       50
176
     1
 40
0.0
176
     1
 40
1.0
176
     1
 90
        0
176
     1
 62
    18
420
        0
176
     1
 90
       50
176
     1
 90
        3
176
     1
 62
     5
420
      255
176
     1
290
     0
176
     1
 90
       50
176
     1
 90
       50
176
     1
 90
       50
176
     1
290
     0
176
     1
 90
       50
176
     1
 62
   256
176
     0
 40
1.0
176
     0
 90
        2
176
     1
  1
strokes_ogs.tif
176
     1
290
     0
176
     1
 40
1.0
176
     1
 40
1.0
176
     1
  0
VISUALSTYLE
  5
3F2B
102
{ACAD_REACTORS
330
29
102
}
330
29
100
AcDbVisualStyle
  2
Shades of Gray
 70
    23
177
     3
291
     0
 70
    58
 90
        2
176
     1
 90
        2
176
     1
 90
        3
176
     1
 90
        0
176
     1
 40
0.6
176
     1
 40
30.0
176
     1
 62
     7
420
 16777215
176
     1
 90
        2
176
     1
 90
        2
176
     1
 62
     7
176
     1
 62
     7
176
     1
 90
        1
176
     1
 90
        1
176
     1
 40
40.0
176
     1
 90
        8
176
     1
 62
     7
176
     1
 40
1.0
176
     1
 90
        1
176
     1
 90
        6
176
     1
 90
        2
176
     1
 62
     7
176
     1
 90
        3
176
     1
 90
        0
176
     1
 90
        0
176
     1
290
     0
176
     1
 90
        1
176
     1
 40
0.0
176
     1
 90
        0
176
     1
290
     0
176
     1
290
     1
176
     1
290
     1
176
     1
290
     0
176
     1
290
     0
176
     1
290
     0
176
     1
290
     0
176
     1
290
     0
176
     1
290
     0
176
     1
 90
       50
176
     1
 40
0.0
176
     1
 40
1.0
176
     1
 90
        0
176
     1
 62
    18
420
        0
176
     1
 90
       50
176
     1
 90
        3
176
     1
 62
     5
420
      255
176
     1
290
     0
176
     1
 90
       50
176
     1
 90
       50
176
     1
 90
       50
176
     1
290
     0
176
     1
 90
       50
176
     1
 62
   256
176
     0
 40
1.0
176
     0
 90
        2
176
     1
  1
strokes_ogs.tif
176
     1
290
     0
176
     1
 40
1.0
176
     1
 40
1.0
176
     1
  0
VISUALSTYLE
  5
3F2C
102
{ACAD_REACTORS
330
29
102
}
330
29
100
AcDbVisualStyle
  2
Sketchy
 70
    24
177
     3
291
     0
 70
    58
 90
        1
176
     1
 90
        2
176
     1
 90
        2
176
     1
 90
        0
176
     1
 40
0.6
176
     1
 40
30.0
176
     1
 62
     7
420
 16777215
176
     1
 90
        2
176
     1
 90
        2
176
     1
 62
     7
176
     1
 62
     7
176
     1
 90
        1
176
     1
 90
        1
176
     1
 40
40.0
176
     1
 90
       11
176
     1
 62
     7
176
     1
 40
1.0
176
     1
 90
        1
176
     1
 90
        6
176
     1
 90
        2
176
     1
 62
     7
176
     1
 90
        6
176
     1
 90
        0
176
     1
 90
        0
176
     1
290
     0
176
     1
 90
        1
176
     1
 40
0.0
176
     1
 90
        0
176
     1
290
     0
176
     1
290
     1
176
     1
290
     1
176
     1
290
     0
176
     1
290
     0
176
     1
290
     0
176
     1
290
     0
176
     1
290
     0
176
     1
290
     0
176
     1
 90
       50
176
     1
 40
0.0
176
     1
 40
1.0
176
     1
 90
        0
176
     1
 62
    18
420
        0
176
     1
 90
       50
176
     1
 90
        3
176
     1
 62
     5
420
      255
176
     1
290
     0
176
     1
 90
       50
176
     1
 90
       50
176
     1
 90
       50
176
     1
290
     0
176
     1
 90
       50
176
     1
 62
   256
176
     0
 40
1.0
176
     0
 90
        2
176
     1
  1
strokes_ogs.tif
176
     1
290
     0
176
     1
 40
1.0
176
     1
 40
1.0
176
     1
  0
VISUALSTYLE
  5
36
102
{ACAD_REACTORS
330
29
102
}
330
29
100
AcDbVisualStyle
  2
Thicken
 70
    13
177
     3
291
     1
 70
    58
 90
        2
176
     1
 90
        2
176
     1
 90
        0
176
     1
 90
        0
176
     1
 40
0.6
176
     1
 40
30.0
176
     1
 62
     7
176
     1
 90
        1
176
     1
 90
        4
176
     1
 62
     7
176
     1
 62
   257
176
     1
 90
        1
176
     1
 90
        1
176
     1
 40
1.0
176
     1
 90
       12
176
     1
 62
     7
176
     1
 40
1.0
176
     1
 90
        1
176
     1
 90
        6
176
     1
 90
        2
176
     1
 62
     7
176
     1
 90
        5
176
     1
 90
        0
176
     1
 90
        0
176
     1
290
     0
176
     1
 90
        1
176
     1
 40
0.0
176
     1
 90
        0
176
     1
290
     0
176
     1
290
     1
176
     1
290
     1
176
     1
290
     0
176
     1
290
     0
176
     1
290
     0
176
     1
290
     0
176
     1
290
     0
176
     1
290
     0
176
     1
 90
       50
176
     1
 40
0.0
176
     1
 40
1.0
176
     1
 90
        0
176
     1
 62
    18
420
        0
176
     1
 90
       50
176
     1
 90
        3
176
     1
 62
     5
420
      255
176
     1
290
     0
176
     1
 90
       50
176
     1
 90
       50
176
     1
 90
       50
176
     1
290
     0
176
     1
 90
       50
176
     1
 62
   256
176
     0
 40
1.0
176
     0
 90
        2
176
     1
  1
strokes_ogs.tif
176
     1
290
     0
176
     1
 40
1.0
176
     1
 40
1.0
176
     1
1001
ACAD
1000
AcDbSavedByObjectVersion
1070
     0
1000
AcDbSavedByObjectVersion
1070
     0
  0
VISUALSTYLE
  5
3F29
102
{ACAD_REACTORS
330
29
102
}
330
29
100
AcDbVisualStyle
  2
Wireframe
 70
     5
177
     3
291
     0
 70
    58
 90
        0
176
     1
 90
        2
176
     1
 90
        0
176
     1
 90
        0
176
     1
 40
0.6
176
     1
 40
30.0
176
     1
 62
     7
420
 16777215
176
     1
 90
        1
176
     1
 90
        4
176
     1
 62
     7
176
     1
 62
   257
176
     1
 90
        1
176
     1
 90
        1
176
     1
 40
1.0
176
     1
 90
        0
176
     1
 62
   257
176
     1
 40
1.0
176
     1
 90
        1
176
     1
 90
        6
176
     1
 90
        2
176
     1
 62
     7
176
     1
 90
        3
176
     1
 90
        0
176
     1
 90
        0
176
     1
290
     0
176
     1
 90
        1
176
     1
 40
0.0
176
     1
 90
        0
176
     1
290
     0
176
     1
290
     1
176
     1
290
     1
176
     1
290
     0
176
     1
290
     0
176
     1
290
     0
176
     1
290
     0
176
     1
290
     0
176
     1
290
     0
176
     1
 90
       50
176
     1
 40
0.0
176
     1
 40
1.0
176
     1
 90
        0
176
     1
 62
    18
420
        0
176
     1
 90
       50
176
     1
 90
        3
176
     1
 62
     5
420
      255
176
     1
290
     0
176
     1
 90
       50
176
     1
 90
       50
176
     1
 90
       50
176
     1
290
     0
176
     1
 90
       50
176
     1
 62
   256
176
     0
 40
1.0
176
     0
 90
        2
176
     1
  1
strokes_ogs.tif
176
     1
290
     0
176
     1
 40
1.0
176
     1
 40
1.0
176
     1
  0
VISUALSTYLE
  5
3F2D
102
{ACAD_REACTORS
330
29
102
}
330
29
100
AcDbVisualStyle
  2
X-Ray
 70
    25
177
     3
291
     0
 70
    58
 90
        2
176
     1
 90
        2
176
     1
 90
        1
176
     1
 90
        1
176
     1
 40
0.5
176
     1
 40
30.0
176
     1
 62
     7
420
 16777215
176
     1
 90
        1
176
     1
 90
        0
176
     1
 62
     7
176
     1
 62
   257
176
     1
 90
        1
176
     1
 90
        1
176
     1
 40
1.0
176
     1
 90
        8
176
     1
 62
     7
176
     1
 40
1.0
176
     1
 90
        1
176
     1
 90
        6
176
     1
 90
        2
176
     1
 62
     7
176
     1
 90
        3
176
     1
 90
        0
176
     1
 90
        0
176
     1
290
     0
176
     1
 90
       13
176
     1
 40
0.0
176
     1
 90
        0
176
     1
290
     0
176
     1
290
     1
176
     1
290
     1
176
     1
290
     0
176
     1
290
     0
176
     1
290
     0
176
     1
290
     0
176
     1
290
     0
176
     1
290
     0
176
     1
 90
       50
176
     1
 40
0.0
176
     1
 40
1.0
176
     1
 90
        0
176
     1
 62
    18
420
        0
176
     1
 90
       50
176
     1
 90
        3
176
     1
 62
     5
420
      255
176
     1
290
     0
176
     1
 90
       50
176
     1
 90
       50
176
     1
 90
       50
176
     1
290
     0
176
     1
 90
       50
176
     1
 62
   256
176
     0
 40
1.0
176
     0
 90
        2
176
     1
  1
strokes_ogs.tif
176
     1
290
     0
176
     1
 40
1.0
176
     1
 40
1.0
176
     1
  0
DICTIONARYVAR
  5
1CC
102
{ACAD_REACTORS
330
1C9
102
}
330
1C9
100
DictionaryVariables
280
     0
  1
1:2
  0
DICTIONARYVAR
  5
1CB
102
{ACAD_REACTORS
330
1C9
102
}
330
1C9
100
DictionaryVariables
280
     0
  1
STANDARD
  0
DICTIONARYVAR
  5
1CA
102
{ACAD_REACTORS
330
1C9
102
}
330
1C9
100
DictionaryVariables
280
     0
  1
STANDARD
  0
DICTIONARYVAR
  5
40E1
102
{ACAD_REACTORS
330
1C9
102
}
330
1C9
100
DictionaryVariables
280
     0
  1
Metric50
  0
DICTIONARYVAR
  5
40E2
102
{ACAD_REACTORS
330
1C9
102
}
330
1C9
100
DictionaryVariables
280
     0
  1
Metric50
  0
DICTIONARYVAR
  5
1CF
102
{ACAD_REACTORS
330
1C9
102
}
330
1C9
100
DictionaryVariables
280
     0
  1
1
  0
DICTIONARYVAR
  5
1CE
102
{ACAD_REACTORS
330
1C9
102
}
330
1C9
100
DictionaryVariables
280
     0
  1
0
  0
DICTIONARYVAR
  5
40E3
102
{ACAD_REACTORS
330
1C9
102
}
330
1C9
100
DictionaryVariables
280
     0
  1
1
  0
DICTIONARYVAR
  5
40E4
102
{ACAD_REACTORS
330
1C9
102
}
330
1C9
100
DictionaryVariables
280
     0
  1
15
  0
DICTIONARYVAR
  5
2D3
102
{ACAD_REACTORS
330
1C9
102
}
330
1C9
100
DictionaryVariables
280
     0
  1
0
  0
DICTIONARYVAR
  5
2D2
102
{ACAD_REACTORS
330
1C9
102
}
330
1C9
100
DictionaryVariables
280
     0
  1
0
  0
DICTIONARYVAR
  5
1CD
102
{ACAD_REACTORS
330
1C9
102
}
330
1C9
100
DictionaryVariables
280
     0
  1
127
  0
DICTIONARY
  5
2B6
102
{ACAD_REACTORS
330
166
102
}
330
166
100
AcDbDictionary
281
     1
  0
DICTIONARY
  5
171
102
{ACAD_REACTORS
330
166
102
}
330
166
100
AcDbDictionary
281
     1
  0
XRECORD
  5
186
102
{ACAD_REACTORS
330
166
102
}
330
166
100
AcDbXrecord
280
     1
 90
-1023410169
  0
XRECORD
  5
3D70
102
{ACAD_REACTORS
330
3D6F
102
}
330
3D6F
100
AcDbXrecord
280
     1
330
381F
330
3820
330
3835
330
3836
330
383D
330
383E
330
3D3D
330
3D3E
330
3D49
330
3D4A
330
3D58
330
3D59
330
3D63
  0
DICTIONARY
  5
40E8
330
3F36
100
AcDbDictionary
280
     1
281
     1
  3
ACAD_XREC_ROUNDTRIP
360
40E9
  0
DICTIONARY
  5
1A
330
19
100
AcDbDictionary
280
     1
281
     1
  3
ACAD_XREC_ROUNDTRIP
360
35CC
  3
BUMPTILE
360
1C
  3
DIFFUSETILE
360
1B
  3
OPACITYTILE
360
1F
  3
REFLECTIONTILE
360
1E
  3
REFRACTIONTILE
360
20
  3
SPECULARTILE
360
1D
  0
DICTIONARY
  5
12
330
11
100
AcDbDictionary
280
     1
281
     1
  3
ACAD_XREC_ROUNDTRIP
360
35CB
  3
BUMPTILE
360
14
  3
DIFFUSETILE
360
13
  3
OPACITYTILE
360
17
  3
REFLECTIONTILE
360
16
  3
REFRACTIONTILE
360
18
  3
SPECULARTILE
360
15
  0
DICTIONARY
  5
22
330
21
100
AcDbDictionary
280
     1
281
     1
  3
ACAD_XREC_ROUNDTRIP
360
35CD
  3
BUMPTILE
360
24
  3
DIFFUSETILE
360
23
  3
OPACITYTILE
360
27
  3
REFLECTIONTILE
360
26
  3
REFRACTIONTILE
360
28
  3
SPECULARTILE
360
25
  0
DICTIONARY
  5
40E6
330
3F34
100
AcDbDictionary
280
     1
281
     1
  3
ACAD_XREC_ROUNDTRIP
360
40E7
  0
DICTIONARY
  5
1B2
330
6C
100
AcDbDictionary
280
     1
281
     1
  3
ACAD_ROUNDTRIP_2008_TABLESTYLE_CELLSTYLEMAP
360
40E5
  0
XRECORD
  5
40E9
102
{ACAD_REACTORS
330
40E8
102
}
330
40E8
100
AcDbXrecord
280
     1
102
DISPLAYNAME
  1
Metric50
102
FLAGS
 90
        0
  0
XRECORD
  5
35CC
102
{ACAD_REACTORS
330
1A
102
}
330
1A
100
AcDbXrecord
280
     1
102
MATERIAL
148
0.0
149
0.0
149
0.0
 93
        0
 94
      127
282
     0
 72
     0
 77
     0
171
     0
175
     0
179
     0
273
     0
  0
XRECORD
  5
1C
102
{ACAD_REACTORS
330
1A
102
}
330
1A
100
AcDbXrecord
280
     1
270
     1
271
     1
  0
XRECORD
  5
1B
102
{ACAD_REACTORS
330
1A
102
}
330
1A
100
AcDbXrecord
280
     1
270
     1
271
     1
  0
XRECORD
  5
1F
102
{ACAD_REACTORS
330
1A
102
}
330
1A
100
AcDbXrecord
280
     1
270
     1
271
     1
  0
XRECORD
  5
1E
102
{ACAD_REACTORS
330
1A
102
}
330
1A
100
AcDbXrecord
280
     1
270
     1
271
     1
  0
XRECORD
  5
20
102
{ACAD_REACTORS
330
1A
102
}
330
1A
100
AcDbXrecord
280
     1
270
     1
271
     1
  0
XRECORD
  5
1D
102
{ACAD_REACTORS
330
1A
102
}
330
1A
100
AcDbXrecord
280
     1
270
     1
271
     1
  0
XRECORD
  5
35CB
102
{ACAD_REACTORS
330
12
102
}
330
12
100
AcDbXrecord
280
     1
102
MATERIAL
148
0.0
149
0.0
149
0.0
 93
        0
 94
      127
282
     0
 72
     0
 77
     0
171
     0
175
     0
179
     0
273
     0
  0
XRECORD
  5
14
102
{ACAD_REACTORS
330
12
102
}
330
12
100
AcDbXrecord
280
     1
270
     1
271
     1
  0
XRECORD
  5
13
102
{ACAD_REACTORS
330
12
102
}
330
12
100
AcDbXrecord
280
     1
270
     1
271
     1
  0
XRECORD
  5
17
102
{ACAD_REACTORS
330
12
102
}
330
12
100
AcDbXrecord
280
     1
270
     1
271
     1
  0
XRECORD
  5
16
102
{ACAD_REACTORS
330
12
102
}
330
12
100
AcDbXrecord
280
     1
270
     1
271
     1
  0
XRECORD
  5
18
102
{ACAD_REACTORS
330
12
102
}
330
12
100
AcDbXrecord
280
     1
270
     1
271
     1
  0
XRECORD
  5
15
102
{ACAD_REACTORS
330
12
102
}
330
12
100
AcDbXrecord
280
     1
270
     1
271
     1
  0
XRECORD
  5
35CD
102
{ACAD_REACTORS
330
22
102
}
330
22
100
AcDbXrecord
280
     1
102
MATERIAL
148
0.0
149
0.0
149
0.0
 93
        0
 94
      127
282
     0
 72
     0
 77
     0
171
     0
175
     0
179
     0
273
     0
  0
XRECORD
  5
24
102
{ACAD_REACTORS
330
22
102
}
330
22
100
AcDbXrecord
280
     1
270
     1
271
     1
  0
XRECORD
  5
23
102
{ACAD_REACTORS
330
22
102
}
330
22
100
AcDbXrecord
280
     1
270
     1
271
     1
  0
XRECORD
  5
27
102
{ACAD_REACTORS
330
22
102
}
330
22
100
AcDbXrecord
280
     1
270
     1
271
     1
  0
XRECORD
  5
26
102
{ACAD_REACTORS
330
22
102
}
330
22
100
AcDbXrecord
280
     1
270
     1
271
     1
  0
XRECORD
  5
28
102
{ACAD_REACTORS
330
22
102
}
330
22
100
AcDbXrecord
280
     1
270
     1
271
     1
  0
XRECORD
  5
25
102
{ACAD_REACTORS
330
22
102
}
330
22
100
AcDbXrecord
280
     1
270
     1
271
     1
  0
XRECORD
  5
40E7
102
{ACAD_REACTORS
330
40E6
102
}
330
40E6
100
AcDbXrecord
280
     1
102
DISPLAYNAME
  1
Metric50
102
FLAGS
 90
        0
  0
CELLSTYLEMAP
  5
40E5
102
{ACAD_REACTORS
330
1B2
102
}
330
1B2
100
AcDbCellStyleMap
 90
        3
300
CELLSTYLE
  1
TABLEFORMAT_BEGIN
 90
        5
170
     1
 91
        0
 92
    32768
 62
   257
 93
        1
300
CONTENTFORMAT
  1
CONTENTFORMAT_BEGIN
 90
        0
 91
        0
 92
      512
 93
        0
300

 40
0.0
140
1.0
 94
        5
 62
     0
340
5D
144
0.25
309
CONTENTFORMAT_END
171
     1
301
MARGIN
  1
CELLMARGIN_BEGIN
 40
0.06
 40
0.06
 40
0.06
 40
0.06
 40
0.18
 40
0.18
309
CELLMARGIN_END
 94
        6
 95
        1
302
GRIDFORMAT
  1
GRIDFORMAT_BEGIN
 90
        0
 91
        1
 62
     0
 92
       -2
340
0
 93
        0
 40
0.045
309
GRIDFORMAT_END
 95
        2
302
GRIDFORMAT
  1
GRIDFORMAT_BEGIN
 90
        0
 91
        1
 62
     0
 92
       -2
340
0
 93
        0
 40
0.045
309
GRIDFORMAT_END
 95
        4
302
GRIDFORMAT
  1
GRIDFORMAT_BEGIN
 90
        0
 91
        1
 62
     0
 92
       -2
340
0
 93
        0
 40
0.045
309
GRIDFORMAT_END
 95
        8
302
GRIDFORMAT
  1
GRIDFORMAT_BEGIN
 90
        0
 91
        1
 62
     0
 92
       -2
340
0
 93
        0
 40
0.045
309
GRIDFORMAT_END
 95
       16
302
GRIDFORMAT
  1
GRIDFORMAT_BEGIN
 90
        0
 91
        1
 62
     0
 92
       -2
340
0
 93
        0
 40
0.045
309
GRIDFORMAT_END
 95
       32
302
GRIDFORMAT
  1
GRIDFORMAT_BEGIN
 90
        0
 91
        1
 62
     0
 92
       -2
340
0
 93
        0
 40
0.045
309
GRIDFORMAT_END
309
TABLEFORMAT_END
  1
CELLSTYLE_BEGIN
 90
        1
 91
        1
300
_TITLE
309
CELLSTYLE_END
300
CELLSTYLE
  1
TABLEFORMAT_BEGIN
 90
        5
170
     1
 91
        0
 92
        0
 62
   257
 93
        1
300
CONTENTFORMAT
  1
CONTENTFORMAT_BEGIN
 90
        0
 91
        0
 92
      512
 93
        0
300

 40
0.0
140
1.0
 94
        5
 62
     0
340
5D
144
0.18
309
CONTENTFORMAT_END
171
     1
301
MARGIN
  1
CELLMARGIN_BEGIN
 40
0.06
 40
0.06
 40
0.06
 40
0.06
 40
0.18
 40
0.18
309
CELLMARGIN_END
 94
        6
 95
        1
302
GRIDFORMAT
  1
GRIDFORMAT_BEGIN
 90
        0
 91
        1
 62
     0
 92
       -2
340
0
 93
        0
 40
0.045
309
GRIDFORMAT_END
 95
        2
302
GRIDFORMAT
  1
GRIDFORMAT_BEGIN
 90
        0
 91
        1
 62
     0
 92
       -2
340
0
 93
        0
 40
0.045
309
GRIDFORMAT_END
 95
        4
302
GRIDFORMAT
  1
GRIDFORMAT_BEGIN
 90
        0
 91
        1
 62
     0
 92
       -2
340
0
 93
        0
 40
0.045
309
GRIDFORMAT_END
 95
        8
302
GRIDFORMAT
  1
GRIDFORMAT_BEGIN
 90
        0
 91
        1
 62
     0
 92
       -2
340
0
 93
        0
 40
0.045
309
GRIDFORMAT_END
 95
       16
302
GRIDFORMAT
  1
GRIDFORMAT_BEGIN
 90
        0
 91
        1
 62
     0
 92
       -2
340
0
 93
        0
 40
0.045
309
GRIDFORMAT_END
 95
       32
302
GRIDFORMAT
  1
GRIDFORMAT_BEGIN
 90
        0
 91
        1
 62
     0
 92
       -2
340
0
 93
        0
 40
0.045
309
GRIDFORMAT_END
309
TABLEFORMAT_END
  1
CELLSTYLE_BEGIN
 90
        2
 91
        1
300
_HEADER
309
CELLSTYLE_END
300
CELLSTYLE
  1
TABLEFORMAT_BEGIN
 90
        5
170
     1
 91
        0
 92
        0
 62
   257
 93
        1
300
CONTENTFORMAT
  1
CONTENTFORMAT_BEGIN
 90
        0
 91
        0
 92
      512
 93
        0
300

 40
0.0
140
1.0
 94
        2
 62
     0
340
5D
144
0.18
309
CONTENTFORMAT_END
171
     1
301
MARGIN
  1
CELLMARGIN_BEGIN
 40
0.06
 40
0.06
 40
0.06
 40
0.06
 40
0.18
 40
0.18
309
CELLMARGIN_END
 94
        6
 95
        1
302
GRIDFORMAT
  1
GRIDFORMAT_BEGIN
 90
        0
 91
        1
 62
     0
 92
       -2
340
0
 93
        0
 40
0.045
309
GRIDFORMAT_END
 95
        2
302
GRIDFORMAT
  1
GRIDFORMAT_BEGIN
 90
        0
 91
        1
 62
     0
 92
       -2
340
0
 93
        0
 40
0.045
309
GRIDFORMAT_END
 95
        4
302
GRIDFORMAT
  1
GRIDFORMAT_BEGIN
 90
        0
 91
        1
 62
     0
 92
       -2
340
0
 93
        0
 40
0.045
309
GRIDFORMAT_END
 95
        8
302
GRIDFORMAT
  1
GRIDFORMAT_BEGIN
 90
        0
 91
        1
 62
     0
 92
       -2
340
0
 93
        0
 40
0.045
309
GRIDFORMAT_END
 95
       16
302
GRIDFORMAT
  1
GRIDFORMAT_BEGIN
 90
        0
 91
        1
 62
     0
 92
       -2
340
0
 93
        0
 40
0.045
309
GRIDFORMAT_END
 95
       32
302
GRIDFORMAT
  1
GRIDFORMAT_BEGIN
 90
        0
 91
        1
 62
     0
 92
       -2
340
0
 93
        0
 40
0.045
309
GRIDFORMAT_END
309
TABLEFORMAT_END
  1
CELLSTYLE_BEGIN
 90
        3
 91
        2
300
_DATA
309
CELLSTYLE_END
  0
ENDSEC
  0
SECTION
  2
ACDSDATA
 70
     2
 71
     8
  0
ACDSSCHEMA
 90
        0
  1
AcDb_Thumbnail_Schema
  2
AcDbDs::ID
280
    10
 91
        8
  2
Thumbnail_Data
280
    15
 91
        0
101
ACDSRECORD
 95
        0
 90
        1
  2
AcDbDs::TreatedAsObjectData
280
     1
291
     1
101
ACDSRECORD
 95
        0
 90
        2
  2
AcDbDs::Legacy
280
     1
291
     1
101
ACDSRECORD
  1
AcDbDs::ID
 90
        3
  2
AcDs:Indexable
280
     1
291
     1
101
ACDSRECORD
  1
AcDbDs::ID
 90
        4
  2
AcDbDs::HandleAttribute
280
     7
282
     1
  0
ACDSSCHEMA
 90
        1
  1
AcDbDs::TreatedAsObjectDataSchema
  2
AcDbDs::TreatedAsObjectData
280
     1
 91
        0
  0
ACDSSCHEMA
 90
        2
  1
AcDbDs::LegacySchema
  2
AcDbDs::Legacy
280
     1
 91
        0
  0
ACDSSCHEMA
 90
        3
  1
AcDbDs::IndexedPropertySchema
  2
AcDs:Indexable
280
     1
 91
        0
  0
ACDSSCHEMA
 90
        4
  1
AcDbDs::HandleAttributeSchema
  2
AcDbDs::HandleAttribute
280
     7
 91
        1
284
     1
  0
ACDSRECORD
 90
        0
  2
AcDbDs::ID
280
    10
320
77
  2
Thumbnail_Data
280
    15
 94
     1133
310
89504E470D0A1A0A0000000D49484452000001000000007108030000000DA58D8400000300504C5445000000000000C8C8C80000000000000000000000000000000000000000000000000000330000660000990000CC0000FF0033000033330033660033990033CC0033FF0066000066330066660066990066CC0066FF0099
310
000099330099660099990099CC0099FF00CC0000CC3300CC6600CC9900CCCC00CCFF00FF0000FF3300FF6600FF9900FFCC00FFFF3300003300333300663300993300CC3300FF3333003333333333663333993333CC3333FF3366003366333366663366993366CC3366FF3399003399333399663399993399CC3399FF33CC00
310
33CC3333CC6633CC9933CCCC33CCFF33FF0033FF3333FF6633FF9933FFCC33FFFF6600006600336600666600996600CC6600FF6633006633336633666633996633CC6633FF6666006666336666666666996666CC6666FF6699006699336699666699996699CC6699FF66CC0066CC3366CC6666CC9966CCCC66CCFF66FF0066
310
FF3366FF6666FF9966FFCC66FFFF9900009900339900669900999900CC9900FF9933009933339933669933999933CC9933FF9966009966339966669966999966CC9966FF9999009999339999669999999999CC9999FF99CC0099CC3399CC6699CC9999CCCC99CCFF99FF0099FF3399FF6699FF9999FFCC99FFFFCC0000CC00
310
33CC0066CC0099CC00CCCC00FFCC3300CC3333CC3366CC3399CC33CCCC33FFCC6600CC6633CC6666CC6699CC66CCCC66FFCC9900CC9933CC9966CC9999CC99CCCC99FFCCCC00CCCC33CCCC66CCCC99CCCCCCCCCCFFCCFF00CCFF33CCFF66CCFF99CCFFCCCCFFFFFF0000FF0033FF0066FF0099FF00CCFF00FFFF3300FF3333
310
FF3366FF3399FF33CCFF33FFFF6600FF6633FF6666FF6699FF66CCFF66FFFF9900FF9933FF9966FF9999FF99CCFF99FFFFCC00FFCC33FFCC66FFCC99FFCCCCFFCCFFFFFF00FFFF33FFFF66FFFF99FFFFCCFFFFFF0000000D0D0D1A1A1A2828283535354343435050505D5D5D6B6B6B787878868686939393A1A1A1AEAEAEBB
310
BBBBC9C9C9D6D6D6E4E4E4F1F1F1FFFFFF00000000000000000000000000000000000000000000000000000000000008F1915C000001284944415478DAEDDCCB0D02310C054097E34BFA2F206D6C1BB91376974F0720BD791270F6C8DE380851F52FE90A4F36C0711C1D5AF74E2C40BF013A14A02F80EECE7C06F45DF4F519
310
0970B6C127910063BF566607AC5E3BE3F9163A02EBAC3D780436C13D02B19BE005B07257E1FD1818FB157C17E8DD011D78197A5D01008402F4EB0AF07D007A0600C85C04C6BD060000000000000000000000100650008C000000000000700CEA0000000000880548FDA92C00000000000000000000770100000000C804F0AD
310
300000000000700CEA00000000000000000000000000000000000000000000A40024FF9DDE770754FA0864D67F0640F204541901002522221299B94FC119BD07CC39831781F9AC7F0B64D75FB902770300889E811AC1F53B05AE3DC036F4D33C0046D653AC6B89D8290000000049454E44AE426082
  0
ENDSEC
  0
EOF
